0
SECTION
2
HEADER
9
$ACADVER
1
AC1015
9
$DWGCODEPAGE
3
ANSI_1252
9
$HANDSEED
5
191
9
$ANGBASE
50
0
9
$ANGDIR
70
0
9
$ATTMODE
70
1
9
$AUNITS
70
0
9
$AUPREC
70
0
9
$CECOLOR
62
256
9
$CELTSCALE
40
1
9
$CELTYPE
6
ByLayer
9
$CELWEIGHT
370
18
9
$CLAYER
8
0
9
$CMLJUST
70
0
9
$CMLSCALE
40
1
9
$CMLSTYLE
2
Standard
9
$DIMSTYLE
2
Standard
9
$TEXTSIZE
40
0.2
9
$TEXTSTYLE
7
Standard
9
$LUNITS
70
2
9
$LUPREC
70
4
9
$EXTNAMES
290
1
9
$INSUNITS
70
4
9
$LTSCALE
40
1
9
$LWDISPLAY
290
1
9
$PDMODE
70
0
9
$PDSIZE
40
0
9
$PLINEGEN
70
0
0
ENDSEC
0
SECTION
2
CLASSES
0
CLASS
1
RASTERVARIABLES
2
AcDbRasterVariables
3
ISM
90
0
280
0
281
0
0
ENDSEC
0
SECTION
2
TABLES
0
TABLE
2
VPORT
5
187
100
AcDbSymbolTable
0
VPORT
5
1
100
AcDbSymbolTableRecord
100
AcDbViewportTableRecord
2
*Active
70
0
10
0
20
0
11
1
21
1
12
-1
22
1
13
0
23
0
14
0.5
24
0.5
15
10
25
10
16
0
26
0
36
1
17
0
27
0
37
0
0
ENDTAB
0
TABLE
2
LTYPE
5
188
100
AcDbSymbolTable
0
LTYPE
5
14
100
AcDbSymbolTableRecord
100
AcDbLinetypeTableRecord
70
0
2
ByBlock
3

72
65
73
0
40
0
0
LTYPE
5
15
100
AcDbSymbolTableRecord
100
AcDbLinetypeTableRecord
70
0
2
ByLayer
3

72
65
73
0
40
0
0
LTYPE
5
16
100
AcDbSymbolTableRecord
100
AcDbLinetypeTableRecord
70
0
2
CONTINUOUS
3
Solid line
72
65
73
0
40
0
0
LTYPE
5
6A
100
AcDbSymbolTableRecord
100
AcDbLinetypeTableRecord
70
0
2
CENTER
3
____ _ ____ _ ____ _ ____
72
65
73
4
40
47.5
49
22
74
0
49
-8.5
74
0
49
8.5
74
0
49
-8.5
74
0
0
LTYPE
5
6B
100
AcDbSymbolTableRecord
100
AcDbLinetypeTableRecord
70
0
2
DASHED
3
__ __ __ __ __ __ __ __ __
72
65
73
2
40
25.72
49
12.86
74
0
49
-12.86
74
0
0
ENDTAB
0
TABLE
2
LAYER
5
189
100
AcDbSymbolTable
0
LAYER
5
10
100
AcDbSymbolTableRecord
100
AcDbLayerTableRecord
2
0
70
0
62
7
6
CONTINUOUS
290
1
370
-3
390
0
0
LAYER
5
6D
100
AcDbSymbolTableRecord
100
AcDbLayerTableRecord
2
81
70
0
62
-3
6
CONTINUOUS
290
1
370
-3
390
0
0
LAYER
5
6F
100
AcDbSymbolTableRecord
100
AcDbLayerTableRecord
2
80
70
0
62
-6
6
CONTINUOUS
290
1
370
-3
390
0
0
LAYER
5
74
100
AcDbSymbolTableRecord
100
AcDbLayerTableRecord
2
2
70
0
62
7
6
CONTINUOUS
290
1
370
-3
390
0
0
LAYER
5
78
100
AcDbSymbolTableRecord
100
AcDbLayerTableRecord
2
1
70
0
62
4
6
CONTINUOUS
290
1
370
-3
390
0
0
LAYER
5
86
100
AcDbSymbolTableRecord
100
AcDbLayerTableRecord
2
4
70
0
62
-2
6
CENTER
290
1
370
-3
390
0
0
LAYER
5
173
100
AcDbSymbolTableRecord
100
AcDbLayerTableRecord
2
SK2
70
0
62
7
6
CONTINUOUS
290
1
370
-3
390
0
0
LAYER
5
174
100
AcDbSymbolTableRecord
100
AcDbLayerTableRecord
2
SK1
70
0
62
4
6
CONTINUOUS
290
1
370
-3
390
0
0
LAYER
5
175
100
AcDbSymbolTableRecord
100
AcDbLayerTableRecord
2
SK4
70
0
62
2
6
CENTER
290
1
370
-3
390
0
0
LAYER
5
176
100
AcDbSymbolTableRecord
100
AcDbLayerTableRecord
2
SK6
70
0
62
5
6
CONTINUOUS
290
1
370
-3
390
0
0
ENDTAB
0
TABLE
2
STYLE
5
18a
100
AcDbSymbolTable
0
STYLE
5
11
100
AcDbSymbolTableRecord
100
AcDbTextStyleTableRecord
2
Standard
3
txt
70
0
71
0
40
0
41
1
42
0
50
0
0
STYLE
5
CF
100
AcDbSymbolTableRecord
100
AcDbTextStyleTableRecord
2
iso_b_vert
3
simplex.shx
70
0
71
0
40
0
41
1
42
0
50
0
0
STYLE
5
D0
100
AcDbSymbolTableRecord
100
AcDbTextStyleTableRecord
2
DWGDirectTextStyle
3
simplex
70
0
71
0
40
0
41
1
42
0
50
0
0
ENDTAB
0
TABLE
2
DIMSTYLE
5
18b
100
AcDbSymbolTable
100
AcDbDimStyleTable
0
DIMSTYLE
105
27
100
AcDbSymbolTableRecord
100
AcDbDimStyleTableRecord
2
Standard
70
0
3
<>
41
0.18
42
0.0625
44
0.18
140
0.18
147
0.09
73
0
74
0
77
1
271
2
275
0
278
52
280
0
340
11
0
ENDTAB
0
TABLE
2
VIEW
5
18c
100
AcDbSymbolTable
0
ENDTAB
0
TABLE
2
UCS
5
18d
100
AcDbSymbolTable
0
ENDTAB
0
TABLE
2
APPID
5
18e
100
AcDbSymbolTable
0
APPID
5
12
100
AcDbSymbolTableRecord
100
AcDbRegAppTableRecord
2
ACAD
70
0
0
ENDTAB
0
TABLE
2
BLOCK_RECORD
5
18f
100
AcDbSymbolTable
0
BLOCK_RECORD
5
1F
100
AcDbSymbolTableRecord
100
AcDbBlockTableRecord
2
*Model_Space
340
0
70
0
0
BLOCK_RECORD
5
1B
100
AcDbSymbolTableRecord
100
AcDbBlockTableRecord
2
*Paper_Space
340
0
70
0
0
BLOCK_RECORD
5
23
100
AcDbSymbolTableRecord
100
AcDbBlockTableRecord
2
*Paper_Space0
340
0
70
0
0
BLOCK_RECORD
5
D2
100
AcDbSymbolTableRecord
100
AcDbBlockTableRecord
2
DimnDraft3D1
340
0
70
0
0
BLOCK_RECORD
5
DC
100
AcDbSymbolTableRecord
100
AcDbBlockTableRecord
2
DimnDraft3D2
340
0
70
0
0
BLOCK_RECORD
5
E6
100
AcDbSymbolTableRecord
100
AcDbBlockTableRecord
2
DimnDraft3D3
340
0
70
0
0
BLOCK_RECORD
5
F0
100
AcDbSymbolTableRecord
100
AcDbBlockTableRecord
2
DimnDraft3D4
340
0
70
0
0
BLOCK_RECORD
5
FA
100
AcDbSymbolTableRecord
100
AcDbBlockTableRecord
2
DimnDraft3D5
340
0
70
0
0
BLOCK_RECORD
5
104
100
AcDbSymbolTableRecord
100
AcDbBlockTableRecord
2
DimnDraft3D6
340
0
70
0
0
BLOCK_RECORD
5
10F
100
AcDbSymbolTableRecord
100
AcDbBlockTableRecord
2
DimnDraft3D7
340
0
70
0
0
ENDTAB
0
ENDSEC
0
SECTION
2
BLOCKS
0
BLOCK
5
20
100
AcDbEntity
8
0
100
AcDbBlockBegin
2
*Model_Space
70
0
10
0
20
0
30
0
3
*Model_Space
0
ENDBLK
5
21
100
AcDbEntity
8
0
100
AcDbBlockEnd
0
BLOCK
5
1C
100
AcDbEntity
8
0
100
AcDbBlockBegin
2
*Paper_Space
70
0
10
0
20
0
30
0
3
*Paper_Space
0
ENDBLK
5
1D
100
AcDbEntity
8
0
100
AcDbBlockEnd
0
BLOCK
5
24
100
AcDbEntity
8
0
100
AcDbBlockBegin
2
*Paper_Space0
70
0
10
0
20
0
30
0
3
*Paper_Space0
0
ENDBLK
5
25
100
AcDbEntity
8
0
100
AcDbBlockEnd
0
BLOCK
5
D9
100
AcDbEntity
8
0
100
AcDbBlockBegin
2
DimnDraft3D1
70
0
10
0
20
0
30
0
3
DimnDraft3D1
0
MTEXT
5
D3
100
AcDbEntity
8
SK2
62
256
6
ByLayer
370
13
48
1
60
0
100
AcDbMText
10
25.526175
20
-13.438398
30
0
210
0
220
0
230
1
1
\W0.6791;61,79
40
3.5
41
0
44
1.084337
50
0
71
7
72
5
7
iso_b_vert
0
LINE
5
D4
100
AcDbEntity
8
SK2
62
256
6
ByLayer
370
13
48
1
60
0
100
AcDbLine
10
0
20
-1.5875
30
0
11
0
21
-16.313398
31
0
39
0
210
0
220
0
230
1
0
LINE
5
D5
100
AcDbEntity
8
SK2
62
256
6
ByLayer
370
13
48
1
60
0
100
AcDbLine
10
61.7873
20
-5.6875
30
0
11
61.7873
21
-16.313398
31
0
39
0
210
0
220
0
230
1
0
LINE
5
D6
100
AcDbEntity
8
SK2
62
256
6
ByLayer
370
13
48
1
60
0
100
AcDbLine
10
0
20
-14.313398
30
0
11
61.7873
21
-14.313398
31
0
39
0
210
0
220
0
230
1
0
SOLID
5
D7
100
AcDbEntity
8
SK2
62
256
6
ByLayer
370
13
48
1
60
0
100
AcDbTrace
10
0
20
-14.313398
30
0
11
3.499998
21
-13.852615
31
0
12
3.500002
22
-14.774182
32
0
13
0
23
-14.313398
33
0
39
0
210
0
220
0
230
1
0
SOLID
5
D8
100
AcDbEntity
8
SK2
62
256
6
ByLayer
370
13
48
1
60
0
100
AcDbTrace
10
61.7873
20
-14.313398
30
0
11
58.287302
21
-14.774182
31
0
12
58.287298
22
-13.852615
32
0
13
61.7873
23
-14.313398
33
0
39
0
210
0
220
0
230
1
0
ENDBLK
5
DA
100
AcDbEntity
8
0
100
AcDbBlockEnd
0
BLOCK
5
E3
100
AcDbEntity
8
0
100
AcDbBlockBegin
2
DimnDraft3D2
70
0
10
0
20
0
30
0
3
DimnDraft3D2
0
MTEXT
5
DD
100
AcDbEntity
8
SK2
62
256
6
ByLayer
370
13
48
1
60
0
100
AcDbMText
10
6.309521
20
-32.817985
30
0
210
0
220
0
230
1
1
\W0.6930;103,00
40
3.5
41
0
44
1.084337
50
0
71
7
72
5
7
iso_b_vert
0
LINE
5
DE
100
AcDbEntity
8
SK2
62
256
6
ByLayer
370
13
48
1
60
0
100
AcDbLine
10
-40
20
-6.5875
30
0
11
-40
21
-35.692985
31
0
39
0
210
0
220
0
230
1
0
LINE
5
DF
100
AcDbEntity
8
SK2
62
256
6
ByLayer
370
13
48
1
60
0
100
AcDbLine
10
63
20
-1.5875
30
0
11
63
21
-35.692985
31
0
39
0
210
0
220
0
230
1
0
LINE
5
E0
100
AcDbEntity
8
SK2
62
256
6
ByLayer
370
13
48
1
60
0
100
AcDbLine
10
-40
20
-33.692985
30
0
11
63
21
-33.692985
31
0
39
0
210
0
220
0
230
1
0
SOLID
5
E1
100
AcDbEntity
8
SK2
62
256
6
ByLayer
370
13
48
1
60
0
100
AcDbTrace
10
-40
20
-33.692985
30
0
11
-36.500002
21
-33.232202
31
0
12
-36.499998
22
-34.153769
32
0
13
-40
23
-33.692985
33
0
39
0
210
0
220
0
230
1
0
SOLID
5
E2
100
AcDbEntity
8
SK2
62
256
6
ByLayer
370
13
48
1
60
0
100
AcDbTrace
10
63
20
-33.692985
30
0
11
59.500002
21
-34.153769
31
0
12
59.499998
22
-33.232202
32
0
13
63
23
-33.692985
33
0
39
0
210
0
220
0
230
1
0
ENDBLK
5
E4
100
AcDbEntity
8
0
100
AcDbBlockEnd
0
BLOCK
5
ED
100
AcDbEntity
8
0
100
AcDbBlockBegin
2
DimnDraft3D3
70
0
10
0
20
0
30
0
3
DimnDraft3D3
0
MTEXT
5
E7
100
AcDbEntity
8
SK2
62
256
6
ByLayer
370
13
48
1
60
0
100
AcDbMText
10
37.699605
20
16.584119
30
0
210
0
220
0
230
1
1
\W0.7494;42,21
40
3.5
41
0
44
1.084337
50
0
71
7
72
5
7
iso_b_vert
0
LINE
5
E8
100
AcDbEntity
8
SK2
62
256
6
ByLayer
370
13
48
1
60
0
100
AcDbLine
10
20.79
20
5.6875
30
0
11
20.79
21
17.709119
31
0
39
0
210
0
220
0
230
1
0
LINE
5
E9
100
AcDbEntity
8
SK2
62
256
6
ByLayer
370
13
48
1
60
0
100
AcDbLine
10
63
20
1.5875
30
0
11
63
21
17.709119
31
0
39
0
210
0
220
0
230
1
0
LINE
5
EA
100
AcDbEntity
8
SK2
62
256
6
ByLayer
370
13
48
1
60
0
100
AcDbLine
10
20.79
20
15.709119
30
0
11
63
21
15.709119
31
0
39
0
210
0
220
0
230
1
0
SOLID
5
EB
100
AcDbEntity
8
SK2
62
256
6
ByLayer
370
13
48
1
60
0
100
AcDbTrace
10
20.79
20
15.709119
30
0
11
24.289998
21
16.169903
31
0
12
24.290002
22
15.248335
32
0
13
20.79
23
15.709119
33
0
39
0
210
0
220
0
230
1
0
SOLID
5
EC
100
AcDbEntity
8
SK2
62
256
6
ByLayer
370
13
48
1
60
0
100
AcDbTrace
10
63
20
15.709119
30
0
11
59.500002
21
15.248335
31
0
12
59.499998
22
16.169903
32
0
13
63
23
15.709119
33
0
39
0
210
0
220
0
230
1
0
ENDBLK
5
EE
100
AcDbEntity
8
0
100
AcDbBlockEnd
0
BLOCK
5
F7
100
AcDbEntity
8
0
100
AcDbBlockBegin
2
DimnDraft3D4
70
0
10
0
20
0
30
0
3
DimnDraft3D4
0
MTEXT
5
F1
100
AcDbEntity
8
SK2
62
256
6
ByLayer
370
13
48
1
60
0
100
AcDbMText
10
70.715636
20
-16.027503
30
0
210
0
220
0
230
1
1
\W0.6132;1,21
40
3.5
41
0
44
1.084337
50
0
71
7
72
5
7
iso_b_vert
0
LINE
5
F2
100
AcDbEntity
8
SK2
62
256
6
ByLayer
370
13
48
1
60
0
100
AcDbLine
10
63
20
-1.5875
30
0
11
63
21
-18.902503
31
0
39
0
210
0
220
0
230
1
0
LINE
5
F3
100
AcDbEntity
8
SK2
62
256
6
ByLayer
370
13
48
1
60
0
100
AcDbLine
10
61.7873
20
-5.6875
30
0
11
61.7873
21
-18.902503
31
0
39
0
210
0
220
0
230
1
0
LINE
5
F4
100
AcDbEntity
8
SK2
62
256
6
ByLayer
370
13
48
1
60
0
100
AcDbLine
10
53.0373
20
-16.902503
30
0
11
76.122215
21
-16.902503
31
0
39
0
210
0
220
0
230
1
0
SOLID
5
F5
100
AcDbEntity
8
SK2
62
256
6
ByLayer
370
13
48
1
60
0
100
AcDbTrace
10
63
20
-16.902503
30
0
11
66.499998
21
-16.441719
31
0
12
66.500002
22
-17.363287
32
0
13
63
23
-16.902503
33
0
39
0
210
0
220
0
230
1
0
SOLID
5
F6
100
AcDbEntity
8
SK2
62
256
6
ByLayer
370
13
48
1
60
0
100
AcDbTrace
10
61.7873
20
-16.902503
30
0
11
58.287302
21
-17.363287
31
0
12
58.287298
22
-16.441719
32
0
13
61.7873
23
-16.902503
33
0
39
0
210
0
220
0
230
1
0
ENDBLK
5
F8
100
AcDbEntity
8
0
100
AcDbBlockEnd
0
BLOCK
5
101
100
AcDbEntity
8
0
100
AcDbBlockBegin
2
DimnDraft3D5
70
0
10
0
20
0
30
0
3
DimnDraft3D5
0
MTEXT
5
FB
100
AcDbEntity
8
SK2
62
256
6
ByLayer
370
13
48
1
60
0
100
AcDbMText
10
3.666397
20
-22.468428
30
0
210
0
220
0
230
1
1
\W0.6501;101,79
40
3.5
41
0
44
1.084337
50
0
71
7
72
5
7
iso_b_vert
0
LINE
5
FC
100
AcDbEntity
8
SK2
62
256
6
ByLayer
370
13
48
1
60
0
100
AcDbLine
10
-40
20
-6.5875
30
0
11
-40
21
-25.343428
31
0
39
0
210
0
220
0
230
1
0
LINE
5
FD
100
AcDbEntity
8
SK2
62
256
6
ByLayer
370
13
48
1
60
0
100
AcDbLine
10
61.7873
20
-5.6875
30
0
11
61.7873
21
-25.343428
31
0
39
0
210
0
220
0
230
1
0
LINE
5
FE
100
AcDbEntity
8
SK2
62
256
6
ByLayer
370
13
48
1
60
0
100
AcDbLine
10
-40
20
-23.343428
30
0
11
61.7873
21
-23.343428
31
0
39
0
210
0
220
0
230
1
0
SOLID
5
FF
100
AcDbEntity
8
SK2
62
256
6
ByLayer
370
13
48
1
60
0
100
AcDbTrace
10
-40
20
-23.343428
30
0
11
-36.500002
21
-22.882645
31
0
12
-36.499998
22
-23.804212
32
0
13
-40
23
-23.343428
33
0
39
0
210
0
220
0
230
1
0
SOLID
5
100
100
AcDbEntity
8
SK2
62
256
6
ByLayer
370
13
48
1
60
0
100
AcDbTrace
10
61.7873
20
-23.343428
30
0
11
58.287302
21
-23.804212
31
0
12
58.287298
22
-22.882645
32
0
13
61.7873
23
-23.343428
33
0
39
0
210
0
220
0
230
1
0
ENDBLK
5
102
100
AcDbEntity
8
0
100
AcDbBlockEnd
0
BLOCK
5
10C
100
AcDbEntity
8
0
100
AcDbBlockBegin
2
DimnDraft3D6
70
0
10
0
20
0
30
0
3
DimnDraft3D6
0
MTEXT
5
105
100
AcDbEntity
8
SK2
62
256
6
ByLayer
370
13
48
1
60
0
100
AcDbMText
10
-50.375163
20
24.34918
30
0
210
0
220
0
230
1
1
\W0.6930;10,000
40
3.5
41
0
44
1.084337
50
90
71
7
72
5
7
iso_b_vert
0
MTEXT
5
106
100
AcDbEntity
8
SK2
62
256
6
ByLayer
370
13
48
1
60
0
100
AcDbMText
10
-50.375163
20
19.126524
30
0
210
0
220
0
230
1
1
%%c
40
3.5
41
0
44
1.084337
50
90
71
7
72
5
7
iso_b_vert
0
LINE
5
107
100
AcDbEntity
8
SK2
62
256
6
ByLayer
370
13
48
1
60
0
100
AcDbLine
10
-41.5875
20
-5
30
0
11
-50.625163
21
-5
31
0
39
0
210
0
220
0
230
1
0
LINE
5
108
100
AcDbEntity
8
SK2
62
256
6
ByLayer
370
13
48
1
60
0
100
AcDbLine
10
-41.5875
20
5
30
0
11
-50.625163
21
5
31
0
39
0
210
0
220
0
230
1
0
LINE
5
109
100
AcDbEntity
8
SK2
62
256
6
ByLayer
370
13
48
1
60
0
100
AcDbLine
10
-48.625163
20
-5
30
0
11
-48.625163
21
35.862338
31
0
39
0
210
0
220
0
230
1
0
SOLID
5
10A
100
AcDbEntity
8
SK2
62
256
6
ByLayer
370
13
48
1
60
0
100
AcDbTrace
10
-48.625163
20
-5
30
0
11
-49.085946
21
-1.500002
31
0
12
-48.164379
22
-1.499998
32
0
13
-48.625163
23
-5
33
0
39
0
210
0
220
0
230
1
0
SOLID
5
10B
100
AcDbEntity
8
SK2
62
256
6
ByLayer
370
13
48
1
60
0
100
AcDbTrace
10
-48.625163
20
5
30
0
11
-48.164379
21
1.500002
31
0
12
-49.085946
22
1.499998
32
0
13
-48.625163
23
5
33
0
39
0
210
0
220
0
230
1
0
ENDBLK
5
10D
100
AcDbEntity
8
0
100
AcDbBlockEnd
0
BLOCK
5
117
100
AcDbEntity
8
0
100
AcDbBlockBegin
2
DimnDraft3D7
70
0
10
0
20
0
30
0
3
DimnDraft3D7
0
MTEXT
5
110
100
AcDbEntity
8
2
62
256
6
ByLayer
370
13
48
1
60
0
100
AcDbMText
10
73.333343
20
22.042266
30
0
210
0
220
0
230
1
1
\W0.7317;8,200
40
3.5
41
0
44
1.084337
50
90
71
7
72
5
7
iso_b_vert
0
MTEXT
5
111
100
AcDbEntity
8
2
62
256
6
ByLayer
370
13
48
1
60
0
100
AcDbMText
10
73.333343
20
16.81961
30
0
210
0
220
0
230
1
1
%%c
40
3.5
41
0
44
1.084337
50
90
71
7
72
5
7
iso_b_vert
0
LINE
5
112
100
AcDbEntity
8
2
62
256
6
ByLayer
370
13
48
1
60
0
100
AcDbLine
10
63.3748
20
-4.1
30
0
11
77.083343
21
-4.1
31
0
39
0
210
0
220
0
230
1
0
LINE
5
113
100
AcDbEntity
8
2
62
256
6
ByLayer
370
13
48
1
60
0
100
AcDbLine
10
63.3748
20
4.1
30
0
11
77.083343
21
4.1
31
0
39
0
210
0
220
0
230
1
0
LINE
5
114
100
AcDbEntity
8
2
62
256
6
ByLayer
370
13
48
1
60
0
100
AcDbLine
10
75.083343
20
-4.1
30
0
11
75.083343
21
31.814635
31
0
39
0
210
0
220
0
230
1
0
SOLID
5
115
100
AcDbEntity
8
2
62
256
6
ByLayer
370
13
48
1
60
0
100
AcDbTrace
10
75.083343
20
-4.1
30
0
11
74.622559
21
-0.600002
31
0
12
75.544126
22
-0.599998
32
0
13
75.083343
23
-4.1
33
0
39
0
210
0
220
0
230
1
0
SOLID
5
116
100
AcDbEntity
8
2
62
256
6
ByLayer
370
13
48
1
60
0
100
AcDbTrace
10
75.083343
20
4.1
30
0
11
75.544126
21
0.600002
31
0
12
74.622559
22
0.599998
32
0
13
75.083343
23
4.1
33
0
39
0
210
0
220
0
230
1
0
ENDBLK
5
118
100
AcDbEntity
8
0
100
AcDbBlockEnd
0
ENDSEC
0
SECTION
2
ENTITIES
0
ARC
5
8E
100
AcDbEntity
8
1
62
256
6
ByLayer
370
18
48
1
60
0
100
AcDbCircle
39
0
10
-0.35
20
4.411611
30
0
40
0.350000000000001
210
0
220
0
230
-1
100
AcDbArc
50
269.96419
51
0
0
ARC
5
8F
100
AcDbEntity
8
1
62
256
6
ByLayer
370
18
48
1
60
0
100
AcDbCircle
39
0
10
-0.35
20
-4.411611
30
0
40
0.350000000000001
210
0
220
0
230
-1
100
AcDbArc
50
0
51
90.03581
0
ELLIPSE
5
90
100
AcDbEntity
8
1
62
256
6
ByLayer
370
13
48
1
60
0
100
AcDbEllipse
10
3.023016
20
-3.562064
30
0
11
0.0196636493095169
21
0.09804764604942
31
0
210
0
220
0
230
1
40
0.37381
41
0.489173538634361
42
2.03960180784235
0
ELLIPSE
5
91
100
AcDbEntity
8
1
62
256
6
ByLayer
370
13
48
1
60
0
100
AcDbEllipse
10
2.960254
20
-3.561857
30
0
11
-0.0208496755893933
21
0.0978023058410029
31
0
210
0
220
0
230
1
40
0.509378
41
0.486030193734158
42
1.86283421955663
0
POINT
5
6C
100
AcDbEntity
8
81
62
256
6
ByLayer
370
18
48
1
60
0
100
AcDbPoint
10
63
20
0
30
0
39
0
210
0
220
0
230
1
50
360
0
POINT
5
6E
100
AcDbEntity
8
80
62
256
6
ByLayer
370
18
48
1
60
0
100
AcDbPoint
10
0
20
0
30
0
39
0
210
0
220
0
230
1
50
360
0
POINT
5
70
100
AcDbEntity
8
SK2
62
256
6
ByLayer
370
18
48
1
60
1
100
AcDbPoint
10
-40
20
-5
30
0
39
0
210
0
220
0
230
1
50
360
0
POINT
5
72
100
AcDbEntity
8
SK2
62
256
6
ByLayer
370
18
48
1
60
1
100
AcDbPoint
10
-40
20
5
30
0
39
0
210
0
220
0
230
1
50
360
0
POINT
5
73
100
AcDbEntity
8
2
62
256
6
ByLayer
370
18
48
1
60
1
100
AcDbPoint
10
61.7873
20
-4.1
30
0
39
0
210
0
220
0
230
1
50
360
0
POINT
5
75
100
AcDbEntity
8
2
62
256
6
ByLayer
370
18
48
1
60
1
100
AcDbPoint
10
61.7873
20
4.1
30
0
39
0
210
0
220
0
230
1
50
360
0
SPLINE
5
92
100
AcDbEntity
8
1
62
256
6
ByLayer
370
18
48
1
60
0
100
AcDbSpline
70
4
71
3
72
28
73
24
40
0
40
0
40
0
40
0
40
0.0825321284115476
40
0.154087459518056
40
0.208189922419701
40
0.246482071460002
40
0.273581824437934
40
0.298257356645381
40
0.321262968995256
40
0.348365518357765
40
0.381345354686033
40
0.415973384485502
40
0.458665316752837
40
0.496085642815084
40
0.539704774645956
40
0.586408693671583
40
0.658269305429129
40
0.73843513516347
40
0.826108813520349
40
0.906024138342975
40
0.94028382538554
40
0.968554274772025
40
1
40
1
40
1
40
1
41
1
10
34.1270640097902
20
-3.87773518245672
30
0
41
1
10
34.4693807004479
20
-3.87801816682713
30
0
41
1
10
35.1084368050487
20
-3.87845416865352
30
0
41
1
10
35.9717105608202
20
-3.87871401746327
30
0
41
1
10
36.6515174057296
20
-3.87890229992035
30
0
41
1
10
37.1476717078515
20
-3.87966705752837
30
0
41
1
10
37.5186669631858
20
-3.87993554144617
30
0
41
1
10
37.8289053320602
20
-3.87985435829651
30
0
41
1
10
38.1390331068169
20
-3.8798614269997
30
0
41
1
10
38.4835922541805
20
-3.88027176097722
30
0
41
1
10
38.8764362259285
20
-3.8808593944992
30
0
41
1
10
39.3339305010443
20
-3.88099348519214
30
0
41
1
10
39.8098504773574
20
-3.88058175751326
30
0
41
1
10
40.323062131079
20
-3.88117987209512
30
0
41
1
10
40.8529123093543
20
-3.88220755156706
30
0
41
1
10
41.5256157177287
20
-3.88128414069706
30
0
41
1
10
42.3499064794006
20
-3.88303916205527
30
0
41
1
10
43.3441392928989
20
-3.88196205284862
30
0
41
1
10
44.3717487355204
20
-3.88445153478233
30
0
41
1
10
45.2090470809593
20
-3.88280800155303
30
0
41
1
10
45.7997372281199
20
-3.88432355391629
30
0
41
1
10
46.1895216336706
20
-3.88513740057297
30
0
41
1
10
46.4364749295332
20
-3.88512988054768
30
0
41
1
10
46.5663841340331
20
-3.88501712131699
30
0
0
SPLINE
5
93
100
AcDbEntity
8
1
62
256
6
ByLayer
370
18
48
1
60
0
100
AcDbSpline
70
4
71
3
72
25
73
21
40
0
40
0
40
0
40
0
40
0.0085631973022527
40
0.0497280109190939
40
0.115892035916133
40
0.202316899299033
40
0.316237530887643
40
0.421640040387945
40
0.51548950386444
40
0.565941553528842
40
0.613986431366982
40
0.656588458410365
40
0.696725811287925
40
0.748928989202831
40
0.806954681812655
40
0.852247277657443
40
0.891957340895511
40
0.936772686349269
40
0.984764223822192
40
1
40
1
40
1
40
1
41
1
10
46.5764223825302
20
3.88488896872255
30
0
41
1
10
46.5482628831139
20
3.88496774619804
30
0
41
1
10
46.3845094214594
20
3.88535746242991
30
0
41
1
10
45.9962876656803
20
3.88490330288659
30
0
41
1
10
45.3515773587602
20
3.882776423362
30
0
41
1
10
44.4623198024402
20
3.88451607145916
30
0
41
1
10
43.4429850009325
20
3.88169927118943
30
0
41
1
10
42.3986306594475
20
3.88325329858208
30
0
41
1
10
41.5659843328246
20
3.88130291270639
30
0
41
1
10
40.924588908099
20
3.88210302197251
30
0
41
1
10
40.4540858441085
20
3.88158361371154
30
0
41
1
10
40.0179767141935
20
3.88060663147351
30
0
41
1
10
39.5679942954005
20
3.88086972001113
30
0
41
1
10
39.0666158536262
20
3.88101517171197
30
0
41
1
10
38.547913825432
20
3.88038466819126
30
0
41
1
10
38.0713188821786
20
3.87977555865069
30
0
41
1
10
37.6377749924441
20
3.87994354213473
30
0
41
1
10
37.1985994556383
20
3.87976062280316
30
0
41
1
10
36.8381764872462
20
3.8791873984575
30
0
41
1
10
36.627314811018
20
3.87900234433124
30
0
41
1
10
36.5765068230439
20
3.87896451604328
30
0
0
SPLINE
5
94
100
AcDbEntity
8
1
62
256
6
ByLayer
370
18
48
1
60
0
100
AcDbSpline
70
4
71
3
72
23
73
19
40
0
40
0
40
0
40
0
40
0.0389935117973889
40
0.0816935485271894
40
0.134537658632422
40
0.188466680493542
40
0.298794784128577
40
0.407218636371076
40
0.530079806083172
40
0.588172877506158
40
0.632955690746057
40
0.674143062562376
40
0.732353633793227
40
0.790301519200338
40
0.834282708086696
40
0.881263116122546
40
0.941823047469164
40
1
40
1
40
1
40
1
41
1
10
19.3685270428219
20
3.87037776943379
30
0
41
1
10
19.2389168891904
20
3.8705303536251
30
0
41
1
10
18.967164548869
20
3.87063538162747
30
0
41
1
10
18.5184420051755
20
3.86902325261477
30
0
41
1
10
18.0200830542521
20
3.86886649869629
30
0
41
1
10
17.2963111896802
20
3.86982246058321
30
0
41
1
10
16.3860055850981
20
3.8680690117526
30
0
41
1
10
15.2523268172276
20
3.86517147446247
30
0
41
1
10
14.2849754854608
20
3.86604783883425
30
0
41
1
10
13.5354772502593
20
3.86600560719606
30
0
41
1
10
13.0551087257547
20
3.86539418253997
30
0
41
1
10
12.5743599516644
20
3.86537519425878
30
0
41
1
10
12.0497673243261
20
3.86523200190024
30
0
41
1
10
11.5155840910117
20
3.86448467634776
30
0
41
1
10
11.0197553597329
20
3.86395452665377
30
0
41
1
10
10.5140596751876
20
3.86400121809834
30
0
41
1
10
9.9636081054652
20
3.86351686012921
30
0
41
1
10
9.57165461339176
20
3.86262655223697
30
0
41
1
10
9.38061599483967
20
3.86126951082059
30
0
0
SPLINE
5
95
100
AcDbEntity
8
1
62
256
6
ByLayer
370
18
48
1
60
0
100
AcDbSpline
70
4
71
3
72
28
73
24
40
0
40
0
40
0
40
0
40
0.0701176030071388
40
0.130200336847982
40
0.182962472499799
40
0.231896976644705
40
0.277457547134288
40
0.318253469560676
40
0.352574448144884
40
0.388838790922467
40
0.434203439291969
40
0.472914041556941
40
0.501515174569132
40
0.535398021812844
40
0.578179927423609
40
0.652946470762179
40
0.719552524501487
40
0.783603784444499
40
0.850054786682946
40
0.89297138700191
40
0.935024616862187
40
0.969005214797683
40
1
40
1
40
1
40
1
41
1
10
6.85239616470088
20
-3.86079056802723
30
0
41
1
10
7.13418342840026
20
-3.85896915993126
30
0
41
1
10
7.66274243681823
20
-3.85702569146892
30
0
41
1
10
8.43410073182926
20
-3.85036176285331
30
0
41
1
10
9.10228853924576
20
-3.86011204420936
30
0
41
1
10
9.7093012557817
20
-3.86298415033144
30
0
41
1
10
10.2728219106341
20
-3.86398950063875
30
0
41
1
10
10.7780398014742
20
-3.86389256304707
30
0
41
1
10
11.2446840265413
20
-3.86418143664849
30
0
41
1
10
11.7302895757157
20
-3.86476709726705
30
0
41
1
10
12.2345839343227
20
-3.86536522818685
30
0
41
1
10
12.7066678031521
20
-3.86535226850148
30
0
41
1
10
13.1307059813906
20
-3.86546924186624
30
0
41
1
10
13.5716020815372
20
-3.86601844680698
30
0
41
1
10
14.2034961448895
20
-3.86618392522297
30
0
41
1
10
14.9757527654172
20
-3.86433645110867
30
0
41
1
10
15.8344638947702
20
-3.86792868435447
30
0
41
1
10
16.6586971665629
20
-3.86786758018602
30
0
41
1
10
17.3856957872151
20
-3.86984199919294
30
0
41
1
10
18.0200931384661
20
-3.86883703463093
30
0
41
1
10
18.5184398294854
20
-3.86902941725208
30
0
41
1
10
18.9670135978948
20
-3.87063356587211
30
0
41
1
10
19.2386142538929
20
-3.87053009094632
30
0
41
1
10
19.3680734147551
20
-3.87037777630343
30
0
0
SPLINE
5
96
100
AcDbEntity
8
1
62
256
6
ByLayer
370
18
48
1
60
0
100
AcDbSpline
70
4
71
1
72
4
73
2
40
0
40
0
40
1
40
1
41
1
10
61.3131471291274
20
-3.89469976623948
30
0
41
1
10
61.6111734342394
20
-3.89435359485469
30
0
0
SPLINE
5
97
100
AcDbEntity
8
1
62
256
6
ByLayer
370
13
48
1
60
0
100
AcDbSpline
70
4
71
3
72
8
73
4
40
0
40
0
40
0
40
0
40
1
40
1
40
1
40
1
41
1
10
3.02315168360846
20
-3.47206142937298
30
0
41
1
10
2.98695766473188
20
-3.4677979150666
30
0
41
1
10
2.95167309315448
20
-3.47056095649464
30
0
41
1
10
2.91854782148914
20
-3.48034138346992
30
0
0
SPLINE
5
98
100
AcDbEntity
8
1
62
256
6
ByLayer
370
18
48
1
60
0
100
AcDbSpline
70
4
71
3
72
8
73
4
40
0
40
0
40
0
40
0
40
1
40
1
40
1
40
1
41
1
10
62.9927306429271
20
-0.1059948029108
30
0
41
1
10
62.9929846941673
20
-0.0870905543425238
30
0
41
1
10
62.9955847324837
20
-0.0646527244289814
30
0
41
1
10
62.9997605336063
20
-0.0404367913385499
30
0
0
SPLINE
5
99
100
AcDbEntity
8
1
62
256
6
ByLayer
370
18
48
1
60
0
100
AcDbSpline
70
4
71
3
72
8
73
4
40
0
40
0
40
0
40
0
40
1
40
1
40
1
40
1
41
1
10
61.6105101631854
20
4.09251006480989
30
0
41
1
10
61.4363753027545
20
4.09735767830375
30
0
41
1
10
61.2622513638667
20
4.09971034223798
30
0
41
1
10
61.0880877329319
20
4.09957198216497
30
0
0
SPLINE
5
9A
100
AcDbEntity
8
1
62
256
6
ByLayer
370
18
48
1
60
0
100
AcDbSpline
70
4
71
3
72
46
73
42
40
0
40
0
40
0
40
0
40
0.0227999650944068
40
0.0227999650944068
40
0.0840894807770642
40
0.0840894807770642
40
0.114734238618393
40
0.114734238618393
40
0.145378996459722
40
0.145378996459722
40
0.206668512142379
40
0.206668512142379
40
0.237313269983708
40
0.237313269983708
40
0.267958027825037
40
0.267958027825037
40
0.329247543507696
40
0.329247543507696
40
0.359892301349025
40
0.359892301349025
40
0.390537059190353
40
0.390537059190353
40
0.513116090555669
40
0.513116090555669
40
0.574405606238327
40
0.574405606238327
40
0.635695121920985
40
0.635695121920985
40
0.666339879762314
40
0.666339879762314
40
0.696984637603643
40
0.696984637603643
40
0.758274153286302
40
0.758274153286302
40
0.88085318465162
40
0.88085318465162
40
0.911497942492949
40
0.911497942492949
40
0.942142700334279
40
0.942142700334279
40
1
40
1
40
1
40
1
41
1
10
36.5716220274235
20
-3.88994184579599
30
0
41
1
10
36.3461446775772
20
-3.9222409836909
30
0
41
1
10
36.1206773362964
20
-3.95057616763521
30
0
41
1
10
35.288702451173
20
-4.04012114451467
30
0
41
1
10
34.6814869184732
20
-4.0761728896735
30
0
41
1
10
33.7658241088434
20
-4.08460958686743
30
0
41
1
10
33.4598137462331
20
-4.07981961254885
30
0
41
1
10
32.8455565830501
20
-4.05478796132627
30
0
41
1
10
32.5384844367607
20
-4.03458609475052
30
0
41
1
10
31.6188871724097
20
-3.95150303492582
30
0
41
1
10
31.0070317842233
20
-3.86604389459887
30
0
41
1
10
30.0871679615923
20
-3.6951938466301
30
0
41
1
10
29.7799031636479
20
-3.63104733434977
30
0
41
1
10
29.1656382781795
20
-3.4893324030763
30
0
41
1
10
28.8590120100113
20
-3.41188500830435
30
0
41
1
10
27.9396829839599
20
-3.16103423385348
30
0
41
1
10
27.3276993897855
20
-2.96886609137067
30
0
41
1
10
26.4069492495369
20
-2.64894769288881
30
0
41
1
10
26.0992173857728
20
-2.53677769333362
30
0
41
1
10
25.486644889144
20
-2.30431567667193
30
0
41
1
10
25.1813374568988
20
-2.18392098626657
30
0
41
1
10
23.6580111024833
20
-1.56453216471076
30
0
41
1
10
22.4501486062328
20
-1.01212834946301
30
0
41
1
10
20.6255545640595
20
-0.158648702540063
30
0
41
1
10
20.01535185587
20
0.130248607839661
30
0
41
1
10
18.7856948644645
20
0.705504515702216
30
0
41
1
10
18.17305885665
20
0.989054889616256
30
0
41
1
10
17.2538977172614
20
1.39979237476018
30
0
41
1
10
16.947501722705
20
1.53439730155853
30
0
41
1
10
16.3340017279986
20
1.79758924774856
30
0
41
1
10
16.0263428371071
20
1.92637271864692
30
0
41
1
10
15.1055962137119
20
2.30000874603914
30
0
41
1
10
14.4960338946695
20
2.53192168876873
30
0
41
1
10
12.6725522107472
20
3.1644544406054
30
0
41
1
10
11.4640158187804
20
3.50192420689012
30
0
41
1
10
9.93853506478075
20
3.78705101383093
30
0
41
1
10
9.63267969414179
20
3.83724612024574
30
0
41
1
10
9.01884736735272
20
3.92328581374997
30
0
41
1
10
8.71112082713319
20
3.95905053472393
30
0
41
1
10
7.82679283351192
20
4.04019896107624
30
0
41
1
10
7.25165507966452
20
4.06631380980559
30
0
41
1
10
6.67737512388024
20
4.06556049322049
30
0
0
SPLINE
5
9B
100
AcDbEntity
8
1
62
256
6
ByLayer
370
18
48
1
60
0
100
AcDbSpline
70
4
71
3
72
8
73
4
40
0
40
0
40
0
40
0
40
1
40
1
40
1
40
1
41
1
10
62.9997605336069
20
-0.0404367913372141
30
0
41
1
10
63.000080001237
20
-0.0134591015877277
30
0
41
1
10
63.0000796117266
20
0.0134919940889233
30
0
41
1
10
62.999760533607
20
0.0404367913343435
30
0
0
SPLINE
5
9C
100
AcDbEntity
8
1
62
256
6
ByLayer
370
18
48
1
60
0
100
AcDbSpline
70
4
71
3
72
10
73
6
40
0
40
0
40
0
40
0
40
0.5
40
0.5
40
1
40
1
40
1
40
1
41
1
10
61.7729738340554
20
-3.98820417761703
30
0
41
1
10
61.9471928123948
20
-3.48945306814633
30
0
41
1
10
62.1270387373096
20
-2.98867145806716
30
0
41
1
10
62.4929127717191
20
-1.99187534586937
30
0
41
1
10
62.6791844296114
20
-1.49525399167121
30
0
41
1
10
62.8665100418246
20
-1.00179284445764
30
0
0
SPLINE
5
9D
100
AcDbEntity
8
1
62
256
6
ByLayer
370
13
48
1
60
0
100
AcDbSpline
70
4
71
3
72
12
73
8
40
0
40
0
40
0
40
0
40
0.25
40
0.25
40
0.5
40
0.5
40
1
40
1
40
1
40
1
41
1
10
2.91854782148914
20
-3.48034138346992
30
0
41
1
10
2.89904639458348
20
-3.48609929192398
30
0
41
1
10
2.88144817054541
20
-3.49320012385732
30
0
41
1
10
2.84957153337342
20
-3.50969357943362
30
0
41
1
10
2.83537250998609
20
-3.51912390712471
30
0
41
1
10
2.79967845667835
20
-3.54899978509451
30
0
41
1
10
2.78393301819585
20
-3.57180192224445
30
0
41
1
10
2.77696615016555
20
-3.59520895750558
30
0
0
SPLINE
5
9E
100
AcDbEntity
8
1
62
256
6
ByLayer
370
18
48
1
60
0
100
AcDbSpline
70
4
71
3
72
36
73
32
40
0
40
0
40
0
40
0
40
0.250000000000003
40
0.250000000000003
40
0.312500000000004
40
0.312500000000004
40
0.375000000000005
40
0.375000000000005
40
0.500000000000001
40
0.500000000000001
40
0.562499999999999
40
0.562499999999999
40
0.624999999999996
40
0.624999999999996
40
0.749999999999998
40
0.749999999999998
40
0.812499999999999
40
0.812499999999999
40
0.843749999999999
40
0.843749999999999
40
0.851562500000002
40
0.851562500000002
40
0.859375000000005
40
0.859375000000005
40
0.863281250000004
40
0.863281250000004
40
0.867187500000004
40
0.867187500000004
40
0.875000000000004
40
0.875000000000004
40
1
40
1
40
1
40
1
41
1
10
57.7053555832517
20
1.08630331701099
30
0
41
1
10
58.0485556389318
20
0.835365843979389
30
0
41
1
10
58.4040322077773
20
0.621254901761887
30
0
41
1
10
58.8648409064597
20
0.403001152177666
30
0
41
1
10
58.958038298909
20
0.361790195668363
30
0
41
1
10
59.1441352137198
20
0.285476077481178
30
0
41
1
10
59.2372385123374
20
0.250265074236353
30
0
41
1
10
59.516718126274
20
0.153749276428584
30
0
41
1
10
59.7032638458604
20
0.101544835651396
30
0
41
1
10
59.9834688457968
20
0.0439965876555561
30
0
41
1
10
60.076934357756
20
0.0282435922084119
30
0
41
1
10
60.2640026391085
20
0.0041110354390526
30
0
41
1
10
60.3578631158287
20
-0.0042870900690275
30
0
41
1
10
60.6377752897696
20
-0.0172001420889387
30
0
41
1
10
60.821104347378
20
-0.0096565460029865
30
0
41
1
10
61.0903125225186
20
0.0301571770957878
30
0
41
1
10
61.1791510522153
20
0.0482462963245496
30
0
41
1
10
61.3096305435379
20
0.0830930345502452
30
0
41
1
10
61.3527202976883
20
0.0960077033373636
30
0
41
1
10
61.4059467391218
20
0.113823594873821
30
0
41
1
10
61.4167694685308
20
0.117029071870689
30
0
41
1
10
61.4373927187579
20
0.125558806382912
30
0
41
1
10
61.4469145297053
20
0.132315131929431
30
0
41
1
10
61.4566324039734
20
0.147495226408608
30
0
41
1
10
61.4591047701658
20
0.153480834441979
30
0
41
1
10
61.4616813538941
20
0.166441459945645
30
0
41
1
10
61.4621380336324
20
0.173354202893989
30
0
41
1
10
61.4635591425844
20
0.193968843935267
30
0
41
1
10
61.4647885106946
20
0.207617116737112
30
0
41
1
10
61.4822006869733
20
0.440810427225586
30
0
41
1
10
61.4792102706124
20
0.666768993674992
30
0
41
1
10
61.463041255151
20
0.892512047902841
30
0
0
SPLINE
5
9F
100
AcDbEntity
8
1
62
256
6
ByLayer
370
18
48
1
60
0
100
AcDbSpline
70
4
71
3
72
10
73
6
40
0
40
0
40
0
40
0
40
0.5
40
0.5
40
1
40
1
40
1
40
1
41
1
10
62.9997605336075
20
0.0404367913347983
30
0
41
1
10
62.9967197689355
20
0.0240979754866828
30
0
41
1
10
62.992038032136
20
0.0061639631457524
30
0
41
1
10
62.9796447475645
20
-0.0284853346294369
30
0
41
1
10
62.9720251064035
20
-0.0448117185872263
30
0
41
1
10
62.9641439591553
20
-0.0577219195298824
30
0
0
SPLINE
5
A0
100
AcDbEntity
8
1
62
256
6
ByLayer
370
18
48
1
60
0
100
AcDbSpline
70
4
71
3
72
8
73
4
40
0
40
0
40
0
40
0
40
1
40
1
40
1
40
1
41
1
10
61.6517520478919
20
-3.9855513928004
30
0
41
1
10
61.6380315202409
20
-4.02123841387873
30
0
41
1
10
61.6242843020369
20
-4.05689135700129
30
0
41
1
10
61.6105101631854
20
-4.09251006480991
30
0
0
SPLINE
5
A1
100
AcDbEntity
8
1
62
256
6
ByLayer
370
18
48
1
60
0
100
AcDbSpline
70
4
71
3
72
8
73
4
40
0
40
0
40
0
40
0
40
1
40
1
40
1
40
1
41
1
10
2.78388552423107
20
-3.61618964976967
30
0
41
1
10
2.77932300414801
20
-3.6094266287775
30
0
41
1
10
2.77696510848929
20
-3.60244008929715
30
0
41
1
10
2.77696615016561
20
-3.595208957502
30
0
0
SPLINE
5
A2
100
AcDbEntity
8
1
62
256
6
ByLayer
370
18
48
1
60
0
100
AcDbSpline
70
4
71
3
72
8
73
4
40
0
40
0
40
0
40
0
40
1
40
1
40
1
40
1
41
1
10
62.8665100418246
20
-1.00179284445761
30
0
41
1
10
62.9128263574726
20
-0.811402177703087
30
0
41
1
10
62.9485036180088
20
-0.628370140511151
30
0
41
1
10
62.9712102291277
20
-0.448005254488407
30
0
0
SPLINE
5
A3
100
AcDbEntity
8
1
62
256
6
ByLayer
370
18
48
1
60
0
100
AcDbSpline
70
4
71
3
72
8
73
4
40
0
40
0
40
0
40
0
40
1
40
1
40
1
40
1
41
1
10
62.9712102291277
20
0.448005254487896
30
0
41
1
10
62.983664974432
20
0.33370314663523
30
0
41
1
10
62.9912028580084
20
0.219679057471808
30
0
41
1
10
62.992730642927
20
0.105994802910942
30
0
0
SPLINE
5
A4
100
AcDbEntity
8
1
62
256
6
ByLayer
370
18
48
1
60
0
100
AcDbSpline
70
4
71
3
72
50
73
46
40
0
40
0
40
0
40
0
40
0.033069876014216
40
0.033069876014216
40
0.066139752028432
40
0.066139752028432
40
0.132279504056865
40
0.132279504056865
40
0.165349380071082
40
0.165349380071082
40
0.198419256085299
40
0.198419256085299
40
0.264559008113732
40
0.264559008113732
40
0.297628884127949
40
0.297628884127949
40
0.330698760142165
40
0.330698760142165
40
0.396838512170598
40
0.396838512170598
40
0.429908388184815
40
0.429908388184815
40
0.462978264199032
40
0.462978264199032
40
0.529118016227465
40
0.529118016227465
40
0.562187892241682
40
0.562187892241682
40
0.595257768255898
40
0.595257768255898
40
0.66139752028433
40
0.66139752028433
40
0.694467396298547
40
0.694467396298547
40
0.727537272312764
40
0.727537272312764
40
0.76060714832698
40
0.76060714832698
40
0.793677024341197
40
0.793677024341197
40
0.925956528398062
40
0.925956528398062
40
0.992096280426495
40
0.992096280426495
40
1
40
1
40
1
40
1
41
1
10
61.6105101631853
20
-4.09251006480989
30
0
41
1
10
61.3041198671717
20
-4.10103944100533
30
0
41
1
10
60.997853020024
20
-4.10184236697685
30
0
41
1
10
60.3850146978248
20
-4.08806508342704
30
0
41
1
10
60.0781813011158
20
-4.07346332564629
30
0
41
1
10
59.1583198069117
20
-4.00679695255977
30
0
41
1
10
58.5470749537827
20
-3.93204910837432
30
0
41
1
10
57.6296757366135
20
-3.77671550014688
30
0
41
1
10
57.3237715228526
20
-3.71774572869282
30
0
41
1
10
56.7110707666142
20
-3.58594754186879
30
0
41
1
10
56.4039946161369
20
-3.51304154401276
30
0
41
1
10
55.4849251832739
20
-3.27546821864823
30
0
41
1
10
54.8738570895345
20
-3.09174452277907
30
0
41
1
10
53.9559410923908
20
-2.78340436234478
30
0
41
1
10
53.6497645490512
20
-2.67514873127652
30
0
41
1
10
53.0363857847247
20
-2.44858012413766
30
0
41
1
10
52.7296756360845
20
-2.33040556003903
30
0
41
1
10
51.8113519856849
20
-1.96417340737014
30
0
41
1
10
51.2002619701624
20
-1.70420289402765
30
0
41
1
10
50.2816810461277
20
-1.29752923692416
30
0
41
1
10
49.9749035401672
20
-1.15903576612047
30
0
41
1
10
49.3614156444481
20
-0.878092883099043
30
0
41
1
10
49.0552363579449
20
-0.735878563921602
30
0
41
1
10
48.1372660374661
20
-0.306388828226858
30
0
41
1
10
47.526051099557
20
-0.0162494420203529
30
0
41
1
10
46.6067998669763
20
0.417072354609928
30
0
41
1
10
46.2996394122193
20
0.561291737815708
30
0
41
1
10
45.6866935382217
20
0.846436272711372
30
0
41
1
10
45.3806578639652
20
0.987499523603788
30
0
41
1
10
44.4628682853792
20
1.40412543573189
30
0
41
1
10
43.8514233537456
20
1.67310314597643
30
0
41
1
10
42.9311905207293
20
2.05601184438066
30
0
41
1
10
42.6242804376407
20
2.18003829648654
30
0
41
1
10
42.0117488413661
20
2.41889320691601
30
0
41
1
10
41.7058071006618
20
2.53386830937029
30
0
41
1
10
41.0939803307595
20
2.75393532700659
30
0
41
1
10
40.7880906219722
20
2.85901668920775
30
0
41
1
10
40.1756472905258
20
3.05815297502031
30
0
41
1
10
39.8687668254554
20
3.15231741856286
30
0
41
1
10
38.3350968290067
20
3.59249478169983
30
0
41
1
10
37.1255920593915
20
3.8411780966338
30
0
41
1
10
35.308577029077
20
4.0385873083026
30
0
41
1
10
34.7024532699454
20
4.07522228085784
30
0
41
1
10
34.0207102422007
20
4.08233630160723
30
0
41
1
10
33.9478984133467
20
4.08266356663978
30
0
41
1
10
33.875042523648
20
4.08255719803947
30
0
0
SPLINE
5
A5
100
AcDbEntity
8
1
62
256
6
ByLayer
370
18
48
1
60
0
100
AcDbSpline
70
4
71
3
72
14
73
10
40
0
40
0
40
0
40
0
40
0.0032749845927754
40
0.0032749845927754
40
0.145664272508093
40
0.145664272508093
40
0.430442848338728
40
0.430442848338728
40
1
40
1
40
1
40
1
41
1
10
9.34491568445381
20
-3.87757194121912
30
0
41
1
10
9.33785969083098
20
-3.87856796919235
30
0
41
1
10
9.33080346673327
20
-3.87956016105446
30
0
41
1
10
9.01694737556201
20
-3.92351995956651
30
0
41
1
10
8.70938338939345
20
-3.95923916863981
30
0
41
1
10
7.79057803354192
20
-4.04346347167834
30
0
41
1
10
7.18149746702926
20
-4.06936467129535
30
0
41
1
10
5.3570357482061
20
-4.05666090245018
30
0
41
1
10
4.14432572530018
20
-3.92751070127053
30
0
41
1
10
2.91652791999556
20
-3.68333796247774
30
0
0
SPLINE
5
A6
100
AcDbEntity
8
1
62
256
6
ByLayer
370
18
48
1
60
0
100
AcDbSpline
70
4
71
3
72
10
73
6
40
0
40
0
40
0
40
0
40
0.5
40
0.5
40
1
40
1
40
1
40
1
41
1
10
61.7729738340553
20
3.98820417761703
30
0
41
1
10
61.9471772285468
20
3.48949768131953
30
0
41
1
10
62.1270065791187
20
2.98876097694338
30
0
41
1
10
62.4928467480155
20
1.9920533166445
30
0
41
1
10
62.6790850830334
20
1.49551569467977
30
0
41
1
10
62.8665100418246
20
1.00179284445758
30
0
0
SPLINE
5
A7
100
AcDbEntity
8
1
62
256
6
ByLayer
370
18
48
1
60
0
100
AcDbSpline
70
4
71
3
72
94
73
90
40
0
40
0
40
0
40
0
40
0.0281912918403541
40
0.0281912918403541
40
0.0708725515795438
40
0.0708725515795438
40
0.092213181449138
40
0.092213181449138
40
0.113553811318732
40
0.113553811318732
40
0.134894441188327
40
0.134894441188327
40
0.156235071057921
40
0.156235071057921
40
0.198916330797109
40
0.198916330797109
40
0.220256960666704
40
0.220256960666704
40
0.241597590536298
40
0.241597590536298
40
0.262938220405892
40
0.262938220405892
40
0.284278850275487
40
0.284278850275487
40
0.305619480145081
40
0.305619480145081
40
0.326960110014675
40
0.326960110014675
40
0.34830073988427
40
0.34830073988427
40
0.369641369753864
40
0.369641369753864
40
0.390981999623458
40
0.390981999623458
40
0.412322629493052
40
0.412322629493052
40
0.433663259362647
40
0.433663259362647
40
0.455003889232241
40
0.455003889232241
40
0.476344519101835
40
0.476344519101835
40
0.49768514897143
40
0.49768514897143
40
0.540366408710618
40
0.540366408710618
40
0.561707038580213
40
0.561707038580213
40
0.583047668449808
40
0.583047668449808
40
0.604388298319403
40
0.604388298319403
40
0.625728928188998
40
0.625728928188998
40
0.647069558058592
40
0.647069558058592
40
0.668410187928187
40
0.668410187928187
40
0.689750817797782
40
0.689750817797782
40
0.711091447667377
40
0.711091447667377
40
0.732432077536972
40
0.732432077536972
40
0.753772707406566
40
0.753772707406566
40
0.775113337276161
40
0.775113337276161
40
0.796453967145756
40
0.796453967145756
40
0.817794597015351
40
0.817794597015351
40
0.839135226884946
40
0.839135226884946
40
0.860475856754541
40
0.860475856754541
40
0.881816486624135
40
0.881816486624135
40
0.90315711649373
40
0.90315711649373
40
0.924497746363325
40
0.924497746363325
40
0.945838376232921
40
0.945838376232921
40
0.967179006102516
40
0.967179006102516
40
0.988519635972111
40
0.988519635972111
40
1
40
1
40
1
40
1
41
1
10
52.9264371593072
20
-2.88180168446294
30
0
41
1
10
52.6105124317585
20
-2.97600173681082
30
0
41
1
10
52.2944638184271
20
-3.06420834847353
30
0
41
1
10
51.4998761123481
20
-3.27367170802267
30
0
41
1
10
51.0194371642576
20
-3.38621614059559
30
0
41
1
10
50.3039308409276
20
-3.53008607112963
30
0
41
1
10
50.066141106319
20
-3.57407295932512
30
0
41
1
10
49.5911822879564
20
-3.65245034671835
30
0
41
1
10
49.3539654999583
20
-3.68643701020261
30
0
41
1
10
48.8798641552499
20
-3.74690119221805
30
0
41
1
10
48.6430099699206
20
-3.77356282422966
30
0
41
1
10
48.1698257715314
20
-3.81882363044289
30
0
41
1
10
47.9335025445783
20
-3.8373023966814
30
0
41
1
10
47.2238709617966
20
-3.87858229163135
30
0
41
1
10
46.7503644508655
20
-3.89009450089546
30
0
41
1
10
46.0392627619653
20
-3.87965928748846
30
0
41
1
10
45.8017993197054
20
-3.87099126042998
30
0
41
1
10
45.3258877716283
20
-3.84576577042361
30
0
41
1
10
45.0875361975332
20
-3.82950431136561
30
0
41
1
10
44.6098802351439
20
-3.78791053056486
30
0
41
1
10
44.3703624826015
20
-3.76251239026888
30
0
41
1
10
43.8911220780444
20
-3.70211239043812
30
0
41
1
10
43.6516668424067
20
-3.66766556322858
30
0
41
1
10
43.173035406023
20
-3.59194223785047
30
0
41
1
10
42.9338735445365
20
-3.55015396823202
30
0
41
1
10
42.4558895941927
20
-3.45765889987723
30
0
41
1
10
42.217065331241
20
-3.40667231095259
30
0
41
1
10
41.7388346029897
20
-3.29773566977281
30
0
41
1
10
41.4995700828296
20
-3.24021458654772
30
0
41
1
10
41.0205957460605
20
-3.11752417983718
30
0
41
1
10
40.7806856431636
20
-3.05227628970812
30
0
41
1
10
40.3015235815577
20
-2.9138774730431
30
0
41
1
10
40.0621874250716
20
-2.8411556585896
30
0
41
1
10
39.5836148065545
20
-2.69095794929794
30
0
41
1
10
39.3444208206661
20
-2.61304014204174
30
0
41
1
10
38.8662454611339
20
-2.45077830934594
30
0
41
1
10
38.6273430336789
20
-2.36617111659535
30
0
41
1
10
38.1491745348892
20
-2.19187051171113
30
0
41
1
10
37.909905442369
20
-2.1026756761087
30
0
41
1
10
37.4308133584501
20
-1.91957021838982
30
0
41
1
10
37.1907482753815
20
-1.82554092648957
30
0
41
1
10
36.7114690224685
20
-1.63292438640545
30
0
41
1
10
36.4722688831695
20
-1.53430658325459
30
0
41
1
10
35.7545953039502
20
-1.23552614306624
30
0
41
1
10
35.2763591931052
20
-1.03100052866307
30
0
41
1
10
34.5591072005031
20
-0.715957207528049
30
0
41
1
10
34.3199009279457
20
-0.610137340035521
30
0
41
1
10
33.84079260547
20
-0.397580968562295
30
0
41
1
10
33.6005471282951
20
-0.290626071535399
30
0
41
1
10
33.1217443184935
20
-0.0767236991515006
30
0
41
1
10
32.8831186890447
20
0.0305117513244113
30
0
41
1
10
32.406622632217
20
0.244208622344502
30
0
41
1
10
32.1687146881337
20
0.350528761497117
30
0
41
1
10
31.6935500362521
20
0.561448574012104
30
0
41
1
10
31.4562893037139
20
0.665963815982451
30
0
41
1
10
30.98241889278
20
0.873721532278012
30
0
41
1
10
30.7458484114974
20
0.977162731185899
30
0
41
1
10
30.2725538097642
20
1.18096805878614
30
0
41
1
10
30.035889473031
20
1.28136137518251
30
0
41
1
10
29.562392146117
20
1.47861069717308
30
0
41
1
10
29.3255997289451
20
1.57564717236988
30
0
41
1
10
28.852044189317
20
1.76729491776086
30
0
41
1
10
28.615138210735
20
1.8616152757188
30
0
41
1
10
28.1403874347451
20
2.04517071907259
30
0
41
1
10
27.9024748325739
20
2.13404446417141
30
0
41
1
10
27.4259917765417
20
2.30783259756967
30
0
41
1
10
27.1875312573308
20
2.39296603129847
30
0
41
1
10
26.7095289948477
20
2.55824090574254
30
0
41
1
10
26.4695247085406
20
2.63844565491462
30
0
41
1
10
25.9900471500636
20
2.79025484906708
30
0
41
1
10
25.7505314735492
20
2.86264640583735
30
0
41
1
10
25.2720969375025
20
3.0024738752619
30
0
41
1
10
25.0332330037687
20
3.06969220612643
30
0
41
1
10
24.5552174174016
20
3.19623646568351
30
0
41
1
10
24.3160590329761
20
3.25469481516049
30
0
41
1
10
23.837461627299
20
3.36422615845623
30
0
41
1
10
23.5981291466777
20
3.41596540588071
30
0
41
1
10
23.1193537601487
20
3.51239554050221
30
0
41
1
10
22.8795054763602
20
3.55717476407415
30
0
41
1
10
22.4001693126806
20
3.63584617510114
30
0
41
1
10
22.1606793703441
20
3.67020978682132
30
0
41
1
10
21.6821470258227
20
3.73247472802746
30
0
41
1
10
21.4432142820948
20
3.75993155883313
30
0
41
1
10
20.9653534718972
20
3.8060271598913
30
0
41
1
10
20.7262840323431
20
3.82402216166287
30
0
41
1
10
20.2477231019748
20
3.85067610455405
30
0
41
1
10
20.0083132948031
20
3.86020927623321
30
0
41
1
10
19.6399833356687
20
3.86845007527776
30
0
41
1
10
19.5110682804762
20
3.87013200737414
30
0
41
1
10
19.3821548775133
20
3.87045915651939
30
0
0
SPLINE
5
A8
100
AcDbEntity
8
1
62
256
6
ByLayer
370
18
48
1
60
0
100
AcDbSpline
70
4
71
3
72
8
73
4
40
0
40
0
40
0
40
0
40
1
40
1
40
1
40
1
41
1
10
61.7729738340553
20
3.98820417761715
30
0
41
1
10
61.7199894880206
20
4.0435081019165
30
0
41
1
10
61.6660264040247
20
4.07825030827394
30
0
41
1
10
61.6105101631854
20
4.09251006480989
30
0
0
SPLINE
5
A9
100
AcDbEntity
8
1
62
256
6
ByLayer
370
18
48
1
60
0
100
AcDbSpline
70
4
71
3
72
44
73
40
40
0
40
0
40
0
40
0
40
0.0115494553009067
40
0.0115494553009067
40
0.15650696318277
40
0.15650696318277
40
0.228985717123701
40
0.228985717123701
40
0.301464471064633
40
0.301464471064633
40
0.446421978946496
40
0.446421978946496
40
0.518900732887427
40
0.518900732887427
40
0.555140109857893
40
0.573259798343126
40
0.573259798343126
40
0.582319642585742
40
0.582319642585742
40
0.586849564707051
40
0.586849564707051
40
0.591379486828359
40
0.591379486828359
40
0.595909408949667
40
0.595909408949667
40
0.600439331070975
40
0.600439331070975
40
0.609499175313591
40
0.609499175313591
40
0.627618863798824
40
0.66385824076929
40
0.66385824076929
40
0.736336994710221
40
0.736336994710221
40
0.881294502592083
40
0.881294502592083
40
0.953773256533015
40
0.953773256533015
40
1
40
1
40
1
40
1
41
1
10
11.873266888385
20
2.96755383745329
30
0
41
1
10
11.873266888385
20
2.94948381952597
30
0
41
1
10
11.873266888385
20
2.93130192929689
30
0
41
1
10
11.873266888385
20
2.68341465896373
30
0
41
1
10
11.873266888385
20
2.43641972735392
30
0
41
1
10
11.873266888385
20
2.04070821642927
30
0
41
1
10
11.873266888385
20
1.90398230438223
30
0
41
1
10
11.873266888385
20
1.62560955691279
30
0
41
1
10
11.873266888385
20
1.48395945008707
30
0
41
1
10
11.873266888385
20
1.05192485195104
30
0
41
1
10
11.873266888385
20
0.754497644960281
30
0
41
1
10
11.873266888385
20
0.294628551422448
30
0
41
1
10
11.873266888385
20
0.138711401364191
30
0
41
1
10
11.873266888385
20
-0.0974076574828189
30
0
41
1
10
11.873266888385
20
-0.215934940962171
30
0
41
1
10
11.873266888385
20
-0.335159260914224
30
0
41
1
10
11.873266888385
20
-0.394887459638596
30
0
41
1
10
11.873266888385
20
-0.414813160439394
30
0
41
1
10
11.873266888385
20
-0.444717704702356
30
0
41
1
10
11.8732668883834
20
-0.454638214337393
30
0
41
1
10
11.8732668883834
20
-0.47472244317359
30
0
41
1
10
11.873266888385
20
-0.485168472497776
30
0
41
1
10
11.873266888385
20
-0.505416154372938
30
0
41
1
10
11.873266888385
20
-0.515235999666743
30
0
41
1
10
11.873266888385
20
-0.533592550154765
30
0
41
1
10
11.873266888385
20
-0.542440679266321
30
0
41
1
10
11.873266888385
20
-0.569379591366527
30
0
41
1
10
11.873266888385
20
-0.587288104655727
30
0
41
1
10
11.873266888385
20
-0.64083767546532
30
0
41
1
10
11.873266888385
20
-0.747225260346397
30
0
41
1
10
11.873266888385
20
-0.851473826931368
30
0
41
1
10
11.873266888385
20
-1.05709160959861
30
0
41
1
10
11.873266888385
20
-1.19070044179679
30
0
41
1
10
11.873266888385
20
-1.57587438282448
30
0
41
1
10
11.873266888385
20
-1.81250327837884
30
0
41
1
10
11.873266888385
20
-2.13601821763015
30
0
41
1
10
11.873266888385
20
-2.23858872800358
30
0
41
1
10
11.873266888385
20
-2.39743994839779
30
0
41
1
10
11.873266888385
20
-2.45655144600178
30
0
41
1
10
11.873266888385
20
-2.51279955141339
30
0
0
SPLINE
5
AA
100
AcDbEntity
8
1
62
256
6
ByLayer
370
13
48
1
60
0
100
AcDbSpline
70
4
71
3
72
8
73
4
40
0
40
0
40
0
40
0
40
1
40
1
40
1
40
1
41
1
10
2.91854782148911
20
-3.60018504287672
30
0
41
1
10
2.93856027366087
20
-3.59575840644263
30
0
41
1
10
2.95975363270179
20
-3.59566902191011
30
0
41
1
10
2.98143513173199
20
-3.59980672102165
30
0
0
SPLINE
5
AB
100
AcDbEntity
8
1
62
256
6
ByLayer
370
18
48
1
60
0
100
AcDbSpline
70
4
71
3
72
54
73
50
40
0
40
0
40
0
40
0
40
0.0754459447801829
40
0.0754459447801829
40
0.113168917170274
40
0.113168917170274
40
0.150891889560366
40
0.150891889560366
40
0.188614861950457
40
0.188614861950457
40
0.226337834340549
40
0.226337834340549
40
0.26406080673064
40
0.26406080673064
40
0.301783779120732
40
0.301783779120732
40
0.339506751510823
40
0.339506751510823
40
0.377229723900914
40
0.377229723900914
40
0.452675668681098
40
0.452675668681098
40
0.49039864107119
40
0.49039864107119
40
0.528121613461282
40
0.528121613461282
40
0.565844585851374
40
0.565844585851374
40
0.603567558241466
40
0.603567558241466
40
0.641290530631556
40
0.641290530631556
40
0.679013503021646
40
0.679013503021646
40
0.716736475411736
40
0.716736475411736
40
0.754459447801826
40
0.754459447801826
40
0.829905392582007
40
0.829905392582007
40
0.867628364972097
40
0.867628364972097
40
0.905351337362187
40
0.905351337362187
40
0.943074309752278
40
0.943074309752278
40
0.980797282142368
40
0.980797282142368
40
1
40
1
40
1
40
1
41
1
10
11.873266888385
20
2.96755383744994
30
0
41
1
10
12.3971662907222
20
2.79733649479934
30
0
41
1
10
12.9199879583952
20
2.61541745904995
30
0
41
1
10
13.6997556317942
20
2.32095286141086
30
0
41
1
10
13.9587242084854
20
2.21874616853336
30
0
41
1
10
14.4771089782309
20
2.01059137794121
30
0
41
1
10
14.7363351348792
20
1.90432437154072
30
0
41
1
10
15.2544047269017
20
1.68660493380148
30
0
41
1
10
15.5131517898789
20
1.57495325474136
30
0
41
1
10
16.0303878813534
20
1.34658909635053
30
0
41
1
10
16.2894523432775
20
1.23105593577449
30
0
41
1
10
16.8084326101086
20
0.997292547108088
30
0
41
1
10
17.0682852363857
20
0.878933269756402
30
0
41
1
10
17.5883383680278
20
0.638341779030185
30
0
41
1
10
17.8484345489966
20
0.515842135544148
30
0
41
1
10
18.3709756885775
20
0.271363727155006
30
0
41
1
10
18.6336378626236
20
0.148606520177935
30
0
41
1
10
19.1580506054611
20
-0.0973783021529755
30
0
41
1
10
19.4191440693437
20
-0.22080981881021
30
0
41
1
10
20.2004845775542
20
-0.589166958960448
30
0
41
1
10
20.7206139119851
20
-0.828210728626203
30
0
41
1
10
21.4973333159752
20
-1.18236456476137
30
0
41
1
10
21.7557679077619
20
-1.29940062156274
30
0
41
1
10
22.2735232347669
20
-1.52769473500402
30
0
41
1
10
22.5325683613897
20
-1.63954240311946
30
0
41
1
10
23.0506078651186
20
-1.85941410913171
30
0
41
1
10
23.3093411329282
20
-1.96793143311467
30
0
41
1
10
23.8277477375202
20
-2.17910699119423
30
0
41
1
10
24.0876620745515
20
-2.28132931635639
30
0
41
1
10
24.6085279204006
20
-2.47980285919817
30
0
41
1
10
24.8694978325202
20
-2.57602268245526
30
0
41
1
10
25.3920332678864
20
-2.76313067389029
30
0
41
1
10
25.6544774007966
20
-2.85350889399197
30
0
41
1
10
26.1780823225244
20
-3.02425277841087
30
0
41
1
10
26.43928150303
20
-3.10515242918402
30
0
41
1
10
26.9601524015197
20
-3.25862498987701
30
0
41
1
10
27.2195146707985
20
-3.33156011267482
30
0
41
1
10
27.9974025917458
20
-3.53498160091203
30
0
41
1
10
28.5158345038148
20
-3.65052125376425
30
0
41
1
10
29.2909180804498
20
-3.79613717344051
30
0
41
1
10
29.5493938088538
20
-3.83949487622223
30
0
41
1
10
30.0672909280492
20
-3.9155010002093
30
0
41
1
10
30.3265326718258
20
-3.94830331570864
30
0
41
1
10
30.8452799749355
20
-4.00357110418293
30
0
41
1
10
31.1044949057132
20
-4.02610132879164
30
0
41
1
10
31.6248578403949
20
-4.0598726539263
30
0
41
1
10
31.8859085939885
20
-4.07122979221475
30
0
41
1
10
32.2808254162225
20
-4.08007793636935
30
0
41
1
10
32.4143081813324
20
-4.08162980376011
30
0
41
1
10
32.5477252981274
20
-4.08172963699977
30
0
0
SPLINE
5
AC
100
AcDbEntity
8
1
62
256
6
ByLayer
370
18
48
1
60
0
100
AcDbSpline
70
4
71
3
72
28
73
24
40
0
40
0
40
0
40
0
40
0.0322013080252607
40
0.0322013080252607
40
0.12018300729569
40
0.12018300729569
40
0.296146405836551
40
0.296146405836551
40
0.384128105106982
40
0.384128105106982
40
0.472109804377414
40
0.472109804377414
40
0.560091503647845
40
0.560091503647845
40
0.648073202918276
40
0.648073202918276
40
0.736054902188708
40
0.736054902188708
40
0.824036601459138
40
0.824036601459138
40
0.912018300729569
40
0.912018300729569
40
1
40
1
40
1
40
1
41
1
10
52.9029562717564
20
2.88036788389024
30
0
41
1
10
52.9986294886458
20
2.91243987590474
30
0
41
1
10
53.094406316875
20
2.94400870484205
30
0
41
1
10
53.4522150491961
20
3.06001776855635
30
0
41
1
10
53.7144556866866
20
3.14126971198533
30
0
41
1
10
54.4966066907665
20
3.37192430525835
30
0
41
1
10
55.0167285705022
20
3.50534659318248
30
0
41
1
10
55.793578608542
20
3.67781735594892
30
0
41
1
10
56.0517384949815
20
3.73080176311214
30
0
41
1
10
56.5687986266159
20
3.82566277186322
30
0
41
1
10
56.8274780379237
20
3.86780984974683
30
0
41
1
10
57.3446898628747
20
3.94195959911431
30
0
41
1
10
57.603099104284
20
3.97401448515427
30
0
41
1
10
58.1200309216367
20
4.02751754078059
30
0
41
1
10
58.3790997029743
20
4.04872767047138
30
0
41
1
10
58.8982952085285
20
4.080298183634
30
0
41
1
10
59.1583794838143
20
4.09068004612934
30
0
41
1
10
59.6791330586436
20
4.10041999892394
30
0
41
1
10
59.9397626217069
20
4.0996955182178
30
0
41
1
10
60.4636416080093
20
4.08698535760962
30
0
41
1
10
60.7260775632478
20
4.07505654179789
30
0
41
1
10
61.2499518494636
20
4.04008612577863
30
0
41
1
10
61.5113950719499
20
4.01691554061029
30
0
41
1
10
61.7729738340553
20
3.98820417761703
30
0
0
SPLINE
5
AD
100
AcDbEntity
8
1
62
256
6
ByLayer
370
18
48
1
60
0
100
AcDbSpline
70
4
71
3
72
42
73
38
40
0
40
0
40
0
40
0
40
0.10355737697258
40
0.10355737697258
40
0.155336065458869
40
0.155336065458869
40
0.207114753945158
40
0.207114753945158
40
0.258893442431447
40
0.258893442431447
40
0.310672130917736
40
0.310672130917736
40
0.414229507890313
40
0.414229507890313
40
0.466008196376602
40
0.466008196376602
40
0.517786884862891
40
0.517786884862891
40
0.569565573349179
40
0.569565573349179
40
0.621344261835468
40
0.621344261835468
40
0.673122950321756
40
0.673122950321756
40
0.724901638808045
40
0.724901638808045
40
0.776680327294333
40
0.776680327294333
40
0.828459015780622
40
0.828459015780622
40
0.880237704266911
40
0.880237704266911
40
0.932016392753199
40
0.932016392753199
40
0.983795081239488
40
0.983795081239488
40
1
40
1
40
1
40
1
41
1
10
11.873266888385
20
-2.51279955141607
30
0
41
1
10
12.3536290516901
20
-2.67629233763924
30
0
41
1
10
12.8329504222865
20
-2.8262508678304
30
0
41
1
10
13.551028020286
20
-3.03292451665962
30
0
41
1
10
13.7901870482451
20
-3.0987149843163
30
0
41
1
10
14.2689361928617
20
-3.22216801022341
30
0
41
1
10
14.5085162912008
20
-3.27989030264462
30
0
41
1
10
14.9880300099207
20
-3.38817776873944
30
0
41
1
10
15.2280441859906
20
-3.43888316542694
30
0
41
1
10
15.708093287554
20
-3.53257956405463
30
0
41
1
10
15.9477374896767
20
-3.57520128146049
30
0
41
1
10
16.6665961211747
20
-3.68979347287089
30
0
41
1
10
17.1452196488162
20
-3.75087826871319
30
0
41
1
10
17.8629522028191
20
-3.81397534644037
30
0
41
1
10
18.1024477086515
20
-3.83048991516284
30
0
41
1
10
18.5819606934353
20
-3.8556016512926
30
0
41
1
10
18.8221109818895
20
-3.86463680391373
30
0
41
1
10
19.3020377714489
20
-3.87216160986273
30
0
41
1
10
19.5414349962395
20
-3.87079361089141
30
0
41
1
10
20.0203248003478
20
-3.85979469774105
30
0
41
1
10
20.2597626700272
20
-3.85014284738344
30
0
41
1
10
20.7385074229232
20
-3.82319694158141
30
0
41
1
10
20.9777488507208
20
-3.80498787203013
30
0
41
1
10
21.4561422963078
20
-3.75851957820112
30
0
41
1
10
21.6954375221506
20
-3.73088264285752
30
0
41
1
10
22.1748253077421
20
-3.66822385124928
30
0
41
1
10
22.4150425319095
20
-3.6336209741948
30
0
41
1
10
22.8948039214379
20
-3.55443402908801
30
0
41
1
10
23.1341110526023
20
-3.5095638868035
30
0
41
1
10
23.6125429220201
20
-3.41291286644227
30
0
41
1
10
23.8517864387497
20
-3.36107281466704
30
0
41
1
10
24.3303334613818
20
-3.25129528764435
30
0
41
1
10
24.5695404124764
20
-3.19260464909473
30
0
41
1
10
25.0478760094115
20
-3.06564589917377
30
0
41
1
10
25.2869932557709
20
-2.99823319741233
30
0
41
1
10
25.6015140778621
20
-2.90615807724399
30
0
41
1
10
25.6765441993772
20
-2.88396000887457
30
0
41
1
10
25.7516037156813
20
-2.86148537533552
30
0
0
SPLINE
5
AE
100
AcDbEntity
8
1
62
256
6
ByLayer
370
18
48
1
60
0
100
AcDbSpline
70
4
71
3
72
32
73
28
40
0
40
0
40
0
40
0
40
0.0351842028440578
40
0.0351842028440578
40
0.0995052559877865
40
0.0995052559877865
40
0.163826309131516
40
0.163826309131516
40
0.228147362275244
40
0.228147362275244
40
0.292468415418974
40
0.292468415418974
40
0.356789468562702
40
0.356789468562702
40
0.421110521706431
40
0.421110521706431
40
0.48543157485016
40
0.48543157485016
40
0.614073681137618
40
0.614073681137618
40
0.678394734281348
40
0.678394734281348
40
0.742715787425079
40
0.742715787425079
40
0.871357893712539
40
0.871357893712539
40
1
40
1
40
1
40
1
41
1
10
46.606107431827
20
3.88493394393615
30
0
41
1
10
46.7368138613079
20
3.88446596705711
30
0
41
1
10
46.8676133756064
20
3.88262630875556
30
0
41
1
10
47.2378135431728
20
3.87384409561125
30
0
41
1
10
47.477506090332
20
3.86406945599015
30
0
41
1
10
47.9557660963958
20
3.83574527668898
30
0
41
1
10
48.1944234792082
20
3.81676138095094
30
0
41
1
10
48.6718777136103
20
3.77047651271192
30
0
41
1
10
48.9106554871661
20
3.74328256595433
30
0
41
1
10
49.3882120964314
20
3.68171598567008
30
0
41
1
10
49.6269494769937
20
3.64700514313395
30
0
41
1
10
50.1044150676407
20
3.5672230403363
30
0
41
1
10
50.3432485084989
20
3.52258242936614
30
0
41
1
10
50.8219072443524
20
3.42545848833041
30
0
41
1
10
51.0615296950107
20
3.37290271515303
30
0
41
1
10
51.5389094685504
20
3.26069113966912
30
0
41
1
10
51.7769635691809
20
3.20092011929302
30
0
41
1
10
52.4898959721698
20
3.01203292168142
30
0
41
1
10
52.9643836270847
20
2.87526605735184
30
0
41
1
10
53.6740121106647
20
2.64834583444159
30
0
41
1
10
53.9101791815324
20
2.56914230666231
30
0
41
1
10
54.3827655486503
20
2.40571855107208
30
0
41
1
10
54.6191683190782
20
2.32147624821488
30
0
41
1
10
55.328601693155
20
2.06101356174315
30
0
41
1
10
55.8014448742295
20
1.87604346864472
30
0
41
1
10
56.7508068894932
20
1.49263344710917
30
0
41
1
10
57.227098918948
20
1.29308020594857
30
0
41
1
10
57.7053555832513
20
1.08630331701107
30
0
0
SPLINE
5
AF
100
AcDbEntity
8
1
62
256
6
ByLayer
370
18
48
1
60
0
100
AcDbSpline
70
4
71
3
72
10
73
6
40
0
40
0
40
0
40
0
40
0.5
40
0.5
40
1
40
1
40
1
40
1
41
1
10
62.992730642927
20
0.105994802910942
30
0
41
1
10
62.9928568460323
20
0.0966038829141951
30
0
41
1
10
62.9935966068672
20
0.0861302081368933
30
0
41
1
10
62.9959990163851
20
0.0641720637502203
30
0
41
1
10
62.997666700017
20
0.0525791641689466
30
0
41
1
10
62.999760533607
20
0.0404367913343435
30
0
0
SPLINE
5
B0
100
AcDbEntity
8
1
62
256
6
ByLayer
370
18
48
1
60
0
100
AcDbSpline
70
4
71
3
72
14
73
10
40
0
40
0
40
0
40
0
40
0.175193360556699
40
0.175193360556699
40
0.350386721113398
40
0.350386721113398
40
0.700773442226803
40
0.700773442226803
40
1
40
1
40
1
40
1
41
1
10
61.6616378359959
20
-3.89207964180738
30
0
41
1
10
61.3540922764695
20
-3.89724902136544
30
0
41
1
10
61.0466104918088
20
-3.89499688543114
30
0
41
1
10
60.4312570652936
20
-3.87571728969812
30
0
41
1
10
60.1239186011939
20
-3.85869073559499
30
0
41
1
10
59.2054385599258
20
-3.78629932830904
30
0
41
1
10
58.596399663179
20
-3.70960450101302
30
0
41
1
10
57.4694171607098
20
-3.51827363563427
30
0
41
1
10
56.9510977110202
20
-3.41072245576405
30
0
41
1
10
56.4321890548878
20
-3.28540890149043
30
0
0
SPLINE
5
B1
100
AcDbEntity
8
1
62
256
6
ByLayer
370
13
48
1
60
0
100
AcDbSpline
70
4
71
3
72
22
73
18
40
0
40
0
40
0
40
0
40
0.16195712987587
40
0.16195712987587
40
0.232618410524756
40
0.232618410524756
40
0.303279691173643
40
0.303279691173643
40
0.444602252471412
40
0.444602252471412
40
0.727247375066948
40
0.727247375066948
40
0.797908655715833
40
0.797908655715833
40
0.868569936364718
40
0.868569936364718
40
1
40
1
40
1
40
1
41
1
10
56.4321888158253
20
-3.28540884375815
30
0
41
1
10
55.7358397619022
20
-3.11724441308351
30
0
41
1
10
55.0384296483466
20
-2.91709300802677
30
0
41
1
10
54.0304165123128
20
-2.58942663325738
30
0
41
1
10
53.722860690378
20
-2.48439186694185
30
0
41
1
10
53.1079495850543
20
-2.26534743925552
30
0
41
1
10
52.8015324422998
20
-2.15167852141502
30
0
41
1
10
51.8845460248632
20
-1.80008987744608
30
0
41
1
10
51.2761260369198
20
-1.55177290738612
30
0
41
1
10
49.4528664298879
20
-0.779714358167297
30
0
41
1
10
48.2404372454229
20
-0.22769759055754
30
0
41
1
10
46.7063256302098
20
0.458505558714194
30
0
41
1
10
46.3980121964272
20
0.595771195279696
30
0
41
1
10
45.7843002663106
20
0.866158144357144
30
0
41
1
10
45.4783852347558
20
0.999518124079771
30
0
41
1
10
44.6053815183456
20
1.37415990257494
30
0
41
1
10
44.0398563031529
20
1.60939175013019
30
0
41
1
10
43.474837608434
20
1.83269203536068
30
0
0
SPLINE
5
B2
100
AcDbEntity
8
1
62
256
6
ByLayer
370
18
48
1
60
0
100
AcDbSpline
70
4
71
3
72
10
73
6
40
0
40
0
40
0
40
0
40
0.0539256690397077
40
0.0539256690397077
40
1
40
1
40
1
40
1
41
1
10
6.90117678193809
20
-3.86082701076893
30
0
41
1
10
6.83154063776868
20
-3.86067753587938
30
0
41
1
10
6.76192110142091
20
-3.86015303395203
30
0
41
1
10
5.47113763476332
20
-3.84347628515715
30
0
41
1
10
4.25406241652988
20
-3.71266199259401
30
0
41
1
10
3.0231516836084
20
-3.47206142937296
30
0
0
SPLINE
5
B3
100
AcDbEntity
8
1
62
256
6
ByLayer
370
18
48
1
60
0
100
AcDbSpline
70
4
71
3
72
8
73
4
40
0
40
0
40
0
40
0
40
1
40
1
40
1
40
1
41
1
10
62.9712102291277
20
0.448005254487896
30
0
41
1
10
62.948696238326
20
0.626840104109988
30
0
41
1
10
62.9132455418386
20
0.809679052928828
30
0
41
1
10
62.8665100418246
20
1.00179284445758
30
0
0
SPLINE
5
B4
100
AcDbEntity
8
1
62
256
6
ByLayer
370
18
48
1
60
0
100
AcDbSpline
70
4
71
3
72
28
73
24
40
0
40
0
40
0
40
0
40
0.0624999999999988
40
0.0624999999999988
40
0.124999999999998
40
0.124999999999998
40
0.249999999999995
40
0.249999999999995
40
0.312499999999995
40
0.312499999999995
40
0.374999999999996
40
0.374999999999996
40
0.499999999999997
40
0.499999999999997
40
0.562499999999997
40
0.562499999999997
40
0.624999999999997
40
0.624999999999997
40
0.749999999999998
40
0.749999999999998
40
0.874999999999999
40
0.874999999999999
40
1
40
1
40
1
40
1
41
1
10
57.7053555832517
20
1.08630331701141
30
0
41
1
10
57.7126813916884
20
0.974223737440042
30
0
41
1
10
57.7270495868365
20
0.861832189115773
30
0
41
1
10
57.7691922420394
20
0.636455212023606
30
0
41
1
10
57.7971091738833
20
0.523016260915995
30
0
41
1
10
57.8995522724043
20
0.184785838554717
30
0
41
1
10
57.9901639287955
20
-0.0312154172948453
30
0
41
1
10
58.1522773918765
20
-0.344082504150236
30
0
41
1
10
58.2110227760824
20
-0.446869185094442
30
0
41
1
10
58.334228179019
20
-0.645133641525149
30
0
41
1
10
58.3988897637195
20
-0.741061396603925
30
0
41
1
10
58.6008805779237
20
-1.02045754713825
30
0
41
1
10
58.7461227986894
20
-1.19563632641572
30
0
41
1
10
58.9765969333553
20
-1.4451934709044
30
0
41
1
10
59.0557095986729
20
-1.52629086899984
30
0
41
1
10
59.2158314592883
20
-1.68246301685536
30
0
41
1
10
59.2970649678198
20
-1.75779624303726
30
0
41
1
10
59.5439066642323
20
-1.97642143275951
30
0
41
1
10
59.712636158598
20
-2.11238554273177
30
0
41
1
10
60.0571077196099
20
-2.36785043135799
30
0
41
1
10
60.2328585281079
20
-2.48733068687184
30
0
41
1
10
60.5906064184722
20
-2.71162689728953
30
0
41
1
10
60.7728852244691
20
-2.81655430750737
30
0
41
1
10
60.9564331451563
20
-2.91381877921316
30
0
0
SPLINE
5
B5
100
AcDbEntity
8
1
62
256
6
ByLayer
370
18
48
1
60
0
100
AcDbSpline
70
4
71
3
72
10
73
6
40
0
40
0
40
0
40
0
40
0.5
40
0.5
40
1
40
1
40
1
40
1
41
1
10
61.5974989485522
20
0.989209885327938
30
0
41
1
10
61.8060908804931
20
0.981126451148299
30
0
41
1
10
62.0146779782677
20
0.973105518445408
30
0
41
1
10
62.431889379705
20
0.956582613947376
30
0
41
1
10
62.6405024253779
20
0.948226197961077
30
0
41
1
10
62.8490932401859
20
0.940157207316531
30
0
0
SPLINE
5
B6
100
AcDbEntity
8
1
62
256
6
ByLayer
370
18
48
1
60
0
100
AcDbSpline
70
4
71
3
72
88
73
84
40
0
40
0
40
0
40
0
40
0.0062966713242105
40
0.0062966713242105
40
0.0291936158061051
40
0.0291936158061051
40
0.0520905602879998
40
0.0520905602879998
40
0.0978844492517891
40
0.0978844492517891
40
0.120781393733684
40
0.120781393733684
40
0.143678338215578
40
0.143678338215578
40
0.166575282697473
40
0.166575282697473
40
0.189472227179368
40
0.189472227179368
40
0.212369171661263
40
0.212369171661263
40
0.235266116143157
40
0.235266116143157
40
0.258163060625052
40
0.258163060625052
40
0.281060005106947
40
0.281060005106947
40
0.303956949588841
40
0.303956949588841
40
0.326853894070736
40
0.326853894070736
40
0.372647783034525
40
0.372647783034525
40
0.39554472751642
40
0.39554472751642
40
0.418441671998316
40
0.418441671998316
40
0.441338616480211
40
0.441338616480211
40
0.464235560962106
40
0.464235560962106
40
0.487132505444001
40
0.487132505444001
40
0.510029449925896
40
0.510029449925896
40
0.532926394407792
40
0.532926394407792
40
0.555823338889687
40
0.555823338889687
40
0.601617227853477
40
0.601617227853477
40
0.624514172335373
40
0.624514172335373
40
0.647411116817269
40
0.647411116817269
40
0.670308061299164
40
0.670308061299164
40
0.69320500578106
40
0.69320500578106
40
0.716101950262956
40
0.716101950262956
40
0.738998894744852
40
0.738998894744852
40
0.761895839226747
40
0.761895839226747
40
0.784792783708643
40
0.784792783708643
40
0.807689728190539
40
0.807689728190539
40
0.830586672672435
40
0.830586672672435
40
0.876380561636226
40
0.876380561636226
40
0.899277506118121
40
0.899277506118121
40
0.922174450600016
40
0.922174450600016
40
0.945071395081911
40
0.945071395081911
40
0.967968339563806
40
0.967968339563806
40
0.990865284045701
40
0.990865284045701
40
1
40
1
40
1
40
1
41
1
10
25.7001846646925
20
2.86735111967735
30
0
41
1
10
25.7722397164806
20
2.89154758038674
30
0
41
1
10
25.8442840523842
20
2.91540350887385
30
0
41
1
10
26.1780823225244
20
3.02425277841087
30
0
41
1
10
26.43928150303
20
3.10515242918402
30
0
41
1
10
26.9601524015197
20
3.25862498987698
30
0
41
1
10
27.2195146707984
20
3.33156011267482
30
0
41
1
10
27.9974025917458
20
3.53498160091198
30
0
41
1
10
28.5158345038147
20
3.65052125376431
30
0
41
1
10
29.2909180804499
20
3.79613717344051
30
0
41
1
10
29.5493938088538
20
3.83949487622223
30
0
41
1
10
30.0672909280492
20
3.9155010002093
30
0
41
1
10
30.3265326718258
20
3.94830331570864
30
0
41
1
10
30.8452799749355
20
4.00357110418293
30
0
41
1
10
31.1044949057132
20
4.02610132879164
30
0
41
1
10
31.6248578403949
20
4.0598726539263
30
0
41
1
10
31.8859085939885
20
4.07122979221475
30
0
41
1
10
32.4093080052801
20
4.08295659943292
30
0
41
1
10
32.6720328760268
20
4.08329039744896
30
0
41
1
10
33.1945097890207
20
4.07260826118286
30
0
41
1
10
33.4552614298337
20
4.06167384329376
30
0
41
1
10
33.9760362032078
20
4.02909692213393
30
0
41
1
10
34.2359572261534
20
4.00744034835216
30
0
41
1
10
34.754509633946
20
3.95324431618516
30
0
41
1
10
35.0129403330192
20
3.92052330456246
30
0
41
1
10
35.5304369201816
20
3.84526960951209
30
0
41
1
10
35.7892897410806
20
3.80267662898706
30
0
41
1
10
36.3067579919096
20
3.70731905803186
30
0
41
1
10
36.565256612179
20
3.65442756307544
30
0
41
1
10
37.3407358355422
20
3.4803738534934
30
0
41
1
10
37.8600827336099
20
3.34664420894137
30
0
41
1
10
38.6406814646152
20
3.11688190315823
30
0
41
1
10
38.9010679118175
20
3.03518133328919
30
0
41
1
10
39.4243577701009
20
2.86469509436114
30
0
41
1
10
39.6872394584777
20
2.77545383127381
30
0
41
1
10
40.2102042424935
20
2.59000111473085
30
0
41
1
10
40.470601465735
20
2.49323973882829
30
0
41
1
10
40.9903162611293
20
2.29357241788116
30
0
41
1
10
41.2500131708354
20
2.19137665927363
30
0
41
1
10
41.7687732372864
20
1.98181073950545
30
0
41
1
10
42.0278447936232
20
1.87445827165152
30
0
41
1
10
42.5448556864912
20
1.65356387650817
30
0
41
1
10
42.8029853618009
20
1.54037042204905
30
0
41
1
10
43.3202179652437
20
1.31200749444406
30
0
41
1
10
43.5790497393137
20
1.19630958049248
30
0
41
1
10
44.096767405057
20
0.961091652623452
30
0
41
1
10
44.3553825359707
20
0.840977130351604
30
0
41
1
10
45.1329068190002
20
0.478152296512889
30
0
41
1
10
45.6543208620923
20
0.234972821924856
30
0
41
1
10
46.4386580262636
20
-0.137497951608594
30
0
41
1
10
46.7008776152229
20
-0.262077056129812
30
0
41
1
10
47.2234998804852
20
-0.507292172953697
30
0
41
1
10
47.4842468185147
20
-0.628727626703835
30
0
41
1
10
48.0042927159911
20
-0.870025618769574
30
0
41
1
10
48.2632803576657
20
-0.990539724348508
30
0
41
1
10
48.7812547697969
20
-1.22682520269242
30
0
41
1
10
49.0402520557365
20
-1.34260977884526
30
0
41
1
10
49.55783413259
20
-1.57045705583491
30
0
41
1
10
49.8164160547129
20
-1.68252380246284
30
0
41
1
10
50.3328440506892
20
-1.90346777655313
30
0
41
1
10
50.5912398737522
20
-2.01125740589839
30
0
41
1
10
51.1090470732684
20
-2.2203159645652
30
0
41
1
10
51.3682867545398
20
-2.3219198755983
30
0
41
1
10
51.8871170777443
20
-2.51980036675337
30
0
41
1
10
52.1464244936563
20
-2.61654638257815
30
0
41
1
10
52.6670912829334
20
-2.80161237898824
30
0
41
1
10
52.9283369903627
20
-2.89016556089365
30
0
41
1
10
53.452215049196
20
-3.06001776855632
30
0
41
1
10
53.7144556866866
20
-3.14126971198533
30
0
41
1
10
54.4966066907665
20
-3.37192430525829
30
0
41
1
10
55.0167285705022
20
-3.50534659318242
30
0
41
1
10
55.793578608542
20
-3.67781735594892
30
0
41
1
10
56.0517384949815
20
-3.73080176311214
30
0
41
1
10
56.5687986266159
20
-3.82566277186322
30
0
41
1
10
56.8274780379238
20
-3.86780984974683
30
0
41
1
10
57.3446898628748
20
-3.94195959911431
30
0
41
1
10
57.603099104284
20
-3.97401448515424
30
0
41
1
10
58.1200309216367
20
-4.02751754078056
30
0
41
1
10
58.3790997029743
20
-4.04872767047138
30
0
41
1
10
58.8982952085285
20
-4.080298183634
30
0
41
1
10
59.1583794838144
20
-4.09068004612934
30
0
41
1
10
59.5226333626027
20
-4.09749289534656
30
0
41
1
10
59.6265506858509
20
-4.0985453521142
30
0
41
1
10
59.7305753670071
20
-4.09870509789303
30
0
0
SPLINE
5
B7
100
AcDbEntity
8
1
62
256
6
ByLayer
370
18
48
1
60
0
100
AcDbSpline
70
4
71
3
72
14
73
10
40
0
40
0
40
0
40
0
40
0.25
40
0.25
40
0.5
40
0.5
40
0.75
40
0.75
40
1
40
1
40
1
40
1
41
1
10
61.4630412551509
20
0.892512047902812
30
0
41
1
10
61.4619397500289
20
0.907890667031666
30
0
41
1
10
61.4649379100045
20
0.923524952930791
30
0
41
1
10
61.4800566575594
20
0.950694158330265
30
0
41
1
10
61.4921473181948
20
0.962020861521268
30
0
41
1
10
61.5194102003474
20
0.977969291299758
30
0
41
1
10
61.5348090570645
20
0.983058938664442
30
0
41
1
10
61.565750671329
20
0.988931954934259
30
0
41
1
10
61.5816644442819
20
0.989823510082459
30
0
41
1
10
61.5974989485522
20
0.989209885327938
30
0
0
SPLINE
5
B8
100
AcDbEntity
8
1
62
256
6
ByLayer
370
18
48
1
60
0
100
AcDbSpline
70
4
71
3
72
16
73
12
40
0
40
0
40
0
40
0
40
0.26912257573751
40
0.26912257573751
40
0.403683863606265
40
0.403683863606265
40
0.538245151475021
40
0.538245151475021
40
0.807367727212531
40
0.807367727212531
40
1
40
1
40
1
40
1
41
1
10
60.9564331451563
20
-2.91381877921319
30
0
41
1
10
61.0101606657667
20
-3.07990542664302
30
0
41
1
10
61.0661777923783
20
-3.22539527519172
30
0
41
1
10
61.1528538853993
20
-3.41408120177442
30
0
41
1
10
61.1821972061822
20
-3.47201500690031
30
0
41
1
10
61.2417573458035
20
-3.57775485922224
30
0
41
1
10
61.272016879233
20
-3.62554986450587
30
0
41
1
10
61.3622164866948
20
-3.75072028383463
30
0
41
1
10
61.4221825981252
20
-3.81123745199571
30
0
41
1
10
61.5250903436091
20
-3.87607909086148
30
0
41
1
10
61.5681839094037
20
-3.89134293691771
30
0
41
1
10
61.6109239088159
20
-3.8943406917777
30
0
0
SPLINE
5
B9
100
AcDbEntity
8
1
62
256
6
ByLayer
370
13
48
1
60
0
100
AcDbSpline
70
4
71
3
72
12
73
8
40
0
40
0
40
0
40
0
40
0.649984474121231
40
0.649984474121231
40
0.974976711181847
40
0.974976711181847
40
1
40
1
40
1
40
1
41
1
10
2.98143513173199
20
-3.59980672102165
30
0
41
1
10
4.21364271977842
20
-3.83496132150347
30
0
41
1
10
5.43142311051025
20
-3.95641055450966
30
0
41
1
10
7.26428283879071
20
-3.96112284998512
30
0
41
1
10
7.87627452723905
20
-3.93307067838515
30
0
41
1
10
8.53911672750553
20
-3.87088062007425
30
0
41
1
10
8.58653036166987
20
-3.86625657127342
30
0
41
1
10
8.63395982684116
20
-3.86145663517826
30
0
0
SPLINE
5
BA
100
AcDbEntity
8
1
62
256
6
ByLayer
370
18
48
1
60
0
100
AcDbSpline
70
4
71
3
72
14
73
10
40
0
40
0
40
0
40
0
40
0.51190998584037
40
0.51190998584037
40
0.808154589747532
40
0.808154589747532
40
0.956276891701116
40
0.956276891701116
40
1
40
1
40
1
40
1
41
1
10
47.4960101754264
20
-0.0024779945856039
30
0
41
1
10
48.5536644236725
20
-0.489305844626727
30
0
41
1
10
49.6017041154238
20
-0.971884067592185
30
0
41
1
10
51.2602786824568
20
-1.68520080893316
30
0
41
1
10
51.8689845336722
20
-1.93674285029624
30
0
41
1
10
52.7866027152492
20
-2.29174148915186
30
0
41
1
10
53.0932732807293
20
-2.40629251822531
30
0
41
1
10
53.4918941770814
20
-2.54893932201094
30
0
41
1
10
53.5827351399387
20
-2.58102819374204
30
0
41
1
10
53.6735362129201
20
-2.61267181090386
30
0
0
SPLINE
5
BB
100
AcDbEntity
8
1
62
256
6
ByLayer
370
13
48
1
60
0
100
AcDbSpline
70
4
71
3
72
16
73
12
40
0
40
0
40
0
40
0
40
0.0809686727213329
40
0.0809686727213329
40
0.540484336360667
40
0.540484336360667
40
0.770242168180334
40
0.770242168180334
40
0.885121084090166
40
0.885121084090166
40
1
40
1
40
1
40
1
41
1
10
53.6735362128822
20
-2.61267181089067
30
0
41
1
10
53.890345108032
20
-2.68822838142623
30
0
41
1
10
54.1069265799031
20
-2.76124643180359
30
0
41
1
10
55.5482356336646
20
-3.22955288338233
30
0
41
1
10
56.7597640422322
20
-3.53801646144825
30
0
41
1
10
58.5840684665135
20
-3.83516617613515
30
0
41
1
10
59.1934498721284
20
-3.90671519505713
30
0
41
1
10
60.1127091173154
20
-3.97002791299528
30
0
41
1
10
60.4204097715872
20
-3.9837893438208
30
0
41
1
10
61.0362527459493
20
-3.99608565487995
30
0
41
1
10
61.3439683211901
20
-3.99463305915268
30
0
41
1
10
61.6517520478999
20
-3.9855513928041
30
0
0
SPLINE
5
BC
100
AcDbEntity
8
1
62
256
6
ByLayer
370
18
48
1
60
0
100
AcDbSpline
70
4
71
3
72
10
73
6
40
0
40
0
40
0
40
0
40
0.5
40
0.5
40
1
40
1
40
1
40
1
41
1
10
2.91652791999542
20
-3.68333796247771
30
0
41
1
10
2.88480978842142
20
-3.67703016242925
30
0
41
1
10
2.85675059216666
20
-3.66794532927284
30
0
41
1
10
2.81128413448104
20
-3.64507600514006
30
0
41
1
10
2.79404623648941
20
-3.63125086792226
30
0
41
1
10
2.78388552423121
20
-3.61618964976947
30
0
0
SPLINE
5
BD
100
AcDbEntity
8
1
62
256
6
ByLayer
370
18
48
1
60
0
100
AcDbSpline
70
4
71
3
72
31
73
27
40
0
40
0
40
0
40
0
40
0.0625
40
0.0625
40
0.125
40
0.125
40
0.25
40
0.25
40
0.3125
40
0.3125
40
0.375
40
0.4375
40
0.4375
40
0.5
40
0.5
40
0.625
40
0.625
40
0.6875
40
0.6875
40
0.75
40
0.75
40
0.875
40
0.875
40
0.9375
40
0.9375
40
1
40
1
40
1
40
1
41
1
10
2.77696615016558
20
-3.5952089575058
30
0
41
1
10
2.77697528046423
20
-3.53182798058916
30
0
41
1
10
2.77698418702241
20
-3.46219582596794
30
0
41
1
10
2.77700141611305
20
-3.31220734416149
30
0
41
1
10
2.77700971750795
20
-3.23210330644659
30
0
41
1
10
2.77703383441587
20
-2.97689622462369
30
0
41
1
10
2.77704886766856
20
-2.78704582502363
30
0
41
1
10
2.77707033412992
20
-2.47173583932937
30
0
41
1
10
2.77707725080668
20
-2.36227993621659
30
0
41
1
10
2.77709051910227
20
-2.13774869835686
30
0
41
1
10
2.77710328081713
20
-1.90674395698918
30
0
41
1
10
2.77711518772313
20
-1.66292495291776
30
0
41
1
10
2.77712672295905
20
-1.41257372238337
30
0
41
1
10
2.77713232957143
20
-1.28347582035573
30
0
41
1
10
2.77714831862505
20
-0.894099024392688
30
0
41
1
10
2.77715797738813
20
-0.630071596409493
30
0
41
1
10
2.77717113306855
20
-0.227457870170156
30
0
41
1
10
2.77717530122163
20
-0.0918385650932123
30
0
41
1
10
2.77718312725349
20
0.180367952510295
30
0
41
1
10
2.77718673839428
20
0.315288234063132
30
0
41
1
10
2.7771966638899
20
0.716617001345583
30
0
41
1
10
2.7772020884662
20
0.979626807928469
30
0
41
1
10
2.77720810523235
20
1.36716996078997
30
0
41
1
10
2.77720974533932
20
1.49504264381812
30
0
41
1
10
2.77721216381326
20
1.74271763097801
30
0
41
1
10
2.77721295487075
20
1.86326519695149
30
0
41
1
10
2.77721329386247
20
1.98057149496932
30
0
0
SPLINE
5
BE
100
AcDbEntity
8
1
62
256
6
ByLayer
370
18
48
1
60
0
100
AcDbSpline
70
4
71
3
72
16
73
12
40
0
40
0
40
0
40
0
40
0.306057034738359
40
0.306057034738359
40
0.622564657693506
40
0.622564657693506
40
0.780818469171078
40
0.780818469171078
40
0.939072280648652
40
0.939072280648652
40
1
40
1
40
1
40
1
41
1
10
34.1409805012573
20
-3.87764197625194
30
0
41
1
10
33.5515475703984
20
-3.87759619333158
30
0
41
1
10
32.9601014008481
20
-3.85065105056665
30
0
41
1
10
31.7488242619685
20
-3.74001673587375
30
0
41
1
10
31.1341470607995
20
-3.65508250554737
30
0
41
1
10
30.2109544791597
20
-3.48711168300008
30
0
41
1
10
29.9027475451478
20
-3.42428709905812
30
0
41
1
10
29.2890227589185
20
-3.28657723020697
30
0
41
1
10
28.9830718869375
20
-3.2116161000896
30
0
41
1
10
28.5601831764987
20
-3.09994628097883
30
0
41
1
10
28.4427222522181
20
-3.06806210032502
30
0
41
1
10
28.3253385468803
20
-3.03536290149887
30
0
0
SPLINE
5
BF
100
AcDbEntity
8
1
62
256
6
ByLayer
370
13
48
1
60
0
100
AcDbSpline
70
4
71
3
72
20
73
16
40
0
40
0
40
0
40
0
40
0.270729153928307
40
0.270729153928307
40
0.420510152458364
40
0.420510152458364
40
0.495400651723395
40
0.495400651723395
40
0.570291150988425
40
0.570291150988425
40
0.869853148048546
40
0.869853148048546
40
0.944743647313576
40
0.944743647313576
40
1
40
1
40
1
40
1
41
1
10
28.3253385468771
20
-3.03536290149802
30
0
41
1
10
27.2231513263498
20
-2.72833017524377
30
0
41
1
10
26.1277720967098
20
-2.34944155350758
30
0
41
1
10
24.4166825429997
20
-1.68451684466959
30
0
41
1
10
23.8053265019065
20
-1.43267013132086
30
0
41
1
10
22.8819911192357
20
-1.03907387153004
30
0
41
1
10
22.5743227234259
20
-0.905690868706898
30
0
41
1
10
21.9615379666155
20
-0.637128785682222
30
0
41
1
10
21.6559561863435
20
-0.50180658018013
30
0
41
1
10
20.1307091412415
20
0.176805252083369
30
0
41
1
10
18.9192589989267
20
0.726607650334245
30
0
41
1
10
17.3935947663347
20
1.37153739424244
30
0
41
1
10
17.0879056438449
20
1.49843727945262
30
0
41
1
10
16.555248339618
20
1.71432209301284
30
0
41
1
10
16.3283351612375
20
1.80461260680823
30
0
41
1
10
16.101293482317
20
1.89296825636524
30
0
0
SPLINE
5
C0
100
AcDbEntity
8
1
62
256
6
ByLayer
370
18
48
1
60
0
100
AcDbSpline
70
4
71
3
72
8
73
4
40
0
40
0
40
0
40
0
40
1
40
1
40
1
40
1
41
1
10
62.8490932401859
20
0.940157207316531
30
0
41
1
10
62.9057573479187
20
0.776624206201603
30
0
41
1
10
62.9457048851473
20
0.612548963660288
30
0
41
1
10
62.9712102291277
20
0.448005254487896
30
0
0
SPLINE
5
C1
100
AcDbEntity
8
1
62
256
6
ByLayer
370
18
48
1
60
0
100
AcDbSpline
70
4
71
3
72
60
73
56
40
0
40
0
40
0
40
0
40
0.0312499999999971
40
0.0312499999999971
40
0.0624999999999943
40
0.0624999999999943
40
0.0781249999999933
40
0.0781249999999933
40
0.0937499999999923
40
0.0937499999999923
40
0.109374999999991
40
0.109374999999991
40
0.12499999999999
40
0.12499999999999
40
0.140624999999989
40
0.140624999999989
40
0.156249999999988
40
0.156249999999988
40
0.171874999999987
40
0.171874999999987
40
0.187499999999986
40
0.187499999999986
40
0.218749999999984
40
0.218749999999984
40
0.249999999999982
40
0.249999999999982
40
0.28124999999998
40
0.28124999999998
40
0.296874999999978
40
0.296874999999978
40
0.304687499999977
40
0.304687499999977
40
0.308593749999978
40
0.308593749999978
40
0.312499999999978
40
0.312499999999978
40
0.320312499999979
40
0.320312499999979
40
0.328124999999979
40
0.328124999999979
40
0.343749999999979
40
0.343749999999979
40
0.374999999999979
40
0.374999999999979
40
0.437499999999981
40
0.437499999999981
40
0.499999999999982
40
0.499999999999982
40
0.624999999999987
40
0.624999999999987
40
0.749999999999991
40
0.749999999999991
40
0.874999999999995
40
0.874999999999995
40
1
40
1
40
1
40
1
41
1
10
2.77721329386299
20
1.98057149496935
30
0
41
1
10
2.68299607163911
20
2.0580985192679
30
0
41
1
10
2.59244586203462
20
2.13708282047119
30
0
41
1
10
2.42161491477282
20
2.2994229324033
30
0
41
1
10
2.34123588297365
20
2.38272684445977
30
0
41
1
10
2.23260285953057
20
2.51307873113257
30
0
41
1
10
2.19822615733332
20
2.5577377925012
30
0
41
1
10
2.13627486099313
20
2.64739866469057
30
0
41
1
10
2.10857181374308
20
2.69250264406889
30
0
41
1
10
2.06122232164532
20
2.78347755139208
30
0
41
1
10
2.04146597388021
20
2.8297676316306
30
0
41
1
10
2.01291980512744
20
2.92077263392528
30
0
41
1
10
2.00401609540396
20
2.9655311183586
30
0
41
1
10
1.99813722062476
20
3.05352714316609
30
0
41
1
10
2.00131133671928
20
3.09726121551597
30
0
41
1
10
2.02032596060093
20
3.18050702434664
30
0
41
1
10
2.03592996235153
20
3.21982885083395
30
0
41
1
10
2.07834264271367
20
3.29439347937296
30
0
41
1
10
2.10547269493259
20
3.32990016217201
30
0
41
1
10
2.16795703320429
20
3.39524087706596
30
0
41
1
10
2.20331690335948
20
3.42530248239839
30
0
41
1
10
2.31942217418771
20
3.50930652509118
30
0
41
1
10
2.41078449415667
20
3.55730560400176
30
0
41
1
10
2.60473892869894
20
3.63957377228721
30
0
41
1
10
2.70818365414391
20
3.67441878358841
30
0
41
1
10
2.92402166940246
20
3.73592347436875
30
0
41
1
10
3.03676098653031
20
3.76256307594201
30
0
41
1
10
3.2092624471039
20
3.79777858634026
30
0
41
1
10
3.26739362631662
20
3.80873527084213
30
0
41
1
10
3.35542001689342
20
3.82417974391396
30
0
41
1
10
3.38490076225799
20
3.82916229792548
30
0
41
1
10
3.42931771355569
20
3.83640666210206
30
0
41
1
10
3.44418473113456
20
3.83876591372476
30
0
41
1
10
3.47379315652555
20
3.84352478097844
30
0
41
1
10
3.48870565605785
20
3.84591906969487
30
0
41
1
10
3.5350864163791
20
3.85065984545508
30
0
41
1
10
3.567866977357
20
3.85150974074145
30
0
41
1
10
3.63332966794314
20
3.85134695816163
30
0
41
1
10
3.66604031115122
20
3.85100888116398
30
0
41
1
10
3.76419725507148
20
3.85030385033969
30
0
41
1
10
3.82962700270275
20
3.84973101179148
30
0
41
1
10
4.02589175175206
20
3.84770206253279
30
0
41
1
10
4.15667573153485
20
3.84593624047127
30
0
41
1
10
4.54870230789612
20
3.83937139037403
30
0
41
1
10
4.80968007327758
20
3.83330918504657
30
0
41
1
10
5.33090837116532
20
3.81750838438384
30
0
41
1
10
5.59138839414015
20
3.80775329939274
30
0
41
1
10
6.36879160810832
20
3.77237906130878
30
0
41
1
10
6.88235726867077
20
3.740645214079
30
0
41
1
10
7.90078265610018
20
3.65621296277152
30
0
41
1
10
8.40561864402801
20
3.6034387459583
30
0
41
1
10
9.4076165700591
20
3.47158565215338
30
0
41
1
10
9.90477768394092
20
3.39246533180702
30
0
41
1
10
10.8930273688852
20
3.20356494643937
30
0
41
1
10
11.384119802983
20
3.09375380848053
30
0
41
1
10
11.8732668883849
20
2.96755383745082
30
0
0
SPLINE
5
C2
100
AcDbEntity
8
1
62
256
6
ByLayer
370
18
48
1
60
0
100
AcDbSpline
70
4
71
3
72
8
73
4
40
0
40
0
40
0
40
0
40
1
40
1
40
1
40
1
41
1
10
62.8665100418246
20
1.00179284445758
30
0
41
1
10
62.8607957361259
20
0.981207570141038
30
0
41
1
10
62.8549892614964
20
0.960662591223951
30
0
41
1
10
62.8490932401859
20
0.940157207316531
30
0
0
SPLINE
5
C3
100
AcDbEntity
8
1
62
256
6
ByLayer
370
18
48
1
60
0
100
AcDbSpline
70
4
71
3
72
24
73
20
40
0
40
0
40
0
40
0
40
0.0624999999999992
40
0.0624999999999992
40
0.124999999999999
40
0.124999999999999
40
0.249999999999999
40
0.249999999999999
40
0.374999999999999
40
0.374999999999999
40
0.499999999999999
40
0.499999999999999
40
0.624999999999999
40
0.624999999999999
40
0.749999999999999
40
0.749999999999999
40
0.875
40
0.875
40
1
40
1
40
1
40
1
41
1
10
3.02433325536299
20
1.96198314500757
30
0
41
1
10
3.17070923560294
20
1.82986133720954
30
0
41
1
10
3.32917252385943
20
1.70341718287301
30
0
41
1
10
3.66042927411462
20
1.45689668072163
30
0
41
1
10
3.83059773974128
20
1.33892681062804
30
0
41
1
10
4.34968577186294
20
0.994592889383995
30
0
41
1
10
4.70698103515457
20
0.777549502569684
30
0
41
1
10
5.43370865491354
20
0.355757860344653
30
0
41
1
10
5.80387739873953
20
0.15129986559262
30
0
41
1
10
6.55168009038545
20
-0.24832446370533
30
0
41
1
10
6.92613984430463
20
-0.441281027097062
30
0
41
1
10
7.67629951093917
20
-0.814073138783641
30
0
41
1
10
8.05201021191863
20
-0.994362851198559
30
0
41
1
10
8.80564146175013
20
-1.3414590926657
30
0
41
1
10
9.18359199327276
20
-1.50777504482045
30
0
41
1
10
9.9432734200501
20
-1.82528908676878
30
0
41
1
10
10.3250087502677
20
-1.97626282386369
30
0
41
1
10
11.0943215477763
20
-2.2589257950529
30
0
41
1
10
11.481857423949
20
-2.39105727013279
30
0
41
1
10
11.8732668883849
20
-2.51279955141615
30
0
0
SPLINE
5
C4
100
AcDbEntity
8
1
62
256
6
ByLayer
370
13
48
1
60
0
100
AcDbSpline
70
4
71
3
72
30
73
26
40
0
40
0
40
0
40
0
40
0.0624999999999999
40
0.0624999999999999
40
0.125
40
0.1875
40
0.1875
40
0.25
40
0.25
40
0.375
40
0.375
40
0.4375
40
0.4375
40
0.5
40
0.5
40
0.625
40
0.625
40
0.6875
40
0.6875
40
0.75
40
0.8125
40
0.8125
40
0.875
40
0.875
40
1
40
1
40
1
40
1
41
1
10
3.02315168360846
20
-3.47206142937296
30
0
41
1
10
3.02319754688062
20
-3.41363001669541
30
0
41
1
10
3.02324205315597
20
-3.34878411692938
30
0
41
1
10
3.02332752546363
20
-3.20849275549261
30
0
41
1
10
3.02340969065654
20
-3.05739140917666
30
0
41
1
10
3.02348634550421
20
-2.88511959224897
30
0
41
1
10
3.02356071948026
20
-2.70214741187033
30
0
41
1
10
3.02359694097663
20
-2.60478811736073
30
0
41
1
10
3.02370151660639
20
-2.29980015802809
30
0
41
1
10
3.02376518367785
20
-2.08175115831841
30
0
41
1
10
3.02385450029985
20
-1.73319019693397
30
0
41
1
10
3.02388322392954
20
-1.61339355998044
30
0
41
1
10
3.02393886498405
20
-1.36632767996582
30
0
41
1
10
3.02396540133355
20
-1.24072932802594
30
0
41
1
10
3.02404121642491
20
-0.860160202400465
30
0
41
1
10
3.02408700100506
20
-0.600496153610436
30
0
41
1
10
3.02414918642313
20
-0.201896790027803
30
0
41
1
10
3.02416879088221
20
-0.0675118157077748
30
0
41
1
10
3.02420491086798
20
0.198574630393864
30
0
41
1
10
3.02423817663402
20
0.463429761121574
30
0
41
1
10
3.02426551783708
20
0.725838632255972
30
0
41
1
10
3.02428958833551
20
0.986992606775146
30
0
41
1
10
3.02429984142725
20
1.11544957865348
30
0
41
1
10
3.02432473167289
20
1.49192147321577
30
0
41
1
10
3.02433371286142
20
1.7323344168004
30
0
41
1
10
3.02433325417064
20
1.96198314425152
30
0
0
SPLINE
5
C5
100
AcDbEntity
8
1
62
256
6
ByLayer
370
13
48
1
60
0
100
AcDbSpline
70
4
71
3
72
12
73
8
40
0
40
0
40
0
40
0
40
0.500000000000001
40
0.500000000000001
40
0.750000000000001
40
0.750000000000001
40
1
40
1
40
1
40
1
41
1
10
2.7838855242257
20
-3.61618964974647
30
0
41
1
10
2.79376865464172
20
-3.61303542708953
30
0
41
1
10
2.8102359857015
20
-3.60992383862504
30
0
41
1
10
2.84420690720398
20
-3.60575323899999
30
0
41
1
10
2.85730931044435
20
-3.60442514524209
30
0
41
1
10
2.8859076107924
20
-3.60208058175837
30
0
41
1
10
2.90149220652637
20
-3.60104739361935
30
0
41
1
10
2.91854782148911
20
-3.60018504287672
30
0
0
SPLINE
5
C6
100
AcDbEntity
8
1
62
256
6
ByLayer
370
18
48
1
60
0
100
AcDbSpline
70
4
71
3
72
8
73
4
40
0
40
0
40
0
40
0
40
1
40
1
40
1
40
1
41
1
10
61.7729738340553
20
-3.98820417761715
30
0
41
1
10
61.7199894880206
20
-4.0435081019165
30
0
41
1
10
61.6660264040247
20
-4.07825030827394
30
0
41
1
10
61.6105101631854
20
-4.09251006480989
30
0
0
SPLINE
5
C7
100
AcDbEntity
8
1
62
256
6
ByLayer
370
18
48
1
60
0
100
AcDbSpline
70
4
71
3
72
14
73
10
40
0
40
0
40
0
40
0
40
0.25
40
0.25
40
0.5
40
0.5
40
0.75
40
0.75
40
1
40
1
40
1
40
1
41
1
10
61.6616378359806
20
-3.89207964180764
30
0
41
1
10
61.6648797702003
20
-3.89155797484236
30
0
41
1
10
61.6674297666571
20
-3.89280107432472
30
0
41
1
10
61.6707715500329
20
-3.89980772176327
30
0
41
1
10
61.6715032137446
20
-3.90567243065146
30
0
41
1
10
61.6701673370197
20
-3.92275573281589
30
0
41
1
10
61.6680638970672
20
-3.93388017930562
30
0
41
1
10
61.6613596776773
20
-3.95877180123364
30
0
41
1
10
61.6568003083677
20
-3.97242089355183
30
0
41
1
10
61.6517520478903
20
-3.98555139280438
30
0
0
SPLINE
5
C8
100
AcDbEntity
8
1
62
256
6
ByLayer
370
18
48
1
60
0
100
AcDbSpline
70
4
71
3
72
16
73
12
40
0
40
0
40
0
40
0
40
0.163991233247996
40
0.163991233247996
40
0.308603674927782
40
0.308603674927782
40
0.45321611660757
40
0.45321611660757
40
0.742440999967153
40
0.742440999967153
40
1
40
1
40
1
40
1
41
1
10
20.2829596728556
20
0.0033750347767523
30
0
41
1
10
20.6280088648936
20
-0.154762866621155
30
0
41
1
10
20.9733740282867
20
-0.31305968314652
30
0
41
1
10
21.6246900240692
20
-0.609452570239228
30
0
41
1
10
21.9304562646301
20
-0.747766725026594
30
0
41
1
10
22.5436680296242
20
-1.0219811302741
30
0
41
1
10
22.8516484466181
20
-1.15801575041502
30
0
41
1
10
23.7757061761806
20
-1.55870881181562
30
0
41
1
10
24.3873411027956
20
-1.81433043762843
30
0
41
1
10
25.5400189557221
20
-2.26709810801472
30
0
41
1
10
26.0813984466016
20
-2.46764801181746
30
0
41
1
10
26.6228375958186
20
-2.65274250674125
30
0
0
SPLINE
5
C9
100
AcDbEntity
8
1
62
256
6
ByLayer
370
13
48
1
60
0
100
AcDbSpline
70
4
71
3
72
16
73
12
40
0
40
0
40
0
40
0
40
0.221278131797849
40
0.221278131797849
40
0.320999202801569
40
0.320999202801569
40
0.420720273805289
40
0.420720273805289
40
0.620162415812729
40
0.620162415812729
40
1
40
1
40
1
40
1
41
1
10
26.6228375957892
20
-2.65274250673119
30
0
41
1
10
27.2974124453833
20
-2.88335030680412
30
0
41
1
10
27.9720798994853
20
-3.08996748641209
30
0
41
1
10
28.95553236932
20
-3.3472317435278
30
0
41
1
10
29.2616914669155
20
-3.42124434966479
30
0
41
1
10
29.8759164559729
20
-3.55655312242089
30
0
41
1
10
30.1844266507
20
-3.61790997314534
30
0
41
1
10
31.1084005236045
20
-3.78066357682749
30
0
41
1
10
31.7236594987436
20
-3.86114497812403
30
0
41
1
10
33.5136271579867
20
-4.00871444076975
30
0
41
1
10
34.6710478488528
20
-3.99583027408849
30
0
41
1
10
35.8283462010898
20
-3.87857117323975
30
0
0
SPLINE
5
CA
100
AcDbEntity
8
1
62
256
6
ByLayer
370
13
48
1
60
0
100
AcDbSpline
70
4
71
3
72
8
73
4
40
0
40
0
40
0
40
0
40
1
40
1
40
1
40
1
41
1
10
2.91652791999542
20
-3.68333796247677
30
0
41
1
10
2.91719706799014
20
-3.65562254109173
30
0
41
1
10
2.91787037263282
20
-3.62790492007798
30
0
41
1
10
2.91854782148914
20
-3.60018504287672
30
0
0
SPLINE
5
CB
100
AcDbEntity
8
1
62
256
6
ByLayer
370
18
48
1
60
0
100
AcDbSpline
70
4
71
3
72
8
73
4
40
0
40
0
40
0
40
0
40
1
40
1
40
1
40
1
41
1
10
62.9712102291277
20
-0.448005254488407
30
0
41
1
10
62.9836458439382
20
-0.333878714719333
30
0
41
1
10
62.9912003414097
20
-0.219866320512921
30
0
41
1
10
62.992730642927
20
-0.105994802910942
30
0
0
SPLINE
5
CC
100
AcDbEntity
8
1
62
256
6
ByLayer
370
18
48
1
60
0
100
AcDbSpline
70
4
71
3
72
18
73
14
40
0
40
0
40
0
40
0
40
0.250000000000015
40
0.250000000000015
40
0.50000000000003
40
0.50000000000003
40
0.625000000000023
40
0.625000000000023
40
0.750000000000015
40
0.750000000000015
40
0.875000000000008
40
0.875000000000008
40
1
40
1
40
1
40
1
41
1
10
2.77721329386299
20
1.98057149496932
30
0
41
1
10
2.78125373422964
20
1.99548540706661
30
0
41
1
10
2.78808800912247
20
2.00940099940809
30
0
41
1
10
2.81043165246661
20
2.03297513654715
30
0
41
1
10
2.82560955327574
20
2.04282433826717
30
0
41
1
10
2.86051702148461
20
2.04719087461589
30
0
41
1
10
2.8743807479683
20
2.04664095092232
30
0
41
1
10
2.90511044132407
20
2.03959852947921
30
0
41
1
10
2.921913238424
20
2.0330201784673
30
0
41
1
10
2.95419188104637
20
2.0160783430955
30
0
41
1
10
2.96958333495169
20
2.00595069761278
30
0
41
1
10
2.99824849261225
20
1.98466654611983
30
0
41
1
10
3.01168829402596
20
1.97339673315105
30
0
41
1
10
3.02433325417064
20
1.96198314608378
30
0
0
SPLINE
5
CD
100
AcDbEntity
8
1
62
256
6
ByLayer
370
18
48
1
60
0
100
AcDbSpline
70
4
71
3
72
10
73
6
40
0
40
0
40
0
40
0
40
0.5
40
0.5
40
1
40
1
40
1
40
1
41
1
10
62.9641439591553
20
-0.0577219195299392
30
0
41
1
10
62.6565128701685
20
-0.56165606133905
30
0
41
1
10
62.3299827346619
20
-1.04609018684045
30
0
41
1
10
61.6567543165781
20
-1.99414896492255
30
0
41
1
10
61.3096161245244
20
-2.45754970256732
30
0
41
1
10
60.9564331451563
20
-2.91381877921339
30
0
0
LINE
5
76
100
AcDbEntity
8
81
62
256
6
ByLayer
370
18
48
1
60
0
100
AcDbLine
10
63
20
0
30
0
11
68
21
0
31
0
39
0
210
0
220
0
230
1
0
LINE
5
77
100
AcDbEntity
8
1
62
256
6
ByLayer
370
18
48
1
60
0
100
AcDbLine
10
33.890646
20
4.082574
30
0
11
32.550114
21
4.081736
31
0
39
0
210
0
220
0
230
1
0
LINE
5
79
100
AcDbEntity
8
1
62
256
6
ByLayer
370
18
48
1
60
0
100
AcDbLine
10
61.090947
20
4.099574
30
0
11
59.746657
21
4.098734
31
0
39
0
210
0
220
0
230
1
0
LINE
5
7A
100
AcDbEntity
8
1
62
256
6
ByLayer
370
18
48
1
60
0
100
AcDbLine
10
59.746657
20
-4.098734
30
0
11
61.091097
21
-4.099574
31
0
39
0
210
0
220
0
230
1
0
LINE
5
7B
100
AcDbEntity
8
1
62
256
6
ByLayer
370
18
48
1
60
0
100
AcDbLine
10
32.550114
20
-4.081736
30
0
11
33.890224
21
-4.082573
31
0
39
0
210
0
220
0
230
1
0
LINE
5
7C
100
AcDbEntity
8
1
62
256
6
ByLayer
370
18
48
1
60
0
100
AcDbLine
10
0.350219
20
-4.061611
30
0
11
6.690035
21
-4.065573
31
0
39
0
210
0
220
0
230
1
0
LINE
5
7D
100
AcDbEntity
8
SK1
62
256
6
ByLayer
370
18
48
1
60
0
100
AcDbLine
10
-38.845299
20
5
30
0
11
-40
21
3
31
0
39
0
210
0
220
0
230
1
0
LINE
5
7F
100
AcDbEntity
8
SK1
62
256
6
ByLayer
370
18
48
1
60
0
100
AcDbLine
10
-40
20
-3
30
0
11
-38.845299
21
-5
31
0
39
0
210
0
220
0
230
1
0
LINE
5
80
100
AcDbEntity
8
SK1
62
256
6
ByLayer
370
18
48
1
60
0
100
AcDbLine
10
0
20
5
30
0
11
-38.845299
21
5
31
0
39
0
210
0
220
0
230
1
0
LINE
5
81
100
AcDbEntity
8
SK1
62
256
6
ByLayer
370
18
48
1
60
0
100
AcDbLine
10
-38.845299
20
-5
30
0
11
0
21
-5
31
0
39
0
210
0
220
0
230
1
0
LINE
5
82
100
AcDbEntity
8
1
62
256
6
ByLayer
370
18
48
1
60
0
100
AcDbLine
10
6.689904
20
4.065573
30
0
11
0.350219
21
4.061611
31
0
39
0
210
0
220
0
230
1
0
LINE
5
83
100
AcDbEntity
8
SK4
62
256
6
ByLayer
370
18
48
0.05
60
0
100
AcDbLine
10
68
20
0
30
0
11
-45
21
0
31
0
39
0
210
0
220
0
230
1
0
LINE
5
85
100
AcDbEntity
8
4
62
256
6
ByLayer
370
18
48
0.05
60
0
100
AcDbLine
10
63
20
0
30
0
11
0
21
0
31
0
39
0
210
0
220
0
230
1
0
LINE
5
87
100
AcDbEntity
8
80
62
256
6
ByLayer
370
18
48
1
60
0
100
AcDbLine
10
0
20
0
30
0
11
-5
21
0
31
0
39
0
210
0
220
0
230
1
0
LINE
5
88
100
AcDbEntity
8
SK1
62
256
6
ByLayer
370
18
48
1
60
0
100
AcDbLine
10
-40
20
3
30
0
11
-40
21
-3
31
0
39
0
210
0
220
0
230
1
0
LINE
5
89
100
AcDbEntity
8
SK1
62
256
6
ByLayer
370
18
48
1
60
0
100
AcDbLine
10
0
20
5
30
0
11
0
21
-5
31
0
39
0
210
0
220
0
230
1
0
LINE
5
8A
100
AcDbEntity
8
SK1
62
256
6
ByLayer
370
18
48
1
60
0
100
AcDbLine
10
-38.845299
20
5
30
0
11
-38.845299
21
-5
31
0
39
0
210
0
220
0
230
1
0
LINE
5
8B
100
AcDbEntity
8
1
62
256
6
ByLayer
370
13
48
1
60
0
100
AcDbLine
10
0.350219
20
4.061611
30
0
11
0.350219
21
-4.061611
31
0
39
0
210
0
220
0
230
1
0
LINE
5
8C
100
AcDbEntity
8
1
62
256
6
ByLayer
370
13
48
1
60
0
100
AcDbLine
10
61.463041
20
0.892512
30
0
11
62.964144
21
-0.057722
31
0
39
0
210
0
220
0
230
1
0
LINE
5
8D
100
AcDbEntity
8
1
62
256
6
ByLayer
370
13
48
1
60
0
100
AcDbLine
10
61.597499
20
0.98921
30
0
11
62.992731
21
0.105995
31
0
39
0
210
0
220
0
230
1
0
MTEXT
5
CE
100
AcDbEntity
8
SK6
62
256
6
ByLayer
370
13
48
1
60
0
100
AcDbMText
10
13.629169
20
36.482694
30
0
210
0
220
0
230
1
1
\W0.7585;460.1-0820-041A0-XM GC34
40
3.5
41
0
44
1.084337
50
0
71
8
72
5
7
iso_b_vert
0
DIMENSION
5
DB
100
AcDbEntity
8
SK2
62
256
6
ByLayer
370
13
48
1
60
0
100
AcDbDimension
2
DimnDraft3D1
10
61.7873
20
-14.313398
30
0
11
29.537359
21
-14.313398
31
0
70
32
71
5
72
1
41
1
210
0
220
0
230
1
3
Standard
100
AcDbAlignedDimension
13
0
23
-1.5875
33
0
14
61.7873
24
-5.6875
34
0
50
0
100
AcDbRotatedDimension
1001
ACAD
1000
DSTYLE
1002
{
1070
   279
1070
     0
1070
   172
1070
     1
1070
   173
1070
     1
1070
   340
1005
CF
1070
   271
1070
     2
1070
   272
1070
     2
1070
    77
1070
     1
1070
    73
1070
     0
1070
   171
1070
     3
1070
   274
1070
     4
1070
   177
1070
    35
1070
   176
1070
    35
1070
   178
1070
    35
1070
    48
1040
-0.005
1070
    41
1041
3.5
1070
   147
1041
1.75
1070
    42
1041
1.5875
1070
    44
1041
2.0
1070
   140
1041
3.5
1070
   343
1005
0
1070
   344
1005
0
1002
}
0
DIMENSION
5
E5
100
AcDbEntity
8
SK2
62
256
6
ByLayer
370
13
48
1
60
0
100
AcDbDimension
2
DimnDraft3D2
10
63
20
-33.692985
30
0
11
11.6286
21
-33.692985
31
0
70
32
71
5
72
1
41
1
210
0
220
0
230
1
3
Standard
100
AcDbAlignedDimension
13
-40
23
-6.5875
33
0
14
63
24
-1.5875
34
0
50
0
100
AcDbRotatedDimension
1001
ACAD
1000
DSTYLE
1002
{
1070
   279
1070
     0
1070
   172
1070
     1
1070
   173
1070
     1
1070
   340
1005
CF
1070
   271
1070
     2
1070
   272
1070
     2
1070
    77
1070
     1
1070
    73
1070
     0
1070
   171
1070
     3
1070
   274
1070
     4
1070
   177
1070
    35
1070
   176
1070
    35
1070
   178
1070
    35
1070
    48
1040
-0.005
1070
    41
1041
3.5
1070
   147
1041
1.75
1070
    42
1041
1.5875
1070
    44
1041
2.0
1070
   140
1041
3.5
1070
   343
1005
0
1070
   344
1005
0
1002
}
0
DIMENSION
5
EF
100
AcDbEntity
8
SK2
62
256
6
ByLayer
370
13
48
1
60
0
100
AcDbDimension
2
DimnDraft3D3
10
63
20
15.709119
30
0
11
41.895
21
15.709119
31
0
70
32
71
5
72
1
41
1
210
0
220
0
230
1
3
Standard
100
AcDbAlignedDimension
13
20.79
23
5.6875
33
0
14
63
24
1.5875
34
0
50
0
100
AcDbRotatedDimension
1001
ACAD
1000
DSTYLE
1002
{
1070
   279
1070
     0
1070
   172
1070
     1
1070
   173
1070
     1
1070
   340
1005
CF
1070
   271
1070
     2
1070
   272
1070
     2
1070
    77
1070
     1
1070
    73
1070
     0
1070
   171
1070
     3
1070
   274
1070
     4
1070
   177
1070
    35
1070
   176
1070
    35
1070
   178
1070
    35
1070
    48
1040
-0.005
1070
    41
1041
3.5
1070
   147
1041
1.75
1070
    42
1041
1.5875
1070
    44
1041
2.0
1070
   140
1041
3.5
1070
   343
1005
0
1070
   344
1005
0
1002
}
0
DIMENSION
5
F9
100
AcDbEntity
8
SK2
62
256
6
ByLayer
370
13
48
1
60
0
100
AcDbDimension
2
DimnDraft3D4
10
61.7873
20
-16.902503
30
0
11
72.981425
21
-16.902503
31
0
70
32
71
5
72
1
41
1
210
0
220
0
230
1
3
Standard
100
AcDbAlignedDimension
13
63
23
-1.5875
33
0
14
61.7873
24
-5.6875
34
0
50
0
100
AcDbRotatedDimension
1001
ACAD
1000
DSTYLE
1002
{
1070
   279
1070
     0
1070
   172
1070
     1
1070
   173
1070
     1
1070
   340
1005
CF
1070
   271
1070
     2
1070
   272
1070
     2
1070
    77
1070
     1
1070
    73
1070
     0
1070
   171
1070
     3
1070
   274
1070
     4
1070
   177
1070
    35
1070
   176
1070
    35
1070
   178
1070
    35
1070
    48
1040
-0.005
1070
    41
1041
3.5
1070
   147
1041
1.75
1070
    42
1041
1.5875
1070
    44
1041
2.0
1070
   140
1041
3.5
1070
   343
1005
0
1070
   344
1005
0
1002
}
0
DIMENSION
5
103
100
AcDbEntity
8
SK2
62
256
6
ByLayer
370
13
48
1
60
0
100
AcDbDimension
2
DimnDraft3D5
10
61.7873
20
-23.343428
30
0
11
8.547976
21
-23.343428
31
0
70
32
71
5
72
1
41
1
210
0
220
0
230
1
3
Standard
100
AcDbAlignedDimension
13
-40
23
-6.5875
33
0
14
61.7873
24
-5.6875
34
0
50
0
100
AcDbRotatedDimension
1001
ACAD
1000
DSTYLE
1002
{
1070
   279
1070
     0
1070
   172
1070
     1
1070
   173
1070
     1
1070
   340
1005
CF
1070
   271
1070
     2
1070
   272
1070
     2
1070
    77
1070
     1
1070
    73
1070
     0
1070
   171
1070
     3
1070
   274
1070
     4
1070
   177
1070
    35
1070
   176
1070
    35
1070
   178
1070
    35
1070
    48
1040
-0.005
1070
    41
1041
3.5
1070
   147
1041
1.75
1070
    42
1041
1.5875
1070
    44
1041
2.0
1070
   140
1041
3.5
1070
   343
1005
0
1070
   344
1005
0
1002
}
0
DIMENSION
5
10E
100
AcDbEntity
8
SK2
62
256
6
ByLayer
370
13
48
1
60
0
100
AcDbDimension
2
DimnDraft3D6
10
-50.625163
20
5
30
0
11
-51.250163
21
23.47418
31
0
70
33
71
5
72
1
41
1
210
0
220
0
230
1
3
Standard
100
AcDbAlignedDimension
13
-41.5875
23
-5
33
0
14
-41.5875
24
5
34
0
1001
ACAD
1000
DSTYLE
1002
{
1070
   279
1070
     0
1070
    74
1070
     0
1070
   173
1070
     1
1070
   340
1005
CF
1070
   271
1070
     3
1070
   272
1070
     2
1070
    77
1070
     1
1070
    73
1070
     0
1070
   171
1070
     3
1070
   274
1070
     4
1070
   177
1070
    35
1070
   176
1070
    35
1070
   178
1070
    35
1070
    48
1040
-0.005
1070
    41
1041
3.5
1070
   147
1041
1.75
1070
    42
1041
1.5875
1070
    44
1041
2.0
1070
   140
1041
3.5
1070
   343
1005
0
1070
   344
1005
0
1002
}
0
DIMENSION
5
119
100
AcDbEntity
8
2
62
256
6
ByLayer
370
13
48
1
60
0
100
AcDbDimension
2
DimnDraft3D7
10
77.083343
20
4.1
30
0
11
72.458343
21
21.167266
31
0
70
33
71
5
72
1
41
1
210
0
220
0
230
1
3
Standard
100
AcDbAlignedDimension
13
63.3748
23
-4.1
33
0
14
63.3748
24
4.1
34
0
1001
ACAD
1000
DSTYLE
1002
{
1070
   279
1070
     0
1070
    74
1070
     0
1070
   173
1070
     1
1070
   340
1005
CF
1070
   271
1070
     3
1070
   272
1070
     2
1070
    77
1070
     1
1070
    73
1070
     0
1070
   171
1070
     3
1070
   274
1070
     4
1070
   177
1070
    35
1070
   176
1070
    35
1070
   178
1070
    35
1070
    48
1040
-0.005
1070
    41
1041
3.5
1070
   147
1041
1.75
1070
    42
1041
1.5875
1070
    44
1041
2.0
1070
   140
1041
3.5
1070
   343
1005
0
1070
   344
1005
0
1002
}
0
ENDSEC
0
SECTION
2
OBJECTS
0
DICTIONARY
5
184
330
0
100
AcDbDictionary
280
0
281
1
3
ACAD_GROUP
350
185
3
ACAD_MLINESTYLE
350
186
0
DICTIONARY
5
185
330
0
100
AcDbDictionary
280
0
281
1
0
DICTIONARY
5
186
330
0
100
AcDbDictionary
280
0
281
1
3
Standard
350
18
0
MLINESTYLE
5
18
330
186
100
AcDbMlineStyle
2
Standard
70
0
3

62
256
51
90
52
90
71
2
49
-0.5
62
256
6
ByLayer
49
0.5
62
256
6
ByLayer
0
RASTERVARIABLES
5
172
330

100
AcDbRasterVariables
90
0
70
1
71
1
72
1
0
ENDSEC
0
EOF
