0
SECTION
2
HEADER
9
$ACADVER
1
AC1015
9
$DWGCODEPAGE
3
ANSI_1252
9
$HANDSEED
5
19f
9
$ANGBASE
50
0
9
$ANGDIR
70
0
9
$ATTMODE
70
1
9
$AUNITS
70
0
9
$AUPREC
70
0
9
$CECOLOR
62
256
9
$CELTSCALE
40
1
9
$CELTYPE
6
ByLayer
9
$CELWEIGHT
370
18
9
$CLAYER
8
0
9
$CMLJUST
70
0
9
$CMLSCALE
40
1
9
$CMLSTYLE
2
Standard
9
$DIMSTYLE
2
Standard
9
$TEXTSIZE
40
0.2
9
$TEXTSTYLE
7
Standard
9
$LUNITS
70
2
9
$LUPREC
70
4
9
$EXTNAMES
290
1
9
$INSUNITS
70
4
9
$LTSCALE
40
1
9
$LWDISPLAY
290
1
9
$PDMODE
70
0
9
$PDSIZE
40
0
9
$PLINEGEN
70
0
0
ENDSEC
0
SECTION
2
CLASSES
0
CLASS
1
RASTERVARIABLES
2
AcDbRasterVariables
3
ISM
90
0
280
0
281
0
0
ENDSEC
0
SECTION
2
TABLES
0
TABLE
2
VPORT
5
195
100
AcDbSymbolTable
0
VPORT
5
1
100
AcDbSymbolTableRecord
100
AcDbViewportTableRecord
2
*Active
70
0
10
0
20
0
11
1
21
1
12
-1
22
1
13
0
23
0
14
0.5
24
0.5
15
10
25
10
16
0
26
0
36
1
17
0
27
0
37
0
0
ENDTAB
0
TABLE
2
LTYPE
5
196
100
AcDbSymbolTable
0
LTYPE
5
14
100
AcDbSymbolTableRecord
100
AcDbLinetypeTableRecord
70
0
2
ByBlock
3

72
65
73
0
40
0
0
LTYPE
5
15
100
AcDbSymbolTableRecord
100
AcDbLinetypeTableRecord
70
0
2
ByLayer
3

72
65
73
0
40
0
0
LTYPE
5
16
100
AcDbSymbolTableRecord
100
AcDbLinetypeTableRecord
70
0
2
CONTINUOUS
3
Solid line
72
65
73
0
40
0
0
LTYPE
5
6A
100
AcDbSymbolTableRecord
100
AcDbLinetypeTableRecord
70
0
2
CENTER
3
____ _ ____ _ ____ _ ____
72
65
73
4
40
47.5
49
22
74
0
49
-8.5
74
0
49
8.5
74
0
49
-8.5
74
0
0
LTYPE
5
6B
100
AcDbSymbolTableRecord
100
AcDbLinetypeTableRecord
70
0
2
DASHED
3
__ __ __ __ __ __ __ __ __
72
65
73
2
40
25.72
49
12.86
74
0
49
-12.86
74
0
0
ENDTAB
0
TABLE
2
LAYER
5
197
100
AcDbSymbolTable
0
LAYER
5
10
100
AcDbSymbolTableRecord
100
AcDbLayerTableRecord
2
0
70
0
62
7
6
CONTINUOUS
290
1
370
-3
390
0
0
LAYER
5
6D
100
AcDbSymbolTableRecord
100
AcDbLayerTableRecord
2
81
70
0
62
-3
6
CONTINUOUS
290
1
370
-3
390
0
0
LAYER
5
6F
100
AcDbSymbolTableRecord
100
AcDbLayerTableRecord
2
80
70
0
62
-6
6
CONTINUOUS
290
1
370
-3
390
0
0
LAYER
5
74
100
AcDbSymbolTableRecord
100
AcDbLayerTableRecord
2
2
70
0
62
7
6
CONTINUOUS
290
1
370
-3
390
0
0
LAYER
5
78
100
AcDbSymbolTableRecord
100
AcDbLayerTableRecord
2
1
70
0
62
4
6
CONTINUOUS
290
1
370
-3
390
0
0
LAYER
5
86
100
AcDbSymbolTableRecord
100
AcDbLayerTableRecord
2
4
70
0
62
-2
6
CENTER
290
1
370
-3
390
0
0
LAYER
5
181
100
AcDbSymbolTableRecord
100
AcDbLayerTableRecord
2
SK2
70
0
62
7
6
CONTINUOUS
290
1
370
-3
390
0
0
LAYER
5
182
100
AcDbSymbolTableRecord
100
AcDbLayerTableRecord
2
SK1
70
0
62
4
6
CONTINUOUS
290
1
370
-3
390
0
0
LAYER
5
183
100
AcDbSymbolTableRecord
100
AcDbLayerTableRecord
2
SK4
70
0
62
2
6
CENTER
290
1
370
-3
390
0
0
LAYER
5
184
100
AcDbSymbolTableRecord
100
AcDbLayerTableRecord
2
SK6
70
0
62
5
6
CONTINUOUS
290
1
370
-3
390
0
0
ENDTAB
0
TABLE
2
STYLE
5
198
100
AcDbSymbolTable
0
STYLE
5
11
100
AcDbSymbolTableRecord
100
AcDbTextStyleTableRecord
2
Standard
3
txt
70
0
71
0
40
0
41
1
42
0
50
0
0
STYLE
5
DD
100
AcDbSymbolTableRecord
100
AcDbTextStyleTableRecord
2
iso_b_vert
3
simplex.shx
70
0
71
0
40
0
41
1
42
0
50
0
0
STYLE
5
DE
100
AcDbSymbolTableRecord
100
AcDbTextStyleTableRecord
2
DWGDirectTextStyle
3
simplex
70
0
71
0
40
0
41
1
42
0
50
0
0
ENDTAB
0
TABLE
2
DIMSTYLE
5
199
100
AcDbSymbolTable
100
AcDbDimStyleTable
0
DIMSTYLE
105
27
100
AcDbSymbolTableRecord
100
AcDbDimStyleTableRecord
2
Standard
70
0
3
<>
41
0.18
42
0.0625
44
0.18
140
0.18
147
0.09
73
0
74
0
77
1
271
2
275
0
278
52
280
0
340
11
0
ENDTAB
0
TABLE
2
VIEW
5
19a
100
AcDbSymbolTable
0
ENDTAB
0
TABLE
2
UCS
5
19b
100
AcDbSymbolTable
0
ENDTAB
0
TABLE
2
APPID
5
19c
100
AcDbSymbolTable
0
APPID
5
12
100
AcDbSymbolTableRecord
100
AcDbRegAppTableRecord
2
ACAD
70
0
0
ENDTAB
0
TABLE
2
BLOCK_RECORD
5
19d
100
AcDbSymbolTable
0
BLOCK_RECORD
5
1F
100
AcDbSymbolTableRecord
100
AcDbBlockTableRecord
2
*Model_Space
340
0
70
0
0
BLOCK_RECORD
5
1B
100
AcDbSymbolTableRecord
100
AcDbBlockTableRecord
2
*Paper_Space
340
0
70
0
0
BLOCK_RECORD
5
23
100
AcDbSymbolTableRecord
100
AcDbBlockTableRecord
2
*Paper_Space0
340
0
70
0
0
BLOCK_RECORD
5
E0
100
AcDbSymbolTableRecord
100
AcDbBlockTableRecord
2
DimnDraft3D1
340
0
70
0
0
BLOCK_RECORD
5
EA
100
AcDbSymbolTableRecord
100
AcDbBlockTableRecord
2
DimnDraft3D2
340
0
70
0
0
BLOCK_RECORD
5
F4
100
AcDbSymbolTableRecord
100
AcDbBlockTableRecord
2
DimnDraft3D3
340
0
70
0
0
BLOCK_RECORD
5
FE
100
AcDbSymbolTableRecord
100
AcDbBlockTableRecord
2
DimnDraft3D4
340
0
70
0
0
BLOCK_RECORD
5
108
100
AcDbSymbolTableRecord
100
AcDbBlockTableRecord
2
DimnDraft3D5
340
0
70
0
0
BLOCK_RECORD
5
112
100
AcDbSymbolTableRecord
100
AcDbBlockTableRecord
2
DimnDraft3D6
340
0
70
0
0
BLOCK_RECORD
5
11D
100
AcDbSymbolTableRecord
100
AcDbBlockTableRecord
2
DimnDraft3D7
340
0
70
0
0
ENDTAB
0
ENDSEC
0
SECTION
2
BLOCKS
0
BLOCK
5
20
100
AcDbEntity
8
0
100
AcDbBlockBegin
2
*Model_Space
70
0
10
0
20
0
30
0
3
*Model_Space
0
ENDBLK
5
21
100
AcDbEntity
8
0
100
AcDbBlockEnd
0
BLOCK
5
1C
100
AcDbEntity
8
0
100
AcDbBlockBegin
2
*Paper_Space
70
0
10
0
20
0
30
0
3
*Paper_Space
0
ENDBLK
5
1D
100
AcDbEntity
8
0
100
AcDbBlockEnd
0
BLOCK
5
24
100
AcDbEntity
8
0
100
AcDbBlockBegin
2
*Paper_Space0
70
0
10
0
20
0
30
0
3
*Paper_Space0
0
ENDBLK
5
25
100
AcDbEntity
8
0
100
AcDbBlockEnd
0
BLOCK
5
E7
100
AcDbEntity
8
0
100
AcDbBlockBegin
2
DimnDraft3D1
70
0
10
0
20
0
30
0
3
DimnDraft3D1
0
MTEXT
5
E1
100
AcDbEntity
8
SK2
62
256
6
ByLayer
370
13
48
1
60
0
100
AcDbMText
10
25.541175
20
-13.388398
30
0
210
0
220
0
230
1
1
\W0.6713;61,80
40
3.5
41
0
44
1.084337
50
0
71
7
72
5
7
iso_b_vert
0
LINE
5
E2
100
AcDbEntity
8
SK2
62
256
6
ByLayer
370
13
48
1
60
0
100
AcDbLine
10
0
20
-1.5875
30
0
11
0
21
-16.263398
31
0
39
0
210
0
220
0
230
1
0
LINE
5
E3
100
AcDbEntity
8
SK2
62
256
6
ByLayer
370
13
48
1
60
0
100
AcDbLine
10
61.8023
20
-5.6375
30
0
11
61.8023
21
-16.263398
31
0
39
0
210
0
220
0
230
1
0
LINE
5
E4
100
AcDbEntity
8
SK2
62
256
6
ByLayer
370
13
48
1
60
0
100
AcDbLine
10
0
20
-14.263398
30
0
11
61.8023
21
-14.263398
31
0
39
0
210
0
220
0
230
1
0
SOLID
5
E5
100
AcDbEntity
8
SK2
62
256
6
ByLayer
370
13
48
1
60
0
100
AcDbTrace
10
0
20
-14.263398
30
0
11
3.499998
21
-13.802615
31
0
12
3.500002
22
-14.724182
32
0
13
0
23
-14.263398
33
0
39
0
210
0
220
0
230
1
0
SOLID
5
E6
100
AcDbEntity
8
SK2
62
256
6
ByLayer
370
13
48
1
60
0
100
AcDbTrace
10
61.8023
20
-14.263398
30
0
11
58.302302
21
-14.724182
31
0
12
58.302298
22
-13.802615
32
0
13
61.8023
23
-14.263398
33
0
39
0
210
0
220
0
230
1
0
ENDBLK
5
E8
100
AcDbEntity
8
0
100
AcDbBlockEnd
0
BLOCK
5
F1
100
AcDbEntity
8
0
100
AcDbBlockBegin
2
DimnDraft3D2
70
0
10
0
20
0
30
0
3
DimnDraft3D2
0
MTEXT
5
EB
100
AcDbEntity
8
SK2
62
256
6
ByLayer
370
13
48
1
60
0
100
AcDbMText
10
6.324521
20
-32.817985
30
0
210
0
220
0
230
1
1
\W0.6930;103,00
40
3.5
41
0
44
1.084337
50
0
71
7
72
5
7
iso_b_vert
0
LINE
5
EC
100
AcDbEntity
8
SK2
62
256
6
ByLayer
370
13
48
1
60
0
100
AcDbLine
10
-40
20
-6.5875
30
0
11
-40
21
-35.692985
31
0
39
0
210
0
220
0
230
1
0
LINE
5
ED
100
AcDbEntity
8
SK2
62
256
6
ByLayer
370
13
48
1
60
0
100
AcDbLine
10
63
20
-1.5875
30
0
11
63
21
-35.692985
31
0
39
0
210
0
220
0
230
1
0
LINE
5
EE
100
AcDbEntity
8
SK2
62
256
6
ByLayer
370
13
48
1
60
0
100
AcDbLine
10
-40
20
-33.692985
30
0
11
63
21
-33.692985
31
0
39
0
210
0
220
0
230
1
0
SOLID
5
EF
100
AcDbEntity
8
SK2
62
256
6
ByLayer
370
13
48
1
60
0
100
AcDbTrace
10
-40
20
-33.692985
30
0
11
-36.500002
21
-33.232202
31
0
12
-36.499998
22
-34.153769
32
0
13
-40
23
-33.692985
33
0
39
0
210
0
220
0
230
1
0
SOLID
5
F0
100
AcDbEntity
8
SK2
62
256
6
ByLayer
370
13
48
1
60
0
100
AcDbTrace
10
63
20
-33.692985
30
0
11
59.500002
21
-34.153769
31
0
12
59.499998
22
-33.232202
32
0
13
63
23
-33.692985
33
0
39
0
210
0
220
0
230
1
0
ENDBLK
5
F2
100
AcDbEntity
8
0
100
AcDbBlockEnd
0
BLOCK
5
FB
100
AcDbEntity
8
0
100
AcDbBlockBegin
2
DimnDraft3D3
70
0
10
0
20
0
30
0
3
DimnDraft3D3
0
MTEXT
5
F5
100
AcDbEntity
8
SK2
62
256
6
ByLayer
370
13
48
1
60
0
100
AcDbMText
10
37.959605
20
16.534119
30
0
210
0
220
0
230
1
1
\W0.7059;41,69
40
3.5
41
0
44
1.084337
50
0
71
7
72
5
7
iso_b_vert
0
LINE
5
F6
100
AcDbEntity
8
SK2
62
256
6
ByLayer
370
13
48
1
60
0
100
AcDbLine
10
21.31
20
5.6375
30
0
11
21.31
21
17.659119
31
0
39
0
210
0
220
0
230
1
0
LINE
5
F7
100
AcDbEntity
8
SK2
62
256
6
ByLayer
370
13
48
1
60
0
100
AcDbLine
10
63
20
1.5875
30
0
11
63
21
17.659119
31
0
39
0
210
0
220
0
230
1
0
LINE
5
F8
100
AcDbEntity
8
SK2
62
256
6
ByLayer
370
13
48
1
60
0
100
AcDbLine
10
21.31
20
15.659119
30
0
11
63
21
15.659119
31
0
39
0
210
0
220
0
230
1
0
SOLID
5
F9
100
AcDbEntity
8
SK2
62
256
6
ByLayer
370
13
48
1
60
0
100
AcDbTrace
10
21.31
20
15.659119
30
0
11
24.809998
21
16.119903
31
0
12
24.810002
22
15.198335
32
0
13
21.31
23
15.659119
33
0
39
0
210
0
220
0
230
1
0
SOLID
5
FA
100
AcDbEntity
8
SK2
62
256
6
ByLayer
370
13
48
1
60
0
100
AcDbTrace
10
63
20
15.659119
30
0
11
59.500002
21
15.198335
31
0
12
59.499998
22
16.119903
32
0
13
63
23
15.659119
33
0
39
0
210
0
220
0
230
1
0
ENDBLK
5
FC
100
AcDbEntity
8
0
100
AcDbBlockEnd
0
BLOCK
5
105
100
AcDbEntity
8
0
100
AcDbBlockBegin
2
DimnDraft3D4
70
0
10
0
20
0
30
0
3
DimnDraft3D4
0
MTEXT
5
FF
100
AcDbEntity
8
SK2
62
256
6
ByLayer
370
13
48
1
60
0
100
AcDbMText
10
70.278136
20
-15.977503
30
0
210
0
220
0
230
1
1
\W0.6367;1,20
40
3.5
41
0
44
1.084337
50
0
71
7
72
5
7
iso_b_vert
0
LINE
5
100
100
AcDbEntity
8
SK2
62
256
6
ByLayer
370
13
48
1
60
0
100
AcDbLine
10
63
20
-1.5875
30
0
11
63
21
-18.852503
31
0
39
0
210
0
220
0
230
1
0
LINE
5
101
100
AcDbEntity
8
SK2
62
256
6
ByLayer
370
13
48
1
60
0
100
AcDbLine
10
61.8023
20
-5.6375
30
0
11
61.8023
21
-18.852503
31
0
39
0
210
0
220
0
230
1
0
LINE
5
102
100
AcDbEntity
8
SK2
62
256
6
ByLayer
370
13
48
1
60
0
100
AcDbLine
10
53.0523
20
-16.852503
30
0
11
76.559715
21
-16.852503
31
0
39
0
210
0
220
0
230
1
0
SOLID
5
103
100
AcDbEntity
8
SK2
62
256
6
ByLayer
370
13
48
1
60
0
100
AcDbTrace
10
63
20
-16.852503
30
0
11
66.499998
21
-16.391719
31
0
12
66.500002
22
-17.313287
32
0
13
63
23
-16.852503
33
0
39
0
210
0
220
0
230
1
0
SOLID
5
104
100
AcDbEntity
8
SK2
62
256
6
ByLayer
370
13
48
1
60
0
100
AcDbTrace
10
61.8023
20
-16.852503
30
0
11
58.302302
21
-17.313287
31
0
12
58.302298
22
-16.391719
32
0
13
61.8023
23
-16.852503
33
0
39
0
210
0
220
0
230
1
0
ENDBLK
5
106
100
AcDbEntity
8
0
100
AcDbBlockEnd
0
BLOCK
5
10F
100
AcDbEntity
8
0
100
AcDbBlockBegin
2
DimnDraft3D5
70
0
10
0
20
0
30
0
3
DimnDraft3D5
0
MTEXT
5
109
100
AcDbEntity
8
SK2
62
256
6
ByLayer
370
13
48
1
60
0
100
AcDbMText
10
3.681397
20
-22.468428
30
0
210
0
220
0
230
1
1
\W0.6440;101,80
40
3.5
41
0
44
1.084337
50
0
71
7
72
5
7
iso_b_vert
0
LINE
5
10A
100
AcDbEntity
8
SK2
62
256
6
ByLayer
370
13
48
1
60
0
100
AcDbLine
10
-40
20
-6.5875
30
0
11
-40
21
-25.343428
31
0
39
0
210
0
220
0
230
1
0
LINE
5
10B
100
AcDbEntity
8
SK2
62
256
6
ByLayer
370
13
48
1
60
0
100
AcDbLine
10
61.8023
20
-5.6375
30
0
11
61.8023
21
-25.343428
31
0
39
0
210
0
220
0
230
1
0
LINE
5
10C
100
AcDbEntity
8
SK2
62
256
6
ByLayer
370
13
48
1
60
0
100
AcDbLine
10
-40
20
-23.343428
30
0
11
61.8023
21
-23.343428
31
0
39
0
210
0
220
0
230
1
0
SOLID
5
10D
100
AcDbEntity
8
SK2
62
256
6
ByLayer
370
13
48
1
60
0
100
AcDbTrace
10
-40
20
-23.343428
30
0
11
-36.500002
21
-22.882645
31
0
12
-36.499998
22
-23.804212
32
0
13
-40
23
-23.343428
33
0
39
0
210
0
220
0
230
1
0
SOLID
5
10E
100
AcDbEntity
8
SK2
62
256
6
ByLayer
370
13
48
1
60
0
100
AcDbTrace
10
61.8023
20
-23.343428
30
0
11
58.302302
21
-23.804212
31
0
12
58.302298
22
-22.882645
32
0
13
61.8023
23
-23.343428
33
0
39
0
210
0
220
0
230
1
0
ENDBLK
5
110
100
AcDbEntity
8
0
100
AcDbBlockEnd
0
BLOCK
5
11A
100
AcDbEntity
8
0
100
AcDbBlockBegin
2
DimnDraft3D6
70
0
10
0
20
0
30
0
3
DimnDraft3D6
0
MTEXT
5
113
100
AcDbEntity
8
SK2
62
256
6
ByLayer
370
13
48
1
60
0
100
AcDbMText
10
-50.375163
20
24.34918
30
0
210
0
220
0
230
1
1
\W0.6930;10,000
40
3.5
41
0
44
1.084337
50
90
71
7
72
5
7
iso_b_vert
0
MTEXT
5
114
100
AcDbEntity
8
SK2
62
256
6
ByLayer
370
13
48
1
60
0
100
AcDbMText
10
-50.375163
20
19.126524
30
0
210
0
220
0
230
1
1
%%c
40
3.5
41
0
44
1.084337
50
90
71
7
72
5
7
iso_b_vert
0
LINE
5
115
100
AcDbEntity
8
SK2
62
256
6
ByLayer
370
13
48
1
60
0
100
AcDbLine
10
-41.5875
20
-5
30
0
11
-50.625163
21
-5
31
0
39
0
210
0
220
0
230
1
0
LINE
5
116
100
AcDbEntity
8
SK2
62
256
6
ByLayer
370
13
48
1
60
0
100
AcDbLine
10
-41.5875
20
5
30
0
11
-50.625163
21
5
31
0
39
0
210
0
220
0
230
1
0
LINE
5
117
100
AcDbEntity
8
SK2
62
256
6
ByLayer
370
13
48
1
60
0
100
AcDbLine
10
-48.625163
20
-5
30
0
11
-48.625163
21
35.862338
31
0
39
0
210
0
220
0
230
1
0
SOLID
5
118
100
AcDbEntity
8
SK2
62
256
6
ByLayer
370
13
48
1
60
0
100
AcDbTrace
10
-48.625163
20
-5
30
0
11
-49.085946
21
-1.500002
31
0
12
-48.164379
22
-1.499998
32
0
13
-48.625163
23
-5
33
0
39
0
210
0
220
0
230
1
0
SOLID
5
119
100
AcDbEntity
8
SK2
62
256
6
ByLayer
370
13
48
1
60
0
100
AcDbTrace
10
-48.625163
20
5
30
0
11
-48.164379
21
1.500002
31
0
12
-49.085946
22
1.499998
32
0
13
-48.625163
23
5
33
0
39
0
210
0
220
0
230
1
0
ENDBLK
5
11B
100
AcDbEntity
8
0
100
AcDbBlockEnd
0
BLOCK
5
125
100
AcDbEntity
8
0
100
AcDbBlockBegin
2
DimnDraft3D7
70
0
10
0
20
0
30
0
3
DimnDraft3D7
0
MTEXT
5
11E
100
AcDbEntity
8
2
62
256
6
ByLayer
370
13
48
1
60
0
100
AcDbMText
10
73.333343
20
21.992266
30
0
210
0
220
0
230
1
1
\W0.6713;8,100
40
3.5
41
0
44
1.084337
50
90
71
7
72
5
7
iso_b_vert
0
MTEXT
5
11F
100
AcDbEntity
8
2
62
256
6
ByLayer
370
13
48
1
60
0
100
AcDbMText
10
73.333343
20
16.76961
30
0
210
0
220
0
230
1
1
%%c
40
3.5
41
0
44
1.084337
50
90
71
7
72
5
7
iso_b_vert
0
LINE
5
120
100
AcDbEntity
8
2
62
256
6
ByLayer
370
13
48
1
60
0
100
AcDbLine
10
63.3898
20
-4.05
30
0
11
77.083343
21
-4.05
31
0
39
0
210
0
220
0
230
1
0
LINE
5
121
100
AcDbEntity
8
2
62
256
6
ByLayer
370
13
48
1
60
0
100
AcDbLine
10
63.3898
20
4.05
30
0
11
77.083343
21
4.05
31
0
39
0
210
0
220
0
230
1
0
LINE
5
122
100
AcDbEntity
8
2
62
256
6
ByLayer
370
13
48
1
60
0
100
AcDbLine
10
75.083343
20
-4.05
30
0
11
75.083343
21
30.889635
31
0
39
0
210
0
220
0
230
1
0
SOLID
5
123
100
AcDbEntity
8
2
62
256
6
ByLayer
370
13
48
1
60
0
100
AcDbTrace
10
75.083343
20
-4.05
30
0
11
74.622559
21
-0.550002
31
0
12
75.544126
22
-0.549998
32
0
13
75.083343
23
-4.05
33
0
39
0
210
0
220
0
230
1
0
SOLID
5
124
100
AcDbEntity
8
2
62
256
6
ByLayer
370
13
48
1
60
0
100
AcDbTrace
10
75.083343
20
4.05
30
0
11
75.544126
21
0.550002
31
0
12
74.622559
22
0.549998
32
0
13
75.083343
23
4.05
33
0
39
0
210
0
220
0
230
1
0
ENDBLK
5
126
100
AcDbEntity
8
0
100
AcDbBlockEnd
0
ENDSEC
0
SECTION
2
ENTITIES
0
ARC
5
92
100
AcDbEntity
8
1
62
256
6
ByLayer
370
18
48
1
60
0
100
AcDbCircle
39
0
10
-0.35
20
4.361601
30
0
40
0.350000000000001
210
0
220
0
230
-1
100
AcDbArc
50
269.96419
51
0
0
ARC
5
93
100
AcDbEntity
8
1
62
256
6
ByLayer
370
18
48
1
60
0
100
AcDbCircle
39
0
10
-0.35
20
-4.361601
30
0
40
0.350000000000001
210
0
220
0
230
-1
100
AcDbArc
50
0
51
90.03581
0
ELLIPSE
5
94
100
AcDbEntity
8
1
62
256
6
ByLayer
370
13
48
1
60
0
100
AcDbEllipse
10
3.039096
20
-3.519478
30
0
11
0.0194342564282231
21
0.098093372238302
31
0
210
0
220
0
230
1
40
0.370104
41
0.488214127849965
42
2.03829663951716
0
ELLIPSE
5
95
100
AcDbEntity
8
1
62
256
6
ByLayer
370
13
48
1
60
0
100
AcDbEllipse
10
2.976957
20
-3.519294
30
0
11
-0.020625135419651
21
0.0978499043889214
31
0
210
0
220
0
230
1
40
0.504898
41
0.485332081711017
42
1.86529703199601
0
POINT
5
6C
100
AcDbEntity
8
81
62
256
6
ByLayer
370
18
48
1
60
0
100
AcDbPoint
10
63
20
0
30
0
39
0
210
0
220
0
230
1
50
360
0
POINT
5
6E
100
AcDbEntity
8
80
62
256
6
ByLayer
370
18
48
1
60
0
100
AcDbPoint
10
0
20
0
30
0
39
0
210
0
220
0
230
1
50
360
0
POINT
5
70
100
AcDbEntity
8
SK2
62
256
6
ByLayer
370
18
48
1
60
1
100
AcDbPoint
10
-40
20
-5
30
0
39
0
210
0
220
0
230
1
50
360
0
POINT
5
72
100
AcDbEntity
8
SK2
62
256
6
ByLayer
370
18
48
1
60
1
100
AcDbPoint
10
-40
20
5
30
0
39
0
210
0
220
0
230
1
50
360
0
POINT
5
73
100
AcDbEntity
8
2
62
256
6
ByLayer
370
18
48
1
60
1
100
AcDbPoint
10
61.8023
20
-4.05
30
0
39
0
210
0
220
0
230
1
50
360
0
POINT
5
75
100
AcDbEntity
8
2
62
256
6
ByLayer
370
18
48
1
60
1
100
AcDbPoint
10
61.8023
20
4.05
30
0
39
0
210
0
220
0
230
1
50
360
0
SPLINE
5
96
100
AcDbEntity
8
1
62
256
6
ByLayer
370
18
48
1
60
0
100
AcDbSpline
70
4
71
1
72
4
73
2
40
0
40
0
40
1
40
1
41
1
10
20.2981332632213
20
0.0023678480878857
30
0
41
1
10
20.2981425750472
20
0.0023640544742136
30
0
0
SPLINE
5
97
100
AcDbEntity
8
1
62
256
6
ByLayer
370
18
48
1
60
0
100
AcDbSpline
70
4
71
3
72
26
73
22
40
0
40
0
40
0
40
0
40
0.0052724752450745
40
0.0463884285791262
40
0.112510017286066
40
0.199223338142311
40
0.286093233251634
40
0.369616166978225
40
0.443536090327535
40
0.51148983531317
40
0.561274053658502
40
0.609145987540462
40
0.651712299274408
40
0.691810729996089
40
0.74396067335096
40
0.801952953459453
40
0.847204172693215
40
0.88687692732547
40
0.931621026094041
40
0.979579896435765
40
1
40
1
40
1
40
1
41
1
10
46.5623863958992
20
3.83740235735934
30
0
41
1
10
46.5450102861614
20
3.83745438419194
30
0
41
1
10
46.3919889547218
20
3.8378674232668
30
0
41
1
10
46.0141182907542
20
3.83734268567125
30
0
41
1
10
45.3672323048535
20
3.83521078390112
30
0
41
1
10
44.5655815124455
20
3.83702695064955
30
0
41
1
10
43.7064290952358
20
3.83407864947523
30
0
41
1
10
42.8898485211016
20
3.83597087164563
30
0
41
1
10
42.1365365636063
20
3.83428549656802
30
0
41
1
10
41.4959744644961
20
3.83400189874433
30
0
41
1
10
40.9424733716641
20
3.83453000464829
30
0
41
1
10
40.4738234319865
20
3.83405660555485
30
0
41
1
10
40.0375449646945
20
3.83307050467539
30
0
41
1
10
39.5869610019503
20
3.83332994312994
30
0
41
1
10
39.0848554477489
20
3.83347554632042
30
0
41
1
10
38.5653968945532
20
3.83284688078226
30
0
41
1
10
38.0880795426561
20
3.83223991296626
30
0
41
1
10
37.6540778570986
20
3.83240221095497
30
0
41
1
10
37.2142082432776
20
3.83223123296986
30
0
41
1
10
36.8359749491932
20
3.83164409484934
30
0
41
1
10
36.607417073622
20
3.8314588843358
30
0
41
1
10
36.5391675177075
20
3.83141411258279
30
0
0
SPLINE
5
98
100
AcDbEntity
8
1
62
256
6
ByLayer
370
18
48
1
60
0
100
AcDbSpline
70
4
71
3
72
28
73
24
40
0
40
0
40
0
40
0
40
0.0701761767124511
40
0.130341481369739
40
0.183174219128916
40
0.232159659907027
40
0.277759890053576
40
0.318591357047763
40
0.352972247637028
40
0.38936730661764
40
0.434859716702016
40
0.47360202635637
40
0.502254645887971
40
0.536284776705896
40
0.579239449220399
40
0.654185692601153
40
0.720972782717826
40
0.785196789676983
40
0.851264091585062
40
0.899992569708985
40
0.946043472517441
40
0.987541668743234
40
1
40
1
40
1
40
1
41
1
10
6.86779145952559
20
-3.81328533430622
30
0
41
1
10
7.14966836772118
20
-3.81149429627234
30
0
41
1
10
7.67835045569953
20
-3.80959235155421
30
0
41
1
10
8.44925282788623
20
-3.80314296839111
30
0
41
1
10
9.1171570428275
20
-3.81273876765209
30
0
41
1
10
9.72418131869497
20
-3.81550293677992
30
0
41
1
10
10.2874786442222
20
-3.81648740160941
30
0
41
1
10
10.7924264211647
20
-3.81639212379204
30
0
41
1
10
11.2591879663839
20
-3.81664923453323
30
0
41
1
10
11.7452921578646
20
-3.81723114820807
30
0
41
1
10
12.2498980593359
20
-3.81787047948916
30
0
41
1
10
12.7220272620217
20
-3.81794248934338
30
0
41
1
10
13.1462833245653
20
-3.81808968916539
30
0
41
1
10
13.5879314977778
20
-3.81858501305317
30
0
41
1
10
14.2207520293406
20
-3.8186123119165
30
0
41
1
10
14.9939169989796
20
-3.81677880781078
30
0
41
1
10
15.8532681683505
20
-3.82044481620767
30
0
41
1
10
16.6759706622906
20
-3.82037089666278
30
0
41
1
10
17.4250469034
20
-3.82237590751029
30
0
41
1
10
18.0978908665972
20
-3.82119113378144
30
0
41
1
10
18.6673335366054
20
-3.82190162930479
30
0
41
1
10
19.0869747588309
20
-3.82329577338291
30
0
41
1
10
19.3110748099717
20
-3.82293807962412
30
0
41
1
10
19.3627625578785
20
-3.82282876917643
30
0
0
SPLINE
5
99
100
AcDbEntity
8
1
62
256
6
ByLayer
370
18
48
1
60
0
100
AcDbSpline
70
4
71
3
72
29
73
25
40
0
40
0
40
0
40
0
40
0.0825300619361358
40
0.154215459941229
40
0.208452188598106
40
0.246882111162996
40
0.274057305158116
40
0.298806851990643
40
0.321892011058812
40
0.349087590346783
40
0.382191785528768
40
0.416943223792397
40
0.459764994477485
40
0.497326999200909
40
0.541027392532617
40
0.587348885664085
40
0.6432326406032
40
0.704216805889335
40
0.77323941108727
40
0.84432171929057
40
0.90784954474778
40
0.942234085129767
40
0.970601546633983
40
1
40
1
40
1
40
1
41
1
10
34.1440126916464
20
-3.83020473141167
30
0
41
1
10
34.4856295708364
20
-3.83048537715561
30
0
41
1
10
35.1239259419909
20
-3.83092094870253
30
0
41
1
10
35.986555175441
20
-3.83119567194311
30
0
41
1
10
36.6666515548857
20
-3.83139196126626
30
0
41
1
10
37.163220354113
20
-3.8321409561857
30
0
41
1
10
37.5347902994689
20
-3.83239485559523
30
0
41
1
10
37.8453556183764
20
-3.83231679506017
30
0
41
1
10
38.1558671602018
20
-3.83232480918656
30
0
41
1
10
38.5009560453892
20
-3.83273439980775
30
0
41
1
10
38.8944133345238
20
-3.83332032182585
30
0
41
1
10
39.3525420485922
20
-3.83345402349349
30
0
41
1
10
39.8291298611584
20
-3.83304115532704
30
0
41
1
10
40.3427598086245
20
-3.83365592444585
30
0
41
1
10
40.8708737942918
20
-3.83463119309727
30
0
41
1
10
41.4748301441041
20
-3.83397155189923
30
0
41
1
10
42.1503319323962
20
-3.83434792196894
30
0
41
1
10
42.9197990476113
20
-3.83592556391159
30
0
41
1
10
43.7521873637994
20
-3.83414989958683
30
0
41
1
10
44.5950734493994
20
-3.83697026856609
30
0
41
1
10
45.2946710964613
20
-3.83537984054172
30
0
41
1
10
45.8172325501017
20
-3.83679070354401
30
0
41
1
10
46.198843161613
20
-3.83760440991952
30
0
41
1
10
46.4371173956635
20
-3.83757646140984
30
0
41
1
10
46.5582306525852
20
-3.8374581554705
30
0
0
SPLINE
5
9A
100
AcDbEntity
8
1
62
256
6
ByLayer
370
18
48
1
60
0
100
AcDbSpline
70
4
71
1
72
4
73
2
40
0
40
0
40
1
40
1
41
1
10
61.3287786892113
20
-3.84720123863093
30
0
41
1
10
61.628428687694
20
-3.84686977801908
30
0
0
SPLINE
5
9B
100
AcDbEntity
8
1
62
256
6
ByLayer
370
18
48
1
60
0
100
AcDbSpline
70
4
71
3
72
23
73
19
40
0
40
0
40
0
40
0
40
0.0333676985701863
40
0.0992850464420708
40
0.175980300104457
40
0.246672995700057
40
0.334753109978307
40
0.425305777711967
40
0.527508363371928
40
0.585387870779986
40
0.630020282028791
40
0.670931548270298
40
0.728760660296017
40
0.786468227467151
40
0.830238818015395
40
0.876911962055532
40
0.937052747908574
40
1
40
1
40
1
40
1
41
1
10
19.3904118272105
20
3.82248061132995
30
0
41
1
10
19.27943837391
20
3.82277333359156
30
0
41
1
10
18.9487064802308
20
3.82341533318504
30
0
41
1
10
18.3569048517348
20
3.82074670176516
30
0
41
1
10
17.6419891643362
20
3.82222463271066
30
0
41
1
10
16.8519412019339
20
3.82103641300188
30
0
41
1
10
16.0160267074838
20
3.82061802437917
30
0
41
1
10
15.0775067788211
20
3.81692670928919
30
0
41
1
10
14.2354615962115
20
3.8186010279413
30
0
41
1
10
13.5517104873107
20
3.8185607439305
30
0
41
1
10
13.0706425825703
20
3.8180225472793
30
0
41
1
10
12.5897260397773
20
3.81794254238258
30
0
41
1
10
12.0650063261077
20
3.81771271302509
30
0
41
1
10
11.5304487228853
20
3.8169431566827
30
0
41
1
10
11.0341215193233
20
3.81644118540507
30
0
41
1
10
10.5285991997859
20
3.81650132624526
30
0
41
1
10
9.9611256452128
20
3.81600641847123
30
0
41
1
10
9.55226282409308
20
3.81509181846491
30
0
41
1
10
9.34441609071351
20
3.81346864884313
30
0
0
SPLINE
5
9C
100
AcDbEntity
8
1
62
256
6
ByLayer
370
13
48
1
60
0
100
AcDbSpline
70
4
71
3
72
8
73
4
40
0
40
0
40
0
40
0
40
1
40
1
40
1
40
1
41
1
10
3.03923064030954
20
-3.4294714194352
30
0
41
1
10
3.00341516823371
20
-3.42530476226901
30
0
41
1
10
2.96850573621208
20
-3.42801776499598
30
0
41
1
10
2.93566673034113
20
-3.43760195235873
30
0
0
SPLINE
5
9D
100
AcDbEntity
8
1
62
256
6
ByLayer
370
18
48
1
60
0
100
AcDbSpline
70
4
71
3
72
26
73
22
40
0
40
0
40
0
40
0
40
0.0624999999999993
40
0.0624999999999993
40
0.124999999999999
40
0.124999999999999
40
0.249999999999999
40
0.249999999999999
40
0.374999999999999
40
0.374999999999999
40
0.437499999999999
40
0.437499999999999
40
0.499999999999999
40
0.499999999999999
40
0.624999999999999
40
0.624999999999999
40
0.75
40
0.75
40
0.875
40
0.875
40
1
40
1
40
1
40
1
41
1
10
3.04041497845603
20
1.91602072194971
30
0
41
1
10
3.18764795794897
20
1.78548898760536
30
0
41
1
10
3.34639245691537
20
1.66072012157028
30
0
41
1
10
3.67787430719503
20
1.41742868593116
30
0
41
1
10
3.84828965938482
20
1.30079187867557
30
0
41
1
10
4.36717585307736
20
0.960881648996633
30
0
41
1
10
4.72379330591605
20
0.746834457019986
30
0
41
1
10
5.44860143401749
20
0.331252432923265
30
0
41
1
10
5.81719286908404
20
0.130181542363005
30
0
41
1
10
6.37636038540072
20
-0.164822369217063
30
0
41
1
10
6.56336053446711
20
-0.261765022638372
30
0
41
1
10
6.93720302262153
20
-0.451872645349368
30
0
41
1
10
7.12425481002569
20
-0.545203211373035
30
0
41
1
10
7.68587828894809
20
-0.820384263192466
30
0
41
1
10
8.060898752345
20
-0.997684087208256
30
0
41
1
10
8.81307988430785
20
-1.33878912031344
30
0
41
1
10
9.19026796961893
20
-1.50207837303881
30
0
41
1
10
9.94830323728183
20
-1.81361193853985
30
0
41
1
10
10.3291530194554
20
-1.96163682979048
30
0
41
1
10
11.0964682726808
20
-2.23861880510475
30
0
41
1
10
11.4828986112367
20
-2.3680145946355
30
0
41
1
10
11.8730553477233
20
-2.48722827150985
30
0
0
SPLINE
5
9E
100
AcDbEntity
8
1
62
256
6
ByLayer
370
18
48
1
60
0
100
AcDbSpline
70
4
71
3
72
10
73
6
40
0
40
0
40
0
40
0
40
0.5
40
0.5
40
1
40
1
40
1
40
1
41
1
10
2.93368201041233
20
-3.63885377302711
30
0
41
1
10
2.90236514653176
20
-3.63270869654031
30
0
41
1
10
2.87458688231595
20
-3.62387309116565
30
0
41
1
10
2.82920808638772
20
-3.60157642496301
30
0
41
1
10
2.81181789020781
20
-3.58809816200173
30
0
41
1
10
2.80125323279623
20
-3.5733634123448
30
0
0
SPLINE
5
9F
100
AcDbEntity
8
1
62
256
6
ByLayer
370
13
48
1
60
0
100
AcDbSpline
70
4
71
3
72
8
73
4
40
0
40
0
40
0
40
0
40
1
40
1
40
1
40
1
41
1
10
2.80125323279574
20
-3.57336341234256
30
0
41
1
10
2.82179551712935
20
-3.56714976077706
30
0
41
1
10
2.86836526679736
20
-3.56103570715158
30
0
41
1
10
2.93566673034113
20
-3.55766156569902
30
0
0
SPLINE
5
A0
100
AcDbEntity
8
1
62
256
6
ByLayer
370
18
48
1
60
0
100
AcDbSpline
70
4
71
3
72
59
73
55
40
0
40
0
40
0
40
0
40
0.0312499999999963
40
0.0312499999999963
40
0.0468749999999938
40
0.0468749999999938
40
0.0624999999999914
40
0.0624999999999914
40
0.0781249999999889
40
0.0781249999999889
40
0.0937499999999865
40
0.0937499999999865
40
0.109374999999984
40
0.109374999999984
40
0.124999999999982
40
0.124999999999982
40
0.140624999999979
40
0.140624999999979
40
0.156249999999977
40
0.156249999999977
40
0.171874999999974
40
0.171874999999974
40
0.187499999999972
40
0.187499999999972
40
0.218749999999968
40
0.218749999999968
40
0.249999999999964
40
0.249999999999964
40
0.28124999999996
40
0.28124999999996
40
0.296874999999958
40
0.296874999999958
40
0.300781249999958
40
0.300781249999958
40
0.304687499999957
40
0.304687499999957
40
0.312499999999958
40
0.312499999999958
40
0.320312499999958
40
0.320312499999958
40
0.328124999999959
40
0.328124999999959
40
0.34374999999996
40
0.374999999999962
40
0.374999999999962
40
0.49999999999997
40
0.49999999999997
40
0.624999999999978
40
0.624999999999978
40
0.749999999999985
40
0.749999999999985
40
0.874999999999993
40
0.874999999999993
40
1
40
1
40
1
40
1
41
1
10
2.79378196322261
20
1.93433578640312
30
0
41
1
10
2.69588365567435
20
2.01369106202878
30
0
41
1
10
2.60162378755697
20
2.09472772278991
30
0
41
1
10
2.46806588708085
20
2.22013271821919
30
0
41
1
10
2.42486678275222
20
2.26258504942095
30
0
41
1
10
2.34177616304373
20
2.34916701349965
30
0
41
1
10
2.30187913794717
20
2.39333012624277
30
0
41
1
10
2.22757416418267
20
2.48232851716239
30
0
41
1
10
2.19300059591251
20
2.52732072305372
30
0
41
1
10
2.1303148669337
20
2.61861842128187
30
0
41
1
10
2.10205527132717
20
2.6652536377706
30
0
41
1
10
2.05508401900502
20
2.7579139238
30
0
41
1
10
2.03622277099657
20
2.80405905894372
30
0
41
1
10
2.00942171907275
20
2.89603045676688
30
0
41
1
10
2.00146724974456
20
2.94225151930877
30
0
41
1
10
1.99891232163373
20
3.03265489814044
30
0
41
1
10
2.00420126438806
20
3.07602562980259
30
0
41
1
10
2.02782315984027
20
3.15929424060951
30
0
41
1
10
2.04645073452255
20
3.19949943095722
30
0
41
1
10
2.09464904668133
20
3.27391757642926
30
0
41
1
10
2.12418262647475
20
3.30845524726672
30
0
41
1
10
2.19249301999963
20
3.37312302160908
30
0
41
1
10
2.23111660728281
20
3.4030314858941
30
0
41
1
10
2.35514924191142
20
3.48526932740006
30
0
41
1
10
2.44952482356112
20
3.53118398734759
30
0
41
1
10
2.65391295361454
20
3.61179378210289
30
0
41
1
10
2.76201567655005
20
3.64566129535981
30
0
41
1
10
2.98561544558524
20
3.7050645148116
30
0
41
1
10
3.10128116810455
20
3.7305794774835
30
0
41
1
10
3.27910997225987
20
3.7644879319667
30
0
41
1
10
3.33908483809717
20
3.77504502637956
30
0
41
1
10
3.41462456644797
20
3.78741862330486
30
0
41
1
10
3.4297641314956
20
3.78985264532562
30
0
41
1
10
3.46010463098696
20
3.79464250987545
30
0
41
1
10
3.47509018952493
20
3.79714666254321
30
0
41
1
10
3.5227080872238
20
3.80281805340894
30
0
41
1
10
3.5548158498008
20
3.80375499074083
30
0
41
1
10
3.61927629127621
20
3.80377438417199
30
0
41
1
10
3.65155298257278
20
3.80342642362737
30
0
41
1
10
3.7160714553531
20
3.8029986560955
30
0
41
1
10
3.7483360289788
20
3.80276003438945
30
0
41
1
10
3.84512239369005
20
3.80196994553282
30
0
41
1
10
4.03865106484295
20
3.80009299163305
30
0
41
1
10
4.23204839871971
20
3.79732053335721
30
0
41
1
10
4.8764173295429
20
3.78603287242862
30
0
41
1
10
5.390296838268
20
3.7705756060721
30
0
41
1
10
6.41141676611858
20
3.72393362273186
30
0
41
1
10
6.91918843970021
20
3.69267840731447
30
0
41
1
10
7.92963171924066
20
3.60952822280907
30
0
41
1
10
8.43295772173846
20
3.55742310122469
30
0
41
1
10
9.42936979323213
20
3.42776950733358
30
0
41
1
10
9.92300855609085
20
3.35018738994791
30
0
41
1
10
10.9029399643004
20
3.1656544660672
30
0
41
1
10
11.3892383384613
20
3.05868287818117
30
0
41
1
10
11.8730553477233
20
2.93607814211271
30
0
0
SPLINE
5
A1
100
AcDbEntity
8
1
62
256
6
ByLayer
370
18
48
1
60
0
100
AcDbSpline
70
4
71
3
72
8
73
4
40
0
40
0
40
0
40
0
40
1
40
1
40
1
40
1
41
1
10
62.8523996019921
20
0.930559188637091
30
0
41
1
10
62.9073328483935
20
0.770156049525838
30
0
41
1
10
62.9462110482179
20
0.609283532344961
30
0
41
1
10
62.971210229132
20
0.448005254453676
30
0
0
SPLINE
5
A2
100
AcDbEntity
8
1
62
256
6
ByLayer
370
18
48
1
60
0
100
AcDbSpline
70
4
71
3
72
8
73
4
40
0
40
0
40
0
40
0
40
1
40
1
40
1
40
1
41
1
10
61.6686237121219
20
-3.93801594957478
30
0
41
1
10
61.6552469449921
20
-3.97286228749721
30
0
41
1
10
61.6418445290669
20
-4.00767663289747
30
0
41
1
10
61.6284162654091
20
-4.04245884684838
30
0
0
SPLINE
5
A3
100
AcDbEntity
8
1
62
256
6
ByLayer
370
18
48
1
60
0
100
AcDbSpline
70
4
71
3
72
18
73
14
40
0
40
0
40
0
40
0
40
0.25
40
0.25
40
0.5
40
0.5
40
0.625
40
0.625
40
0.749999999999999
40
0.749999999999999
40
0.874999999999999
40
0.874999999999999
40
1
40
1
40
1
40
1
41
1
10
2.79378196322261
20
1.93433578640312
30
0
41
1
10
2.79802252057618
20
1.94896599733616
30
0
41
1
10
2.80506143316478
20
1.96262090900322
30
0
41
1
10
2.82774814004182
20
1.98559383716935
30
0
41
1
10
2.84310490164165
20
1.99511348410937
30
0
41
1
10
2.87801634028827
20
1.99914194819493
30
0
41
1
10
2.89179162165308
20
1.9985207304598
30
0
41
1
10
2.92221850734134
20
1.99158778588855
30
0
41
1
10
2.93878167670084
20
1.98520732560507
30
0
41
1
10
2.9706696162859
20
1.96879001590361
30
0
41
1
10
2.9859752231481
20
1.95892505156925
30
0
41
1
10
3.01441735135626
20
1.93821290819557
30
0
41
1
10
3.0278144115602
20
1.92719195448899
30
0
41
1
10
3.04041497768014
20
1.91602072263754
30
0
0
SPLINE
5
A4
100
AcDbEntity
8
1
62
256
6
ByLayer
370
18
48
1
60
0
100
AcDbSpline
70
4
71
3
72
16
73
12
40
0
40
0
40
0
40
0
40
0.305876734179486
40
0.305876734179486
40
0.622034055500126
40
0.622034055500126
40
0.780112716160445
40
0.780112716160445
40
0.938191376820765
40
0.938191376820765
40
1
40
1
40
1
40
1
41
1
10
34.1609194082525
20
-3.83010593738894
30
0
41
1
10
33.5711512799827
20
-3.83019835821068
30
0
41
1
10
32.9793750063151
20
-3.80369420549738
30
0
41
1
10
31.7678351689802
20
-3.69461073018067
30
0
41
1
10
31.1531172055126
20
-3.61082048069065
30
0
41
1
10
30.229926787077
20
-3.44506458425482
30
0
41
1
10
29.9217217113205
20
-3.38306139727069
30
0
41
1
10
29.3079660454286
20
-3.24712997986293
30
0
41
1
10
29.0019920641561
20
-3.17312875369925
30
0
41
1
10
28.5772369348031
20
-3.06240347339909
30
0
41
1
10
28.4579371675786
20
-3.03042066935075
30
0
41
1
10
28.3387168715466
20
-2.99760755835146
30
0
0
SPLINE
5
A5
100
AcDbEntity
8
1
62
256
6
ByLayer
370
13
48
1
60
0
100
AcDbSpline
70
4
71
3
72
18
73
14
40
0
40
0
40
0
40
0
40
0.267333765174074
40
0.267333765174074
40
0.415482161323498
40
0.415482161323498
40
0.48955635939821
40
0.48955635939821
40
0.563630557472922
40
0.563630557472922
40
0.859927349771767
40
0.859927349771767
40
1
40
1
40
1
40
1
41
1
10
28.3387159075259
20
-2.99760729302315
30
0
41
1
10
27.2382889294809
20
-2.6947357280782
30
0
41
1
10
26.1446326201113
20
-2.32112487210188
30
0
41
1
10
24.4356778249235
20
-1.66532795152165
30
0
41
1
10
23.824515492594
20
-1.41669664716036
30
0
41
1
10
22.9016798795007
20
-1.02820093953736
30
0
41
1
10
22.593685138638
20
-0.896334565789743
30
0
41
1
10
21.9806062767118
20
-0.630965105326567
30
0
41
1
10
21.6748931506928
20
-0.49725467073452
30
0
41
1
10
20.1490958099337
20
0.173242140114127
30
0
41
1
10
18.9375351977408
20
0.716350710555929
30
0
41
1
10
17.1408862346242
20
1.46660619259075
30
0
41
1
10
16.5622573912667
20
1.70021204797439
30
0
41
1
10
15.9801255906133
20
1.92190524400772
30
0
0
SPLINE
5
A6
100
AcDbEntity
8
1
62
256
6
ByLayer
370
18
48
1
60
0
100
AcDbSpline
70
4
71
3
72
88
73
84
40
0
40
0
40
0
40
0
40
0.006550302607696
40
0.006550302607696
40
0.0294408843516823
40
0.0294408843516823
40
0.0523314660956687
40
0.0523314660956687
40
0.0981126295836415
40
0.0981126295836415
40
0.121003211327627
40
0.121003211327627
40
0.143893793071613
40
0.143893793071613
40
0.166784374815599
40
0.166784374815599
40
0.189674956559585
40
0.189674956559585
40
0.212565538303571
40
0.212565538303571
40
0.235456120047557
40
0.235456120047557
40
0.258346701791543
40
0.258346701791543
40
0.281237283535529
40
0.281237283535529
40
0.304127865279514
40
0.304127865279514
40
0.3270184470235
40
0.3270184470235
40
0.372799610511473
40
0.372799610511473
40
0.395690192255459
40
0.395690192255459
40
0.418580773999445
40
0.418580773999445
40
0.441471355743431
40
0.441471355743431
40
0.464361937487417
40
0.464361937487417
40
0.487252519231403
40
0.487252519231403
40
0.510143100975389
40
0.510143100975389
40
0.533033682719375
40
0.533033682719375
40
0.555924264463361
40
0.555924264463361
40
0.601705427951333
40
0.601705427951333
40
0.624596009695319
40
0.624596009695319
40
0.647486591439305
40
0.647486591439305
40
0.670377173183291
40
0.670377173183291
40
0.693267754927277
40
0.693267754927277
40
0.716158336671263
40
0.716158336671263
40
0.739048918415249
40
0.739048918415249
40
0.761939500159235
40
0.761939500159235
40
0.784830081903221
40
0.784830081903221
40
0.807720663647206
40
0.807720663647206
40
0.830611245391192
40
0.830611245391192
40
0.876392408879163
40
0.876392408879163
40
0.899282990623149
40
0.899282990623149
40
0.922173572367135
40
0.922173572367135
40
0.945064154111121
40
0.945064154111121
40
0.967954735855107
40
0.967954735855107
40
0.990845317599093
40
0.990845317599093
40
1
40
1
40
1
40
1
41
1
10
25.6956052184354
20
2.82549404951342
30
0
41
1
10
25.7706203137254
20
2.85042932438185
30
0
41
1
10
25.8456560737796
20
2.87501257885253
30
0
41
1
10
26.1828675831761
20
2.98375842449403
30
0
41
1
10
26.4444113072069
20
3.06388838075918
30
0
41
1
10
26.9659080258585
20
3.21591257629464
30
0
41
1
10
27.2255564222732
20
3.28816793924338
30
0
41
1
10
28.0042665325615
20
3.48957549566305
30
0
41
1
10
28.5230327092296
20
3.60401540765434
30
0
41
1
10
29.2984418561269
20
3.74824823608608
30
0
41
1
10
29.5570235605106
20
3.79116470540845
30
0
41
1
10
30.0749815887153
20
3.86645196034294
30
0
41
1
10
30.3341982147848
20
3.89896051537397
30
0
41
1
10
30.8527868369242
20
3.9537730928362
30
0
41
1
10
31.1118876344204
20
3.97613295915124
30
0
41
1
10
31.6319515251465
20
4.00969589364945
30
0
41
1
10
31.8927861434829
20
4.02102610961416
30
0
41
1
10
32.415621568523
20
4.03285724164246
30
0
41
1
10
32.6780657798829
20
4.03333322694371
30
0
41
1
10
33.2016129379884
20
4.02301802710531
30
0
41
1
10
33.4628784435944
20
4.01232012251575
30
0
41
1
10
33.9845244449915
20
3.98030936629462
30
0
41
1
10
34.2448241122334
20
3.95898511335241
30
0
41
1
10
34.7640108089946
20
3.90554218926951
30
0
41
1
10
35.0227467941095
20
3.87326668919911
30
0
41
1
10
35.5407480030701
20
3.79904588900104
30
0
41
1
10
35.7997789978081
20
3.75702131672645
30
0
41
1
10
36.3174728956843
20
3.66291006734255
30
0
41
1
10
36.575990491995
20
3.61066493110101
30
0
41
1
10
37.3515421693507
20
3.43895604961759
30
0
41
1
10
37.8706905921197
20
3.30710789286513
30
0
41
1
10
38.6504512056741
20
3.08044813560849
30
0
41
1
10
38.9105473234588
20
2.99994428908758
30
0
41
1
10
39.4330755262811
20
2.83199369329495
30
0
41
1
10
39.695728742637
20
2.74400580549147
30
0
41
1
10
40.2199663955752
20
2.56046172829744
30
0
41
1
10
40.480906662045
20
2.4646182063596
30
0
41
1
10
41.0017355622228
20
2.26716793029323
30
0
41
1
10
41.2619119475605
20
2.16611783080509
30
0
41
1
10
41.7814561349491
20
1.9588563447173
30
0
41
1
10
42.0408418979139
20
1.85268116197761
30
0
41
1
10
42.5583114114859
20
1.63414953949521
30
0
41
1
10
42.8166978396998
20
1.5223772492441
30
0
41
1
10
43.3342057882059
20
1.29680063853118
30
0
41
1
10
43.5930785890757
20
1.18250178606544
30
0
41
1
10
44.1107092959582
20
0.950136321027259
30
0
41
1
10
44.3691781607979
20
0.831430876608664
30
0
41
1
10
45.1462531586047
20
0.47350391323215
30
0
41
1
10
45.6669462416333
20
0.23358585207879
30
0
41
1
10
46.4496551167833
20
-0.133767612713939
30
0
41
1
10
46.7118058196423
20
-0.256632838246219
30
0
41
1
10
47.2359789899254
20
-0.499499906533742
30
0
41
1
10
47.497401661062
20
-0.619779507024333
30
0
41
1
10
48.0186163598804
20
-0.858787289824278
30
0
41
1
10
48.2781113281473
20
-0.978146361915293
30
0
41
1
10
48.7970404257031
20
-1.21181399157061
30
0
41
1
10
49.0564095520031
20
-1.32630476580289
30
0
41
1
10
49.5745214051023
20
-1.55162609542117
30
0
41
1
10
49.8332340631321
20
-1.66251373865322
30
0
41
1
10
50.3498502165495
20
-1.8808805764051
30
0
41
1
10
50.6083322600248
20
-1.98720736871485
30
0
41
1
10
51.1259987177274
20
-2.19357848327627
30
0
41
1
10
51.385054259032
20
-2.29387667219226
30
0
41
1
10
51.9032804755899
20
-2.48923510766519
30
0
41
1
10
52.1622143869117
20
-2.58468016957394
30
0
41
1
10
52.6820029340105
20
-2.76705604833356
30
0
41
1
10
52.9426819234833
20
-2.85432924699765
30
0
41
1
10
53.465173850875
20
-3.02174615783076
30
0
41
1
10
53.7273906968038
20
-3.10216786686408
30
0
41
1
10
54.5123243547337
20
-3.33083978597995
30
0
41
1
10
55.0339646656791
20
-3.46284084406668
30
0
41
1
10
55.8122444338878
20
-3.6335951427406
30
0
41
1
10
56.0708561119206
20
-3.68595038341411
30
0
41
1
10
56.588614261824
20
-3.77961670131495
30
0
41
1
10
56.84750370784
20
-3.82122966102278
30
0
41
1
10
57.3648887754655
20
-3.8944164331806
30
0
41
1
10
57.6232043323298
20
-3.92606859997886
30
0
41
1
10
58.1399791958486
20
-3.97874839589809
30
0
41
1
10
58.3988784386562
20
-3.99960483389765
30
0
41
1
10
58.9174025398176
20
-4.03065468816533
30
0
41
1
10
59.1770210302911
20
-4.04085609532564
30
0
41
1
10
59.5406571396973
20
-4.04753836772434
30
0
41
1
10
59.6445790272494
20
-4.04856523430519
30
0
41
1
10
59.7485977060191
20
-4.04871018335834
30
0
0
SPLINE
5
A7
100
AcDbEntity
8
1
62
256
6
ByLayer
370
18
48
1
60
0
100
AcDbSpline
70
4
71
3
72
10
73
6
40
0
40
0
40
0
40
0
40
0.5
40
0.5
40
1
40
1
40
1
40
1
41
1
10
61.7890835722659
20
3.93950994093103
30
0
41
1
10
61.9612864547699
20
3.44676071936908
30
0
41
1
10
62.1382885501044
20
2.95394655168826
30
0
41
1
10
62.5000104763086
20
1.96859487673518
30
0
41
1
10
62.683969336177
20
1.47822481485014
30
0
41
1
10
62.8693330292488
20
0.990142939347038
30
0
0
SPLINE
5
A8
100
AcDbEntity
8
1
62
256
6
ByLayer
370
13
48
1
60
0
100
AcDbSpline
70
4
71
3
72
8
73
4
40
0
40
0
40
0
40
0
40
1
40
1
40
1
40
1
41
1
10
2.93566673034113
20
-3.55766156569902
30
0
41
1
10
2.95550141370256
20
-3.55332076711204
30
0
41
1
10
2.97647083147584
20
-3.55322169374063
30
0
41
1
10
2.99792823185715
20
-3.55726394724604
30
0
0
SPLINE
5
A9
100
AcDbEntity
8
1
62
256
6
ByLayer
370
18
48
1
60
0
100
AcDbSpline
70
4
71
3
72
31
73
27
40
0
40
0
40
0
40
0
40
0.0624999999999998
40
0.0624999999999998
40
0.125
40
0.125
40
0.25
40
0.25
40
0.3125
40
0.3125
40
0.375
40
0.4375
40
0.4375
40
0.5
40
0.5
40
0.625
40
0.625
40
0.6875
40
0.6875
40
0.75
40
0.75
40
0.875
40
0.875
40
0.9375
40
0.9375
40
1
40
1
40
1
40
1
41
1
10
2.79352005832669
20
-3.55124909024951
30
0
41
1
10
2.79352971926284
20
-3.48890849199879
30
0
41
1
10
2.79353914983082
20
-3.4204548307641
30
0
41
1
10
2.79355741523392
20
-3.27295697746891
30
0
41
1
10
2.79356622203244
20
-3.19420187899936
30
0
41
1
10
2.79359181991791
20
-2.9433516890698
30
0
41
1
10
2.79360779381076
20
-2.75681467438091
30
0
41
1
10
2.79363060708661
20
-2.44716099508446
30
0
41
1
10
2.79363797057079
20
-2.33951552688671
30
0
41
1
10
2.79365208624384
20
-2.11883418276565
30
0
41
1
10
2.79366566090747
20
-1.89181897122268
30
0
41
1
10
2.7936783157634
20
-1.65227913903806
30
0
41
1
10
2.79369056737309
20
-1.40636290934705
30
0
41
1
10
2.79369652080192
20
-1.27951573910079
30
0
41
1
10
2.79371350107212
20
-0.896549958695033
30
0
41
1
10
2.79372373680988
20
-0.636914941764729
30
0
41
1
10
2.79373764450673
20
-0.241083865051394
30
0
41
1
10
2.79374203769811
20
-0.107993792720635
30
0
41
1
10
2.79375030455088
20
0.160100523561368
30
0
41
1
10
2.79375411279699
20
0.292975111189179
30
0
41
1
10
2.79376456478778
20
0.688202820622649
30
0
41
1
10
2.79377025437987
20
0.947192463939757
30
0
41
1
10
2.79377654891138
20
1.32880550057715
30
0
41
1
10
2.79377826554349
20
1.45501684836981
30
0
41
1
10
2.79378079096796
20
1.69950936393209
30
0
41
1
10
2.79378161349047
20
1.81851528901763
30
0
41
1
10
2.79378196322227
20
1.93433578640312
30
0
0
SPLINE
5
AA
100
AcDbEntity
8
1
62
256
6
ByLayer
370
18
48
1
60
0
100
AcDbSpline
70
4
71
3
72
40
73
36
40
0
40
0
40
0
40
0
40
0.103734598506654
40
0.103734598506654
40
0.155601897759982
40
0.155601897759982
40
0.207469197013309
40
0.207469197013309
40
0.311203795519962
40
0.311203795519962
40
0.414938394026615
40
0.414938394026615
40
0.466805693279942
40
0.466805693279942
40
0.518672992533268
40
0.518672992533268
40
0.570540291786595
40
0.570540291786595
40
0.622407591039921
40
0.622407591039921
40
0.674274890293248
40
0.674274890293248
40
0.726142189546574
40
0.726142189546574
40
0.778009488799901
40
0.778009488799901
40
0.829876788053228
40
0.829876788053228
40
0.881744087306554
40
0.881744087306554
40
0.933611386559881
40
0.933611386559881
40
0.985478685813207
40
0.985478685813207
40
1
40
1
40
1
40
1
41
1
10
11.8730553477233
20
-2.48722827150982
30
0
41
1
10
12.3538919644431
20
-2.64864704268962
30
0
41
1
10
12.8323636816043
20
-2.79625605919176
30
0
41
1
10
13.5473944967586
20
-2.99909449185097
30
0
41
1
10
13.7852394129784
20
-3.06357091588762
30
0
41
1
10
14.2606519470434
20
-3.18446230762805
30
0
41
1
10
14.4982130485156
20
-3.24091947911623
30
0
41
1
10
15.2104879837562
20
-3.39965337675542
30
0
41
1
10
15.6843698664001
20
-3.49207564043039
30
0
41
1
10
16.6340081845061
20
-3.64216891791682
30
0
41
1
10
17.1094420847085
20
-3.70254334717995
30
0
41
1
10
17.8243493739328
20
-3.7654800953797
30
0
41
1
10
18.0632020342771
20
-3.78201725199358
30
0
41
1
10
18.541989737796
20
-3.80722517362287
30
0
41
1
10
18.7819868864688
20
-3.81635122019608
30
0
41
1
10
19.2625382629146
20
-3.82461112707682
30
0
41
1
10
19.5022262030745
20
-3.82355339324354
30
0
41
1
10
19.9816486502521
20
-3.8131860196012
30
0
41
1
10
20.2213453664339
20
-3.80380204029277
30
0
41
1
10
20.7006299162582
20
-3.77760312053545
30
0
41
1
10
20.940154033571
20
-3.76007820160629
30
0
41
1
10
21.4190785113211
20
-3.71470772766759
30
0
41
1
10
21.6585958466995
20
-3.68757244809569
30
0
41
1
10
22.1384324838398
20
-3.62596182645248
30
0
41
1
10
22.3788492002593
20
-3.59185114836933
30
0
41
1
10
22.8591555204071
20
-3.51429668387638
30
0
41
1
10
23.0987442270054
20
-3.47020358228065
30
0
41
1
10
23.5776710520461
20
-3.37497008397099
30
0
41
1
10
23.817156843252
20
-3.32382227966514
30
0
41
1
10
24.2962106052634
20
-3.21548977075281
30
0
41
1
10
24.5356967083364
20
-3.15787261892203
30
0
41
1
10
25.0145722898536
20
-3.03280715823564
30
0
41
1
10
25.2539499848834
20
-2.96624887044246
30
0
41
1
10
25.5608828070713
20
-2.87761174935284
30
0
41
1
10
25.6280653698482
20
-2.8580203408153
30
0
41
1
10
25.6952733661045
20
-2.8382127490255
30
0
0
SPLINE
5
AB
100
AcDbEntity
8
1
62
256
6
ByLayer
370
18
48
1
60
0
100
AcDbSpline
70
4
71
3
72
32
73
28
40
0
40
0
40
0
40
0
40
0.0408007666197404
40
0.0408007666197404
40
0.104747382178423
40
0.104747382178423
40
0.168693997737106
40
0.168693997737106
40
0.232640613295789
40
0.232640613295789
40
0.296587228854471
40
0.296587228854471
40
0.360533844413154
40
0.360533844413154
40
0.488427075530523
40
0.488427075530523
40
0.616320306647893
40
0.616320306647893
40
0.680266922206577
40
0.680266922206577
40
0.744213537765261
40
0.744213537765261
40
0.872106768882631
40
0.872106768882631
40
0.936053384441315
40
0.936053384441315
40
1
40
1
40
1
40
1
41
1
10
46.5851456907269
20
3.83743287336392
30
0
41
1
10
46.7380395409827
20
3.8369413114691
30
0
41
1
10
46.891076322728
20
3.83458302953284
30
0
41
1
10
47.2840989332007
20
3.82416253986742
30
0
41
1
10
47.5237605210411
20
3.81377896203108
30
0
41
1
10
48.0024839312467
20
3.78419512863485
30
0
41
1
10
48.2414760695667
20
3.76462357151487
30
0
41
1
10
48.7197919908472
20
3.71736993543118
30
0
41
1
10
48.9590556875697
20
3.68976918305395
30
0
41
1
10
49.4376565227154
20
3.62741304581599
30
0
41
1
10
49.6769652815973
20
3.59217192298334
30
0
41
1
10
50.1557435425689
20
3.51147213199178
30
0
41
1
10
50.3957034457338
20
3.4664372159009
30
0
41
1
10
51.1148086197117
20
3.3200972832434
30
0
41
1
10
51.5917320954156
20
3.20709278787993
30
0
41
1
10
52.5427472613745
20
2.95580001751972
30
0
41
1
10
53.0176555708417
20
2.81938577365625
30
0
41
1
10
53.7282990400968
20
2.59290741316161
30
0
41
1
10
53.9649033017568
20
2.51393073091225
30
0
41
1
10
54.4385625201745
20
2.35116029663177
30
0
41
1
10
54.6755545298141
20
2.2672614655248
30
0
41
1
10
55.38688185338
20
2.00773687254355
30
0
41
1
10
55.8612561417241
20
1.8235316214836
30
0
41
1
10
56.5759695203481
20
1.53772397011539
30
0
41
1
10
56.814699990117
20
1.44030271163825
30
0
41
1
10
57.2931202528192
20
1.24146067891573
30
0
41
1
10
57.533085706378
20
1.13981811907834
30
0
41
1
10
57.7727657347104
20
1.03725861802781
30
0
0
SPLINE
5
AC
100
AcDbEntity
8
1
62
256
6
ByLayer
370
18
48
1
60
0
100
AcDbSpline
70
4
71
3
72
46
73
42
40
0
40
0
40
0
40
0
40
0.0330644080737988
40
0.0330644080737988
40
0.0661288161475976
40
0.0661288161475976
40
0.132257632295194
40
0.132257632295194
40
0.165322040368992
40
0.165322040368992
40
0.19838644844279
40
0.19838644844279
40
0.264515264590385
40
0.264515264590385
40
0.297579672664183
40
0.297579672664183
40
0.330644080737981
40
0.330644080737981
40
0.396772896885575
40
0.396772896885575
40
0.462901713033169
40
0.462901713033169
40
0.529030529180763
40
0.529030529180763
40
0.562094937254559
40
0.562094937254559
40
0.595159345328355
40
0.595159345328355
40
0.661288161475948
40
0.661288161475948
40
0.694352569549745
40
0.694352569549745
40
0.727416977623541
40
0.727416977623541
40
0.793545793771135
40
0.793545793771135
40
0.925803426066323
40
0.925803426066323
40
0.991932242213917
40
0.991932242213917
40
1
40
1
40
1
40
1
41
1
10
61.6284162654091
20
-4.04245884684835
30
0
41
1
10
61.3220592443406
20
-4.05096459318364
30
0
41
1
10
61.0158237890663
20
-4.05183976379746
30
0
41
1
10
60.4030555621472
20
-4.03839748032019
30
0
41
1
10
60.0962664888136
20
-4.02405931364669
30
0
41
1
10
59.1765195159538
20
-3.95846495772443
30
0
41
1
10
58.5653391195033
20
-3.88479921933546
30
0
41
1
10
57.6480683401651
20
-3.73164090618286
30
0
41
1
10
57.3422088758842
20
-3.67349170480116
30
0
41
1
10
56.7296138974543
20
-3.54353498692393
30
0
41
1
10
56.4225781526786
20
-3.47162401942148
30
0
41
1
10
55.5035723212039
20
-3.23713681929945
30
0
41
1
10
54.8925592159604
20
-3.05580003655572
30
0
41
1
10
53.97485030741
20
-2.7514949965601
30
0
41
1
10
53.6687646096527
20
-2.64465793488196
30
0
41
1
10
53.0556250252911
20
-2.42106952867647
30
0
41
1
10
52.7488129445546
20
-2.30435993100625
30
0
41
1
10
51.8304453419759
20
-1.94274739149262
30
0
41
1
10
51.2194211259389
20
-1.68606838520483
30
0
41
1
10
49.9950684916825
20
-1.15079053141767
30
0
41
1
10
49.3808292880566
20
-0.871384984045903
30
0
41
1
10
48.1568026013167
20
-0.305760110704369
30
0
41
1
10
47.545702798589
20
-0.0192282601639704
30
0
41
1
10
46.626919827827
20
0.40860118403441
30
0
41
1
10
46.3199005496394
20
0.551006799206618
30
0
41
1
10
45.7067592131037
20
0.832797175177262
30
0
41
1
10
45.4006694815323
20
0.972186334386834
30
0
41
1
10
44.4828682871957
20
1.3838186003681
30
0
41
1
10
43.8716173351181
20
1.64950659381154
30
0
41
1
10
42.9520538900814
20
2.02763500358529
30
0
41
1
10
42.6448857446344
20
2.15031044785806
30
0
41
1
10
42.0335103717593
20
2.38595134959417
30
0
41
1
10
41.7287604416253
20
2.4991567168596
30
0
41
1
10
40.8164738143504
20
2.82365432421636
30
0
41
1
10
40.2107933844234
20
3.01962518237625
30
0
41
1
10
38.3943673179077
20
3.53691429078842
30
0
41
1
10
37.184081347876
20
3.78736697683019
30
0
41
1
10
35.342297634122
20
3.98780903273817
30
0
41
1
10
34.7306297840773
20
4.02474588761342
30
0
41
1
10
34.0441166776306
20
4.03227524736624
30
0
41
1
10
33.9694670587704
20
4.03264444896601
30
0
41
1
10
33.8948110836841
20
4.03256396773685
30
0
0
SPLINE
5
AD
100
AcDbEntity
8
1
62
256
6
ByLayer
370
18
48
1
60
0
100
AcDbSpline
70
4
71
3
72
12
73
8
40
0
40
0
40
0
40
0
40
0.140646903488182
40
0.140646903488182
40
0.427097935658789
40
0.427097935658789
40
1
40
1
40
1
40
1
41
1
10
9.3333531548391
20
-3.83328769207796
30
0
41
1
10
9.03250632165091
20
-3.8748542545014
30
0
41
1
10
8.73139077020932
20
-3.90950828258317
30
0
41
1
10
7.81532232394775
20
-3.99310444098734
30
0
41
1
10
7.20432171718048
20
-4.01910683457467
30
0
41
1
10
5.37563578122169
20
-4.00735518645732
30
0
41
1
10
4.16140880243228
20
-3.87976151751323
30
0
41
1
10
2.93368201041247
20
-3.63885377302714
30
0
0
SPLINE
5
AE
100
AcDbEntity
8
1
62
256
6
ByLayer
370
18
48
1
60
0
100
AcDbSpline
70
4
71
3
72
8
73
4
40
0
40
0
40
0
40
0
40
1
40
1
40
1
40
1
41
1
10
62.971210229132
20
0.448005254453676
30
0
41
1
10
62.9836620692071
20
0.33372980902621
30
0
41
1
10
62.991198397813
20
0.219739652221335
30
0
41
1
10
62.9927292538358
20
0.106098043682835
30
0
0
SPLINE
5
AF
100
AcDbEntity
8
1
62
256
6
ByLayer
370
18
48
1
60
0
100
AcDbSpline
70
4
71
3
72
8
73
4
40
0
40
0
40
0
40
0
40
1
40
1
40
1
40
1
41
1
10
61.628416265409
20
4.04245884684835
30
0
41
1
10
61.4529073426823
20
4.04733170522479
30
0
41
1
10
61.2774095579011
20
4.04970097921421
30
0
41
1
10
61.1018721157734
20
4.04957066131146
30
0
0
SPLINE
5
B0
100
AcDbEntity
8
1
62
256
6
ByLayer
370
18
48
1
60
0
100
AcDbSpline
70
4
71
3
72
48
73
44
40
0
40
0
40
0
40
0
40
0.0211174833082119
40
0.0211174833082119
40
0.0825048212952219
40
0.0825048212952219
40
0.113198490288727
40
0.113198490288727
40
0.143892159282233
40
0.143892159282233
40
0.205279497269245
40
0.205279497269245
40
0.235973166262751
40
0.235973166262751
40
0.266666835256256
40
0.266666835256256
40
0.328054173243266
40
0.328054173243266
40
0.389441511230276
40
0.389441511230276
40
0.450828849217286
40
0.450828849217286
40
0.48152251821079
40
0.48152251821079
40
0.512216187204295
40
0.512216187204295
40
0.573603525191303
40
0.573603525191303
40
0.604297194184807
40
0.604297194184807
40
0.634990863178311
40
0.634990863178311
40
0.757765539152329
40
0.757765539152329
40
0.819152877139338
40
0.819152877139338
40
0.880540215126347
40
0.880540215126347
40
0.911233884119852
40
0.911233884119852
40
0.941927553113357
40
0.941927553113357
40
1
40
1
40
1
40
1
41
1
10
36.5593550580021
20
-3.84585691842457
30
0
41
1
10
36.3510259852575
20
-3.87506527938208
30
0
41
1
10
36.1427373985922
20
-3.90092237405378
30
0
41
1
10
35.3287487662099
20
-3.98857927586673
30
0
41
1
10
34.722644860107
20
-4.02499752112288
30
0
41
1
10
33.809275769758
20
-4.03476782393977
30
0
41
1
10
33.5041355569596
20
-4.03055410386199
30
0
41
1
10
32.8918536146156
20
-4.0069687167927
30
0
41
1
10
32.5844534611929
20
-3.98755102764156
30
0
41
1
10
31.6650178958612
20
-3.90710340986456
30
0
41
1
10
31.0536789117158
20
-3.82378988495842
30
0
41
1
10
30.1352817630852
20
-3.65687474774728
30
0
41
1
10
29.8289403609833
20
-3.59423644802504
30
0
41
1
10
29.2152300049957
20
-3.45543013968449
30
0
41
1
10
28.908275149904
20
-3.37935854242261
30
0
41
1
10
27.989213027174
20
-3.13311848880332
30
0
41
1
10
27.3778693725462
20
-2.94439782341311
30
0
41
1
10
26.1525421710938
20
-2.52556594349215
30
0
41
1
10
25.5379337986748
20
-2.29458117901856
30
0
41
1
10
24.3130180591973
20
-1.80381428886676
30
0
41
1
10
23.7015364573808
20
-1.54337032164469
30
0
41
1
10
22.7819326607195
20
-1.13765648294452
30
0
41
1
10
22.4746822029981
20
-0.999622662355932
30
0
41
1
10
21.8612119106886
20
-0.720858292003385
30
0
41
1
10
21.5549023875005
20
-0.580139812724781
30
0
41
1
10
20.6364124958104
20
-0.155786559131968
30
0
41
1
10
20.0247634457161
20
0.130249060319812
30
0
41
1
10
19.1043880970919
20
0.555519961647747
30
0
41
1
10
18.7970840641994
20
0.696802110168477
30
0
41
1
10
18.1854235163664
20
0.974774078014406
30
0
41
1
10
17.8804946407849
20
1.11170021195363
30
0
41
1
10
16.3589901785434
20
1.78332784408823
30
0
41
1
10
15.1518890164636
20
2.27884795264583
30
0
41
1
10
13.3283422523601
20
2.90611643867652
30
0
41
1
10
12.7181095744678
20
3.09593676707294
30
0
41
1
10
11.489361874296
20
3.42834924196535
30
0
41
1
10
10.8772900637346
20
3.56930997976164
30
0
41
1
10
9.95889401165164
20
3.73924173121793
30
0
41
1
10
9.65269851160281
20
3.78896254596165
30
0
41
1
10
9.03959250164152
20
3.87407480030805
30
0
41
1
10
8.73219564792632
20
3.90950381877346
30
0
41
1
10
7.84497102163652
20
3.99026690556846
30
0
41
1
10
7.26772740818342
20
4.01626962592835
30
0
41
1
10
6.6915745818356
20
4.01556027471906
30
0
0
SPLINE
5
B1
100
AcDbEntity
8
1
62
256
6
ByLayer
370
18
48
1
60
0
100
AcDbSpline
70
4
71
3
72
8
73
4
40
0
40
0
40
0
40
0
40
1
40
1
40
1
40
1
41
1
10
2.80125323279611
20
-3.57336341234512
30
0
41
1
10
2.79617250719326
20
-3.5662772176
30
0
41
1
10
2.79351887616178
20
-3.55887742663424
30
0
41
1
10
2.79352005832669
20
-3.55124909025403
30
0
0
SPLINE
5
B2
100
AcDbEntity
8
1
62
256
6
ByLayer
370
18
48
1
60
0
100
AcDbSpline
70
4
71
3
72
16
73
12
40
0
40
0
40
0
40
0
40
0.269158612743768
40
0.269158612743768
40
0.40373791911565
40
0.40373791911565
40
0.538317225487532
40
0.538317225487532
40
0.807475838231292
40
0.807475838231292
40
1
40
1
40
1
40
1
41
1
10
60.9831546801587
20
-2.87909572657333
30
0
41
1
10
61.0358528005968
20
-3.04310258156414
30
0
41
1
10
61.0908880957082
20
-3.18675066341177
30
0
41
1
10
61.1761564489179
20
-3.37302464125457
30
0
41
1
10
61.205041409695
20
-3.43021331416941
30
0
41
1
10
61.2637061035797
20
-3.53458447410577
30
0
41
1
10
61.2935267276471
20
-3.5817536253895
30
0
41
1
10
61.3824667088501
20
-3.705272175543
30
0
41
1
10
61.4416600521275
20
-3.76497203218528
30
0
41
1
10
61.5433170405678
20
-3.82888495884879
30
0
41
1
10
61.5859003674082
20
-3.84391479824765
30
0
41
1
10
61.6281660238653
20
-3.8468541527788
30
0
0
SPLINE
5
B3
100
AcDbEntity
8
1
62
256
6
ByLayer
370
13
48
1
60
0
100
AcDbSpline
70
4
71
3
72
12
73
8
40
0
40
0
40
0
40
0
40
0.643383411234424
40
0.643383411234424
40
0.965075116851636
40
0.965075116851636
40
1
40
1
40
1
40
1
41
1
10
2.99792823185717
20
-3.55726394724604
30
0
41
1
10
4.2301996943583
20
-3.78940547186701
30
0
41
1
10
5.4488489244718
20
-3.90930620177309
30
0
41
1
10
7.2837145260072
20
-3.91341005277312
30
0
41
1
10
7.89649886004185
20
-3.88544836692705
30
0
41
1
10
8.57973812290146
20
-3.82182876151054
30
0
41
1
10
8.6466487554531
20
-3.81525373596298
30
0
41
1
10
8.71354400576567
20
-3.80833894072191
30
0
0
SPLINE
5
B4
100
AcDbEntity
8
1
62
256
6
ByLayer
370
18
48
1
60
0
100
AcDbSpline
70
4
71
3
72
14
73
10
40
0
40
0
40
0
40
0
40
0.50005794979682
40
0.50005794979682
40
0.78539805155817
40
0.78539805155817
40
0.928068102438843
40
0.928068102438843
40
1
40
1
40
1
40
1
41
1
10
47.4697097736321
20
0.0153622320711406
30
0
41
1
10
48.5436013083528
20
-0.473024689347767
30
0
41
1
10
49.6069465949851
20
-0.957192056446246
30
0
41
1
10
51.2800472715029
20
-1.66795810860916
30
0
41
1
10
51.888389013691
20
-1.91624602485294
30
0
41
1
10
52.8050322190094
20
-2.26648577815897
30
0
41
1
10
53.1113053229612
20
-2.3794729615982
30
0
41
1
10
53.5735328369929
20
-2.54283882463233
30
0
41
1
10
53.7287534007022
20
-2.59649094396377
30
0
41
1
10
53.8839043568062
20
-2.64884746755408
30
0
0
SPLINE
5
B5
100
AcDbEntity
8
1
62
256
6
ByLayer
370
13
48
1
60
0
100
AcDbSpline
70
4
71
3
72
14
73
10
40
0
40
0
40
0
40
0
40
0.0583600672557285
40
0.0583600672557285
40
0.529180033627865
40
0.529180033627865
40
0.764590016813933
40
0.764590016813933
40
1
40
1
40
1
40
1
41
1
10
53.8839043555421
20
-2.64884746712755
30
0
41
1
10
54.03648050775
20
-2.70033510931836
30
0
41
1
10
54.1889893435257
20
-2.75056980100362
30
0
41
1
10
55.568172208192
20
-3.19307756165068
30
0
41
1
10
56.7804320561928
20
-3.49758698734786
30
0
41
1
10
58.6039228554326
20
-3.79042185018184
30
0
41
1
10
59.2126958471187
20
-3.86082072295633
30
0
41
1
10
60.436402277837
20
-3.94376496762544
30
0
41
1
10
61.0529719309437
20
-3.95609411185924
30
0
41
1
10
61.6686237121185
20
-3.93801594957333
30
0
0
SPLINE
5
B6
100
AcDbEntity
8
1
62
256
6
ByLayer
370
18
48
1
60
0
100
AcDbSpline
70
4
71
3
72
28
73
24
40
0
40
0
40
0
40
0
40
0.0624999999999965
40
0.0624999999999965
40
0.124999999999993
40
0.124999999999993
40
0.18749999999999
40
0.18749999999999
40
0.249999999999986
40
0.249999999999986
40
0.374999999999979
40
0.374999999999979
40
0.43749999999998
40
0.43749999999998
40
0.499999999999981
40
0.499999999999981
40
0.749999999999986
40
0.749999999999986
40
0.874999999999989
40
0.874999999999989
40
0.937499999999994
40
0.937499999999994
40
1
40
1
40
1
40
1
41
1
10
62.1246559690283
20
-1.33373195216816
30
0
41
1
10
62.1282095899405
20
-1.36235288385547
30
0
41
1
10
62.1295613836011
20
-1.39418888402591
30
0
41
1
10
62.1275324916163
20
-1.46106161215195
30
0
41
1
10
62.1242332317895
20
-1.49637583174768
30
0
41
1
10
62.1129302141134
20
-1.57110647688449
30
0
41
1
10
62.1050221262589
20
-1.60965375464966
30
0
41
1
10
62.0854982352176
20
-1.68690443395968
30
0
41
1
10
62.0736562003036
20
-1.72639444050822
30
0
41
1
10
62.0341899593658
20
-1.84130711960253
30
0
41
1
10
62.002071186784
20
-1.91508691464949
30
0
41
1
10
61.9505470335171
20
-2.01345618173914
30
0
41
1
10
61.9325484429423
20
-2.04470757274694
30
0
41
1
10
61.8962077255325
20
-2.10224909736601
30
0
41
1
10
61.8778101586213
20
-2.12868978363417
30
0
41
1
10
61.7845713320181
20
-2.250104382616
30
0
41
1
10
61.708089196344
20
-2.30946034081938
30
0
41
1
10
61.6029976978228
20
-2.33780177491135
30
0
41
1
10
61.5688846305264
20
-2.33725689311009
30
0
41
1
10
61.5218878180784
20
-2.32126955100807
30
0
41
1
10
61.5068205001757
20
-2.313446456859
30
0
41
1
10
61.4779140146006
20
-2.29255553837939
30
0
41
1
10
61.4639775272692
20
-2.27935031453981
30
0
41
1
10
61.451071336652
20
-2.2636308613794
30
0
0
SPLINE
5
B7
100
AcDbEntity
8
1
62
256
6
ByLayer
370
18
48
1
60
0
100
AcDbSpline
70
4
71
3
72
16
73
12
40
0
40
0
40
0
40
0
40
0.168943120573269
40
0.168943120573269
40
0.312723830583492
40
0.312723830583492
40
0.456504540593718
40
0.456504540593718
40
0.744065960614176
40
0.744065960614176
40
1
40
1
40
1
40
1
41
1
10
20.2643954734782
20
0.0175588696527313
30
0
41
1
10
20.6219603084198
20
-0.144348591895323
30
0
41
1
10
20.9798876448976
20
-0.306472235675557
30
0
41
1
10
21.6439638906847
20
-0.605027193138142
30
0
41
1
10
21.9498659505916
20
-0.741728764331839
30
0
41
1
10
22.563383671228
20
-1.01274891963985
30
0
41
1
10
22.8716916649922
20
-1.14726311153567
30
0
41
1
10
23.7952310675964
20
-1.54282803050967
30
0
41
1
10
24.4066635851308
20
-1.79521878805917
30
0
41
1
10
25.5588167287529
20
-2.24217060455729
30
0
41
1
10
26.0998602579927
20
-2.44010043881624
30
0
41
1
10
26.6409993100579
20
-2.62277961952788
30
0
0
SPLINE
5
B8
100
AcDbEntity
8
1
62
256
6
ByLayer
370
13
48
1
60
0
100
AcDbSpline
70
4
71
3
72
16
73
12
40
0
40
0
40
0
40
0
40
0.221091236376167
40
0.221091236376167
40
0.320683202021572
40
0.320683202021572
40
0.420275167666977
40
0.420275167666977
40
0.619459098957788
40
0.619459098957788
40
1
40
1
40
1
40
1
41
1
10
26.6409983627209
20
-2.6227792997233
30
0
41
1
10
27.3158816498907
20
-2.85060824229029
30
0
41
1
10
27.9909135109508
20
-3.05471645737663
30
0
41
1
10
28.9747497324663
20
-3.30873798239193
30
0
41
1
10
29.2809315483992
20
-3.38178571296726
30
0
41
1
10
29.8951872638779
20
-3.51530585638975
30
0
41
1
10
30.203695373636
20
-3.5758360731555
30
0
41
1
10
31.1276683868455
20
-3.73636106895228
30
0
41
1
10
31.7429675199445
20
-3.8156894156929
30
0
41
1
10
33.5365681718854
20
-3.96120694889882
30
0
41
1
10
34.6977252290368
20
-3.94769917608738
30
0
41
1
10
35.8586654201102
20
-3.83044887242826
30
0
0
SPLINE
5
B9
100
AcDbEntity
8
1
62
256
6
ByLayer
370
13
48
1
60
0
100
AcDbSpline
70
4
71
3
72
12
73
8
40
0
40
0
40
0
40
0
40
0.25
40
0.25
40
0.500000000000001
40
0.500000000000001
40
1
40
1
40
1
40
1
41
1
10
2.93566673034113
20
-3.43760195235873
30
0
41
1
10
2.91624467834618
20
-3.44327035127486
30
0
41
1
10
2.89869090809953
20
-3.45027258890551
30
0
41
1
10
2.86684538089995
20
-3.46655578315116
30
0
41
1
10
2.85262541974095
20
-3.47587761206898
30
0
41
1
10
2.81678211566842
20
-3.50543699844386
30
0
41
1
10
2.80082085098337
20
-3.52803337991543
30
0
41
1
10
2.79352005832641
20
-3.55124909025227
30
0
0
SPLINE
5
BA
100
AcDbEntity
8
1
62
256
6
ByLayer
370
18
48
1
60
0
100
AcDbSpline
70
4
71
3
72
26
73
22
40
0
40
0
40
0
40
0
40
0.125
40
0.125
40
0.25
40
0.25
40
0.3125
40
0.3125
40
0.375
40
0.375
40
0.5
40
0.5
40
0.5625
40
0.5625
40
0.625
40
0.625
40
0.75
40
0.75
40
0.875
40
0.875
40
1
40
1
40
1
40
1
41
1
10
57.7727657347314
20
1.03725861801954
30
0
41
1
10
57.7901401383547
20
0.81676440761936
30
0
41
1
10
57.8348373246731
20
0.59516795098412
30
0
41
1
10
57.9733896718624
20
0.153020052931794
30
0
41
1
10
58.0640625697245
20
-0.0583710226127323
30
0
41
1
10
58.2251122359279
20
-0.364125889922065
30
0
41
1
10
58.2833460840211
20
-0.464587529564454
30
0
41
1
10
58.4054690872865
20
-0.658620463478172
30
0
41
1
10
58.4694533311394
20
-0.752449713148252
30
0
41
1
10
58.6689943300265
20
-1.02566254258542
30
0
41
1
10
58.8120568586386
20
-1.19686116127994
30
0
41
1
10
59.0385887764373
20
-1.44064069935658
30
0
41
1
10
59.1163659424718
20
-1.51994126916691
30
0
41
1
10
59.2741119210695
20
-1.67302398678746
30
0
41
1
10
59.3540891411658
20
-1.74684941361832
30
0
41
1
10
59.5969754078389
20
-1.96105863546364
30
0
41
1
10
59.7628203458582
20
-2.09422140252377
30
0
41
1
10
60.1010902696266
20
-2.34436285438826
30
0
41
1
10
60.2735234608552
20
-2.46132135724858
30
0
41
1
10
60.6242373988622
20
-2.68085589586664
30
0
41
1
10
60.8029156853879
20
-2.78362674546102
30
0
41
1
10
60.9831546801587
20
-2.8790957265733
30
0
0
SPLINE
5
BB
100
AcDbEntity
8
1
62
256
6
ByLayer
370
18
48
1
60
0
100
AcDbSpline
70
4
71
3
72
8
73
4
40
0
40
0
40
0
40
0
40
1
40
1
40
1
40
1
41
1
10
62.971210229132
20
0.448005254453676
30
0
41
1
10
62.9491407660853
20
0.623309097305366
30
0
41
1
10
62.9146526763229
20
0.802377500750168
30
0
41
1
10
62.8693330292488
20
0.990142939347038
30
0
0
SPLINE
5
BC
100
AcDbEntity
8
1
62
256
6
ByLayer
370
18
48
1
60
0
100
AcDbSpline
70
4
71
3
72
10
73
6
40
0
40
0
40
0
40
0
40
0.5
40
0.5
40
1
40
1
40
1
40
1
41
1
10
61.7890835722682
20
-3.93950994092421
30
0
41
1
10
61.9623486818239
20
-3.44372121418556
30
0
41
1
10
62.1395550771473
20
-2.95046577680324
30
0
41
1
10
62.5003271858646
20
-1.96776295751275
30
0
41
1
10
62.6839264637757
20
-1.4783377023399
30
0
41
1
10
62.8693330292487
20
-0.990142939347066
30
0
0
SPLINE
5
BD
100
AcDbEntity
8
1
62
256
6
ByLayer
370
13
48
1
60
0
100
AcDbSpline
70
4
71
3
72
8
73
4
40
0
40
0
40
0
40
0
40
1
40
1
40
1
40
1
41
1
10
2.93368201041236
20
-3.63885377302617
30
0
41
1
10
2.9343396321261
20
-3.61179184582869
30
0
41
1
10
2.9350012098752
20
-3.5847277943073
30
0
41
1
10
2.93566673034113
20
-3.55766156569902
30
0
0
SPLINE
5
BE
100
AcDbEntity
8
1
62
256
6
ByLayer
370
18
48
1
60
0
100
AcDbSpline
70
4
71
3
72
54
73
50
40
0
40
0
40
0
40
0
40
0.0754123815502725
40
0.0754123815502725
40
0.113118572325408
40
0.113118572325408
40
0.150824763100544
40
0.150824763100544
40
0.18853095387568
40
0.18853095387568
40
0.226237144650816
40
0.226237144650816
40
0.263943335425952
40
0.263943335425952
40
0.301649526201087
40
0.301649526201087
40
0.339355716976223
40
0.339355716976223
40
0.377061907751359
40
0.377061907751359
40
0.45247428930163
40
0.45247428930163
40
0.490180480076766
40
0.490180480076766
40
0.527886670851901
40
0.527886670851901
40
0.565592861627037
40
0.565592861627037
40
0.603299052402173
40
0.603299052402173
40
0.641005243177309
40
0.641005243177309
40
0.678711433952445
40
0.678711433952445
40
0.716417624727581
40
0.716417624727581
40
0.754123815502716
40
0.754123815502716
40
0.829536197052988
40
0.829536197052988
40
0.867242387828125
40
0.867242387828125
40
0.904948578603262
40
0.904948578603262
40
0.942654769378398
40
0.942654769378398
40
0.980360960153535
40
0.980360960153535
40
1
40
1
40
1
40
1
41
1
10
11.8730553477233
20
2.93607814211271
30
0
41
1
10
12.3971836663645
20
2.7682119935308
30
0
41
1
10
12.9202208050989
20
2.58874754353909
30
0
41
1
10
13.70034750747
20
2.29813947448414
30
0
41
1
10
13.9594481397914
20
2.19725511529518
30
0
41
1
10
14.478075008951
20
1.99178629526759
30
0
41
1
10
14.7374129101019
20
1.88688133592754
30
0
41
1
10
15.2556933662658
20
1.67192405733863
30
0
41
1
10
15.5145378864447
20
1.56166655574364
30
0
41
1
10
16.031973894112
20
1.33616986788766
30
0
41
1
10
16.29112638219
20
1.22209508547752
30
0
41
1
10
16.8102400619402
20
0.991257285801794
30
0
41
1
10
17.0701423388175
20
0.874372491861379
30
0
41
1
10
17.5902631615657
20
0.636750664665755
30
0
41
1
10
17.8503920451234
20
0.515776862726057
30
0
41
1
10
18.3729370689726
20
0.274360877390933
30
0
41
1
10
18.6354243518347
20
0.153205384665114
30
0
41
1
10
19.1603152380312
20
-0.0899890428646302
30
0
41
1
10
19.4216344409076
20
-0.212056373769855
30
0
41
1
10
20.2036764489279
20
-0.576211168709591
30
0
41
1
10
20.7241867966858
20
-0.812521610886932
30
0
41
1
10
21.5013529203811
20
-1.16274818678303
30
0
41
1
10
21.7599487004072
20
-1.27842895825555
30
0
41
1
10
22.2779426710679
20
-1.50410200860404
30
0
41
1
10
22.5370732609412
20
-1.61467457714363
30
0
41
1
10
23.0552280427826
20
-1.83205241028509
30
0
41
1
10
23.3139861358418
20
-1.93936601537223
30
0
41
1
10
23.8324354885253
20
-2.14807411164071
30
0
41
1
10
24.0923309326641
20
-2.24909985111819
30
0
41
1
10
24.6130727566003
20
-2.4452747649519
30
0
41
1
10
24.8739372210585
20
-2.54039244376017
30
0
41
1
10
25.396194778247
20
-2.72536241169425
30
0
41
1
10
25.6584969475221
20
-2.81465646143883
30
0
41
1
10
26.1828675831761
20
-2.98375842449403
30
0
41
1
10
26.4444113072069
20
-3.06388838075918
30
0
41
1
10
26.9659080258585
20
-3.21591257629467
30
0
41
1
10
27.2255564222732
20
-3.28816793924338
30
0
41
1
10
28.0042665325615
20
-3.48957549566305
30
0
41
1
10
28.5230327092296
20
-3.60401540765437
30
0
41
1
10
29.2984418561269
20
-3.74824823608608
30
0
41
1
10
29.5570235605106
20
-3.79116470540848
30
0
41
1
10
30.0749815887153
20
-3.86645196034294
30
0
41
1
10
30.3341982147848
20
-3.89896051537397
30
0
41
1
10
30.8527868369242
20
-3.9537730928362
30
0
41
1
10
31.1118876344204
20
-3.97613295915124
30
0
41
1
10
31.6319515251464
20
-4.00969589364945
30
0
41
1
10
31.8927861434829
20
-4.02102610961416
30
0
41
1
10
32.2903616796179
20
-4.0300227621629
30
0
41
1
10
32.4267979701741
20
-4.03162820805966
30
0
41
1
10
32.5632729337465
20
-4.03173060170565
30
0
0
SPLINE
5
BF
100
AcDbEntity
8
1
62
256
6
ByLayer
370
18
48
1
60
0
100
AcDbSpline
70
4
71
3
72
28
73
24
40
0
40
0
40
0
40
0
40
0.033561652478915
40
0.033561652478915
40
0.121419684071743
40
0.121419684071743
40
0.297135747257394
40
0.297135747257394
40
0.384993778850219
40
0.384993778850219
40
0.472851810443045
40
0.472851810443045
40
0.560709842035871
40
0.560709842035871
40
0.648567873628697
40
0.648567873628697
40
0.736425905221523
40
0.736425905221523
40
0.824283936814348
40
0.824283936814348
40
0.912141968407174
40
0.912141968407174
40
1
40
1
40
1
40
1
41
1
10
52.9048013850738
20
2.84052809916966
30
0
41
1
10
53.0044193929035
20
2.87356448472579
30
0
41
1
10
53.104132272753
20
2.90606118257529
30
0
41
1
10
53.465173850875
20
3.02174615783079
30
0
41
1
10
53.7273906968038
20
3.10216786686408
30
0
41
1
10
54.5123243547336
20
3.33083978597992
30
0
41
1
10
55.0339646656791
20
3.46284084406668
30
0
41
1
10
55.8122444338878
20
3.6335951427406
30
0
41
1
10
56.0708561119205
20
3.68595038341411
30
0
41
1
10
56.5886142618239
20
3.77961670131495
30
0
41
1
10
56.84750370784
20
3.82122966102278
30
0
41
1
10
57.3648887754655
20
3.8944164331806
30
0
41
1
10
57.6232043323298
20
3.92606859997886
30
0
41
1
10
58.1399791958486
20
3.97874839589809
30
0
41
1
10
58.3988784386561
20
3.99960483389765
30
0
41
1
10
58.9174025398175
20
4.0306546881653
30
0
41
1
10
59.1770210302911
20
4.04085609532567
30
0
41
1
10
59.6965263181733
20
4.05040266057699
30
0
41
1
10
59.9565191814981
20
4.04966080580763
30
0
41
1
10
60.4788103090661
20
4.03715325176023
30
0
41
1
10
60.741150876298
20
4.02540807666611
30
0
41
1
10
61.2656294444957
20
3.99082945048613
30
0
41
1
10
61.5272542447224
20
3.96787633177951
30
0
41
1
10
61.7890835722727
20
3.93950994091162
30
0
0
SPLINE
5
C0
100
AcDbEntity
8
1
62
256
6
ByLayer
370
18
48
1
60
0
100
AcDbSpline
70
4
71
3
72
14
73
10
40
0
40
0
40
0
40
0
40
0.25
40
0.25
40
0.5
40
0.5
40
0.75
40
0.75
40
1
40
1
40
1
40
1
41
1
10
61.4776838982261
20
0.883345265545984
30
0
41
1
10
61.4765506664907
20
0.898729197118911
30
0
41
1
10
61.4795078367289
20
0.914377945027383
30
0
41
1
10
61.4945697927005
20
0.941588040456196
30
0
41
1
10
61.5066469007328
20
0.952936382529941
30
0
41
1
10
61.5339006528845
20
0.968905836343481
30
0
41
1
10
61.5493014606137
20
0.973997261692659
30
0
41
1
10
61.580247139744
20
0.979865743208251
30
0
41
1
10
61.5961667987245
20
0.980751224092643
30
0
41
1
10
61.612003417467
20
0.980130570524324
30
0
0
SPLINE
5
C1
100
AcDbEntity
8
1
62
256
6
ByLayer
370
18
48
1
60
0
100
AcDbSpline
70
4
71
3
72
10
73
6
40
0
40
0
40
0
40
0
40
0.5
40
0.5
40
1
40
1
40
1
40
1
41
1
10
62.9997592165721
20
0.0405478569626325
30
0
41
1
10
62.9967114004398
20
0.0241675074208558
30
0
41
1
10
62.9920044352945
20
0.006179626186821
30
0
41
1
10
62.9796735684455
20
-0.0282953387687428
30
0
41
1
10
62.9720498063344
20
-0.0446641832437535
30
0
41
1
10
62.9641417024618
20
-0.0576181295449771
30
0
0
SPLINE
5
C2
100
AcDbEntity
8
1
62
256
6
ByLayer
370
18
48
1
60
0
100
AcDbSpline
70
4
71
3
72
8
73
4
40
0
40
0
40
0
40
0
40
1
40
1
40
1
40
1
41
1
10
61.6120034174671
20
0.980130570524352
30
0
41
1
10
62.0254443400593
20
0.963927390535645
30
0
41
1
10
62.4389491769098
20
0.946886861925833
30
0
41
1
10
62.8523996019921
20
0.930559188637062
30
0
0
SPLINE
5
C3
100
AcDbEntity
8
1
62
256
6
ByLayer
370
18
48
1
60
0
100
AcDbSpline
70
4
71
3
72
8
73
4
40
0
40
0
40
0
40
0
40
1
40
1
40
1
40
1
41
1
10
62.8693330292488
20
0.990142939347038
30
0
41
1
10
62.8637735289037
20
0.97024401900984
30
0
41
1
10
62.8581282760776
20
0.950382975626155
30
0
41
1
10
62.8523996019921
20
0.930559188637062
30
0
0
SPLINE
5
C4
100
AcDbEntity
8
1
62
256
6
ByLayer
370
18
48
1
60
0
100
AcDbSpline
70
4
71
3
72
39
73
35
40
0
40
0
40
0
40
0
40
0.0203056181660718
40
0.0203056181660718
40
0.0936435218723102
40
0.0936435218723102
40
0.166981425578549
40
0.166981425578549
40
0.313657232991025
40
0.313657232991025
40
0.460333040403502
40
0.460333040403502
40
0.533670944109741
40
0.533670944109741
40
0.57033989596286
40
0.5749235149445
40
0.5749235149445
40
0.57950713392614
40
0.57950713392614
40
0.584090752907779
40
0.584090752907779
40
0.588674371889419
40
0.588674371889419
40
0.607008847815979
40
0.607008847815979
40
0.680346751522217
40
0.680346751522217
40
0.753684655228455
40
0.753684655228455
40
0.900360462640931
40
0.900360462640931
40
0.973698366347169
40
0.973698366347169
40
1
40
1
40
1
40
1
41
1
10
11.8730553477233
20
2.93607814210463
30
0
41
1
10
11.8730553477233
20
2.90411809080274
30
0
41
1
10
11.8730553477233
20
2.87178407878179
30
0
41
1
10
11.8730553477233
20
2.7209620296907
30
0
41
1
10
11.8730553477233
20
2.59798587299008
30
0
41
1
10
11.8730553477233
20
2.34235007130235
30
0
41
1
10
11.8730553477233
20
2.2090206824538
30
0
41
1
10
11.8730553477233
20
1.79967299254193
30
0
41
1
10
11.8730553477233
20
1.51553361353038
30
0
41
1
10
11.8730553477233
20
0.926489104384586
30
0
41
1
10
11.8730553477233
20
0.621572201913324
30
0
41
1
10
11.8730553477233
20
0.148610725938312
30
0
41
1
10
11.8730553477233
20
-0.0113823543204035
30
0
41
1
10
11.8730553477233
20
-0.252841163365986
30
0
41
1
10
11.8730553477233
20
-0.343799583186012
30
0
41
1
10
11.8730553477233
20
-0.435088089082001
30
0
41
1
10
11.8730553477233
20
-0.45538250647607
30
0
41
1
10
11.8730553477233
20
-0.465572771742927
30
0
41
1
10
11.8730553477233
20
-0.486065938895877
30
0
41
1
10
11.8730553477233
20
-0.496255927257607
30
0
41
1
10
11.8730553477233
20
-0.516050029698704
30
0
41
1
10
11.8730553477233
20
-0.525022924339709
30
0
41
1
10
11.8730553477233
20
-0.568878310577759
30
0
41
1
10
11.8730553477233
20
-0.603773290302712
30
0
41
1
10
11.8730553477233
20
-0.777054719640802
30
0
41
1
10
11.8730553477233
20
-0.912077870615292
30
0
41
1
10
11.8730553477233
20
-1.174766083842
30
0
41
1
10
11.8730553477233
20
-1.30218828722516
30
0
41
1
10
11.8730553477233
20
-1.66891387386161
30
0
41
1
10
11.8730553477233
20
-1.89424256162172
30
0
41
1
10
11.8730553477233
20
-2.20196582556275
30
0
41
1
10
11.8730553477233
20
-2.29986545298016
30
0
41
1
10
11.8730553477233
20
-2.42418603250815
30
0
41
1
10
11.8730553477233
20
-2.45613878148441
30
0
41
1
10
11.8730553477233
20
-2.48722827150559
30
0
0
SPLINE
5
C5
100
AcDbEntity
8
1
62
256
6
ByLayer
370
18
48
1
60
0
100
AcDbSpline
70
4
71
3
72
98
73
94
40
0
40
0
40
0
40
0
40
0.0265171109260417
40
0.0265171109260417
40
0.0479015762781087
40
0.0479015762781087
40
0.0692860416301757
40
0.0692860416301757
40
0.0906705069822427
40
0.0906705069822427
40
0.11205497233431
40
0.11205497233431
40
0.133439437686377
40
0.133439437686377
40
0.154823903038444
40
0.154823903038444
40
0.176208368390511
40
0.176208368390511
40
0.197592833742578
40
0.197592833742578
40
0.218977299094645
40
0.218977299094645
40
0.240361764446712
40
0.240361764446712
40
0.261746229798779
40
0.261746229798779
40
0.283130695150846
40
0.283130695150846
40
0.304515160502913
40
0.304515160502913
40
0.32589962585498
40
0.32589962585498
40
0.347284091207047
40
0.347284091207047
40
0.368668556559114
40
0.368668556559114
40
0.390053021911181
40
0.390053021911181
40
0.411437487263248
40
0.411437487263248
40
0.432821952615315
40
0.432821952615315
40
0.454206417967382
40
0.454206417967382
40
0.475590883319449
40
0.475590883319449
40
0.496975348671516
40
0.496975348671516
40
0.53974427937565
40
0.53974427937565
40
0.561128744727717
40
0.561128744727717
40
0.582513210079784
40
0.582513210079784
40
0.603897675431851
40
0.603897675431851
40
0.625282140783918
40
0.625282140783918
40
0.646666606135984
40
0.646666606135984
40
0.668051071488051
40
0.668051071488051
40
0.689435536840118
40
0.689435536840118
40
0.710820002192185
40
0.710820002192185
40
0.732204467544252
40
0.732204467544252
40
0.753588932896319
40
0.753588932896319
40
0.774973398248386
40
0.774973398248386
40
0.796357863600453
40
0.796357863600453
40
0.81774232895252
40
0.81774232895252
40
0.839126794304587
40
0.839126794304587
40
0.860511259656654
40
0.860511259656654
40
0.881895725008721
40
0.881895725008721
40
0.903280190360788
40
0.903280190360788
40
0.924664655712855
40
0.924664655712855
40
0.946049121064922
40
0.946049121064922
40
0.967433586416988
40
0.967433586416988
40
0.988818051769055
40
0.988818051769055
40
1
40
1
40
1
40
1
41
1
10
52.9279629123675
20
-2.8412101542136
30
0
41
1
10
52.6309391121382
20
-2.92886273392267
30
0
41
1
10
52.3337741537717
20
-3.01132086707139
30
0
41
1
10
51.7968902704051
20
-3.15260885074579
30
0
41
1
10
51.5567537853299
20
-3.21257606964008
30
0
41
1
10
51.0769995839059
20
-3.32468270228858
30
0
41
1
10
50.8376550785432
20
-3.37686167743035
30
0
41
1
10
50.3600980004409
20
-3.47326006553385
30
0
41
1
10
50.1219743714743
20
-3.5175568143714
30
0
41
1
10
49.6464642025856
20
-3.59686334364486
30
0
41
1
10
49.4089483881025
20
-3.63140611086851
30
0
41
1
10
48.9341961830311
20
-3.692725153803
30
0
41
1
10
48.6969767424094
20
-3.71984440895412
30
0
41
1
10
48.2230040198945
20
-3.76620787414763
30
0
41
1
10
47.9863032995625
20
-3.78536385253381
30
0
41
1
10
47.5124704665912
20
-3.81429776642329
30
0
41
1
10
47.2754042828501
20
-3.8244611591058
30
0
41
1
10
46.8010014968595
20
-3.8369014230268
30
0
41
1
10
46.5636915502129
20
-3.83904689253575
30
0
41
1
10
46.0887038837523
20
-3.83385110307356
30
0
41
1
10
45.8508544810095
20
-3.82613663509781
30
0
41
1
10
45.3740517641081
20
-3.80262646373379
30
0
41
1
10
45.1352416152436
20
-3.78726363780734
30
0
41
1
10
44.6566279712957
20
-3.74763640398547
30
0
41
1
10
44.4165442161906
20
-3.72330302515809
30
0
41
1
10
43.9368434563317
20
-3.6650874225582
30
0
41
1
10
43.6971408860575
20
-3.63165144753637
30
0
41
1
10
43.2179697082081
20
-3.55811705910253
30
0
41
1
10
42.9785075863459
20
-3.51749949142703
30
0
41
1
10
42.4998771419217
20
-3.42744301631509
30
0
41
1
10
42.2607442863503
20
-3.37771416092491
30
0
41
1
10
41.7819044682027
20
-3.27112388881915
30
0
41
1
10
41.5423210962979
20
-3.21478785079057
30
0
41
1
10
41.0626760193466
20
-3.09462575701636
30
0
41
1
10
40.8223966812036
20
-3.03070072051503
30
0
41
1
10
40.3426379042023
20
-2.89502744186015
30
0
41
1
10
40.1030618139345
20
-2.82352453667392
30
0
41
1
10
39.6239329494866
20
-2.675910831523
30
0
41
1
10
39.3844493319562
20
-2.59932650256147
30
0
41
1
10
38.9056489982596
20
-2.43981030619648
30
0
41
1
10
38.6664037971424
20
-2.35664967814853
30
0
41
1
10
38.1876590905033
20
-2.184957262946
30
0
41
1
10
37.948092731701
20
-2.09706542047289
30
0
41
1
10
37.4684027317353
20
-1.91664507344859
30
0
41
1
10
37.2280279838805
20
-1.82399447611431
30
0
41
1
10
36.7481176500232
20
-1.63416671311455
30
0
41
1
10
36.5086202357265
20
-1.53687465805848
30
0
41
1
10
35.7900868604193
20
-1.24199094349527
30
0
41
1
10
35.3112446449105
20
-1.04014064654294
30
0
41
1
10
34.5930601527979
20
-0.729064893441205
30
0
41
1
10
34.3535961444206
20
-0.624436072965011
30
0
41
1
10
33.8739421956601
20
-0.414361802369825
30
0
41
1
10
33.633417508326
20
-0.308638935622952
30
0
41
1
10
33.1538935591016
20
-0.0971517332515646
30
0
41
1
10
32.914888640599
20
0.0088545907011337
30
0
41
1
10
32.4377213512297
20
0.220343453626214
30
0
41
1
10
32.1994751833142
20
0.325575127399588
30
0
41
1
10
31.723634487934
20
0.534368495317949
30
0
41
1
10
31.4860318539949
20
0.637828172314215
30
0
41
1
10
31.0114720247958
20
0.843479839283219
30
0
41
1
10
30.7745746113412
20
0.945920271012227
30
0
41
1
10
30.3006654798336
20
1.14784098832467
30
0
41
1
10
30.0637025231466
20
1.24732466036033
30
0
41
1
10
29.5896154145708
20
1.44277435709594
30
0
41
1
10
29.3525263720846
20
1.53890983608591
30
0
41
1
10
28.878393068234
20
1.72880086597667
30
0
41
1
10
28.641247835763
20
1.82235458077653
30
0
41
1
10
28.1660261728203
20
2.00440102533054
30
0
41
1
10
27.9278993066762
20
2.09256326924682
30
0
41
1
10
27.4509845422791
20
2.26489895360166
30
0
41
1
10
27.2123034130665
20
2.3493052638797
30
0
41
1
10
26.7339723491057
20
2.51334013083684
30
0
41
1
10
26.4938562075141
20
2.59296094932802
30
0
41
1
10
26.0135574060883
20
2.74389603424584
30
0
41
1
10
25.7736397842041
20
2.81583972315738
30
0
41
1
10
25.2944067646461
20
2.95484550717237
30
0
41
1
10
25.0551635138842
20
3.02170205617207
30
0
41
1
10
24.5764515382481
20
3.14765367577923
30
0
41
1
10
24.3369721967502
20
3.20588967388255
30
0
41
1
10
23.8577549491074
20
3.31496447578789
30
0
41
1
10
23.6181179789183
20
3.3664965943652
30
0
41
1
10
23.1387727808763
20
3.4626078812689
30
0
41
1
10
22.8987321833002
20
3.50729255113274
30
0
41
1
10
22.4184637387946
20
3.58597533653528
30
0
41
1
10
22.1785325103309
20
3.62036638928299
30
0
41
1
10
21.6991310721923
20
3.68274501151055
30
0
41
1
10
21.459768282231
20
3.71029001724577
30
0
41
1
10
20.9811461909125
20
3.75666904985482
30
0
41
1
10
20.7417253740391
20
3.77485535361592
30
0
41
1
10
20.2625157813877
20
3.80197410197792
30
0
41
1
10
20.022798978155
20
3.81177314858314
30
0
41
1
10
19.6576403371349
20
3.82040316252494
30
0
41
1
10
19.5321958136682
20
3.82224434581263
30
0
41
1
10
19.4067154276444
20
3.82282114569548
30
0
0
SPLINE
5
C6
100
AcDbEntity
8
1
62
256
6
ByLayer
370
18
48
1
60
0
100
AcDbSpline
70
4
71
3
72
8
73
4
40
0
40
0
40
0
40
0
40
1
40
1
40
1
40
1
41
1
10
62.9997592165713
20
-0.0405478569943512
30
0
41
1
10
63.0000804627125
20
-0.0134942342380384
30
0
41
1
10
63.0000800277178
20
0.0135308671355858
30
0
41
1
10
62.9997592165717
20
0.0405478569622915
30
0
0
SPLINE
5
C7
100
AcDbEntity
8
1
62
256
6
ByLayer
370
18
48
1
60
0
100
AcDbSpline
70
4
71
3
72
10
73
6
40
0
40
0
40
0
40
0
40
0.5
40
0.5
40
1
40
1
40
1
40
1
41
1
10
62.9927292538356
20
0.106098043683261
30
0
41
1
10
62.9928553481826
20
0.0967375524236047
30
0
41
1
10
62.993596416258
20
0.0862184451237908
30
0
41
1
10
62.9960069774952
20
0.064208498201566
30
0
41
1
10
62.9976758056726
20
0.0526295497367073
30
0
41
1
10
62.9997592165717
20
0.0405478569623199
30
0
0
SPLINE
5
C8
100
AcDbEntity
8
1
62
256
6
ByLayer
370
18
48
1
60
0
100
AcDbSpline
70
4
71
3
72
14
73
10
40
0
40
0
40
0
40
0
40
0.149678209597951
40
0.149678209597951
40
0.299356419195901
40
0.299356419195901
40
0.598712838391802
40
0.598712838391802
40
1
40
1
40
1
40
1
41
1
10
61.6784545618946
20
-3.8445876391373
30
0
41
1
10
61.3708690082315
20
-3.84971745607996
30
0
41
1
10
61.0630374844796
20
-3.84750471826015
30
0
41
1
10
60.4481084458383
20
-3.8285117868399
30
0
41
1
10
60.1416559700637
20
-3.81176702160565
30
0
41
1
10
59.2245676456538
20
-3.74049781519548
30
0
41
1
10
58.6160944050277
20
-3.66495488405127
30
0
41
1
10
57.1939468466106
20
-3.42676770628393
30
0
41
1
10
56.3808339183924
20
-3.24298054858175
30
0
41
1
10
55.563873985884
20
-3.01807050580308
30
0
0
SPLINE
5
C9
100
AcDbEntity
8
1
62
256
6
ByLayer
370
13
48
1
60
0
100
AcDbSpline
70
4
71
3
72
24
73
20
40
0
40
0
40
0
40
0
40
0.0986832962654102
40
0.0986832962654102
40
0.173499987605588
40
0.173499987605588
40
0.248316678945766
40
0.248316678945766
40
0.397950061626122
40
0.397950061626122
40
0.697216826986833
40
0.697216826986833
40
0.772033518327013
40
0.772033518327013
40
0.846850209667193
40
0.846850209667193
40
0.996483592347553
40
0.996483592347553
40
1
40
1
40
1
40
1
41
1
10
55.5638742454528
20
-3.01807057726271
30
0
41
1
10
55.1619453586829
20
-2.90741908003568
30
0
41
1
10
54.7590853221554
20
-2.786813975341
30
0
41
1
10
54.0480596364258
20
-2.55857966660889
30
0
41
1
10
53.7398754507698
20
-2.4546283761081
30
0
41
1
10
53.1258682865475
20
-2.23861970031697
30
0
41
1
10
52.819826272847
20
-2.12650355068911
30
0
41
1
10
51.9037576548535
20
-1.77964106452364
30
0
41
1
10
51.2956757229189
20
-1.53455824043866
30
0
41
1
10
49.472769438818
20
-0.772218255522091
30
0
41
1
10
48.2596801656381
20
-0.226693162760256
30
0
41
1
10
46.7240678236307
20
0.451793509719693
30
0
41
1
10
46.4158975344952
20
0.587320491612218
30
0
41
1
10
45.8027373325245
20
0.854176215457017
30
0
41
1
10
45.4970452964941
20
0.985820695112608
30
0
41
1
10
44.5818383090391
20
1.37381287923171
30
0
41
1
10
43.9741015315398
20
1.62296410132421
30
0
41
1
10
43.3523902457241
20
1.86377770727211
30
0
41
1
10
43.3381155464085
20
1.86929921580645
30
0
41
1
10
43.3238409698045
20
1.87481295964719
30
0
0
SPLINE
5
CA
100
AcDbEntity
8
1
62
256
6
ByLayer
370
18
48
1
60
0
100
AcDbSpline
70
4
71
3
72
10
73
6
40
0
40
0
40
0
40
0
40
0.0537019032759213
40
0.0537019032759213
40
1
40
1
40
1
40
1
41
1
10
6.91881615527228
20
-3.81332671235265
30
0
41
1
10
6.84940854684555
20
-3.81318750878049
30
0
41
1
10
6.78001883175543
20
-3.81268035458095
30
0
41
1
10
5.48816245794541
20
-3.79638969129667
30
0
41
1
10
4.2702264366896
20
-3.6670947113229
30
0
41
1
10
3.03923064030954
20
-3.4294714194352
30
0
0
SPLINE
5
CB
100
AcDbEntity
8
1
62
256
6
ByLayer
370
18
48
1
60
0
100
AcDbSpline
70
4
71
3
72
14
73
10
40
0
40
0
40
0
40
0
40
0.25
40
0.25
40
0.5
40
0.5
40
0.75
40
0.75
40
1
40
1
40
1
40
1
41
1
10
61.6784545618714
20
-3.8445876391377
30
0
41
1
10
61.681702130298
20
-3.84406407983266
30
0
41
1
10
61.6842544558178
20
-3.84531307580039
30
0
41
1
10
61.687596206876
20
-3.85234156115442
30
0
41
1
10
61.6883249472036
20
-3.85822317011329
30
0
41
1
10
61.6869836074212
20
-3.87533137611481
30
0
41
1
10
61.6848795243299
20
-3.88645664506174
30
0
41
1
10
61.6781859684471
20
-3.91132962136379
30
0
41
1
10
61.6736593288446
20
-3.92489822088413
30
0
41
1
10
61.6686237121225
20
-3.93801594957321
30
0
0
SPLINE
5
CC
100
AcDbEntity
8
1
62
256
6
ByLayer
370
18
48
1
60
0
100
AcDbSpline
70
4
71
3
72
8
73
4
40
0
40
0
40
0
40
0
40
1
40
1
40
1
40
1
41
1
10
61.789083572272
20
3.93950994091239
30
0
41
1
10
61.7366629630161
20
3.99394869047725
30
0
41
1
10
61.6832966722779
20
4.02826857221731
30
0
41
1
10
61.6284162654091
20
4.04245884684838
30
0
0
SPLINE
5
CD
100
AcDbEntity
8
1
62
256
6
ByLayer
370
18
48
1
60
0
100
AcDbSpline
70
4
71
3
72
8
73
4
40
0
40
0
40
0
40
0
40
1
40
1
40
1
40
1
41
1
10
61.4510713366527
20
-2.26363086138903
30
0
41
1
10
61.2965683217834
20
-2.47043127203961
30
0
41
1
10
61.1404877981788
20
-2.67549549066351
30
0
41
1
10
60.9831546801587
20
-2.87909572657344
30
0
0
SPLINE
5
CE
100
AcDbEntity
8
1
62
256
6
ByLayer
370
18
48
1
60
0
100
AcDbSpline
70
4
71
3
72
46
73
42
40
0
40
0
40
0
40
0
40
0.0624999999999972
40
0.0624999999999972
40
0.124999999999994
40
0.124999999999994
40
0.187499999999992
40
0.187499999999992
40
0.249999999999989
40
0.249999999999989
40
0.312499999999986
40
0.312499999999986
40
0.343749999999985
40
0.343749999999985
40
0.374999999999984
40
0.374999999999984
40
0.406249999999983
40
0.406249999999983
40
0.421874999999982
40
0.421874999999982
40
0.437499999999981
40
0.437499999999981
40
0.453124999999981
40
0.453124999999981
40
0.46874999999998
40
0.46874999999998
40
0.499999999999985
40
0.499999999999985
40
0.531249999999989
40
0.531249999999989
40
0.562499999999994
40
0.562499999999994
40
0.624999999999996
40
0.624999999999996
40
0.749999999999992
40
0.749999999999992
40
0.812499999999994
40
0.812499999999994
40
0.874999999999996
40
0.874999999999996
40
1
40
1
40
1
40
1
41
1
10
61.4510713366435
20
-2.26363086137951
30
0
41
1
10
61.3774084467798
20
-2.23542829679914
30
0
41
1
10
61.3038326389825
20
-2.20420127427906
30
0
41
1
10
61.1586050909438
20
-2.13619623149054
30
0
41
1
10
61.0867198226851
20
-2.0993392932194
30
0
41
1
10
60.9445703286827
20
-2.01927387991788
30
0
41
1
10
60.8743011538247
20
-1.97608479641096
30
0
41
1
10
60.7357565348034
20
-1.88189483317774
30
0
41
1
10
60.6670284527291
20
-1.83056939633048
30
0
41
1
10
60.5349985650139
20
-1.71895662936663
30
0
41
1
10
60.4716331590669
20
-1.65893805367352
30
0
41
1
10
60.3833705478297
20
-1.55812271644748
30
0
41
1
10
60.3548689349409
20
-1.52235866718698
30
0
41
1
10
60.3026859363084
20
-1.44686235935458
30
0
41
1
10
60.2790388078231
20
-1.40738822518398
30
0
41
1
10
60.2399028156739
20
-1.32267937264061
30
0
41
1
10
60.2247467707073
20
-1.27763511896103
30
0
41
1
10
60.2152163768773
20
-1.20996828033236
30
0
41
1
10
60.2142931248934
20
-1.18789234551107
30
0
41
1
10
60.2174784080229
20
-1.14481151586099
30
0
41
1
10
60.2217116351584
20
-1.12379364698239
30
0
41
1
10
60.234681384135
20
-1.08557129300385
30
0
41
1
10
60.2435618244463
20
-1.06778716680202
30
0
41
1
10
60.2645126043308
20
-1.03606469484234
30
0
41
1
10
60.2765202126726
20
-1.02205423460245
30
0
41
1
10
60.3160602471866
20
-0.984271312193215
30
0
41
1
10
60.3466298198832
20
-0.965156111806408
30
0
41
1
10
60.4106396875902
20
-0.935176086211868
30
0
41
1
10
60.4447466562375
20
-0.924061874084742
30
0
41
1
10
60.5140636960566
20
-0.907426509650293
30
0
41
1
10
60.5493455246752
20
-0.901862869145702
30
0
41
1
10
60.6564977067309
20
-0.890945484543607
30
0
41
1
10
60.7298816842165
20
-0.891285795182426
30
0
41
1
10
60.9517636031281
20
-0.906579723705619
30
0
41
1
10
61.0996741124105
20
-0.935104675040179
30
0
41
1
10
61.3215304891293
20
-0.993867792953466
30
0
41
1
10
61.3954809377322
20
-1.01630946402363
30
0
41
1
10
61.5433787756012
20
-1.06639936338749
30
0
41
1
10
61.6175296282793
20
-1.09413873749813
30
0
41
1
10
61.8381100807895
20
-1.18438329929077
30
0
41
1
10
61.9828063456387
20
-1.25359454670044
30
0
41
1
10
62.1246559690283
20
-1.33373195216814
30
0
0
SPLINE
5
CF
100
AcDbEntity
8
1
62
256
6
ByLayer
370
18
48
1
60
0
100
AcDbSpline
70
4
71
3
72
8
73
4
40
0
40
0
40
0
40
0
40
1
40
1
40
1
40
1
41
1
10
61.7890835722722
20
-3.93950994091216
30
0
41
1
10
61.7366629630162
20
-3.99394869047717
30
0
41
1
10
61.683296672278
20
-4.02826857221729
30
0
41
1
10
61.6284162654091
20
-4.04245884684835
30
0
0
SPLINE
5
D0
100
AcDbEntity
8
1
62
256
6
ByLayer
370
18
48
1
60
0
100
AcDbSpline
70
4
71
3
72
8
73
4
40
0
40
0
40
0
40
0
40
1
40
1
40
1
40
1
41
1
10
62.9641417024618
20
-0.0576181295450056
30
0
41
1
10
62.6966760829786
20
-0.495742783443916
30
0
41
1
10
62.4148106976272
20
-0.919012927871108
30
0
41
1
10
62.1246559690283
20
-1.33373195216814
30
0
0
SPLINE
5
D1
100
AcDbEntity
8
1
62
256
6
ByLayer
370
18
48
1
60
0
100
AcDbSpline
70
4
71
3
72
8
73
4
40
0
40
0
40
0
40
0
40
1
40
1
40
1
40
1
41
1
10
62.8693330292488
20
-0.990142939347095
30
0
41
1
10
62.9143096183736
20
-0.803798836317782
30
0
41
1
10
62.9489813944672
20
-0.624575030103017
30
0
41
1
10
62.971210229132
20
-0.448005254453989
30
0
0
SPLINE
5
D2
100
AcDbEntity
8
1
62
256
6
ByLayer
370
18
48
1
60
0
100
AcDbSpline
70
4
71
3
72
34
73
30
40
0
40
0
40
0
40
0
40
0.249999999999984
40
0.249999999999984
40
0.312499999999981
40
0.312499999999981
40
0.374999999999978
40
0.374999999999978
40
0.499999999999973
40
0.499999999999973
40
0.624999999999968
40
0.624999999999968
40
0.749999999999962
40
0.749999999999962
40
0.81249999999996
40
0.81249999999996
40
0.843749999999961
40
0.843749999999961
40
0.851562499999963
40
0.851562499999963
40
0.859374999999965
40
0.859374999999965
40
0.863281249999965
40
0.863281249999965
40
0.867187499999966
40
0.867187499999966
40
0.874999999999968
40
0.874999999999968
40
1
40
1
40
1
40
1
41
1
10
57.7727657347311
20
1.03725861801902
30
0
41
1
10
58.1125810172393
20
0.793745447944076
30
0
41
1
10
58.4639293040624
20
0.586369762147342
30
0
41
1
10
58.9185099692134
20
0.375389766698447
30
0
41
1
10
59.0104651809162
20
0.335551296671184
30
0
41
1
10
59.1942333924783
20
0.261786607716289
30
0
41
1
10
59.2861400070376
20
0.227796559350139
30
0
41
1
10
59.56192962441
20
0.134792080196945
30
0
41
1
10
59.745882911111
20
0.0848088733095835
30
0
41
1
10
60.1139988120469
20
0.0117402860726941
30
0
41
1
10
60.2984833348294
20
-0.0115472136999983
30
0
41
1
10
60.6663508957093
20
-0.0266751063769561
30
0
41
1
10
60.8469298496857
20
-0.0184596164766901
30
0
41
1
10
61.1119132088619
20
0.0215440710143184
30
0
41
1
10
61.1994011248361
20
0.0395721745565254
30
0
41
1
10
61.3279258898713
20
0.0741287021372159
30
0
41
1
10
61.3703759424508
20
0.0869128707299183
30
0
41
1
10
61.4227986680724
20
0.10451355830773
30
0
41
1
10
61.4334058986758
20
0.107733910437673
30
0
41
1
10
61.4537108883745
20
0.116396933661576
30
0
41
1
10
61.4634186294675
20
0.122879378869555
30
0
41
1
10
61.4730597820709
20
0.138225671091476
30
0
41
1
10
61.4753985011484
20
0.144236544453605
30
0
41
1
10
61.4777691836407
20
0.157245852890412
30
0
41
1
10
61.478062549023
20
0.16423058636849
30
0
41
1
10
61.4797856228269
20
0.184740514770965
30
0
41
1
10
61.4808566469961
20
0.198440045868921
30
0
41
1
10
61.4977717622251
20
0.431768632630337
30
0
41
1
10
61.4943060257001
20
0.657695326834443
30
0
41
1
10
61.4776838982269
20
0.883345265546126
30
0
0
SPLINE
5
D3
100
AcDbEntity
8
1
62
256
6
ByLayer
370
18
48
1
60
0
100
AcDbSpline
70
4
71
3
72
8
73
4
40
0
40
0
40
0
40
0
40
1
40
1
40
1
40
1
41
1
10
62.971210229132
20
-0.448005254453989
30
0
41
1
10
62.9836340858465
20
-0.33398662335938
30
0
41
1
10
62.9911947035183
20
-0.220013894598708
30
0
41
1
10
62.9927292538358
20
-0.106098043682863
30
0
0
SPLINE
5
D4
100
AcDbEntity
8
1
62
256
6
ByLayer
370
18
48
1
60
0
100
AcDbSpline
70
4
71
3
72
8
73
4
40
0
40
0
40
0
40
0
40
1
40
1
40
1
40
1
41
1
10
62.9927292538349
20
-0.106098043684682
30
0
41
1
10
62.9929810227225
20
-0.0874082250859658
30
0
41
1
10
62.9956074080864
20
-0.0646241803699183
30
0
41
1
10
62.9997592165638
20
-0.0405478570083631
30
0
0
SPLINE
5
D5
100
AcDbEntity
8
1
62
256
6
ByLayer
370
13
48
1
60
0
100
AcDbSpline
70
4
71
3
72
30
73
26
40
0
40
0
40
0
40
0
40
0.0625000000000002
40
0.0625000000000002
40
0.125
40
0.1875
40
0.1875
40
0.25
40
0.25
40
0.375
40
0.375
40
0.4375
40
0.4375
40
0.5
40
0.5
40
0.625
40
0.625
40
0.6875
40
0.6875
40
0.75
40
0.8125
40
0.8125
40
0.875
40
0.875
40
1
40
1
40
1
40
1
41
1
10
3.03923064030954
20
-3.4294714194352
30
0
41
1
10
3.03927652491393
20
-3.37199669949737
30
0
41
1
10
3.03932109701646
20
-3.30823505386408
30
0
41
1
10
3.03940677029112
20
-3.17031953680126
30
0
41
1
10
3.03948920322949
20
-3.02180742574316
30
0
41
1
10
3.03956621300162
20
-2.8525442990439
30
0
41
1
10
3.03964096414617
20
-2.6727962153256
30
0
41
1
10
3.0396773790203
20
-2.57718868001504
30
0
41
1
10
3.03978260640599
20
-2.27750603836876
30
0
41
1
10
3.03984669937159
20
-2.06327327645874
30
0
41
1
10
3.03993654309193
20
-1.72086727597056
30
0
41
1
10
3.03996542416698
20
-1.60319477661338
30
0
41
1
10
3.04002133078382
20
-1.36053410429167
30
0
41
1
10
3.04004801988145
20
-1.23697246392902
30
0
41
1
10
3.04012414159504
20
-0.862849352892908
30
0
41
1
10
3.04017001024457
20
-0.607592241178196
30
0
41
1
10
3.0402321489947
20
-0.215791194386242
30
0
41
1
10
3.0402517338849
20
-0.0835410356171451
30
0
41
1
10
3.04028776204137
20
0.178312079809586
30
0
41
1
10
3.04032088405714
20
0.438934139957951
30
0
41
1
10
3.04034801326293
20
0.697115223378006
30
0
41
1
10
3.04037186106251
20
0.954046972577544
30
0
41
1
10
3.04038204694763
20
1.08101190172866
30
0
41
1
10
3.04040666921767
20
1.45239000609126
30
0
41
1
10
3.04041547063571
20
1.68950486123376
30
0
41
1
10
3.04041497768009
20
1.9160207214413
30
0
0
SPLINE
5
D6
100
AcDbEntity
8
SK1
62
256
6
ByLayer
370
18
48
1
60
0
100
AcDbSpline
70
4
71
3
72
14
73
10
40
0
40
0
40
0
40
0
40
0.124999999999997
40
0.124999999999997
40
0.249999999999993
40
0.249999999999993
40
0.499999999999993
40
0.499999999999993
40
1
40
1
40
1
40
1
41
1
10
-38.85
20
4.98363887965951
30
0
41
1
10
-38.85
20
4.98300600372849
30
0
41
1
10
-38.8517453396944
20
4.97932660710086
30
0
41
1
10
-38.8568901241517
20
4.96918511051911
30
0
41
1
10
-38.860211966304
20
4.96286038043283
30
0
41
1
10
-38.8714485682308
20
4.94175952818972
30
0
41
1
10
-38.8802054040538
20
4.92565493549188
30
0
41
1
10
-38.9082792076556
20
4.87450587022323
30
0
41
1
10
-38.9286347141248
20
4.83801746658904
30
0
41
1
10
-38.95
20
4.80028571087445
30
0
0
SPLINE
5
D7
100
AcDbEntity
8
SK1
62
256
6
ByLayer
370
18
48
1
60
0
100
AcDbSpline
70
4
71
3
72
10
73
6
40
0
40
0
40
0
40
0
40
0.5
40
0.5
40
1
40
1
40
1
40
1
41
1
10
-40
20
2.46777166023045
30
0
41
1
10
-39.8300228147388
20
2.78668256304601
30
0
41
1
10
-39.6561954458181
20
3.10349932675982
30
0
41
1
10
-39.305279022829
20
3.73535880312653
30
0
41
1
10
-39.1280838713859
20
4.05034380875028
30
0
41
1
10
-38.95
20
4.364845434009
30
0
0
SPLINE
5
D8
100
AcDbEntity
8
SK1
62
256
6
ByLayer
370
18
48
1
60
0
100
AcDbSpline
70
4
71
3
72
14
73
10
40
0
40
0
40
0
40
0
40
0.124999999999999
40
0.124999999999999
40
0.249999999999997
40
0.249999999999997
40
0.500000000000001
40
0.500000000000001
40
1
40
1
40
1
40
1
41
1
10
-38.85
20
-4.98363887965951
30
0
41
1
10
-38.85
20
-4.98300600372849
30
0
41
1
10
-38.8517453396944
20
-4.97932660710083
30
0
41
1
10
-38.8568901241517
20
-4.96918511051908
30
0
41
1
10
-38.860211966304
20
-4.96286038043283
30
0
41
1
10
-38.8714485682308
20
-4.94175952818972
30
0
41
1
10
-38.8802054040538
20
-4.92565493549185
30
0
41
1
10
-38.9082792076556
20
-4.87450587022323
30
0
41
1
10
-38.9286347141248
20
-4.83801746658904
30
0
41
1
10
-38.95
20
-4.80028571087445
30
0
0
SPLINE
5
D9
100
AcDbEntity
8
SK1
62
256
6
ByLayer
370
18
48
1
60
0
100
AcDbSpline
70
4
71
3
72
10
73
6
40
0
40
0
40
0
40
0
40
0.5
40
0.5
40
1
40
1
40
1
40
1
41
1
10
-38.95
20
4.80028571087445
30
0
41
1
10
-39.1280962168106
20
4.48576228321392
30
0
41
1
10
-39.3053154337263
20
4.17073432112849
30
0
41
1
10
-39.656258904174
20
3.53882453786375
30
0
41
1
10
-39.8300777049352
20
3.22201985501931
30
0
41
1
10
-40
20
2.9032119370959
30
0
0
SPLINE
5
DA
100
AcDbEntity
8
SK1
62
256
6
ByLayer
370
18
48
1
60
0
100
AcDbSpline
70
4
71
3
72
10
73
6
40
0
40
0
40
0
40
0
40
0.5
40
0.5
40
1
40
1
40
1
40
1
41
1
10
-38.95
20
-4.80028571087445
30
0
41
1
10
-39.1280962168106
20
-4.48576228321392
30
0
41
1
10
-39.3053154337263
20
-4.17073432112849
30
0
41
1
10
-39.656258904174
20
-3.53882453786375
30
0
41
1
10
-39.8300777049352
20
-3.22201985501931
30
0
41
1
10
-40
20
-2.9032119370959
30
0
0
SPLINE
5
DB
100
AcDbEntity
8
SK1
62
256
6
ByLayer
370
18
48
1
60
0
100
AcDbSpline
70
4
71
3
72
14
73
10
40
0
40
0
40
0
40
0
40
0.500000000000008
40
0.500000000000008
40
0.750000000000008
40
0.750000000000008
40
0.875000000000004
40
0.875000000000004
40
1
40
1
40
1
40
1
41
1
10
-38.9500000000001
20
4.36484543400903
30
0
41
1
10
-38.9287234691649
20
4.40242044557772
30
0
41
1
10
-38.9083432483059
20
4.44107311105478
30
0
41
1
10
-38.880223151313
20
4.49972975079612
30
0
41
1
10
-38.8713218079587
20
4.51930833505187
30
0
41
1
10
-38.8602667834558
20
4.54657266514724
30
0
41
1
10
-38.8569157654531
20
4.55543009461488
30
0
41
1
10
-38.851744720606
20
4.5715422575642
30
0
41
1
10
-38.8499999999999
20
4.5786506080795
30
0
41
1
10
-38.8499999999999
20
4.58303382494344
30
0
0
LINE
5
76
100
AcDbEntity
8
81
62
256
6
ByLayer
370
18
48
1
60
0
100
AcDbLine
10
63
20
0
30
0
11
68
21
0
31
0
39
0
210
0
220
0
230
1
0
LINE
5
77
100
AcDbEntity
8
1
62
256
6
ByLayer
370
18
48
1
60
0
100
AcDbLine
10
6.703068
20
4.015571
30
0
11
0.350219
21
4.011601
31
0
39
0
210
0
220
0
230
1
0
LINE
5
79
100
AcDbEntity
8
1
62
256
6
ByLayer
370
18
48
1
60
0
100
AcDbLine
10
33.903721
20
4.032572
30
0
11
32.565665
21
4.031735
31
0
39
0
210
0
220
0
230
1
0
LINE
5
7A
100
AcDbEntity
8
1
62
256
6
ByLayer
370
18
48
1
60
0
100
AcDbLine
10
61.103803
20
4.049572
30
0
11
59.763752
21
4.048734
31
0
39
0
210
0
220
0
230
1
0
LINE
5
7B
100
AcDbEntity
8
1
62
256
6
ByLayer
370
18
48
1
60
0
100
AcDbLine
10
59.763752
20
-4.048734
30
0
11
61.103952
21
-4.049572
31
0
39
0
210
0
220
0
230
1
0
LINE
5
7C
100
AcDbEntity
8
1
62
256
6
ByLayer
370
18
48
1
60
0
100
AcDbLine
10
32.565665
20
-4.031735
30
0
11
33.903515
21
-4.032572
31
0
39
0
210
0
220
0
230
1
0
LINE
5
7D
100
AcDbEntity
8
1
62
256
6
ByLayer
370
18
48
1
60
0
100
AcDbLine
10
0.350219
20
-4.011601
30
0
11
6.703185
21
-4.015571
31
0
39
0
210
0
220
0
230
1
0
LINE
5
7E
100
AcDbEntity
8
SK1
62
256
6
ByLayer
370
18
48
1
60
0
100
AcDbLine
10
-38.845299
20
5
30
0
11
-38.85
21
4.991858
31
0
39
0
210
0
220
0
230
1
0
LINE
5
80
100
AcDbEntity
8
SK1
62
256
6
ByLayer
370
18
48
1
60
0
100
AcDbLine
10
-38.85
20
-4.991858
30
0
11
-38.845299
21
-5
31
0
39
0
210
0
220
0
230
1
0
LINE
5
81
100
AcDbEntity
8
SK1
62
256
6
ByLayer
370
18
48
1
60
0
100
AcDbLine
10
0
20
5
30
0
11
-38.845299
21
5
31
0
39
0
210
0
220
0
230
1
0
LINE
5
82
100
AcDbEntity
8
SK1
62
256
6
ByLayer
370
18
48
1
60
0
100
AcDbLine
10
-38.845299
20
-5
30
0
11
0
21
-5
31
0
39
0
210
0
220
0
230
1
0
LINE
5
83
100
AcDbEntity
8
SK4
62
256
6
ByLayer
370
18
48
0.05
60
0
100
AcDbLine
10
68
20
0
30
0
11
-45
21
0
31
0
39
0
210
0
220
0
230
1
0
LINE
5
85
100
AcDbEntity
8
4
62
256
6
ByLayer
370
18
48
0.05
60
0
100
AcDbLine
10
63
20
0
30
0
11
0
21
0
31
0
39
0
210
0
220
0
230
1
0
LINE
5
87
100
AcDbEntity
8
80
62
256
6
ByLayer
370
18
48
1
60
0
100
AcDbLine
10
0
20
0
30
0
11
-5
21
0
31
0
39
0
210
0
220
0
230
1
0
LINE
5
88
100
AcDbEntity
8
1
62
256
6
ByLayer
370
13
48
1
60
0
100
AcDbLine
10
0.350219
20
4.011601
30
0
11
0.350219
21
-4.011601
31
0
39
0
210
0
220
0
230
1
0
LINE
5
89
100
AcDbEntity
8
1
62
256
6
ByLayer
370
13
48
1
60
0
100
AcDbLine
10
61.477684
20
0.883345
30
0
11
62.964142
21
-0.057618
31
0
39
0
210
0
220
0
230
1
0
LINE
5
8A
100
AcDbEntity
8
1
62
256
6
ByLayer
370
13
48
1
60
0
100
AcDbLine
10
61.612003
20
0.980131
30
0
11
62.992729
21
0.106098
31
0
39
0
210
0
220
0
230
1
0
LINE
5
8B
100
AcDbEntity
8
SK1
62
256
6
ByLayer
370
18
48
1
60
0
100
AcDbLine
10
-38.85
20
-4.983639
30
0
11
-38.85
21
-4.991858
31
0
39
0
210
0
220
0
230
1
0
LINE
5
8C
100
AcDbEntity
8
SK1
62
256
6
ByLayer
370
18
48
1
60
0
100
AcDbLine
10
-40
20
2.903212
30
0
11
-40
21
2.467743
31
0
39
0
210
0
220
0
230
1
0
LINE
5
8D
100
AcDbEntity
8
SK1
62
256
6
ByLayer
370
18
48
1
60
0
100
AcDbLine
10
0
20
5
30
0
11
0
21
-5
31
0
39
0
210
0
220
0
230
1
0
LINE
5
8E
100
AcDbEntity
8
SK1
62
256
6
ByLayer
370
18
48
1
60
0
100
AcDbLine
10
-38.85
20
4.991858
30
0
11
-38.85
21
4.583034
31
0
39
0
210
0
220
0
230
1
0
LINE
5
8F
100
AcDbEntity
8
SK1
62
256
6
ByLayer
370
18
48
1
60
0
100
AcDbLine
10
-38.845299
20
5
30
0
11
-38.845299
21
-5
31
0
39
0
210
0
220
0
230
1
0
LINE
5
90
100
AcDbEntity
8
SK1
62
256
6
ByLayer
370
18
48
1
60
0
100
AcDbLine
10
-40
20
2.467772
30
0
11
-40
21
-2.903212
31
0
39
0
210
0
220
0
230
1
0
LINE
5
91
100
AcDbEntity
8
SK1
62
256
6
ByLayer
370
13
48
1
60
0
100
AcDbLine
10
-38.95
20
4.800286
30
0
11
-38.95
21
4.364799
31
0
39
0
210
0
220
0
230
1
0
MTEXT
5
DC
100
AcDbEntity
8
SK6
62
256
6
ByLayer
370
13
48
1
60
0
100
AcDbMText
10
13.629169
20
36.432694
30
0
210
0
220
0
230
1
1
\W0.7371;460.1-0810-041A1-XM GC34
40
3.5
41
0
44
1.084337
50
0
71
8
72
5
7
iso_b_vert
0
DIMENSION
5
E9
100
AcDbEntity
8
SK2
62
256
6
ByLayer
370
13
48
1
60
0
100
AcDbDimension
2
DimnDraft3D1
10
61.8023
20
-14.263398
30
0
11
29.552359
21
-14.263398
31
0
70
32
71
5
72
1
41
1
210
0
220
0
230
1
3
Standard
100
AcDbAlignedDimension
13
0
23
-1.5875
33
0
14
61.8023
24
-5.6375
34
0
50
0
100
AcDbRotatedDimension
1001
ACAD
1000
DSTYLE
1002
{
1070
   279
1070
     0
1070
   172
1070
     1
1070
   173
1070
     1
1070
   340
1005
DD
1070
   271
1070
     2
1070
   272
1070
     2
1070
    77
1070
     1
1070
    73
1070
     0
1070
   171
1070
     3
1070
   274
1070
     4
1070
   177
1070
    35
1070
   176
1070
    35
1070
   178
1070
    35
1070
    48
1040
-0.005
1070
    41
1041
3.5
1070
   147
1041
1.75
1070
    42
1041
1.5875
1070
    44
1041
2.0
1070
   140
1041
3.5
1070
   343
1005
0
1070
   344
1005
0
1002
}
0
DIMENSION
5
F3
100
AcDbEntity
8
SK2
62
256
6
ByLayer
370
13
48
1
60
0
100
AcDbDimension
2
DimnDraft3D2
10
63
20
-33.692985
30
0
11
11.6436
21
-33.692985
31
0
70
32
71
5
72
1
41
1
210
0
220
0
230
1
3
Standard
100
AcDbAlignedDimension
13
-40
23
-6.5875
33
0
14
63
24
-1.5875
34
0
50
0
100
AcDbRotatedDimension
1001
ACAD
1000
DSTYLE
1002
{
1070
   279
1070
     0
1070
   172
1070
     1
1070
   173
1070
     1
1070
   340
1005
DD
1070
   271
1070
     2
1070
   272
1070
     2
1070
    77
1070
     1
1070
    73
1070
     0
1070
   171
1070
     3
1070
   274
1070
     4
1070
   177
1070
    35
1070
   176
1070
    35
1070
   178
1070
    35
1070
    48
1040
-0.005
1070
    41
1041
3.5
1070
   147
1041
1.75
1070
    42
1041
1.5875
1070
    44
1041
2.0
1070
   140
1041
3.5
1070
   343
1005
0
1070
   344
1005
0
1002
}
0
DIMENSION
5
FD
100
AcDbEntity
8
SK2
62
256
6
ByLayer
370
13
48
1
60
0
100
AcDbDimension
2
DimnDraft3D3
10
63
20
15.659119
30
0
11
42.155
21
15.659119
31
0
70
32
71
5
72
1
41
1
210
0
220
0
230
1
3
Standard
100
AcDbAlignedDimension
13
21.31
23
5.6375
33
0
14
63
24
1.5875
34
0
50
0
100
AcDbRotatedDimension
1001
ACAD
1000
DSTYLE
1002
{
1070
   279
1070
     0
1070
   172
1070
     1
1070
   173
1070
     1
1070
   340
1005
DD
1070
   271
1070
     2
1070
   272
1070
     2
1070
    77
1070
     1
1070
    73
1070
     0
1070
   171
1070
     3
1070
   274
1070
     4
1070
   177
1070
    35
1070
   176
1070
    35
1070
   178
1070
    35
1070
    48
1040
-0.005
1070
    41
1041
3.5
1070
   147
1041
1.75
1070
    42
1041
1.5875
1070
    44
1041
2.0
1070
   140
1041
3.5
1070
   343
1005
0
1070
   344
1005
0
1002
}
0
DIMENSION
5
107
100
AcDbEntity
8
SK2
62
256
6
ByLayer
370
13
48
1
60
0
100
AcDbDimension
2
DimnDraft3D4
10
61.8023
20
-16.852503
30
0
11
72.981425
21
-16.852503
31
0
70
32
71
5
72
1
41
1
210
0
220
0
230
1
3
Standard
100
AcDbAlignedDimension
13
63
23
-1.5875
33
0
14
61.8023
24
-5.6375
34
0
50
0
100
AcDbRotatedDimension
1001
ACAD
1000
DSTYLE
1002
{
1070
   279
1070
     0
1070
   172
1070
     1
1070
   173
1070
     1
1070
   340
1005
DD
1070
   271
1070
     2
1070
   272
1070
     2
1070
    77
1070
     1
1070
    73
1070
     0
1070
   171
1070
     3
1070
   274
1070
     4
1070
   177
1070
    35
1070
   176
1070
    35
1070
   178
1070
    35
1070
    48
1040
-0.005
1070
    41
1041
3.5
1070
   147
1041
1.75
1070
    42
1041
1.5875
1070
    44
1041
2.0
1070
   140
1041
3.5
1070
   343
1005
0
1070
   344
1005
0
1002
}
0
DIMENSION
5
111
100
AcDbEntity
8
SK2
62
256
6
ByLayer
370
13
48
1
60
0
100
AcDbDimension
2
DimnDraft3D5
10
61.8023
20
-23.343428
30
0
11
8.562976
21
-23.343428
31
0
70
32
71
5
72
1
41
1
210
0
220
0
230
1
3
Standard
100
AcDbAlignedDimension
13
-40
23
-6.5875
33
0
14
61.8023
24
-5.6375
34
0
50
0
100
AcDbRotatedDimension
1001
ACAD
1000
DSTYLE
1002
{
1070
   279
1070
     0
1070
   172
1070
     1
1070
   173
1070
     1
1070
   340
1005
DD
1070
   271
1070
     2
1070
   272
1070
     2
1070
    77
1070
     1
1070
    73
1070
     0
1070
   171
1070
     3
1070
   274
1070
     4
1070
   177
1070
    35
1070
   176
1070
    35
1070
   178
1070
    35
1070
    48
1040
-0.005
1070
    41
1041
3.5
1070
   147
1041
1.75
1070
    42
1041
1.5875
1070
    44
1041
2.0
1070
   140
1041
3.5
1070
   343
1005
0
1070
   344
1005
0
1002
}
0
DIMENSION
5
11C
100
AcDbEntity
8
SK2
62
256
6
ByLayer
370
13
48
1
60
0
100
AcDbDimension
2
DimnDraft3D6
10
-50.625163
20
5
30
0
11
-51.250163
21
23.47418
31
0
70
33
71
5
72
1
41
1
210
0
220
0
230
1
3
Standard
100
AcDbAlignedDimension
13
-41.5875
23
-5
33
0
14
-41.5875
24
5
34
0
1001
ACAD
1000
DSTYLE
1002
{
1070
   279
1070
     0
1070
    74
1070
     0
1070
   173
1070
     1
1070
   340
1005
DD
1070
   271
1070
     3
1070
   272
1070
     2
1070
    77
1070
     1
1070
    73
1070
     0
1070
   171
1070
     3
1070
   274
1070
     4
1070
   177
1070
    35
1070
   176
1070
    35
1070
   178
1070
    35
1070
    48
1040
-0.005
1070
    41
1041
3.5
1070
   147
1041
1.75
1070
    42
1041
1.5875
1070
    44
1041
2.0
1070
   140
1041
3.5
1070
   343
1005
0
1070
   344
1005
0
1002
}
0
DIMENSION
5
127
100
AcDbEntity
8
2
62
256
6
ByLayer
370
13
48
1
60
0
100
AcDbDimension
2
DimnDraft3D7
10
77.083343
20
4.05
30
0
11
72.458343
21
21.117266
31
0
70
33
71
5
72
1
41
1
210
0
220
0
230
1
3
Standard
100
AcDbAlignedDimension
13
63.3898
23
-4.05
33
0
14
63.3898
24
4.05
34
0
1001
ACAD
1000
DSTYLE
1002
{
1070
   279
1070
     0
1070
    74
1070
     0
1070
   173
1070
     1
1070
   340
1005
DD
1070
   271
1070
     3
1070
   272
1070
     2
1070
    77
1070
     1
1070
    73
1070
     0
1070
   171
1070
     3
1070
   274
1070
     4
1070
   177
1070
    35
1070
   176
1070
    35
1070
   178
1070
    35
1070
    48
1040
-0.005
1070
    41
1041
3.5
1070
   147
1041
1.75
1070
    42
1041
1.5875
1070
    44
1041
2.0
1070
   140
1041
3.5
1070
   343
1005
0
1070
   344
1005
0
1002
}
0
ENDSEC
0
SECTION
2
OBJECTS
0
DICTIONARY
5
192
330
0
100
AcDbDictionary
280
0
281
1
3
ACAD_GROUP
350
193
3
ACAD_MLINESTYLE
350
194
0
DICTIONARY
5
193
330
0
100
AcDbDictionary
280
0
281
1
0
DICTIONARY
5
194
330
0
100
AcDbDictionary
280
0
281
1
3
Standard
350
18
0
MLINESTYLE
5
18
330
194
100
AcDbMlineStyle
2
Standard
70
0
3

62
256
51
90
52
90
71
2
49
-0.5
62
256
6
ByLayer
49
0.5
62
256
6
ByLayer
0
RASTERVARIABLES
5
180
330

100
AcDbRasterVariables
90
0
70
1
71
1
72
1
0
ENDSEC
0
EOF
