0
SECTION
2
HEADER
9
$ACADVER
1
AC1015
9
$DWGCODEPAGE
3
ANSI_1252
9
$HANDSEED
5
18e
9
$ANGBASE
50
0
9
$ANGDIR
70
0
9
$ATTMODE
70
1
9
$AUNITS
70
0
9
$AUPREC
70
0
9
$CECOLOR
62
256
9
$CELTSCALE
40
1
9
$CELTYPE
6
ByLayer
9
$CELWEIGHT
370
18
9
$CLAYER
8
0
9
$CMLJUST
70
0
9
$CMLSCALE
40
1
9
$CMLSTYLE
2
Standard
9
$DIMSTYLE
2
Standard
9
$TEXTSIZE
40
0.2
9
$TEXTSTYLE
7
Standard
9
$LUNITS
70
2
9
$LUPREC
70
4
9
$EXTNAMES
290
1
9
$INSUNITS
70
4
9
$LTSCALE
40
1
9
$LWDISPLAY
290
1
9
$PDMODE
70
0
9
$PDSIZE
40
0
9
$PLINEGEN
70
0
0
ENDSEC
0
SECTION
2
CLASSES
0
CLASS
1
RASTERVARIABLES
2
AcDbRasterVariables
3
ISM
90
0
280
0
281
0
0
ENDSEC
0
SECTION
2
TABLES
0
TABLE
2
VPORT
5
184
100
AcDbSymbolTable
0
VPORT
5
1
100
AcDbSymbolTableRecord
100
AcDbViewportTableRecord
2
*Active
70
0
10
0
20
0
11
1
21
1
12
-1
22
1
13
0
23
0
14
0.5
24
0.5
15
10
25
10
16
0
26
0
36
1
17
0
27
0
37
0
0
ENDTAB
0
TABLE
2
LTYPE
5
185
100
AcDbSymbolTable
0
LTYPE
5
14
100
AcDbSymbolTableRecord
100
AcDbLinetypeTableRecord
70
0
2
ByBlock
3

72
65
73
0
40
0
0
LTYPE
5
15
100
AcDbSymbolTableRecord
100
AcDbLinetypeTableRecord
70
0
2
ByLayer
3

72
65
73
0
40
0
0
LTYPE
5
16
100
AcDbSymbolTableRecord
100
AcDbLinetypeTableRecord
70
0
2
CONTINUOUS
3
Solid line
72
65
73
0
40
0
0
LTYPE
5
6A
100
AcDbSymbolTableRecord
100
AcDbLinetypeTableRecord
70
0
2
CENTER
3
____ _ ____ _ ____ _ ____
72
65
73
4
40
47.5
49
22
74
0
49
-8.5
74
0
49
8.5
74
0
49
-8.5
74
0
0
LTYPE
5
6B
100
AcDbSymbolTableRecord
100
AcDbLinetypeTableRecord
70
0
2
DASHED
3
__ __ __ __ __ __ __ __ __
72
65
73
2
40
25.72
49
12.86
74
0
49
-12.86
74
0
0
ENDTAB
0
TABLE
2
LAYER
5
186
100
AcDbSymbolTable
0
LAYER
5
10
100
AcDbSymbolTableRecord
100
AcDbLayerTableRecord
2
0
70
0
62
7
6
CONTINUOUS
290
1
370
-3
390
0
0
LAYER
5
6D
100
AcDbSymbolTableRecord
100
AcDbLayerTableRecord
2
81
70
0
62
-3
6
CONTINUOUS
290
1
370
-3
390
0
0
LAYER
5
6F
100
AcDbSymbolTableRecord
100
AcDbLayerTableRecord
2
80
70
0
62
-6
6
CONTINUOUS
290
1
370
-3
390
0
0
LAYER
5
74
100
AcDbSymbolTableRecord
100
AcDbLayerTableRecord
2
2
70
0
62
7
6
CONTINUOUS
290
1
370
-3
390
0
0
LAYER
5
78
100
AcDbSymbolTableRecord
100
AcDbLayerTableRecord
2
1
70
0
62
4
6
CONTINUOUS
290
1
370
-3
390
0
0
LAYER
5
84
100
AcDbSymbolTableRecord
100
AcDbLayerTableRecord
2
4
70
0
62
-2
6
CENTER
290
1
370
-3
390
0
0
LAYER
5
170
100
AcDbSymbolTableRecord
100
AcDbLayerTableRecord
2
SK2
70
0
62
7
6
CONTINUOUS
290
1
370
-3
390
0
0
LAYER
5
171
100
AcDbSymbolTableRecord
100
AcDbLayerTableRecord
2
SK1
70
0
62
4
6
CONTINUOUS
290
1
370
-3
390
0
0
LAYER
5
172
100
AcDbSymbolTableRecord
100
AcDbLayerTableRecord
2
SK4
70
0
62
2
6
CENTER
290
1
370
-3
390
0
0
LAYER
5
173
100
AcDbSymbolTableRecord
100
AcDbLayerTableRecord
2
SK6
70
0
62
5
6
CONTINUOUS
290
1
370
-3
390
0
0
ENDTAB
0
TABLE
2
STYLE
5
187
100
AcDbSymbolTable
0
STYLE
5
11
100
AcDbSymbolTableRecord
100
AcDbTextStyleTableRecord
2
Standard
3
txt
70
0
71
0
40
0
41
1
42
0
50
0
0
STYLE
5
CC
100
AcDbSymbolTableRecord
100
AcDbTextStyleTableRecord
2
iso_b_vert
3
simplex.shx
70
0
71
0
40
0
41
1
42
0
50
0
0
STYLE
5
CD
100
AcDbSymbolTableRecord
100
AcDbTextStyleTableRecord
2
DWGDirectTextStyle
3
simplex
70
0
71
0
40
0
41
1
42
0
50
0
0
ENDTAB
0
TABLE
2
DIMSTYLE
5
188
100
AcDbSymbolTable
100
AcDbDimStyleTable
0
DIMSTYLE
105
27
100
AcDbSymbolTableRecord
100
AcDbDimStyleTableRecord
2
Standard
70
0
3
<>
41
0.18
42
0.0625
44
0.18
140
0.18
147
0.09
73
0
74
0
77
1
271
2
275
0
278
52
280
0
340
11
0
ENDTAB
0
TABLE
2
VIEW
5
189
100
AcDbSymbolTable
0
ENDTAB
0
TABLE
2
UCS
5
18a
100
AcDbSymbolTable
0
ENDTAB
0
TABLE
2
APPID
5
18b
100
AcDbSymbolTable
0
APPID
5
12
100
AcDbSymbolTableRecord
100
AcDbRegAppTableRecord
2
ACAD
70
0
0
ENDTAB
0
TABLE
2
BLOCK_RECORD
5
18c
100
AcDbSymbolTable
0
BLOCK_RECORD
5
1F
100
AcDbSymbolTableRecord
100
AcDbBlockTableRecord
2
*Model_Space
340
0
70
0
0
BLOCK_RECORD
5
1B
100
AcDbSymbolTableRecord
100
AcDbBlockTableRecord
2
*Paper_Space
340
0
70
0
0
BLOCK_RECORD
5
23
100
AcDbSymbolTableRecord
100
AcDbBlockTableRecord
2
*Paper_Space0
340
0
70
0
0
BLOCK_RECORD
5
CF
100
AcDbSymbolTableRecord
100
AcDbBlockTableRecord
2
DimnDraft3D1
340
0
70
0
0
BLOCK_RECORD
5
D9
100
AcDbSymbolTableRecord
100
AcDbBlockTableRecord
2
DimnDraft3D2
340
0
70
0
0
BLOCK_RECORD
5
E3
100
AcDbSymbolTableRecord
100
AcDbBlockTableRecord
2
DimnDraft3D3
340
0
70
0
0
BLOCK_RECORD
5
ED
100
AcDbSymbolTableRecord
100
AcDbBlockTableRecord
2
DimnDraft3D4
340
0
70
0
0
BLOCK_RECORD
5
F7
100
AcDbSymbolTableRecord
100
AcDbBlockTableRecord
2
DimnDraft3D5
340
0
70
0
0
BLOCK_RECORD
5
101
100
AcDbSymbolTableRecord
100
AcDbBlockTableRecord
2
DimnDraft3D6
340
0
70
0
0
BLOCK_RECORD
5
10C
100
AcDbSymbolTableRecord
100
AcDbBlockTableRecord
2
DimnDraft3D7
340
0
70
0
0
ENDTAB
0
ENDSEC
0
SECTION
2
BLOCKS
0
BLOCK
5
20
100
AcDbEntity
8
0
100
AcDbBlockBegin
2
*Model_Space
70
0
10
0
20
0
30
0
3
*Model_Space
0
ENDBLK
5
21
100
AcDbEntity
8
0
100
AcDbBlockEnd
0
BLOCK
5
1C
100
AcDbEntity
8
0
100
AcDbBlockBegin
2
*Paper_Space
70
0
10
0
20
0
30
0
3
*Paper_Space
0
ENDBLK
5
1D
100
AcDbEntity
8
0
100
AcDbBlockEnd
0
BLOCK
5
24
100
AcDbEntity
8
0
100
AcDbBlockBegin
2
*Paper_Space0
70
0
10
0
20
0
30
0
3
*Paper_Space0
0
ENDBLK
5
25
100
AcDbEntity
8
0
100
AcDbBlockEnd
0
BLOCK
5
D6
100
AcDbEntity
8
0
100
AcDbBlockBegin
2
DimnDraft3D1
70
0
10
0
20
0
30
0
3
DimnDraft3D1
0
MTEXT
5
D0
100
AcDbEntity
8
SK2
62
256
6
ByLayer
370
13
48
1
60
0
100
AcDbMText
10
17.919464
20
-13.388398
30
0
210
0
220
0
230
1
1
\W0.7581;47,80
40
3.5
41
0
44
1.084337
50
0
71
7
72
5
7
iso_b_vert
0
LINE
5
D1
100
AcDbEntity
8
SK2
62
256
6
ByLayer
370
13
48
1
60
0
100
AcDbLine
10
0
20
-1.5875
30
0
11
0
21
-16.263398
31
0
39
0
210
0
220
0
230
1
0
LINE
5
D2
100
AcDbEntity
8
SK2
62
256
6
ByLayer
370
13
48
1
60
0
100
AcDbLine
10
47.8023
20
-5.6375
30
0
11
47.8023
21
-16.263398
31
0
39
0
210
0
220
0
230
1
0
LINE
5
D3
100
AcDbEntity
8
SK2
62
256
6
ByLayer
370
13
48
1
60
0
100
AcDbLine
10
0
20
-14.263398
30
0
11
47.8023
21
-14.263398
31
0
39
0
210
0
220
0
230
1
0
SOLID
5
D4
100
AcDbEntity
8
SK2
62
256
6
ByLayer
370
13
48
1
60
0
100
AcDbTrace
10
0
20
-14.263398
30
0
11
3.499998
21
-13.802615
31
0
12
3.500002
22
-14.724182
32
0
13
0
23
-14.263398
33
0
39
0
210
0
220
0
230
1
0
SOLID
5
D5
100
AcDbEntity
8
SK2
62
256
6
ByLayer
370
13
48
1
60
0
100
AcDbTrace
10
47.8023
20
-14.263398
30
0
11
44.302302
21
-14.724182
31
0
12
44.302298
22
-13.802615
32
0
13
47.8023
23
-14.263398
33
0
39
0
210
0
220
0
230
1
0
ENDBLK
5
D7
100
AcDbEntity
8
0
100
AcDbBlockEnd
0
BLOCK
5
E0
100
AcDbEntity
8
0
100
AcDbBlockBegin
2
DimnDraft3D2
70
0
10
0
20
0
30
0
3
DimnDraft3D2
0
MTEXT
5
DA
100
AcDbEntity
8
SK2
62
256
6
ByLayer
370
13
48
1
60
0
100
AcDbMText
10
0.194916
20
-32.817985
30
0
210
0
220
0
230
1
1
\W0.7317;89,00
40
3.5
41
0
44
1.084337
50
0
71
7
72
5
7
iso_b_vert
0
LINE
5
DB
100
AcDbEntity
8
SK2
62
256
6
ByLayer
370
13
48
1
60
0
100
AcDbLine
10
-40
20
-6.5875
30
0
11
-40
21
-35.692985
31
0
39
0
210
0
220
0
230
1
0
LINE
5
DC
100
AcDbEntity
8
SK2
62
256
6
ByLayer
370
13
48
1
60
0
100
AcDbLine
10
49
20
-1.5875
30
0
11
49
21
-35.692985
31
0
39
0
210
0
220
0
230
1
0
LINE
5
DD
100
AcDbEntity
8
SK2
62
256
6
ByLayer
370
13
48
1
60
0
100
AcDbLine
10
-40
20
-33.692985
30
0
11
49
21
-33.692985
31
0
39
0
210
0
220
0
230
1
0
SOLID
5
DE
100
AcDbEntity
8
SK2
62
256
6
ByLayer
370
13
48
1
60
0
100
AcDbTrace
10
-40
20
-33.692985
30
0
11
-36.500002
21
-33.232202
31
0
12
-36.499998
22
-34.153769
32
0
13
-40
23
-33.692985
33
0
39
0
210
0
220
0
230
1
0
SOLID
5
DF
100
AcDbEntity
8
SK2
62
256
6
ByLayer
370
13
48
1
60
0
100
AcDbTrace
10
49
20
-33.692985
30
0
11
45.500002
21
-34.153769
31
0
12
45.499998
22
-33.232202
32
0
13
49
23
-33.692985
33
0
39
0
210
0
220
0
230
1
0
ENDBLK
5
E1
100
AcDbEntity
8
0
100
AcDbBlockEnd
0
BLOCK
5
EA
100
AcDbEntity
8
0
100
AcDbBlockBegin
2
DimnDraft3D3
70
0
10
0
20
0
30
0
3
DimnDraft3D3
0
MTEXT
5
E4
100
AcDbEntity
8
SK2
62
256
6
ByLayer
370
13
48
1
60
0
100
AcDbMText
10
31.622105
20
16.534119
30
0
210
0
220
0
230
1
1
\W0.7669;25,49
40
3.5
41
0
44
1.084337
50
0
71
7
72
5
7
iso_b_vert
0
LINE
5
E5
100
AcDbEntity
8
SK2
62
256
6
ByLayer
370
13
48
1
60
0
100
AcDbLine
10
23.51
20
5.6375
30
0
11
23.51
21
17.659119
31
0
39
0
210
0
220
0
230
1
0
LINE
5
E6
100
AcDbEntity
8
SK2
62
256
6
ByLayer
370
13
48
1
60
0
100
AcDbLine
10
49
20
1.5875
30
0
11
49
21
17.659119
31
0
39
0
210
0
220
0
230
1
0
LINE
5
E7
100
AcDbEntity
8
SK2
62
256
6
ByLayer
370
13
48
1
60
0
100
AcDbLine
10
23.51
20
15.659119
30
0
11
49
21
15.659119
31
0
39
0
210
0
220
0
230
1
0
SOLID
5
E8
100
AcDbEntity
8
SK2
62
256
6
ByLayer
370
13
48
1
60
0
100
AcDbTrace
10
23.51
20
15.659119
30
0
11
27.009998
21
16.119903
31
0
12
27.010002
22
15.198335
32
0
13
23.51
23
15.659119
33
0
39
0
210
0
220
0
230
1
0
SOLID
5
E9
100
AcDbEntity
8
SK2
62
256
6
ByLayer
370
13
48
1
60
0
100
AcDbTrace
10
49
20
15.659119
30
0
11
45.500002
21
15.198335
31
0
12
45.499998
22
16.119903
32
0
13
49
23
15.659119
33
0
39
0
210
0
220
0
230
1
0
ENDBLK
5
EB
100
AcDbEntity
8
0
100
AcDbBlockEnd
0
BLOCK
5
F4
100
AcDbEntity
8
0
100
AcDbBlockBegin
2
DimnDraft3D4
70
0
10
0
20
0
30
0
3
DimnDraft3D4
0
MTEXT
5
EE
100
AcDbEntity
8
SK2
62
256
6
ByLayer
370
13
48
1
60
0
100
AcDbMText
10
56.278136
20
-15.977503
30
0
210
0
220
0
230
1
1
\W0.6367;1,20
40
3.5
41
0
44
1.084337
50
0
71
7
72
5
7
iso_b_vert
0
LINE
5
EF
100
AcDbEntity
8
SK2
62
256
6
ByLayer
370
13
48
1
60
0
100
AcDbLine
10
49
20
-1.5875
30
0
11
49
21
-18.852503
31
0
39
0
210
0
220
0
230
1
0
LINE
5
F0
100
AcDbEntity
8
SK2
62
256
6
ByLayer
370
13
48
1
60
0
100
AcDbLine
10
47.8023
20
-5.6375
30
0
11
47.8023
21
-18.852503
31
0
39
0
210
0
220
0
230
1
0
LINE
5
F1
100
AcDbEntity
8
SK2
62
256
6
ByLayer
370
13
48
1
60
0
100
AcDbLine
10
39.0523
20
-16.852503
30
0
11
62.559715
21
-16.852503
31
0
39
0
210
0
220
0
230
1
0
SOLID
5
F2
100
AcDbEntity
8
SK2
62
256
6
ByLayer
370
13
48
1
60
0
100
AcDbTrace
10
49
20
-16.852503
30
0
11
52.499998
21
-16.391719
31
0
12
52.500002
22
-17.313287
32
0
13
49
23
-16.852503
33
0
39
0
210
0
220
0
230
1
0
SOLID
5
F3
100
AcDbEntity
8
SK2
62
256
6
ByLayer
370
13
48
1
60
0
100
AcDbTrace
10
47.8023
20
-16.852503
30
0
11
44.302302
21
-17.313287
31
0
12
44.302298
22
-16.391719
32
0
13
47.8023
23
-16.852503
33
0
39
0
210
0
220
0
230
1
0
ENDBLK
5
F5
100
AcDbEntity
8
0
100
AcDbBlockEnd
0
BLOCK
5
FE
100
AcDbEntity
8
0
100
AcDbBlockBegin
2
DimnDraft3D5
70
0
10
0
20
0
30
0
3
DimnDraft3D5
0
MTEXT
5
F8
100
AcDbEntity
8
SK2
62
256
6
ByLayer
370
13
48
1
60
0
100
AcDbMText
10
-2.885708
20
-22.468428
30
0
210
0
220
0
230
1
1
\W0.7317;87,80
40
3.5
41
0
44
1.084337
50
0
71
7
72
5
7
iso_b_vert
0
LINE
5
F9
100
AcDbEntity
8
SK2
62
256
6
ByLayer
370
13
48
1
60
0
100
AcDbLine
10
-40
20
-6.5875
30
0
11
-40
21
-25.343428
31
0
39
0
210
0
220
0
230
1
0
LINE
5
FA
100
AcDbEntity
8
SK2
62
256
6
ByLayer
370
13
48
1
60
0
100
AcDbLine
10
47.8023
20
-5.6375
30
0
11
47.8023
21
-25.343428
31
0
39
0
210
0
220
0
230
1
0
LINE
5
FB
100
AcDbEntity
8
SK2
62
256
6
ByLayer
370
13
48
1
60
0
100
AcDbLine
10
-40
20
-23.343428
30
0
11
47.8023
21
-23.343428
31
0
39
0
210
0
220
0
230
1
0
SOLID
5
FC
100
AcDbEntity
8
SK2
62
256
6
ByLayer
370
13
48
1
60
0
100
AcDbTrace
10
-40
20
-23.343428
30
0
11
-36.500002
21
-22.882645
31
0
12
-36.499998
22
-23.804212
32
0
13
-40
23
-23.343428
33
0
39
0
210
0
220
0
230
1
0
SOLID
5
FD
100
AcDbEntity
8
SK2
62
256
6
ByLayer
370
13
48
1
60
0
100
AcDbTrace
10
47.8023
20
-23.343428
30
0
11
44.302302
21
-23.804212
31
0
12
44.302298
22
-22.882645
32
0
13
47.8023
23
-23.343428
33
0
39
0
210
0
220
0
230
1
0
ENDBLK
5
FF
100
AcDbEntity
8
0
100
AcDbBlockEnd
0
BLOCK
5
109
100
AcDbEntity
8
0
100
AcDbBlockBegin
2
DimnDraft3D6
70
0
10
0
20
0
30
0
3
DimnDraft3D6
0
MTEXT
5
102
100
AcDbEntity
8
SK2
62
256
6
ByLayer
370
13
48
1
60
0
100
AcDbMText
10
-50.375163
20
24.34918
30
0
210
0
220
0
230
1
1
\W0.6930;10,000
40
3.5
41
0
44
1.084337
50
90
71
7
72
5
7
iso_b_vert
0
MTEXT
5
103
100
AcDbEntity
8
SK2
62
256
6
ByLayer
370
13
48
1
60
0
100
AcDbMText
10
-50.375163
20
19.126524
30
0
210
0
220
0
230
1
1
%%c
40
3.5
41
0
44
1.084337
50
90
71
7
72
5
7
iso_b_vert
0
LINE
5
104
100
AcDbEntity
8
SK2
62
256
6
ByLayer
370
13
48
1
60
0
100
AcDbLine
10
-41.5875
20
-5
30
0
11
-50.625163
21
-5
31
0
39
0
210
0
220
0
230
1
0
LINE
5
105
100
AcDbEntity
8
SK2
62
256
6
ByLayer
370
13
48
1
60
0
100
AcDbLine
10
-41.5875
20
5
30
0
11
-50.625163
21
5
31
0
39
0
210
0
220
0
230
1
0
LINE
5
106
100
AcDbEntity
8
SK2
62
256
6
ByLayer
370
13
48
1
60
0
100
AcDbLine
10
-48.625163
20
-5
30
0
11
-48.625163
21
35.862338
31
0
39
0
210
0
220
0
230
1
0
SOLID
5
107
100
AcDbEntity
8
SK2
62
256
6
ByLayer
370
13
48
1
60
0
100
AcDbTrace
10
-48.625163
20
-5
30
0
11
-49.085946
21
-1.500002
31
0
12
-48.164379
22
-1.499998
32
0
13
-48.625163
23
-5
33
0
39
0
210
0
220
0
230
1
0
SOLID
5
108
100
AcDbEntity
8
SK2
62
256
6
ByLayer
370
13
48
1
60
0
100
AcDbTrace
10
-48.625163
20
5
30
0
11
-48.164379
21
1.500002
31
0
12
-49.085946
22
1.499998
32
0
13
-48.625163
23
5
33
0
39
0
210
0
220
0
230
1
0
ENDBLK
5
10A
100
AcDbEntity
8
0
100
AcDbBlockEnd
0
BLOCK
5
114
100
AcDbEntity
8
0
100
AcDbBlockBegin
2
DimnDraft3D7
70
0
10
0
20
0
30
0
3
DimnDraft3D7
0
MTEXT
5
10D
100
AcDbEntity
8
2
62
256
6
ByLayer
370
13
48
1
60
0
100
AcDbMText
10
59.333343
20
21.992266
30
0
210
0
220
0
230
1
1
\W0.6713;8,100
40
3.5
41
0
44
1.084337
50
90
71
7
72
5
7
iso_b_vert
0
MTEXT
5
10E
100
AcDbEntity
8
2
62
256
6
ByLayer
370
13
48
1
60
0
100
AcDbMText
10
59.333343
20
16.76961
30
0
210
0
220
0
230
1
1
%%c
40
3.5
41
0
44
1.084337
50
90
71
7
72
5
7
iso_b_vert
0
LINE
5
10F
100
AcDbEntity
8
2
62
256
6
ByLayer
370
13
48
1
60
0
100
AcDbLine
10
49.3898
20
-4.05
30
0
11
63.083343
21
-4.05
31
0
39
0
210
0
220
0
230
1
0
LINE
5
110
100
AcDbEntity
8
2
62
256
6
ByLayer
370
13
48
1
60
0
100
AcDbLine
10
49.3898
20
4.05
30
0
11
63.083343
21
4.05
31
0
39
0
210
0
220
0
230
1
0
LINE
5
111
100
AcDbEntity
8
2
62
256
6
ByLayer
370
13
48
1
60
0
100
AcDbLine
10
61.083343
20
-4.05
30
0
11
61.083343
21
30.889635
31
0
39
0
210
0
220
0
230
1
0
SOLID
5
112
100
AcDbEntity
8
2
62
256
6
ByLayer
370
13
48
1
60
0
100
AcDbTrace
10
61.083343
20
-4.05
30
0
11
60.622559
21
-0.550002
31
0
12
61.544126
22
-0.549998
32
0
13
61.083343
23
-4.05
33
0
39
0
210
0
220
0
230
1
0
SOLID
5
113
100
AcDbEntity
8
2
62
256
6
ByLayer
370
13
48
1
60
0
100
AcDbTrace
10
61.083343
20
4.05
30
0
11
61.544126
21
0.550002
31
0
12
60.622559
22
0.549998
32
0
13
61.083343
23
4.05
33
0
39
0
210
0
220
0
230
1
0
ENDBLK
5
115
100
AcDbEntity
8
0
100
AcDbBlockEnd
0
ENDSEC
0
SECTION
2
ENTITIES
0
ARC
5
8E
100
AcDbEntity
8
1
62
256
6
ByLayer
370
18
48
1
60
0
100
AcDbCircle
39
0
10
-0.35
20
4.370351
30
0
40
0.350000000000009
210
0
220
0
230
-1
100
AcDbArc
50
269.96419
51
0
0
ARC
5
8F
100
AcDbEntity
8
1
62
256
6
ByLayer
370
18
48
1
60
0
100
AcDbCircle
39
0
10
-0.35
20
-4.370351
30
0
40
0.350000000000009
210
0
220
0
230
-1
100
AcDbArc
50
0
51
90.03581
0
ELLIPSE
5
90
100
AcDbEntity
8
1
62
256
6
ByLayer
370
18
48
1
60
0
100
AcDbEllipse
10
3.038893
20
4.070152
30
0
11
0.25
21
0
31
0
210
0
220
0
230
1
40
0.999998
41
-2.90732924519356
42
-1.5622441579682
0
ELLIPSE
5
91
100
AcDbEntity
8
1
62
256
6
ByLayer
370
18
48
1
60
0
100
AcDbEllipse
10
3.038893
20
-4.070152
30
0
11
0.25
21
0
31
0
210
0
220
0
230
1
40
0.999998
41
1.57410222319921
42
2.90699972524233
0
POINT
5
6C
100
AcDbEntity
8
81
62
256
6
ByLayer
370
18
48
1
60
0
100
AcDbPoint
10
49
20
0
30
0
39
0
210
0
220
0
230
1
50
360
0
POINT
5
6E
100
AcDbEntity
8
80
62
256
6
ByLayer
370
18
48
1
60
0
100
AcDbPoint
10
0
20
0
30
0
39
0
210
0
220
0
230
1
50
360
0
POINT
5
70
100
AcDbEntity
8
SK2
62
256
6
ByLayer
370
18
48
1
60
1
100
AcDbPoint
10
-40
20
-5
30
0
39
0
210
0
220
0
230
1
50
360
0
POINT
5
72
100
AcDbEntity
8
SK2
62
256
6
ByLayer
370
18
48
1
60
1
100
AcDbPoint
10
-40
20
5
30
0
39
0
210
0
220
0
230
1
50
360
0
POINT
5
73
100
AcDbEntity
8
2
62
256
6
ByLayer
370
18
48
1
60
1
100
AcDbPoint
10
47.8023
20
-4.05
30
0
39
0
210
0
220
0
230
1
50
360
0
POINT
5
75
100
AcDbEntity
8
2
62
256
6
ByLayer
370
18
48
1
60
1
100
AcDbPoint
10
47.8023
20
4.05
30
0
39
0
210
0
220
0
230
1
50
360
0
SPLINE
5
92
100
AcDbEntity
8
1
62
256
6
ByLayer
370
18
48
1
60
0
100
AcDbSpline
70
4
71
2
72
6
73
3
40
0
40
0
40
0
40
1
40
1
40
1
41
1
10
47.3091836036484
20
-3.8471914618589
30
0
41
1
10
47.4665029355602
20
-3.84718216206315
30
0
41
1
10
47.6224614517392
20
-3.84642691828043
30
0
0
SPLINE
5
93
100
AcDbEntity
8
1
62
256
6
ByLayer
370
18
48
1
60
0
100
AcDbSpline
70
4
71
3
72
25
73
21
40
0
40
0
40
0
40
0
40
0.0139916291865595
40
0.0844710239683962
40
0.140139442313566
40
0.185169949495688
40
0.226889029694819
40
0.26823558318329
40
0.327707386607298
40
0.396325693944182
40
0.441474499315091
40
0.486029576179901
40
0.546110990872301
40
0.635593458432296
40
0.708986529432825
40
0.773071587175672
40
0.84189700076622
40
0.933444835714087
40
0.981933863677686
40
1
40
1
40
1
40
1
41
1
10
32.6882904601018
20
3.83490222121688
30
0
41
1
10
32.6409507499819
20
3.83476573468459
30
0
41
1
10
32.3551808112757
20
3.8340276554587
30
0
41
1
10
31.8827953867743
20
3.83435406690461
30
0
41
1
10
31.3033193284012
20
3.8348135106217
30
0
41
1
10
30.8213551063217
20
3.83559631479844
30
0
41
1
10
30.3878231630229
20
3.83646279207937
30
0
41
1
10
29.9054244925863
20
3.83522575386067
30
0
41
1
10
29.3319854636304
20
3.83480809149722
30
0
41
1
10
28.7456823961875
20
3.83370808020487
30
0
41
1
10
28.2098595852928
20
3.83284449487243
30
0
41
1
10
27.7029309927831
20
3.83330879406478
30
0
41
1
10
27.0459664877228
20
3.83428446449878
30
0
41
1
10
26.2913888418194
20
3.83471738932218
30
0
41
1
10
25.5232776639949
20
3.83186064523233
30
0
41
1
10
24.8250581549555
20
3.83227008285809
30
0
41
1
10
24.0654391499592
20
3.83263581521345
30
0
41
1
10
23.3584877955817
20
3.83194250713589
30
0
41
1
10
22.8235542359393
20
3.83129541664545
30
0
41
1
10
22.5983013182528
20
3.83122846562421
30
0
41
1
10
22.5371653804832
20
3.83122351057267
30
0
0
SPLINE
5
94
100
AcDbEntity
8
1
62
256
6
ByLayer
370
18
48
1
60
0
100
AcDbSpline
70
4
71
3
72
29
73
25
40
0
40
0
40
0
40
0
40
0.0602250436055012
40
0.120499149433236
40
0.173173392155161
40
0.213073711848239
40
0.266789013793862
40
0.327366888864059
40
0.380898894310003
40
0.43159546860862
40
0.489945041663122
40
0.560765603987488
40
0.602965871330285
40
0.635987104323592
40
0.663291949699682
40
0.70304134788294
40
0.751930081496696
40
0.789764183593631
40
0.817609236929294
40
0.851176098999645
40
0.887407310633866
40
0.93219770657689
40
0.988904904147574
40
1
40
1
40
1
40
1
41
1
10
20.0788343748018
20
-3.83017965921991
30
0
41
1
10
20.3297849711397
20
-3.82976306087372
30
0
41
1
10
20.8326290333953
20
-3.82930071822631
30
0
41
1
10
21.5623347116696
20
-3.8313427313569
30
0
41
1
10
22.2000030689555
20
-3.83131705796947
30
0
41
1
10
22.8163751500802
20
-3.83111822216014
30
0
41
1
10
23.464551617947
20
-3.83233104482224
30
0
41
1
10
24.1706154055562
20
-3.83252227664877
30
0
41
1
10
24.863799385453
20
-3.83226631118268
30
0
41
1
10
25.5476701010049
20
-3.83188524742047
30
0
41
1
10
26.3042376042329
20
-3.83476480559648
30
0
41
1
10
27.0250841138597
20
-3.83426293736156
30
0
41
1
10
27.6393786076547
20
-3.83345062175937
30
0
41
1
10
28.0706347700195
20
-3.83289163711049
30
0
41
1
10
28.4915859143584
20
-3.83322100225726
30
0
41
1
10
28.9792781439652
20
-3.83425176686919
30
0
41
1
10
29.5112603054
20
-3.83478509891131
30
0
41
1
10
29.9931706978737
20
-3.83555897265717
30
0
41
1
10
30.4106304471626
20
-3.83640066896027
30
0
41
1
10
30.8213551424012
20
-3.83560149300533
30
0
41
1
10
31.3033192378697
20
-3.83481162458924
30
0
41
1
10
31.8827958344813
20
-3.83435523728551
30
0
41
1
10
32.3544987708247
20
-3.83402663427788
30
0
41
1
10
32.6395850867606
20
-3.83476279074568
30
0
41
1
10
32.6862414528789
20
-3.83489709298047
30
0
0
SPLINE
5
95
100
AcDbEntity
8
1
62
256
6
ByLayer
370
18
48
1
60
0
100
AcDbSpline
70
4
71
3
72
14
73
10
40
0
40
0
40
0
40
0
40
0.218099164342857
40
0.456245943891062
40
0.574335542871303
40
0.66010868908344
40
0.71747167215163
40
0.838488693237879
40
1
40
1
40
1
40
1
41
1
10
3.03953819395909
20
-3.81990380891412
30
0
41
1
10
3.23340542964672
20
-3.82048997860474
30
0
41
1
10
3.63895786998984
20
-3.82139595408418
30
0
41
1
10
4.14947815229408
20
-3.82129561182683
30
0
41
1
10
4.5423658944174
20
-3.82116923069773
30
0
41
1
10
4.77456520821875
20
-3.82116282023165
30
0
41
1
10
5.00932110110054
20
-3.82126689610283
30
0
41
1
10
5.31144884414991
20
-3.82173345964486
30
0
41
1
10
5.56258231154487
20
-3.82206065083733
30
0
41
1
10
5.70615331408899
20
-3.82227674181897
30
0
0
SPLINE
5
96
100
AcDbEntity
8
1
62
256
6
ByLayer
370
18
48
1
60
0
100
AcDbSpline
70
4
71
3
72
14
73
10
40
0
40
0
40
0
40
0
40
0.162173545468519
40
0.283094987244905
40
0.340412664987694
40
0.426118067523645
40
0.544114399288893
40
0.782073090427748
40
1
40
1
40
1
40
1
41
1
10
5.70826113132176
20
3.82227972707642
30
0
41
1
10
5.56398749387958
20
3.8220625517566
30
0
41
1
10
5.3121514494357
20
3.82173451974771
30
0
41
1
10
5.00932110119467
20
3.82126689857225
30
0
41
1
10
4.77456520840585
20
3.82116281952415
30
0
41
1
10
4.54236589460172
20
3.82116923100486
30
0
41
1
10
4.14947815247004
20
3.82129561162512
30
0
41
1
10
3.63895787009415
20
3.82139595415126
30
0
41
1
10
3.23340542968879
20
3.82048997860477
30
0
41
1
10
3.03953819395906
20
3.81990380891403
30
0
0
SPLINE
5
97
100
AcDbEntity
8
1
62
256
6
ByLayer
370
18
48
1
60
0
100
AcDbSpline
70
4
71
3
72
8
73
4
40
0
40
0
40
0
40
0
40
1
40
1
40
1
40
1
41
1
10
48.9712102291245
20
0.448005254513475
30
0
41
1
10
48.9836620822977
20
0.333729688894778
30
0
41
1
10
48.9911983995318
20
0.219739524514409
30
0
41
1
10
48.9927292538344
20
0.106098043691418
30
0
0
SPLINE
5
98
100
AcDbEntity
8
1
62
256
6
ByLayer
370
18
48
1
60
0
100
AcDbSpline
70
4
71
3
72
28
73
24
40
0
40
0
40
0
40
0
40
0.062500000000001
40
0.062500000000001
40
0.125000000000002
40
0.125000000000002
40
0.250000000000002
40
0.250000000000002
40
0.312500000000002
40
0.312500000000002
40
0.375000000000002
40
0.375000000000002
40
0.500000000000001
40
0.500000000000001
40
0.562500000000001
40
0.562500000000001
40
0.625000000000001
40
0.625000000000001
40
0.750000000000001
40
0.750000000000001
40
0.875
40
0.875
40
1
40
1
40
1
40
1
41
1
10
43.7730394436891
20
1.03759572426995
30
0
41
1
10
43.7816380117046
20
0.927359347086991
30
0
41
1
10
43.7970421612903
20
0.816965045032958
30
0
41
1
10
43.8407929290105
20
0.59587610837346
30
0
41
1
10
43.8692313662984
20
0.484905880773226
30
0
41
1
10
43.9729856066436
20
0.153284981498047
30
0
41
1
10
44.0637922646463
20
-0.05799868080328
30
0
41
1
10
44.225234836106
20
-0.363499292478679
30
0
41
1
10
44.2836124349078
20
-0.463859267103459
30
0
41
1
10
44.4059504483346
20
-0.657684578331015
30
0
41
1
10
44.4700129994558
20
-0.751436776819162
30
0
41
1
10
44.6696979911404
20
-1.0245044479131
30
0
41
1
10
44.8127540149826
20
-1.19570063222346
30
0
41
1
10
45.0393185552015
20
-1.43940927206555
30
0
41
1
10
45.117109205987
20
-1.51868068381671
30
0
41
1
10
45.2749046361828
20
-1.6717250129947
30
0
41
1
10
45.354904748185
20
-1.74552829104795
30
0
41
1
10
45.5978483465292
20
-1.9596790370255
30
0
41
1
10
45.7637158905084
20
-2.09281478210462
30
0
41
1
10
46.1019775616421
20
-2.34298949346177
30
0
41
1
10
46.2743801933921
20
-2.46000748450842
30
0
41
1
10
46.6249808129326
20
-2.67975014316647
30
0
41
1
10
46.8035772978549
20
-2.78265032476111
30
0
41
1
10
46.9837849458035
20
-2.8782801014423
30
0
0
SPLINE
5
99
100
AcDbEntity
8
1
62
256
6
ByLayer
370
18
48
1
60
0
100
AcDbSpline
70
4
71
3
72
14
73
10
40
0
40
0
40
0
40
0
40
0.127175654116499
40
0.127175654116499
40
0.56358782705825
40
0.56358782705825
40
0.781793913529125
40
0.781793913529125
40
1
40
1
40
1
40
1
41
1
10
2.79359944854497
20
-4.0218780531865
30
0
41
1
10
2.79360100707805
20
-4.02178366615678
30
0
41
1
10
2.79360256964532
20
-4.01943056921766
30
0
41
1
10
2.79360950025384
20
-3.99919876662946
30
0
41
1
10
2.79361489636463
20
-3.95766828067659
30
0
41
1
10
2.79362264138464
20
-3.8558566371008
30
0
41
1
10
2.79362516418524
20
-3.81512200068329
30
0
41
1
10
2.79362987331351
20
-3.72210230257602
30
0
41
1
10
2.79363207456188
20
-3.66965960756932
30
0
41
1
10
2.79363406733859
20
-3.61138605792817
30
0
0
SPLINE
5
9A
100
AcDbEntity
8
1
62
256
6
ByLayer
370
18
48
1
60
0
100
AcDbSpline
70
4
71
3
72
8
73
4
40
0
40
0
40
0
40
0
40
1
40
1
40
1
40
1
41
1
10
48.9712102291245
20
0.448005254513475
30
0
41
1
10
48.9491507130811
20
0.623230085548755
30
0
41
1
10
48.9146837863314
20
0.802216067462325
30
0
41
1
10
48.8693943011854
20
0.989889059417436
30
0
0
SPLINE
5
9B
100
AcDbEntity
8
1
62
256
6
ByLayer
370
18
48
1
60
0
100
AcDbSpline
70
4
71
3
72
14
73
10
40
0
40
0
40
0
40
0
40
0.25
40
0.25
40
0.5
40
0.5
40
0.75
40
0.75
40
1
40
1
40
1
40
1
41
1
10
47.4775916832067
20
0.883403639869726
30
0
41
1
10
47.4764596229363
20
0.898796586499401
30
0
41
1
10
47.4794271911659
20
0.914453154879538
30
0
41
1
10
47.4945288338132
20
0.941663228768846
30
0
41
1
10
47.506631022464
20
0.952998805074031
30
0
41
1
10
47.5339235336642
20
0.968934846438344
30
0
41
1
10
47.5493407935707
20
0.974006705521447
30
0
41
1
10
47.5803131276971
20
0.979839653941838
30
0
41
1
10
47.5962453865749
20
0.980708800601519
30
0
41
1
10
47.6120922042178
20
0.980074366392131
30
0
0
SPLINE
5
9C
100
AcDbEntity
8
1
62
256
6
ByLayer
370
18
48
1
60
0
100
AcDbSpline
70
4
71
3
72
10
73
6
40
0
40
0
40
0
40
0
40
0.5
40
0.5
40
1
40
1
40
1
40
1
41
1
10
48.9641417024631
20
-0.0576181295381275
30
0
41
1
10
48.6604835713127
20
-0.555028278441569
30
0
41
1
10
48.3383964867387
20
-1.03342748885532
30
0
41
1
10
47.6744080062492
20
-1.96978586376866
30
0
41
1
10
47.3320826411514
20
-2.42753979648518
30
0
41
1
10
46.9837849458035
20
-2.87828010144244
30
0
0
SPLINE
5
9D
100
AcDbEntity
8
1
62
256
6
ByLayer
370
18
48
1
60
0
100
AcDbSpline
70
4
71
3
72
8
73
4
40
0
40
0
40
0
40
0
40
1
40
1
40
1
40
1
41
1
10
48.8693943011854
20
-0.989889059417465
30
0
41
1
10
48.9143411265249
20
-0.803635999504024
30
0
41
1
10
48.9489914896758
20
-0.624494841049795
30
0
41
1
10
48.9712102291245
20
-0.448005254513845
30
0
0
SPLINE
5
9E
100
AcDbEntity
8
1
62
256
6
ByLayer
370
18
48
1
60
0
100
AcDbSpline
70
4
71
3
72
10
73
6
40
0
40
0
40
0
40
0
40
0.5
40
0.5
40
1
40
1
40
1
40
1
41
1
10
47.6120922042178
20
0.980074366392103
30
0
41
1
10
47.8188219780385
20
0.971797850339271
30
0
41
1
10
48.0255511487562
20
0.963529516466792
30
0
41
1
10
48.4390302865964
20
0.946710707979037
30
0
41
1
10
48.6457726044804
20
0.938264009081905
30
0
41
1
10
48.8524768720215
20
0.930333531718361
30
0
0
SPLINE
5
9F
100
AcDbEntity
8
1
62
256
6
ByLayer
370
18
48
1
60
0
100
AcDbSpline
70
4
71
3
72
18
73
14
40
0
40
0
40
0
40
0
40
0.25
40
0.25
40
0.5
40
0.5
40
0.625
40
0.625
40
0.75
40
0.75
40
0.875
40
0.875
40
1
40
1
40
1
40
1
41
1
10
2.79363406733887
20
-3.61138605792817
30
0
41
1
10
2.79780775657827
20
-3.5799278862107
30
0
41
1
10
2.80476825076903
20
-3.54814021483273
30
0
41
1
10
2.8272702127058
20
-3.4848175733905
30
0
41
1
10
2.84252352129255
20
-3.45331259560857
30
0
41
1
10
2.87718456241373
20
-3.41212175553798
30
0
41
1
10
2.89088033616292
20
-3.39962426819454
30
0
41
1
10
2.92125613275454
20
-3.38112941905328
30
0
41
1
10
2.93781554140287
20
-3.37534218550741
30
0
41
1
10
2.96976022340726
20
-3.37091491804585
30
0
41
1
10
2.98512465577625
20
-3.37202768996306
30
0
41
1
10
3.01364460179906
20
-3.37803861696668
30
0
41
1
10
3.02707961939342
20
-3.38296768957821
30
0
41
1
10
3.03971235967421
20
-3.3889868732806
30
0
0
SPLINE
5
A0
100
AcDbEntity
8
1
62
256
6
ByLayer
370
13
48
1
60
0
100
AcDbSpline
70
4
71
3
72
8
73
4
40
0
40
0
40
0
40
0
40
1
40
1
40
1
40
1
41
1
10
3.03915782926964
20
1.50511184424394
30
0
41
1
10
3.00332236710881
20
1.51381301028078
30
0
41
1
10
2.96839502047817
20
1.52515060626013
30
0
41
1
10
2.93554433276162
20
1.5389486284337
30
0
0
SPLINE
5
A1
100
AcDbEntity
8
1
62
256
6
ByLayer
370
18
48
1
60
0
100
AcDbSpline
70
4
71
3
72
8
73
4
40
0
40
0
40
0
40
0
40
1
40
1
40
1
40
1
41
1
10
48.9927292538334
20
-0.106098043693322
30
0
41
1
10
48.9929810212536
20
-0.0874083340322898
30
0
41
1
10
48.9956075103527
20
-0.0646235873266221
30
0
41
1
10
48.9997592165638
20
-0.0405478570083062
30
0
0
SPLINE
5
A2
100
AcDbEntity
8
1
62
256
6
ByLayer
370
18
48
1
60
0
100
AcDbSpline
70
4
71
3
72
38
73
34
40
0
40
0
40
0
40
0
40
0.0115903636702331
40
0.0115903636702331
40
0.0565180744124942
40
0.0565180744124942
40
0.101445785154755
40
0.101445785154755
40
0.191301206639277
40
0.191301206639277
40
0.236228917381537
40
0.236228917381537
40
0.281156628123798
40
0.281156628123798
40
0.371012049608323
40
0.371012049608323
40
0.460867471092848
40
0.460867471092848
40
0.50579518183511
40
0.50579518183511
40
0.550722892577373
40
0.550722892577373
40
0.640578314061898
40
0.640578314061898
40
0.730433735546423
40
0.730433735546423
40
0.820289157030948
40
0.820289157030948
40
0.910144578515472
40
0.910144578515472
40
0.955072289257736
40
0.955072289257736
40
1
40
1
40
1
40
1
41
1
10
32.6910529053395
20
3.83505167536856
30
0
41
1
10
32.7339526948233
20
3.83489408403699
30
0
41
1
10
32.7768605802557
20
3.83461937506425
30
0
41
1
10
32.9861311986554
20
3.8327221903464
30
0
41
1
10
33.1525572335155
20
3.82878710258922
30
0
41
1
10
33.4846831986753
20
3.81568786215794
30
0
41
1
10
33.6504578944446
20
3.80666276248212
30
0
41
1
10
34.1481676617335
20
3.77352503735946
30
0
41
1
10
34.4795403234598
20
3.74287246288751
30
0
41
1
10
34.9769170091687
20
3.68565430459523
30
0
41
1
10
35.1426369463551
20
3.66464421526891
30
0
41
1
10
35.4741801484691
20
3.61909582806268
30
0
41
1
10
35.6402198326424
20
3.59488471837412
30
0
41
1
10
36.138120895071
20
3.51484474693689
30
0
41
1
10
36.4710451727748
20
3.45226474028834
30
0
41
1
10
37.1351288478772
20
3.31250506282908
30
0
41
1
10
37.4667887838161
20
3.23507507817729
30
0
41
1
10
37.9641956433852
20
3.10962239911996
30
0
41
1
10
38.1300492838473
20
3.06645054140202
30
0
41
1
10
38.4616321699917
20
2.97655043685023
30
0
41
1
10
38.6272611556559
20
2.92959708284664
30
0
41
1
10
39.1247462561396
20
2.78378115026493
30
0
41
1
10
39.4566450541784
20
2.67957097780848
30
0
41
1
10
40.1218124731702
20
2.46037636379745
30
0
41
1
10
40.4539394174708
20
2.34498846465897
30
0
41
1
10
41.1178078705888
20
2.10670361437505
30
0
41
1
10
41.449367367484
20
1.98269581447943
30
0
41
1
10
42.1123378222279
20
1.72441024588468
30
0
41
1
10
42.4439171075598
20
1.59094462904426
30
0
41
1
10
42.9419195559213
20
1.3862603546103
30
0
41
1
10
43.1081235583723
20
1.31748847512884
30
0
41
1
10
43.4407198120412
20
1.17856247121875
30
0
41
1
10
43.6069633288278
20
1.10841734715658
30
0
41
1
10
43.7730394436737
20
1.03759572427583
30
0
0
SPLINE
5
A3
100
AcDbEntity
8
1
62
256
6
ByLayer
370
18
48
1
60
0
100
AcDbSpline
70
4
71
3
72
8
73
4
40
0
40
0
40
0
40
0
40
1
40
1
40
1
40
1
41
1
10
11.6809295271223
20
2.83403528464296
30
0
41
1
10
11.7512431496051
20
2.85233976304286
30
0
41
1
10
11.8215129727693
20
2.87062554186241
30
0
41
1
10
11.8917421510243
20
2.88887605414817
30
0
0
SPLINE
5
A4
100
AcDbEntity
8
1
62
256
6
ByLayer
370
18
48
1
60
0
100
AcDbSpline
70
4
71
3
72
10
73
6
40
0
40
0
40
0
40
0
40
0.5
40
0.5
40
1
40
1
40
1
40
1
41
1
10
2.93357222713746
20
1.52609577656085
30
0
41
1
10
2.90226009570523
20
1.5395456102456
30
0
41
1
10
2.87449001109616
20
1.55872815108569
30
0
41
1
10
2.82913427955856
20
1.60576399849859
30
0
41
1
10
2.81175875701138
20
1.63361121463004
30
0
41
1
10
2.80121092652041
20
1.66308040856279
30
0
0
SPLINE
5
A5
100
AcDbEntity
8
1
62
256
6
ByLayer
370
18
48
1
60
0
100
AcDbSpline
70
4
71
3
72
24
73
20
40
0
40
0
40
0
40
0
40
0.0639335986765424
40
0.0639335986765424
40
0.127867197353085
40
0.127867197353085
40
0.255734394706169
40
0.255734394706169
40
0.383601592059254
40
0.383601592059254
40
0.511468789412339
40
0.511468789412339
40
0.639335986765424
40
0.639335986765424
40
0.767203184118509
40
0.767203184118509
40
0.895070381471593
40
0.895070381471593
40
1
40
1
40
1
40
1
41
1
10
3.03971236021439
20
-3.38898687353799
30
0
41
1
10
3.18684987743947
20
-3.45909420776698
30
0
41
1
10
3.34539709229358
20
-3.51590802821491
30
0
41
1
10
3.67630047221064
20
-3.61211482639359
30
0
41
1
10
3.84629917059198
20
-3.65066120352867
30
0
41
1
10
4.36391884510613
20
-3.74610264878797
30
0
41
1
10
4.71956848956856
20
-3.7832063990553
30
0
41
1
10
5.44201197470522
20
-3.82436529657315
30
0
41
1
10
5.80922920231225
20
-3.82731573318679
30
0
41
1
10
6.55303473210131
20
-3.80286989538908
30
0
41
1
10
6.9277255215184
20
-3.77597667191563
30
0
41
1
10
7.67903679080814
20
-3.6968106431226
30
0
41
1
10
8.05616248860798
20
-3.64542939770172
30
0
41
1
10
8.81431305814317
20
-3.5204299222504
30
0
41
1
10
9.19588778077383
20
-3.44584852416438
30
0
41
1
10
9.9602736884321
20
-3.279044233397
30
0
41
1
10
10.343519606441
20
-3.18676351918504
30
0
41
1
10
11.044978061191
20
-3.00951414438768
30
0
41
1
10
11.3624873734688
20
-2.92544572115108
30
0
41
1
10
11.6819513447956
20
-2.8380782773236
30
0
0
SPLINE
5
A6
100
AcDbEntity
8
1
62
256
6
ByLayer
370
18
48
1
60
0
100
AcDbSpline
70
4
71
3
72
57
73
53
40
0
40
0
40
0
40
0
40
0.0312499999999952
40
0.0312499999999952
40
0.0468749999999934
40
0.0468749999999934
40
0.0624999999999916
40
0.0624999999999916
40
0.0781249999999898
40
0.0781249999999898
40
0.0937499999999879
40
0.0937499999999879
40
0.124999999999985
40
0.124999999999985
40
0.140624999999984
40
0.140624999999984
40
0.156249999999982
40
0.156249999999982
40
0.171874999999981
40
0.171874999999981
40
0.187499999999979
40
0.187499999999979
40
0.218749999999977
40
0.218749999999977
40
0.249999999999975
40
0.249999999999975
40
0.281249999999974
40
0.281249999999974
40
0.296874999999973
40
0.296874999999973
40
0.304687499999973
40
0.308593749999973
40
0.308593749999973
40
0.312499999999973
40
0.312499999999973
40
0.320312499999973
40
0.320312499999973
40
0.328124999999974
40
0.328124999999974
40
0.343749999999974
40
0.343749999999974
40
0.374999999999975
40
0.374999999999975
40
0.49999999999998
40
0.49999999999998
40
0.624999999999985
40
0.624999999999985
40
0.74999999999999
40
0.74999999999999
40
0.874999999999995
40
0.874999999999995
40
1
40
1
40
1
40
1
41
1
10
2.79363406733884
20
-3.61138605792817
30
0
41
1
10
2.69759964794159
20
-3.57218269616425
30
0
41
1
10
2.60507137447664
20
-3.52885151510176
30
0
41
1
10
2.47376323427608
20
-3.45541865464878
30
0
41
1
10
2.43125522908991
20
-3.42952213017637
30
0
41
1
10
2.34938067689086
20
-3.37427216796203
30
0
41
1
10
2.30996528203602
20
-3.34485469113179
30
0
41
1
10
2.23632922744355
20
-3.28273886603392
30
0
41
1
10
2.201955023284
20
-3.24995428912763
30
0
41
1
10
2.13928413345727
20
-3.18018476107261
30
0
41
1
10
2.11081580888958
20
-3.14291337277115
30
0
41
1
10
2.03864913025296
20
-3.02566172954209
30
0
41
1
10
2.00770433610694
20
-2.94064036200953
30
0
41
1
10
1.99800382314749
20
-2.79932811596601
30
0
41
1
10
2.00111603257764
20
-2.75161556780594
30
0
41
1
10
2.01986734843368
20
-2.6551620189386
30
0
41
1
10
2.03575589075109
20
-2.60593652315737
30
0
41
1
10
2.07883917593065
20
-2.50913244152642
30
0
41
1
10
2.10578699826783
20
-2.4617432468329
30
0
41
1
10
2.16886406507737
20
-2.3687849479461
30
0
41
1
10
2.20519593634899
20
-2.3230645469385
30
0
41
1
10
2.32266316257963
20
-2.19190873531696
30
0
41
1
10
2.41286003120581
20
-2.11099915850741
30
0
41
1
10
2.6090047011736
20
-1.9582618364804
30
0
41
1
10
2.71413126824615
20
-1.88724221596468
30
0
41
1
10
2.93101806395629
20
-1.75478950827741
30
0
41
1
10
3.04336948434548
20
-1.69297520437169
30
0
41
1
10
3.21624294118661
20
-1.60531656389628
30
0
41
1
10
3.27465273713656
20
-1.57692609334538
30
0
41
1
10
3.36301248951815
20
-1.53559422278386
30
0
41
1
10
3.40737806799601
20
-1.51524216294621
30
0
41
1
10
3.45200531185486
20
-1.49533509421624
30
0
41
1
10
3.48181334874028
20
-1.48216017313095
30
0
41
1
10
3.4970520240604
20
-1.4762082207022
30
0
41
1
10
3.54609208295
20
-1.46493875121922
30
0
41
1
10
3.57878220415438
20
-1.4643443408319
30
0
41
1
10
3.64416123064405
20
-1.46571860091441
30
0
41
1
10
3.67685079566741
20
-1.46629606569141
30
0
41
1
10
3.77491928341527
20
-1.46846886953745
30
0
41
1
10
3.84029813762052
20
-1.47021024898868
30
0
41
1
10
4.0364342922137
20
-1.4763063570683
30
0
41
1
10
4.16710774988644
20
-1.48153014700458
30
0
41
1
10
4.81994243370951
20
-1.51335091446367
30
0
41
1
10
5.34072278307747
20
-1.55704952435733
30
0
41
1
10
6.37892238130166
20
-1.67767367166098
30
0
41
1
10
6.89329958714637
20
-1.75432167231037
30
0
41
1
10
7.9133370388551
20
-1.93390847037958
30
0
41
1
10
8.41896041368807
20
-2.03695370697983
30
0
41
1
10
9.42248293031435
20
-2.26121318157536
30
0
41
1
10
9.92039150912905
20
-2.38236934222863
30
0
41
1
10
10.9101030135649
20
-2.63257492840438
30
0
41
1
10
11.4019112114557
20
-2.76158329916117
30
0
41
1
10
11.8917421510243
20
-2.88887605414817
30
0
0
SPLINE
5
A7
100
AcDbEntity
8
1
62
256
6
ByLayer
370
13
48
1
60
0
100
AcDbSpline
70
4
71
3
72
12
73
8
40
0
40
0
40
0
40
0
40
0.5
40
0.5
40
0.75
40
0.75
40
1
40
1
40
1
40
1
41
1
10
2.79350287428724
20
1.70661011773899
30
0
41
1
10
2.80078917992603
20
1.67147498053225
30
0
41
1
10
2.81673339758865
20
1.63786297671305
30
0
41
1
10
2.85254932553155
20
1.59443302896548
30
0
41
1
10
2.8667600147655
20
1.58083622363554
30
0
41
1
10
2.89858624248086
20
1.55720282441621
30
0
41
1
10
2.91613082490613
20
1.54710273510469
30
0
41
1
10
2.93554433276162
20
1.5389486284337
30
0
0
SPLINE
5
A8
100
AcDbEntity
8
1
62
256
6
ByLayer
370
18
48
1
60
0
100
AcDbSpline
70
4
71
3
72
25
73
21
40
0
40
0
40
0
40
0
40
0.087585224425863
40
0.087585224425863
40
0.175170448851726
40
0.175170448851726
40
0.350340897703452
40
0.350340897703452
40
0.437926122129315
40
0.437926122129315
40
0.525511346555178
40
0.613096570981041
40
0.613096570981041
40
0.700681795406904
40
0.700681795406904
40
0.875852244258629
40
0.875852244258629
40
0.963437468684492
40
0.963437468684492
40
1
40
1
40
1
40
1
41
1
10
2.79350287429082
20
1.7066101177362
30
0
41
1
10
2.79350746557336
20
1.82800275585467
30
0
41
1
10
2.79351173530813
20
1.94684015828287
30
0
41
1
10
2.79351966065752
20
2.1766922420012
30
0
41
1
10
2.79352330584266
20
2.28735071898711
30
0
41
1
10
2.7935335119804
20
2.60689312872029
30
0
41
1
10
2.79353934659491
20
2.80346575662307
30
0
41
1
10
2.79354742643295
20
3.07288288868531
30
0
41
1
10
2.79354999018565
20
3.15782944870406
30
0
41
1
10
2.79355491347349
20
3.31561346228298
30
0
41
1
10
2.79355965749903
20
3.46213118965403
30
0
41
1
10
2.79356427525201
20
3.58637342096023
30
0
41
1
10
2.7935689285695
20
3.69927593742446
30
0
41
1
10
2.79357128600668
20
3.75026321299003
30
0
41
1
10
2.79357839825377
20
3.88299857850743
30
0
41
1
10
2.79358322652197
20
3.9455363369398
30
0
41
1
10
2.79359084632657
20
4.00107454304174
30
0
41
1
10
2.79359344716673
20
4.01316511290347
30
0
41
1
10
2.79359722019305
20
4.02085741842325
30
0
41
1
10
2.79359833443553
20
4.0219470474855
30
0
41
1
10
2.793599450747
20
4.02187791832245
30
0
0
SPLINE
5
A9
100
AcDbEntity
8
1
62
256
6
ByLayer
370
18
48
1
60
0
100
AcDbSpline
70
4
71
3
72
8
73
4
40
0
40
0
40
0
40
0
40
1
40
1
40
1
40
1
41
1
10
48.8524768720215
20
0.930333531718361
30
0
41
1
10
48.9073693009402
20
0.770005288203237
30
0
41
1
10
48.9462227540486
20
0.609208014012353
30
0
41
1
10
48.9712102291245
20
0.448005254513475
30
0
0
SPLINE
5
AA
100
AcDbEntity
8
1
62
256
6
ByLayer
370
18
48
1
60
0
100
AcDbSpline
70
4
71
3
72
16
73
12
40
0
40
0
40
0
40
0
40
0.110680810858672
40
0.110680810858672
40
0.221361621717343
40
0.221361621717343
40
0.442723243434681
40
0.442723243434681
40
0.885446486869356
40
0.885446486869356
40
1
40
1
40
1
40
1
41
1
10
47.6784504806907
20
-3.84460134930927
30
0
41
1
10
47.4445927302797
20
-3.84852794068726
30
0
41
1
10
47.2107677700817
20
-3.84819838677299
30
0
41
1
10
46.7429538569402
20
-3.83908341852191
30
0
41
1
10
46.5088784370533
20
-3.83028361045578
30
0
41
1
10
45.8089667219984
20
-3.79148986209091
30
0
41
1
10
45.3445025314601
20
-3.74911053021938
30
0
41
1
10
43.9547278649931
20
-3.57497781577217
30
0
41
1
10
43.0328188084496
20
-3.39608010143726
30
0
41
1
10
41.8689079838334
20
-3.10147283144147
30
0
41
1
10
41.6294520017507
20
-3.03726981597777
30
0
41
1
10
41.3896592132225
20
-2.96958292963683
30
0
0
SPLINE
5
AB
100
AcDbEntity
8
1
62
256
6
ByLayer
370
13
48
1
60
0
100
AcDbSpline
70
4
71
3
72
26
73
22
40
0
40
0
40
0
40
0
40
0.0542715671641061
40
0.0542715671641061
40
0.110510966259718
40
0.110510966259718
40
0.16675036535533
40
0.16675036535533
40
0.391707961737778
40
0.391707961737778
40
0.616665558120225
40
0.616665558120225
40
0.672904957215839
40
0.672904957215839
40
0.729144356311453
40
0.729144356311453
40
0.841623154502684
40
0.841623154502684
40
0.954101952693915
40
0.954101952693915
40
1
40
1
40
1
40
1
41
1
10
41.3896589022238
20
-2.9695828418505
30
0
41
1
10
41.166079531751
20
-2.90647255323276
30
0
41
1
10
40.9422073608623
20
-2.84033358550198
30
0
41
1
10
40.4855287280054
20
-2.69975414708986
30
0
41
1
10
40.2527073989614
20
-2.62507224865212
30
0
41
1
10
39.7859896533861
20
-2.46978218091885
30
0
41
1
10
39.5517099323809
20
-2.38903289904735
30
0
41
1
10
38.384067177177
20
-1.97392741795684
30
0
41
1
10
37.4587705816239
20
-1.60515073013968
30
0
41
1
10
35.6107029060148
20
-0.827320066297574
30
0
41
1
10
34.6880223508106
20
-0.417963768182943
30
0
41
1
10
33.5265651265405
20
0.0969166715240988
30
0
41
1
10
33.2938647320497
20
0.20004533497962
30
0
41
1
10
32.8274288822105
20
0.406118235672409
30
0
41
1
10
32.5934113995589
20
0.509192543432704
30
0
41
1
10
31.8916255462941
20
0.816338489363091
30
0
41
1
10
31.4248850722244
20
1.0178583849484
30
0
41
1
10
30.4916380395621
20
1.4100218826307
30
0
41
1
10
30.0251175570003
20
1.60064004007049
30
0
41
1
10
29.3670933849393
20
1.8586219030791
30
0
41
1
10
29.1761973928608
20
1.93214897304065
30
0
41
1
10
28.9852828321353
20
2.00421223545501
30
0
0
SPLINE
5
AC
100
AcDbEntity
8
1
62
256
6
ByLayer
370
18
48
1
60
0
100
AcDbSpline
70
4
71
3
72
48
73
44
40
0
40
0
40
0
40
0
40
0.0503665375157573
40
0.0503665375157573
40
0.100733075031515
40
0.100733075031515
40
0.151099612547272
40
0.151099612547272
40
0.201466150063029
40
0.201466150063029
40
0.251832687578786
40
0.251832687578786
40
0.277015956336664
40
0.277015956336664
40
0.302199225094542
40
0.302199225094542
40
0.352565762610298
40
0.352565762610298
40
0.377749031368176
40
0.377749031368176
40
0.402932300126053
40
0.402932300126053
40
0.503665375157565
40
0.503665375157565
40
0.554031912673321
40
0.554031912673321
40
0.604398450189077
40
0.604398450189077
40
0.654764987704833
40
0.654764987704833
40
0.705131525220589
40
0.705131525220589
40
0.755498062736345
40
0.755498062736345
40
0.805864600252101
40
0.805864600252101
40
0.856231137767857
40
0.856231137767857
40
0.906597675283614
40
0.906597675283614
40
0.95696421279937
40
0.95696421279937
40
1
40
1
40
1
40
1
41
1
10
47.6284106586428
20
-4.0424602965025
30
0
41
1
10
47.162701572161
20
-4.055392735308
30
0
41
1
10
46.6973423895321
20
-4.050680573942
30
0
41
1
10
45.76537446605
20
-4.00624051964743
30
0
41
1
10
45.2990890758816
20
-3.96647542054484
30
0
41
1
10
44.3677365133887
20
-3.85302778917841
30
0
41
1
10
43.9014956562758
20
-3.77924652108126
30
0
41
1
10
42.9697053994631
20
-3.5996077390499
30
0
41
1
10
42.5048896024505
20
-3.49402536671374
30
0
41
1
10
41.5754271861341
20
-3.25363806015724
30
0
41
1
10
41.1107190328652
20
-3.11889598933664
30
0
41
1
10
40.4120420000876
20
-2.89706618536431
30
0
41
1
10
40.1787044496045
20
-2.81975488641606
30
0
41
1
10
39.7128470895205
20
-2.65944091833018
30
0
41
1
10
39.4801895068432
20
-2.57639973406086
30
0
41
1
10
38.7826335031405
20
-2.31931243256523
30
0
41
1
10
38.318076715681
20
-2.13742796865839
30
0
41
1
10
37.6204042725002
20
-1.85168827858158
30
0
41
1
10
37.3877206865603
20
-1.75426400596555
30
0
41
1
10
36.9217917048769
20
-1.55563567260958
30
0
41
1
10
36.6884395362902
20
-1.45437990828879
30
0
41
1
10
35.5239379816219
20
-0.941794366702084
30
0
41
1
10
34.5965007529961
20
-0.509809376640021
30
0
41
1
10
33.1981354241585
20
0.142505486081262
30
0
41
1
10
32.7320574959216
20
0.360322544386463
30
0
41
1
10
31.8020280459059
20
0.789992310311476
30
0
41
1
10
31.3373619772705
20
1.00198900175136
30
0
41
1
10
30.4066736652611
20
1.41599047590734
30
0
41
1
10
29.9398093630168
20
1.61835309420877
30
0
41
1
10
29.0085319159144
20
2.00640767338584
30
0
41
1
10
28.5437879374294
20
2.19217139201822
30
0
41
1
10
27.6137770610955
20
2.5430315354732
30
0
41
1
10
27.1485758306835
20
2.70824934967905
30
0
41
1
10
26.2156655260543
20
3.01458716707523
30
0
41
1
10
25.7501209054319
20
3.15506728542763
30
0
41
1
10
24.8200717250884
20
3.40716008025675
30
0
41
1
10
24.3552683213854
20
3.51880500263704
30
0
41
1
10
23.4240266997954
20
3.71098588304054
30
0
41
1
10
22.9570684634517
20
3.79167434510384
30
0
41
1
10
22.0259578457077
20
3.9189097844216
30
0
41
1
10
21.5611317452725
20
3.96565015393375
30
0
41
1
10
20.6985219548314
20
4.02027450306605
30
0
41
1
10
20.300724487316
20
4.03283775061999
30
0
41
1
10
19.9023571949845
20
4.03256865021555
30
0
0
SPLINE
5
AD
100
AcDbEntity
8
1
62
256
6
ByLayer
370
18
48
1
60
0
100
AcDbSpline
70
4
71
3
72
14
73
10
40
0
40
0
40
0
40
0
40
0.25
40
0.25
40
0.5
40
0.5
40
0.75
40
0.75
40
1
40
1
40
1
40
1
41
1
10
47.678450480679
20
-3.84460134930947
30
0
41
1
10
47.6816976640458
20
-3.84407852448996
30
0
41
1
10
47.684249661201
20
-3.8453280405306
30
0
41
1
10
47.687590707515
20
-3.85235753692297
30
0
41
1
10
47.6883190702863
20
-3.85823976053919
30
0
41
1
10
47.6869767291111
20
-3.87534919931159
30
0
41
1
10
47.6848720203557
20
-3.88647515653844
30
0
41
1
10
47.6781775108474
20
-3.91134838269519
30
0
41
1
10
47.6736506391047
20
-3.92491638232124
30
0
41
1
10
47.6686150241555
20
-3.93803328807539
30
0
0
SPLINE
5
AE
100
AcDbEntity
8
1
62
256
6
ByLayer
370
13
48
1
60
0
100
AcDbSpline
70
4
71
3
72
13
73
9
40
0
40
0
40
0
40
0
40
0.141390569045608
40
0.356042926784206
40
0.356042926784206
40
0.570695284522804
40
0.570695284522804
40
1
40
1
40
1
40
1
41
1
10
3.03955443036739
20
-3.82015878259432
30
0
41
1
10
3.03956218255763
20
-3.82004545930025
30
0
41
1
10
3.03958192139527
20
-3.81242009024857
30
0
41
1
10
3.03960205582942
20
-3.78641307333353
30
0
41
1
10
3.03962632039446
20
-3.74137422099514
30
0
41
1
10
3.03963835470606
20
-3.71212192805959
30
0
41
1
10
3.03967308377364
20
-3.60579278144897
30
0
41
1
10
3.03969466205246
20
-3.51000226911145
30
0
41
1
10
3.03971235967407
20
-3.38898687392202
30
0
0
SPLINE
5
AF
100
AcDbEntity
8
1
62
256
6
ByLayer
370
18
48
1
60
0
100
AcDbSpline
70
4
71
3
72
8
73
4
40
0
40
0
40
0
40
0
40
1
40
1
40
1
40
1
41
1
10
48.8693943011854
20
0.989889059417436
30
0
41
1
10
48.863840093586
20
0.969999612575151
30
0
41
1
10
48.8582001823046
20
0.950147972640849
30
0
41
1
10
48.8524768720215
20
0.930333531718389
30
0
0
SPLINE
5
B0
100
AcDbEntity
8
1
62
256
6
ByLayer
370
18
48
1
60
0
100
AcDbSpline
70
4
71
3
72
76
73
72
40
0
40
0
40
0
40
0
40
0.0331191689129501
40
0.0331191689129501
40
0.0662383378259002
40
0.0662383378259002
40
0.0993575067388503
40
0.0993575067388503
40
0.1324766756518
40
0.1324766756518
40
0.16559584456475
40
0.16559584456475
40
0.1987150134777
40
0.1987150134777
40
0.215274597934176
40
0.215274597934176
40
0.231834182390651
40
0.231834182390651
40
0.2649533513036
40
0.2649533513036
40
0.29807252021655
40
0.29807252021655
40
0.331191689129499
40
0.331191689129499
40
0.364310858042449
40
0.364310858042449
40
0.397430026955398
40
0.397430026955398
40
0.413989611411874
40
0.413989611411874
40
0.430549195868349
40
0.430549195868349
40
0.4636683647813
40
0.4636683647813
40
0.49678753369425
40
0.49678753369425
40
0.529906702607201
40
0.529906702607201
40
0.563025871520151
40
0.563025871520151
40
0.596145040433102
40
0.596145040433102
40
0.612704624889577
40
0.612704624889577
40
0.629264209346052
40
0.629264209346052
40
0.662383378259003
40
0.662383378259003
40
0.695502547171953
40
0.695502547171953
40
0.728621716084904
40
0.728621716084904
40
0.761740884997855
40
0.761740884997855
40
0.794860053910805
40
0.794860053910805
40
0.81141963836728
40
0.81141963836728
40
0.827979222823755
40
0.827979222823755
40
0.861098391736703
40
0.861098391736703
40
0.894217560649652
40
0.894217560649652
40
0.9273367295626
40
0.9273367295626
40
0.960455898475549
40
0.960455898475549
40
0.993575067388498
40
0.993575067388498
40
1
40
1
40
1
40
1
41
1
10
11.8917421510243
20
2.88887605414817
30
0
41
1
10
12.2683449174437
20
3.01229694710332
30
0
41
1
10
12.6442708757368
20
3.1252022516361
30
0
41
1
10
13.3933551785645
20
3.3333244372856
30
0
41
1
10
13.7661084353772
20
3.42885490569145
30
0
41
1
10
14.511492325496
20
3.59880064756513
30
0
41
1
10
14.883769447075
20
3.67375912790325
30
0
41
1
10
15.6274543263515
20
3.80361808101088
30
0
41
1
10
15.9994520525619
20
3.85799501478789
30
0
41
1
10
16.7445802691118
20
3.94522344091578
30
0
41
1
10
17.1170593829594
20
3.97833312866965
30
0
41
1
10
17.8650045527272
20
4.02185604966621
30
0
41
1
10
18.2402313148607
20
4.0324923677359
30
0
41
1
10
18.8048642842395
20
4.03130097827864
30
0
41
1
10
18.9934436121962
20
4.02801008873266
30
0
41
1
10
19.3695526284291
20
4.01578661400828
30
0
41
1
10
19.5573494124004
20
4.00687255461048
30
0
41
1
10
20.1196270210598
20
3.97176630275376
30
0
41
1
10
20.4926764084919
20
3.93697753837472
30
0
41
1
10
21.2382903737218
20
3.84625406646157
30
0
41
1
10
21.6106677829412
20
3.7903602453311
30
0
41
1
10
22.3542874750534
20
3.65730799748957
30
0
41
1
10
22.726091082067
20
3.58056527426058
30
0
41
1
10
23.4708101443112
20
3.40793171475369
30
0
41
1
10
23.8429957730507
20
3.31115029638954
30
0
41
1
10
24.590039637278
20
3.10003725903044
30
0
41
1
10
24.9648061298764
20
2.98573550110169
30
0
41
1
10
25.5285361609574
20
2.8003260953457
30
0
41
1
10
25.717044865397
20
2.73615753698934
30
0
41
1
10
26.09358530267
20
2.60467275960488
30
0
41
1
10
26.2815758337705
20
2.53740706679113
30
0
41
1
10
26.8444052638447
20
2.33054768932936
30
0
41
1
10
27.2177200340566
20
2.18514471252379
30
0
41
1
10
27.963487103044
20
1.88498460962146
30
0
41
1
10
28.3359101472517
20
1.73022787209555
30
0
41
1
10
29.0793033998209
20
1.41032986892239
30
0
41
1
10
29.4508157136713
20
1.24626054577954
30
0
41
1
10
30.1948722219035
20
0.912881206832424
30
0
41
1
10
30.566639375051
20
0.741895464357384
30
0
41
1
10
31.3124363116521
20
0.397257078449599
30
0
41
1
10
31.6865568540675
20
0.223863650681039
30
0
41
1
10
32.2490597652302
20
-0.0391260095053951
30
0
41
1
10
32.4368512796767
20
-0.127119282637778
30
0
41
1
10
32.8134474939688
20
-0.302767627750711
30
0
41
1
10
33.0020312159094
20
-0.390186383355967
30
0
41
1
10
33.5658617294057
20
-0.650774878221739
30
0
41
1
10
33.9397397177767
20
-0.823657269148242
30
0
41
1
10
34.6861553308796
20
-1.16179791309548
30
0
41
1
10
35.0588557713562
20
-1.32677902855488
30
0
41
1
10
35.8024299520262
20
-1.65036035457314
30
0
41
1
10
36.173837713747
20
-1.80780976345056
30
0
41
1
10
36.9175409874277
20
-2.11089057273148
30
0
41
1
10
37.289042732021
20
-2.25803346483624
30
0
41
1
10
38.0338232814235
20
-2.53873070953375
30
0
41
1
10
38.4073922292715
20
-2.6718404669227
30
0
41
1
10
38.9687775498222
20
-2.86178170453422
30
0
41
1
10
39.1561732343009
20
-2.92330269171884
30
0
41
1
10
39.5318381592487
20
-3.04218122491241
30
0
41
1
10
39.7204015059303
20
-3.09947050656993
30
0
41
1
10
40.285709995745
20
-3.2645695531385
30
0
41
1
10
40.6613019129707
20
-3.36611631873322
30
0
41
1
10
41.4123974463246
20
-3.5490264536538
30
0
41
1
10
41.7882511933707
20
-3.63014465404032
30
0
41
1
10
42.539491031488
20
-3.77272648695919
30
0
41
1
10
42.9157322073821
20
-3.83361001198938
30
0
41
1
10
43.6694938074188
20
-3.93300730067386
30
0
41
1
10
44.0446607684008
20
-3.97181164685313
30
0
41
1
10
44.793988704748
20
-4.02654144349845
30
0
41
1
10
45.1685065555919
20
-4.04251500561423
30
0
41
1
10
45.6148558052059
20
-4.04817505025588
30
0
41
1
10
45.6873713277781
20
-4.04866557628566
30
0
41
1
10
45.7598884659346
20
-4.04872837318845
30
0
0
SPLINE
5
B1
100
AcDbEntity
8
1
62
256
6
ByLayer
370
18
48
1
60
0
100
AcDbSpline
70
4
71
3
72
18
73
14
40
0
40
0
40
0
40
0
40
0.184174919307724
40
0.184174919307724
40
0.368349838615448
40
0.368349838615448
40
0.552524757923172
40
0.552524757923172
40
0.736699677230896
40
0.736699677230896
40
0.92087459653862
40
0.92087459653862
40
1
40
1
40
1
40
1
41
1
10
11.8917421510243
20
2.78031901848294
30
0
41
1
10
11.5015663235699
20
2.88843604314442
30
0
41
1
10
11.1142581855944
20
2.99200867292708
30
0
41
1
10
10.343189570897
20
3.1868462050675
30
0
41
1
10
9.95907058520396
20
3.27932437005092
30
0
41
1
10
9.19473409335103
20
3.44608263202551
30
0
41
1
10
8.8147838671363
20
3.5203314033094
30
0
41
1
10
8.05777981881846
20
3.64518357878717
30
0
41
1
10
7.68068595662226
20
3.69661168498428
30
0
41
1
10
6.9283683686582
20
3.77593404293427
30
0
41
1
10
6.55363969601581
20
3.80280342721986
30
0
41
1
10
6.0236129336175
20
3.82028967527711
30
0
41
1
10
5.86495416677647
20
3.8227736150584
30
0
41
1
10
5.70700864748272
20
3.82226129757027
30
0
0
SPLINE
5
B2
100
AcDbEntity
8
1
62
256
6
ByLayer
370
18
48
1
60
0
100
AcDbSpline
70
4
71
3
72
16
73
12
40
0
40
0
40
0
40
0
40
0.065917468106412
40
0.065917468106412
40
0.593275141529454
40
0.593275141529454
40
0.725114559885212
40
0.725114559885212
40
0.856953978240969
40
0.856953978240969
40
1
40
1
40
1
40
1
41
1
10
20.1111872510253
20
-3.83014775637258
30
0
41
1
10
19.9956373495457
20
-3.82988060380299
30
0
41
1
10
19.8801133323664
20
-3.82859187092279
30
0
41
1
10
18.840471180296
20
-3.80780545059741
30
0
41
1
10
17.9166032411372
20
-3.72375244158076
30
0
41
1
10
16.7531105933238
20
-3.53936536081986
30
0
41
1
10
16.5199307950537
20
-3.49852219622355
30
0
41
1
10
16.0524993167319
20
-3.40908925838565
30
0
41
1
10
15.8180868271995
20
-3.36044203320623
30
0
41
1
10
15.3312439361139
20
-3.25194579778969
30
0
41
1
10
15.078512282596
20
-3.19142272478331
30
0
41
1
10
14.8262557785879
20
-3.12705281639828
30
0
0
SPLINE
5
B3
100
AcDbEntity
8
1
62
256
6
ByLayer
370
13
48
1
60
0
100
AcDbSpline
70
4
71
3
72
20
73
16
40
0
40
0
40
0
40
0
40
0.054093892177138
40
0.054093892177138
40
0.290570419132853
40
0.290570419132853
40
0.408808682610709
40
0.408808682610709
40
0.467927814349637
40
0.467927814349637
40
0.527046946088565
40
0.527046946088565
40
0.763523473044283
40
0.763523473044283
40
1
40
1
40
1
40
1
41
1
10
14.8262557787686
20
-3.1270528164444
30
0
41
1
10
14.6135241571337
20
-3.0727687255399
30
0
41
1
10
14.4011304521883
20
-3.01574884337586
30
0
41
1
10
13.2616066466288
20
-2.69546317049856
30
0
41
1
10
12.3390801888158
20
-2.38492412138916
30
0
41
1
10
10.9507106382995
20
-1.86581062032204
30
0
41
1
10
10.4872070430701
20
-1.68371827563445
30
0
41
1
10
9.78961711667381
20
-1.39969640679306
30
0
41
1
10
9.55665498941875
20
-1.303275879518
30
0
41
1
10
9.08961745464038
20
-1.10744281000103
30
0
41
1
10
8.85516904474898
20
-1.00786616560549
30
0
41
1
10
7.68582251747708
20
-0.506432909555883
30
0
41
1
10
6.75819507954847
20
-0.092556114604804
30
0
41
1
10
4.90261045063573
20
0.723502734959084
30
0
41
1
10
3.97487772118515
20
1.126218396963
30
0
41
1
10
3.03915782926953
20
1.505111844244
30
0
0
SPLINE
5
B4
100
AcDbEntity
8
1
62
256
6
ByLayer
370
18
48
1
60
0
100
AcDbSpline
70
4
71
3
72
8
73
4
40
0
40
0
40
0
40
0
40
1
40
1
40
1
40
1
41
1
10
47.6686150241574
20
-3.93803328807078
30
0
41
1
10
47.6552393897437
20
-3.97287450166235
30
0
41
1
10
47.6418379982749
20
-4.00768354721529
30
0
41
1
10
47.6284106586428
20
-4.0424602965025
30
0
0
SPLINE
5
B5
100
AcDbEntity
8
1
62
256
6
ByLayer
370
18
48
1
60
0
100
AcDbSpline
70
4
71
3
72
38
73
34
40
0
40
0
40
0
40
0
40
0.125000000000003
40
0.125000000000003
40
0.250000000000007
40
0.250000000000007
40
0.312500000000008
40
0.312500000000008
40
0.37500000000001
40
0.37500000000001
40
0.500000000000013
40
0.500000000000013
40
0.625000000000016
40
0.625000000000016
40
0.750000000000019
40
0.750000000000019
40
0.812500000000018
40
0.812500000000018
40
0.84375000000002
40
0.84375000000002
40
0.851562500000019
40
0.851562500000019
40
0.859375000000019
40
0.859375000000019
40
0.863281250000018
40
0.863281250000018
40
0.867187500000018
40
0.867187500000018
40
0.875000000000017
40
0.875000000000017
40
0.937500000000009
40
0.937500000000009
40
1
40
1
40
1
40
1
41
1
10
43.773039443689
20
1.03759572426935
30
0
41
1
10
43.9434813755504
20
0.915440963195039
30
0
41
1
10
44.1169614254594
20
0.802794789138346
30
0
41
1
10
44.4695760505596
20
0.595199760500122
30
0
41
1
10
44.6488350312254
20
0.500640265470281
30
0
41
1
10
44.9225364511002
20
0.373864408378239
30
0
41
1
10
45.014808533337
20
0.333997893119488
30
0
41
1
10
45.1991444350751
20
0.260191293672136
30
0
41
1
10
45.2913357001125
20
0.226155224377436
30
0
41
1
10
45.5679824777123
20
0.1330225719243
30
0
41
1
10
45.7525176225771
20
0.0837193538026497
30
0
41
1
10
46.121798855873
20
0.0110552460149904
30
0
41
1
10
46.3069675091912
20
-0.0121943423125401
30
0
41
1
10
46.6757879678154
20
-0.0264061080278566
30
0
41
1
10
46.8568233449542
20
-0.0176228737780662
30
0
41
1
10
47.1224821482831
20
0.0233027116733524
30
0
41
1
10
47.2101565918405
20
0.0417557802855981
30
0
41
1
10
47.3387902892682
20
0.0773154841928942
30
0
41
1
10
47.3812510249843
20
0.0904687596262761
30
0
41
1
10
47.4337145730793
20
0.108537417205213
30
0
41
1
10
47.4444782011681
20
0.111810172885129
30
0
41
1
10
47.4631371860684
20
0.12349030799524
30
0
41
1
10
47.4711197626671
20
0.132630427549913
30
0
41
1
10
47.4767491260644
20
0.150939039405699
30
0
41
1
10
47.4773639767403
20
0.157609631092413
30
0
41
1
10
47.4783814283541
20
0.171046326740679
30
0
41
1
10
47.4789508583847
20
0.177747052386991
30
0
41
1
10
47.4805717684222
20
0.197874628579541
30
0
41
1
10
47.4815781795488
20
0.211317586219991
30
0
41
1
10
47.4899826444913
20
0.332520555960855
30
0
41
1
10
47.4928095095286
20
0.441616515603329
30
0
41
1
10
47.4906966606708
20
0.661428092025176
30
0
41
1
10
47.4857462185929
20
0.772524094606297
30
0
41
1
10
47.4775916832067
20
0.883403639869726
30
0
0
SPLINE
5
B6
100
AcDbEntity
8
1
62
256
6
ByLayer
370
18
48
1
60
0
100
AcDbSpline
70
4
71
3
72
8
73
4
40
0
40
0
40
0
40
0
40
1
40
1
40
1
40
1
41
1
10
48.9997592165714
20
-0.0405478569943796
30
0
41
1
10
49.0000804627126
20
-0.0134942342379532
30
0
41
1
10
49.0000800277178
20
0.0135308671358132
30
0
41
1
10
48.9997592165718
20
0.0405478569626609
30
0
0
SPLINE
5
B7
100
AcDbEntity
8
1
62
256
6
ByLayer
370
18
48
1
60
0
100
AcDbSpline
70
4
71
3
72
8
73
4
40
0
40
0
40
0
40
0
40
1
40
1
40
1
40
1
41
1
10
47.6284106586428
20
4.0424602965025
30
0
41
1
10
47.4533169702605
20
4.04732253448748
30
0
41
1
10
47.2782528623964
20
4.04969116310326
30
0
41
1
10
47.1031665102947
20
4.04957176347307
30
0
0
SPLINE
5
B8
100
AcDbEntity
8
1
62
256
6
ByLayer
370
18
48
1
60
0
100
AcDbSpline
70
4
71
3
72
36
73
32
40
0
40
0
40
0
40
0
40
0.0045506342542936
40
0.0045506342542936
40
0.0756541603789876
40
0.0756541603789876
40
0.146757686503682
40
0.146757686503682
40
0.217861212628376
40
0.217861212628376
40
0.28896473875307
40
0.28896473875307
40
0.360068264877764
40
0.360068264877764
40
0.431171791002458
40
0.431171791002458
40
0.573378843251846
40
0.573378843251846
40
0.608930606314192
40
0.608930606314192
40
0.644482369376539
40
0.644482369376539
40
0.715585895501231
40
0.715585895501231
40
0.751137658563578
40
0.751137658563578
40
0.786689421625924
40
0.786689421625924
40
0.857792947750616
40
0.857792947750616
40
1
40
1
40
1
40
1
41
1
10
22.5751277481063
20
-3.84368589838755
30
0
41
1
10
22.5453595757197
20
-3.84788198651964
30
0
41
1
10
22.5155903037772
20
-3.85200985121921
30
0
41
1
10
22.0206535124776
20
-3.9194971625499
30
0
41
1
10
21.5548298164675
20
-3.96623996023365
30
0
41
1
10
20.6216513598842
20
-4.02494836830536
30
0
41
1
10
20.1564121694397
20
-4.0368341128115
30
0
41
1
10
19.2261979642077
20
-4.02561568459936
30
0
41
1
10
18.7611465440737
20
-4.00254079229356
30
0
41
1
10
17.8291597231786
20
-3.92190643534494
30
0
41
1
10
17.3621975605163
20
-3.86411569048448
30
0
41
1
10
16.4310919209484
20
-3.71603437597378
30
0
41
1
10
15.9661896909219
20
-3.62564874518625
30
0
41
1
10
15.0354802180268
20
-3.41423244367945
30
0
41
1
10
14.5689394315074
20
-3.29308188271545
30
0
41
1
10
13.1698004722796
20
-2.88808868422083
30
0
41
1
10
12.2416044641795
20
-2.56422682746938
30
0
41
1
10
11.0759820720617
20
-2.10999093445321
30
0
41
1
10
10.8424018333241
20
-2.01660119575095
30
0
41
1
10
10.3761147886096
20
-1.82582040702843
30
0
41
1
10
10.1432775593856
20
-1.7283758739153
30
0
41
1
10
9.44509362235439
20
-1.43105451065642
30
0
41
1
10
8.9800665992567
20
-1.22621042376784
30
0
41
1
10
8.2816552781785
20
-0.912128708188192
30
0
41
1
10
8.04870694902246
20
-0.80629850812781
30
0
41
1
10
7.58232795251627
20
-0.59275867698608
30
0
41
1
10
7.34876645473162
20
-0.4849795309988
30
0
41
1
10
6.64985403356096
20
-0.1613982607401
30
0
41
1
10
6.18536499741614
20
0.0551491009501888
30
0
41
1
10
4.79315656120414
20
0.700543315577647
30
0
41
1
10
3.86675756179383
20
1.12525472952674
30
0
41
1
10
2.93357222713763
20
1.52609577656077
30
0
0
SPLINE
5
B9
100
AcDbEntity
8
1
62
256
6
ByLayer
370
13
48
1
60
0
100
AcDbSpline
70
4
71
3
72
25
73
21
40
0
40
0
40
0
40
0
40
0.170189188839693
40
0.170189188839693
40
0.255283783259539
40
0.255283783259539
40
0.340378377679386
40
0.425472972099233
40
0.425472972099233
40
0.510567566519079
40
0.510567566519079
40
0.680756755358772
40
0.680756755358772
40
0.765851349778619
40
0.765851349778619
40
0.850945944198465
40
0.850945944198465
40
0.936040538618312
40
0.936040538618312
40
1
40
1
40
1
40
1
41
1
10
3.03915782926964
20
1.50511184424394
30
0
41
1
10
3.03919780548122
20
1.74774670241914
30
0
41
1
10
3.03923064356468
20
1.97689480185096
30
0
41
1
10
3.03927325604425
20
2.30050936564598
30
0
41
1
10
3.03928626487917
20
2.4043934353885
30
0
41
1
10
3.03931031119817
20
2.60169349502465
30
0
41
1
10
3.03933249767596
20
2.78938370134694
30
0
41
1
10
3.03935236069228
20
2.9580530487587
30
0
41
1
10
3.03937169016132
20
3.11700941514209
30
0
41
1
10
3.03938112352307
20
3.19184463933465
30
0
41
1
10
3.03940888240356
20
3.396646924024
30
0
41
1
10
3.03942691664992
20
3.50883802757002
30
0
41
1
10
3.03945589565151
20
3.64087544449194
30
0
41
1
10
3.03946590601174
20
3.67891830638524
30
0
41
1
10
3.03948662014332
20
3.74165926499077
30
0
41
1
10
3.03949729319714
20
3.76633364383935
30
0
41
1
10
3.0395193922941
20
3.80231671894288
30
0
41
1
10
3.03953082966802
20
3.81356466622941
30
0
41
1
10
3.03955118922934
20
3.82130739490995
30
0
41
1
10
3.03956005432815
20
3.8208236712714
30
0
41
1
10
3.03956901246357
20
3.81655760513746
30
0
0
SPLINE
5
BA
100
AcDbEntity
8
1
62
256
6
ByLayer
370
18
48
1
60
0
100
AcDbSpline
70
4
71
3
72
8
73
4
40
0
40
0
40
0
40
0
40
1
40
1
40
1
40
1
41
1
10
2.80121092652027
20
1.66308040856347
30
0
41
1
10
2.79614703798012
20
1.67722821967703
30
0
41
1
10
2.79350231430379
20
1.69180422266737
30
0
41
1
10
2.79350287429082
20
1.70661011773393
30
0
0
SPLINE
5
BB
100
AcDbEntity
8
1
62
256
6
ByLayer
370
18
48
1
60
0
100
AcDbSpline
70
4
71
3
72
14
73
10
40
0
40
0
40
0
40
0
40
0.0330640584425601
40
0.0330640584425601
40
0.469553349472826
40
0.469553349472826
40
0.906042640503092
40
0.906042640503092
40
1
40
1
40
1
40
1
41
1
10
33.5289930188994
20
-0.0115230939246374
30
0
41
1
10
33.5994975879258
20
-0.0435747884536681
30
0
41
1
10
33.6699604351592
20
-0.0756079605964999
30
0
41
1
10
34.6700745736446
20
-0.530170286721358
30
0
41
1
10
35.5930142317114
20
-0.948342780067208
30
0
41
1
10
37.441924365939
20
-1.73938113447926
30
0
41
1
10
38.367737141822
20
-2.11267638715719
30
0
41
1
10
39.5041774095124
20
-2.51880160734714
30
0
41
1
10
39.7060018211166
20
-2.5889277085125
30
0
41
1
10
39.9072745104776
20
-2.65670854966012
30
0
0
SPLINE
5
BC
100
AcDbEntity
8
1
62
256
6
ByLayer
370
13
48
1
60
0
100
AcDbSpline
70
4
71
3
72
20
73
16
40
0
40
0
40
0
40
0
40
0.0124762090893894
40
0.0124762090893894
40
0.102251099172173
40
0.102251099172173
40
0.281800879337739
40
0.281800879337739
40
0.640900439668872
40
0.640900439668872
40
0.820450219834439
40
0.820450219834439
40
0.91022510991722
40
0.91022510991722
40
1
40
1
40
1
40
1
41
1
10
39.9072745101047
20
-2.65670854953456
30
0
41
1
10
39.9397604480617
20
-2.66764855439698
30
0
41
1
10
39.9722320132111
20
-2.67852746335166
30
0
41
1
10
40.2382037756996
20
-2.76716843553515
30
0
41
1
10
40.4711635713073
20
-2.84186823476807
30
0
41
1
10
41.1687381977474
20
-3.05606810925227
30
0
41
1
10
41.6320025551075
20
-3.1857720557818
30
0
41
1
10
43.0195597577879
20
-3.53220482588637
30
0
41
1
10
43.9417325136163
20
-3.70560981422335
30
0
41
1
10
45.332448892612
20
-3.86820075883594
30
0
41
1
10
45.7973038599101
20
-3.90620316825041
30
0
41
1
10
46.4979571869899
20
-3.93761810409282
30
0
41
1
10
46.73230056094
20
-3.94381816019137
30
0
41
1
10
47.2005296087755
20
-3.94747473144332
30
0
41
1
10
47.4345562409802
20
-3.94494645780526
30
0
41
1
10
47.6686150241669
20
-3.93803328807505
30
0
0
SPLINE
5
BD
100
AcDbEntity
8
1
62
256
6
ByLayer
370
18
48
1
60
0
100
AcDbSpline
70
4
71
3
72
39
73
35
40
0
40
0
40
0
40
0
40
0.0216120675210106
40
0.0216120675210106
40
0.0948949233845654
40
0.0948949233845654
40
0.16817777924812
40
0.16817777924812
40
0.31474349097523
40
0.31474349097523
40
0.46130920270234
40
0.46130920270234
40
0.534592058565895
40
0.534592058565895
40
0.571233486497672
40
0.575813664989144
40
0.575813664989144
40
0.580393843480617
40
0.580393843480617
40
0.584974021972089
40
0.584974021972089
40
0.589554200463561
40
0.589554200463561
40
0.60787491442945
40
0.60787491442945
40
0.681157770293005
40
0.681157770293005
40
0.754440626156561
40
0.754440626156561
40
0.901006337883672
40
0.901006337883672
40
0.974289193747228
40
0.974289193747228
40
1
40
1
40
1
40
1
41
1
10
11.8917421510243
20
2.88887605414217
30
0
41
1
10
11.8917421510243
20
2.85370742841161
30
0
41
1
10
11.8917421510243
20
2.81892837420787
30
0
41
1
10
11.8917421510243
20
2.66791153933414
30
0
41
1
10
11.8917421510243
20
2.55574644777414
30
0
41
1
10
11.8917421510243
20
2.34030201483077
30
0
41
1
10
11.8917421510243
20
2.23655975637416
30
0
41
1
10
11.8917421510243
20
1.94267805949099
30
0
41
1
10
11.8917421510243
20
1.77021243849805
30
0
41
1
10
11.8917421510243
20
1.46861139803073
30
0
41
1
10
11.8917421510243
20
1.33950054293311
30
0
41
1
10
11.8917421510243
20
1.17835655214978
30
0
41
1
10
11.8917421510243
20
1.1302160466382
30
0
41
1
10
11.8917421510243
20
1.06690797961193
30
0
41
1
10
11.8917421510243
20
1.04479483214618
30
0
41
1
10
11.8917421510243
20
1.02453660161214
30
0
41
1
10
11.8917421510243
20
1.02008051376774
30
0
41
1
10
11.8917421510243
20
1.01744294829749
30
0
41
1
10
11.8917421510243
20
1.01596773500347
30
0
41
1
10
11.8917421510243
20
1.01676181037317
30
0
41
1
10
11.8917421510243
20
1.02144775382467
30
0
41
1
10
11.8917421510243
20
1.02565058206113
30
0
41
1
10
11.8917421510243
20
1.04869550136615
30
0
41
1
10
11.8917421510243
20
1.06750043008361
30
0
41
1
10
11.8917421510243
20
1.16324588117956
30
0
41
1
10
11.8917421510243
20
1.24544812842413
30
0
41
1
10
11.8917421510243
20
1.42130423179583
30
0
41
1
10
11.8917421510243
20
1.51484912888444
30
0
41
1
10
11.8917421510243
20
1.80968073922412
30
0
41
1
10
11.8917421510243
20
2.02597612392373
30
0
41
1
10
11.8917421510243
20
2.38161490280515
30
0
41
1
10
11.8917421510243
20
2.50596641264701
30
0
41
1
10
11.8917421510243
20
2.67953736218993
30
0
41
1
10
11.8917421510243
20
2.72505582790646
30
0
41
1
10
11.8917421510243
20
2.77101229887944
30
0
0
SPLINE
5
BE
100
AcDbEntity
8
1
62
256
6
ByLayer
370
18
48
1
60
0
100
AcDbSpline
70
4
71
3
72
10
73
6
40
0
40
0
40
0
40
0
40
0.5
40
0.5
40
1
40
1
40
1
40
1
41
1
10
47.7888769326686
20
-3.93972442593875
30
0
41
1
10
47.962157573663
20
-3.44383078566185
30
0
41
1
10
48.1393970758616
20
-2.95048718313811
30
0
41
1
10
48.500259813444
20
-1.96762959867618
30
0
41
1
10
48.683921697954
20
-1.47814086519193
30
0
41
1
10
48.8693943011854
20
-0.989889059417436
30
0
0
SPLINE
5
BF
100
AcDbEntity
8
1
62
256
6
ByLayer
370
18
48
1
60
0
100
AcDbSpline
70
4
71
3
72
18
73
14
40
0
40
0
40
0
40
0
40
0.168137796272661
40
0.168137796272661
40
0.336275592545321
40
0.336275592545321
40
0.504413388817981
40
0.504413388817981
40
0.672551185090642
40
0.672551185090642
40
0.840688981363302
40
0.840688981363302
40
1
40
1
40
1
40
1
41
1
10
11.8917421510243
20
-2.88887605414817
30
0
41
1
10
12.2683449174437
20
-3.01229694710335
30
0
41
1
10
12.6442708757368
20
-3.1252022516361
30
0
41
1
10
13.3933551785645
20
-3.33332443728563
30
0
41
1
10
13.7661084353772
20
-3.42885490569145
30
0
41
1
10
14.5114923254961
20
-3.59880064756513
30
0
41
1
10
14.883769447075
20
-3.67375912790328
30
0
41
1
10
15.6274543263515
20
-3.80361808101088
30
0
41
1
10
15.9994520525619
20
-3.85799501478789
30
0
41
1
10
16.7445802691118
20
-3.94522344091578
30
0
41
1
10
17.1170593829594
20
-3.97833312866965
30
0
41
1
10
17.845372007744
20
-4.02071363209498
30
0
41
1
10
18.2008379995641
20
-4.03134495161461
30
0
41
1
10
18.5573797902512
20
-4.03172873489936
30
0
0
SPLINE
5
C0
100
AcDbEntity
8
1
62
256
6
ByLayer
370
18
48
1
60
0
100
AcDbSpline
70
4
71
3
72
24
73
20
40
0
40
0
40
0
40
0
40
0.052072707257515
40
0.052072707257515
40
0.115267860107014
40
0.115267860107014
40
0.241658165806012
40
0.241658165806012
40
0.36804847150501
40
0.36804847150501
40
0.494438777204008
40
0.494438777204008
40
0.620829082903006
40
0.620829082903006
40
0.747219388602004
40
0.747219388602004
40
0.873609694301002
40
0.873609694301002
40
1
40
1
40
1
40
1
41
1
10
38.8804795619617
20
2.83172973727724
30
0
41
1
10
39.0347549459374
20
2.8833727996539
30
0
41
1
10
39.1892320410302
20
2.93376409546494
30
0
41
1
10
39.5318381592488
20
3.04218122491241
30
0
41
1
10
39.7204015059304
20
3.09947050656996
30
0
41
1
10
40.2857099957451
20
3.26456955313856
30
0
41
1
10
40.6613019129708
20
3.36611631873328
30
0
41
1
10
41.4123974463248
20
3.54902645365377
30
0
41
1
10
41.7882511933708
20
3.63014465404035
30
0
41
1
10
42.5394910314881
20
3.77272648695922
30
0
41
1
10
42.9157322073822
20
3.83361001198938
30
0
41
1
10
43.6694938074189
20
3.93300730067386
30
0
41
1
10
44.044660768401
20
3.97181164685315
30
0
41
1
10
44.7939887047481
20
4.02654144349845
30
0
41
1
10
45.168506555592
20
4.04251500561426
30
0
41
1
10
45.9161637596883
20
4.05199586204114
30
0
41
1
10
46.2898561811971
20
4.04533456679928
30
0
41
1
10
47.0388152073357
20
4.0095814422163
30
0
41
1
10
47.4132700238156
20
3.98028240324101
30
0
41
1
10
47.788876932684
20
3.93972442592485
30
0
0
SPLINE
5
C1
100
AcDbEntity
8
1
62
256
6
ByLayer
370
18
48
1
60
0
100
AcDbSpline
70
4
71
3
72
10
73
6
40
0
40
0
40
0
40
0
40
0.5
40
0.5
40
1
40
1
40
1
40
1
41
1
10
48.9997592165721
20
0.040547856963002
30
0
41
1
10
48.9967114019494
20
0.0241675155363623
30
0
41
1
10
48.9920044389146
20
0.0061796360376434
30
0
41
1
10
48.979673563744
20
-0.0282953516361601
30
0
41
1
10
48.9720498017283
20
-0.0446641907841183
30
0
41
1
10
48.9641417024631
20
-0.0576181295381275
30
0
0
SPLINE
5
C2
100
AcDbEntity
8
1
62
256
6
ByLayer
370
18
48
1
60
0
100
AcDbSpline
70
4
71
3
72
8
73
4
40
0
40
0
40
0
40
0
40
1
40
1
40
1
40
1
41
1
10
47.7888769326727
20
-3.93972442592656
30
0
41
1
10
47.7365209507704
20
-3.99404032026487
30
0
41
1
10
47.6832209268322
20
-4.02828956307147
30
0
41
1
10
47.6284106586428
20
-4.0424602965025
30
0
0
SPLINE
5
C3
100
AcDbEntity
8
1
62
256
6
ByLayer
370
18
48
1
60
0
100
AcDbSpline
70
4
71
3
72
10
73
6
40
0
40
0
40
0
40
0
40
0.5
40
0.5
40
1
40
1
40
1
40
1
41
1
10
48.9927292538342
20
0.106098043691873
30
0
41
1
10
48.9928553493339
20
0.0967374668623791
30
0
41
1
10
48.9935964248412
20
0.0862183830344065
30
0
41
1
10
48.9960069530549
20
0.0642087050680971
30
0
41
1
10
48.9976757727933
20
0.0526297404028355
30
0
41
1
10
48.9997592165718
20
0.0405478569626894
30
0
0
SPLINE
5
C4
100
AcDbEntity
8
1
62
256
6
ByLayer
370
18
48
1
60
0
100
AcDbSpline
70
4
71
3
72
16
73
12
40
0
40
0
40
0
40
0
40
0.363111759495137
40
0.363111759495137
40
0.474087224278845
40
0.474087224278845
40
0.585062689062553
40
0.585062689062553
40
0.807013618629967
40
0.807013618629967
40
1
40
1
40
1
40
1
41
1
10
6.29852156086025
20
0.0022218802337761
30
0
41
1
10
7.05815145467358
20
-0.341791847862112
30
0
41
1
10
7.81865172104392
20
-0.686433922191014
30
0
41
1
10
8.81871472551842
20
-1.12367768226147
30
0
41
1
10
9.05340153146085
20
-1.22519655456554
30
0
41
1
10
9.52083348426424
20
-1.4246003602691
30
0
41
1
10
9.75396966202524
20
-1.52265960659341
30
0
41
1
10
10.4520188931133
20
-1.81117178293599
30
0
41
1
10
10.9157339717308
20
-1.99569993434193
30
0
41
1
10
11.7813033523862
20
-2.32259842645567
30
0
41
1
10
12.1832797734373
20
-2.4674836569165
30
0
41
1
10
12.5853373229352
20
-2.6040309316931
30
0
0
SPLINE
5
C5
100
AcDbEntity
8
1
62
256
6
ByLayer
370
13
48
1
60
0
100
AcDbSpline
70
4
71
3
72
18
73
14
40
0
40
0
40
0
40
0
40
0.173349639382216
40
0.173349639382216
40
0.326688580217403
40
0.326688580217403
40
0.403358050634997
40
0.403358050634997
40
0.480027521052591
40
0.480027521052591
40
0.786705402722963
40
0.786705402722963
40
1
40
1
40
1
40
1
41
1
10
12.5853373228761
20
-2.60403093167298
30
0
41
1
10
13.1080812668209
20
-2.78156586676178
30
0
41
1
10
13.6309623541109
20
-2.94500592907437
30
0
41
1
10
14.6194364765632
20
-3.22155466580375
30
0
41
1
10
15.0846929306997
20
-3.33834135204018
30
0
41
1
10
15.7858431945533
20
-3.49193522552122
30
0
41
1
10
16.0205086146979
20
-3.53959817697501
30
0
41
1
10
16.4883171191266
20
-3.62674511219652
30
0
41
1
10
16.7216632782222
20
-3.66627925183022
30
0
41
1
10
17.8859077232498
20
-3.84341942171827
30
0
41
1
10
18.810119085498
20
-3.91949740978083
30
0
41
1
10
20.3776223003727
20
-3.93426657109771
30
0
41
1
10
21.0209953953719
20
-3.90781549210149
30
0
41
1
10
21.6673231689981
20
-3.84888707220145
30
0
0
SPLINE
5
C6
100
AcDbEntity
8
1
62
256
6
ByLayer
370
18
48
1
60
0
100
AcDbSpline
70
4
71
3
72
8
73
4
40
0
40
0
40
0
40
0
40
1
40
1
40
1
40
1
41
1
10
48.9712102291245
20
-0.448005254513845
30
0
41
1
10
48.9836340562896
20
-0.333986894620551
30
0
41
1
10
48.9911946995967
20
-0.220014185602565
30
0
41
1
10
48.9927292538344
20
-0.106098043691446
30
0
0
SPLINE
5
C7
100
AcDbEntity
8
1
62
256
6
ByLayer
370
18
48
1
60
0
100
AcDbSpline
70
4
71
3
72
10
73
6
40
0
40
0
40
0
40
0
40
0.5
40
0.5
40
1
40
1
40
1
40
1
41
1
10
47.7888769326659
20
3.93972442594665
30
0
41
1
10
47.9610874736149
20
3.44689319243298
30
0
41
1
10
48.1381226419706
20
2.95398935402596
30
0
41
1
10
48.4999473299375
20
1.96844974405215
30
0
41
1
10
48.6839672364229
20
1.47802098635665
30
0
41
1
10
48.8693943011855
20
0.989889059417436
30
0
0
SPLINE
5
C8
100
AcDbEntity
8
1
62
256
6
ByLayer
370
18
48
1
60
0
100
AcDbSpline
70
4
71
3
72
8
73
4
40
0
40
0
40
0
40
0
40
1
40
1
40
1
40
1
41
1
10
47.7888769326725
20
3.93972442592681
30
0
41
1
10
47.7365209507702
20
3.99404032026499
30
0
41
1
10
47.6832209268322
20
4.02828956307147
30
0
41
1
10
47.6284106586428
20
4.0424602965025
30
0
0
SPLINE
5
C9
100
AcDbEntity
8
1
62
256
6
ByLayer
370
18
48
1
60
0
100
AcDbSpline
70
4
71
3
72
86
73
82
40
0
40
0
40
0
40
0
40
0.0049206018367136
40
0.0049206018367136
40
0.0233479980989964
40
0.0233479980989964
40
0.0417753943612791
40
0.0417753943612791
40
0.0786301868858459
40
0.0786301868858459
40
0.115484979410413
40
0.115484979410413
40
0.133912375672696
40
0.133912375672696
40
0.152339771934979
40
0.152339771934979
40
0.189194564459546
40
0.189194564459546
40
0.20762196072183
40
0.20762196072183
40
0.226049356984113
40
0.226049356984113
40
0.262904149508679
40
0.262904149508679
40
0.299758942033244
40
0.299758942033244
40
0.318186338295527
40
0.318186338295527
40
0.33661373455781
40
0.33661373455781
40
0.373468527082375
40
0.373468527082375
40
0.410323319606941
40
0.410323319606941
40
0.428750715869224
40
0.428750715869224
40
0.447178112131507
40
0.447178112131507
40
0.465605508393791
40
0.465605508393791
40
0.484032904656074
40
0.484032904656074
40
0.520887697180641
40
0.520887697180641
40
0.557742489705208
40
0.557742489705208
40
0.594597282229774
40
0.594597282229774
40
0.631452074754341
40
0.631452074754341
40
0.649879471016624
40
0.649879471016624
40
0.668306867278907
40
0.668306867278907
40
0.68673426354119
40
0.68673426354119
40
0.705161659803473
40
0.705161659803473
40
0.74201645232804
40
0.74201645232804
40
0.760443848590323
40
0.760443848590323
40
0.778871244852606
40
0.778871244852606
40
0.797298641114889
40
0.797298641114889
40
0.815726037377172
40
0.815726037377172
40
0.834153433639455
40
0.834153433639455
40
0.852580829901738
40
0.852580829901738
40
0.889435622426303
40
0.889435622426303
40
0.926290414950869
40
0.926290414950869
40
0.944717811213151
40
0.944717811213151
40
0.963145207475434
40
0.963145207475434
40
1
40
1
40
1
40
1
41
1
10
38.9266050234709
20
-2.8414880583851
30
0
41
1
10
38.8823089699554
20
-2.85471543747712
30
0
41
1
10
38.8380108316618
20
-2.86782407425841
30
0
41
1
10
38.6278029584478
20
-2.92944193950282
30
0
41
1
10
38.4619843522891
20
-2.97645451473005
30
0
41
1
10
38.1298169726768
20
-3.06651396341573
30
0
41
1
10
37.963573026209
20
-3.10978564799694
30
0
41
1
10
37.4647469536216
20
-3.23557756052614
30
0
41
1
10
37.1318553003265
20
-3.31324600958152
30
0
41
1
10
36.4678372882723
20
-3.45288733258798
30
0
41
1
10
36.1359736368904
20
-3.51522865769053
30
0
41
1
10
35.6383657050891
20
-3.59516324248082
30
0
41
1
10
35.4723099139048
20
-3.61936571867173
30
0
41
1
10
35.1405800349914
20
-3.66491369340486
30
0
41
1
10
34.9746778186316
20
-3.6859309985372
30
0
41
1
10
34.4764866555606
20
-3.74318512468355
30
0
41
1
10
34.1438417694404
20
-3.77389863546159
30
0
41
1
10
33.644952497723
20
-3.80698553065813
30
0
41
1
10
33.4789986546843
20
-3.81596694367394
30
0
41
1
10
33.1470016290068
20
-3.82894944948879
30
0
41
1
10
32.9810061933229
20
-3.83280798223788
30
0
41
1
10
32.4831936706388
20
-3.83720131111104
30
0
41
1
10
32.1514773942125
20
-3.83332002315879
30
0
41
1
10
31.4883341222985
20
-3.80918962691416
30
0
41
1
10
31.1562035742952
20
-3.78919562687173
30
0
41
1
10
30.657791736242
20
-3.74651322773803
30
0
41
1
10
30.4912701229847
20
-3.73022670980032
30
0
41
1
10
30.1588352716919
20
-3.69282776900917
30
0
41
1
10
29.9928949867492
20
-3.67150004811924
30
0
41
1
10
29.4948520693133
20
-3.60269437769256
30
0
41
1
10
29.1632652380651
20
-3.54920986701197
30
0
41
1
10
28.4997248021449
20
-3.426386321883
30
0
41
1
10
28.1682619345781
20
-3.35706015867791
30
0
41
1
10
27.6702491207808
20
-3.2438016097812
30
0
41
1
10
27.5042601263955
20
-3.20421438244284
30
0
41
1
10
27.1719561449438
20
-3.12141724531747
30
0
41
1
10
27.0054274802403
20
-3.07836978512103
30
0
41
1
10
26.673190132766
20
-2.98834736822528
30
0
41
1
10
26.5071974554917
20
-2.94173127478558
30
0
41
1
10
26.1752108469577
20
-2.8450035150417
30
0
41
1
10
26.0092576518843
20
-2.79482453886749
30
0
41
1
10
25.5117893946173
20
-2.63964666712695
30
0
41
1
10
25.1802900415311
20
-2.53115059871351
30
0
41
1
10
24.5170745646546
20
-2.30356184189031
30
0
41
1
10
24.1852953837195
20
-2.18457609625651
30
0
41
1
10
23.5205461171913
20
-1.9369747079713
30
0
41
1
10
23.1879445374609
20
-1.80725225719101
30
0
41
1
10
22.5237638721133
20
-1.543157818841
30
0
41
1
10
22.1921177532656
20
-1.40781329316718
30
0
41
1
10
21.6947631393381
20
-1.20023318652693
30
0
41
1
10
21.5291199412522
20
-1.13003222627557
30
0
41
1
10
21.1974309489007
20
-0.9890729046285
30
0
41
1
10
21.0314920588499
20
-0.918122323192648
30
0
41
1
10
20.6994930483356
20
-0.774822494751675
30
0
41
1
10
20.5333784482684
20
-0.702421788822562
30
0
41
1
10
20.2006990418008
20
-0.557569261699825
30
0
41
1
10
20.0343297747739
20
-0.484465756817059
30
0
41
1
10
19.5356625037301
20
-0.264911879693898
30
0
41
1
10
19.2035226428492
20
-0.118355704375517
30
0
41
1
10
18.7058880792571
20
0.101937756534681
30
0
41
1
10
18.5399188715175
20
0.175020314802168
30
0
41
1
10
18.2084137188764
20
0.321876631354911
30
0
41
1
10
18.0426469824856
20
0.395129030781249
30
0
41
1
10
17.7107422151613
20
0.540411867929407
30
0
41
1
10
17.5446698720386
20
0.61261884500442
30
0
41
1
10
17.2126141159196
20
0.757016764198198
30
0
41
1
10
17.0464702414687
20
0.828827958923938
30
0
41
1
10
16.7138602537726
20
0.971436505511718
30
0
41
1
10
16.547526996741
20
1.04272283190363
30
0
41
1
10
16.2148286656301
20
1.18303015105224
30
0
41
1
10
16.0484720242264
20
1.25240791507702
30
0
41
1
10
15.5496839346911
20
1.45912448857956
30
0
41
1
10
15.2173492770716
20
1.59439041987636
30
0
41
1
10
14.55277892238
20
1.85808527693501
30
0
41
1
10
14.2195615328329
20
1.98538462631046
30
0
41
1
10
13.7207108708881
20
2.1685788808114
30
0
41
1
10
13.5543185563238
20
2.22795172266652
30
0
41
1
10
13.2218650751095
20
2.34503452129661
30
0
41
1
10
13.0558037382935
20
2.40273090188097
30
0
41
1
10
12.5571970616989
20
2.57148840676175
30
0
41
1
10
12.2245779816413
20
2.67897339754467
30
0
41
1
10
11.8917421510243
20
2.78031901848289
30
0
0
SPLINE
5
CA
100
AcDbEntity
8
1
62
256
6
ByLayer
370
18
48
1
60
0
100
AcDbSpline
70
4
71
3
72
16
73
12
40
0
40
0
40
0
40
0
40
0.271651845179517
40
0.271651845179517
40
0.407477767769277
40
0.407477767769277
40
0.543303690359037
40
0.543303690359037
40
0.814955535538557
40
0.814955535538557
40
1
40
1
40
1
40
1
41
1
10
46.9837849458035
20
-2.8782801014423
30
0
41
1
10
47.0363946633983
20
-3.042365003242
30
0
41
1
10
47.091350151145
20
-3.18609958896735
30
0
41
1
10
47.1765121335687
20
-3.37250720864944
30
0
41
1
10
47.2053638769288
20
-3.42974108605873
30
0
41
1
10
47.2639670040529
20
-3.53420217389333
30
0
41
1
10
47.2937570922646
20
-3.58141238552824
30
0
41
1
10
47.3826127287118
20
-3.70504763883253
30
0
41
1
10
47.4417603945299
20
-3.76481947376959
30
0
41
1
10
47.5413400907672
20
-3.82755695039023
30
0
41
1
10
47.5818666180793
20
-3.84242817381218
30
0
41
1
10
47.6221314674667
20
-3.8463441195627
30
0
0
LINE
5
76
100
AcDbEntity
8
81
62
256
6
ByLayer
370
18
48
1
60
0
100
AcDbLine
10
49
20
0
30
0
11
54
21
0
31
0
39
0
210
0
220
0
230
1
0
LINE
5
77
100
AcDbEntity
8
1
62
256
6
ByLayer
370
18
48
1
60
0
100
AcDbLine
10
2.793593
20
4.021878
30
0
11
0.350219
21
4.020351
31
0
39
0
210
0
220
0
230
1
0
LINE
5
79
100
AcDbEntity
8
1
62
256
6
ByLayer
370
18
48
1
60
0
100
AcDbLine
10
19.90333
20
4.032572
30
0
11
18.565937
21
4.031736
31
0
39
0
210
0
220
0
230
1
0
LINE
5
7A
100
AcDbEntity
8
1
62
256
6
ByLayer
370
18
48
1
60
0
100
AcDbLine
10
47.104023
20
4.049572
30
0
11
45.764896
21
4.048735
31
0
39
0
210
0
220
0
230
1
0
LINE
5
7B
100
AcDbEntity
8
1
62
256
6
ByLayer
370
18
48
1
60
0
100
AcDbLine
10
45.764896
20
-4.048735
30
0
11
47.104142
21
-4.049572
31
0
39
0
210
0
220
0
230
1
0
LINE
5
7C
100
AcDbEntity
8
1
62
256
6
ByLayer
370
18
48
1
60
0
100
AcDbLine
10
18.565937
20
-4.031736
30
0
11
19.903111
21
-4.032571
31
0
39
0
210
0
220
0
230
1
0
LINE
5
7D
100
AcDbEntity
8
1
62
256
6
ByLayer
370
18
48
1
60
0
100
AcDbLine
10
0.350219
20
-4.020351
30
0
11
2.793593
21
-4.021878
31
0
39
0
210
0
220
0
230
1
0
LINE
5
7E
100
AcDbEntity
8
SK1
62
256
6
ByLayer
370
18
48
1
60
0
100
AcDbLine
10
-38.845299
20
5
30
0
11
-40
21
3
31
0
39
0
210
0
220
0
230
1
0
LINE
5
80
100
AcDbEntity
8
SK1
62
256
6
ByLayer
370
18
48
1
60
0
100
AcDbLine
10
-40
20
-3
30
0
11
-38.845299
21
-5
31
0
39
0
210
0
220
0
230
1
0
LINE
5
81
100
AcDbEntity
8
SK1
62
256
6
ByLayer
370
18
48
1
60
0
100
AcDbLine
10
0
20
5
30
0
11
-38.845299
21
5
31
0
39
0
210
0
220
0
230
1
0
LINE
5
82
100
AcDbEntity
8
SK1
62
256
6
ByLayer
370
18
48
1
60
0
100
AcDbLine
10
-38.845299
20
-5
30
0
11
0
21
-5
31
0
39
0
210
0
220
0
230
1
0
LINE
5
83
100
AcDbEntity
8
4
62
256
6
ByLayer
370
18
48
0.05
60
0
100
AcDbLine
10
49
20
0
30
0
11
0
21
0
31
0
39
0
210
0
220
0
230
1
0
LINE
5
85
100
AcDbEntity
8
SK4
62
256
6
ByLayer
370
18
48
0.05
60
0
100
AcDbLine
10
54
20
0
30
0
11
-45
21
0
31
0
39
0
210
0
220
0
230
1
0
LINE
5
87
100
AcDbEntity
8
80
62
256
6
ByLayer
370
18
48
1
60
0
100
AcDbLine
10
0
20
0
30
0
11
-5
21
0
31
0
39
0
210
0
220
0
230
1
0
LINE
5
88
100
AcDbEntity
8
SK1
62
256
6
ByLayer
370
18
48
1
60
0
100
AcDbLine
10
-40
20
3
30
0
11
-40
21
-3
31
0
39
0
210
0
220
0
230
1
0
LINE
5
89
100
AcDbEntity
8
SK1
62
256
6
ByLayer
370
18
48
1
60
0
100
AcDbLine
10
-38.845299
20
5
30
0
11
-38.845299
21
-5
31
0
39
0
210
0
220
0
230
1
0
LINE
5
8A
100
AcDbEntity
8
SK1
62
256
6
ByLayer
370
18
48
1
60
0
100
AcDbLine
10
0
20
5
30
0
11
0
21
-5
31
0
39
0
210
0
220
0
230
1
0
LINE
5
8B
100
AcDbEntity
8
1
62
256
6
ByLayer
370
13
48
1
60
0
100
AcDbLine
10
0.350219
20
4.020351
30
0
11
0.350219
21
-4.020351
31
0
39
0
210
0
220
0
230
1
0
LINE
5
8C
100
AcDbEntity
8
1
62
256
6
ByLayer
370
13
48
1
60
0
100
AcDbLine
10
47.612092
20
0.980074
30
0
11
48.992729
21
0.106098
31
0
39
0
210
0
220
0
230
1
0
LINE
5
8D
100
AcDbEntity
8
1
62
256
6
ByLayer
370
13
48
1
60
0
100
AcDbLine
10
47.477592
20
0.883404
30
0
11
48.964142
21
-0.057618
31
0
39
0
210
0
220
0
230
1
0
MTEXT
5
CB
100
AcDbEntity
8
SK6
62
256
6
ByLayer
370
13
48
1
60
0
100
AcDbMText
10
6.629169
20
36.432694
30
0
210
0
220
0
230
1
1
\W0.7585;460.1-0810-024A0-XM GC34
40
3.5
41
0
44
1.084337
50
0
71
8
72
5
7
iso_b_vert
0
DIMENSION
5
D8
100
AcDbEntity
8
SK2
62
256
6
ByLayer
370
13
48
1
60
0
100
AcDbDimension
2
DimnDraft3D1
10
47.8023
20
-14.263398
30
0
11
22.552359
21
-14.263398
31
0
70
32
71
5
72
1
41
1
210
0
220
0
230
1
3
Standard
100
AcDbAlignedDimension
13
0
23
-1.5875
33
0
14
47.8023
24
-5.6375
34
0
50
0
100
AcDbRotatedDimension
1001
ACAD
1000
DSTYLE
1002
{
1070
   279
1070
     0
1070
   172
1070
     1
1070
   173
1070
     1
1070
   340
1005
CC
1070
   271
1070
     2
1070
   272
1070
     2
1070
    77
1070
     1
1070
    73
1070
     0
1070
   171
1070
     3
1070
   274
1070
     4
1070
   177
1070
    35
1070
   176
1070
    35
1070
   178
1070
    35
1070
    48
1040
-0.005
1070
    41
1041
3.5
1070
   147
1041
1.75
1070
    42
1041
1.5875
1070
    44
1041
2.0
1070
   140
1041
3.5
1070
   343
1005
0
1070
   344
1005
0
1002
}
0
DIMENSION
5
E2
100
AcDbEntity
8
SK2
62
256
6
ByLayer
370
13
48
1
60
0
100
AcDbDimension
2
DimnDraft3D2
10
49
20
-33.692985
30
0
11
4.6436
21
-33.692985
31
0
70
32
71
5
72
1
41
1
210
0
220
0
230
1
3
Standard
100
AcDbAlignedDimension
13
-40
23
-6.5875
33
0
14
49
24
-1.5875
34
0
50
0
100
AcDbRotatedDimension
1001
ACAD
1000
DSTYLE
1002
{
1070
   279
1070
     0
1070
   172
1070
     1
1070
   173
1070
     1
1070
   340
1005
CC
1070
   271
1070
     2
1070
   272
1070
     2
1070
    77
1070
     1
1070
    73
1070
     0
1070
   171
1070
     3
1070
   274
1070
     4
1070
   177
1070
    35
1070
   176
1070
    35
1070
   178
1070
    35
1070
    48
1040
-0.005
1070
    41
1041
3.5
1070
   147
1041
1.75
1070
    42
1041
1.5875
1070
    44
1041
2.0
1070
   140
1041
3.5
1070
   343
1005
0
1070
   344
1005
0
1002
}
0
DIMENSION
5
EC
100
AcDbEntity
8
SK2
62
256
6
ByLayer
370
13
48
1
60
0
100
AcDbDimension
2
DimnDraft3D3
10
49
20
15.659119
30
0
11
36.255
21
15.659119
31
0
70
32
71
5
72
1
41
1
210
0
220
0
230
1
3
Standard
100
AcDbAlignedDimension
13
23.51
23
5.6375
33
0
14
49
24
1.5875
34
0
50
0
100
AcDbRotatedDimension
1001
ACAD
1000
DSTYLE
1002
{
1070
   279
1070
     0
1070
   172
1070
     1
1070
   173
1070
     1
1070
   340
1005
CC
1070
   271
1070
     2
1070
   272
1070
     2
1070
    77
1070
     1
1070
    73
1070
     0
1070
   171
1070
     3
1070
   274
1070
     4
1070
   177
1070
    35
1070
   176
1070
    35
1070
   178
1070
    35
1070
    48
1040
-0.005
1070
    41
1041
3.5
1070
   147
1041
1.75
1070
    42
1041
1.5875
1070
    44
1041
2.0
1070
   140
1041
3.5
1070
   343
1005
0
1070
   344
1005
0
1002
}
0
DIMENSION
5
F6
100
AcDbEntity
8
SK2
62
256
6
ByLayer
370
13
48
1
60
0
100
AcDbDimension
2
DimnDraft3D4
10
47.8023
20
-16.852503
30
0
11
58.981425
21
-16.852503
31
0
70
32
71
5
72
1
41
1
210
0
220
0
230
1
3
Standard
100
AcDbAlignedDimension
13
49
23
-1.5875
33
0
14
47.8023
24
-5.6375
34
0
50
0
100
AcDbRotatedDimension
1001
ACAD
1000
DSTYLE
1002
{
1070
   279
1070
     0
1070
   172
1070
     1
1070
   173
1070
     1
1070
   340
1005
CC
1070
   271
1070
     2
1070
   272
1070
     2
1070
    77
1070
     1
1070
    73
1070
     0
1070
   171
1070
     3
1070
   274
1070
     4
1070
   177
1070
    35
1070
   176
1070
    35
1070
   178
1070
    35
1070
    48
1040
-0.005
1070
    41
1041
3.5
1070
   147
1041
1.75
1070
    42
1041
1.5875
1070
    44
1041
2.0
1070
   140
1041
3.5
1070
   343
1005
0
1070
   344
1005
0
1002
}
0
DIMENSION
5
100
100
AcDbEntity
8
SK2
62
256
6
ByLayer
370
13
48
1
60
0
100
AcDbDimension
2
DimnDraft3D5
10
47.8023
20
-23.343428
30
0
11
1.562976
21
-23.343428
31
0
70
32
71
5
72
1
41
1
210
0
220
0
230
1
3
Standard
100
AcDbAlignedDimension
13
-40
23
-6.5875
33
0
14
47.8023
24
-5.6375
34
0
50
0
100
AcDbRotatedDimension
1001
ACAD
1000
DSTYLE
1002
{
1070
   279
1070
     0
1070
   172
1070
     1
1070
   173
1070
     1
1070
   340
1005
CC
1070
   271
1070
     2
1070
   272
1070
     2
1070
    77
1070
     1
1070
    73
1070
     0
1070
   171
1070
     3
1070
   274
1070
     4
1070
   177
1070
    35
1070
   176
1070
    35
1070
   178
1070
    35
1070
    48
1040
-0.005
1070
    41
1041
3.5
1070
   147
1041
1.75
1070
    42
1041
1.5875
1070
    44
1041
2.0
1070
   140
1041
3.5
1070
   343
1005
0
1070
   344
1005
0
1002
}
0
DIMENSION
5
10B
100
AcDbEntity
8
SK2
62
256
6
ByLayer
370
13
48
1
60
0
100
AcDbDimension
2
DimnDraft3D6
10
-50.625163
20
5
30
0
11
-51.250163
21
23.47418
31
0
70
33
71
5
72
1
41
1
210
0
220
0
230
1
3
Standard
100
AcDbAlignedDimension
13
-41.5875
23
-5
33
0
14
-41.5875
24
5
34
0
1001
ACAD
1000
DSTYLE
1002
{
1070
   279
1070
     0
1070
    74
1070
     0
1070
   173
1070
     1
1070
   340
1005
CC
1070
   271
1070
     3
1070
   272
1070
     2
1070
    77
1070
     1
1070
    73
1070
     0
1070
   171
1070
     3
1070
   274
1070
     4
1070
   177
1070
    35
1070
   176
1070
    35
1070
   178
1070
    35
1070
    48
1040
-0.005
1070
    41
1041
3.5
1070
   147
1041
1.75
1070
    42
1041
1.5875
1070
    44
1041
2.0
1070
   140
1041
3.5
1070
   343
1005
0
1070
   344
1005
0
1002
}
0
DIMENSION
5
116
100
AcDbEntity
8
2
62
256
6
ByLayer
370
13
48
1
60
0
100
AcDbDimension
2
DimnDraft3D7
10
63.083343
20
4.05
30
0
11
58.458343
21
21.117266
31
0
70
33
71
5
72
1
41
1
210
0
220
0
230
1
3
Standard
100
AcDbAlignedDimension
13
49.3898
23
-4.05
33
0
14
49.3898
24
4.05
34
0
1001
ACAD
1000
DSTYLE
1002
{
1070
   279
1070
     0
1070
    74
1070
     0
1070
   173
1070
     1
1070
   340
1005
CC
1070
   271
1070
     3
1070
   272
1070
     2
1070
    77
1070
     1
1070
    73
1070
     0
1070
   171
1070
     3
1070
   274
1070
     4
1070
   177
1070
    35
1070
   176
1070
    35
1070
   178
1070
    35
1070
    48
1040
-0.005
1070
    41
1041
3.5
1070
   147
1041
1.75
1070
    42
1041
1.5875
1070
    44
1041
2.0
1070
   140
1041
3.5
1070
   343
1005
0
1070
   344
1005
0
1002
}
0
ENDSEC
0
SECTION
2
OBJECTS
0
DICTIONARY
5
181
330
0
100
AcDbDictionary
280
0
281
1
3
ACAD_GROUP
350
182
3
ACAD_MLINESTYLE
350
183
0
DICTIONARY
5
182
330
0
100
AcDbDictionary
280
0
281
1
0
DICTIONARY
5
183
330
0
100
AcDbDictionary
280
0
281
1
3
Standard
350
18
0
MLINESTYLE
5
18
330
183
100
AcDbMlineStyle
2
Standard
70
0
3

62
256
51
90
52
90
71
2
49
-0.5
62
256
6
ByLayer
49
0.5
62
256
6
ByLayer
0
RASTERVARIABLES
5
16f
330

100
AcDbRasterVariables
90
0
70
1
71
1
72
1
0
ENDSEC
0
EOF
