0
SECTION
2
HEADER
9
$ACADVER
1
AC1015
9
$DWGCODEPAGE
3
ANSI_1252
9
$HANDSEED
5
18a
9
$ANGBASE
50
0
9
$ANGDIR
70
0
9
$ATTMODE
70
1
9
$AUNITS
70
0
9
$AUPREC
70
0
9
$CECOLOR
62
256
9
$CELTSCALE
40
1
9
$CELTYPE
6
ByLayer
9
$CELWEIGHT
370
18
9
$CLAYER
8
0
9
$CMLJUST
70
0
9
$CMLSCALE
40
1
9
$CMLSTYLE
2
Standard
9
$DIMSTYLE
2
Standard
9
$TEXTSIZE
40
0.2
9
$TEXTSTYLE
7
Standard
9
$LUNITS
70
2
9
$LUPREC
70
4
9
$EXTNAMES
290
1
9
$INSUNITS
70
4
9
$LTSCALE
40
1
9
$LWDISPLAY
290
1
9
$PDMODE
70
0
9
$PDSIZE
40
0
9
$PLINEGEN
70
0
0
ENDSEC
0
SECTION
2
CLASSES
0
CLASS
1
RASTERVARIABLES
2
AcDbRasterVariables
3
ISM
90
0
280
0
281
0
0
ENDSEC
0
SECTION
2
TABLES
0
TABLE
2
VPORT
5
180
100
AcDbSymbolTable
0
VPORT
5
1
100
AcDbSymbolTableRecord
100
AcDbViewportTableRecord
2
*Active
70
0
10
0
20
0
11
1
21
1
12
-1
22
1
13
0
23
0
14
0.5
24
0.5
15
10
25
10
16
0
26
0
36
1
17
0
27
0
37
0
0
ENDTAB
0
TABLE
2
LTYPE
5
181
100
AcDbSymbolTable
0
LTYPE
5
14
100
AcDbSymbolTableRecord
100
AcDbLinetypeTableRecord
70
0
2
ByBlock
3

72
65
73
0
40
0
0
LTYPE
5
15
100
AcDbSymbolTableRecord
100
AcDbLinetypeTableRecord
70
0
2
ByLayer
3

72
65
73
0
40
0
0
LTYPE
5
16
100
AcDbSymbolTableRecord
100
AcDbLinetypeTableRecord
70
0
2
CONTINUOUS
3
Solid line
72
65
73
0
40
0
0
LTYPE
5
6A
100
AcDbSymbolTableRecord
100
AcDbLinetypeTableRecord
70
0
2
CENTER
3
____ _ ____ _ ____ _ ____
72
65
73
4
40
47.5
49
22
74
0
49
-8.5
74
0
49
8.5
74
0
49
-8.5
74
0
0
LTYPE
5
6B
100
AcDbSymbolTableRecord
100
AcDbLinetypeTableRecord
70
0
2
DASHED
3
__ __ __ __ __ __ __ __ __
72
65
73
2
40
25.72
49
12.86
74
0
49
-12.86
74
0
0
ENDTAB
0
TABLE
2
LAYER
5
182
100
AcDbSymbolTable
0
LAYER
5
10
100
AcDbSymbolTableRecord
100
AcDbLayerTableRecord
2
0
70
0
62
7
6
CONTINUOUS
290
1
370
-3
390
0
0
LAYER
5
6D
100
AcDbSymbolTableRecord
100
AcDbLayerTableRecord
2
81
70
0
62
-3
6
CONTINUOUS
290
1
370
-3
390
0
0
LAYER
5
6F
100
AcDbSymbolTableRecord
100
AcDbLayerTableRecord
2
80
70
0
62
-6
6
CONTINUOUS
290
1
370
-3
390
0
0
LAYER
5
74
100
AcDbSymbolTableRecord
100
AcDbLayerTableRecord
2
2
70
0
62
7
6
CONTINUOUS
290
1
370
-3
390
0
0
LAYER
5
78
100
AcDbSymbolTableRecord
100
AcDbLayerTableRecord
2
1
70
0
62
4
6
CONTINUOUS
290
1
370
-3
390
0
0
LAYER
5
86
100
AcDbSymbolTableRecord
100
AcDbLayerTableRecord
2
4
70
0
62
-2
6
CENTER
290
1
370
-3
390
0
0
LAYER
5
16c
100
AcDbSymbolTableRecord
100
AcDbLayerTableRecord
2
SK2
70
0
62
7
6
CONTINUOUS
290
1
370
-3
390
0
0
LAYER
5
16d
100
AcDbSymbolTableRecord
100
AcDbLayerTableRecord
2
SK1
70
0
62
4
6
CONTINUOUS
290
1
370
-3
390
0
0
LAYER
5
16e
100
AcDbSymbolTableRecord
100
AcDbLayerTableRecord
2
SK4
70
0
62
2
6
CENTER
290
1
370
-3
390
0
0
LAYER
5
16f
100
AcDbSymbolTableRecord
100
AcDbLayerTableRecord
2
SK6
70
0
62
5
6
CONTINUOUS
290
1
370
-3
390
0
0
ENDTAB
0
TABLE
2
STYLE
5
183
100
AcDbSymbolTable
0
STYLE
5
11
100
AcDbSymbolTableRecord
100
AcDbTextStyleTableRecord
2
Standard
3
txt
70
0
71
0
40
0
41
1
42
0
50
0
0
STYLE
5
C8
100
AcDbSymbolTableRecord
100
AcDbTextStyleTableRecord
2
iso_b_vert
3
simplex.shx
70
0
71
0
40
0
41
1
42
0
50
0
0
STYLE
5
C9
100
AcDbSymbolTableRecord
100
AcDbTextStyleTableRecord
2
DWGDirectTextStyle
3
simplex
70
0
71
0
40
0
41
1
42
0
50
0
0
ENDTAB
0
TABLE
2
DIMSTYLE
5
184
100
AcDbSymbolTable
100
AcDbDimStyleTable
0
DIMSTYLE
105
27
100
AcDbSymbolTableRecord
100
AcDbDimStyleTableRecord
2
Standard
70
0
3
<>
41
0.18
42
0.0625
44
0.18
140
0.18
147
0.09
73
0
74
0
77
1
271
2
275
0
278
52
280
0
340
11
0
ENDTAB
0
TABLE
2
VIEW
5
185
100
AcDbSymbolTable
0
ENDTAB
0
TABLE
2
UCS
5
186
100
AcDbSymbolTable
0
ENDTAB
0
TABLE
2
APPID
5
187
100
AcDbSymbolTable
0
APPID
5
12
100
AcDbSymbolTableRecord
100
AcDbRegAppTableRecord
2
ACAD
70
0
0
ENDTAB
0
TABLE
2
BLOCK_RECORD
5
188
100
AcDbSymbolTable
0
BLOCK_RECORD
5
1F
100
AcDbSymbolTableRecord
100
AcDbBlockTableRecord
2
*Model_Space
340
0
70
0
0
BLOCK_RECORD
5
1B
100
AcDbSymbolTableRecord
100
AcDbBlockTableRecord
2
*Paper_Space
340
0
70
0
0
BLOCK_RECORD
5
23
100
AcDbSymbolTableRecord
100
AcDbBlockTableRecord
2
*Paper_Space0
340
0
70
0
0
BLOCK_RECORD
5
CB
100
AcDbSymbolTableRecord
100
AcDbBlockTableRecord
2
DimnDraft3D1
340
0
70
0
0
BLOCK_RECORD
5
D5
100
AcDbSymbolTableRecord
100
AcDbBlockTableRecord
2
DimnDraft3D2
340
0
70
0
0
BLOCK_RECORD
5
DF
100
AcDbSymbolTableRecord
100
AcDbBlockTableRecord
2
DimnDraft3D3
340
0
70
0
0
BLOCK_RECORD
5
E9
100
AcDbSymbolTableRecord
100
AcDbBlockTableRecord
2
DimnDraft3D4
340
0
70
0
0
BLOCK_RECORD
5
F3
100
AcDbSymbolTableRecord
100
AcDbBlockTableRecord
2
DimnDraft3D5
340
0
70
0
0
BLOCK_RECORD
5
FD
100
AcDbSymbolTableRecord
100
AcDbBlockTableRecord
2
DimnDraft3D6
340
0
70
0
0
BLOCK_RECORD
5
108
100
AcDbSymbolTableRecord
100
AcDbBlockTableRecord
2
DimnDraft3D7
340
0
70
0
0
ENDTAB
0
ENDSEC
0
SECTION
2
BLOCKS
0
BLOCK
5
20
100
AcDbEntity
8
0
100
AcDbBlockBegin
2
*Model_Space
70
0
10
0
20
0
30
0
3
*Model_Space
0
ENDBLK
5
21
100
AcDbEntity
8
0
100
AcDbBlockEnd
0
BLOCK
5
1C
100
AcDbEntity
8
0
100
AcDbBlockBegin
2
*Paper_Space
70
0
10
0
20
0
30
0
3
*Paper_Space
0
ENDBLK
5
1D
100
AcDbEntity
8
0
100
AcDbBlockEnd
0
BLOCK
5
24
100
AcDbEntity
8
0
100
AcDbBlockBegin
2
*Paper_Space0
70
0
10
0
20
0
30
0
3
*Paper_Space0
0
ENDBLK
5
25
100
AcDbEntity
8
0
100
AcDbBlockEnd
0
BLOCK
5
D2
100
AcDbEntity
8
0
100
AcDbBlockBegin
2
DimnDraft3D1
70
0
10
0
20
0
30
0
3
DimnDraft3D1
0
MTEXT
5
CC
100
AcDbEntity
8
SK2
62
256
6
ByLayer
370
13
48
1
60
0
100
AcDbMText
10
15.372064
20
-13.338398
30
0
210
0
220
0
230
1
1
\W0.6977;41,82
40
3.5
41
0
44
1.084337
50
0
71
7
72
5
7
iso_b_vert
0
LINE
5
CD
100
AcDbEntity
8
SK2
62
256
6
ByLayer
370
13
48
1
60
0
100
AcDbLine
10
0
20
-1.5875
30
0
11
0
21
-16.213398
31
0
39
0
210
0
220
0
230
1
0
LINE
5
CE
100
AcDbEntity
8
SK2
62
256
6
ByLayer
370
13
48
1
60
0
100
AcDbLine
10
41.8174
20
-5.5875
30
0
11
41.8174
21
-16.213398
31
0
39
0
210
0
220
0
230
1
0
LINE
5
CF
100
AcDbEntity
8
SK2
62
256
6
ByLayer
370
13
48
1
60
0
100
AcDbLine
10
0
20
-14.213398
30
0
11
41.8174
21
-14.213398
31
0
39
0
210
0
220
0
230
1
0
SOLID
5
D0
100
AcDbEntity
8
SK2
62
256
6
ByLayer
370
13
48
1
60
0
100
AcDbTrace
10
0
20
-14.213398
30
0
11
3.499998
21
-13.752615
31
0
12
3.500002
22
-14.674182
32
0
13
0
23
-14.213398
33
0
39
0
210
0
220
0
230
1
0
SOLID
5
D1
100
AcDbEntity
8
SK2
62
256
6
ByLayer
370
13
48
1
60
0
100
AcDbTrace
10
41.8174
20
-14.213398
30
0
11
38.317402
21
-14.674182
31
0
12
38.317398
22
-13.752615
32
0
13
41.8174
23
-14.213398
33
0
39
0
210
0
220
0
230
1
0
ENDBLK
5
D3
100
AcDbEntity
8
0
100
AcDbBlockEnd
0
BLOCK
5
DC
100
AcDbEntity
8
0
100
AcDbBlockBegin
2
DimnDraft3D2
70
0
10
0
20
0
30
0
3
DimnDraft3D2
0
MTEXT
5
D6
100
AcDbEntity
8
SK2
62
256
6
ByLayer
370
13
48
1
60
0
100
AcDbMText
10
-0.789984
20
-31.817985
30
0
210
0
220
0
230
1
1
\W0.7317;79,00
40
3.5
41
0
44
1.084337
50
0
71
7
72
5
7
iso_b_vert
0
LINE
5
D7
100
AcDbEntity
8
SK2
62
256
6
ByLayer
370
13
48
1
60
0
100
AcDbLine
10
-36
20
-5.5875
30
0
11
-36
21
-34.692985
31
0
39
0
210
0
220
0
230
1
0
LINE
5
D8
100
AcDbEntity
8
SK2
62
256
6
ByLayer
370
13
48
1
60
0
100
AcDbLine
10
43
20
-1.5875
30
0
11
43
21
-34.692985
31
0
39
0
210
0
220
0
230
1
0
LINE
5
D9
100
AcDbEntity
8
SK2
62
256
6
ByLayer
370
13
48
1
60
0
100
AcDbLine
10
-36
20
-32.692985
30
0
11
43
21
-32.692985
31
0
39
0
210
0
220
0
230
1
0
SOLID
5
DA
100
AcDbEntity
8
SK2
62
256
6
ByLayer
370
13
48
1
60
0
100
AcDbTrace
10
-36
20
-32.692985
30
0
11
-32.500002
21
-32.232202
31
0
12
-32.499998
22
-33.153769
32
0
13
-36
23
-32.692985
33
0
39
0
210
0
220
0
230
1
0
SOLID
5
DB
100
AcDbEntity
8
SK2
62
256
6
ByLayer
370
13
48
1
60
0
100
AcDbTrace
10
43
20
-32.692985
30
0
11
39.500002
21
-33.153769
31
0
12
39.499998
22
-32.232202
32
0
13
43
23
-32.692985
33
0
39
0
210
0
220
0
230
1
0
ENDBLK
5
DD
100
AcDbEntity
8
0
100
AcDbBlockEnd
0
BLOCK
5
E6
100
AcDbEntity
8
0
100
AcDbBlockBegin
2
DimnDraft3D3
70
0
10
0
20
0
30
0
3
DimnDraft3D3
0
MTEXT
5
E0
100
AcDbEntity
8
SK2
62
256
6
ByLayer
370
13
48
1
60
0
100
AcDbMText
10
26.398816
20
16.484119
30
0
210
0
220
0
230
1
1
\W0.6713;25,18
40
3.5
41
0
44
1.084337
50
0
71
7
72
5
7
iso_b_vert
0
LINE
5
E1
100
AcDbEntity
8
SK2
62
256
6
ByLayer
370
13
48
1
60
0
100
AcDbLine
10
17.82
20
5.5875
30
0
11
17.82
21
17.609119
31
0
39
0
210
0
220
0
230
1
0
LINE
5
E2
100
AcDbEntity
8
SK2
62
256
6
ByLayer
370
13
48
1
60
0
100
AcDbLine
10
43
20
1.5875
30
0
11
43
21
17.609119
31
0
39
0
210
0
220
0
230
1
0
LINE
5
E3
100
AcDbEntity
8
SK2
62
256
6
ByLayer
370
13
48
1
60
0
100
AcDbLine
10
17.82
20
15.609119
30
0
11
43
21
15.609119
31
0
39
0
210
0
220
0
230
1
0
SOLID
5
E4
100
AcDbEntity
8
SK2
62
256
6
ByLayer
370
13
48
1
60
0
100
AcDbTrace
10
17.82
20
15.609119
30
0
11
21.319998
21
16.069903
31
0
12
21.320002
22
15.148335
32
0
13
17.82
23
15.609119
33
0
39
0
210
0
220
0
230
1
0
SOLID
5
E5
100
AcDbEntity
8
SK2
62
256
6
ByLayer
370
13
48
1
60
0
100
AcDbTrace
10
43
20
15.609119
30
0
11
39.500002
21
15.148335
31
0
12
39.499998
22
16.069903
32
0
13
43
23
15.609119
33
0
39
0
210
0
220
0
230
1
0
ENDBLK
5
E7
100
AcDbEntity
8
0
100
AcDbBlockEnd
0
BLOCK
5
F0
100
AcDbEntity
8
0
100
AcDbBlockBegin
2
DimnDraft3D4
70
0
10
0
20
0
30
0
3
DimnDraft3D4
0
MTEXT
5
EA
100
AcDbEntity
8
SK2
62
256
6
ByLayer
370
13
48
1
60
0
100
AcDbMText
10
50.715636
20
-15.927503
30
0
210
0
220
0
230
1
1
\W0.5583;1,18
40
3.5
41
0
44
1.084337
50
0
71
7
72
5
7
iso_b_vert
0
LINE
5
EB
100
AcDbEntity
8
SK2
62
256
6
ByLayer
370
13
48
1
60
0
100
AcDbLine
10
43
20
-1.5875
30
0
11
43
21
-18.802503
31
0
39
0
210
0
220
0
230
1
0
LINE
5
EC
100
AcDbEntity
8
SK2
62
256
6
ByLayer
370
13
48
1
60
0
100
AcDbLine
10
41.8174
20
-5.5875
30
0
11
41.8174
21
-18.802503
31
0
39
0
210
0
220
0
230
1
0
LINE
5
ED
100
AcDbEntity
8
SK2
62
256
6
ByLayer
370
13
48
1
60
0
100
AcDbLine
10
33.0674
20
-16.802503
30
0
11
56.122215
21
-16.802503
31
0
39
0
210
0
220
0
230
1
0
SOLID
5
EE
100
AcDbEntity
8
SK2
62
256
6
ByLayer
370
13
48
1
60
0
100
AcDbTrace
10
43
20
-16.802503
30
0
11
46.499998
21
-16.341719
31
0
12
46.500002
22
-17.263287
32
0
13
43
23
-16.802503
33
0
39
0
210
0
220
0
230
1
0
SOLID
5
EF
100
AcDbEntity
8
SK2
62
256
6
ByLayer
370
13
48
1
60
0
100
AcDbTrace
10
41.8174
20
-16.802503
30
0
11
38.317402
21
-17.263287
31
0
12
38.317398
22
-16.341719
32
0
13
41.8174
23
-16.802503
33
0
39
0
210
0
220
0
230
1
0
ENDBLK
5
F1
100
AcDbEntity
8
0
100
AcDbBlockEnd
0
BLOCK
5
FA
100
AcDbEntity
8
0
100
AcDbBlockBegin
2
DimnDraft3D5
70
0
10
0
20
0
30
0
3
DimnDraft3D5
0
MTEXT
5
F4
100
AcDbEntity
8
SK2
62
256
6
ByLayer
370
13
48
1
60
0
100
AcDbMText
10
-3.870608
20
-21.468428
30
0
210
0
220
0
230
1
1
\W0.7317;77,82
40
3.5
41
0
44
1.084337
50
0
71
7
72
5
7
iso_b_vert
0
LINE
5
F5
100
AcDbEntity
8
SK2
62
256
6
ByLayer
370
13
48
1
60
0
100
AcDbLine
10
-36
20
-5.5875
30
0
11
-36
21
-24.343428
31
0
39
0
210
0
220
0
230
1
0
LINE
5
F6
100
AcDbEntity
8
SK2
62
256
6
ByLayer
370
13
48
1
60
0
100
AcDbLine
10
41.8174
20
-5.5875
30
0
11
41.8174
21
-24.343428
31
0
39
0
210
0
220
0
230
1
0
LINE
5
F7
100
AcDbEntity
8
SK2
62
256
6
ByLayer
370
13
48
1
60
0
100
AcDbLine
10
-36
20
-22.343428
30
0
11
41.8174
21
-22.343428
31
0
39
0
210
0
220
0
230
1
0
SOLID
5
F8
100
AcDbEntity
8
SK2
62
256
6
ByLayer
370
13
48
1
60
0
100
AcDbTrace
10
-36
20
-22.343428
30
0
11
-32.500002
21
-21.882645
31
0
12
-32.499998
22
-22.804212
32
0
13
-36
23
-22.343428
33
0
39
0
210
0
220
0
230
1
0
SOLID
5
F9
100
AcDbEntity
8
SK2
62
256
6
ByLayer
370
13
48
1
60
0
100
AcDbTrace
10
41.8174
20
-22.343428
30
0
11
38.317402
21
-22.804212
31
0
12
38.317398
22
-21.882645
32
0
13
41.8174
23
-22.343428
33
0
39
0
210
0
220
0
230
1
0
ENDBLK
5
FB
100
AcDbEntity
8
0
100
AcDbBlockEnd
0
BLOCK
5
105
100
AcDbEntity
8
0
100
AcDbBlockBegin
2
DimnDraft3D6
70
0
10
0
20
0
30
0
3
DimnDraft3D6
0
MTEXT
5
FE
100
AcDbEntity
8
SK2
62
256
6
ByLayer
370
13
48
1
60
0
100
AcDbMText
10
-46.375163
20
23.34918
30
0
210
0
220
0
230
1
1
\W0.7317;8,000
40
3.5
41
0
44
1.084337
50
90
71
7
72
5
7
iso_b_vert
0
MTEXT
5
FF
100
AcDbEntity
8
SK2
62
256
6
ByLayer
370
13
48
1
60
0
100
AcDbMText
10
-46.375163
20
18.126524
30
0
210
0
220
0
230
1
1
%%c
40
3.5
41
0
44
1.084337
50
90
71
7
72
5
7
iso_b_vert
0
LINE
5
100
100
AcDbEntity
8
SK2
62
256
6
ByLayer
370
13
48
1
60
0
100
AcDbLine
10
-37.5875
20
-4
30
0
11
-46.625163
21
-4
31
0
39
0
210
0
220
0
230
1
0
LINE
5
101
100
AcDbEntity
8
SK2
62
256
6
ByLayer
370
13
48
1
60
0
100
AcDbLine
10
-37.5875
20
4
30
0
11
-46.625163
21
4
31
0
39
0
210
0
220
0
230
1
0
LINE
5
102
100
AcDbEntity
8
SK2
62
256
6
ByLayer
370
13
48
1
60
0
100
AcDbLine
10
-44.625163
20
-4
30
0
11
-44.625163
21
33.121549
31
0
39
0
210
0
220
0
230
1
0
SOLID
5
103
100
AcDbEntity
8
SK2
62
256
6
ByLayer
370
13
48
1
60
0
100
AcDbTrace
10
-44.625163
20
-4
30
0
11
-45.085946
21
-0.500002
31
0
12
-44.164379
22
-0.499998
32
0
13
-44.625163
23
-4
33
0
39
0
210
0
220
0
230
1
0
SOLID
5
104
100
AcDbEntity
8
SK2
62
256
6
ByLayer
370
13
48
1
60
0
100
AcDbTrace
10
-44.625163
20
4
30
0
11
-44.164379
21
0.500002
31
0
12
-45.085946
22
0.499998
32
0
13
-44.625163
23
4
33
0
39
0
210
0
220
0
230
1
0
ENDBLK
5
106
100
AcDbEntity
8
0
100
AcDbBlockEnd
0
BLOCK
5
110
100
AcDbEntity
8
0
100
AcDbBlockBegin
2
DimnDraft3D7
70
0
10
0
20
0
30
0
3
DimnDraft3D7
0
MTEXT
5
109
100
AcDbEntity
8
2
62
256
6
ByLayer
370
13
48
1
60
0
100
AcDbMText
10
53.333343
20
21.942266
30
0
210
0
220
0
230
1
1
\W0.7317;8,000
40
3.5
41
0
44
1.084337
50
90
71
7
72
5
7
iso_b_vert
0
MTEXT
5
10A
100
AcDbEntity
8
2
62
256
6
ByLayer
370
13
48
1
60
0
100
AcDbMText
10
53.333343
20
16.71961
30
0
210
0
220
0
230
1
1
%%c
40
3.5
41
0
44
1.084337
50
90
71
7
72
5
7
iso_b_vert
0
LINE
5
10B
100
AcDbEntity
8
2
62
256
6
ByLayer
370
13
48
1
60
0
100
AcDbLine
10
43.4049
20
-4
30
0
11
57.083343
21
-4
31
0
39
0
210
0
220
0
230
1
0
LINE
5
10C
100
AcDbEntity
8
2
62
256
6
ByLayer
370
13
48
1
60
0
100
AcDbLine
10
43.4049
20
4
30
0
11
57.083343
21
4
31
0
39
0
210
0
220
0
230
1
0
LINE
5
10D
100
AcDbEntity
8
2
62
256
6
ByLayer
370
13
48
1
60
0
100
AcDbLine
10
55.083343
20
-4
30
0
11
55.083343
21
31.714635
31
0
39
0
210
0
220
0
230
1
0
SOLID
5
10E
100
AcDbEntity
8
2
62
256
6
ByLayer
370
13
48
1
60
0
100
AcDbTrace
10
55.083343
20
-4
30
0
11
54.622559
21
-0.500002
31
0
12
55.544126
22
-0.499998
32
0
13
55.083343
23
-4
33
0
39
0
210
0
220
0
230
1
0
SOLID
5
10F
100
AcDbEntity
8
2
62
256
6
ByLayer
370
13
48
1
60
0
100
AcDbTrace
10
55.083343
20
4
30
0
11
55.544126
21
0.500002
31
0
12
54.622559
22
0.499998
32
0
13
55.083343
23
4
33
0
39
0
210
0
220
0
230
1
0
ENDBLK
5
111
100
AcDbEntity
8
0
100
AcDbBlockEnd
0
ENDSEC
0
SECTION
2
ENTITIES
0
ELLIPSE
5
8D
100
AcDbEntity
8
1
62
256
6
ByLayer
370
18
48
1
60
0
100
AcDbEllipse
10
3.039092
20
-4.025985
30
0
11
0.25
21
0
31
0
210
0
220
0
230
1
40
0.999976
41
1.57064261364004
42
2.88297300863269
0
ELLIPSE
5
8E
100
AcDbEntity
8
1
62
256
6
ByLayer
370
18
48
1
60
0
100
AcDbEllipse
10
3.039092
20
4.025985
30
0
11
0.25
21
0
31
0
210
0
220
0
230
1
40
0.999976
41
-2.88349429053089
42
-1.56799830021769
0
POINT
5
6C
100
AcDbEntity
8
81
62
256
6
ByLayer
370
18
48
1
60
0
100
AcDbPoint
10
43
20
0
30
0
39
0
210
0
220
0
230
1
50
360
0
POINT
5
6E
100
AcDbEntity
8
80
62
256
6
ByLayer
370
18
48
1
60
0
100
AcDbPoint
10
0
20
0
30
0
39
0
210
0
220
0
230
1
50
360
0
POINT
5
70
100
AcDbEntity
8
SK2
62
256
6
ByLayer
370
18
48
1
60
1
100
AcDbPoint
10
-36
20
-4
30
0
39
0
210
0
220
0
230
1
50
360
0
POINT
5
72
100
AcDbEntity
8
SK2
62
256
6
ByLayer
370
18
48
1
60
1
100
AcDbPoint
10
-36
20
4
30
0
39
0
210
0
220
0
230
1
50
360
0
POINT
5
73
100
AcDbEntity
8
2
62
256
6
ByLayer
370
18
48
1
60
1
100
AcDbPoint
10
41.8174
20
-4
30
0
39
0
210
0
220
0
230
1
50
360
0
POINT
5
75
100
AcDbEntity
8
2
62
256
6
ByLayer
370
18
48
1
60
1
100
AcDbPoint
10
41.8174
20
4
30
0
39
0
210
0
220
0
230
1
50
360
0
SPLINE
5
8F
100
AcDbEntity
8
1
62
256
6
ByLayer
370
18
48
1
60
0
100
AcDbSpline
70
4
71
1
72
4
73
2
40
0
40
0
40
1
40
1
41
1
10
8.67220980794355
20
0.0031245180955182
30
0
41
1
10
8.67219444895085
20
0.003129034745001
30
0
0
SPLINE
5
90
100
AcDbEntity
8
1
62
256
6
ByLayer
370
18
48
1
60
0
100
AcDbSpline
70
4
71
1
72
4
73
2
40
0
40
0
40
1
40
1
41
1
10
41.4189574330423
20
-3.79947242110461
30
0
41
1
10
41.6287032772375
20
-3.79835845904009
30
0
0
SPLINE
5
91
100
AcDbEntity
8
1
62
256
6
ByLayer
370
18
48
1
60
0
100
AcDbSpline
70
4
71
3
72
24
73
20
40
0
40
0
40
0
40
0
40
0.0336486365967654
40
0.0940599968399709
40
0.145359185561581
40
0.190154106289693
40
0.239959293171625
40
0.305004385233045
40
0.392513474419411
40
0.474456661072025
40
0.530263695954899
40
0.607091403580928
40
0.682498118825784
40
0.743266073128392
40
0.806376270205768
40
0.878523510761885
40
0.924451255499677
40
0.971443430539753
40
1
40
1
40
1
40
1
41
1
10
30.2561471729752
20
3.79193393995024
30
0
41
1
10
30.160698803362
20
3.79187063744124
30
0
41
1
10
29.8939867014171
20
3.7917243376186
30
0
41
1
10
29.4834728329235
20
3.7916169614775
30
0
41
1
10
29.0395923898793
20
3.79169796817021
30
0
41
1
10
28.6260663488283
20
3.79099735153312
30
0
41
1
10
28.1735027889714
20
3.7908874868142
30
0
41
1
10
27.5998797912917
20
3.79068615648882
30
0
41
1
10
26.9351488409782
20
3.78993095529933
30
0
41
1
10
26.2966089205677
20
3.79008478328538
30
0
41
1
10
25.6883412995105
20
3.79024091443964
30
0
41
1
10
25.0986156662077
20
3.78832007999171
30
0
41
1
10
24.4948295865635
20
3.78789372713081
30
0
41
1
10
23.9298703888903
20
3.78846856153282
30
0
41
1
10
23.3743749763723
20
3.78935710849461
30
0
41
1
10
22.8608105213587
20
3.78788934874712
30
0
41
1
10
22.3928768975031
20
3.78716308195232
30
0
41
1
10
22.0485735256958
20
3.78730045269782
30
0
41
1
10
21.8344642408529
20
3.78738404910141
30
0
41
1
10
21.7535438173961
20
3.78740993801105
30
0
0
SPLINE
5
92
100
AcDbEntity
8
1
62
256
6
ByLayer
370
18
48
1
60
0
100
AcDbSpline
70
4
71
3
72
29
73
25
40
0
40
0
40
0
40
0
40
0.0712409928087499
40
0.121969693329685
40
0.153469489119103
40
0.183316214127372
40
0.21717158790072
40
0.29059717909649
40
0.35428382948206
40
0.394279967610423
40
0.432366390313593
40
0.47441777681142
40
0.525867550114992
40
0.57290654161695
40
0.614440575886668
40
0.673455266779305
40
0.741690978773625
40
0.794528548409237
40
0.833934301740583
40
0.863371073125016
40
0.890413249219695
40
0.924246028823965
40
0.972903782805551
40
1
40
1
40
1
40
1
41
1
10
19.6996131303994
20
-3.78620104299651
30
0
41
1
10
19.9503464705581
20
-3.78622864202416
30
0
41
1
10
20.3796074332139
20
-3.78638169112958
30
0
41
1
10
20.9196996392844
20
-3.78728886416147
30
0
41
1
10
21.314106059023
20
-3.7874874516018
30
0
41
1
10
21.6489197276373
20
-3.78746321587599
30
0
41
1
10
22.1314049352993
20
-3.78722249220175
30
0
41
1
10
22.7331368469752
20
-3.78740238609504
30
0
41
1
10
23.3564208028207
20
-3.78930604988375
30
0
41
1
10
23.8551983013602
20
-3.78854230152507
30
0
41
1
10
24.2780335990825
20
-3.78821072234646
30
0
41
1
10
24.7411393990401
20
-3.78768434786178
30
0
41
1
10
25.2357603079931
20
-3.78925907960425
30
0
41
1
10
25.7285544409858
20
-3.79012146646858
30
0
41
1
10
26.2479836919787
20
-3.79006368426613
30
0
41
1
10
26.8420095395429
20
-3.79020212811122
30
0
41
1
10
27.4758162642303
20
-3.78995747413023
30
0
41
1
10
28.0406142218975
20
-3.79118607550737
30
0
41
1
10
28.4688591471009
20
-3.7907745867808
30
0
41
1
10
28.8063244852925
20
-3.79136830289301
30
0
41
1
10
29.1241541575649
20
-3.79167201750968
30
0
41
1
10
29.5097221086059
20
-3.79162738005351
30
0
41
1
10
29.8939661094389
20
-3.79172369964738
30
0
41
1
10
30.160658312244
20
-3.79187061874129
30
0
41
1
10
30.2560863998372
20
-3.79193390636129
30
0
0
SPLINE
5
93
100
AcDbEntity
8
1
62
256
6
ByLayer
370
18
48
1
60
0
100
AcDbSpline
70
4
71
3
72
21
73
17
40
0
40
0
40
0
40
0
40
0.0282526272443288
40
0.112182904875187
40
0.181911843864993
40
0.240077683378423
40
0.295030831336004
40
0.352914629497182
40
0.41479493181668
40
0.525056647848915
40
0.654785161065746
40
0.762148605853899
40
0.809023354200855
40
0.86109844605694
40
0.939380827314683
40
1
40
1
40
1
40
1
41
1
10
8.54957383553378
20
3.77939320818763
30
0
41
1
10
8.49766124577491
20
3.77942484306871
30
0
41
1
10
8.29157175546393
20
3.77952038605403
30
0
41
1
10
7.95799521160907
20
3.77993303733851
30
0
41
1
10
7.5692281383109
20
3.77914256379509
30
0
41
1
10
7.23327904451284
20
3.77831148363816
30
0
41
1
10
6.91916319070862
20
3.77818026810914
30
0
41
1
10
6.59822654191208
20
3.77838640307411
30
0
41
1
10
6.17571366131665
20
3.77823341684959
30
0
41
1
10
5.6211414800355
20
3.77877232893965
30
0
41
1
10
4.98305544213162
20
3.77730586225692
30
0
41
1
10
4.46141079027643
20
3.777159967579
30
0
41
1
10
4.08240526083566
20
3.77683084215479
30
0
41
1
10
3.75682099654193
20
3.7766700262834
30
0
41
1
10
3.40599182872342
20
3.77655705370043
30
0
41
1
10
3.15082282153463
20
3.77617944312215
30
0
41
1
10
3.03946225265997
20
3.77598186781091
30
0
0
SPLINE
5
94
100
AcDbEntity
8
1
62
256
6
ByLayer
370
18
48
1
60
0
100
AcDbSpline
70
4
71
3
72
21
73
17
40
0
40
0
40
0
40
0
40
0.0846075381649702
40
0.170553730886964
40
0.228463212875529
40
0.302948650929518
40
0.401684174033947
40
0.500600640780508
40
0.585321598676867
40
0.647214187831627
40
0.705109479292323
40
0.760073538647799
40
0.818250927464171
40
0.887993711698296
40
0.97194065436036
40
1
40
1
40
1
40
1
41
1
10
3.03946124138571
20
-3.77594979637141
30
0
41
1
10
3.19485938359872
20
-3.77620767692852
30
0
41
1
10
3.50811374648174
20
-3.77664330411397
30
0
41
1
10
3.92772140312923
20
-3.77671390554858
30
0
41
1
10
4.32874781555023
20
-3.77705482634417
30
0
41
1
10
4.75325168968035
20
-3.77721380110481
30
0
41
1
10
5.25305924654234
20
-3.77829553623658
30
0
41
1
10
5.77169042570128
20
-3.77842339747105
30
0
41
1
10
6.22265808266292
20
-3.7782814845481
30
0
41
1
10
6.59822652034484
20
-3.77837971201586
30
0
41
1
10
6.91916319471312
20
-3.77818190769006
30
0
41
1
10
7.23327904814289
20
-3.77831102982296
30
0
41
1
10
7.5692281169151
20
-3.77914271047697
30
0
41
1
10
7.95799532031765
20
-3.77993300921653
30
0
41
1
10
8.29120676191329
20
-3.77952075325212
30
0
41
1
10
8.49693087548778
20
-3.77942524388774
30
0
41
1
10
8.54847800914695
20
-3.77939384050816
30
0
0
SPLINE
5
95
100
AcDbEntity
8
1
62
256
6
ByLayer
370
18
48
1
60
0
100
AcDbSpline
70
4
71
3
72
10
73
6
40
0
40
0
40
0
40
0
40
0.5
40
0.5
40
1
40
1
40
1
40
1
41
1
10
42.9643722325404
20
-0.0556838200429866
30
0
41
1
10
42.6652415948276
20
-0.549520052091964
30
0
41
1
10
42.3451642343505
20
-1.02189545917506
30
0
41
1
10
41.6816793561766
20
-1.94274351651615
30
0
41
1
10
41.3378365350594
20
-2.39095144732724
30
0
41
1
10
40.986945561052
20
-2.83043766150843
30
0
0
SPLINE
5
96
100
AcDbEntity
8
1
62
256
6
ByLayer
370
18
48
1
60
0
100
AcDbSpline
70
4
71
3
72
8
73
4
40
0
40
0
40
0
40
0
40
1
40
1
40
1
40
1
41
1
10
42.8709508188905
20
0.93457751388874
30
0
41
1
10
42.8683414017613
20
0.925154288021446
30
0
41
1
10
42.8657099381098
20
0.915738637771284
30
0
41
1
10
42.8630566768668
20
0.906330501965414
30
0
0
SPLINE
5
97
100
AcDbEntity
8
1
62
256
6
ByLayer
370
18
48
1
60
0
100
AcDbSpline
70
4
71
3
72
18
73
14
40
0
40
0
40
0
40
0
40
0.272514846946195
40
0.272514846946195
40
0.408772270419294
40
0.408772270419294
40
0.545029693892394
40
0.545029693892394
40
0.681287117365494
40
0.681287117365494
40
0.817544540838594
40
0.817544540838594
40
1
40
1
40
1
40
1
41
1
10
10.031146319829
20
-3.67971487670039
30
0
41
1
10
10.3221464736847
20
-3.64409609762984
30
0
41
1
10
10.6125256093139
20
-3.59790332743515
30
0
41
1
10
11.0473297573291
20
-3.51391424755789
30
0
41
1
10
11.1920693040552
20
-3.48343238309116
30
0
41
1
10
11.4820054302585
20
-3.41843072853609
30
0
41
1
10
11.6270574592257
20
-3.38382048630587
30
0
41
1
10
11.917179597066
20
-3.31063550721297
30
0
41
1
10
12.0624546246414
20
-3.27242457234729
30
0
41
1
10
12.3531790486272
20
-3.19158147067691
30
0
41
1
10
12.4986302030629
20
-3.1483769592555
30
0
41
1
10
12.838055648823
20
-3.04204694357801
30
0
41
1
10
13.0321917663466
20
-2.97736546488161
30
0
41
1
10
13.2262761332482
20
-2.90926487529379
30
0
0
SPLINE
5
98
100
AcDbEntity
8
1
62
256
6
ByLayer
370
18
48
1
60
0
100
AcDbSpline
70
4
71
3
72
26
73
22
40
0
40
0
40
0
40
0
40
0.0868158074486582
40
0.0868158074486582
40
0.143889819483117
40
0.143889819483117
40
0.200963831517576
40
0.200963831517576
40
0.315111855586494
40
0.315111855586494
40
0.429259879655411
40
0.429259879655411
40
0.543407903724329
40
0.543407903724329
40
0.657555927793247
40
0.657555927793247
40
0.771703951862165
40
0.771703951862165
40
0.885851975931083
40
0.885851975931083
40
1
40
1
40
1
40
1
41
1
10
30.255777630918
20
3.792177959084
30
0
41
1
10
30.476247400354
20
3.79097004311018
30
0
41
1
10
30.6967007681657
20
3.78363686095719
30
0
41
1
10
31.0625493375001
20
3.76261633742553
30
0
41
1
10
31.2076949783714
20
3.7521063843819
30
0
41
1
10
31.4984355464022
20
3.72566557701393
30
0
41
1
10
31.643535595027
20
3.70958338240567
30
0
41
1
10
32.0785158505347
20
3.65411913867589
30
0
41
1
10
32.3683320821172
20
3.60835901737156
30
0
41
1
10
32.9475866622894
20
3.49682258226662
30
0
41
1
10
33.2375489035773
20
3.43199386483326
30
0
41
1
10
33.8187282908365
20
3.28573534859649
30
0
41
1
10
34.1089048684327
20
3.2025430209807
30
0
41
1
10
34.688407369727
20
3.0200034510091
30
0
41
1
10
34.9779881518738
20
2.92070831962485
30
0
41
1
10
35.5573702631441
20
2.70774595759215
30
0
41
1
10
35.8476489308733
20
2.5946231262237
30
0
41
1
10
36.4285219079361
20
2.35450601818039
30
0
41
1
10
36.7180259282235
20
2.22721009065481
30
0
41
1
10
37.2970776081221
20
1.96255619384533
30
0
41
1
10
37.5864789107123
20
1.82469415758317
30
0
41
1
10
37.876360447144
20
1.68245034858504
30
0
0
SPLINE
5
99
100
AcDbEntity
8
1
62
256
6
ByLayer
370
18
48
1
60
0
100
AcDbSpline
70
4
71
3
72
8
73
4
40
0
40
0
40
0
40
0
40
1
40
1
40
1
40
1
41
1
10
41.7891977794381
20
3.89250980511539
30
0
41
1
10
41.7362388792233
20
3.94977132857105
30
0
41
1
10
41.681813891726
20
3.98402635214799
30
0
41
1
10
41.6252450828927
20
3.99554543729661
30
0
0
SPLINE
5
9A
100
AcDbEntity
8
1
62
256
6
ByLayer
370
18
48
1
60
0
100
AcDbSpline
70
4
71
3
72
48
73
44
40
0
40
0
40
0
40
0
40
0.0547871746005162
40
0.0547871746005162
40
0.082180761900775
40
0.082180761900775
40
0.109574349201034
40
0.109574349201034
40
0.219148698402071
40
0.219148698402071
40
0.24654228570233
40
0.24654228570233
40
0.27393587300259
40
0.27393587300259
40
0.32872304760311
40
0.32872304760311
40
0.35611663490337
40
0.35611663490337
40
0.383510222203631
40
0.383510222203631
40
0.438297396804151
40
0.438297396804151
40
0.54787174600519
40
0.54787174600519
40
0.575265333305451
40
0.575265333305451
40
0.602658920605712
40
0.602658920605712
40
0.657446095206234
40
0.657446095206234
40
0.712233269806756
40
0.712233269806756
40
0.767020444407278
40
0.767020444407278
40
0.8218076190078
40
0.8218076190078
40
0.876594793608322
40
0.876594793608322
40
0.931381968208843
40
0.931381968208843
40
0.986169142809365
40
0.986169142809365
40
1
40
1
40
1
40
1
41
1
10
41.6252450828927
20
-3.99554543729661
30
0
41
1
10
41.221327578251
20
-4.00619412677167
30
0
41
1
10
40.8180348742454
20
-3.99635212591824
30
0
41
1
10
40.2119030759703
20
-3.95117814099206
30
0
41
1
10
40.0093600684941
20
-3.9310089745583
30
0
41
1
10
39.6050759686303
20
-3.88074460055637
30
0
41
1
10
39.4035638372414
20
-3.8506964619431
30
0
41
1
10
38.3981097200888
20
-3.67671683699169
30
0
41
1
10
37.600589856792
20
-3.46152421291981
30
0
41
1
10
36.5973134308112
20
-3.11007248184831
30
0
41
1
10
36.3963463246738
20
-3.0356508086802
30
0
41
1
10
35.9933587359405
20
-2.87892696562767
30
0
41
1
10
35.7910420539595
20
-2.79649997786572
30
0
41
1
10
35.1841053313478
20
-2.53883708714969
30
0
41
1
10
34.780762350422
20
-2.35380247456436
30
0
41
1
10
34.175434130371
20
-2.05959367219953
30
0
41
1
10
33.9736056766003
20
-1.95874675758469
30
0
41
1
10
33.5694157529897
20
-1.75212213228144
30
0
41
1
10
33.3666924213994
20
-1.64614986025538
30
0
41
1
10
32.7608314905083
20
-1.32343079174945
30
0
41
1
10
32.3595624351913
20
-1.10187220168561
30
0
41
1
10
31.159034593634
20
-0.426112601078728
30
0
41
1
10
30.3630998194184
20
0.0392483781367616
30
0
41
1
10
29.3590489003965
20
0.61372215684554
30
0
41
1
10
29.1577954994104
20
0.728279908021221
30
0
41
1
10
28.7539333123665
20
0.955891783617091
30
0
41
1
10
28.5511732173976
20
1.06901969533294
30
0
41
1
10
27.9447319306981
20
1.40288379569469
30
0
41
1
10
27.541447697719
20
1.61881881338405
30
0
41
1
10
26.7338382978222
20
2.03253231613905
30
0
41
1
10
26.3285451453858
20
2.23073460131749
30
0
41
1
10
25.5202187973048
20
2.60123116035791
30
0
41
1
10
25.116922117523
20
2.77367515179341
30
0
41
1
10
24.3090823656896
20
3.08915479892164
30
0
41
1
10
23.9036085341548
20
3.23225629723413
30
0
41
1
10
23.0953535068675
20
3.48300548166304
30
0
41
1
10
22.6920865568908
20
3.59110022796816
30
0
41
1
10
21.8839450254291
20
3.76993136494556
30
0
41
1
10
21.4784621493407
20
3.84059225046423
30
0
41
1
10
20.6703510668989
20
3.94152393404471
30
0
41
1
10
20.2670388143456
20
3.97209798198745
30
0
41
1
10
19.7606684947172
20
3.98485886845242
30
0
41
1
10
19.6584761876527
20
3.98613054169263
30
0
41
1
10
19.5562550323661
20
3.98610081074548
30
0
0
SPLINE
5
9B
100
AcDbEntity
8
1
62
256
6
ByLayer
370
18
48
1
60
0
100
AcDbSpline
70
4
71
3
72
14
73
10
40
0
40
0
40
0
40
0
40
0.25
40
0.25
40
0.5
40
0.5
40
0.75
40
0.75
40
1
40
1
40
1
40
1
41
1
10
41.5494778811687
20
0.839978195231197
30
0
41
1
10
41.5488882882411
20
0.855201233282088
30
0
41
1
10
41.5524469526716
20
0.870545550121022
30
0
41
1
10
41.5681262816499
20
0.897108094977824
30
0
41
1
10
41.5802214658878
20
0.908223307937874
30
0
41
1
10
41.6073591213614
20
0.924132254476604
30
0
41
1
10
41.6226059855589
20
0.929332289157969
30
0
41
1
10
41.6533336906121
20
0.935504680680992
30
0
41
1
10
41.6690615435052
20
0.936573140576456
30
0
41
1
10
41.6847994846061
20
0.936129156910368
30
0
0
SPLINE
5
9C
100
AcDbEntity
8
1
62
256
6
ByLayer
370
18
48
1
60
0
100
AcDbSpline
70
4
71
3
72
8
73
4
40
0
40
0
40
0
40
0
40
1
40
1
40
1
40
1
41
1
10
2.80284512413573
20
3.02916909333112
30
0
41
1
10
2.7971813556417
20
3.03976964874039
30
0
41
1
10
2.7942094712667
20
3.05068535759145
30
0
41
1
10
2.79420994941563
20
3.06174161265906
30
0
0
SPLINE
5
9D
100
AcDbEntity
8
1
62
256
6
ByLayer
370
18
48
1
60
0
100
AcDbSpline
70
4
71
3
72
14
73
10
40
0
40
0
40
0
40
0
40
0.25
40
0.25
40
0.5
40
0.5
40
0.75
40
0.75
40
1
40
1
40
1
40
1
41
1
10
41.6757281976966
20
-3.79881992639039
30
0
41
1
10
41.6789918012729
20
-3.79847880537207
30
0
41
1
10
41.6816175626017
20
-3.79975662151273
30
0
41
1
10
41.6851814178909
20
-3.80664594050271
30
0
41
1
10
41.6860697545626
20
-3.81232975982866
30
0
41
1
10
41.6849845790839
20
-3.82924470843685
30
0
41
1
10
41.682933219821
20
-3.84052364882709
30
0
41
1
10
41.6759608022734
20
-3.86618516163239
30
0
41
1
10
41.671118593663
20
-3.8803084731191
30
0
41
1
10
41.6658348491578
20
-3.89362432363885
30
0
0
SPLINE
5
9E
100
AcDbEntity
8
1
62
256
6
ByLayer
370
18
48
1
60
0
100
AcDbSpline
70
4
71
3
72
8
73
4
40
0
40
0
40
0
40
0
40
1
40
1
40
1
40
1
41
1
10
42.8709508188905
20
-0.934577513888797
30
0
41
1
10
42.8914176099449
20
-0.853082959320886
30
0
41
1
10
42.9097799471615
20
-0.772972614870952
30
0
41
1
10
42.9257848855013
20
-0.693842949377483
30
0
0
SPLINE
5
9F
100
AcDbEntity
8
1
62
256
6
ByLayer
370
18
48
1
60
0
100
AcDbSpline
70
4
71
3
72
32
73
28
40
0
40
0
40
0
40
0
40
0.0625000000000007
40
0.0625000000000007
40
0.093750000000001
40
0.093750000000001
40
0.125000000000001
40
0.125000000000001
40
0.187500000000001
40
0.187500000000001
40
0.250000000000001
40
0.250000000000001
40
0.312500000000001
40
0.312500000000001
40
0.375000000000001
40
0.375000000000001
40
0.500000000000001
40
0.500000000000001
40
0.562500000000001
40
0.562500000000001
40
0.625000000000001
40
0.625000000000001
40
0.75
40
0.75
40
0.875
40
0.875
40
1
40
1
40
1
40
1
41
1
10
37.8763604471465
20
1.68245034858396
30
0
41
1
10
37.8541925356816
20
1.56988294962068
30
0
41
1
10
37.8402135986405
20
1.45360445379035
30
0
41
1
10
37.8323995852744
20
1.27322537457866
30
0
41
1
10
37.8320156334885
20
1.21183599609432
30
0
41
1
10
37.8357203994406
20
1.08932028521656
30
0
41
1
10
37.8397809354443
20
1.02799163469359
30
0
41
1
10
37.8583447866312
20
0.843801063501871
30
0
41
1
10
37.8792140289906
20
0.720735046313195
30
0
41
1
10
37.9370978924102
20
0.474085378680314
30
0
41
1
10
37.9743535257588
20
0.350258027376299
30
0
41
1
10
38.0611019447849
20
0.110281136796459
30
0
41
1
10
38.1108063424729
20
-0.0069882448120495
30
0
41
1
10
38.2212764441576
20
-0.236775743860846
30
0
41
1
10
38.2822724461927
20
-0.349659063901015
30
0
41
1
10
38.478849602755
20
-0.679406696226522
30
0
41
1
10
38.624911541732
20
-0.883063992194764
30
0
41
1
10
38.8606756639575
20
-1.17058598829473
30
0
41
1
10
38.942086306336
20
-1.26338517933678
30
0
41
1
10
39.1099602083171
20
-1.44353914965595
30
0
41
1
10
39.1966618787015
20
-1.53109919473096
30
0
41
1
10
39.4601213957356
20
-1.78310185791514
30
0
41
1
10
39.6411424333494
20
-1.93804469100664
30
0
41
1
10
40.0120485350853
20
-2.22642002892837
30
0
41
1
10
40.2019729306724
20
-2.35975708811429
30
0
41
1
10
40.589264607224
20
-2.60836956062769
30
0
41
1
10
40.7871141477382
20
-2.7239208867872
30
0
41
1
10
40.986945561052
20
-2.83043766150846
30
0
0
SPLINE
5
A0
100
AcDbEntity
8
1
62
256
6
ByLayer
370
13
48
1
60
0
100
AcDbSpline
70
4
71
3
72
16
73
12
40
0
40
0
40
0
40
0
40
0.29028405230165
40
0.29028405230165
40
0.580568104603299
40
0.580568104603299
40
0.725710130754124
40
0.725710130754124
40
0.870852156904948
40
0.870852156904948
40
1
40
1
40
1
40
1
41
1
10
3.03938926213641
20
2.82154728064654
30
0
41
1
10
3.03941849869471
20
3.00086241154784
30
0
41
1
10
3.0394350617288
20
3.15669875975465
30
0
41
1
10
3.03945389475547
20
3.42153983191932
30
0
41
1
10
3.0394559764361
20
3.52704417374255
30
0
41
1
10
3.03945676465798
20
3.64549537794514
30
0
41
1
10
3.03945661982783
20
3.67835627020025
30
0
41
1
10
3.03945679788291
20
3.7304521378837
30
0
41
1
10
3.03945713166229
20
3.74950272440452
30
0
41
1
10
3.03945926979026
20
3.77180268226596
30
0
41
1
10
3.0394609215399
20
3.77673833124558
30
0
41
1
10
3.03946350555339
20
3.77608305122755
30
0
0
SPLINE
5
A1
100
AcDbEntity
8
1
62
256
6
ByLayer
370
18
48
1
60
0
100
AcDbSpline
70
4
71
3
72
72
73
68
40
0
40
0
40
0
40
0
40
0.0285068496139136
40
0.0285068496139136
40
0.0653357914961803
40
0.0653357914961803
40
0.102164733378447
40
0.102164733378447
40
0.138993675260714
40
0.138993675260714
40
0.17582261714298
40
0.17582261714298
40
0.212651559025247
40
0.212651559025247
40
0.23106602996638
40
0.23106602996638
40
0.249480500907514
40
0.249480500907514
40
0.267894971848647
40
0.267894971848647
40
0.28630944278978
40
0.28630944278978
40
0.323138384672047
40
0.323138384672047
40
0.34155285561318
40
0.34155285561318
40
0.359967326554313
40
0.359967326554313
40
0.396796268436579
40
0.396796268436579
40
0.433625210318845
40
0.433625210318845
40
0.470454152201111
40
0.470454152201111
40
0.507283094083377
40
0.507283094083377
40
0.544112035965642
40
0.544112035965642
40
0.580940977847908
40
0.580940977847908
40
0.617769919730173
40
0.617769919730173
40
0.654598861612439
40
0.654598861612439
40
0.691427803494704
40
0.691427803494704
40
0.72825674537697
40
0.72825674537697
40
0.746671216318102
40
0.746671216318102
40
0.765085687259234
40
0.765085687259234
40
0.801914629141497
40
0.801914629141497
40
0.820329100082628
40
0.820329100082628
40
0.83874357102376
40
0.83874357102376
40
0.875572512906022
40
0.875572512906022
40
0.912401454788284
40
0.912401454788284
40
0.949230396670546
40
0.949230396670546
40
0.986059338552808
40
0.986059338552808
40
1
40
1
40
1
40
1
41
1
10
13.2346301918413
20
2.91116245724643
30
0
41
1
10
13.4906076191546
20
3.01170602778066
30
0
41
1
10
13.746712121979
20
3.10592188228446
30
0
41
1
10
14.3334473436691
20
3.3080036278298
30
0
41
1
10
14.664905295438
20
3.41158507793574
30
0
41
1
10
15.3277223883551
20
3.59304996400761
30
0
41
1
10
15.6580091348594
20
3.67196044321406
30
0
41
1
10
16.318827750608
20
3.8041563940028
30
0
41
1
10
16.6502082737051
20
3.85710987160886
30
0
41
1
10
17.3132283918794
20
3.93715385160806
30
0
41
1
10
17.6437461873211
20
3.96356615483981
30
0
41
1
10
18.3053978702136
20
3.9891409149709
30
0
41
1
10
18.6353472387513
20
3.98837896020277
30
0
41
1
10
19.1319878115983
20
3.96665750841717
30
0
41
1
10
19.2980660340687
20
3.956017226222
30
0
41
1
10
19.6296424439119
20
3.9280041763673
30
0
41
1
10
19.7950413996339
20
3.91058966124081
30
0
41
1
10
20.1255553867933
20
3.86906074402913
30
0
41
1
10
20.2906410180607
20
3.84493044988872
30
0
41
1
10
20.6212013175925
20
3.79031820576128
30
0
41
1
10
20.7866540269024
20
3.75984649860817
30
0
41
1
10
21.2830232277124
20
3.65866452064463
30
0
41
1
10
21.6142111171505
20
3.57757249419336
30
0
41
1
10
22.1109630348296
20
3.43901582395648
30
0
41
1
10
22.2765232098825
20
3.39003020907572
30
0
41
1
10
22.607205500576
20
3.2861272748527
30
0
41
1
10
22.7722835028006
20
3.23115007738801
30
0
41
1
10
23.2677097898184
20
3.05805474473885
30
0
41
1
10
23.598857331698
20
2.93238309962894
30
0
41
1
10
24.2620214588692
20
2.66024601817404
30
0
41
1
10
24.592079487927
20
2.51418070108801
30
0
41
1
10
25.2534614491205
20
2.2080445012129
30
0
41
1
10
25.5837751426888
20
2.04661399826006
30
0
41
1
10
26.2454749513205
20
1.70944560220084
30
0
41
1
10
26.5777455641137
20
1.53535538877026
30
0
41
1
10
27.2386820374568
20
1.17653385941853
30
0
41
1
10
27.568598014275
20
0.992400195363899
30
0
41
1
10
28.2304429179287
20
0.619997969530374
30
0
41
1
10
28.5618574028075
20
0.429351535957295
30
0
41
1
10
29.2234933346198
20
0.0479973440118329
30
0
41
1
10
29.5543095535907
20
-0.141957697571286
30
0
41
1
10
30.2147755984267
20
-0.522454181708781
30
0
41
1
10
30.5454614917485
20
-0.711531420182808
30
0
41
1
10
31.2088141477087
20
-1.0833937398377
30
0
41
1
10
31.5387229247855
20
-1.26709444108454
30
0
41
1
10
32.1995794184432
20
-1.62243952150686
30
0
41
1
10
32.5301954887081
20
-1.79469473084782
30
0
41
1
10
33.0263663181696
20
-2.04490153870222
30
0
41
1
10
33.1920614569431
20
-2.12682834264402
30
0
41
1
10
33.52328840098
20
-2.28603472972529
30
0
41
1
10
33.6888482858527
20
-2.3634498519157
30
0
41
1
10
34.1847816464467
20
-2.58999748174
30
0
41
1
10
34.5143029026721
20
-2.73346307309612
30
0
41
1
10
35.0104473945327
20
-2.93275560621223
30
0
41
1
10
35.1760644371092
20
-2.99665620333551
30
0
41
1
10
35.5073349261309
20
-3.11985909796135
30
0
41
1
10
35.6729067017929
20
-3.1790423921415
30
0
41
1
10
36.1687929266986
20
-3.34779221058068
30
0
41
1
10
36.4994827056711
20
-3.44827322045961
30
0
41
1
10
37.1600138944223
20
-3.62634780043973
30
0
41
1
10
37.4903479595276
20
-3.70359173429412
30
0
41
1
10
38.1534817100574
20
-3.83158035990337
30
0
41
1
10
38.4837130586697
20
-3.88274511092567
30
0
41
1
10
39.1440507064932
20
-3.95813518721479
30
0
41
1
10
39.4749576235916
20
-3.9822523065954
30
0
41
1
10
39.9311225016682
20
-3.99687551491675
30
0
41
1
10
40.0564734502176
20
-3.99892075277691
30
0
41
1
10
40.1817409476593
20
-3.99899374559396
30
0
0
SPLINE
5
A2
100
AcDbEntity
8
1
62
256
6
ByLayer
370
18
48
1
60
0
100
AcDbSpline
70
4
71
3
72
21
73
17
40
0
40
0
40
0
40
0
40
0.0378778071109687
40
0.0378778071109687
40
0.144780272987528
40
0.144780272987528
40
0.358585204740646
40
0.358585204740646
40
0.465487670617205
40
0.465487670617205
40
0.572390136493764
40
0.679292602370323
40
0.679292602370323
40
0.786195068246882
40
0.786195068246882
40
1
40
1
40
1
40
1
41
1
10
2.79423617862352
20
-3.97562800977437
30
0
41
1
10
2.79423649587758
20
-3.97569056745971
30
0
41
1
10
2.7942368409291
20
-3.97485366102495
30
0
41
1
10
2.79423828475598
20
-3.96818225470957
30
0
41
1
10
2.79423961202889
20
-3.95594181890024
30
0
41
1
10
2.79424451861667
20
-3.8983899655172
30
0
41
1
10
2.79424906255886
20
-3.8324161396869
30
0
41
1
10
2.79425819841106
20
-3.69170031676961
30
0
41
1
10
2.7942616453976
20
-3.63745395720875
30
0
41
1
10
2.79426913096879
20
-3.51713086587901
30
0
41
1
10
2.79427722956785
20
-3.38466038823222
30
0
41
1
10
2.79428634511913
20
-3.22837528612638
30
0
41
1
10
2.79429582137806
20
-3.0600363340339
30
0
41
1
10
2.79430076843926
20
-2.96928859390888
30
0
41
1
10
2.79431562953462
20
-2.68245966997492
30
0
41
1
10
2.79432551279115
20
-2.47340555139829
30
0
41
1
10
2.79433429567752
20
-2.24693853962998
30
0
0
SPLINE
5
A3
100
AcDbEntity
8
1
62
256
6
ByLayer
370
18
48
1
60
0
100
AcDbSpline
70
4
71
3
72
14
73
10
40
0
40
0
40
0
40
0
40
0.513174685001153
40
0.513174685001153
40
0.791997877236846
40
0.791997877236846
40
0.931409473354691
40
0.931409473354691
40
1
40
1
40
1
40
1
41
1
10
19.7558157453803
20
-3.78621964455834
30
0
41
1
10
19.0122369082529
20
-3.78576325847786
30
0
41
1
10
18.2751056247468
20
-3.71973606466437
30
0
41
1
10
17.1344062617538
20
-3.52236086823766
30
0
41
1
10
16.7321960057819
20
-3.434623975309
30
0
41
1
10
16.1258575177651
20
-3.27682814464407
30
0
41
1
10
15.9227760393923
20
-3.21972589691021
30
0
41
1
10
15.6206619117529
20
-3.12869632767141
30
0
41
1
10
15.5211965678666
20
-3.09774153202935
30
0
41
1
10
15.4218657502347
20
-3.06588124825245
30
0
0
SPLINE
5
A4
100
AcDbEntity
8
1
62
256
6
ByLayer
370
13
48
1
60
0
100
AcDbSpline
70
4
71
3
72
26
73
22
40
0
40
0
40
0
40
0
40
0.0301412037135996
40
0.0301412037135996
40
0.267473587911075
40
0.267473587911075
40
0.386139780009811
40
0.386139780009811
40
0.445472876059179
40
0.445472876059179
40
0.504805972108548
40
0.504805972108548
40
0.742138356306021
40
0.742138356306021
40
0.860804548404757
40
0.860804548404757
40
0.920137644454126
40
0.920137644454126
40
0.979470740503495
40
0.979470740503495
40
1
40
1
40
1
40
1
41
1
10
15.4218657503293
20
-3.06588124828281
30
0
41
1
10
15.3193047250318
20
-3.03298487786859
30
0
41
1
10
15.2168871177595
20
-2.99912316934649
30
0
41
1
10
14.3090607184064
20
-2.69037509992194
30
0
41
1
10
13.5108732141343
20
-2.35875284097304
30
0
41
1
10
12.3080008686601
20
-1.79932276411046
30
0
41
1
10
11.9061760919865
20
-1.60232812167368
30
0
41
1
10
11.2999666807875
20
-1.2944579443824
30
0
41
1
10
11.0968550408835
20
-1.18953340218229
30
0
41
1
10
10.691879901358
20
-0.977580512529755
30
0
41
1
10
10.4900220361799
20
-0.870567519343183
30
0
41
1
10
9.48303412629508
20
-0.331910012727946
30
0
41
1
10
8.68494471447985
20
0.110773987480741
30
0
41
1
10
7.48177876854274
20
0.760137033458676
30
0
41
1
10
7.07979633848055
20
0.974290698128556
30
0
41
1
10
6.47352802890478
20
1.28852615406936
30
0
41
1
10
6.27043413829296
20
1.39220607005555
30
0
41
1
10
5.86512868717901
20
1.59522423686488
30
0
41
1
10
5.66292687854542
20
1.69458670125417
30
0
41
1
10
5.39109961110091
20
1.82502107857403
30
0
41
1
10
5.32125859239594
20
1.85826524361715
30
0
41
1
10
5.25144420775243
20
1.89121238310824
30
0
0
SPLINE
5
A5
100
AcDbEntity
8
1
62
256
6
ByLayer
370
18
48
1
60
0
100
AcDbSpline
70
4
71
3
72
12
73
8
40
0
40
0
40
0
40
0
40
0.25
40
0.25
40
0.5
40
0.5
40
1
40
1
40
1
40
1
41
1
10
41.7891977794314
20
-3.89250980513543
30
0
41
1
10
41.8756879822391
20
-3.6438315564059
30
0
41
1
10
41.9633782010682
20
-3.3958950591508
30
0
41
1
10
42.1407449366612
20
-2.90118464118939
30
0
41
1
10
42.230425223822
20
-2.65441438108633
30
0
41
1
10
42.5017778903858
20
-1.9154459595685
30
0
41
1
10
42.6858399117716
20
-1.42461840542754
30
0
41
1
10
42.8709508188905
20
-0.934577513888797
30
0
0
SPLINE
5
A6
100
AcDbEntity
8
1
62
256
6
ByLayer
370
18
48
1
60
0
100
AcDbSpline
70
4
71
3
72
14
73
10
40
0
40
0
40
0
40
0
40
0.551648086962951
40
0.551648086962951
40
0.827472130444431
40
0.827472130444431
40
0.96538415218517
40
0.96538415218517
40
1
40
1
40
1
40
1
41
1
10
41.6757281977142
20
-3.79881992639017
30
0
41
1
10
40.8679292391323
20
-3.80941362013789
30
0
41
1
10
40.0683799249121
20
-3.74180690659585
30
0
41
1
10
38.8655940706846
20
-3.53127944173715
30
0
41
1
10
38.4641386580453
20
-3.44289675716675
30
0
41
1
10
37.8588532238199
20
-3.28408996492578
30
0
41
1
10
37.6562508676335
20
-3.22666983875877
30
0
41
1
10
37.4029164955485
20
-3.14977191208285
30
0
41
1
10
37.3521306039456
20
-3.13410038792821
30
0
41
1
10
37.3013848313784
20
-3.11818993701738
30
0
0
SPLINE
5
A7
100
AcDbEntity
8
1
62
256
6
ByLayer
370
13
48
1
60
0
100
AcDbSpline
70
4
71
3
72
24
73
20
40
0
40
0
40
0
40
0
40
0.0444431474819885
40
0.0444431474819885
40
0.281789610132142
40
0.281789610132142
40
0.400462841457219
40
0.400462841457219
40
0.459799457119757
40
0.459799457119757
40
0.519136072782296
40
0.519136072782296
40
0.756482535432449
40
0.756482535432449
40
0.875155766757526
40
0.875155766757526
40
0.993828998082603
40
0.993828998082603
40
1
40
1
40
1
40
1
41
1
10
37.3013847535627
20
-3.11818991261964
30
0
41
1
10
37.1499557527472
20
-3.07071199276538
30
0
41
1
10
36.9988839991435
20
-3.02110650632974
30
0
41
1
10
36.0428165611978
20
-2.69374619733733
30
0
41
1
10
35.2452747457568
20
-2.36072040794443
30
0
41
1
10
34.0443046241033
20
-1.79918778582447
30
0
41
1
10
33.6431363144492
20
-1.60180944120612
30
0
41
1
10
33.0381614293163
20
-1.29338348812104
30
0
41
1
10
32.8357331713013
20
-1.18833675929932
30
0
41
1
10
32.4305084056068
20
-0.9753723876984
30
0
41
1
10
32.2285557306737
20
-0.867914042475235
30
0
41
1
10
31.22138949347
20
-0.327042995429565
30
0
41
1
10
30.4235969915239
20
0.116408673903578
30
0
41
1
10
29.2225318507985
20
0.767404197876772
30
0
41
1
10
28.8214543412859
20
0.982055147723742
30
0
41
1
10
28.0149200505474
20
1.40119508004415
30
0
41
1
10
27.6082548324164
20
1.60626700449151
30
0
41
1
10
27.1842146929287
20
1.81048270330251
30
0
41
1
10
27.1632599584264
20
1.8205493354105
30
0
41
1
10
27.1423104386757
20
1.83058803918564
30
0
0
SPLINE
5
A8
100
AcDbEntity
8
1
62
256
6
ByLayer
370
18
48
1
60
0
100
AcDbSpline
70
4
71
3
72
10
73
6
40
0
40
0
40
0
40
0
40
0.613725057925278
40
0.613725057925278
40
1
40
1
40
1
40
1
41
1
10
10.031146319829
20
3.67971487670047
30
0
41
1
10
9.72350806898839
20
3.71700487645737
30
0
41
1
10
9.41894405760684
20
3.74447945516519
30
0
41
1
10
8.92528838947266
20
3.77186046117038
30
0
41
1
10
8.73497546898102
20
3.77805838814717
30
0
41
1
10
8.54520458435042
20
3.77936034754134
30
0
0
SPLINE
5
A9
100
AcDbEntity
8
1
62
256
6
ByLayer
370
18
48
1
60
0
100
AcDbSpline
70
4
71
3
72
44
73
40
40
0
40
0
40
0
40
0
40
0.125000000000002
40
0.125000000000002
40
0.187500000000007
40
0.187500000000007
40
0.250000000000011
40
0.250000000000011
40
0.375000000000019
40
0.375000000000019
40
0.500000000000027
40
0.500000000000027
40
0.562500000000031
40
0.562500000000031
40
0.625000000000035
40
0.625000000000035
40
0.750000000000043
40
0.750000000000043
40
0.812500000000044
40
0.812500000000044
40
0.843750000000042
40
0.843750000000042
40
0.859375000000043
40
0.859375000000043
40
0.867187500000044
40
0.867187500000044
40
0.875000000000045
40
0.875000000000045
40
0.882812500000046
40
0.882812500000046
40
0.886718750000044
40
0.886718750000044
40
0.890625000000043
40
0.890625000000043
40
0.906250000000036
40
0.906250000000036
40
0.937500000000024
40
0.937500000000024
40
1
40
1
40
1
40
1
41
1
10
37.8763604471465
20
1.68245034858387
30
0
41
1
10
38.0259610573008
20
1.5302912221392
30
0
41
1
10
38.1809103537973
20
1.38721633896967
30
0
41
1
10
38.4214905190221
20
1.18645659152236
30
0
41
1
10
38.5031214208456
20
1.12197815773413
30
0
41
1
10
38.6691707693694
20
0.997755674300151
30
0
41
1
10
38.7538683641999
20
0.937788787502313
30
0
41
1
10
39.0098626745822
20
0.766756018041008
30
0
41
1
10
39.1826440124328
20
0.665138930674232
30
0
41
1
10
39.5323430057734
20
0.486125142437999
30
0
41
1
10
39.7091881174229
20
0.408303657979616
30
0
41
1
10
39.9781283590231
20
0.313076347626975
30
0
41
1
10
40.0683776038161
20
0.284861861506755
30
0
41
1
10
40.2501047797381
20
0.235627515149531
30
0
41
1
10
40.3417637641695
20
0.214641322036812
30
0
41
1
10
40.6146875044204
20
0.165043472500315
30
0
41
1
10
40.7952412376507
20
0.148874463836137
30
0
41
1
10
41.0631773425632
20
0.154702357752683
30
0
41
1
10
41.1515278919188
20
0.161662154465489
30
0
41
1
10
41.2818343201202
20
0.181006161882436
30
0
41
1
10
41.3248822352737
20
0.188937973089992
30
0
41
1
10
41.3887838987454
20
0.203063257231236
30
0
41
1
10
41.4099661456776
20
0.208141254982365
30
0
41
1
10
41.4415607913464
20
0.216316552754535
30
0
41
1
10
41.4520633130322
20
0.219135068225825
30
0
41
1
10
41.4730038439349
20
0.224958761009532
30
0
41
1
10
41.4835955958745
20
0.227522727570601
30
0
41
1
10
41.5040643307267
20
0.234697421056296
30
0
41
1
10
41.513582386883
20
0.240291615611227
30
0
41
1
10
41.524498137608
20
0.253039063690466
30
0
41
1
10
41.5275913239202
20
0.258086091419074
30
0
41
1
10
41.5319631753335
20
0.269335899474498
30
0
41
1
10
41.5329613351973
20
0.275676906972762
30
0
41
1
10
41.5365955120977
20
0.308069488823861
30
0
41
1
10
41.5389205225912
20
0.334195163133529
30
0
41
1
10
41.5453550097865
20
0.412768610326083
30
0
41
1
10
41.5484059175506
20
0.465514076031951
30
0
41
1
10
41.5542213078243
20
0.624657566179252
30
0
41
1
10
41.5536489029516
20
0.732284190861606
30
0
41
1
10
41.5494778811686
20
0.839978195231168
30
0
0
SPLINE
5
AA
100
AcDbEntity
8
1
62
256
6
ByLayer
370
18
48
1
60
0
100
AcDbSpline
70
4
71
3
72
56
73
52
40
0
40
0
40
0
40
0
40
0.0312499999999995
40
0.0312499999999995
40
0.062499999999999
40
0.062499999999999
40
0.0937499999999985
40
0.0937499999999985
40
0.124999999999998
40
0.124999999999998
40
0.140624999999998
40
0.140624999999998
40
0.156249999999998
40
0.156249999999998
40
0.171874999999997
40
0.171874999999997
40
0.187499999999997
40
0.187499999999997
40
0.203124999999997
40
0.203124999999997
40
0.218749999999997
40
0.218749999999997
40
0.234374999999996
40
0.234374999999996
40
0.249999999999996
40
0.249999999999996
40
0.281249999999994
40
0.281249999999994
40
0.312499999999992
40
0.312499999999992
40
0.328124999999992
40
0.328124999999992
40
0.343749999999992
40
0.343749999999992
40
0.347656249999993
40
0.347656249999993
40
0.351562499999993
40
0.351562499999993
40
0.359374999999994
40
0.359374999999994
40
0.374999999999994
40
0.374999999999994
40
0.499999999999995
40
0.499999999999995
40
0.624999999999996
40
0.624999999999996
40
0.749999999999997
40
0.749999999999997
40
0.874999999999999
40
0.874999999999999
40
1
40
1
40
1
40
1
41
1
10
2.79433429567752
20
-2.24693853962998
30
0
41
1
10
2.71444960539401
20
-2.18155345484394
30
0
41
1
10
2.63654613998906
20
-2.11262074106978
30
0
41
1
10
2.48631902312323
20
-1.9651681730731
30
0
41
1
10
2.41501012763231
20
-1.88763429461238
30
0
41
1
10
2.2833164951916
20
-1.72299637260971
30
0
41
1
10
2.22257252149325
20
-1.63546466555331
30
0
41
1
10
2.11794490639286
20
-1.4482537470021
30
0
41
1
10
2.07483285448256
20
-1.35014627600415
30
0
41
1
10
2.0296739015798
20
-1.19372246342067
30
0
41
1
10
2.01788590613396
20
-1.13964802953438
30
0
41
1
10
2.00270298825859
20
-1.03105160315215
30
0
41
1
10
1.99920098944298
20
-0.976277861164562
30
0
41
1
10
2.00104701257601
20
-0.86573823065342
30
0
41
1
10
2.0065264773944
20
-0.809436550119869
30
0
41
1
10
2.02648265348699
20
-0.699094466028498
30
0
41
1
10
2.04084901668577
20
-0.645004245086909
30
0
41
1
10
2.07774385646655
20
-0.538857157898747
30
0
41
1
10
2.1004646849411
20
-0.486454451479773
30
0
41
1
10
2.15272471816391
20
-0.385308682335562
30
0
41
1
10
2.18201631752226
20
-0.336881546133128
30
0
41
1
10
2.24589279639912
20
-0.243628618667486
30
0
41
1
10
2.28048165503367
20
-0.198805487702856
30
0
41
1
10
2.35420495213214
20
-0.112259343048009
30
0
41
1
10
2.39351621755881
20
-0.0703848115569485
30
0
41
1
10
2.51534615651505
20
0.0492403173725506
30
0
41
1
10
2.60208578497532
20
0.121670192092211
30
0
41
1
10
2.78342706981891
20
0.256126318920621
30
0
41
1
10
2.87806340887136
20
0.318106264345204
30
0
41
1
10
3.02461846281949
20
0.40500162106261
30
0
41
1
10
3.07420818835374
20
0.432919752697728
30
0
41
1
10
3.17432071820224
20
0.486692723992803
30
0
41
1
10
3.22507872467233
20
0.512158167027707
30
0
41
1
10
3.28865001307577
20
0.543959312499766
30
0
41
1
10
3.30147152102046
20
0.550019496094848
30
0
41
1
10
3.32869409508913
20
0.557756895511545
30
0
41
1
10
3.34303072742233
20
0.560113869300864
30
0
41
1
10
3.38585973211732
20
0.563502742074945
30
0
41
1
10
3.41402130113744
20
0.560148925355861
30
0
41
1
10
3.49873747544734
20
0.553408458669935
30
0
41
1
10
3.55519199488896
20
0.548584537857522
30
0
41
1
10
4.06307716572132
20
0.502204366147225
30
0
41
1
10
4.51182673271512
20
0.440007254768517
30
0
41
1
10
5.40335842241583
20
0.275134252364353
30
0
41
1
10
5.84251497122452
20
0.173027953235362
30
0
41
1
10
6.70816905858348
20
-0.0658913047879821
30
0
41
1
10
7.13471931462698
20
-0.202852199802635
30
0
41
1
10
7.97716791175276
20
-0.504985740550836
30
0
41
1
10
8.39307372579361
20
-0.670129296217681
30
0
41
1
10
9.2170469410068
20
-1.01929438290912
30
0
41
1
10
9.62514931501036
20
-1.20321132933313
30
0
41
1
10
10.031146319829
20
-1.39088484445602
30
0
0
SPLINE
5
AB
100
AcDbEntity
8
1
62
256
6
ByLayer
370
18
48
1
60
0
100
AcDbSpline
70
4
71
3
72
16
73
12
40
0
40
0
40
0
40
0
40
0.255992242616351
40
0.255992242616351
40
0.354224109760641
40
0.354224109760641
40
0.452455976904931
40
0.452455976904931
40
0.648919711193512
40
0.648919711193512
40
1
40
1
40
1
40
1
41
1
10
8.67826780952728
20
-0.00028394227229
30
0
41
1
10
9.20034410226498
20
-0.29283182262148
30
0
41
1
10
9.72242843683657
20
-0.585606078345847
30
0
41
1
10
10.4494741805524
20
-0.982640435750113
30
0
41
1
10
10.6515804571965
20
-1.09189594245277
30
0
41
1
10
11.0571161264449
20
-1.30806710922036
30
0
41
1
10
11.2604940838911
20
-1.41494370621694
30
0
41
1
10
11.8673607469549
20
-1.72812144391054
30
0
41
1
10
12.2694848736828
20
-1.92799185626774
30
0
41
1
10
13.3878708227015
20
-2.45359568842005
30
0
41
1
10
14.1018849707816
20
-2.75552699956393
30
0
41
1
10
14.8210928304941
20
-3.01052329073144
30
0
0
SPLINE
5
AC
100
AcDbEntity
8
1
62
256
6
ByLayer
370
13
48
1
60
0
100
AcDbSpline
70
4
71
3
72
20
73
16
40
0
40
0
40
0
40
0
40
0.0412315101764498
40
0.0412315101764498
40
0.138018157500654
40
0.138018157500654
40
0.234804804824857
40
0.234804804824857
40
0.428378099473262
40
0.428378099473262
40
0.81552468877007
40
0.81552468877007
40
0.912311336094273
40
0.912311336094273
40
1
40
1
40
1
40
1
41
1
10
14.8210928305046
20
-3.01052329073519
30
0
41
1
10
14.9068191488318
20
-3.04091769331802
30
0
41
1
10
14.9926192571281
20
-3.07064526379361
30
0
41
1
10
15.2801200572294
20
-3.16785584208125
30
0
41
1
10
15.4822048811974
20
-3.23225583024489
30
0
41
1
10
15.8877552023229
20
-3.3529651601626
30
0
41
1
10
16.0910820176623
20
-3.40921335177188
30
0
41
1
10
16.6980724411376
20
-3.56391558746034
30
0
41
1
10
17.1006341513328
20
-3.64889749953863
30
0
41
1
10
18.3064550638149
20
-3.84700544761751
30
0
41
1
10
19.1079450156513
20
-3.90352274833947
30
0
41
1
10
20.1209858996686
20
-3.87403609514573
30
0
41
1
10
20.3243076447003
20
-3.86311365297368
30
0
41
1
10
20.7108591204536
20
-3.83294227242888
30
0
41
1
10
20.8944626441878
20
-3.81459974323201
30
0
41
1
10
21.0780268294969
20
-3.79223395555832
30
0
0
SPLINE
5
AD
100
AcDbEntity
8
1
62
256
6
ByLayer
370
18
48
1
60
0
100
AcDbSpline
70
4
71
3
72
14
73
10
40
0
40
0
40
0
40
0
40
0.322495994388481
40
0.322495994388481
40
0.569714002126616
40
0.569714002126616
40
0.81693200986475
40
0.81693200986475
40
1
40
1
40
1
40
1
41
1
10
30.4374882762193
20
-0.0058370038318003
30
0
41
1
10
30.9597033242447
20
-0.299402204741369
30
0
41
1
10
31.4823542895663
20
-0.593192534486377
30
0
41
1
10
32.4120158004579
20
-1.10244850905499
30
0
41
1
10
32.8191499945412
20
-1.32102884667097
30
0
41
1
10
33.6264358047965
20
-1.73866980372381
30
0
41
1
10
34.0278647450583
20
-1.93852454944752
30
0
41
1
10
34.7251450156465
20
-2.26731640930905
30
0
41
1
10
35.0213756131087
20
-2.40115767906207
30
0
41
1
10
35.3177549467109
20
-2.52813274938407
30
0
0
SPLINE
5
AE
100
AcDbEntity
8
1
62
256
6
ByLayer
370
13
48
1
60
0
100
AcDbSpline
70
4
71
3
72
16
73
12
40
0
40
0
40
0
40
0
40
0.239469645480785
40
0.239469645480785
40
0.334535939795685
40
0.334535939795685
40
0.429602234110586
40
0.429602234110586
40
0.619734822740392
40
0.619734822740392
40
1
40
1
40
1
40
1
41
1
10
35.3177549468418
20
-2.52813274944009
30
0
41
1
10
35.8218466112527
20
-2.74409610207454
30
0
41
1
10
36.3263685443141
20
-2.94019669397096
30
0
41
1
10
37.0357707760612
20
-3.18075670315946
30
0
41
1
10
37.2378995725895
20
-3.2453295408269
30
0
41
1
10
37.6436047928875
20
-3.36639050932274
30
0
41
1
10
37.8462952932026
20
-3.42260105593908
30
0
41
1
10
38.4520353514673
20
-3.57732729360887
30
0
41
1
10
38.853721197589
20
-3.66227735495539
30
0
41
1
10
40.0572095462413
20
-3.86046085835994
30
0
41
1
10
40.857237063883
20
-3.91728703134922
30
0
41
1
10
41.6658348491579
20
-3.89362432363885
30
0
0
SPLINE
5
AF
100
AcDbEntity
8
1
62
256
6
ByLayer
370
18
48
1
60
0
100
AcDbSpline
70
4
71
3
72
8
73
4
40
0
40
0
40
0
40
0
40
1
40
1
40
1
40
1
41
1
10
41.6252450828928
20
3.99554543729661
30
0
41
1
10
41.5175354798239
20
3.99838504217479
30
0
41
1
10
41.4098556335088
20
3.99976795584701
30
0
41
1
10
41.302178584711
20
3.99969710765674
30
0
0
SPLINE
5
B0
100
AcDbEntity
8
1
62
256
6
ByLayer
370
18
48
1
60
0
100
AcDbSpline
70
4
71
3
72
46
73
42
40
0
40
0
40
0
40
0
40
0.0018031237860038
40
0.0018031237860038
40
0.0340030230187137
40
0.0340030230187137
40
0.0984028214841339
40
0.0984028214841339
40
0.130602720716844
40
0.130602720716844
40
0.162802619949555
40
0.162802619949555
40
0.227202418414975
40
0.227202418414975
40
0.259402317647685
40
0.259402317647685
40
0.291602216880395
40
0.291602216880395
40
0.356002015345814
40
0.356002015345814
40
0.484801612276652
40
0.484801612276652
40
0.549201410742071
40
0.549201410742071
40
0.58140130997478
40
0.58140130997478
40
0.613601209207489
40
0.613601209207489
40
0.678001007672906
40
0.678001007672906
40
0.710200906905616
40
0.710200906905616
40
0.742400806138324
40
0.742400806138324
40
0.806800604603744
40
0.806800604603744
40
0.839000503836454
40
0.839000503836454
40
0.871200403069163
40
0.871200403069163
40
1
40
1
40
1
40
1
41
1
10
21.7307843468455
20
-3.79171032621809
30
0
41
1
10
21.7194622713683
20
-3.79372146877967
30
0
41
1
10
21.7081412197541
20
-3.79571711670701
30
0
41
1
10
21.4946745606476
20
-3.83305702098966
30
0
41
1
10
21.2927979340811
20
-3.86349844182794
30
0
41
1
10
20.6874260067764
20
-3.93992366556577
30
0
41
1
10
20.284381874566
20
-3.97106253721341
30
0
41
1
10
19.678046917097
20
-3.98722124611524
30
0
41
1
10
19.4754990531084
20
-3.98750516316051
30
0
41
1
10
19.0713267881053
20
-3.97788791831897
30
0
41
1
10
18.8694825653662
20
-3.96800057881677
30
0
41
1
10
18.2641451844464
20
-3.9232657362943
30
0
41
1
10
17.8610042665405
20
-3.87328206321948
30
0
41
1
10
17.254242939155
20
-3.76880911065524
30
0
41
1
10
17.0517730391529
20
-3.72908137841742
30
0
41
1
10
16.6477881332802
20
-3.64036651589686
30
0
41
1
10
16.4460172556383
20
-3.59135425693424
30
0
41
1
10
15.8407364785099
20
-3.43088356644418
30
0
41
1
10
15.4373301429249
20
-3.30594007129704
30
0
41
1
10
14.2229576253638
20
-2.88091768526743
30
0
41
1
10
13.4179279806897
20
-2.53425653366042
30
0
41
1
10
12.2034834138015
20
-1.94511517742524
30
0
41
1
10
11.8001581705389
20
-1.73828455488623
30
0
41
1
10
11.1947882053834
20
-1.41653700444343
30
0
41
1
10
10.9929481024966
20
-1.30735137580186
30
0
41
1
10
10.5888065994756
20
-1.0856875256039
30
0
41
1
10
10.3862645433385
20
-0.973074398323462
30
0
41
1
10
9.77938650200787
20
-0.632292451937218
30
0
41
1
10
9.37608736290471
20
-0.401349252095713
30
0
41
1
10
8.77064854601474
20
-0.0535157298364197
30
0
41
1
10
8.56875279102613
20
0.062663124224116
30
0
41
1
10
8.16439688162473
20
0.294793528658488
30
0
41
1
10
7.96173322032203
20
0.410859211856064
30
0
41
1
10
7.35499085853598
20
0.756175272790955
30
0
41
1
10
6.95166406608726
20
0.983163377660674
30
0
41
1
10
6.34605063092462
20
1.3147786212923
30
0
41
1
10
6.14404637315715
20
1.42379115187202
30
0
41
1
10
5.73943944872772
20
1.63820396572311
30
0
41
1
10
5.53681440371659
20
1.74360734976528
30
0
41
1
10
4.52666255364747
20
2.2570555536679
30
0
41
1
10
3.72416851089102
20
2.6275659384178
30
0
41
1
10
2.91463080836993
20
2.94001354093695
30
0
0
SPLINE
5
B1
100
AcDbEntity
8
1
62
256
6
ByLayer
370
18
48
1
60
0
100
AcDbSpline
70
4
71
3
72
8
73
4
40
0
40
0
40
0
40
0
40
1
40
1
40
1
40
1
41
1
10
41.7891977794383
20
-3.89250980511525
30
0
41
1
10
41.7362384179794
20
-3.9497718272886
30
0
41
1
10
41.681813400731
20
-3.98402645212912
30
0
41
1
10
41.6252450828927
20
-3.99554543729661
30
0
0
SPLINE
5
B2
100
AcDbEntity
8
1
62
256
6
ByLayer
370
18
48
1
60
0
100
AcDbSpline
70
4
71
3
72
10
73
6
40
0
40
0
40
0
40
0
40
0.5
40
0.5
40
1
40
1
40
1
40
1
41
1
10
2.91463080836962
20
2.94001354093709
30
0
41
1
10
2.88849851785787
20
2.95009950913018
30
0
41
1
10
2.8656460767464
20
2.96300983751459
30
0
41
1
10
2.82735386358158
20
2.99364241025492
30
0
41
1
10
2.81262652635911
20
3.0108617955733
30
0
41
1
10
2.8028451241355
20
3.02916909333152
30
0
0
SPLINE
5
B3
100
AcDbEntity
8
1
62
256
6
ByLayer
370
18
48
1
60
0
100
AcDbSpline
70
4
71
3
72
8
73
4
40
0
40
0
40
0
40
0
40
1
40
1
40
1
40
1
41
1
10
42.8630566768668
20
0.906330501965385
30
0
41
1
10
42.8872663795875
20
0.835559657435283
30
0
41
1
10
42.9080991209948
20
0.764729118088297
30
0
41
1
10
42.9257848855014
20
0.693842949377341
30
0
0
SPLINE
5
B4
100
AcDbEntity
8
1
62
256
6
ByLayer
370
18
48
1
60
0
100
AcDbSpline
70
4
71
3
72
8
73
4
40
0
40
0
40
0
40
0
40
1
40
1
40
1
40
1
41
1
10
42.9997389507228
20
-0.0399808775382269
30
0
41
1
10
43.0000870952555
20
-0.0133154757678255
30
0
41
1
10
43.0000869000915
20
0.0133304239423637
30
0
41
1
10
42.9997389507229
20
0.0399808775291319
30
0
0
SPLINE
5
B5
100
AcDbEntity
8
1
62
256
6
ByLayer
370
18
48
1
60
0
100
AcDbSpline
70
4
71
3
72
10
73
6
40
0
40
0
40
0
40
0
40
0.5
40
0.5
40
1
40
1
40
1
40
1
41
1
10
42.9913951531366
20
0.109022801946082
30
0
41
1
10
42.991680483111
20
0.0991748557325423
30
0
41
1
10
42.9925974466952
20
0.0883286800774954
30
0
41
1
10
42.9954541018389
20
0.0650424689794136
30
0
41
1
10
42.9973981160847
20
0.0526558994114339
30
0
41
1
10
42.9997389507229
20
0.0399808775296151
30
0
0
SPLINE
5
B6
100
AcDbEntity
8
1
62
256
6
ByLayer
370
18
48
1
60
0
100
AcDbSpline
70
4
71
3
72
8
73
4
40
0
40
0
40
0
40
0
40
1
40
1
40
1
40
1
41
1
10
41.6847994846061
20
0.936129156910368
30
0
41
1
10
42.0776898251618
20
0.925045312291616
30
0
41
1
10
42.4706275831974
20
0.9135658292426
30
0
41
1
10
42.8630566768668
20
0.906330501965385
30
0
0
SPLINE
5
B7
100
AcDbEntity
8
1
62
256
6
ByLayer
370
18
48
1
60
0
100
AcDbSpline
70
4
71
3
72
10
73
6
40
0
40
0
40
0
40
0
40
0.5
40
0.5
40
1
40
1
40
1
40
1
41
1
10
42.9997389507228
20
0.039980877529473
30
0
41
1
10
42.9964835350946
20
0.0237533301952908
30
0
41
1
10
42.9917023153291
20
0.0063378107297183
30
0
41
1
10
42.9795342910485
20
-0.0270039633651891
30
0
41
1
10
42.9720833523338
20
-0.0429534946815124
30
0
41
1
10
42.9643722325404
20
-0.0556838200429581
30
0
0
SPLINE
5
B8
100
AcDbEntity
8
1
62
256
6
ByLayer
370
18
48
1
60
0
100
AcDbSpline
70
4
71
3
72
8
73
4
40
0
40
0
40
0
40
0
40
1
40
1
40
1
40
1
41
1
10
42.9257848855013
20
-0.693842949377483
30
0
41
1
10
42.9619130204119
20
-0.498909579174949
30
0
41
1
10
42.9857468274681
20
-0.303970449901044
30
0
41
1
10
42.9913951531379
20
-0.109022801943894
30
0
0
SPLINE
5
B9
100
AcDbEntity
8
1
62
256
6
ByLayer
370
18
48
1
60
0
100
AcDbSpline
70
4
71
3
72
84
73
80
40
0
40
0
40
0
40
0
40
0.0232519554867258
40
0.0232519554867258
40
0.0581358142193411
40
0.0581358142193411
40
0.0930196729519564
40
0.0930196729519564
40
0.127903531684572
40
0.127903531684572
40
0.145345461050879
40
0.145345461050879
40
0.162787390417187
40
0.162787390417187
40
0.197671249149804
40
0.197671249149804
40
0.23255510788242
40
0.23255510788242
40
0.267438966615037
40
0.267438966615037
40
0.284880895981345
40
0.284880895981345
40
0.302322825347653
40
0.302322825347653
40
0.319764754713962
40
0.319764754713962
40
0.33720668408027
40
0.33720668408027
40
0.372090542812888
40
0.372090542812888
40
0.389532472179197
40
0.389532472179197
40
0.406974401545506
40
0.406974401545506
40
0.441858260278124
40
0.441858260278124
40
0.476742119010742
40
0.476742119010742
40
0.494184048377051
40
0.494184048377051
40
0.51162597774336
40
0.51162597774336
40
0.546509836475978
40
0.546509836475978
40
0.563951765842286
40
0.563951765842286
40
0.581393695208595
40
0.581393695208595
40
0.616277553941212
40
0.616277553941212
40
0.65116141267383
40
0.65116141267383
40
0.668603342040138
40
0.668603342040138
40
0.686045271406447
40
0.686045271406447
40
0.720929130139064
40
0.720929130139064
40
0.755812988871681
40
0.755812988871681
40
0.790696847604298
40
0.790696847604298
40
0.808138776970607
40
0.808138776970607
40
0.825580706336916
40
0.825580706336916
40
0.860464565069533
40
0.860464565069533
40
0.89534842380215
40
0.89534842380215
40
0.912790353168458
40
0.912790353168458
40
0.930232282534767
40
0.930232282534767
40
0.947674211901075
40
0.947674211901075
40
0.965116141267383
40
0.965116141267383
40
1
40
1
40
1
40
1
41
1
10
34.9780447076051
20
-2.91826881254343
30
0
41
1
10
34.7847429736111
20
-2.9860700213099
30
0
41
1
10
34.5912368082276
20
-3.05062311394329
30
0
41
1
10
34.1075622819972
20
-3.20294851983064
30
0
41
1
10
33.8182263492153
20
-3.28585200622075
30
0
41
1
10
33.238979605329
20
-3.43164346169806
30
0
41
1
10
32.9495022737774
20
-3.49641417587392
30
0
41
1
10
32.3701849662613
20
-3.60804153710106
30
0
41
1
10
32.0793790983242
20
-3.6539879888285
30
0
41
1
10
31.6445669359563
20
-3.70946236188112
30
0
41
1
10
31.4997531893789
20
-3.72552156403543
30
0
41
1
10
31.2101121209309
20
-3.75191043518163
30
0
41
1
10
31.0655246780377
20
-3.76240948650664
30
0
41
1
10
30.6313243451842
20
-3.78746374716457
30
0
41
1
10
30.3418650361497
20
-3.79501397446072
30
0
41
1
10
29.761448422763
20
-3.78803311486044
30
0
41
1
10
29.4711218162624
20
-3.77522610768224
30
0
41
1
10
28.8914589693287
20
-3.72963044628875
30
0
41
1
10
28.6019294438898
20
-3.69648568294312
30
0
41
1
10
28.1678950514456
20
-3.6330332069337
30
0
41
1
10
28.0231278038984
20
-3.60964094927806
30
0
41
1
10
27.7331739886287
20
-3.55776591755102
30
0
41
1
10
27.587997954936
20
-3.52907101973113
30
0
41
1
10
27.2975733206617
20
-3.46735551821803
30
0
41
1
10
27.1523391012034
20
-3.43463603790008
30
0
41
1
10
26.8623778258969
20
-3.36457165896727
30
0
41
1
10
26.7176753448129
20
-3.32720199871741
30
0
41
1
10
26.2831947777061
20
-3.20899779301118
30
0
41
1
10
25.9937991161127
20
-3.12150816454806
30
0
41
1
10
25.5590723109761
20
-2.97826562525748
30
0
41
1
10
25.4142510048841
20
-2.92818094704066
30
0
41
1
10
25.1239601457081
20
-2.82381236386866
30
0
41
1
10
24.9784435503007
20
-2.76976138243123
30
0
41
1
10
24.5426993783802
20
-2.60342408841498
30
0
41
1
10
24.2528682039929
20
-2.48608860233165
30
0
41
1
10
23.6739132535285
20
-2.23824250644179
30
0
41
1
10
23.3841816091776
20
-2.10901511169843
30
0
41
1
10
22.9489777645134
20
-1.90493871152867
30
0
41
1
10
22.8035578008147
20
-1.83569832218311
30
0
41
1
10
22.5128249443549
20
-1.6943640912034
30
0
41
1
10
22.3676376028422
20
-1.6227124606211
30
0
41
1
10
21.9321017953862
20
-1.40561941053869
30
0
41
1
10
21.6423228070411
20
-1.25706294238282
30
0
41
1
10
21.2075164578041
20
-1.029796671952
30
0
41
1
10
21.0627782497153
20
-0.952936583953004
30
0
41
1
10
20.7727183850977
20
-0.798525518928244
30
0
41
1
10
20.6274273023634
20
-0.720810789842488
30
0
41
1
10
20.1912066758472
20
-0.485969473278828
30
0
41
1
10
19.9002696899483
20
-0.327496591806124
30
0
41
1
10
19.3200930132383
20
-0.0099264585059871
30
0
41
1
10
19.0301102903862
20
0.148749649263266
30
0
41
1
10
18.5950297170584
20
0.386080631560901
30
0
41
1
10
18.449868612612
20
0.464865022502835
30
0
41
1
10
18.1594437118104
20
0.622035962936849
30
0
41
1
10
18.0139106779843
20
0.70004160633826
30
0
41
1
10
17.5771271004225
20
0.932940512970475
30
0
41
1
10
17.2867254366741
20
1.08658299081111
30
0
41
1
10
16.7063345214446
20
1.38606278347282
30
0
41
1
10
16.4162976182197
20
1.53284738989709
30
0
41
1
10
15.8355419284336
20
1.81761808584403
30
0
41
1
10
15.544392105532
20
1.95599553841748
30
0
41
1
10
15.108344277086
20
2.1548608610303
30
0
41
1
10
14.9630421670008
20
2.21962651157375
30
0
41
1
10
14.6726197153714
20
2.34562806314537
30
0
41
1
10
14.527535622319
20
2.40659815533868
30
0
41
1
10
14.0920074419532
20
2.58537729513844
30
0
41
1
10
13.8021095074217
20
2.69990568366984
30
0
41
1
10
13.2208007956839
20
2.91365009209053
30
0
41
1
10
12.9294401073346
20
3.01350130912655
30
0
41
1
10
12.4945429742319
20
3.14961549528022
30
0
41
1
10
12.3496900850693
20
3.19258459984945
30
0
41
1
10
12.0599057727981
20
3.27309971276648
30
0
41
1
10
11.9150454412731
20
3.31118854045013
30
0
41
1
10
11.6256599153396
20
3.38415816444396
30
0
41
1
10
11.4809245560669
20
3.41868052115569
30
0
41
1
10
11.1915170667077
20
3.48354868040963
30
0
41
1
10
11.0469857637363
20
3.51398285651732
30
0
41
1
10
10.6126349995089
20
3.597877870064
30
0
41
1
10
10.3223270751096
20
3.64407399179191
30
0
41
1
10
10.031146319829
20
3.67971487670047
30
0
0
SPLINE
5
BA
100
AcDbEntity
8
1
62
256
6
ByLayer
370
18
48
1
60
0
100
AcDbSpline
70
4
71
3
72
24
73
20
40
0
40
0
40
0
40
0
40
0.0625
40
0.0625
40
0.125
40
0.125
40
0.25
40
0.25
40
0.375
40
0.375
40
0.5
40
0.5
40
0.625
40
0.625
40
0.75
40
0.75
40
0.875
40
0.875
40
1
40
1
40
1
40
1
41
1
10
3.03987729955224
20
-2.12369244213841
30
0
41
1
10
3.16071697051501
20
-2.22845480570396
30
0
41
1
10
3.287905481736
20
-2.32385295843451
30
0
41
1
10
3.55060860026009
20
-2.50153428686033
30
0
41
1
10
3.68636133066798
20
-2.58383801742593
30
0
41
1
10
4.10172436611993
20
-2.81465165294253
30
0
41
1
10
4.38524609375955
20
-2.9454853264688
30
0
41
1
10
4.95927829839059
20
-3.17590164579246
30
0
41
1
10
5.24978039369194
20
-3.27597097813367
30
0
41
1
10
5.83627828196387
20
-3.44736198761027
30
0
41
1
10
6.13243589763633
20
-3.51927030545386
30
0
41
1
10
6.72877883162798
20
-3.63744197986441
30
0
41
1
10
7.02630815467609
20
-3.68263411975661
30
0
41
1
10
7.62142048787297
20
-3.74906511359845
30
0
41
1
10
7.9189444932417
20
-3.76949470323507
30
0
41
1
10
8.51588473353206
20
-3.78376081623657
30
0
41
1
10
8.8153491301546
20
-3.77798673368869
30
0
41
1
10
9.4189756308154
20
-3.74444918830918
30
0
41
1
10
9.72313985629447
20
-3.71704950891513
30
0
41
1
10
10.031146319829
20
-3.67971487670039
30
0
0
SPLINE
5
BB
100
AcDbEntity
8
1
62
256
6
ByLayer
370
18
48
1
60
0
100
AcDbSpline
70
4
71
3
72
16
73
12
40
0
40
0
40
0
40
0
40
0.150490235045372
40
0.150490235045372
40
0.300980470090744
40
0.300980470090744
40
0.601960940181488
40
0.601960940181488
40
0.902941410272232
40
0.902941410272232
40
1
40
1
40
1
40
1
41
1
10
2.79420994941563
20
3.06174161265898
30
0
41
1
10
2.79421377508771
20
3.15020299624294
30
0
41
1
10
2.79421692295995
20
3.23330457777092
30
0
41
1
10
2.79422207234072
20
3.38659811033907
30
0
41
1
10
2.79422407445529
20
3.45667515081124
30
0
41
1
10
2.79422885977979
20
3.64774738828493
30
0
41
1
10
2.79423042577579
20
3.74979692507969
30
0
41
1
10
2.79423269411561
20
3.90109920806495
30
0
41
1
10
2.79423338101734
20
3.9476918142114
30
0
41
1
10
2.79423511419157
20
3.97240628262233
30
0
41
1
10
2.79423559939443
20
3.97550700122656
30
0
41
1
10
2.79423617666453
20
3.97562761199424
30
0
0
SPLINE
5
BC
100
AcDbEntity
8
1
62
256
6
ByLayer
370
18
48
1
60
0
100
AcDbSpline
70
4
71
3
72
26
73
22
40
0
40
0
40
0
40
0
40
0.118160695311337
40
0.118160695311337
40
0.236321390622674
40
0.236321390622674
40
0.295401738278343
40
0.295401738278343
40
0.354482085934012
40
0.354482085934012
40
0.472642781245351
40
0.472642781245351
40
0.59080347655669
40
0.59080347655669
40
0.708964171868029
40
0.708964171868029
40
0.827124867179368
40
0.827124867179368
40
0.945285562490706
40
0.945285562490706
40
1
40
1
40
1
40
1
41
1
10
10.031146319829
20
-1.39088484445602
30
0
41
1
10
10.3620866937967
20
-1.57109285863547
30
0
41
1
10
10.6935845704963
20
-1.74340809484266
30
0
41
1
10
11.3552770628628
20
-2.07664396471975
30
0
41
1
10
11.6851312055103
20
-2.23792964087647
30
0
41
1
10
12.1822004067562
20
-2.46624702695308
30
0
41
1
10
12.3483518839936
20
-2.54029696729805
30
0
41
1
10
12.6798283136583
20
-2.68426726458213
30
0
41
1
10
12.8451914227206
20
-2.75413170812101
30
0
41
1
10
13.3410679759929
20
-2.95618139666539
30
0
41
1
10
13.6719772096104
20
-3.08018188750262
30
0
41
1
10
14.3334473436691
20
-3.3080036278298
30
0
41
1
10
14.6649052954381
20
-3.41158507793574
30
0
41
1
10
15.3277223883551
20
-3.59304996400761
30
0
41
1
10
15.6580091348594
20
-3.67196044321403
30
0
41
1
10
16.318827750608
20
-3.8041563940028
30
0
41
1
10
16.6502082737051
20
-3.85710987160886
30
0
41
1
10
17.3132283918794
20
-3.93715385160806
30
0
41
1
10
17.6437461873211
20
-3.96356615483981
30
0
41
1
10
18.1277612917501
20
-3.9822747450477
30
0
41
1
10
18.2807626246528
20
-3.98529075691835
30
0
41
1
10
18.4337766659646
20
-3.98538472389294
30
0
0
SPLINE
5
BD
100
AcDbEntity
8
1
62
256
6
ByLayer
370
18
48
1
60
0
100
AcDbSpline
70
4
71
3
72
24
73
20
40
0
40
0
40
0
40
0
40
0.0524092529991441
40
0.0524092529991441
40
0.125300848922286
40
0.125300848922286
40
0.271084040768569
40
0.271084040768569
40
0.416867232614853
40
0.416867232614853
40
0.562650424461136
40
0.562650424461136
40
0.70843361630742
40
0.70843361630742
40
0.781325212230564
40
0.781325212230564
40
0.854216808153707
40
0.854216808153707
40
1
40
1
40
1
40
1
41
1
10
34.9845321418842
20
2.92173119538413
30
0
41
1
10
35.1035247211466
20
2.96848585926898
30
0
41
1
10
35.2226074965031
20
3.01396604478566
30
0
41
1
10
35.5073349261308
20
3.11985909796135
30
0
41
1
10
35.6729067017928
20
3.1790423921415
30
0
41
1
10
36.1687929266986
20
3.34779221058065
30
0
41
1
10
36.499482705671
20
3.44827322045961
30
0
41
1
10
37.1600138944222
20
3.62634780043973
30
0
41
1
10
37.4903479595276
20
3.70359173429412
30
0
41
1
10
38.1534817100573
20
3.83158035990334
30
0
41
1
10
38.4837130586696
20
3.88274511092567
30
0
41
1
10
39.1440507064932
20
3.95813518721477
30
0
41
1
10
39.4749576235915
20
3.9822523065954
30
0
41
1
10
39.9713196792804
20
3.99816410974376
30
0
41
1
10
40.1369378990798
20
4.00003056257768
30
0
41
1
10
40.467684277184
20
3.99687862530149
30
0
41
1
10
40.6330808661194
20
3.9918871980835
30
0
41
1
10
41.1290196150043
20
3.96678727106075
30
0
41
1
10
41.458610824762
20
3.93631133487295
30
0
41
1
10
41.7891977794387
20
3.8925098051148
30
0
0
SPLINE
5
BE
100
AcDbEntity
8
1
62
256
6
ByLayer
370
18
48
1
60
0
100
AcDbSpline
70
4
71
3
72
18
73
14
40
0
40
0
40
0
40
0
40
0.249999999999993
40
0.249999999999993
40
0.375000000000002
40
0.375000000000002
40
0.50000000000001
40
0.50000000000001
40
0.625000000000018
40
0.625000000000018
40
0.750000000000027
40
0.750000000000027
40
1
40
1
40
1
40
1
41
1
10
2.79433429567754
20
-2.24693853962998
30
0
41
1
10
2.79908348797466
20
-2.21433347265193
30
0
41
1
10
2.80725659671975
20
-2.18193790876003
30
0
41
1
10
2.82746969266523
20
-2.13799969517118
30
0
41
1
10
2.83560077999317
20
-2.1241353019463
30
0
41
1
10
2.85489861365247
20
-2.10007749234407
30
0
41
1
10
2.86646399193802
20
-2.08955532182233
30
0
41
1
10
2.89215723651091
20
-2.07497277271025
30
0
41
1
10
2.90649541309654
20
-2.07086944835683
30
0
41
1
10
2.93524251031317
20
-2.06950203101445
30
0
41
1
10
2.94974207840366
20
-2.07208354908539
30
0
41
1
10
2.99120189918526
20
-2.08615957639663
30
0
41
1
10
3.01653910207534
20
-2.10345931247568
30
0
41
1
10
3.03987729862158
20
-2.12369244133157
30
0
0
SPLINE
5
BF
100
AcDbEntity
8
1
62
256
6
ByLayer
370
13
48
1
60
0
100
AcDbSpline
70
4
71
3
72
21
73
17
40
0
40
0
40
0
40
0
40
0.121877768207467
40
0.121877768207467
40
0.231643047181534
40
0.231643047181534
40
0.3414083261556
40
0.3414083261556
40
0.451173605129667
40
0.451173605129667
40
0.560938884103734
40
0.6707041630778
40
0.6707041630778
40
0.780469442051867
40
0.780469442051867
40
1
40
1
40
1
40
1
41
1
10
3.0394635042272
20
-3.77608338705801
30
0
41
1
10
3.03946672831376
20
-3.77526807714293
30
0
41
1
10
3.03947140400055
20
-3.76574684698457
30
0
41
1
10
3.03948411043683
20
-3.73100514415779
30
0
41
1
10
3.03949178039204
20
-3.70724513138262
30
0
41
1
10
3.039510547491
20
-3.6459527067546
30
0
41
1
10
3.0395216616385
20
-3.60838578668577
30
0
41
1
10
3.03954748589641
20
-3.51929558536571
30
0
41
1
10
3.03956208275036
20
-3.46815724064993
30
0
41
1
10
3.03959414913362
20
-3.35378794769437
30
0
41
1
10
3.0396291418416
20
-3.22713480061307
30
0
41
1
10
3.03966899206478
20
-3.07606322679638
30
0
41
1
10
3.03971057045052
20
-2.91243791788494
30
0
41
1
10
3.03973217313967
20
-2.82448390630262
30
0
41
1
10
3.03979653844147
20
-2.54802397891942
30
0
41
1
10
3.03983943889671
20
-2.34520593511508
30
0
41
1
10
3.0398772986145
20
-2.12369244209441
30
0
0
SPLINE
5
C0
100
AcDbEntity
8
1
62
256
6
ByLayer
370
18
48
1
60
0
100
AcDbSpline
70
4
71
3
72
40
73
36
40
0
40
0
40
0
40
0
40
0.0743064839724815
40
0.0743064839724815
40
0.137283735050677
40
0.137283735050677
40
0.200260986128872
40
0.200260986128872
40
0.326215488285262
40
0.326215488285262
40
0.452169990441652
40
0.452169990441652
40
0.515147241519847
40
0.515147241519847
40
0.546635867058944
40
0.546635867058944
40
0.562380179828493
40
0.562380179828493
40
0.56631625802088
40
0.56631625802088
40
0.570252336213268
40
0.570252336213268
40
0.574188414405655
40
0.574188414405655
40
0.578124492598042
40
0.578124492598042
40
0.704078994754431
40
0.704078994754431
40
0.83003349691082
40
0.83003349691082
40
0.893010747989014
40
0.893010747989014
40
0.955987999067208
40
0.955987999067208
40
1
40
1
40
1
40
1
41
1
10
10.031146319829
20
-1.39088484444136
30
0
41
1
10
10.031146319829
20
-1.32193607294025
30
0
41
1
10
10.031146319829
20
-1.26053842366346
30
0
41
1
10
10.031146319829
20
-1.16047491203841
30
0
41
1
10
10.031146319829
20
-1.1198020494119
30
0
41
1
10
10.031146319829
20
-1.04887950691869
30
0
41
1
10
10.031146319829
20
-1.01881601227811
30
0
41
1
10
10.031146319829
20
-0.945399416955894
30
0
41
1
10
10.0311463198291
20
-0.918023615726554
30
0
41
1
10
10.0311463198291
20
-0.903013876982783
30
0
41
1
10
10.031146319829
20
-0.915467298930594
30
0
41
1
10
10.031146319829
20
-0.963605470790498
30
0
41
1
10
10.0311463198291
20
-0.984469920542438
30
0
41
1
10
10.0311463198291
20
-1.02282890945187
30
0
41
1
10
10.031146319829
20
-1.03679854550748
30
0
41
1
10
10.031146319829
20
-1.05949446286286
30
0
41
1
10
10.031146319829
20
-1.06734848270969
30
0
41
1
10
10.031146319829
20
-1.07752538905757
30
0
41
1
10
10.031146319829
20
-1.07949643915839
30
0
41
1
10
10.031146319829
20
-1.0858871367694
30
0
41
1
10
10.031146319829
20
-1.08996613351323
30
0
41
1
10
10.031146319829
20
-1.09993537766906
30
0
41
1
10
10.031146319832
20
-1.10572547690484
30
0
41
1
10
10.031146319832
20
-1.11857917228667
30
0
41
1
10
10.031146319829
20
-1.12574118238348
30
0
41
1
10
10.031146319829
20
-1.35496080840605
30
0
41
1
10
10.031146319829
20
-1.5894810575258
30
0
41
1
10
10.031146319829
20
-2.08039576675157
30
0
41
1
10
10.0311463198291
20
-2.33347967341047
30
0
41
1
10
10.0311463198291
20
-2.72421320604366
30
0
41
1
10
10.031146319829
20
-2.8563666550956
30
0
41
1
10
10.031146319829
20
-3.12473657453805
30
0
41
1
10
10.031146319829
20
-3.26084277126861
30
0
41
1
10
10.031146319829
20
-3.4907167822598
30
0
41
1
10
10.031146319829
20
-3.585237477042
30
0
41
1
10
10.031146319829
20
-3.67971487670039
30
0
0
SPLINE
5
C1
100
AcDbEntity
8
1
62
256
6
ByLayer
370
18
48
1
60
0
100
AcDbSpline
70
4
71
3
72
8
73
4
40
0
40
0
40
0
40
0
40
1
40
1
40
1
40
1
41
1
10
42.9257848855014
20
0.693842949377341
30
0
41
1
10
42.9098924330909
20
0.772416475648384
30
0
41
1
10
42.8915657808876
20
0.852492973087351
30
0
41
1
10
42.8709508188905
20
0.93457751388874
30
0
0
SPLINE
5
C2
100
AcDbEntity
8
1
62
256
6
ByLayer
370
18
48
1
60
0
100
AcDbSpline
70
4
71
3
72
8
73
4
40
0
40
0
40
0
40
0
40
1
40
1
40
1
40
1
41
1
10
42.9913951531365
20
-0.109022801946509
30
0
41
1
10
42.9919642313396
20
-0.0893815022630804
30
0
41
1
10
42.9950548584073
20
-0.0653440414346562
30
0
41
1
10
42.9997389507198
20
-0.0399808775459292
30
0
0
SPLINE
5
C3
100
AcDbEntity
8
1
62
256
6
ByLayer
370
18
48
1
60
0
100
AcDbSpline
70
4
71
3
72
8
73
4
40
0
40
0
40
0
40
0
40
1
40
1
40
1
40
1
41
1
10
41.6658348491582
20
-3.89362432363887
30
0
41
1
10
41.6523333110969
20
-3.92765028050229
30
0
41
1
10
41.6388036071594
20
-3.96162411994854
30
0
41
1
10
41.6252450828927
20
-3.99554543729664
30
0
0
SPLINE
5
C4
100
AcDbEntity
8
1
62
256
6
ByLayer
370
18
48
1
60
0
100
AcDbSpline
70
4
71
3
72
12
73
8
40
0
40
0
40
0
40
0
40
0.25
40
0.25
40
0.5
40
0.5
40
1
40
1
40
1
40
1
41
1
10
41.7891977794289
20
3.89250980514313
30
0
41
1
10
41.8750124737131
20
3.64577379115428
30
0
41
1
10
41.9623337135934
20
3.39883810380431
30
0
41
1
10
42.1394505752519
20
2.90476549262041
30
0
41
1
10
42.2292863166687
20
2.6575321792786
30
0
41
1
10
42.5014851906971
20
1.91621081322404
30
0
41
1
10
42.6858795762542
20
1.42451340233112
30
0
41
1
10
42.8709508188905
20
0.93457751388874
30
0
0
SPLINE
5
C5
100
AcDbEntity
8
1
62
256
6
ByLayer
370
18
48
1
60
0
100
AcDbSpline
70
4
71
3
72
16
73
12
40
0
40
0
40
0
40
0
40
0.268734832981705
40
0.268734832981705
40
0.403102249472558
40
0.403102249472558
40
0.53746966596341
40
0.53746966596341
40
0.806204498945112
40
0.806204498945112
40
1
40
1
40
1
40
1
41
1
10
40.986945561052
20
-2.83043766150846
30
0
41
1
10
41.0412262423733
20
-2.99116924695579
30
0
41
1
10
41.0972729066046
20
-3.13247242357573
30
0
41
1
10
41.183248030887
20
-3.31648957047997
30
0
41
1
10
41.2122323895755
20
-3.37313846706857
30
0
41
1
10
41.2708177930701
20
-3.47685974135223
30
0
41
1
10
41.3004872355342
20
-3.52397204486027
30
0
41
1
10
41.3886064338559
20
-3.64798275680747
30
0
41
1
10
41.4467334621341
20
-3.70883354697457
30
0
41
1
10
41.545996918168
20
-3.77634840673815
30
0
41
1
10
41.5875216014773
20
-3.79328381699429
30
0
41
1
10
41.6284860818876
20
-3.79833015829897
30
0
0
SPLINE
5
C6
100
AcDbEntity
8
1
62
256
6
ByLayer
370
18
48
1
60
0
100
AcDbSpline
70
4
71
3
72
8
73
4
40
0
40
0
40
0
40
0
40
1
40
1
40
1
40
1
41
1
10
42.9257848855014
20
0.693842949377341
30
0
41
1
10
42.9620246519035
20
0.498307259046186
30
0
41
1
10
42.9857665535014
20
0.303289620924886
30
0
41
1
10
42.9913951531379
20
0.109022801943894
30
0
0
LINE
5
76
100
AcDbEntity
8
81
62
256
6
ByLayer
370
18
48
1
60
0
100
AcDbLine
10
43
20
0
30
0
11
48
21
0
31
0
39
0
210
0
220
0
230
1
0
LINE
5
77
100
AcDbEntity
8
1
62
256
6
ByLayer
370
18
48
1
60
0
100
AcDbLine
10
2.794228
20
3.975628
30
0
11
0
21
3.973882
31
0
39
0
210
0
220
0
230
1
0
LINE
5
79
100
AcDbEntity
8
1
62
256
6
ByLayer
370
18
48
1
60
0
100
AcDbLine
10
19.552003
20
3.986102
30
0
11
18.433623
21
3.985403
31
0
39
0
210
0
220
0
230
1
0
LINE
5
7A
100
AcDbEntity
8
1
62
256
6
ByLayer
370
18
48
1
60
0
100
AcDbLine
10
41.302817
20
3.999696
30
0
11
40.180641
21
3.998995
31
0
39
0
210
0
220
0
230
1
0
LINE
5
7B
100
AcDbEntity
8
1
62
256
6
ByLayer
370
18
48
1
60
0
100
AcDbLine
10
40.180641
20
-3.998995
30
0
11
41.302989
21
-3.999696
31
0
39
0
210
0
220
0
230
1
0
LINE
5
7C
100
AcDbEntity
8
1
62
256
6
ByLayer
370
18
48
1
60
0
100
AcDbLine
10
18.433623
20
-3.985403
30
0
11
19.552324
21
-3.986102
31
0
39
0
210
0
220
0
230
1
0
LINE
5
7D
100
AcDbEntity
8
1
62
256
6
ByLayer
370
18
48
1
60
0
100
AcDbLine
10
0
20
-3.973882
30
0
11
2.794228
21
-3.975628
31
0
39
0
210
0
220
0
230
1
0
LINE
5
7E
100
AcDbEntity
8
SK1
62
256
6
ByLayer
370
18
48
1
60
0
100
AcDbLine
10
-35.133975
20
4
30
0
11
-36
21
2.5
31
0
39
0
210
0
220
0
230
1
0
LINE
5
80
100
AcDbEntity
8
SK1
62
256
6
ByLayer
370
18
48
1
60
0
100
AcDbLine
10
-36
20
-2.5
30
0
11
-35.133975
21
-4
31
0
39
0
210
0
220
0
230
1
0
LINE
5
81
100
AcDbEntity
8
SK1
62
256
6
ByLayer
370
18
48
1
60
0
100
AcDbLine
10
0
20
4
30
0
11
-35.133975
21
4
31
0
39
0
210
0
220
0
230
1
0
LINE
5
82
100
AcDbEntity
8
SK1
62
256
6
ByLayer
370
18
48
1
60
0
100
AcDbLine
10
-35.133975
20
-4
30
0
11
0
21
-4
31
0
39
0
210
0
220
0
230
1
0
LINE
5
83
100
AcDbEntity
8
SK4
62
256
6
ByLayer
370
18
48
0.05
60
0
100
AcDbLine
10
48
20
0
30
0
11
-41
21
0
31
0
39
0
210
0
220
0
230
1
0
LINE
5
85
100
AcDbEntity
8
4
62
256
6
ByLayer
370
18
48
0.05
60
0
100
AcDbLine
10
43
20
0
30
0
11
0
21
0
31
0
39
0
210
0
220
0
230
1
0
LINE
5
87
100
AcDbEntity
8
80
62
256
6
ByLayer
370
18
48
1
60
0
100
AcDbLine
10
0
20
0
30
0
11
-5
21
0
31
0
39
0
210
0
220
0
230
1
0
LINE
5
88
100
AcDbEntity
8
SK1
62
256
6
ByLayer
370
18
48
1
60
0
100
AcDbLine
10
0
20
4
30
0
11
0
21
-4
31
0
39
0
210
0
220
0
230
1
0
LINE
5
89
100
AcDbEntity
8
SK1
62
256
6
ByLayer
370
18
48
1
60
0
100
AcDbLine
10
-36
20
2.5
30
0
11
-36
21
-2.5
31
0
39
0
210
0
220
0
230
1
0
LINE
5
8A
100
AcDbEntity
8
SK1
62
256
6
ByLayer
370
18
48
1
60
0
100
AcDbLine
10
-35.133975
20
4
30
0
11
-35.133975
21
-4
31
0
39
0
210
0
220
0
230
1
0
LINE
5
8B
100
AcDbEntity
8
1
62
256
6
ByLayer
370
13
48
1
60
0
100
AcDbLine
10
41.549478
20
0.839978
30
0
11
42.964372
21
-0.055684
31
0
39
0
210
0
220
0
230
1
0
LINE
5
8C
100
AcDbEntity
8
1
62
256
6
ByLayer
370
13
48
1
60
0
100
AcDbLine
10
41.684799
20
0.936129
30
0
11
42.991395
21
0.109023
31
0
39
0
210
0
220
0
230
1
0
MTEXT
5
C7
100
AcDbEntity
8
SK6
62
256
6
ByLayer
370
13
48
1
60
0
100
AcDbMText
10
5.629169
20
36.382694
30
0
210
0
220
0
230
1
1
\W0.7692;460.1-0800-024A0-XM GC34
40
3.5
41
0
44
1.084337
50
0
71
8
72
5
7
iso_b_vert
0
DIMENSION
5
D4
100
AcDbEntity
8
SK2
62
256
6
ByLayer
370
13
48
1
60
0
100
AcDbDimension
2
DimnDraft3D1
10
41.8174
20
-14.213398
30
0
11
19.567459
21
-14.213398
31
0
70
32
71
5
72
1
41
1
210
0
220
0
230
1
3
Standard
100
AcDbAlignedDimension
13
0
23
-1.5875
33
0
14
41.8174
24
-5.5875
34
0
50
0
100
AcDbRotatedDimension
1001
ACAD
1000
DSTYLE
1002
{
1070
   279
1070
     0
1070
   172
1070
     1
1070
   173
1070
     1
1070
   340
1005
C8
1070
   271
1070
     2
1070
   272
1070
     2
1070
    77
1070
     1
1070
    73
1070
     0
1070
   171
1070
     3
1070
   274
1070
     4
1070
   177
1070
    35
1070
   176
1070
    35
1070
   178
1070
    35
1070
    48
1040
-0.005
1070
    41
1041
3.5
1070
   147
1041
1.75
1070
    42
1041
1.5875
1070
    44
1041
2.0
1070
   140
1041
3.5
1070
   343
1005
0
1070
   344
1005
0
1002
}
0
DIMENSION
5
DE
100
AcDbEntity
8
SK2
62
256
6
ByLayer
370
13
48
1
60
0
100
AcDbDimension
2
DimnDraft3D2
10
43
20
-32.692985
30
0
11
3.6587
21
-32.692985
31
0
70
32
71
5
72
1
41
1
210
0
220
0
230
1
3
Standard
100
AcDbAlignedDimension
13
-36
23
-5.5875
33
0
14
43
24
-1.5875
34
0
50
0
100
AcDbRotatedDimension
1001
ACAD
1000
DSTYLE
1002
{
1070
   279
1070
     0
1070
   172
1070
     1
1070
   173
1070
     1
1070
   340
1005
C8
1070
   271
1070
     2
1070
   272
1070
     2
1070
    77
1070
     1
1070
    73
1070
     0
1070
   171
1070
     3
1070
   274
1070
     4
1070
   177
1070
    35
1070
   176
1070
    35
1070
   178
1070
    35
1070
    48
1040
-0.005
1070
    41
1041
3.5
1070
   147
1041
1.75
1070
    42
1041
1.5875
1070
    44
1041
2.0
1070
   140
1041
3.5
1070
   343
1005
0
1070
   344
1005
0
1002
}
0
DIMENSION
5
E8
100
AcDbEntity
8
SK2
62
256
6
ByLayer
370
13
48
1
60
0
100
AcDbDimension
2
DimnDraft3D3
10
43
20
15.609119
30
0
11
30.41
21
15.609119
31
0
70
32
71
5
72
1
41
1
210
0
220
0
230
1
3
Standard
100
AcDbAlignedDimension
13
17.82
23
5.5875
33
0
14
43
24
1.5875
34
0
50
0
100
AcDbRotatedDimension
1001
ACAD
1000
DSTYLE
1002
{
1070
   279
1070
     0
1070
   172
1070
     1
1070
   173
1070
     1
1070
   340
1005
C8
1070
   271
1070
     2
1070
   272
1070
     2
1070
    77
1070
     1
1070
    73
1070
     0
1070
   171
1070
     3
1070
   274
1070
     4
1070
   177
1070
    35
1070
   176
1070
    35
1070
   178
1070
    35
1070
    48
1040
-0.005
1070
    41
1041
3.5
1070
   147
1041
1.75
1070
    42
1041
1.5875
1070
    44
1041
2.0
1070
   140
1041
3.5
1070
   343
1005
0
1070
   344
1005
0
1002
}
0
DIMENSION
5
F2
100
AcDbEntity
8
SK2
62
256
6
ByLayer
370
13
48
1
60
0
100
AcDbDimension
2
DimnDraft3D4
10
41.8174
20
-16.802503
30
0
11
52.981425
21
-16.802503
31
0
70
32
71
5
72
1
41
1
210
0
220
0
230
1
3
Standard
100
AcDbAlignedDimension
13
43
23
-1.5875
33
0
14
41.8174
24
-5.5875
34
0
50
0
100
AcDbRotatedDimension
1001
ACAD
1000
DSTYLE
1002
{
1070
   279
1070
     0
1070
   172
1070
     1
1070
   173
1070
     1
1070
   340
1005
C8
1070
   271
1070
     2
1070
   272
1070
     2
1070
    77
1070
     1
1070
    73
1070
     0
1070
   171
1070
     3
1070
   274
1070
     4
1070
   177
1070
    35
1070
   176
1070
    35
1070
   178
1070
    35
1070
    48
1040
-0.005
1070
    41
1041
3.5
1070
   147
1041
1.75
1070
    42
1041
1.5875
1070
    44
1041
2.0
1070
   140
1041
3.5
1070
   343
1005
0
1070
   344
1005
0
1002
}
0
DIMENSION
5
FC
100
AcDbEntity
8
SK2
62
256
6
ByLayer
370
13
48
1
60
0
100
AcDbDimension
2
DimnDraft3D5
10
41.8174
20
-22.343428
30
0
11
0.578076
21
-22.343428
31
0
70
32
71
5
72
1
41
1
210
0
220
0
230
1
3
Standard
100
AcDbAlignedDimension
13
-36
23
-5.5875
33
0
14
41.8174
24
-5.5875
34
0
50
0
100
AcDbRotatedDimension
1001
ACAD
1000
DSTYLE
1002
{
1070
   279
1070
     0
1070
   172
1070
     1
1070
   173
1070
     1
1070
   340
1005
C8
1070
   271
1070
     2
1070
   272
1070
     2
1070
    77
1070
     1
1070
    73
1070
     0
1070
   171
1070
     3
1070
   274
1070
     4
1070
   177
1070
    35
1070
   176
1070
    35
1070
   178
1070
    35
1070
    48
1040
-0.005
1070
    41
1041
3.5
1070
   147
1041
1.75
1070
    42
1041
1.5875
1070
    44
1041
2.0
1070
   140
1041
3.5
1070
   343
1005
0
1070
   344
1005
0
1002
}
0
DIMENSION
5
107
100
AcDbEntity
8
SK2
62
256
6
ByLayer
370
13
48
1
60
0
100
AcDbDimension
2
DimnDraft3D6
10
-46.625163
20
4
30
0
11
-47.250163
21
22.47418
31
0
70
33
71
5
72
1
41
1
210
0
220
0
230
1
3
Standard
100
AcDbAlignedDimension
13
-37.5875
23
-4
33
0
14
-37.5875
24
4
34
0
1001
ACAD
1000
DSTYLE
1002
{
1070
   279
1070
     0
1070
    74
1070
     0
1070
   173
1070
     1
1070
   340
1005
C8
1070
   271
1070
     3
1070
   272
1070
     2
1070
    77
1070
     1
1070
    73
1070
     0
1070
   171
1070
     3
1070
   274
1070
     4
1070
   177
1070
    35
1070
   176
1070
    35
1070
   178
1070
    35
1070
    48
1040
-0.005
1070
    41
1041
3.5
1070
   147
1041
1.75
1070
    42
1041
1.5875
1070
    44
1041
2.0
1070
   140
1041
3.5
1070
   343
1005
0
1070
   344
1005
0
1002
}
0
DIMENSION
5
112
100
AcDbEntity
8
2
62
256
6
ByLayer
370
13
48
1
60
0
100
AcDbDimension
2
DimnDraft3D7
10
57.083343
20
4
30
0
11
52.458343
21
21.067266
31
0
70
33
71
5
72
1
41
1
210
0
220
0
230
1
3
Standard
100
AcDbAlignedDimension
13
43.4049
23
-4
33
0
14
43.4049
24
4
34
0
1001
ACAD
1000
DSTYLE
1002
{
1070
   279
1070
     0
1070
    74
1070
     0
1070
   173
1070
     1
1070
   340
1005
C8
1070
   271
1070
     3
1070
   272
1070
     2
1070
    77
1070
     1
1070
    73
1070
     0
1070
   171
1070
     3
1070
   274
1070
     4
1070
   177
1070
    35
1070
   176
1070
    35
1070
   178
1070
    35
1070
    48
1040
-0.005
1070
    41
1041
3.5
1070
   147
1041
1.75
1070
    42
1041
1.5875
1070
    44
1041
2.0
1070
   140
1041
3.5
1070
   343
1005
0
1070
   344
1005
0
1002
}
0
ENDSEC
0
SECTION
2
OBJECTS
0
DICTIONARY
5
17d
330
0
100
AcDbDictionary
280
0
281
1
3
ACAD_GROUP
350
17e
3
ACAD_MLINESTYLE
350
17f
0
DICTIONARY
5
17e
330
0
100
AcDbDictionary
280
0
281
1
0
DICTIONARY
5
17f
330
0
100
AcDbDictionary
280
0
281
1
3
Standard
350
18
0
MLINESTYLE
5
18
330
17f
100
AcDbMlineStyle
2
Standard
70
0
3

62
256
51
90
52
90
71
2
49
-0.5
62
256
6
ByLayer
49
0.5
62
256
6
ByLayer
0
RASTERVARIABLES
5
16b
330

100
AcDbRasterVariables
90
0
70
1
71
1
72
1
0
ENDSEC
0
EOF
