0
SECTION
2
HEADER
9
$ACADVER
1
AC1015
9
$DWGCODEPAGE
3
ANSI_1252
9
$HANDSEED
5
1ad
9
$ANGBASE
50
0
9
$ANGDIR
70
0
9
$ATTMODE
70
1
9
$AUNITS
70
0
9
$AUPREC
70
0
9
$CECOLOR
62
256
9
$CELTSCALE
40
1
9
$CELTYPE
6
ByLayer
9
$CELWEIGHT
370
18
9
$CLAYER
8
0
9
$CMLJUST
70
0
9
$CMLSCALE
40
1
9
$CMLSTYLE
2
Standard
9
$DIMSTYLE
2
Standard
9
$TEXTSIZE
40
0.2
9
$TEXTSTYLE
7
Standard
9
$LUNITS
70
2
9
$LUPREC
70
4
9
$EXTNAMES
290
1
9
$INSUNITS
70
4
9
$LTSCALE
40
1
9
$LWDISPLAY
290
1
9
$PDMODE
70
0
9
$PDSIZE
40
0
9
$PLINEGEN
70
0
0
ENDSEC
0
SECTION
2
CLASSES
0
CLASS
1
RASTERVARIABLES
2
AcDbRasterVariables
3
ISM
90
0
280
0
281
0
0
ENDSEC
0
SECTION
2
TABLES
0
TABLE
2
VPORT
5
1a3
100
AcDbSymbolTable
0
VPORT
5
1
100
AcDbSymbolTableRecord
100
AcDbViewportTableRecord
2
*Active
70
0
10
0
20
0
11
1
21
1
12
-1
22
1
13
0
23
0
14
0.5
24
0.5
15
10
25
10
16
0
26
0
36
1
17
0
27
0
37
0
0
ENDTAB
0
TABLE
2
LTYPE
5
1a4
100
AcDbSymbolTable
0
LTYPE
5
14
100
AcDbSymbolTableRecord
100
AcDbLinetypeTableRecord
70
0
2
ByBlock
3

72
65
73
0
40
0
0
LTYPE
5
15
100
AcDbSymbolTableRecord
100
AcDbLinetypeTableRecord
70
0
2
ByLayer
3

72
65
73
0
40
0
0
LTYPE
5
16
100
AcDbSymbolTableRecord
100
AcDbLinetypeTableRecord
70
0
2
CONTINUOUS
3
Solid line
72
65
73
0
40
0
0
LTYPE
5
6A
100
AcDbSymbolTableRecord
100
AcDbLinetypeTableRecord
70
0
2
CENTER
3
____ _ ____ _ ____ _ ____
72
65
73
4
40
47.5
49
22
74
0
49
-8.5
74
0
49
8.5
74
0
49
-8.5
74
0
0
LTYPE
5
6B
100
AcDbSymbolTableRecord
100
AcDbLinetypeTableRecord
70
0
2
DASHED
3
__ __ __ __ __ __ __ __ __
72
65
73
2
40
25.72
49
12.86
74
0
49
-12.86
74
0
0
ENDTAB
0
TABLE
2
LAYER
5
1a5
100
AcDbSymbolTable
0
LAYER
5
10
100
AcDbSymbolTableRecord
100
AcDbLayerTableRecord
2
0
70
0
62
7
6
CONTINUOUS
290
1
370
-3
390
0
0
LAYER
5
6D
100
AcDbSymbolTableRecord
100
AcDbLayerTableRecord
2
81
70
0
62
-3
6
CONTINUOUS
290
1
370
-3
390
0
0
LAYER
5
6F
100
AcDbSymbolTableRecord
100
AcDbLayerTableRecord
2
80
70
0
62
-6
6
CONTINUOUS
290
1
370
-3
390
0
0
LAYER
5
74
100
AcDbSymbolTableRecord
100
AcDbLayerTableRecord
2
2
70
0
62
7
6
CONTINUOUS
290
1
370
-3
390
0
0
LAYER
5
78
100
AcDbSymbolTableRecord
100
AcDbLayerTableRecord
2
1
70
0
62
4
6
CONTINUOUS
290
1
370
-3
390
0
0
LAYER
5
8A
100
AcDbSymbolTableRecord
100
AcDbLayerTableRecord
2
4
70
0
62
-2
6
CENTER
290
1
370
-3
390
0
0
LAYER
5
18f
100
AcDbSymbolTableRecord
100
AcDbLayerTableRecord
2
SK2
70
0
62
7
6
CONTINUOUS
290
1
370
-3
390
0
0
LAYER
5
190
100
AcDbSymbolTableRecord
100
AcDbLayerTableRecord
2
SK1
70
0
62
4
6
CONTINUOUS
290
1
370
-3
390
0
0
LAYER
5
191
100
AcDbSymbolTableRecord
100
AcDbLayerTableRecord
2
SK4
70
0
62
2
6
CENTER
290
1
370
-3
390
0
0
LAYER
5
192
100
AcDbSymbolTableRecord
100
AcDbLayerTableRecord
2
SK6
70
0
62
5
6
CONTINUOUS
290
1
370
-3
390
0
0
ENDTAB
0
TABLE
2
STYLE
5
1a6
100
AcDbSymbolTable
0
STYLE
5
11
100
AcDbSymbolTableRecord
100
AcDbTextStyleTableRecord
2
Standard
3
txt
70
0
71
0
40
0
41
1
42
0
50
0
0
STYLE
5
EB
100
AcDbSymbolTableRecord
100
AcDbTextStyleTableRecord
2
iso_b_vert
3
simplex.shx
70
0
71
0
40
0
41
1
42
0
50
0
0
STYLE
5
EC
100
AcDbSymbolTableRecord
100
AcDbTextStyleTableRecord
2
DWGDirectTextStyle
3
simplex
70
0
71
0
40
0
41
1
42
0
50
0
0
ENDTAB
0
TABLE
2
DIMSTYLE
5
1a7
100
AcDbSymbolTable
100
AcDbDimStyleTable
0
DIMSTYLE
105
27
100
AcDbSymbolTableRecord
100
AcDbDimStyleTableRecord
2
Standard
70
0
3
<>
41
0.18
42
0.0625
44
0.18
140
0.18
147
0.09
73
0
74
0
77
1
271
2
275
0
278
52
280
0
340
11
0
ENDTAB
0
TABLE
2
VIEW
5
1a8
100
AcDbSymbolTable
0
ENDTAB
0
TABLE
2
UCS
5
1a9
100
AcDbSymbolTable
0
ENDTAB
0
TABLE
2
APPID
5
1aa
100
AcDbSymbolTable
0
APPID
5
12
100
AcDbSymbolTableRecord
100
AcDbRegAppTableRecord
2
ACAD
70
0
0
ENDTAB
0
TABLE
2
BLOCK_RECORD
5
1ab
100
AcDbSymbolTable
0
BLOCK_RECORD
5
1F
100
AcDbSymbolTableRecord
100
AcDbBlockTableRecord
2
*Model_Space
340
0
70
0
0
BLOCK_RECORD
5
1B
100
AcDbSymbolTableRecord
100
AcDbBlockTableRecord
2
*Paper_Space
340
0
70
0
0
BLOCK_RECORD
5
23
100
AcDbSymbolTableRecord
100
AcDbBlockTableRecord
2
*Paper_Space0
340
0
70
0
0
BLOCK_RECORD
5
EE
100
AcDbSymbolTableRecord
100
AcDbBlockTableRecord
2
DimnDraft3D1
340
0
70
0
0
BLOCK_RECORD
5
F8
100
AcDbSymbolTableRecord
100
AcDbBlockTableRecord
2
DimnDraft3D2
340
0
70
0
0
BLOCK_RECORD
5
102
100
AcDbSymbolTableRecord
100
AcDbBlockTableRecord
2
DimnDraft3D3
340
0
70
0
0
BLOCK_RECORD
5
10C
100
AcDbSymbolTableRecord
100
AcDbBlockTableRecord
2
DimnDraft3D4
340
0
70
0
0
BLOCK_RECORD
5
116
100
AcDbSymbolTableRecord
100
AcDbBlockTableRecord
2
DimnDraft3D5
340
0
70
0
0
BLOCK_RECORD
5
120
100
AcDbSymbolTableRecord
100
AcDbBlockTableRecord
2
DimnDraft3D6
340
0
70
0
0
BLOCK_RECORD
5
12B
100
AcDbSymbolTableRecord
100
AcDbBlockTableRecord
2
DimnDraft3D7
340
0
70
0
0
ENDTAB
0
ENDSEC
0
SECTION
2
BLOCKS
0
BLOCK
5
20
100
AcDbEntity
8
0
100
AcDbBlockBegin
2
*Model_Space
70
0
10
0
20
0
30
0
3
*Model_Space
0
ENDBLK
5
21
100
AcDbEntity
8
0
100
AcDbBlockEnd
0
BLOCK
5
1C
100
AcDbEntity
8
0
100
AcDbBlockBegin
2
*Paper_Space
70
0
10
0
20
0
30
0
3
*Paper_Space
0
ENDBLK
5
1D
100
AcDbEntity
8
0
100
AcDbBlockEnd
0
BLOCK
5
24
100
AcDbEntity
8
0
100
AcDbBlockBegin
2
*Paper_Space0
70
0
10
0
20
0
30
0
3
*Paper_Space0
0
ENDBLK
5
25
100
AcDbEntity
8
0
100
AcDbBlockEnd
0
BLOCK
5
F5
100
AcDbEntity
8
0
100
AcDbBlockBegin
2
DimnDraft3D1
70
0
10
0
20
0
30
0
3
DimnDraft3D1
0
MTEXT
5
EF
100
AcDbEntity
8
SK2
62
256
6
ByLayer
370
13
48
1
60
0
100
AcDbMText
10
38.663975
20
-13.188398
30
0
210
0
220
0
230
1
1
\W0.7317;88,86
40
3.5
41
0
44
1.084337
50
0
71
7
72
5
7
iso_b_vert
0
LINE
5
F0
100
AcDbEntity
8
SK2
62
256
6
ByLayer
370
13
48
1
60
0
100
AcDbLine
10
0
20
-1.5875
30
0
11
0
21
-16.063398
31
0
39
0
210
0
220
0
230
1
0
LINE
5
F1
100
AcDbEntity
8
SK2
62
256
6
ByLayer
370
13
48
1
60
0
100
AcDbLine
10
88.8626
20
-5.4375
30
0
11
88.8626
21
-16.063398
31
0
39
0
210
0
220
0
230
1
0
LINE
5
F2
100
AcDbEntity
8
SK2
62
256
6
ByLayer
370
13
48
1
60
0
100
AcDbLine
10
0
20
-14.063398
30
0
11
88.8626
21
-14.063398
31
0
39
0
210
0
220
0
230
1
0
SOLID
5
F3
100
AcDbEntity
8
SK2
62
256
6
ByLayer
370
13
48
1
60
0
100
AcDbTrace
10
0
20
-14.063398
30
0
11
3.499998
21
-13.602615
31
0
12
3.500002
22
-14.524182
32
0
13
0
23
-14.063398
33
0
39
0
210
0
220
0
230
1
0
SOLID
5
F4
100
AcDbEntity
8
SK2
62
256
6
ByLayer
370
13
48
1
60
0
100
AcDbTrace
10
88.8626
20
-14.063398
30
0
11
85.362602
21
-14.524182
31
0
12
85.362598
22
-13.602615
32
0
13
88.8626
23
-14.063398
33
0
39
0
210
0
220
0
230
1
0
ENDBLK
5
F6
100
AcDbEntity
8
0
100
AcDbBlockEnd
0
BLOCK
5
FF
100
AcDbEntity
8
0
100
AcDbBlockBegin
2
DimnDraft3D2
70
0
10
0
20
0
30
0
3
DimnDraft3D2
0
MTEXT
5
F9
100
AcDbEntity
8
SK2
62
256
6
ByLayer
370
13
48
1
60
0
100
AcDbMText
10
21.884821
20
-31.817985
30
0
210
0
220
0
230
1
1
\W0.6930;126,00
40
3.5
41
0
44
1.084337
50
0
71
7
72
5
7
iso_b_vert
0
LINE
5
FA
100
AcDbEntity
8
SK2
62
256
6
ByLayer
370
13
48
1
60
0
100
AcDbLine
10
-36
20
-5.5875
30
0
11
-36
21
-34.692985
31
0
39
0
210
0
220
0
230
1
0
LINE
5
FB
100
AcDbEntity
8
SK2
62
256
6
ByLayer
370
13
48
1
60
0
100
AcDbLine
10
90
20
-1.5875
30
0
11
90
21
-34.692985
31
0
39
0
210
0
220
0
230
1
0
LINE
5
FC
100
AcDbEntity
8
SK2
62
256
6
ByLayer
370
13
48
1
60
0
100
AcDbLine
10
-36
20
-32.692985
30
0
11
90
21
-32.692985
31
0
39
0
210
0
220
0
230
1
0
SOLID
5
FD
100
AcDbEntity
8
SK2
62
256
6
ByLayer
370
13
48
1
60
0
100
AcDbTrace
10
-36
20
-32.692985
30
0
11
-32.500002
21
-32.232202
31
0
12
-32.499998
22
-33.153769
32
0
13
-36
23
-32.692985
33
0
39
0
210
0
220
0
230
1
0
SOLID
5
FE
100
AcDbEntity
8
SK2
62
256
6
ByLayer
370
13
48
1
60
0
100
AcDbTrace
10
90
20
-32.692985
30
0
11
86.500002
21
-33.153769
31
0
12
86.499998
22
-32.232202
32
0
13
90
23
-32.692985
33
0
39
0
210
0
220
0
230
1
0
ENDBLK
5
100
100
AcDbEntity
8
0
100
AcDbBlockEnd
0
BLOCK
5
109
100
AcDbEntity
8
0
100
AcDbBlockBegin
2
DimnDraft3D3
70
0
10
0
20
0
30
0
3
DimnDraft3D3
0
MTEXT
5
103
100
AcDbEntity
8
SK2
62
256
6
ByLayer
370
13
48
1
60
0
100
AcDbMText
10
54.186316
20
16.334119
30
0
210
0
220
0
230
1
1
\W0.7317;62,73
40
3.5
41
0
44
1.084337
50
0
71
7
72
5
7
iso_b_vert
0
LINE
5
104
100
AcDbEntity
8
SK2
62
256
6
ByLayer
370
13
48
1
60
0
100
AcDbLine
10
27.27
20
5.4375
30
0
11
27.27
21
17.459119
31
0
39
0
210
0
220
0
230
1
0
LINE
5
105
100
AcDbEntity
8
SK2
62
256
6
ByLayer
370
13
48
1
60
0
100
AcDbLine
10
90
20
1.5875
30
0
11
90
21
17.459119
31
0
39
0
210
0
220
0
230
1
0
LINE
5
106
100
AcDbEntity
8
SK2
62
256
6
ByLayer
370
13
48
1
60
0
100
AcDbLine
10
27.27
20
15.459119
30
0
11
90
21
15.459119
31
0
39
0
210
0
220
0
230
1
0
SOLID
5
107
100
AcDbEntity
8
SK2
62
256
6
ByLayer
370
13
48
1
60
0
100
AcDbTrace
10
27.27
20
15.459119
30
0
11
30.769998
21
15.919903
31
0
12
30.770002
22
14.998335
32
0
13
27.27
23
15.459119
33
0
39
0
210
0
220
0
230
1
0
SOLID
5
108
100
AcDbEntity
8
SK2
62
256
6
ByLayer
370
13
48
1
60
0
100
AcDbTrace
10
90
20
15.459119
30
0
11
86.500002
21
14.998335
31
0
12
86.499998
22
15.919903
32
0
13
90
23
15.459119
33
0
39
0
210
0
220
0
230
1
0
ENDBLK
5
10A
100
AcDbEntity
8
0
100
AcDbBlockEnd
0
BLOCK
5
113
100
AcDbEntity
8
0
100
AcDbBlockBegin
2
DimnDraft3D4
70
0
10
0
20
0
30
0
3
DimnDraft3D4
0
MTEXT
5
10D
100
AcDbEntity
8
SK2
62
256
6
ByLayer
370
13
48
1
60
0
100
AcDbMText
10
97.531425
20
-15.777503
30
0
210
0
220
0
230
1
1
\W0.5839;1,14
40
3.5
41
0
44
1.084337
50
0
71
7
72
5
7
iso_b_vert
0
LINE
5
10E
100
AcDbEntity
8
SK2
62
256
6
ByLayer
370
13
48
1
60
0
100
AcDbLine
10
90
20
-1.5875
30
0
11
90
21
-18.652503
31
0
39
0
210
0
220
0
230
1
0
LINE
5
10F
100
AcDbEntity
8
SK2
62
256
6
ByLayer
370
13
48
1
60
0
100
AcDbLine
10
88.8626
20
-5.4375
30
0
11
88.8626
21
-18.652503
31
0
39
0
210
0
220
0
230
1
0
LINE
5
110
100
AcDbEntity
8
SK2
62
256
6
ByLayer
370
13
48
1
60
0
100
AcDbLine
10
80.1126
20
-16.652503
30
0
11
103.306425
21
-16.652503
31
0
39
0
210
0
220
0
230
1
0
SOLID
5
111
100
AcDbEntity
8
SK2
62
256
6
ByLayer
370
13
48
1
60
0
100
AcDbTrace
10
90
20
-16.652503
30
0
11
93.499998
21
-16.191719
31
0
12
93.500002
22
-17.113287
32
0
13
90
23
-16.652503
33
0
39
0
210
0
220
0
230
1
0
SOLID
5
112
100
AcDbEntity
8
SK2
62
256
6
ByLayer
370
13
48
1
60
0
100
AcDbTrace
10
88.8626
20
-16.652503
30
0
11
85.362602
21
-17.113287
31
0
12
85.362598
22
-16.191719
32
0
13
88.8626
23
-16.652503
33
0
39
0
210
0
220
0
230
1
0
ENDBLK
5
114
100
AcDbEntity
8
0
100
AcDbBlockEnd
0
BLOCK
5
11D
100
AcDbEntity
8
0
100
AcDbBlockBegin
2
DimnDraft3D5
70
0
10
0
20
0
30
0
3
DimnDraft3D5
0
MTEXT
5
117
100
AcDbEntity
8
SK2
62
256
6
ByLayer
370
13
48
1
60
0
100
AcDbMText
10
18.619987
20
-21.468428
30
0
210
0
220
0
230
1
1
\W0.7145;124,86
40
3.5
41
0
44
1.084337
50
0
71
7
72
5
7
iso_b_vert
0
LINE
5
118
100
AcDbEntity
8
SK2
62
256
6
ByLayer
370
13
48
1
60
0
100
AcDbLine
10
-36
20
-5.5875
30
0
11
-36
21
-24.343428
31
0
39
0
210
0
220
0
230
1
0
LINE
5
119
100
AcDbEntity
8
SK2
62
256
6
ByLayer
370
13
48
1
60
0
100
AcDbLine
10
88.8626
20
-5.4375
30
0
11
88.8626
21
-24.343428
31
0
39
0
210
0
220
0
230
1
0
LINE
5
11A
100
AcDbEntity
8
SK2
62
256
6
ByLayer
370
13
48
1
60
0
100
AcDbLine
10
-36
20
-22.343428
30
0
11
88.8626
21
-22.343428
31
0
39
0
210
0
220
0
230
1
0
SOLID
5
11B
100
AcDbEntity
8
SK2
62
256
6
ByLayer
370
13
48
1
60
0
100
AcDbTrace
10
-36
20
-22.343428
30
0
11
-32.500002
21
-21.882645
31
0
12
-32.499998
22
-22.804212
32
0
13
-36
23
-22.343428
33
0
39
0
210
0
220
0
230
1
0
SOLID
5
11C
100
AcDbEntity
8
SK2
62
256
6
ByLayer
370
13
48
1
60
0
100
AcDbTrace
10
88.8626
20
-22.343428
30
0
11
85.362602
21
-22.804212
31
0
12
85.362598
22
-21.882645
32
0
13
88.8626
23
-22.343428
33
0
39
0
210
0
220
0
230
1
0
ENDBLK
5
11E
100
AcDbEntity
8
0
100
AcDbBlockEnd
0
BLOCK
5
128
100
AcDbEntity
8
0
100
AcDbBlockBegin
2
DimnDraft3D6
70
0
10
0
20
0
30
0
3
DimnDraft3D6
0
MTEXT
5
121
100
AcDbEntity
8
SK2
62
256
6
ByLayer
370
13
48
1
60
0
100
AcDbMText
10
-46.375163
20
23.34918
30
0
210
0
220
0
230
1
1
\W0.7317;8,000
40
3.5
41
0
44
1.084337
50
90
71
7
72
5
7
iso_b_vert
0
MTEXT
5
122
100
AcDbEntity
8
SK2
62
256
6
ByLayer
370
13
48
1
60
0
100
AcDbMText
10
-46.375163
20
18.126524
30
0
210
0
220
0
230
1
1
%%c
40
3.5
41
0
44
1.084337
50
90
71
7
72
5
7
iso_b_vert
0
LINE
5
123
100
AcDbEntity
8
SK2
62
256
6
ByLayer
370
13
48
1
60
0
100
AcDbLine
10
-37.5875
20
-4
30
0
11
-46.625163
21
-4
31
0
39
0
210
0
220
0
230
1
0
LINE
5
124
100
AcDbEntity
8
SK2
62
256
6
ByLayer
370
13
48
1
60
0
100
AcDbLine
10
-37.5875
20
4
30
0
11
-46.625163
21
4
31
0
39
0
210
0
220
0
230
1
0
LINE
5
125
100
AcDbEntity
8
SK2
62
256
6
ByLayer
370
13
48
1
60
0
100
AcDbLine
10
-44.625163
20
-4
30
0
11
-44.625163
21
33.121549
31
0
39
0
210
0
220
0
230
1
0
SOLID
5
126
100
AcDbEntity
8
SK2
62
256
6
ByLayer
370
13
48
1
60
0
100
AcDbTrace
10
-44.625163
20
-4
30
0
11
-45.085946
21
-0.500002
31
0
12
-44.164379
22
-0.499998
32
0
13
-44.625163
23
-4
33
0
39
0
210
0
220
0
230
1
0
SOLID
5
127
100
AcDbEntity
8
SK2
62
256
6
ByLayer
370
13
48
1
60
0
100
AcDbTrace
10
-44.625163
20
4
30
0
11
-44.164379
21
0.500002
31
0
12
-45.085946
22
0.499998
32
0
13
-44.625163
23
4
33
0
39
0
210
0
220
0
230
1
0
ENDBLK
5
129
100
AcDbEntity
8
0
100
AcDbBlockEnd
0
BLOCK
5
133
100
AcDbEntity
8
0
100
AcDbBlockBegin
2
DimnDraft3D7
70
0
10
0
20
0
30
0
3
DimnDraft3D7
0
MTEXT
5
12C
100
AcDbEntity
8
2
62
256
6
ByLayer
370
13
48
1
60
0
100
AcDbMText
10
100.333343
20
21.792266
30
0
210
0
220
0
230
1
1
\W0.7317;7,700
40
3.5
41
0
44
1.084337
50
90
71
7
72
5
7
iso_b_vert
0
MTEXT
5
12D
100
AcDbEntity
8
2
62
256
6
ByLayer
370
13
48
1
60
0
100
AcDbMText
10
100.333343
20
16.56961
30
0
210
0
220
0
230
1
1
%%c
40
3.5
41
0
44
1.084337
50
90
71
7
72
5
7
iso_b_vert
0
LINE
5
12E
100
AcDbEntity
8
2
62
256
6
ByLayer
370
13
48
1
60
0
100
AcDbLine
10
90.4501
20
-3.85
30
0
11
104.083343
21
-3.85
31
0
39
0
210
0
220
0
230
1
0
LINE
5
12F
100
AcDbEntity
8
2
62
256
6
ByLayer
370
13
48
1
60
0
100
AcDbLine
10
90.4501
20
3.85
30
0
11
104.083343
21
3.85
31
0
39
0
210
0
220
0
230
1
0
LINE
5
130
100
AcDbEntity
8
2
62
256
6
ByLayer
370
13
48
1
60
0
100
AcDbLine
10
102.083343
20
-3.85
30
0
11
102.083343
21
31.564635
31
0
39
0
210
0
220
0
230
1
0
SOLID
5
131
100
AcDbEntity
8
2
62
256
6
ByLayer
370
13
48
1
60
0
100
AcDbTrace
10
102.083343
20
-3.85
30
0
11
101.622559
21
-0.350002
31
0
12
102.544126
22
-0.349998
32
0
13
102.083343
23
-3.85
33
0
39
0
210
0
220
0
230
1
0
SOLID
5
132
100
AcDbEntity
8
2
62
256
6
ByLayer
370
13
48
1
60
0
100
AcDbTrace
10
102.083343
20
3.85
30
0
11
102.544126
21
0.350002
31
0
12
101.622559
22
0.349998
32
0
13
102.083343
23
3.85
33
0
39
0
210
0
220
0
230
1
0
ENDBLK
5
134
100
AcDbEntity
8
0
100
AcDbBlockEnd
0
ENDSEC
0
SECTION
2
ENTITIES
0
ARC
5
97
100
AcDbEntity
8
1
62
256
6
ByLayer
370
18
48
1
60
0
100
AcDbCircle
39
0
10
-0.1
20
3.894591
30
0
40
0.0999999999999943
210
0
220
0
230
-1
100
AcDbArc
50
269.96419
51
0
0
ARC
5
98
100
AcDbEntity
8
1
62
256
6
ByLayer
370
18
48
1
60
0
100
AcDbCircle
39
0
10
-0.1
20
-3.894591
30
0
40
0.0999999999999943
210
0
220
0
230
-1
100
AcDbArc
50
0
51
90.03581
0
ELLIPSE
5
99
100
AcDbEntity
8
1
62
256
6
ByLayer
370
18
48
1
60
0
100
AcDbEllipse
10
7.00398
20
-3.856138
30
0
11
0.25
21
0
31
0
210
0
220
0
230
1
40
0.999999
41
1.57852367507314
42
2.90698860030659
0
ELLIPSE
5
9A
100
AcDbEntity
8
1
62
256
6
ByLayer
370
18
48
1
60
0
100
AcDbEllipse
10
7.00398
20
3.856138
30
0
11
0.25
21
0
31
0
210
0
220
0
230
1
40
0.999999
41
-2.90712554429781
42
-1.56351347420983
0
POINT
5
6C
100
AcDbEntity
8
81
62
256
6
ByLayer
370
18
48
1
60
0
100
AcDbPoint
10
90
20
0
30
0
39
0
210
0
220
0
230
1
50
360
0
POINT
5
6E
100
AcDbEntity
8
80
62
256
6
ByLayer
370
18
48
1
60
0
100
AcDbPoint
10
0
20
0
30
0
39
0
210
0
220
0
230
1
50
360
0
POINT
5
70
100
AcDbEntity
8
SK2
62
256
6
ByLayer
370
18
48
1
60
1
100
AcDbPoint
10
-36
20
-4
30
0
39
0
210
0
220
0
230
1
50
360
0
POINT
5
72
100
AcDbEntity
8
SK2
62
256
6
ByLayer
370
18
48
1
60
1
100
AcDbPoint
10
-36
20
4
30
0
39
0
210
0
220
0
230
1
50
360
0
POINT
5
73
100
AcDbEntity
8
2
62
256
6
ByLayer
370
18
48
1
60
1
100
AcDbPoint
10
88.8626
20
-3.85
30
0
39
0
210
0
220
0
230
1
50
360
0
POINT
5
75
100
AcDbEntity
8
2
62
256
6
ByLayer
370
18
48
1
60
1
100
AcDbPoint
10
88.8626
20
3.85
30
0
39
0
210
0
220
0
230
1
50
360
0
SPLINE
5
9B
100
AcDbEntity
8
1
62
256
6
ByLayer
370
18
48
1
60
0
100
AcDbSpline
70
4
71
3
72
19
73
15
40
0
40
0
40
0
40
0
40
0.0965349063138325
40
0.166714614279528
40
0.213782273244844
40
0.261998379890522
40
0.316336382843014
40
0.374360511478025
40
0.431852911489786
40
0.582870573095051
40
0.711080204468179
40
0.815771226648079
40
0.946654545798496
40
1
40
1
40
1
40
1
41
1
10
44.9383206568122
20
-3.6300673711624
30
0
41
1
10
45.1268357849843
20
-3.63018836570632
30
0
41
1
10
45.4523969383301
20
-3.63038164539807
30
0
41
1
10
45.8698890233306
20
-3.63056019837342
30
0
41
1
10
46.1929892234377
20
-3.63072420973538
30
0
41
1
10
46.4851156554002
20
-3.63089898642861
30
0
41
1
10
46.7987005512166
20
-3.63120512754119
30
0
41
1
10
47.1304152052947
20
-3.63121725476194
30
0
41
1
10
47.6508056059289
20
-3.6314215442703
30
0
41
1
10
48.3084842512268
20
-3.63155420139643
30
0
41
1
10
49.0572750889605
20
-3.63253857362548
30
0
41
1
10
49.7679392829869
20
-3.63236193175519
30
0
41
1
10
50.3321269223323
20
-3.63294500296465
30
0
41
1
10
50.6919204491455
20
-3.63301851893786
30
0
41
1
10
50.796100670828
20
-3.63303774691636
30
0
0
SPLINE
5
9C
100
AcDbEntity
8
1
62
256
6
ByLayer
370
18
48
1
60
0
100
AcDbSpline
70
4
71
1
72
4
73
2
40
0
40
0
40
1
40
1
41
1
10
88.4580566203713
20
-3.65738657485071
30
0
41
1
10
88.6555725770002
20
-3.65760764556143
30
0
0
SPLINE
5
9D
100
AcDbEntity
8
1
62
256
6
ByLayer
370
18
48
1
60
0
100
AcDbSpline
70
4
71
3
72
20
73
16
40
0
40
0
40
0
40
0
40
0.0921737773006449
40
0.163762377858556
40
0.211317504539749
40
0.25911310654965
40
0.312427679893168
40
0.369524586974588
40
0.427106736352589
40
0.533000966252892
40
0.627275210964071
40
0.71161514766169
40
0.830143828052532
40
0.974100047155402
40
1
40
1
40
1
40
1
41
1
10
23.224820172625
20
-3.6165242235115
30
0
41
1
10
23.4038723104959
20
-3.61663745919441
30
0
41
1
10
23.7219452652628
20
-3.61683546398552
30
0
41
1
10
24.1322475906431
20
-3.6170664573074
30
0
41
1
10
24.4563736990186
20
-3.61726740054678
30
0
41
1
10
24.7451871297888
20
-3.61742791640916
30
0
41
1
10
25.0523669443575
20
-3.6175393771459
30
0
41
1
10
25.3784311665824
20
-3.61788320956359
30
0
41
1
10
25.8067548207585
20
-3.61840417999511
30
0
41
1
10
26.3073922013508
20
-3.61807519917235
30
0
41
1
10
26.8600067087401
20
-3.61839522316015
30
0
41
1
10
27.4371073986898
20
-3.61835893113704
30
0
41
1
10
28.1107821245748
20
-3.620443401762
30
0
41
1
10
28.6709256363413
20
-3.62023819959924
30
0
41
1
10
29.0008440112782
20
-3.61989927375197
30
0
41
1
10
29.0511504308288
20
-3.619836969348
30
0
0
SPLINE
5
9E
100
AcDbEntity
8
1
62
256
6
ByLayer
370
18
48
1
60
0
100
AcDbSpline
70
4
71
3
72
10
73
6
40
0
40
0
40
0
40
0
40
0.0871933498838998
40
0.598764350484826
40
1
40
1
40
1
40
1
41
1
10
8.09340765231673
20
3.6064488926267
30
0
41
1
10
8.06174279170796
20
3.60643718167688
30
0
41
1
10
7.84429721950022
20
3.6063593244013
30
0
41
1
10
7.48111744776705
20
3.60608738819903
30
0
41
1
10
7.14963411975057
20
3.60615906588475
30
0
41
1
10
7.00392793290376
20
3.60621648016516
30
0
0
SPLINE
5
9F
100
AcDbEntity
8
1
62
256
6
ByLayer
370
18
48
1
60
0
100
AcDbSpline
70
4
71
3
72
11
73
7
40
0
40
0
40
0
40
0
40
0.290797206318763
40
0.685664216726858
40
0.955563603544573
40
1
40
1
40
1
40
1
41
1
10
7.00392678347924
20
-3.60619840075444
30
0
41
1
10
7.10827084457736
20
-3.60615118334945
30
0
41
1
10
7.35429335047127
20
-3.60609171825794
30
0
41
1
10
7.69716903643285
20
-3.60626482714929
30
0
41
1
10
7.95158001744258
20
-3.60640906210057
30
0
41
1
10
8.06430092642955
20
-3.60644562686068
30
0
41
1
10
8.08023527337468
20
-3.6064505321433
30
0
0
SPLINE
5
A0
100
AcDbEntity
8
1
62
256
6
ByLayer
370
18
48
1
60
0
100
AcDbSpline
70
4
71
3
72
16
73
12
40
0
40
0
40
0
40
0
40
0.0799372291165576
40
0.200521617126685
40
0.341596311002709
40
0.504077006886701
40
0.65424049651285
40
0.772677823432172
40
0.879300686253074
40
0.946082065131678
40
1
40
1
40
1
40
1
41
1
10
29.0515301553169
20
3.61981503979328
30
0
41
1
10
28.9490063773941
20
3.61996703526722
30
0
41
1
10
28.6918270455917
20
3.62020778790637
30
0
41
1
10
28.2537089228612
20
3.62076556848498
30
0
41
1
10
27.7097394618896
20
3.61846943296788
30
0
41
1
10
27.1278199297678
20
3.61851313859736
30
0
41
1
10
26.5749339105641
20
3.61819337360885
30
0
41
1
10
26.0936941050202
20
3.6182159029585
30
0
41
1
10
25.7193921056727
20
3.61830307602898
30
0
41
1
10
25.4278384876294
20
3.61795975848602
30
0
41
1
10
25.273036056579
20
3.61776489318902
30
0
41
1
10
25.2038839960182
20
3.61770139339672
30
0
0
SPLINE
5
A1
100
AcDbEntity
8
1
62
256
6
ByLayer
370
18
48
1
60
0
100
AcDbSpline
70
4
71
3
72
19
73
15
40
0
40
0
40
0
40
0
40
0.0989963505699768
40
0.170519007957917
40
0.217557686939987
40
0.264614328664829
40
0.317192569441137
40
0.373573100381227
40
0.430302576933932
40
0.582464959230414
40
0.709563143519298
40
0.812654832547522
40
0.943591735820641
40
1
40
1
40
1
40
1
41
1
10
66.68876731362
20
-3.64361628933582
30
0
41
1
10
66.8820942881304
20
-3.64370194185781
30
0
41
1
10
67.2150343679176
20
-3.64386774906234
30
0
41
1
10
67.6396999259421
20
-3.64403205204962
30
0
41
1
10
67.9628883749023
20
-3.64428867588219
30
0
41
1
10
68.249350093276
20
-3.64439408026846
30
0
41
1
10
68.5538707861259
20
-3.64450016570891
30
0
41
1
10
68.8771206056857
20
-3.6447201233037
30
0
41
1
10
69.3949408255725
20
-3.64488804743021
30
0
41
1
10
70.0510756550735
20
-3.64501420897079
30
0
41
1
10
70.7975528485667
20
-3.64630793660598
30
0
41
1
10
71.5027026576878
20
-3.64528112971334
30
0
41
1
10
72.0698056973751
20
-3.64469304574052
30
0
41
1
10
72.4356109614934
20
-3.64581499236837
30
0
41
1
10
72.5457518462997
20
-3.64623749199512
30
0
0
SPLINE
5
A2
100
AcDbEntity
8
1
62
256
6
ByLayer
370
18
48
1
60
0
100
AcDbSpline
70
4
71
3
72
17
73
13
40
0
40
0
40
0
40
0
40
0.0079852933511505
40
0.111680834667023
40
0.215117059120233
40
0.335327706842517
40
0.495512340853251
40
0.647703375931966
40
0.769740680404201
40
0.877589691350948
40
0.943814829890376
40
1
40
1
40
1
40
1
41
1
10
50.7972877989724
20
3.63311580925435
30
0
41
1
10
50.7869873712011
20
3.63311473635363
30
0
41
1
10
50.6429274965347
20
3.63309529442066
30
0
41
1
10
50.3654427983687
20
3.6328861737808
30
0
41
1
10
49.9431957522637
20
3.63238918058448
30
0
41
1
10
49.4480882877109
20
3.63277466273752
30
0
41
1
10
48.8900866635778
20
3.63201199240572
30
0
41
1
10
48.3297263078214
20
3.63193222740696
30
0
41
1
10
47.8368785275364
20
3.63170714036446
30
0
41
1
10
47.4549178933033
20
3.63132220730242
30
0
41
1
10
47.1579003987348
20
3.63123711769307
30
0
41
1
10
47.000000634186
20
3.63123360733067
30
0
41
1
10
46.9275264884211
20
3.63121194731036
30
0
0
SPLINE
5
A3
100
AcDbEntity
8
1
62
256
6
ByLayer
370
18
48
1
60
0
100
AcDbSpline
70
4
71
3
72
18
73
14
40
0
40
0
40
0
40
0
40
0.0531624524788717
40
0.140721183122709
40
0.230997655581245
40
0.338830120763456
40
0.499401258522731
40
0.648101988357152
40
0.765435640355959
40
0.870373518745795
40
0.935841922289702
40
0.99964464218902
40
1
40
1
40
1
40
1
41
1
10
72.5428234751678
20
3.64616890264867
30
0
41
1
10
72.4740046748861
20
3.64589213929725
30
0
41
1
10
72.2918409053365
20
3.64529157765631
30
0
41
1
10
71.9928122495584
20
3.64504297673091
30
0
41
1
10
71.6230141843357
20
3.64522135528563
30
0
41
1
10
71.1587084534276
20
3.64563793713782
30
0
41
1
10
70.618760265281
20
3.64648607624199
30
0
41
1
10
70.0665203111909
20
3.64502824310867
30
0
41
1
10
69.5862942479785
20
3.64465323946874
30
0
41
1
10
69.2138137355754
20
3.64488592054568
30
0
41
1
10
68.9106275933844
20
3.6447192209715
30
0
41
1
10
68.7428258922313
20
3.64462858254978
30
0
41
1
10
68.6597733779256
20
3.64459322685951
30
0
41
1
10
68.6593133678966
20
3.64459303132216
30
0
0
SPLINE
5
A4
100
AcDbEntity
8
1
62
256
6
ByLayer
370
18
48
1
60
0
100
AcDbSpline
70
4
71
3
72
8
73
4
40
0
40
0
40
0
40
0
40
1
40
1
40
1
40
1
41
1
10
88.6512092758094
20
-3.75076762838924
30
0
41
1
10
88.6387218338143
20
-3.78226751748591
30
0
41
1
10
88.626228685947
20
-3.81373776700113
30
0
41
1
10
88.6137316988168
20
-3.84517638079271
30
0
0
SPLINE
5
A5
100
AcDbEntity
8
1
62
256
6
ByLayer
370
18
48
1
60
0
100
AcDbSpline
70
4
71
3
72
8
73
4
40
0
40
0
40
0
40
0
40
1
40
1
40
1
40
1
41
1
10
89.87792252742
20
-0.211110337277375
30
0
41
1
10
89.46046902936
20
-1.35805439686934
30
0
41
1
10
89.0430155312999
20
-2.50499845646135
30
0
41
1
10
88.62556203324
20
-3.65194251605294
30
0
0
SPLINE
5
A6
100
AcDbEntity
8
1
62
256
6
ByLayer
370
18
48
1
60
0
100
AcDbSpline
70
4
71
3
72
24
73
20
40
0
40
0
40
0
40
0
40
0.0958213187617053
40
0.0958213187617053
40
0.155859762202594
40
0.155859762202594
40
0.215898205643482
40
0.215898205643482
40
0.456051979407041
40
0.456051979407041
40
0.51609042284793
40
0.51609042284793
40
0.576128866288819
40
0.576128866288819
40
0.696205753170599
40
0.696205753170599
40
0.936359526934158
40
0.936359526934158
40
1
40
1
40
1
40
1
41
1
10
7.21722035553762
20
2.42055694652981
30
0
41
1
10
7.55983802532873
20
2.28198125768094
30
0
41
1
10
7.90211056122968
20
2.13461232235835
30
0
41
1
10
8.45949996703203
20
1.88248187266575
30
0
41
1
10
8.67457265492547
20
1.78227231767204
30
0
41
1
10
9.10303117147851
20
1.57783641197264
30
0
41
1
10
9.31669264378158
20
1.47348189179388
30
0
41
1
10
10.3831090479628
20
0.942755398365193
30
0
41
1
10
11.2307534722133
20
0.490608547360068
30
0
41
1
10
12.2982164309687
20
-0.0817455858642688
30
0
41
1
10
12.5121031988353
20
-0.196576664739951
30
0
41
1
10
12.9412183467114
20
-0.425894993677844
30
0
41
1
10
13.1561021788913
20
-0.540133153894772
30
0
41
1
10
13.7976727676962
20
-0.878177417811003
30
0
41
1
10
14.2228131304074
20
-1.09861157916276
30
0
41
1
10
15.4952931878281
20
-1.73701436065954
30
0
41
1
10
16.3401166355259
20
-2.13131644375682
30
0
41
1
10
17.4201538145853
20
-2.56358993812521
30
0
41
1
10
17.6475190668114
20
-2.65057408674687
30
0
41
1
10
17.8748407639231
20
-2.73316268125819
30
0
0
SPLINE
5
A7
100
AcDbEntity
8
1
62
256
6
ByLayer
370
13
48
1
60
0
100
AcDbSpline
70
4
71
3
72
18
73
14
40
0
40
0
40
0
40
0
40
0.0902634043451213
40
0.0902634043451213
40
0.282312258292435
40
0.282312258292435
40
0.666409966187061
40
0.666409966187061
40
0.762434393160719
40
0.762434393160719
40
0.858458820134377
40
0.858458820134377
40
1
40
1
40
1
40
1
41
1
10
17.8748407639863
20
-2.73316268128119
30
0
41
1
10
18.0764297960622
20
-2.80640230178125
30
0
41
1
10
18.2779845757246
20
-2.87618519075505
30
0
41
1
10
18.9057469977601
20
-3.08183130747886
30
0
41
1
10
19.3304379064304
20
-3.20418300566303
30
0
41
1
10
20.6023264078765
20
-3.51488357073265
30
0
41
1
10
21.4471727150755
20
-3.64688550475779
30
0
41
1
10
22.5152202344972
20
-3.70692997964872
30
0
41
1
10
22.7297887844755
20
-3.71369401916562
30
0
41
1
10
23.1590038613251
20
-3.71648636573153
30
0
41
1
10
23.3728324787364
20
-3.71253102473548
30
0
41
1
10
23.9004908193099
20
-3.68974759900232
30
0
41
1
10
24.2136871149779
20
-3.66476939622979
30
0
41
1
10
24.5263119457753
20
-3.62874265702456
30
0
0
SPLINE
5
A8
100
AcDbEntity
8
1
62
256
6
ByLayer
370
18
48
1
60
0
100
AcDbSpline
70
4
71
3
72
16
73
12
40
0
40
0
40
0
40
0
40
0.398432268197104
40
0.398432268197104
40
0.504229482866585
40
0.504229482866585
40
0.610026697536067
40
0.610026697536067
40
0.821621126875027
40
0.821621126875027
40
1
40
1
40
1
40
1
41
1
10
55.6591438420172
20
-0.0074256867335407
30
0
41
1
10
56.4579079882679
20
-0.438468455256867
30
0
41
1
10
57.2519238218864
20
-0.86685251628731
30
0
41
1
10
58.264024003082
20
-1.38079100138586
30
0
41
1
10
58.4767702010285
20
-1.48708514795371
30
0
41
1
10
58.903548021478
20
-1.6956570702601
30
0
41
1
10
59.117988063713
20
-1.79814346438218
30
0
41
1
10
59.7607155376467
20
-2.09731865870387
30
0
41
1
10
60.1862219492538
20
-2.28448764632992
30
0
41
1
10
60.9678733752775
20
-2.6029598468626
30
0
41
1
10
61.3244323876792
20
-2.73842473032056
30
0
41
1
10
61.6809705119671
20
-2.86252024995056
30
0
0
SPLINE
5
A9
100
AcDbEntity
8
1
62
256
6
ByLayer
370
13
48
1
60
0
100
AcDbSpline
70
4
71
3
72
16
73
12
40
0
40
0
40
0
40
0
40
0.231119240019345
40
0.231119240019345
40
0.330999854843467
40
0.330999854843467
40
0.430880469667586
40
0.430880469667586
40
0.630641699315828
40
0.630641699315828
40
1
40
1
40
1
40
1
41
1
10
61.6809705132601
20
-2.86252025040059
30
0
41
1
10
62.1702890712822
20
-3.03283090323799
30
0
41
1
10
62.659568286019
20
-3.18172707335452
30
0
41
1
10
63.3637836562378
20
-3.3600035018278
30
0
41
1
10
63.5767046466205
20
-3.40926520695322
30
0
41
1
10
64.0038833662514
20
-3.4981997857889
30
0
41
1
10
64.2186830498121
20
-3.53794845272927
30
0
41
1
10
64.8604257483755
20
-3.64130168499099
30
0
41
1
10
65.2853708865374
20
-3.68932204337705
30
0
41
1
10
66.4927586057842
20
-3.76634877556393
30
0
41
1
10
67.2721010421365
20
-3.74455835981954
30
0
41
1
10
68.0574129054068
20
-3.65156938374523
30
0
0
SPLINE
5
AA
100
AcDbEntity
8
1
62
256
6
ByLayer
370
13
48
1
60
0
100
AcDbSpline
70
4
71
3
72
8
73
4
40
0
40
0
40
0
40
0
40
1
40
1
40
1
40
1
41
1
10
6.76074285855401
20
2.74678290415747
30
0
41
1
10
6.76446369123062
20
2.72930143672843
30
0
41
1
10
6.76969064350814
20
2.71222041956966
30
0
41
1
10
6.77640509193304
20
2.69576730127784
30
0
0
SPLINE
5
AB
100
AcDbEntity
8
1
62
256
6
ByLayer
370
13
48
1
60
0
100
AcDbSpline
70
4
71
3
72
22
73
18
40
0
40
0
40
0
40
0
40
0.194269400956318
40
0.194269400956318
40
0.388538801912635
40
0.388538801912635
40
0.582808202868953
40
0.582808202868953
40
0.679942903347111
40
0.679942903347111
40
0.77707760382527
40
0.77707760382527
40
0.874212304303429
40
0.874212304303429
40
0.971347004781587
40
0.971347004781587
40
1
40
1
40
1
40
1
41
1
10
7.00422013821145
20
2.51880816978076
30
0
41
1
10
7.00421186689448
20
2.65319997279602
30
0
41
1
10
7.00419758032575
20
2.77618976727015
30
0
41
1
10
7.00416119720137
20
2.99977233398036
30
0
41
1
10
7.00413893804057
20
3.10069652179416
30
0
41
1
10
7.0040920496391
20
3.27451002567216
30
0
41
1
10
7.00406733271041
20
3.34818995410629
30
0
41
1
10
7.00403138659655
20
3.43898687588717
30
0
41
1
10
7.00401958909333
20
3.46595094721732
30
0
41
1
10
7.00399684445711
20
3.51311535483271
30
0
41
1
10
7.00398590107744
20
3.53328870854088
30
0
41
1
10
7.00396559336605
20
3.56625853568946
30
0
41
1
10
7.00395618991132
20
3.57914093166917
30
0
41
1
10
7.00393925813256
20
3.59768915780413
30
0
41
1
10
7.00393172149899
20
3.60333974054714
30
0
41
1
10
7.00392349002931
20
3.60590981172626
30
0
41
1
10
7.00392171565994
20
3.60618125252168
30
0
41
1
10
7.00392004400811
20
3.60613978261958
30
0
0
SPLINE
5
AC
100
AcDbEntity
8
1
62
256
6
ByLayer
370
18
48
1
60
0
100
AcDbSpline
70
4
71
3
72
8
73
4
40
0
40
0
40
0
40
0
40
1
40
1
40
1
40
1
41
1
10
88.7546953818619
20
-3.74768390329624
30
0
41
1
10
88.7001746321176
20
-3.8006009566214
30
0
41
1
10
88.6533111678267
20
-3.83350979578239
30
0
41
1
10
88.6137316988168
20
-3.84517638079274
30
0
0
SPLINE
5
AD
100
AcDbEntity
8
1
62
256
6
ByLayer
370
18
48
1
60
0
100
AcDbSpline
70
4
71
3
72
28
73
24
40
0
40
0
40
0
40
0
40
0.125000000000013
40
0.125000000000013
40
0.187500000000019
40
0.187500000000019
40
0.250000000000025
40
0.250000000000025
40
0.312500000000032
40
0.312500000000032
40
0.343750000000033
40
0.343750000000033
40
0.375000000000034
40
0.375000000000034
40
0.437500000000031
40
0.437500000000031
40
0.500000000000027
40
0.500000000000027
40
0.625000000000021
40
0.625000000000021
40
0.750000000000014
40
0.750000000000014
40
1
40
1
40
1
40
1
41
1
10
88.8778412581394
20
-1.56851234810765
30
0
41
1
10
88.8177135453079
20
-1.52677709242718
30
0
41
1
10
88.7594887675631
20
-1.48094766899177
30
0
41
1
10
88.6769741433287
20
-1.40182782651272
30
0
41
1
10
88.6505560351084
20
-1.37392590725634
30
0
41
1
10
88.6012759586461
20
-1.31414856502281
30
0
41
1
10
88.5780671993044
20
-1.28188766185676
30
0
41
1
10
88.5387841884304
20
-1.21228943367848
30
0
41
1
10
88.5226425964388
20
-1.1744831242153
30
0
41
1
10
88.5101579649597
20
-1.11709044093169
30
0
41
1
10
88.5079126375966
20
-1.09743636712736
30
0
41
1
10
88.5082924965416
20
-1.0595536671396
30
0
41
1
10
88.5108280457245
20
-1.04155947918497
30
0
41
1
10
88.5252223153603
20
-0.990317759435442
30
0
41
1
10
88.543590758014
20
-0.961826504529199
30
0
41
1
10
88.5873721123878
20
-0.916753572428206
30
0
41
1
10
88.6132124279732
20
-0.899261893410056
30
0
41
1
10
88.6945698736406
20
-0.857446074268324
30
0
41
1
10
88.7545733529512
20
-0.842634096880658
30
0
41
1
10
88.8768925968178
20
-0.825450563176389
30
0
41
1
10
88.9391278474207
20
-0.823459484525955
30
0
41
1
10
89.1278334295487
20
-0.82975837999615
30
0
41
1
10
89.2569293952282
20
-0.850475473641666
30
0
41
1
10
89.3840881667245
20
-0.881387618549809
30
0
0
SPLINE
5
AE
100
AcDbEntity
8
1
62
256
6
ByLayer
370
18
48
1
60
0
100
AcDbSpline
70
4
71
3
72
10
73
6
40
0
40
0
40
0
40
0
40
0.5
40
0.5
40
1
40
1
40
1
40
1
41
1
10
88.7546953818619
20
-3.74768390329621
30
0
41
1
10
88.9418907354496
20
-3.2877966019804
30
0
41
1
10
89.1285623777238
20
-2.82592250577869
30
0
41
1
10
89.4978308945099
20
-1.89690527344121
30
0
41
1
10
89.6803538743694
20
-1.42987798944819
30
0
41
1
10
89.8582672265106
20
-0.962705522864695
30
0
0
SPLINE
5
AF
100
AcDbEntity
8
1
62
256
6
ByLayer
370
18
48
1
60
0
100
AcDbSpline
70
4
71
3
72
8
73
4
40
0
40
0
40
0
40
0
40
1
40
1
40
1
40
1
41
1
10
88.6137316988168
20
3.84517638079268
30
0
41
1
10
88.4990139770596
20
3.84827418845123
30
0
41
1
10
88.3842561007731
20
3.84977931207348
30
0
41
1
10
88.2694573806319
20
3.84969431093913
30
0
0
SPLINE
5
B0
100
AcDbEntity
8
1
62
256
6
ByLayer
370
18
48
1
60
0
100
AcDbSpline
70
4
71
3
72
56
73
52
40
0
40
0
40
0
40
0
40
0.0204897498733225
40
0.0204897498733225
40
0.0471692306372131
40
0.0471692306372131
40
0.073848711401104
40
0.073848711401104
40
0.127207672928884
40
0.127207672928884
40
0.180566634456664
40
0.180566634456664
40
0.233925595984445
40
0.233925595984445
40
0.260605076748334
40
0.260605076748334
40
0.287284557512223
40
0.287284557512223
40
0.340643519040004
40
0.340643519040004
40
0.367322999803894
40
0.367322999803894
40
0.394002480567785
40
0.394002480567785
40
0.447361442095567
40
0.447361442095567
40
0.500720403623348
40
0.500720403623348
40
0.55407936515113
40
0.55407936515113
40
0.607438326678912
40
0.607438326678912
40
0.634117807442803
40
0.634117807442803
40
0.660797288206694
40
0.660797288206694
40
0.714156249734477
40
0.714156249734477
40
0.740835730498368
40
0.740835730498368
40
0.767515211262259
40
0.767515211262259
40
0.820874172790044
40
0.820874172790044
40
0.874233134317828
40
0.874233134317828
40
0.927592095845612
40
0.927592095845612
40
0.980951057373396
40
0.980951057373396
40
1
40
1
40
1
40
1
41
1
10
68.6983464757065
20
-3.64910705508478
30
0
41
1
10
68.5350777266347
20
-3.67701105026887
30
0
41
1
10
68.3718301955938
20
-3.70186419469775
30
0
41
1
10
67.9958535891689
20
-3.75194393240579
30
0
41
1
10
67.7830772485494
20
-3.77501679030937
30
0
41
1
10
67.3568831034775
20
-3.81043997593062
30
0
41
1
10
67.1435284490109
20
-3.82276464726789
30
0
41
1
10
66.5048816183698
20
-3.84333131766897
30
0
41
1
10
66.0801502407058
20
-3.83527768990916
30
0
41
1
10
65.2290883773002
20
-3.77597118412001
30
0
41
1
10
64.8020963929296
20
-3.7244645964353
30
0
41
1
10
63.9509410322395
20
-3.58033722764284
30
0
41
1
10
63.526171936424
20
-3.48766265631727
30
0
41
1
10
62.8874770801878
20
-3.31966005226806
30
0
41
1
10
62.6740787080263
20
-3.25875120806339
30
0
41
1
10
62.2477624397162
20
-3.12787418935042
30
0
41
1
10
62.0349629698364
20
-3.05798023311348
30
0
41
1
10
61.3968502441703
20
-2.83587331062739
30
0
41
1
10
60.9719239697315
20
-2.67112860630985
30
0
41
1
10
60.3327708105984
20
-2.40205219183392
30
0
41
1
10
60.1192259283441
20
-2.3086527869732
30
0
41
1
10
59.6931780853357
20
-2.11595016363816
30
0
41
1
10
59.4804574413748
20
-2.01655718393377
30
0
41
1
10
58.8424195724692
20
-1.71049967175725
30
0
41
1
10
58.4173361489313
20
-1.49578783940527
30
0
41
1
10
57.5643398574881
20
-1.05044620611341
30
0
41
1
10
57.1384202107288
20
-0.820868996784782
30
0
41
1
10
56.2877238463771
20
-0.355751168963394
30
0
41
1
10
55.8621815108968
20
-0.119815729149082
30
0
41
1
10
55.0087386911094
20
0.35197096586171
30
0
41
1
10
54.5835031304591
20
0.58628763314735
30
0
41
1
10
53.9453552234735
20
0.93089871028684
30
0
41
1
10
53.7325827154876
20
1.04461233838643
30
0
41
1
10
53.3065716016886
20
1.2690947629444
30
0
41
1
10
53.0930579041721
20
1.37997293436686
30
0
41
1
10
52.4534732083047
20
1.70554347923383
30
0
41
1
10
52.0283919496986
20
1.91349215399762
30
0
41
1
10
51.390070742369
20
2.20760595068646
30
0
41
1
10
51.1771802225435
20
2.30267817297221
30
0
41
1
10
50.7508249070595
20
2.48635210980277
30
0
41
1
10
50.5372860199742
20
2.57494657969971
30
0
41
1
10
49.8981358236394
20
2.82859308023359
30
0
41
1
10
49.4730249587661
20
2.98207936290842
30
0
41
1
10
48.6216214015558
20
3.2541765626568
30
0
41
1
10
48.194299166473
20
3.37283164314425
30
0
41
1
10
47.3425327979604
20
3.56981251426413
30
0
41
1
10
46.9174394652818
20
3.64838018157349
30
0
41
1
10
46.0655020295272
20
3.76364666067377
30
0
41
1
10
45.6381987194919
20
3.80024432775662
30
0
41
1
10
45.0604812680262
20
3.82025104883598
30
0
41
1
10
44.9085633477364
20
3.82275354358416
30
0
41
1
10
44.7566401843544
20
3.82249549040651
30
0
0
SPLINE
5
B1
100
AcDbEntity
8
1
62
256
6
ByLayer
370
18
48
1
60
0
100
AcDbSpline
70
4
71
3
72
42
73
38
40
0
40
0
40
0
40
0
40
0.0203624106753156
40
0.0203624106753156
40
0.0553494674369103
40
0.0553494674369103
40
0.0903365241985051
40
0.0903365241985051
40
0.160310637721695
40
0.160310637721695
40
0.195297694483291
40
0.195297694483291
40
0.230284751244887
40
0.230284751244887
40
0.300258864768078
40
0.300258864768078
40
0.37023297829127
40
0.37023297829127
40
0.440207091814462
40
0.440207091814462
40
0.510181205337653
40
0.510181205337653
40
0.54516826209925
40
0.54516826209925
40
0.580155318860846
40
0.580155318860846
40
0.650129432384037
40
0.650129432384037
40
0.685116489145633
40
0.685116489145633
40
0.720103545907229
40
0.720103545907229
40
0.790077659430422
40
0.790077659430422
40
0.860051772953614
40
0.860051772953614
40
1
40
1
40
1
40
1
41
1
10
25.1625450058174
20
-3.62926974033729
30
0
41
1
10
25.0385652974829
20
-3.64997341688107
30
0
41
1
10
24.9145400730728
20
-3.668939549985
30
0
41
1
10
24.5771816728195
20
-3.71569991312282
30
0
41
1
10
24.3634124459955
20
-3.74006114087808
30
0
41
1
10
23.9365752494509
20
-3.77794969588754
30
0
41
1
10
23.7234763142819
20
-3.79151046494371
30
0
41
1
10
23.0845168543875
20
-3.81599528544638
30
0
41
1
10
22.6589140746613
20
-3.81071501496649
30
0
41
1
10
22.0186461068178
20
-3.77030965602688
30
0
41
1
10
21.8048518681659
20
-3.7514056094459
30
0
41
1
10
21.3782682484189
20
-3.70308546846559
30
0
41
1
10
21.1652462323974
20
-3.67364773433263
30
0
41
1
10
20.526315727606
20
-3.56987283601231
30
0
41
1
10
20.100575148932
20
-3.48005009906279
30
0
41
1
10
19.2460365727721
20
-3.26121464981188
30
0
41
1
10
18.8198036827013
20
-3.1327721433548
30
0
41
1
10
17.9678747708558
20
-2.84216798805994
30
0
41
1
10
17.5414576869815
20
-2.67973238754328
30
0
41
1
10
16.6870450327432
20
-2.32555218693389
30
0
41
1
10
16.2612254724879
20
-2.13486790594553
30
0
41
1
10
15.6221378988015
20
-1.8322415742492
30
0
41
1
10
15.4090759030208
20
-1.72855628194821
30
0
41
1
10
14.9824352793644
20
-1.5162597107379
30
0
41
1
10
14.7686002954847
20
-1.40753141418287
30
0
41
1
10
14.128258864025
20
-1.07659472248744
30
0
41
1
10
13.7024593936996
20
-0.849453443970134
30
0
41
1
10
13.0630553778888
20
-0.50318412416803
30
0
41
1
10
12.8498671600507
20
-0.38671851764812
30
0
41
1
10
12.4229175293403
20
-0.152528309622085
30
0
41
1
10
12.2091481661929
20
-0.0348461187511759
30
0
41
1
10
11.5692482968733
20
0.316732735391128
30
0
41
1
10
11.1435028558759
20
0.549796088209007
30
0
41
1
10
10.2906113857649
20
1.00765836170848
30
0
41
1
10
9.86254445190252
20
1.23317703038393
30
0
41
1
10
8.58481246626985
20
1.88149165609161
30
0
41
1
10
7.73821551151084
20
2.27754032056834
30
0
41
1
10
6.88374546518875
20
2.61693335344165
30
0
0
SPLINE
5
B2
100
AcDbEntity
8
1
62
256
6
ByLayer
370
18
48
1
60
0
100
AcDbSpline
70
4
71
3
72
8
73
4
40
0
40
0
40
0
40
0
40
1
40
1
40
1
40
1
41
1
10
89.9778567929191
20
-0.137115914117345
30
0
41
1
10
89.9815291929249
20
-0.108050425041341
30
0
41
1
10
89.9895688011615
20
-0.0721068661569291
30
0
41
1
10
89.9999624559225
20
-0.034050967058505
30
0
0
SPLINE
5
B3
100
AcDbEntity
8
1
62
256
6
ByLayer
370
18
48
1
60
0
100
AcDbSpline
70
4
71
3
72
18
73
14
40
0
40
0
40
0
40
0
40
0.250000000000001
40
0.250000000000001
40
0.375000000000002
40
0.375000000000002
40
0.500000000000002
40
0.500000000000002
40
0.749999999999999
40
0.749999999999999
40
0.874999999999999
40
0.874999999999999
40
1
40
1
40
1
40
1
41
1
10
7.00394905173727
20
-3.25875210683967
30
0
41
1
10
7.12066318382295
20
-3.3483527613011
30
0
41
1
10
7.24457652964208
20
-3.41953187527327
30
0
41
1
10
7.44171967196257
20
-3.50103317299144
30
0
41
1
10
7.5095036318308
20
-3.52398160861333
30
0
41
1
10
7.64703095881657
20
-3.56113041156706
30
0
41
1
10
7.71698627278334
20
-3.57544111611878
30
0
41
1
10
7.93063577921379
20
-3.60645700789601
30
0
41
1
10
8.07809815137622
20
-3.61128782365182
30
0
41
1
10
8.30798522098283
20
-3.59715378708722
30
0
41
1
10
8.38619041876058
20
-3.58884197413008
30
0
41
1
10
8.54459030178114
20
-3.56558293412496
30
0
41
1
10
8.62489342978716
20
-3.55063884384356
30
0
41
1
10
8.70639319525449
20
-3.53261212110522
30
0
0
SPLINE
5
B4
100
AcDbEntity
8
1
62
256
6
ByLayer
370
18
48
1
60
0
100
AcDbSpline
70
4
71
3
72
26
73
22
40
0
40
0
40
0
40
0
40
0.210260665286555
40
0.210260665286555
40
0.31539099792983
40
0.31539099792983
40
0.367956164251468
40
0.367956164251468
40
0.420521330573106
40
0.420521330573106
40
0.630781995859652
40
0.630781995859652
40
0.683347162181289
40
0.683347162181289
40
0.735912328502925
40
0.735912328502925
40
0.841042661146198
40
0.841042661146198
40
0.946172993789471
40
0.946172993789471
40
1
40
1
40
1
40
1
41
1
10
8.70639319525449
20
-3.53261212110522
30
0
41
1
10
9.11611638131635
20
-3.49028808482211
30
0
41
1
10
9.52275834023348
20
-3.43022378757408
30
0
41
1
10
10.1290015541187
20
-3.31306073610875
30
0
41
1
10
10.3306007498055
20
-3.26974952651781
30
0
41
1
10
10.6327192140293
20
-3.19868693788959
30
0
41
1
10
10.7332200110686
20
-3.17381958235706
30
0
41
1
10
10.9348950266538
20
-3.12271141997959
30
0
41
1
10
11.035788246543
20
-3.09621312844195
30
0
41
1
10
11.5400854305387
20
-2.95865423288706
30
0
41
1
10
11.9432628769436
20
-2.83264016903112
30
0
41
1
10
12.4479924000187
20
-2.65720363579447
30
0
41
1
10
12.5489548450073
20
-2.62119795429518
30
0
41
1
10
12.7509715994824
20
-2.54746831752431
30
0
41
1
10
12.8519113604178
20
-2.50961235904165
30
0
41
1
10
13.1561521590491
20
-2.39507781130783
30
0
41
1
10
13.3596521106285
20
-2.31501239757316
30
0
41
1
10
13.7676723113513
20
-2.14814249596466
30
0
41
1
10
13.9723381744334
20
-2.06138362167206
30
0
41
1
10
14.2801476892294
20
-1.92688246748043
30
0
41
1
10
14.3841915021156
20
-1.88067465118723
30
0
41
1
10
14.4880669149608
20
-1.83384229223617
30
0
0
SPLINE
5
B5
100
AcDbEntity
8
1
62
256
6
ByLayer
370
18
48
1
60
0
100
AcDbSpline
70
4
71
3
72
112
73
108
40
0
40
0
40
0
40
0
40
0.0114621695015911
40
0.0114621695015911
40
0.0219570929972327
40
0.0219570929972327
40
0.0324520164928743
40
0.0324520164928743
40
0.0534418634841573
40
0.0534418634841573
40
0.0744317104754402
40
0.0744317104754402
40
0.0849266339710818
40
0.0849266339710818
40
0.0954215574667234
40
0.0954215574667234
40
0.116411404458008
40
0.116411404458008
40
0.137401251449292
40
0.137401251449292
40
0.158391098440576
40
0.158391098440576
40
0.168886021936219
40
0.168886021936219
40
0.179380945431861
40
0.179380945431861
40
0.221360639414432
40
0.221360639414432
40
0.242350486405718
40
0.242350486405718
40
0.263340333397004
40
0.263340333397004
40
0.284330180388289
40
0.284330180388289
40
0.305320027379575
40
0.305320027379575
40
0.326309874370861
40
0.326309874370861
40
0.347299721362147
40
0.347299721362147
40
0.368289568353433
40
0.368289568353433
40
0.389279415344718
40
0.389279415344718
40
0.431259109327289
40
0.431259109327289
40
0.452248956318574
40
0.452248956318574
40
0.47323880330986
40
0.47323880330986
40
0.51521849729243
40
0.51521849729243
40
0.525713420788073
40
0.525713420788073
40
0.536208344283715
40
0.536208344283715
40
0.557198191275001
40
0.557198191275001
40
0.578188038266286
40
0.578188038266286
40
0.599177885257571
40
0.599177885257571
40
0.620167732248856
40
0.620167732248856
40
0.641157579240142
40
0.641157579240142
40
0.662147426231427
40
0.662147426231427
40
0.672642349727069
40
0.672642349727069
40
0.683137273222711
40
0.683137273222711
40
0.704127120213995
40
0.704127120213995
40
0.725116967205279
40
0.725116967205279
40
0.735611890700921
40
0.735611890700921
40
0.746106814196563
40
0.746106814196563
40
0.767096661187847
40
0.767096661187847
40
0.788086508179131
40
0.788086508179131
40
0.809076355170415
40
0.809076355170415
40
0.819571278666057
40
0.819571278666057
40
0.830066202161698
40
0.830066202161698
40
0.85105604915298
40
0.85105604915298
40
0.872045896144262
40
0.872045896144262
40
0.893035743135544
40
0.893035743135544
40
0.914025590126826
40
0.914025590126826
40
0.935015437118108
40
0.935015437118108
40
0.95600528410939
40
0.95600528410939
40
0.976995131100672
40
0.976995131100672
40
0.997984978091954
40
0.997984978091954
40
1
40
1
40
1
40
1
41
1
10
29.0200958711491
20
3.61982056958854
30
0
41
1
10
29.1315109097644
20
3.61993504823522
30
0
41
1
10
29.2429778967043
20
3.61864669892299
30
0
41
1
10
29.4561519739721
20
3.61348559533781
30
0
41
1
10
29.5577962152887
20
3.60981786274212
30
0
41
1
10
29.7616838906432
20
3.6003591915466
30
0
41
1
10
29.863710568085
20
3.59455160877471
30
0
41
1
10
30.1695445130285
20
3.57396371368725
30
0
41
1
10
30.3732126940403
20
3.55611438325397
30
0
41
1
10
30.7805156610612
20
3.51043636263071
30
0
41
1
10
30.9842576398403
20
3.48247636948821
30
0
41
1
10
31.289950185943
20
3.43367388249715
30
0
41
1
10
31.3918514393533
20
3.41627372000301
30
0
41
1
10
31.5957495708446
20
3.37916643780608
30
0
41
1
10
31.697661493117
20
3.35937815227223
30
0
41
1
10
32.0036767506907
20
3.297585830386
30
0
41
1
10
32.2071359375847
20
3.25204459258234
30
0
41
1
10
32.6128900566715
20
3.15323313867452
30
0
41
1
10
32.815245383306
20
3.10014238578617
30
0
41
1
10
33.2192026909959
20
2.98599747339415
30
0
41
1
10
33.4207299421047
20
2.9247027623299
30
0
41
1
10
33.722586975973
20
2.82708664704745
30
0
41
1
10
33.8231342150354
20
2.79361633617512
30
0
41
1
10
34.0247571060634
20
2.72571091912084
30
0
41
1
10
34.125574372182
20
2.69094267853421
30
0
41
1
10
34.6296337890382
20
2.51271620476632
30
0
41
1
10
35.0328562392926
20
2.35591091006452
30
0
41
1
10
35.6387993610948
20
2.10240917591528
30
0
41
1
10
35.8407533180252
20
2.01412926442595
30
0
41
1
10
36.2472609038797
20
1.83463698066905
30
0
41
1
10
36.4510509867142
20
1.74237823590164
30
0
41
1
10
36.8596703339811
20
1.55250363512937
30
0
41
1
10
37.0632906272805
20
1.45555009554343
30
0
41
1
10
37.469226131182
20
1.25835091422329
30
0
41
1
10
37.6715085031075
20
1.15800859137889
30
0
41
1
10
38.0750534823002
20
0.954370005512175
30
0
41
1
10
38.2771477608134
20
0.852598761428027
30
0
41
1
10
38.6806218499858
20
0.646809250784287
30
0
41
1
10
38.8820393612551
20
0.542870059938622
30
0
41
1
10
39.28468624319
20
0.333694212197571
30
0
41
1
10
39.4859771549425
20
0.228489045603567
30
0
41
1
10
39.8883855972628
20
0.0168349419311369
30
0
41
1
10
40.0894605678799
20
-0.0896965155585292
30
0
41
1
10
40.6953170378255
20
-0.405453971724142
30
0
41
1
10
41.1006611541693
20
-0.615296622761633
30
0
41
1
10
41.7111064072439
20
-0.927825340002272
30
0
41
1
10
41.9152746899132
20
-1.03154110323283
30
0
41
1
10
42.3222598448377
20
-1.23561430268913
30
0
41
1
10
42.5264336135694
20
-1.33444513211992
30
0
41
1
10
43.1374178917073
20
-1.62831151928728
30
0
41
1
10
43.5443541475445
20
-1.81598494037684
30
0
41
1
10
44.0532804211417
20
-2.04071901722003
30
0
41
1
10
44.1550515884518
20
-2.08518162244269
30
0
41
1
10
44.3589044061819
20
-2.17247213816751
30
0
41
1
10
44.4610566773491
20
-2.21466989784554
30
0
41
1
10
44.7666289738
20
-2.33945055209651
30
0
41
1
10
44.9697101739793
20
-2.41953009400476
30
0
41
1
10
45.3748063228063
20
-2.57380375486124
30
0
41
1
10
45.5768887897949
20
-2.64781178435447
30
0
41
1
10
45.9802117737116
20
-2.78811528454202
30
0
41
1
10
46.181153454966
20
-2.85536283863129
30
0
41
1
10
46.5837038794493
20
-2.98160336804583
30
0
41
1
10
46.7854199012609
20
-3.04055252340621
30
0
41
1
10
47.1883652676178
20
-3.15040067535
30
0
41
1
10
47.3897976320694
20
-3.20162735132283
30
0
41
1
10
47.7929454680121
20
-3.29647126475445
30
0
41
1
10
47.994581142612
20
-3.34014189785697
30
0
41
1
10
48.2974517656022
20
-3.39862888482395
30
0
41
1
10
48.3983428507261
20
-3.41710178041171
30
0
41
1
10
48.6010077621401
20
-3.45163430084767
30
0
41
1
10
48.7025566748208
20
-3.46782695413728
30
0
41
1
10
49.0074614456663
20
-3.51330981669219
30
0
41
1
10
49.2115391179427
20
-3.53955118527313
30
0
41
1
10
49.6193723642105
20
-3.58179319363288
30
0
41
1
10
49.8226071063783
20
-3.59806611385341
30
0
41
1
10
50.1264735362014
20
-3.61605580467941
30
0
41
1
10
50.2275888674189
20
-3.62092242994706
30
0
41
1
10
50.4295450757834
20
-3.62828307335008
30
0
41
1
10
50.5302857279609
20
-3.63077575540669
30
0
41
1
10
50.8333443571543
20
-3.6346383077952
30
0
41
1
10
51.0351561534852
20
-3.63238055193747
30
0
41
1
10
51.4381617681257
20
-3.61919609244799
30
0
41
1
10
51.639397896823
20
-3.60845146162705
30
0
41
1
10
52.0417998248276
20
-3.57679915506199
30
0
41
1
10
52.2428791109481
20
-3.5561357479838
30
0
41
1
10
52.5444652096163
20
-3.51857544002257
30
0
41
1
10
52.6449441023297
20
-3.50498963368941
30
0
41
1
10
52.8466427691724
20
-3.4759605889011
30
0
41
1
10
52.9475794378181
20
-3.46030819548622
30
0
41
1
10
53.2506375705577
20
-3.40976270966598
30
0
41
1
10
53.4529478671149
20
-3.37134954580597
30
0
41
1
10
53.8583571508301
20
-3.28606939342168
30
0
41
1
10
54.0614201524234
20
-3.23954034549982
30
0
41
1
10
54.4687111936774
20
-3.1363738151947
30
0
41
1
10
54.672319052031
20
-3.07974376313783
30
0
41
1
10
55.0800647457711
20
-2.96134824077402
30
0
41
1
10
55.2837663812463
20
-2.89860933814956
30
0
41
1
10
55.6908310225363
20
-2.76495907750612
30
0
41
1
10
55.8942911267619
20
-2.69424534231328
30
0
41
1
10
56.3012365037503
20
-2.54615774863532
30
0
41
1
10
56.5046175855955
20
-2.46859959757092
30
0
41
1
10
56.9117878531536
20
-2.30614080751459
30
0
41
1
10
57.1163012233085
20
-2.22256565592784
30
0
41
1
10
57.5231737532165
20
-2.05048879016212
30
0
41
1
10
57.7259416021946
20
-1.9618967388987
30
0
41
1
10
57.9476761367178
20
-1.86216325849321
30
0
41
1
10
57.967093921768
20
-1.85340507174706
30
0
41
1
10
57.9865075299201
20
-1.8446246663384
30
0
0
SPLINE
5
B6
100
AcDbEntity
8
1
62
256
6
ByLayer
370
18
48
1
60
0
100
AcDbSpline
70
4
71
3
72
50
73
46
40
0
40
0
40
0
40
0
40
0.0414789256874136
40
0.0414789256874136
40
0.0850480654288957
40
0.0850480654288957
40
0.128617205170377
40
0.128617205170377
40
0.172186344911859
40
0.172186344911859
40
0.215755484653341
40
0.215755484653341
40
0.259324624394824
40
0.259324624394824
40
0.302893764136306
40
0.302893764136306
40
0.346462903877788
40
0.346462903877788
40
0.390032043619269
40
0.390032043619269
40
0.477170323102231
40
0.477170323102231
40
0.520739462843713
40
0.520739462843713
40
0.564308602585195
40
0.564308602585195
40
0.607877742326677
40
0.607877742326677
40
0.651446882068159
40
0.651446882068159
40
0.6732314519389
40
0.6732314519389
40
0.695016021809641
40
0.695016021809641
40
0.73858516155112
40
0.73858516155112
40
0.7821543012926
40
0.7821543012926
40
0.82572344103408
40
0.82572344103408
40
0.869292580775559
40
0.869292580775559
40
0.912861720517038
40
0.912861720517038
40
1
40
1
40
1
40
1
41
1
10
72.5284876297535
20
3.64626406754445
30
0
41
1
10
72.72027757859
20
3.64702187360129
30
0
41
1
10
72.9120958109257
20
3.64356313101956
30
0
41
1
10
73.3057680359602
20
3.62669052807658
30
0
41
1
10
73.5073141099089
20
3.61312966322527
30
0
41
1
10
73.9128734958614
20
3.57723133752546
30
0
41
1
10
74.1161636118138
20
3.55470554376905
30
0
41
1
10
74.5237260871436
20
3.50022423323631
30
0
41
1
10
74.7282865412288
20
3.46820557768623
30
0
41
1
10
75.1352107584931
20
3.39626544167305
30
0
41
1
10
75.3378893438816
20
3.3559484842136
30
0
41
1
10
75.7420715655506
20
3.26576906582187
30
0
41
1
10
75.9443955434836
20
3.21694528743984
30
0
41
1
10
76.3482263792928
20
3.11184385656566
30
0
41
1
10
76.5497546853704
20
3.05532522239628
30
0
41
1
10
76.9525612235727
20
2.93411248842062
30
0
41
1
10
77.1538395184318
20
2.8695908963831
30
0
41
1
10
77.5560170276282
20
2.73351694846494
30
0
41
1
10
77.7568750096892
20
2.66163358268739
30
0
41
1
10
78.3623287672887
20
2.43734877480983
30
0
41
1
10
78.7668091870203
20
2.27431518524898
30
0
41
1
10
79.3761893051113
20
2.01128887995509
30
0
41
1
10
79.579964876538
20
1.92020907135065
30
0
41
1
10
79.9873479222363
20
1.7330005654799
30
0
41
1
10
80.1915786062226
20
1.63874672229125
30
0
41
1
10
80.5990627842551
20
1.44471903957117
30
0
41
1
10
80.8025853053386
20
1.34540323004941
30
0
41
1
10
81.2096193826646
20
1.14363486903082
30
0
41
1
10
81.4130893187851
20
1.04103636239486
30
0
41
1
10
81.7182418734028
20
0.884623358554052
30
0
41
1
10
81.8199450471669
20
0.832054760642336
30
0
41
1
10
82.0235114692729
20
0.726414556596012
30
0
41
1
10
82.1258111696208
20
0.674012964670936
30
0
41
1
10
82.4321074959685
20
0.51561897835316
30
0
41
1
10
82.6355902133158
20
0.409455976592227
30
0
41
1
10
83.0413009228673
20
0.196484015491848
30
0
41
1
10
83.2436288132238
20
0.0898425535131935
30
0
41
1
10
83.6473271825717
20
-0.123660023010956
30
0
41
1
10
83.8484341066106
20
-0.231016189417147
30
0
41
1
10
84.2510247110035
20
-0.443261864391189
30
0
41
1
10
84.452839528959
20
-0.547538034234407
30
0
41
1
10
84.8556804796154
20
-0.756041900080476
30
0
41
1
10
85.0569885591877
20
-0.859715820475571
30
0
41
1
10
85.6612987334681
20
-1.16744768183412
30
0
41
1
10
86.0638087170637
20
-1.36989663432379
30
0
41
1
10
86.4696758674609
20
-1.56274691185089
30
0
0
SPLINE
5
B7
100
AcDbEntity
8
1
62
256
6
ByLayer
370
18
48
1
60
0
100
AcDbSpline
70
4
71
3
72
8
73
4
40
0
40
0
40
0
40
0
40
1
40
1
40
1
40
1
41
1
10
6.77227050829003
20
2.70630534607898
30
0
41
1
10
6.7647491050725
20
2.71933872402545
30
0
41
1
10
6.7607431582463
20
2.7329263077792
30
0
41
1
10
6.76074285855384
20
2.74678290415866
30
0
0
SPLINE
5
B8
100
AcDbEntity
8
1
62
256
6
ByLayer
370
18
48
1
60
0
100
AcDbSpline
70
4
71
3
72
16
73
12
40
0
40
0
40
0
40
0
40
0.0725686230527205
40
0.0725686230527205
40
0.38171241536848
40
0.38171241536848
40
0.53628431152636
40
0.53628431152636
40
0.69085620768424
40
0.69085620768424
40
1
40
1
40
1
40
1
41
1
10
6.76065565416746
20
-3.79874478223076
30
0
41
1
10
6.76065467944488
20
-3.79872870676073
30
0
41
1
10
6.76065377740488
20
-3.79781140229954
30
0
41
1
10
6.76064946045159
20
-3.78824570372098
30
0
41
1
10
6.76064740156494
20
-3.76438673881515
30
0
41
1
10
6.76064669597869
20
-3.7049740424186
30
0
41
1
10
6.76064685664312
20
-3.68121346325364
30
0
41
1
10
6.76064799352451
20
-3.62564109365786
30
0
41
1
10
6.76064897700937
20
-3.59365807798358
30
0
41
1
10
6.76065311479755
20
-3.48660183569044
30
0
41
1
10
6.76065743584692
20
-3.40081467534949
30
0
41
1
10
6.76066306786751
20
-3.30105378661057
30
0
0
SPLINE
5
B9
100
AcDbEntity
8
1
62
256
6
ByLayer
370
18
48
1
60
0
100
AcDbSpline
70
4
71
3
72
8
73
4
40
0
40
0
40
0
40
0
40
1
40
1
40
1
40
1
41
1
10
89.9999624559192
20
0.0340509670698736
30
0
41
1
10
90.0000125146595
20
0.0113503374978734
30
0
41
1
10
90.0000125146595
20
-0.01135033748767
30
0
41
1
10
89.9999624559192
20
-0.0340509670596703
30
0
0
SPLINE
5
BA
100
AcDbEntity
8
1
62
256
6
ByLayer
370
18
48
1
60
0
100
AcDbSpline
70
4
71
3
72
8
73
4
40
0
40
0
40
0
40
0
40
1
40
1
40
1
40
1
41
1
10
88.6646252530124
20
0.968422934612647
30
0
41
1
10
89.0629329860169
20
0.964295028129783
30
0
41
1
10
89.4612912002648
20
0.960012967430885
30
0
41
1
10
89.8582672265107
20
0.962705522864695
30
0
0
SPLINE
5
BB
100
AcDbEntity
8
1
62
256
6
ByLayer
370
18
48
1
60
0
100
AcDbSpline
70
4
71
3
72
20
73
16
40
0
40
0
40
0
40
0
40
0.210008170102819
40
0.210008170102819
40
0.420016340205637
40
0.420016340205637
40
0.525020425257046
40
0.525020425257046
40
0.630024510308456
40
0.630024510308456
40
0.840032680411274
40
0.840032680411274
40
0.945036765462683
40
0.945036765462683
40
1
40
1
40
1
40
1
41
1
10
6.76074285855384
20
2.74678290415869
30
0
41
1
10
6.76073980970597
20
2.88774881124738
30
0
41
1
10
6.76073497214611
20
3.01717754590584
30
0
41
1
10
6.7607232796895
20
3.24633135976464
30
0
41
1
10
6.7607164232156
20
3.34681081257383
30
0
41
1
10
6.76070558249572
20
3.47650995852433
30
0
41
1
10
6.76070187518815
20
3.51622328851147
30
0
41
1
10
6.76069442659951
20
3.58842597422654
30
0
41
1
10
6.76069069382584
20
3.6208002746597
30
0
41
1
10
6.76067986858163
20
3.70537223399106
30
0
41
1
10
6.76067308799037
20
3.74575975786362
30
0
41
1
10
6.76066431814979
20
3.78269220000814
30
0
41
1
10
6.76066162699368
20
3.79104286438692
30
0
41
1
10
6.76065796687908
20
3.79759984216148
30
0
41
1
10
6.76065678750211
20
3.79873251332037
30
0
41
1
10
6.76065569831252
20
3.79874489465968
30
0
0
SPLINE
5
BC
100
AcDbEntity
8
1
62
256
6
ByLayer
370
18
48
1
60
0
100
AcDbSpline
70
4
71
3
72
8
73
4
40
0
40
0
40
0
40
0
40
1
40
1
40
1
40
1
41
1
10
6.88374546518838
20
2.61693335344179
30
0
41
1
10
6.83327833033394
20
2.63697875354961
30
0
41
1
10
6.79383690001532
20
2.66893426967007
30
0
41
1
10
6.7722705082864
20
2.70630534608523
30
0
0
SPLINE
5
BD
100
AcDbEntity
8
1
62
256
6
ByLayer
370
18
48
1
60
0
100
AcDbSpline
70
4
71
3
72
18
73
14
40
0
40
0
40
0
40
0
40
0.250000000000004
40
0.250000000000004
40
0.375000000000003
40
0.375000000000003
40
0.500000000000002
40
0.500000000000002
40
0.750000000000001
40
0.750000000000001
40
0.875000000000001
40
0.875000000000001
40
1
40
1
40
1
40
1
41
1
10
88.6255620332403
20
-3.65194251605286
30
0
41
1
10
88.547869890553
20
-3.64090975746197
30
0
41
1
10
88.4759959112912
20
-3.6134555342498
30
0
41
1
10
88.3776499997247
20
-3.54555956584977
30
0
41
1
10
88.3463218851093
20
-3.51827019303664
30
0
41
1
10
88.2881354354718
20
-3.45532935390162
30
0
41
1
10
88.2611718278862
20
-3.41966301523397
30
0
41
1
10
88.1866857279948
20
-3.30004497146211
30
0
41
1
10
88.1455134969979
20
-3.20358154251326
30
0
41
1
10
88.0974424718015
20
-3.03191869241778
30
0
41
1
10
88.0836834167319
20
-2.96987199451706
30
0
41
1
10
88.0614546390615
20
-2.83866401514794
30
0
41
1
10
88.0529096301062
20
-2.76934041136477
30
0
41
1
10
88.0469485832963
20
-2.69627608317552
30
0
0
SPLINE
5
BE
100
AcDbEntity
8
1
62
256
6
ByLayer
370
13
48
1
60
0
100
AcDbSpline
70
4
71
3
72
14
73
10
40
0
40
0
40
0
40
0
40
0.298665858514676
40
0.298665858514676
40
0.473999393886007
40
0.473999393886007
40
0.649332929257338
40
0.649332929257338
40
1
40
1
40
1
40
1
41
1
10
7.00392001677417
20
-3.6061390790758
30
0
41
1
10
7.00391037003041
20
-3.60587997341651
30
0
41
1
10
7.00390414892689
20
-3.59518659476893
30
0
41
1
10
7.00390033962856
20
-3.56198627600182
30
0
41
1
10
7.00390024282524
20
-3.54616518242582
30
0
41
1
10
7.0039027845967
20
-3.50733517893343
30
0
41
1
10
7.00390543744018
20
-3.4842364103043
30
0
41
1
10
7.00391752216853
20
-3.40441996408472
30
0
41
1
10
7.00393095984251
20
-3.33796072478526
30
0
41
1
10
7.00394905008983
20
-3.25875210561406
30
0
0
SPLINE
5
BF
100
AcDbEntity
8
1
62
256
6
ByLayer
370
18
48
1
60
0
100
AcDbSpline
70
4
71
3
72
8
73
4
40
0
40
0
40
0
40
0
40
1
40
1
40
1
40
1
41
1
10
88.6255620332389
20
-3.65194251605325
30
0
41
1
10
88.6345788540086
20
-3.65565853558854
30
0
41
1
10
88.6442533231517
20
-3.65749083431612
30
0
41
1
10
88.6546008755939
20
-3.65745791261645
30
0
0
SPLINE
5
C0
100
AcDbEntity
8
1
62
256
6
ByLayer
370
18
48
1
60
0
100
AcDbSpline
70
4
71
3
72
14
73
10
40
0
40
0
40
0
40
0
40
0.25
40
0.25
40
0.5
40
0.5
40
0.75
40
0.75
40
1
40
1
40
1
40
1
41
1
10
88.6701494667817
20
-3.65609318194399
30
0
41
1
10
88.6724118596578
20
-3.6557149799942
30
0
41
1
10
88.674001372555
20
-3.65709940206511
30
0
41
1
10
88.6753817441704
20
-3.66455220264425
30
0
41
1
10
88.6751032013854
20
-3.6706313515289
30
0
41
1
10
88.6719897878137
20
-3.68791716336708
30
0
41
1
10
88.6691067730694
20
-3.69917536978525
30
0
41
1
10
88.6612192554579
20
-3.72430384013742
30
0
41
1
10
88.6563453684089
20
-3.7378117045628
30
0
41
1
10
88.6512092758094
20
-3.75076762838924
30
0
0
SPLINE
5
C1
100
AcDbEntity
8
1
62
256
6
ByLayer
370
18
48
1
60
0
100
AcDbSpline
70
4
71
3
72
35
73
31
40
0
40
0
40
0
40
0
40
0.125000000000001
40
0.125000000000001
40
0.187500000000002
40
0.187500000000002
40
0.250000000000002
40
0.250000000000002
40
0.374999999999997
40
0.374999999999997
40
0.437499999999994
40
0.437499999999994
40
0.499999999999992
40
0.499999999999992
40
0.562499999999989
40
0.562499999999989
40
0.624999999999986
40
0.624999999999986
40
0.749999999999984
40
0.749999999999984
40
0.812499999999984
40
0.812499999999984
40
0.828124999999985
40
0.828124999999985
40
0.843749999999986
40
0.843749999999986
40
0.859374999999987
40
0.859374999999987
40
0.874999999999989
40
1
40
1
40
1
40
1
41
1
10
86.4696758674605
20
-1.56274691185069
30
0
41
1
10
86.6252770613817
20
-1.5812428634936
30
0
41
1
10
86.7799870676818
20
-1.58901332061842
30
0
41
1
10
87.0103518131018
20
-1.58020623044445
30
0
41
1
10
87.0868531690591
20
-1.57381776570943
30
0
41
1
10
87.2391773132378
20
-1.55287423432864
30
0
41
1
10
87.3140886239501
20
-1.53840736702318
30
0
41
1
10
87.5334330341761
20
-1.48228147310402
30
0
41
1
10
87.6730633163774
20
-1.42791621764857
30
0
41
1
10
87.8707351387108
20
-1.3161320729464
30
0
41
1
10
87.934521756531
20
-1.27375809118382
30
0
41
1
10
88.0546783588385
20
-1.1806856063472
30
0
41
1
10
88.1114844426011
20
-1.1297617833057
30
0
41
1
10
88.2187304926176
20
-1.01937807421518
30
0
41
1
10
88.2689405790321
20
-0.959609951821022
30
0
41
1
10
88.3630287245106
20
-0.831583354104907
30
0
41
1
10
88.4072293013209
20
-0.763299385220989
30
0
41
1
10
88.5297469970507
20
-0.550338018301062
30
0
41
1
10
88.5987427677309
20
-0.396579830658737
30
0
41
1
10
88.6867381924436
20
-0.155500016248311
30
0
41
1
10
88.7135067344135
20
-0.0733750722749562
30
0
41
1
10
88.7442284158601
20
0.031160219931877
30
0
41
1
10
88.7518044008977
20
0.0515542475226027
30
0
41
1
10
88.7565973139236
20
0.0964744352509399
30
0
41
1
10
88.754314331725
20
0.120745885694504
30
0
41
1
10
88.7456551196931
20
0.168083336769598
30
0
41
1
10
88.7386215204317
20
0.191690346765398
30
0
41
1
10
88.7252706516229
20
0.238892909866422
30
0
41
1
10
88.665482682751
20
0.451351773911313
30
0
41
1
10
88.6081638557446
20
0.664253338530187
30
0
41
1
10
88.5586904222683
20
0.853669441919465
30
0
0
SPLINE
5
C2
100
AcDbEntity
8
1
62
256
6
ByLayer
370
18
48
1
60
0
100
AcDbSpline
70
4
71
3
72
8
73
4
40
0
40
0
40
0
40
0
40
1
40
1
40
1
40
1
41
1
10
89.8582672265106
20
0.962705522864695
30
0
41
1
10
89.9032171067964
20
0.687467561047072
30
0
41
1
10
89.9430911881956
20
0.412270936089669
30
0
41
1
10
89.977856792919
20
0.137115914117459
30
0
0
SPLINE
5
C3
100
AcDbEntity
8
1
62
256
6
ByLayer
370
18
48
1
60
0
100
AcDbSpline
70
4
71
3
72
8
73
4
40
0
40
0
40
0
40
0
40
1
40
1
40
1
40
1
41
1
10
89.977856792919
20
0.137115914117487
30
0
41
1
10
89.9815291929245
20
0.108050425044183
30
0
41
1
10
89.9895688011599
20
0.0721068661637503
30
0
41
1
10
89.9999624559196
20
0.0340509670693052
30
0
0
SPLINE
5
C4
100
AcDbEntity
8
1
62
256
6
ByLayer
370
18
48
1
60
0
100
AcDbSpline
70
4
71
3
72
110
73
106
40
0
40
0
40
0
40
0
40
0.0192525043316432
40
0.0192525043316432
40
0.0611970000719888
40
0.0611970000719888
40
0.0716831240070748
40
0.0716831240070748
40
0.0821692479421609
40
0.0821692479421609
40
0.103141495812332
40
0.103141495812332
40
0.124113743682503
40
0.124113743682503
40
0.145085991552674
40
0.145085991552674
40
0.166058239422845
40
0.166058239422845
40
0.187030487293016
40
0.187030487293016
40
0.208002735163187
40
0.208002735163187
40
0.228974983033358
40
0.228974983033358
40
0.270919478773702
40
0.270919478773702
40
0.281405602708787
40
0.281405602708787
40
0.291891726643873
40
0.291891726643873
40
0.312863974514045
40
0.312863974514045
40
0.333836222384217
40
0.333836222384217
40
0.354808470254388
40
0.354808470254388
40
0.37578071812456
40
0.37578071812456
40
0.396752965994731
40
0.396752965994731
40
0.417725213864903
40
0.417725213864903
40
0.428211337799988
40
0.428211337799988
40
0.438697461735074
40
0.438697461735074
40
0.459669709605243
40
0.459669709605243
40
0.480641957475412
40
0.480641957475412
40
0.501614205345582
40
0.501614205345582
40
0.512100329280667
40
0.512100329280667
40
0.522586453215752
40
0.522586453215752
40
0.543558701085923
40
0.543558701085923
40
0.564530948956093
40
0.564530948956093
40
0.575017072891178
40
0.575017072891178
40
0.585503196826263
40
0.585503196826263
40
0.606475444696432
40
0.606475444696432
40
0.627447692566601
40
0.627447692566601
40
0.648419940436771
40
0.648419940436771
40
0.690364436177108
40
0.690364436177108
40
0.711336684047277
40
0.711336684047277
40
0.721822807982362
40
0.721822807982362
40
0.732308931917446
40
0.732308931917446
40
0.753281179787614
40
0.753281179787614
40
0.774253427657781
40
0.774253427657781
40
0.795225675527949
40
0.795225675527949
40
0.816197923398117
40
0.816197923398117
40
0.837170171268284
40
0.837170171268284
40
0.858142419138452
40
0.858142419138452
40
0.87911466700862
40
0.87911466700862
40
0.900086914878788
40
0.900086914878788
40
0.921059162748955
40
0.921059162748955
40
0.931545286684039
40
0.931545286684039
40
0.942031410619123
40
0.942031410619123
40
0.96300365848929
40
0.96300365848929
40
0.983975906359458
40
0.983975906359458
40
1
40
1
40
1
40
1
41
1
10
79.7451861427614
20
-1.84425252658295
30
0
41
1
10
79.5605628136365
20
-1.92879980794342
30
0
41
1
10
79.3760328011533
20
-2.01118474324656
30
0
41
1
10
78.7892543642773
20
-2.26497537497963
30
0
41
1
10
78.3870702529907
20
-2.42760133599046
30
0
41
1
10
77.8831540100283
20
-2.61497810071646
30
0
41
1
10
77.7823356713272
20
-2.65161228606976
30
0
41
1
10
77.581063364706
20
-2.72379022665584
30
0
41
1
10
77.4803283740515
20
-2.75895737539705
30
0
41
1
10
77.1777012741008
20
-2.86179935786174
30
0
41
1
10
76.9753622404077
20
-2.92695430025302
30
0
41
1
10
76.5694900123797
20
-3.04965376506664
30
0
41
1
10
76.3657472620072
20
-3.10707345469217
30
0
41
1
10
75.9574927757014
20
-3.21373179114491
30
0
41
1
10
75.7534476287267
20
-3.26306899181034
30
0
41
1
10
75.3471653905315
20
-3.35403271591306
30
0
41
1
10
75.144098908547
20
-3.39456172334869
30
0
41
1
10
74.7375112900082
20
-3.46670135060526
30
0
41
1
10
74.5340766399509
20
-3.49867812816598
30
0
41
1
10
74.1267515975907
20
-3.55344452573911
30
0
41
1
10
73.9226608221587
20
-3.57623619607512
30
0
41
1
10
73.514322488288
20
-3.61263293154502
30
0
41
1
10
73.3115891225773
20
-3.62635941170757
30
0
41
1
10
72.7037824925509
20
-3.65265167221577
30
0
41
1
10
72.3003939319017
20
-3.64890199920813
30
0
41
1
10
71.7963527133757
20
-3.62436954006253
30
0
41
1
10
71.6955729814433
20
-3.61837402668522
30
0
41
1
10
71.49410927747
20
-3.60416119352072
30
0
41
1
10
71.3936928066082
20
-3.59586240447396
30
0
41
1
10
71.0923221959545
20
-3.56757771337166
30
0
41
1
10
70.8912741190085
20
-3.54423199862089
30
0
41
1
10
70.4886132401217
20
-3.48859104339891
30
0
41
1
10
70.2871031036899
20
-3.45569194790696
30
0
41
1
10
69.8832691538948
20
-3.38060965014736
30
0
41
1
10
69.6808795265405
20
-3.33931092245257
30
0
41
1
10
69.2753803193278
20
-3.24875248654686
30
0
41
1
10
69.0730053924115
20
-3.19819794617138
30
0
41
1
10
68.6658165264638
20
-3.08911290431646
30
0
41
1
10
68.461618721383
20
-3.03061888753106
30
0
41
1
10
68.0551384465975
20
-2.90694492347214
30
0
41
1
10
67.8524396250933
20
-2.84134034381938
30
0
41
1
10
67.5489756962815
20
-2.7373961265987
30
0
41
1
10
67.4478752929032
20
-2.70201504426438
30
0
41
1
10
67.245950350208
20
-2.62962757802396
30
0
41
1
10
67.1454211968221
20
-2.59219565426136
30
0
41
1
10
66.8434715182675
20
-2.47834406411957
30
0
41
1
10
66.6422188373353
20
-2.39966561961046
30
0
41
1
10
66.2397660810046
20
-2.23551355242472
30
0
41
1
10
66.0385271272307
20
-2.15079968887528
30
0
41
1
10
65.63565641158
20
-1.97693158620845
30
0
41
1
10
65.4338616280772
20
-1.88804785083369
30
0
41
1
10
65.1314321280036
20
-1.7491545153197
30
0
41
1
10
65.0308554297944
20
-1.70166895294238
30
0
41
1
10
64.8291916904179
20
-1.60636845488756
30
0
41
1
10
64.7282364183886
20
-1.55829243649936
30
0
41
1
10
64.4249164905032
20
-1.41282895704742
30
0
41
1
10
64.2221547135788
20
-1.31421602053939
30
0
41
1
10
63.8153303041187
20
-1.11246408462196
30
0
41
1
10
63.6108790159099
20
-1.00963019334637
30
0
41
1
10
63.3046879254105
20
-0.854481053462905
30
0
41
1
10
63.2025573065344
20
-0.80277428555857
30
0
41
1
10
62.9991374455638
20
-0.697527762580791
30
0
41
1
10
62.8975639047625
20
-0.644521686148209
30
0
41
1
10
62.5927213234538
20
-0.485300334568024
30
0
41
1
10
62.3894263709813
20
-0.378724099536782
30
0
41
1
10
61.9824358331354
20
-0.165486893721038
30
0
41
1
10
61.7788472190471
20
-0.0585583785591552
30
0
41
1
10
61.3709965394289
20
0.155054935132824
30
0
41
1
10
61.1660984979242
20
0.261256708019289
30
0
41
1
10
60.5557702887641
20
0.583000322165447
30
0
41
1
10
60.1509534900089
20
0.792796366157376
30
0
41
1
10
59.544961712319
20
1.09841741074987
30
0
41
1
10
59.3431325859537
20
1.19867082700068
30
0
41
1
10
59.0406506048714
20
1.34638090368799
30
0
41
1
10
58.9398872274332
20
1.39522849734257
30
0
41
1
10
58.7388708872438
20
1.49287633841973
30
0
41
1
10
58.6383497269311
20
1.5411985849704
30
0
41
1
10
58.336620893338
20
1.68450855112502
30
0
41
1
10
58.135223676877
20
1.77776037169059
30
0
41
1
10
57.731972530811
20
1.95922918825281
30
0
41
1
10
57.5301172814296
20
2.04747789150335
30
0
41
1
10
57.1254587628789
20
2.21876410001499
30
0
41
1
10
56.922582059465
20
2.30169704533182
30
0
41
1
10
56.5171939730546
20
2.46371093591867
30
0
41
1
10
56.3137245360047
20
2.54147532067003
30
0
41
1
10
55.9054729423485
20
2.69030652925892
30
0
41
1
10
55.7018800851075
20
2.76117765680476
30
0
41
1
10
55.2957385370769
20
2.89482379588316
30
0
41
1
10
55.0931116357599
20
2.95738513802959
30
0
41
1
10
54.68854319953
20
3.07519535824662
30
0
41
1
10
54.4872974503982
20
3.13133190078489
30
0
41
1
10
54.0845113521608
20
3.23399248563112
30
0
41
1
10
53.883158191047
20
3.28048182376244
30
0
41
1
10
53.4803377263418
20
3.36591331468111
30
0
41
1
10
53.2788834417435
20
3.40458565480026
30
0
41
1
10
52.976364081412
20
3.45569407221151
30
0
41
1
10
52.8754788935966
20
3.47157103782561
30
0
41
1
10
52.6736394239661
20
3.501039523054
30
0
41
1
10
52.5729117774045
20
3.51480426847493
30
0
41
1
10
52.2704895610067
20
3.55306969871865
30
0
41
1
10
52.0684220556808
20
3.57427752124352
30
0
41
1
10
51.6630387709767
20
3.60696953568785
30
0
41
1
10
51.4597848874711
20
3.61820933871505
30
0
41
1
10
51.1000134775754
20
3.63044999719978
30
0
41
1
10
50.9437588608974
20
3.63318135783791
30
0
41
1
10
50.7877064443402
20
3.63309856282621
30
0
0
SPLINE
5
C5
100
AcDbEntity
8
1
62
256
6
ByLayer
370
18
48
1
60
0
100
AcDbSpline
70
4
71
3
72
104
73
100
40
0
40
0
40
0
40
0
40
0.0064033332722456
40
0.0064033332722456
40
0.0284832591995292
40
0.0284832591995292
40
0.0726431110540963
40
0.0726431110540963
40
0.0836830740177388
40
0.0836830740177388
40
0.0947230369813809
40
0.0947230369813809
40
0.116802962908664
40
0.116802962908664
40
0.138882888835948
40
0.138882888835948
40
0.160962814763232
40
0.160962814763232
40
0.183042740690515
40
0.183042740690515
40
0.205122666617799
40
0.205122666617799
40
0.227202592545083
40
0.227202592545083
40
0.238242555508725
40
0.238242555508725
40
0.249282518472366
40
0.249282518472366
40
0.293442370326935
40
0.293442370326935
40
0.315522296254219
40
0.315522296254219
40
0.326562259217861
40
0.326562259217861
40
0.337602222181503
40
0.337602222181503
40
0.359682148108785
40
0.359682148108785
40
0.381762074036068
40
0.381762074036068
40
0.39280203699971
40
0.39280203699971
40
0.403841999963352
40
0.403841999963352
40
0.425921925890635
40
0.425921925890635
40
0.448001851817918
40
0.448001851817918
40
0.470081777745201
40
0.470081777745201
40
0.492161703672484
40
0.492161703672484
40
0.514241629599767
40
0.514241629599767
40
0.53632155552705
40
0.53632155552705
40
0.547361518490692
40
0.547361518490692
40
0.558401481454333
40
0.558401481454333
40
0.580481407381617
40
0.580481407381617
40
0.6025613333089
40
0.6025613333089
40
0.624641259236184
40
0.624641259236184
40
0.646721185163468
40
0.646721185163468
40
0.668801111090751
40
0.668801111090751
40
0.690881037018035
40
0.690881037018035
40
0.712960962945319
40
0.712960962945319
40
0.735040888872602
40
0.735040888872602
40
0.757120814799886
40
0.757120814799886
40
0.768160777763528
40
0.768160777763528
40
0.77920074072717
40
0.77920074072717
40
0.823360592581737
40
0.823360592581737
40
0.845440518509021
40
0.845440518509021
40
0.856480481472662
40
0.856480481472662
40
0.867520444436304
40
0.867520444436304
40
0.911680296290869
40
0.911680296290869
40
0.922720259254511
40
0.922720259254511
40
0.933760222218152
40
0.933760222218152
40
0.955840148145435
40
0.955840148145435
40
1
40
1
40
1
40
1
41
1
10
36.2239775791024
20
-1.84431915577412
30
0
41
1
10
36.1647927683642
20
-1.87084680387653
30
0
41
1
10
36.1055859514101
20
-1.897187935011
30
0
41
1
10
35.8421291505784
20
-2.01353932834647
30
0
41
1
10
35.6385726027335
20
-2.10251773444247
30
0
41
1
10
35.0294542427773
20
-2.35730665110921
30
0
41
1
10
34.6249073579932
20
-2.51450800702082
30
0
41
1
10
34.1202338456492
20
-2.69279985821135
30
0
41
1
10
34.0193452850706
20
-2.72756203374638
30
0
41
1
10
33.817677173829
20
-2.79542421526509
30
0
41
1
10
33.7171672504963
20
-2.82887192633518
30
0
41
1
10
33.4155266726373
20
-2.92631751052431
30
0
41
1
10
33.2143416577862
20
-2.98742935314246
30
0
41
1
10
32.811502557968
20
-3.10114041144456
30
0
41
1
10
32.6099135196261
20
-3.15398415901436
30
0
41
1
10
32.2060534778023
20
-3.25228177706387
30
0
41
1
10
32.0037298307829
20
-3.29755503673945
30
0
41
1
10
31.5984225885307
20
-3.37943696628292
30
0
41
1
10
31.3961916433743
20
-3.41664083859246
30
0
41
1
10
30.9894441320401
20
-3.48171875629279
30
0
41
1
10
30.7848848198336
20
-3.50987216969443
30
0
41
1
10
30.3777504334713
20
-3.55567808419431
30
0
41
1
10
30.1747652545959
20
-3.57352357797231
30
0
41
1
10
29.8706843970963
20
-3.5941244305676
30
0
41
1
10
29.7693813818796
20
-3.5999431161404
30
0
41
1
10
29.5671225989454
20
-3.60943941911668
30
0
41
1
10
29.4664356354861
20
-3.61314513956094
30
0
41
1
10
28.9624788950578
20
-3.62577925717551
30
0
41
1
10
28.5597426895547
20
-3.61807813051385
30
0
41
1
10
27.9553142200411
20
-3.57633668131166
30
0
41
1
10
27.7534994479557
20
-3.55735059763978
30
0
41
1
10
27.451124499705
20
-3.52316718988848
30
0
41
1
10
27.3505510535494
20
-3.51055737975071
30
0
41
1
10
27.1489446710677
20
-3.48318668783082
30
0
41
1
10
27.0480312096017
20
-3.46838994687101
30
0
41
1
10
26.7448663738648
20
-3.42072781356808
30
0
41
1
10
26.5422290241392
20
-3.38455067384049
30
0
41
1
10
26.1358645140855
20
-3.3037280038661
30
0
41
1
10
25.9318804382228
20
-3.25924848826799
30
0
41
1
10
25.6253847200268
20
-3.18571989400994
30
0
41
1
10
25.5231938293701
20
-3.16018650041724
30
0
41
1
10
25.3197104610152
20
-3.10619611596221
30
0
41
1
10
25.2180896683833
20
-3.07812384702774
30
0
41
1
10
24.9130590268883
20
-2.99170017995101
30
0
41
1
10
24.7096336354203
20
-2.93065860918776
30
0
41
1
10
24.3026559670791
20
-2.80082822708764
30
0
41
1
10
24.0991525550393
20
-2.73176648925488
30
0
41
1
10
23.691508666484
20
-2.58790244651112
30
0
41
1
10
23.4871084034141
20
-2.51341861800489
30
0
41
1
10
23.0794834175275
20
-2.35457704106062
30
0
41
1
10
22.8762694746905
20
-2.27190061469912
30
0
41
1
10
22.4704578715576
20
-2.10252451897128
30
0
41
1
10
22.2678548120882
20
-2.01582090212207
30
0
41
1
10
21.8634180692731
20
-1.83743794136467
30
0
41
1
10
21.6614758388269
20
-1.7459451693542
30
0
41
1
10
21.3588236439521
20
-1.60580418246448
30
0
41
1
10
21.2580151951872
20
-1.55859782845766
30
0
41
1
10
21.0568958905188
20
-1.46250644054808
30
0
41
1
10
20.9563413027978
20
-1.41404475313683
30
0
41
1
10
20.6545961608887
20
-1.26745289733159
30
0
41
1
10
20.4532936017742
20
-1.16807930529029
30
0
41
1
10
20.0502675370954
20
-0.96693440873895
30
0
41
1
10
19.8485590699743
20
-0.865278752957124
30
0
41
1
10
19.4443553895133
20
-0.659982843111607
30
0
41
1
10
19.2417753503836
20
-0.556420526481787
30
0
41
1
10
18.8370586008304
20
-0.344997209095482
30
0
41
1
10
18.6341250919858
20
-0.238863137578221
30
0
41
1
10
18.2266543714599
20
-0.0261935344067865
30
0
41
1
10
18.0222813200534
20
0.080507496389572
30
0
41
1
10
17.615507163415
20
0.29205426372306
30
0
41
1
10
17.4124990055004
20
0.39699228929652
30
0
41
1
10
17.0073948453239
20
0.605380077929425
30
0
41
1
10
16.8060196680571
20
0.710205108247237
30
0
41
1
10
16.4029409547326
20
0.915946057113047
30
0
41
1
10
16.2014355656838
20
1.01727221261663
30
0
41
1
10
15.7985628354874
20
1.21687551652872
30
0
41
1
10
15.5971703357708
20
1.31504823485565
30
0
41
1
10
15.2947887226636
20
1.45934620059981
30
0
41
1
10
15.193955258027
20
1.50699259373209
30
0
41
1
10
14.9922454103792
20
1.60144190436193
30
0
41
1
10
14.8916129665726
20
1.64867381469591
30
0
41
1
10
14.3880472425048
20
1.88211628262511
30
0
41
1
10
13.9835367663138
20
2.05959580468382
30
0
41
1
10
13.3731399951547
20
2.30962180721392
30
0
41
1
10
13.1684998026198
20
2.39031203040773
30
0
41
1
10
12.8625377178659
20
2.50566601565154
30
0
41
1
10
12.7610296092428
20
2.54374185590498
30
0
41
1
10
12.5579676298742
20
2.61795919659056
30
0
41
1
10
12.45650455907
20
2.65419465267377
30
0
41
1
10
11.9493795082099
20
2.83070567041096
30
0
41
1
10
11.5446243305551
20
2.95732854296003
30
0
41
1
10
11.0387911560229
20
3.09541546797652
30
0
41
1
10
10.9376154760267
20
3.12201074250359
30
0
41
1
10
10.7354050033238
20
3.17327686222819
30
0
41
1
10
10.6346658725026
20
3.19821687767779
30
0
41
1
10
10.3318940426864
20
3.26946937178099
30
0
41
1
10
10.1299429357729
20
3.31286895758043
30
0
41
1
10
9.52288457364062
20
3.43021903550905
30
0
41
1
10
9.11602396173132
20
3.49029763168187
30
0
41
1
10
8.70639319525444
20
3.53261212110493
30
0
0
SPLINE
5
C6
100
AcDbEntity
8
1
62
256
6
ByLayer
370
18
48
1
60
0
100
AcDbSpline
70
4
71
3
72
16
73
12
40
0
40
0
40
0
40
0
40
0.221819891631584
40
0.221819891631584
40
0.704561863767012
40
0.704561863767012
40
0.825247356800864
40
0.825247356800864
40
0.945932849834716
40
0.945932849834716
40
1
40
1
40
1
40
1
41
1
10
33.9010450566123
20
-0.0030371855632154
30
0
41
1
10
34.2919865662799
20
-0.213181294179407
30
0
41
1
10
34.6813770762615
20
-0.422589510242489
30
0
41
1
10
35.9173279911289
20
-1.07779950127576
30
0
41
1
10
36.7627702553181
20
-1.51207644066372
30
0
41
1
10
37.8336677928536
20
-2.00730152519446
30
0
41
1
10
38.0486030665884
20
-2.10385749952024
30
0
41
1
10
38.4760825710143
20
-2.28971140956242
30
0
41
1
10
38.6891367863302
20
-2.37928066958844
30
0
41
1
10
38.9970102986016
20
-2.50363547777712
30
0
41
1
10
39.0921790400701
20
-2.54137141307615
30
0
41
1
10
39.1872786888914
20
-2.57834943712189
30
0
0
SPLINE
5
C7
100
AcDbEntity
8
1
62
256
6
ByLayer
370
13
48
1
60
0
100
AcDbSpline
70
4
71
3
72
18
73
14
40
0
40
0
40
0
40
0
40
0.139342705568333
40
0.139342705568333
40
0.498473484568665
40
0.498473484568665
40
0.588256179318748
40
0.588256179318748
40
0.67803887406883
40
0.67803887406883
40
0.857604263568997
40
0.857604263568997
40
1
40
1
40
1
40
1
41
1
10
39.1872786890184
20
-2.57834943717126
30
0
41
1
10
39.5167306568112
20
-2.70645172711386
30
0
41
1
10
39.8453534266567
20
-2.82545813666559
30
0
41
1
10
41.0203421841353
20
-3.21575697352179
30
0
41
1
10
41.8661696295812
20
-3.43094192594768
30
0
41
1
10
42.9382586672697
20
-3.59971420954688
30
0
41
1
10
43.1526930192674
20
-3.62832060709218
30
0
41
1
10
43.5796223572524
20
-3.67489904237604
30
0
41
1
10
43.7924609793883
20
-3.6929259330492
30
0
41
1
10
44.429769271283
20
-3.73118650678927
30
0
41
1
10
44.853071363799
20
-3.73571362302755
30
0
41
1
10
45.6118849515393
20
-3.70629515689305
30
0
41
1
10
45.9474687088994
20
-3.68020654016769
30
0
41
1
10
46.2838115178112
20
-3.64111298156649
30
0
0
SPLINE
5
C8
100
AcDbEntity
8
1
62
256
6
ByLayer
370
18
48
1
60
0
100
AcDbSpline
70
4
71
3
72
14
73
10
40
0
40
0
40
0
40
0
40
0.192790563555623
40
0.192790563555623
40
0.425348515854582
40
0.425348515854582
40
0.65790646815354
40
0.65790646815354
40
1
40
1
40
1
40
1
41
1
10
77.3890760238996
20
0.0032643679851958
30
0
41
1
10
77.7400013189154
20
-0.186778083448417
30
0
41
1
10
78.0916071688703
20
-0.377210984561458
30
0
41
1
10
78.8708631780531
20
-0.794433827961655
30
0
41
1
10
79.300735025021
20
-1.02147671833597
30
0
41
1
10
80.1525770670961
20
-1.45741875772674
30
0
41
1
10
80.576286017899
20
-1.66705130438291
30
0
41
1
10
81.6215238106778
20
-2.15848817810519
30
0
41
1
10
82.2420726348907
20
-2.42798856869655
30
0
41
1
10
82.866154176032
20
-2.66639947541682
30
0
0
SPLINE
5
C9
100
AcDbEntity
8
1
62
256
6
ByLayer
370
13
48
1
60
0
100
AcDbSpline
70
4
71
3
72
20
73
16
40
0
40
0
40
0
40
0
40
0.116802168809236
40
0.116802168809236
40
0.227201897708082
40
0.227201897708082
40
0.337601626606928
40
0.337601626606928
40
0.558401084404617
40
0.558401084404617
40
0.779200542202309
40
0.779200542202309
40
0.889600271101154
40
0.889600271101154
40
1
40
1
40
1
40
1
41
1
10
82.8661541759863
20
-2.66639947539937
30
0
41
1
10
83.0905840024503
20
-2.75213589747793
30
0
41
1
10
83.315470693308
20
-2.83385170922051
30
0
41
1
10
83.7542779882847
20
-2.98425645812108
30
0
41
1
10
83.9685754370321
20
-3.05353910726439
30
0
41
1
10
84.3966376065908
20
-3.18295245904332
30
0
41
1
10
84.6100272092692
20
-3.24299203503216
30
0
41
1
10
85.2488479480019
20
-3.4087545070262
30
0
41
1
10
85.6729172896737
20
-3.50014910282653
30
0
41
1
10
86.5208396351339
20
-3.64263594185579
30
0
41
1
10
86.9446717250279
20
-3.69380266776508
30
0
41
1
10
87.5825888964438
20
-3.73912491462335
30
0
41
1
10
87.7955914548999
20
-3.74898613837206
30
0
41
1
10
88.2226974273563
20
-3.75798102017097
30
0
41
1
10
88.4370435522388
20
-3.75710034120567
30
0
41
1
10
88.6512092758088
20
-3.75076762838927
30
0
0
SPLINE
5
CA
100
AcDbEntity
8
1
62
256
6
ByLayer
370
18
48
1
60
0
100
AcDbSpline
70
4
71
3
72
52
73
48
40
0
40
0
40
0
40
0
40
0.0577333351537021
40
0.0577333351537021
40
0.115466670307404
40
0.115466670307404
40
0.144333337884255
40
0.144333337884255
40
0.173200005461106
40
0.173200005461106
40
0.230933340614808
40
0.230933340614808
40
0.288666675768511
40
0.288666675768511
40
0.346400010922213
40
0.346400010922213
40
0.404133346075915
40
0.404133346075915
40
0.461866681229617
40
0.461866681229617
40
0.519600016383319
40
0.519600016383319
40
0.54846668396017
40
0.54846668396017
40
0.577333351537021
40
0.577333351537021
40
0.635066686690724
40
0.635066686690724
40
0.663933354267577
40
0.663933354267577
40
0.692800021844429
40
0.692800021844429
40
0.750533356998133
40
0.750533356998133
40
0.779400024574984
40
0.779400024574984
40
0.808266692151835
40
0.808266692151835
40
0.866000027305538
40
0.866000027305538
40
0.923733362459242
40
0.923733362459242
40
0.952600030036094
40
0.952600030036094
40
0.981466697612947
40
0.981466697612947
40
1
40
1
40
1
40
1
41
1
10
88.6137316988168
20
-3.84517638079271
30
0
41
1
10
88.1886506497201
20
-3.85665515939127
30
0
41
1
10
87.7638237040334
20
-3.84629254056685
30
0
41
1
10
86.9117771496988
20
-3.78213521734116
30
0
41
1
10
86.4861335851166
20
-3.72838440104937
30
0
41
1
10
85.8483519199632
20
-3.6167841969401
30
0
41
1
10
85.6357415737918
20
-3.5744083919133
30
0
41
1
10
85.2100341532765
20
-3.47955794058177
30
0
41
1
10
84.9967399052569
20
-3.42702943025051
30
0
41
1
10
84.3580495113813
20
-3.25541848607801
30
0
41
1
10
83.933227018551
20
-3.12220352571819
30
0
41
1
10
83.082272084188
20
-2.82150400315697
30
0
41
1
10
82.6557421841411
20
-2.65380871043706
30
0
41
1
10
81.8051336108485
20
-2.2914787767013
30
0
41
1
10
81.3801602780446
20
-2.09657558545086
30
0
41
1
10
80.5274920214185
20
-1.68421795897416
30
0
41
1
10
80.1032219602273
20
-1.46826549530326
30
0
41
1
10
79.2579866996627
20
-1.0239094374864
30
0
41
1
10
78.8365155380916
20
-0.795490734586906
30
0
41
1
10
77.9925683858227
20
-0.332102139206967
30
0
41
1
10
77.5701573505067
20
-0.0970145043755224
30
0
41
1
10
76.9333806607681
20
0.256204667700587
30
0
41
1
10
76.7202682050222
20
0.374191085829494
30
0
41
1
10
76.2941011726517
20
0.608735173886117
30
0
41
1
10
76.081373899638
20
0.725112116519654
30
0
41
1
10
75.4435929183232
20
1.07039212182917
30
0
41
1
10
75.0189591300944
20
1.29547826453961
30
0
41
1
10
74.3803145289619
20
1.62107011534493
30
0
41
1
10
74.1669185909869
20
1.72769136643143
30
0
41
1
10
73.7410302651678
20
1.9352275218539
30
0
41
1
10
73.5283735822732
20
2.03623070405192
30
0
41
1
10
72.8906495559521
20
2.3300433899696
30
0
41
1
10
72.4658706040061
20
2.51371859441213
30
0
41
1
10
71.8267436859624
20
2.76721692099488
30
0
41
1
10
71.6134545545038
20
2.84793738247808
30
0
41
1
10
71.1878061490889
20
3.00064189447724
30
0
41
1
10
70.9751945693229
20
3.07273018807254
30
0
41
1
10
70.3373844419334
20
3.27559933566209
30
0
41
1
10
69.9123886948098
20
3.39318602563532
30
0
41
1
10
69.0592712786107
20
3.58919231748533
30
0
41
1
10
68.6342341465811
20
3.66689395254571
30
0
41
1
10
67.9964779677274
20
3.75186988671669
30
0
41
1
10
67.7838623449175
20
3.77493404733249
30
0
41
1
10
67.3581701038397
20
3.8103504113738
30
0
41
1
10
67.1448344306022
20
3.82270434161603
30
0
41
1
10
66.7948849757992
20
3.83400383244265
30
0
41
1
10
66.6581988511476
20
3.83617285801751
30
0
41
1
10
66.521595516487
20
3.83610190246236
30
0
0
SPLINE
5
CB
100
AcDbEntity
8
1
62
256
6
ByLayer
370
18
48
1
60
0
100
AcDbSpline
70
4
71
3
72
56
73
52
40
0
40
0
40
0
40
0
40
0.019053354483684
40
0.019053354483684
40
0.045738527915943
40
0.045738527915943
40
0.0724237013482024
40
0.0724237013482024
40
0.179164395077237
40
0.179164395077237
40
0.232534741941756
40
0.232534741941756
40
0.259219915374014
40
0.259219915374014
40
0.285905088806273
40
0.285905088806273
40
0.339275435670789
40
0.339275435670789
40
0.365960609103047
40
0.365960609103047
40
0.392645782535305
40
0.392645782535305
40
0.446016129399821
40
0.446016129399821
40
0.472701302832078
40
0.472701302832078
40
0.499386476264335
40
0.499386476264335
40
0.552756823128849
40
0.552756823128849
40
0.606127169993364
40
0.606127169993364
40
0.659497516857878
40
0.659497516857878
40
0.712867863722392
40
0.712867863722392
40
0.73955303715465
40
0.73955303715465
40
0.766238210586908
40
0.766238210586908
40
0.819608557451424
40
0.819608557451424
40
0.846293730883682
40
0.846293730883682
40
0.87297890431594
40
0.87297890431594
40
0.926349251180457
40
0.926349251180457
40
0.979719598044974
40
0.979719598044974
40
1
40
1
40
1
40
1
41
1
10
46.948722638558
20
-3.6361087469931
30
0
41
1
10
46.7968177394192
20
-3.66198579868225
30
0
41
1
10
46.6449227930267
20
-3.68523386525573
30
0
41
1
10
46.2801332377935
20
-3.73463168384873
30
0
41
1
10
46.0671761584793
20
-3.75821389384515
30
0
41
1
10
45.6405625446671
20
-3.7946747912039
30
0
41
1
10
45.4271322187298
20
-3.80751575101468
30
0
41
1
10
44.3649597369082
20
-3.84448818164415
30
0
41
1
10
43.5250675507418
20
-3.78746398162292
30
0
41
1
10
42.2607147068504
20
-3.57936898426044
30
0
41
1
10
41.8384176450372
20
-3.48965372462388
30
0
41
1
10
41.2014767813631
20
-3.32545658318642
30
0
41
1
10
40.9883035193694
20
-3.26571848076083
30
0
41
1
10
40.561430193447
20
-3.13702305879352
30
0
41
1
10
40.3483588041969
20
-3.06823311315256
30
0
41
1
10
39.709684986697
20
-2.84920942893763
30
0
41
1
10
39.2844384321056
20
-2.68653792447492
30
0
41
1
10
38.6450985380781
20
-2.42034249433669
30
0
41
1
10
38.4314657396578
20
-2.32780554204118
30
0
41
1
10
38.004865875324
20
-2.13681351477197
30
0
41
1
10
37.791872107132
20
-2.03830364005756
30
0
41
1
10
37.1533144393269
20
-1.73452644303117
30
0
41
1
10
36.7279795007353
20
-1.52131347939471
30
0
41
1
10
36.0880706842116
20
-1.18944366083179
30
0
41
1
10
35.8744203902951
20
-1.07674011654913
30
0
41
1
10
35.448105358725
20
-0.849253108506758
30
0
41
1
10
35.2351842979111
20
-0.734328754300094
30
0
41
1
10
34.5966465239484
20
-0.386888078782306
30
0
41
1
10
34.1711393545959
20
-0.151910292003009
30
0
41
1
10
33.3170789171676
20
0.318567872384818
30
0
41
1
10
32.8911139204996
20
0.552808698926299
30
0
41
1
10
32.0396689405371
20
1.01188125092298
30
0
41
1
10
31.6134793025786
20
1.23716453082523
30
0
41
1
10
30.7594761342224
20
1.67177926713865
30
0
41
1
10
30.3339339328647
20
1.88005097310088
30
0
41
1
10
29.6952892066768
20
2.17495335633757
30
0
41
1
10
29.4823326562272
20
2.27030682738098
30
0
41
1
10
29.0558521455727
20
2.45447931905244
30
0
41
1
10
28.8420814702145
20
2.54339210289052
30
0
41
1
10
28.2020192498669
20
2.79833016807203
30
0
41
1
10
27.7765585500518
20
2.95284728769192
30
0
41
1
10
27.137734167001
20
3.15854772631059
30
0
41
1
10
26.9246681950438
20
3.22274811028589
30
0
41
1
10
26.4978359318738
20
3.341923310238
30
0
41
1
10
26.2840958876755
20
3.39688591663847
30
0
41
1
10
25.6444520420895
20
3.54668203614395
30
0
41
1
10
25.218983117084
20
3.62666110302186
30
0
41
1
10
24.3667682829518
20
3.74494469617881
30
0
41
1
10
23.9390524795109
20
3.7831700955598
30
0
41
1
10
23.3508767932167
20
3.80581833508668
30
0
41
1
10
23.1890230148387
20
3.80892977164717
30
0
41
1
10
23.027186607294
20
3.80891933152466
30
0
0
SPLINE
5
CC
100
AcDbEntity
8
1
62
256
6
ByLayer
370
18
48
1
60
0
100
AcDbSpline
70
4
71
3
72
14
73
10
40
0
40
0
40
0
40
0
40
0.552017092707796
40
0.552017092707796
40
0.828025639061698
40
0.828025639061698
40
0.966029912238646
40
0.966029912238646
40
1
40
1
40
1
40
1
41
1
10
88.6701494667816
20
-3.65609318194399
30
0
41
1
10
87.8165107104557
20
-3.66822020529125
30
0
41
1
10
86.9726421237892
20
-3.59614939119618
30
0
41
1
10
85.7040442690798
20
-3.37210379851359
30
0
41
1
10
85.2807203744163
20
-3.27801072445436
30
0
41
1
10
84.6425973853038
20
-3.10925990131557
30
0
41
1
10
84.4293744267939
20
-3.04840015520008
30
0
41
1
10
84.1627928437981
20
-2.96696483562491
30
0
41
1
10
84.1101211213501
20
-2.95061459289747
30
0
41
1
10
84.0574542401488
20
-2.93401114782694
30
0
0
SPLINE
5
CD
100
AcDbEntity
8
1
62
256
6
ByLayer
370
13
48
1
60
0
100
AcDbSpline
70
4
71
3
72
22
73
18
40
0
40
0
40
0
40
0
40
0.0472458424702031
40
0.0472458424702031
40
0.297937649119963
40
0.297937649119963
40
0.423283552444842
40
0.423283552444842
40
0.548629455769722
40
0.548629455769722
40
0.799321262419485
40
0.799321262419485
40
0.924667165744366
40
0.924667165744366
40
0.987340117406808
40
0.987340117406808
40
1
40
1
40
1
40
1
41
1
10
84.0574541419601
20
-2.93401111687254
30
0
41
1
10
83.8961606236683
20
-2.88316268876798
30
0
41
1
10
83.7349125117568
20
-2.82993946451191
30
0
41
1
10
82.721739974528
20
-2.48134721619942
30
0
41
1
10
81.878717015415
20
-2.1282628166822
30
0
41
1
10
80.6096812647007
20
-1.53894596002004
30
0
41
1
10
80.1859507779269
20
-1.3325142642459
30
0
41
1
10
79.3342132641405
20
-0.904516981882466
30
0
41
1
10
78.9046237669102
20
-0.682269355053336
30
0
41
1
10
77.6269708350266
20
-0.0138452312681636
30
0
41
1
10
76.7840081668053
20
0.437358665315656
30
0
41
1
10
75.5143870103628
20
1.08717430018081
30
0
41
1
10
75.0902927657121
20
1.29923290591378
30
0
41
1
10
74.4506040071343
20
1.60629792878251
30
0
41
1
10
74.236325468723
20
1.7070106154371
30
0
41
1
10
73.9791575011047
20
1.82473225140723
30
0
41
1
10
73.9359684139455
20
1.84439596880483
30
0
41
1
10
73.8928063783467
20
1.86393765505099
30
0
0
SPLINE
5
CE
100
AcDbEntity
8
1
62
256
6
ByLayer
370
18
48
1
60
0
100
AcDbSpline
70
4
71
3
72
14
73
10
40
0
40
0
40
0
40
0
40
0.22628450497663
40
0.22628450497663
40
0.379800821856424
40
0.379800821856424
40
0.533317138736217
40
0.533317138736217
40
1
40
1
40
1
40
1
41
1
10
44.9825715285278
20
-3.63009793068241
30
0
41
1
10
44.6705451442964
20
-3.62992706475828
30
0
41
1
10
44.358267275246
20
-3.61867090937562
30
0
41
1
10
43.8327378011111
20
-3.58121538699862
30
0
41
1
10
43.6199323399707
20
-3.56095503655459
30
0
41
1
10
43.1931234346616
20
-3.51022871826848
30
0
41
1
10
42.978765622584
20
-3.47971178182212
30
0
41
1
10
42.1130174657154
20
-3.33641539700349
30
0
41
1
10
41.4681308643504
20
-3.18390232769463
30
0
41
1
10
40.8244870613516
20
-2.99302726121292
30
0
0
SPLINE
5
CF
100
AcDbEntity
8
1
62
256
6
ByLayer
370
13
48
1
60
0
100
AcDbSpline
70
4
71
3
72
24
73
20
40
0
40
0
40
0
40
0
40
0.0597188634695532
40
0.0597188634695532
40
0.184127471017312
40
0.184127471017312
40
0.246331774791189
40
0.246331774791189
40
0.308536078565066
40
0.308536078565066
40
0.557353293660573
40
0.557353293660573
40
0.681761901208324
40
0.681761901208324
40
0.743966204982199
40
0.743966204982199
40
0.806170508756074
40
0.806170508756074
40
1
40
1
40
1
40
1
41
1
10
40.8244870612491
20
-2.99302726118245
30
0
41
1
10
40.6212188885451
20
-2.93274729608598
30
0
41
1
10
40.4180746663332
20
-2.86864129729255
30
0
41
1
10
39.7915979748751
20
-2.65980486143744
30
0
41
1
10
39.3680593402064
20
-2.5029569813442
30
0
41
1
10
38.7302681757787
20
-2.24685716092475
30
0
41
1
10
38.5172605353794
20
-2.15798900618862
30
0
41
1
10
38.0899257219516
20
-1.97392988412565
30
0
41
1
10
37.8751056118099
20
-1.87849546006075
30
0
41
1
10
36.8047457475063
20
-1.38982607377454
30
0
41
1
10
35.9592613084232
20
-0.963382492078438
30
0
41
1
10
34.6889789120603
20
-0.305321189779335
30
0
41
1
10
34.2652394255762
20
-0.0828536665041497
30
0
41
1
10
33.6267828252778
20
0.250930632001825
30
0
41
1
10
33.4135202629982
20
0.362265499948933
30
0
41
1
10
32.9856646345033
20
0.584226534764241
30
0
41
1
10
32.770724530777
20
0.695014083881688
30
0
41
1
10
31.8903809291375
20
1.14399101157386
30
0
41
1
10
31.2301127941166
20
1.46926004983467
30
0
41
1
10
30.5703664665255
20
1.77011660247371
30
0
0
SPLINE
5
D0
100
AcDbEntity
8
1
62
256
6
ByLayer
370
18
48
1
60
0
100
AcDbSpline
70
4
71
3
72
8
73
4
40
0
40
0
40
0
40
0
40
1
40
1
40
1
40
1
41
1
10
89.8582672265106
20
-0.962705522864724
30
0
41
1
10
89.9032163308486
20
-0.687472312345193
30
0
41
1
10
89.943090586748
20
-0.412275696291857
30
0
41
1
10
89.9778567929189
20
-0.137115914117459
30
0
0
SPLINE
5
D1
100
AcDbEntity
8
1
62
256
6
ByLayer
370
18
48
1
60
0
100
AcDbSpline
70
4
71
3
72
8
73
4
40
0
40
0
40
0
40
0
40
1
40
1
40
1
40
1
41
1
10
8.70639319525446
20
3.53261212110493
30
0
41
1
10
8.49220227241727
20
3.5799884584099
30
0
41
1
10
8.28824883045291
20
3.60588684664046
30
0
41
1
10
8.09276245267296
20
3.60657473982096
30
0
0
SPLINE
5
D2
100
AcDbEntity
8
1
62
256
6
ByLayer
370
18
48
1
60
0
100
AcDbSpline
70
4
71
3
72
50
73
46
40
0
40
0
40
0
40
0
40
0.0312500000000025
40
0.0312500000000025
40
0.062500000000005
40
0.062500000000005
40
0.12500000000001
40
0.12500000000001
40
0.187500000000015
40
0.187500000000015
40
0.25000000000002
40
0.25000000000002
40
0.312500000000025
40
0.312500000000025
40
0.343750000000027
40
0.343750000000027
40
0.37500000000003
40
0.37500000000003
40
0.437500000000035
40
0.437500000000035
40
0.50000000000004
40
0.50000000000004
40
0.562500000000045
40
0.562500000000045
40
0.625000000000051
40
0.625000000000051
40
0.687500000000056
40
0.687500000000056
40
0.750000000000061
40
0.750000000000061
40
0.781250000000063
40
0.781250000000063
40
0.785156250000063
40
0.785156250000063
40
0.789062500000062
40
0.789062500000062
40
0.792968750000061
40
0.792968750000061
40
0.796875000000061
40
0.796875000000061
40
0.812500000000055
40
0.812500000000055
40
0.875000000000037
40
0.875000000000037
40
1
40
1
40
1
40
1
41
1
10
6.76066306786777
20
-3.30105378661057
30
0
41
1
10
6.7251014939626
20
-3.26662487663384
30
0
41
1
10
6.69015436121083
20
-3.23010441158453
30
0
41
1
10
6.62246773575441
20
-3.1537472212531
30
0
41
1
10
6.58963842036769
20
-3.11383518874948
30
0
41
1
10
6.49421822629012
20
-2.98880651403033
30
0
41
1
10
6.43467410898137
20
-2.89842095354692
30
0
41
1
10
6.32431305780872
20
-2.70259641035861
30
0
41
1
10
6.27340469945659
20
-2.59696924988609
30
0
41
1
10
6.18202000268147
20
-2.36961037385663
30
0
41
1
10
6.1423990981979
20
-2.25004633426633
30
0
41
1
10
6.0763745841144
20
-1.99869988708323
30
0
41
1
10
6.04995777635216
20
-1.86692489216199
30
0
41
1
10
6.02189184038761
20
-1.65922573185398
30
0
41
1
10
6.01448583776693
20
-1.58816277365452
30
0
41
1
10
6.0040924193718
20
-1.4453320265419
30
0
41
1
10
6.0010518070988
20
-1.37324524843189
30
0
41
1
10
5.99858616860803
20
-1.15501571869268
30
0
41
1
10
6.00578602654588
20
-1.00691047994499
30
0
41
1
10
6.03968112237266
20
-0.705534561840295
30
0
41
1
10
6.06680109349855
20
-0.551216173770968
30
0
41
1
10
6.13968130086377
20
-0.250038894121445
30
0
41
1
10
6.18548220620303
20
-0.101780174621041
30
0
41
1
10
6.29569781666055
20
0.190004839306056
30
0
41
1
10
6.36054747607281
20
0.3340882343131
30
0
41
1
10
6.50428658135615
20
0.608957981963499
30
0
41
1
10
6.58352215164118
20
0.74088167889542
30
0
41
1
10
6.75560402641182
20
0.994780673444609
30
0
41
1
10
6.84868682923991
20
1.11693942290395
30
0
41
1
10
6.99577272983726
20
1.29087451072584
30
0
41
1
10
7.04614494267483
20
1.34744445267762
30
0
41
1
10
7.10412614646492
20
1.40945859139484
30
0
41
1
10
7.11042272452147
20
1.41646278490944
30
0
41
1
10
7.12355312070667
20
1.4300060730325
30
0
41
1
10
7.13096113093297
20
1.4361932243846
30
0
41
1
10
7.14816922148208
20
1.44465887502247
30
0
41
1
10
7.15777178541208
20
1.44728437127802
30
0
41
1
10
7.1772711658711
20
1.44936869928117
30
0
41
1
10
7.18718889213989
20
1.44937791055207
30
0
41
1
10
7.23643219584565
20
1.45099384478877
30
0
41
1
10
7.2758542679376
20
1.4517719742683
30
0
41
1
10
7.47289274127621
20
1.45311055597602
30
0
41
1
10
7.63040431684715
20
1.44606007394748
30
0
41
1
10
8.10041502933248
20
1.4009952475491
30
0
41
1
10
8.40678050902838
20
1.33997993187052
30
0
41
1
10
8.70639319525446
20
1.24717044783074
30
0
0
SPLINE
5
D3
100
AcDbEntity
8
1
62
256
6
ByLayer
370
18
48
1
60
0
100
AcDbSpline
70
4
71
3
72
18
73
14
40
0
40
0
40
0
40
0
40
0.125000000000006
40
0.125000000000006
40
0.250000000000012
40
0.250000000000012
40
0.375000000000018
40
0.375000000000018
40
0.500000000000025
40
0.500000000000025
40
0.750000000000012
40
0.750000000000012
40
1
40
1
40
1
40
1
41
1
10
6.76066306786771
20
-3.30105378661054
30
0
41
1
10
6.76472850519099
20
-3.28174964952427
30
0
41
1
10
6.77119203349469
20
-3.26274170177533
30
0
41
1
10
6.78890628483836
20
-3.23151258072659
30
0
41
1
10
6.80005439780689
20
-3.21959870271851
30
0
41
1
10
6.8229029661826
20
-3.20412829570492
30
0
41
1
10
6.83478923730269
20
-3.2000569014281
30
0
41
1
10
6.85790660407406
20
-3.1963582473374
30
0
41
1
10
6.86924130875835
20
-3.19666891035377
30
0
41
1
10
6.90283415654122
20
-3.20153533311037
30
0
41
1
10
6.92403805876714
20
-3.20979920957313
30
0
41
1
10
6.96494327666633
20
-3.23091457067324
30
0
41
1
10
6.98469177500144
20
-3.2439684249301
30
0
41
1
10
7.00394905009577
20
-3.25875210557947
30
0
0
SPLINE
5
D4
100
AcDbEntity
8
1
62
256
6
ByLayer
370
18
48
1
60
0
100
AcDbSpline
70
4
71
3
72
30
73
26
40
0
40
0
40
0
40
0
40
0.189449566968771
40
0.189449566968771
40
0.43532844155783
40
0.43532844155783
40
0.496798160205095
40
0.496798160205095
40
0.512165589866911
40
0.512165589866911
40
0.519849304697819
40
0.519849304697819
40
0.527533019528727
40
0.527533019528727
40
0.542900449190543
40
0.542900449190543
40
0.550584164021451
40
0.550584164021451
40
0.558267878852359
40
0.558267878852359
40
0.681207316146888
40
0.681207316146888
40
0.927086190735947
40
0.927086190735947
40
1
40
1
40
1
40
1
41
1
10
8.70639319525449
20
1.24717044784575
30
0
41
1
10
8.70639319525449
20
1.04941156646629
30
0
41
1
10
8.70639319525449
20
0.836882573187893
30
0
41
1
10
8.70639319525449
20
0.316333294925442
30
0
41
1
10
8.70639319525446
20
0.0012011012771893
30
0
41
1
10
8.70639319525446
20
-0.417199130848843
30
0
41
1
10
8.70639319525449
20
-0.502124729914016
30
0
41
1
10
8.70639319525449
20
-0.609840793302283
30
0
41
1
10
8.70639319525449
20
-0.631465777056775
30
0
41
1
10
8.70639319525449
20
-0.663985531429347
30
0
41
1
10
8.70639319525449
20
-0.674840427504989
30
0
41
1
10
8.70639319525449
20
-0.696580120587242
30
0
41
1
10
8.70639319525449
20
-0.707416294384586
30
0
41
1
10
8.70639319525449
20
-0.742165287506793
30
0
41
1
10
8.70639319525452
20
-0.767257497826193
30
0
41
1
10
8.70639319525452
20
-0.810890031497848
30
0
41
1
10
8.70639319525449
20
-0.825970036117127
30
0
41
1
10
8.70639319525449
20
-0.855679043773875
30
0
41
1
10
8.70639319525446
20
-0.870544126461994
30
0
41
1
10
8.70639319525446
20
-1.1234310949894
30
0
41
1
10
8.70639319525449
20
-1.36393602332251
30
0
41
1
10
8.70639319525449
20
-2.09107665805118
30
0
41
1
10
8.70639319525449
20
-2.58481082545455
30
0
41
1
10
8.70639319525449
20
-3.23381761789648
30
0
41
1
10
8.70639319525449
20
-3.3828859066133
30
0
41
1
10
8.70639319525449
20
-3.53261212110442
30
0
0
SPLINE
5
D5
100
AcDbEntity
8
1
62
256
6
ByLayer
370
18
48
1
60
0
100
AcDbSpline
70
4
71
3
72
52
73
48
40
0
40
0
40
0
40
0
40
0.0949397136493797
40
0.0949397136493797
40
0.142409570474069
40
0.142409570474069
40
0.189879427298758
40
0.189879427298758
40
0.284819140948138
40
0.284819140948138
40
0.308554069360483
40
0.308554069360483
40
0.332288997772828
40
0.332288997772828
40
0.379758854597518
40
0.379758854597518
40
0.427228711422208
40
0.427228711422208
40
0.474698568246897
40
0.474698568246897
40
0.498433496659242
40
0.498433496659242
40
0.522168425071586
40
0.522168425071586
40
0.569638281896276
40
0.569638281896276
40
0.617108138720966
40
0.617108138720966
40
0.664577995545656
40
0.664577995545656
40
0.712047852370346
40
0.712047852370346
40
0.759517709195035
40
0.759517709195035
40
0.78325263760738
40
0.78325263760738
40
0.806987566019725
40
0.806987566019725
40
0.854457422844415
40
0.854457422844415
40
0.949397136493794
40
0.949397136493794
40
0.973132064906138
40
0.973132064906138
40
0.996866993318482
40
0.996866993318482
40
1
40
1
40
1
40
1
41
1
10
8.70639319525449
20
1.24717044783074
30
0
41
1
10
9.12514205240808
20
1.02451825546046
30
0
41
1
10
9.54412544997859
20
0.802636805243367
30
0
41
1
10
10.1704992302514
20
0.466342857377498
30
0
41
1
10
10.3788696278605
20
0.353535817811917
30
0
41
1
10
10.7941641391279
20
0.125382330335498
30
0
41
1
10
11.0006840927814
20
0.0092863923891855
30
0
41
1
10
11.6230447394652
20
-0.333571674212095
30
0
41
1
10
12.039954924466
20
-0.558129869242435
30
0
41
1
10
12.5614858977189
20
-0.83772477045099
30
0
41
1
10
12.6658267667744
20
-0.893560516718168
30
0
41
1
10
12.8744660911228
20
-1.00527134698234
30
0
41
1
10
12.978584901351
20
-1.06147860716601
30
0
41
1
10
13.2920050265079
20
-1.22807226399164
30
0
41
1
10
13.502675186747
20
-1.33699498495685
30
0
41
1
10
13.9235857041259
20
-1.54952024666377
30
0
41
1
10
14.1334484416814
20
-1.65327057281041
30
0
41
1
10
14.5517930139761
20
-1.85618550412619
30
0
41
1
10
14.7604356309535
20
-1.95509553402681
30
0
41
1
10
15.0717074302553
20
-2.1009578366137
30
0
41
1
10
15.1752115618828
20
-2.14910002878213
30
0
41
1
10
15.3826576221652
20
-2.24298393832126
30
0
41
1
10
15.4864654289332
20
-2.28893923087062
30
0
41
1
10
15.7981287847046
20
-2.42393489032486
30
0
41
1
10
16.0061625527601
20
-2.51021331995432
30
0
41
1
10
16.42203253151
20
-2.6764164537785
30
0
41
1
10
16.629998410805
20
-2.7561583424843
30
0
41
1
10
17.0456426813464
20
-2.90919971586445
30
0
41
1
10
17.2527571409644
20
-2.98312247986422
30
0
41
1
10
17.6695999376652
20
-3.12084318016133
30
0
41
1
10
17.8790703496579
20
-3.18502607242019
30
0
41
1
10
18.2993277726014
20
-3.30497808979069
30
0
41
1
10
18.510480236212
20
-3.3608561947274
30
0
41
1
10
18.8253651231047
20
-3.4375174034883
30
0
41
1
10
18.9300973662398
20
-3.46191757099248
30
0
41
1
10
19.1389848211367
20
-3.50847571214968
30
0
41
1
10
19.2429613809443
20
-3.53075484912455
30
0
41
1
10
19.5550214522808
20
-3.59344403323567
30
0
41
1
10
19.7632062553554
20
-3.62980474213518
30
0
41
1
10
20.3877570035357
20
-3.72371128635879
30
0
41
1
10
20.8037190403348
20
-3.76652902284087
30
0
41
1
10
21.3213287901013
20
-3.79509052681095
30
0
41
1
10
21.4245963678424
20
-3.79954318575361
30
0
41
1
10
21.6318300603812
20
-3.8057583389232
30
0
41
1
10
21.7356384304812
20
-3.80755319648324
30
0
41
1
10
21.8533653757387
20
-3.80813030114405
30
0
41
1
10
21.8670963477963
20
-3.80817533577596
30
0
41
1
10
21.8808303202947
20
-3.80819810482851
30
0
0
SPLINE
5
D6
100
AcDbEntity
8
1
62
256
6
ByLayer
370
18
48
1
60
0
100
AcDbSpline
70
4
71
3
72
104
73
100
40
0
40
0
40
0
40
0
40
0.0001715842013043
40
0.0001715842013043
40
0.0430643729759708
40
0.0430643729759708
40
0.0537875701696375
40
0.0537875701696375
40
0.0645107673633044
40
0.0645107673633044
40
0.0859571617506395
40
0.0859571617506395
40
0.128849950525308
40
0.128849950525308
40
0.139573147718975
40
0.139573147718975
40
0.150296344912642
40
0.150296344912642
40
0.171742739299977
40
0.171742739299977
40
0.193189133687312
40
0.193189133687312
40
0.203912330880979
40
0.203912330880979
40
0.214635528074647
40
0.214635528074647
40
0.236081922461982
40
0.236081922461982
40
0.257528316849317
40
0.257528316849317
40
0.278974711236652
40
0.278974711236652
40
0.300421105623987
40
0.300421105623987
40
0.343313894398655
40
0.343313894398655
40
0.354037091592322
40
0.354037091592322
40
0.36476028878599
40
0.36476028878599
40
0.386206683173323
40
0.386206683173323
40
0.407653077560656
40
0.407653077560656
40
0.418376274754322
40
0.418376274754322
40
0.429099471947988
40
0.429099471947988
40
0.471992260722653
40
0.471992260722653
40
0.493438655109986
40
0.493438655109986
40
0.514885049497318
40
0.514885049497318
40
0.557777838271981
40
0.557777838271981
40
0.568501035465648
40
0.568501035465648
40
0.579224232659314
40
0.579224232659314
40
0.600670627046649
40
0.600670627046649
40
0.622117021433983
40
0.622117021433983
40
0.632840218627651
40
0.632840218627651
40
0.643563415821319
40
0.643563415821319
40
0.686456204595991
40
0.686456204595991
40
0.707902598983327
40
0.707902598983327
40
0.729348993370664
40
0.729348993370664
40
0.772241782145338
40
0.772241782145338
40
0.793688176532675
40
0.793688176532675
40
0.815134570920012
40
0.815134570920012
40
0.836580965307349
40
0.836580965307349
40
0.847304162501018
40
0.847304162501018
40
0.858027359694687
40
0.858027359694687
40
0.879473754082026
40
0.879473754082026
40
0.900920148469365
40
0.900920148469365
40
0.922366542856705
40
0.922366542856705
40
0.943812937244044
40
0.943812937244044
40
0.965259331631383
40
0.965259331631383
40
0.986705726018722
40
0.986705726018722
40
1
40
1
40
1
40
1
41
1
10
36.2503792695099
20
1.83829409234173
30
0
41
1
10
36.2520386018083
20
1.83910155489519
30
0
41
1
10
36.253697995215
20
1.83990878855582
30
0
41
1
10
36.6701897797188
20
2.04245123312498
30
0
41
1
10
37.0881313090801
20
2.23132665113761
30
0
41
1
10
37.6122055545977
20
2.45483295784803
30
0
41
1
10
37.7171294083533
20
2.49885660420648
30
0
41
1
10
37.9270871372296
20
2.58567947667109
30
0
41
1
10
38.0319135122436
20
2.62864044372955
30
0
41
1
10
38.3455704979086
20
2.75421393930088
30
0
41
1
10
38.55459268558
20
2.83303633919667
30
0
41
1
10
39.1811731393186
20
3.05607178550716
30
0
41
1
10
39.5977351327832
20
3.18769948188262
30
0
41
1
10
40.1152864150848
20
3.33239896352225
30
0
41
1
10
40.2184392838815
20
3.36050042024496
30
0
41
1
10
40.425255990403
20
3.41391940828441
30
0
41
1
10
40.5288041427628
20
3.43935085486154
30
0
41
1
10
40.8398806508679
20
3.5118863319058
30
0
41
1
10
41.0478259731404
20
3.55527097908419
30
0
41
1
10
41.4640000901498
20
3.63278794455684
30
0
41
1
10
41.6723248765554
20
3.66684404289023
30
0
41
1
10
41.9850430797692
20
3.71074477861396
30
0
41
1
10
42.0893450044572
20
3.72417184139488
30
0
41
1
10
42.2976877605451
20
3.74868511805062
30
0
41
1
10
42.4019280140998
20
3.7596768686046
30
0
41
1
10
42.7158749711389
20
3.78851506794993
30
0
41
1
10
42.9267611499446
20
3.80238503408384
30
0
41
1
10
43.3465272667078
20
3.81965054479818
30
0
41
1
10
43.5557627293096
20
3.82309716810579
30
0
41
1
10
43.9729542752813
20
3.81968615528979
30
0
41
1
10
44.1807877390749
20
3.81283133951843
30
0
41
1
10
44.5946779607476
20
3.78843390645767
30
0
41
1
10
44.8019859278917
20
3.77113847662108
30
0
41
1
10
45.4247862075069
20
3.70470002856064
30
0
41
1
10
45.8405712133467
20
3.64103687323777
30
0
41
1
10
46.3593950295242
20
3.5355132988492
30
0
41
1
10
46.4629094221484
20
3.51293633415091
30
0
41
1
10
46.6705347676342
20
3.46558947869309
30
0
41
1
10
46.7745966180419
20
3.44079697200351
30
0
41
1
10
47.0875393293038
20
3.36314642175447
30
0
41
1
10
47.2971884573783
20
3.30705826130955
30
0
41
1
10
47.7176738504311
20
3.18545389794048
30
0
41
1
10
47.9283087965218
20
3.12005300778156
30
0
41
1
10
48.2421737078868
20
3.01569940803094
30
0
41
1
10
48.3465683892338
20
2.97984128160158
30
0
41
1
10
48.5546572421414
20
2.90565128435617
30
0
41
1
10
48.6583712777102
20
2.86733256483603
30
0
41
1
10
49.1778129114792
20
2.67281598244864
30
0
41
1
10
49.5939914798247
20
2.50547180501491
30
0
41
1
10
50.2163681559181
20
2.23375149732433
30
0
41
1
10
50.4236792098765
20
2.13994333004641
30
0
41
1
10
50.8367916622649
20
1.94369571552426
30
0
41
1
10
51.0441422787787
20
1.8436666196526
30
0
41
1
10
51.6684331566185
20
1.53802518525734
30
0
41
1
10
52.0869786820396
20
1.32596676414551
30
0
41
1
10
52.6115770437426
20
1.04694641108611
30
0
41
1
10
52.7162399250929
20
0.990147537794741
30
0
41
1
10
52.9252523341335
20
0.876661600707479
30
0
41
1
10
53.0297265666254
20
0.819954473864982
30
0
41
1
10
53.3430809947901
20
0.649982420110177
30
0
41
1
10
53.5519261536705
20
0.536926770039742
30
0
41
1
10
53.9686582238796
20
0.309733505903836
30
0
41
1
10
54.1765983767851
20
0.195696679462003
30
0
41
1
10
54.4878117163992
20
0.023876955560155
30
0
41
1
10
54.5914162279359
20
-0.0335553423269346
30
0
41
1
10
54.7982371349989
20
-0.148958833693058
30
0
41
1
10
54.9013181760732
20
-0.207178542187108
30
0
41
1
10
55.4181991988918
20
-0.495112031960701
30
0
41
1
10
55.8341447654822
20
-0.719573500664069
30
0
41
1
10
56.4587571363364
20
-1.0529098247402
30
0
41
1
10
56.667357368182
20
-1.16295063784736
30
0
41
1
10
57.0836757954871
20
-1.38387524342264
30
0
41
1
10
57.2931518593057
20
-1.49213227525172
30
0
41
1
10
57.9238349066676
20
-1.80816626531097
30
0
41
1
10
58.3423527549243
20
-2.0069806390855
30
0
41
1
10
58.9652923039072
20
-2.29084894473834
30
0
41
1
10
59.17169180357
20
-2.38362493453928
30
0
41
1
10
59.5860944282874
20
-2.55952475150497
30
0
41
1
10
59.793704196283
20
-2.64330132471756
30
0
41
1
10
60.208886949363
20
-2.80385302865153
30
0
41
1
10
60.4164757277304
20
-2.88059144504257
30
0
41
1
10
60.7278484469661
20
-2.99030903740186
30
0
41
1
10
60.8316221667877
20
-3.02600125363273
30
0
41
1
10
61.0390215736293
20
-3.09570791813806
30
0
41
1
10
61.1424734711314
20
-3.12990447690629
30
0
41
1
10
61.4538926728984
20
-3.22850894469161
30
0
41
1
10
61.662562222716
20
-3.28937830457463
30
0
41
1
10
62.0815842535686
20
-3.40201425918016
30
0
41
1
10
62.2921830453655
20
-3.45398547497871
30
0
41
1
10
62.7125003138741
20
-3.54852509297436
30
0
41
1
10
62.9223527545126
20
-3.59097532974789
30
0
41
1
10
63.3397915178074
20
-3.6669288043237
30
0
41
1
10
63.5486298146556
20
-3.69962204391649
30
0
41
1
10
63.967761643368
20
-3.7542589060196
30
0
41
1
10
64.177759986781
20
-3.77637801106204
30
0
41
1
10
64.5979458014391
20
-3.81048294666192
30
0
41
1
10
64.8084942213515
20
-3.82242395106331
30
0
41
1
10
65.1480608663109
20
-3.83324330460573
30
0
41
1
10
65.2775262802505
20
-3.83533955537834
30
0
41
1
10
65.4070190671084
20
-3.83538990631416
30
0
0
SPLINE
5
D7
100
AcDbEntity
8
1
62
256
6
ByLayer
370
18
48
1
60
0
100
AcDbSpline
70
4
71
3
72
34
73
30
40
0
40
0
40
0
40
0
40
0.0289913836557642
40
0.0289913836557642
40
0.167706900276363
40
0.167706900276363
40
0.237064658586661
40
0.237064658586661
40
0.271743537741812
40
0.271743537741812
40
0.306422416896963
40
0.306422416896963
40
0.445137933517572
40
0.445137933517572
40
0.514495691827876
40
0.514495691827876
40
0.58385345013818
40
0.58385345013818
40
0.722568966758789
40
0.722568966758789
40
0.791926725069092
40
0.791926725069092
40
0.861284483379395
40
0.861284483379395
40
0.930642241689698
40
0.930642241689698
40
0.965321120844849
40
0.965321120844849
40
1
40
1
40
1
40
1
41
1
10
79.7508328336443
20
1.84539223283255
30
0
41
1
10
79.8372608679302
20
1.88786655938191
30
0
41
1
10
79.9235558347015
20
1.93018398216188
30
0
41
1
10
80.4233095368077
20
2.17188485860248
30
0
41
1
10
80.8404272968539
20
2.35735031643671
30
0
41
1
10
81.4687214172973
20
2.61870912547218
30
0
41
1
10
81.6792224945658
20
2.70295231807148
30
0
41
1
10
81.9926385270849
20
2.82420665653348
30
0
41
1
10
82.0966214546449
20
2.86399463571004
30
0
41
1
10
82.304841841131
20
2.9407354715313
30
0
41
1
10
82.4089437020847
20
2.97787429609622
30
0
41
1
10
82.9294436949081
20
3.15757300531953
30
0
41
1
10
83.3453119765907
20
3.28302170716751
30
0
41
1
10
83.9662124459852
20
3.44621548176187
30
0
41
1
10
84.1720961159168
20
3.49681386450249
30
0
41
1
10
84.5854228960159
20
3.58732256080344
30
0
41
1
10
84.792803787919
20
3.62738643974956
30
0
41
1
10
85.416098917285
20
3.73304474665761
30
0
41
1
10
85.8329934912114
20
3.7843780619969
30
0
41
1
10
86.4588940223597
20
3.83093742991545
30
0
41
1
10
86.6690004241684
20
3.84098914521866
30
0
41
1
10
87.0881012908866
20
3.85051315434558
30
0
41
1
10
87.2974056415212
20
3.850045447339
30
0
41
1
10
87.715093854703
20
3.83876750678607
30
0
41
1
10
87.9236177324181
20
3.82797647673755
30
0
41
1
10
88.2354125877621
20
3.80377475408938
30
0
41
1
10
88.3389859454468
20
3.79429955510724
30
0
41
1
10
88.5466074491598
20
3.77285992910322
30
0
41
1
10
88.6505722722922
20
3.7608835256712
30
0
41
1
10
88.754695381862
20
3.74768390329624
30
0
0
SPLINE
5
D8
100
AcDbEntity
8
1
62
256
6
ByLayer
370
18
48
1
60
0
100
AcDbSpline
70
4
71
3
72
14
73
10
40
0
40
0
40
0
40
0
40
0.25
40
0.25
40
0.5
40
0.5
40
0.75
40
0.75
40
1
40
1
40
1
40
1
41
1
10
88.5586904222683
20
0.853669441919493
30
0
41
1
10
88.554761457146
20
0.868712045829227
30
0
41
1
10
88.5534398047166
20
0.884567657082499
30
0
41
1
10
88.5593194938261
20
0.914802168633202
30
0
41
1
10
88.5668900484528
20
0.929187083261837
30
0
41
1
10
88.5895241680302
20
0.951026230296748
30
0
41
1
10
88.603799452851
20
0.958245829941319
30
0
41
1
10
88.6334520603709
20
0.966942104055136
30
0
41
1
10
88.6490896666798
20
0.96858393939624
30
0
41
1
10
88.6646252530113
20
0.968422934619525
30
0
0
SPLINE
5
D9
100
AcDbEntity
8
1
62
256
6
ByLayer
370
18
48
1
60
0
100
AcDbSpline
70
4
71
3
72
8
73
4
40
0
40
0
40
0
40
0
40
1
40
1
40
1
40
1
41
1
10
88.7546953818619
20
3.74768390329624
30
0
41
1
10
88.7001746321176
20
3.8006009566214
30
0
41
1
10
88.6533111678266
20
3.83350979578239
30
0
41
1
10
88.6137316988168
20
3.84517638079274
30
0
0
SPLINE
5
DA
100
AcDbEntity
8
1
62
256
6
ByLayer
370
18
48
1
60
0
100
AcDbSpline
70
4
71
3
72
16
73
12
40
0
40
0
40
0
40
0
40
0.2294427210893
40
0.2294427210893
40
0.520988595621837
40
0.520988595621837
40
0.666761532888105
40
0.666761532888105
40
0.812534470154372
40
0.812534470154372
40
1
40
1
40
1
40
1
41
1
10
66.7439070180212
20
-3.64362600958958
30
0
41
1
10
66.4111260362648
20
-3.64376713044953
30
0
41
1
10
66.0783551079007
20
-3.63128723043801
30
0
41
1
10
65.3210644731808
20
-3.57426287351166
30
0
41
1
10
64.8961391768798
20
-3.52199793037931
30
0
41
1
10
64.2546225380598
20
-3.41329989489895
30
0
41
1
10
64.0399759563882
20
-3.37195562925405
30
0
41
1
10
63.612991507946
20
-3.28023573617682
30
0
41
1
10
63.4001433782934
20
-3.22976191551382
30
0
41
1
10
62.9144912624482
20
-3.10441288641948
30
0
41
1
10
62.6419956787084
20
-3.02666453994334
30
0
41
1
10
62.369806546584
20
-2.9422008125959
30
0
0
SPLINE
5
DB
100
AcDbEntity
8
1
62
256
6
ByLayer
370
13
48
1
60
0
100
AcDbSpline
70
4
71
3
72
22
73
18
40
0
40
0
40
0
40
0
40
0.171035478184397
40
0.171035478184397
40
0.29707537557596
40
0.29707537557596
40
0.360095324271742
40
0.360095324271742
40
0.423115272967524
40
0.423115272967524
40
0.675195067750645
40
0.675195067750645
40
0.801234965142207
40
0.801234965142207
40
0.927274862533769
40
0.927274862533769
40
1
40
1
40
1
40
1
41
1
10
62.369806546153
20
-2.94220081246215
30
0
41
1
10
61.795380104574
20
-2.76394902860821
30
0
41
1
10
61.2223185264285
20
-2.55578851743979
30
0
41
1
10
60.2227167795862
20
-2.15072156799275
30
0
41
1
10
59.7972579018286
20
-1.96528472961788
30
0
41
1
10
59.1547839082318
20
-1.66991988532141
30
0
41
1
10
58.9405034080972
20
-1.56893594232042
30
0
41
1
10
58.513903169291
20
-1.36364867635402
30
0
41
1
10
58.3012197597851
20
-1.25915144915169
30
0
41
1
10
57.239642939459
20
-0.729741072929215
30
0
41
1
10
56.3964993530097
20
-0.283612420431581
30
0
41
1
10
55.1229871954249
20
0.384778752856676
30
0
41
1
10
54.6966421734154
20
0.607467843743024
30
0
41
1
10
53.8391366740431
20
1.04586963091796
30
0
41
1
10
53.412979288323
20
1.25894619944754
30
0
41
1
10
52.7425000542775
20
1.58105599951111
30
0
41
1
10
52.4975194587216
20
1.69597059518315
30
0
41
1
10
52.2525811962154
20
1.80746027680456
30
0
0
SPLINE
5
DC
100
AcDbEntity
8
1
62
256
6
ByLayer
370
18
48
1
60
0
100
AcDbSpline
70
4
71
3
72
14
73
10
40
0
40
0
40
0
40
0
40
0.063607499551323
40
0.063607499551323
40
0.221835071337889
40
0.221835071337889
40
0.854745358484164
40
0.854745358484164
40
1
40
1
40
1
40
1
41
1
10
23.2465340993221
20
-3.616534058122
30
0
41
1
10
23.1605291711355
20
-3.61657469100692
30
0
41
1
10
23.074417224084
20
-3.61577828504434
30
0
41
1
10
22.7736725622009
20
-3.61006212869046
30
0
41
1
10
22.5592221578331
20
-3.60077052288662
30
0
41
1
10
21.4915447741062
20
-3.52892825995534
30
0
41
1
10
20.6465364131764
20
-3.39008949877214
30
0
41
1
10
19.6040017062382
20
-3.13050610382155
30
0
41
1
10
19.4092463388208
20
-3.07825257870178
30
0
41
1
10
19.2141916795286
20
-3.02232109926078
30
0
0
SPLINE
5
DD
100
AcDbEntity
8
1
62
256
6
ByLayer
370
13
48
1
60
0
100
AcDbSpline
70
4
71
3
72
24
73
20
40
0
40
0
40
0
40
0
40
0.0649142006438665
40
0.0649142006438665
40
0.184904693759549
40
0.184904693759549
40
0.424885679990915
40
0.424885679990915
40
0.544876173106598
40
0.544876173106598
40
0.604871419664439
40
0.604871419664439
40
0.66486666622228
40
0.66486666622228
40
0.904847652453647
40
0.904847652453647
40
0.96484289901149
40
0.96484289901149
40
1
40
1
40
1
40
1
41
1
10
19.2141916802397
20
-3.02232109946473
30
0
41
1
10
18.9842957176373
20
-2.95639895563838
30
0
41
1
10
18.7539839928773
20
-2.88536757112237
30
0
41
1
10
18.0960849848639
20
-2.66904903555181
30
0
41
1
10
17.6654967782385
20
-2.51128687789262
30
0
41
1
10
16.3851876174005
20
-2.00192135493634
30
0
41
1
10
15.540196335547
20
-1.61262091972898
30
0
41
1
10
14.267714953206
20
-0.98574879876287
30
0
41
1
10
13.8426221493704
20
-0.76981679217937
30
0
41
1
10
13.2012645091353
20
-0.439536868422579
30
0
41
1
10
12.9864747020167
20
-0.328110092802206
30
0
41
1
10
12.5575508398712
20
-0.104669481093168
30
0
41
1
10
12.3437367692618
20
0.0071246233770523
30
0
41
1
10
11.2765751184968
20
0.563811755407016
30
0
41
1
10
10.4288931998482
20
1.00169598346236
30
0
41
1
10
9.36271329277963
20
1.51309827509263
30
0
41
1
10
9.14911306618507
20
1.61351062669095
30
0
41
1
10
8.80948069470418
20
1.76927392769093
30
0
41
1
10
8.68371523385289
20
1.82611161307088
30
0
41
1
10
8.55790691518163
20
1.88202928360724
30
0
0
SPLINE
5
DE
100
AcDbEntity
8
1
62
256
6
ByLayer
370
18
48
1
60
0
100
AcDbSpline
70
4
71
3
72
8
73
4
40
0
40
0
40
0
40
0
40
1
40
1
40
1
40
1
41
1
10
89.9999624559188
20
0.0340509670690778
30
0
41
1
10
89.9916857455565
20
0.0079638853744939
30
0
41
1
10
89.9806491793553
20
-0.018965347264043
30
0
41
1
10
89.9696219397417
20
-0.0394840045754847
30
0
0
SPLINE
5
DF
100
AcDbEntity
8
1
62
256
6
ByLayer
370
18
48
1
60
0
100
AcDbSpline
70
4
71
3
72
34
73
30
40
0
40
0
40
0
40
0
40
0.0625000000000026
40
0.0625000000000026
40
0.125000000000005
40
0.125000000000005
40
0.187500000000008
40
0.187500000000008
40
0.25000000000001
40
0.25000000000001
40
0.375000000000008
40
0.375000000000008
40
0.500000000000007
40
0.500000000000007
40
0.562500000000006
40
0.562500000000006
40
0.625000000000005
40
0.625000000000005
40
0.687500000000004
40
0.687500000000004
40
0.750000000000003
40
0.750000000000003
40
0.812500000000002
40
0.812500000000002
40
0.875000000000002
40
0.875000000000002
40
0.937500000000001
40
0.937500000000001
40
1
40
1
40
1
40
1
41
1
10
88.8778412581391
20
-1.56851234810762
30
0
41
1
10
88.8738988762908
20
-1.60570968601542
30
0
41
1
10
88.8733849559201
20
-1.63989309375
30
0
41
1
10
88.8786683244292
20
-1.69896798964845
30
0
41
1
10
88.8844685811197
20
-1.72419527390468
30
0
41
1
10
88.9010045019857
20
-1.76480830513444
30
0
41
1
10
88.9118720538071
20
-1.78053804409785
30
0
41
1
10
88.9371348911419
20
-1.8026359082553
30
0
41
1
10
88.951790400048
20
-1.80926284132303
30
0
41
1
10
88.999571370434
20
-1.81642861245436
30
0
41
1
10
89.0370439062825
20
-1.80451757595415
30
0
41
1
10
89.1163820478009
20
-1.75245045524122
30
0
41
1
10
89.1591266281462
20
-1.71161648793702
30
0
41
1
10
89.2221571324602
20
-1.63207737897358
30
0
41
1
10
89.2434193550281
20
-1.60196369281834
30
0
41
1
10
89.2846661141891
20
-1.53607500566784
30
0
41
1
10
89.3044922712649
20
-1.50066077288025
30
0
41
1
10
89.3422867351615
20
-1.42407646840667
30
0
41
1
10
89.359818506237
20
-1.38369147508973
30
0
41
1
10
89.3906090969951
20
-1.30084393675577
30
0
41
1
10
89.4038877813366
20
-1.25814593954803
30
0
41
1
10
89.4240203699144
20
-1.17597195918688
30
0
41
1
10
89.4311253591991
20
-1.13530427368625
30
0
41
1
10
89.4381553702325
20
-1.06183842268669
30
0
41
1
10
89.4382154072671
20
-1.02796840056305
30
0
41
1
10
89.4320231441536
20
-0.970237275929861
30
0
41
1
10
89.4257398429731
20
-0.945647021553015
30
0
41
1
10
89.4083514459971
20
-0.90658923003528
30
0
41
1
10
89.3971025442549
20
-0.891678323896144
30
0
41
1
10
89.3840881667245
20
-0.881387618549837
30
0
0
SPLINE
5
E0
100
AcDbEntity
8
1
62
256
6
ByLayer
370
18
48
1
60
0
100
AcDbSpline
70
4
71
3
72
12
73
8
40
0
40
0
40
0
40
0
40
0.5
40
0.5
40
0.75
40
0.75
40
1
40
1
40
1
40
1
41
1
10
86.4696758674602
20
-1.56274691185098
30
0
41
1
10
86.7121613649542
20
-1.79381853210094
30
0
41
1
10
86.9674964355015
20
-2.00065211639995
30
0
41
1
10
87.3651075386322
20
-2.28334661363539
30
0
41
1
10
87.4999648992792
20
-2.37280839173249
30
0
41
1
10
87.7715807210748
20
-2.54160864071349
30
0
41
1
10
87.9086716514257
20
-2.62117601725024
30
0
41
1
10
88.0469485832963
20
-2.69627608317552
30
0
0
SPLINE
5
E1
100
AcDbEntity
8
1
62
256
6
ByLayer
370
18
48
1
60
0
100
AcDbSpline
70
4
71
3
72
8
73
4
40
0
40
0
40
0
40
0
40
1
40
1
40
1
40
1
41
1
10
89.9696219397416
20
-0.03948400457557
30
0
41
1
10
89.9389345058544
20
-0.0965848713169066
30
0
41
1
10
89.9083678181511
20
-0.153793866140006
30
0
41
1
10
89.8779225274083
20
-0.211110337298805
30
0
0
SPLINE
5
E2
100
AcDbEntity
8
1
62
256
6
ByLayer
370
18
48
1
60
0
100
AcDbSpline
70
4
71
3
72
108
73
104
40
0
40
0
40
0
40
0
40
0.016058516271216
40
0.016058516271216
40
0.026792735362403
40
0.026792735362403
40
0.0375269544535901
40
0.0375269544535901
40
0.0589953926359648
40
0.0589953926359648
40
0.0804638308183394
40
0.0804638308183394
40
0.101932269000714
40
0.101932269000714
40
0.123400707183089
40
0.123400707183089
40
0.144869145365463
40
0.144869145365463
40
0.155603364456651
40
0.155603364456651
40
0.166337583547838
40
0.166337583547838
40
0.187806021730212
40
0.187806021730212
40
0.230742898094962
40
0.230742898094962
40
0.241477117186149
40
0.241477117186149
40
0.252211336277336
40
0.252211336277336
40
0.273679774459711
40
0.273679774459711
40
0.295148212642086
40
0.295148212642086
40
0.31661665082446
40
0.31661665082446
40
0.35955352718921
40
0.35955352718921
40
0.370287746280398
40
0.370287746280398
40
0.381021965371585
40
0.381021965371585
40
0.40249040355396
40
0.40249040355396
40
0.44542727991871
40
0.44542727991871
40
0.456161499009897
40
0.456161499009897
40
0.466895718101084
40
0.466895718101084
40
0.488364156283457
40
0.488364156283457
40
0.509832594465831
40
0.509832594465831
40
0.531301032648204
40
0.531301032648204
40
0.57423790901295
40
0.57423790901295
40
0.584972128104137
40
0.584972128104137
40
0.595706347195323
40
0.595706347195323
40
0.617174785377694
40
0.617174785377694
40
0.638643223560065
40
0.638643223560065
40
0.660111661742436
40
0.660111661742436
40
0.670845880833622
40
0.670845880833622
40
0.681580099924808
40
0.681580099924808
40
0.703048538107179
40
0.703048538107179
40
0.72451697628955
40
0.72451697628955
40
0.745985414471921
40
0.745985414471921
40
0.788922290836663
40
0.788922290836663
40
0.799656509927848
40
0.799656509927848
40
0.810390729019034
40
0.810390729019034
40
0.831859167201403
40
0.831859167201403
40
0.874796043566143
40
0.874796043566143
40
0.885530262657328
40
0.885530262657328
40
0.896264481748513
40
0.896264481748513
40
0.917732919930884
40
0.917732919930884
40
0.939201358113255
40
0.939201358113255
40
0.949935577204441
40
0.949935577204441
40
0.960669796295627
40
0.960669796295627
40
0.982138234477999
40
0.982138234477999
40
1
40
1
40
1
40
1
41
1
10
14.5006408572717
20
1.83095688721778
30
0
41
1
10
14.6568748382418
20
1.90592906067687
30
0
41
1
10
14.8127280897112
20
1.97959983688833
30
0
41
1
10
15.0717074302553
20
2.10095783661367
30
0
41
1
10
15.1752115618828
20
2.14910002878213
30
0
41
1
10
15.3826576221652
20
2.24298393832126
30
0
41
1
10
15.4864654289332
20
2.28893923087062
30
0
41
1
10
15.7981287847046
20
2.42393489032483
30
0
41
1
10
16.0061625527601
20
2.51021331995429
30
0
41
1
10
16.42203253151
20
2.67641645377847
30
0
41
1
10
16.6299984108051
20
2.7561583424843
30
0
41
1
10
17.0456426813465
20
2.90919971586445
30
0
41
1
10
17.2527571409644
20
2.98312247986422
30
0
41
1
10
17.6695999376652
20
3.12084318016133
30
0
41
1
10
17.8790703496579
20
3.18502607242019
30
0
41
1
10
18.2993277726014
20
3.30497808979069
30
0
41
1
10
18.510480236212
20
3.3608561947274
30
0
41
1
10
18.8253651231047
20
3.4375174034883
30
0
41
1
10
18.9300973662398
20
3.46191757099248
30
0
41
1
10
19.1389848211367
20
3.50847571214968
30
0
41
1
10
19.2429613809443
20
3.53075484912455
30
0
41
1
10
19.5550214522808
20
3.59344403323564
30
0
41
1
10
19.7632062553554
20
3.62980474213515
30
0
41
1
10
20.3877570035357
20
3.72371128635882
30
0
41
1
10
20.8037190403348
20
3.76652902284087
30
0
41
1
10
21.3213287901013
20
3.79509052681095
30
0
41
1
10
21.4245963678424
20
3.79954318575361
30
0
41
1
10
21.6318300603812
20
3.8057583389232
30
0
41
1
10
21.7356384304812
20
3.80755319648324
30
0
41
1
10
22.0476356801539
20
3.80908262601656
30
0
41
1
10
22.2563478117262
20
3.80499199790677
30
0
41
1
10
22.6744376708321
20
3.78655271554871
30
0
41
1
10
22.8839354804049
20
3.77221066293197
30
0
41
1
10
23.3035788350272
20
3.73281964081428
30
0
41
1
10
23.5132762847994
20
3.70739815091324
30
0
41
1
10
24.1412111277748
20
3.61711977724374
30
0
41
1
10
24.5593021786698
20
3.53829648118332
30
0
41
1
10
25.0791379997536
20
3.41609383048416
30
0
41
1
10
25.1829860167467
20
3.39046770418432
30
0
41
1
10
25.3903259695489
20
3.33670993948917
30
0
41
1
10
25.493654861991
20
3.30842457325392
30
0
41
1
10
25.8038671390734
20
3.22042153281197
30
0
41
1
10
26.0112501813435
20
3.15786854142854
30
0
41
1
10
26.634738386647
20
2.95875019034804
30
0
41
1
10
27.0516772523991
20
2.81039052535974
30
0
41
1
10
27.5728060693438
20
2.60223104943896
30
0
41
1
10
27.6768487655448
20
2.55918158189402
30
0
41
1
10
27.8858015045151
20
2.47196393089413
30
0
41
1
10
27.9905752466908
20
2.42761335120144
30
0
41
1
10
28.3057932301818
20
2.29239990970331
30
0
41
1
10
28.516764283083
20
2.19947883260335
30
0
41
1
10
28.9373012763092
20
2.0079257893336
30
0
41
1
10
29.1473077683065
20
1.90932695638622
30
0
41
1
10
29.5665249573979
20
1.70597985449353
30
0
41
1
10
29.7750894733884
20
1.60013725543774
30
0
41
1
10
30.4036213498544
20
1.27983534763831
30
0
41
1
10
30.8263416096916
20
1.06099740105407
30
0
41
1
10
31.3513208537111
20
0.779922329798637
30
0
41
1
10
31.4562137247732
20
0.723344692431681
30
0
41
1
10
31.6656708337446
20
0.609238049229305
30
0
41
1
10
31.7700704962385
20
0.5514110620704
30
0
41
1
10
32.0835295850031
20
0.377848783934269
30
0
41
1
10
32.2931674378179
20
0.262617178926007
30
0
41
1
10
32.7134954241848
20
0.0326616025016619
30
0
41
1
10
32.9243097402222
20
-0.082481896481454
30
0
41
1
10
33.3451135142533
20
-0.312735252749462
30
0
41
1
10
33.5547250843756
20
-0.427330879635349
30
0
41
1
10
33.8673786654452
20
-0.599487824903008
30
0
41
1
10
33.9711587954572
20
-0.657179233172002
30
0
41
1
10
34.1790828220389
20
-0.770858439119365
30
0
41
1
10
34.2830756964475
20
-0.827133494457513
30
0
41
1
10
34.5951584929743
20
-0.99428998705045
30
0
41
1
10
34.8033131019001
20
-1.10358610866626
30
0
41
1
10
35.2190429563821
20
-1.31936946191459
30
0
41
1
10
35.4267316411442
20
-1.42565141399598
30
0
41
1
10
35.8414950382321
20
-1.63537878398176
30
0
41
1
10
36.0479412861993
20
-1.73984807095917
30
0
41
1
10
36.6701897797188
20
-2.04245123312495
30
0
41
1
10
37.08813130908
20
-2.23132665113761
30
0
41
1
10
37.6122055545976
20
-2.454832957848
30
0
41
1
10
37.7171294083533
20
-2.49885660420648
30
0
41
1
10
37.9270871372297
20
-2.58567947667109
30
0
41
1
10
38.0319135122436
20
-2.62864044372952
30
0
41
1
10
38.3455704979086
20
-2.75421393930085
30
0
41
1
10
38.55459268558
20
-2.83303633919664
30
0
41
1
10
39.1811731393186
20
-3.05607178550716
30
0
41
1
10
39.5977351327831
20
-3.18769948188259
30
0
41
1
10
40.1152864150848
20
-3.33239896352225
30
0
41
1
10
40.2184392838815
20
-3.36050042024496
30
0
41
1
10
40.425255990403
20
-3.41391940828441
30
0
41
1
10
40.5288041427627
20
-3.43935085486154
30
0
41
1
10
40.8398806508678
20
-3.5118863319058
30
0
41
1
10
41.0478259731404
20
-3.55527097908419
30
0
41
1
10
41.4640000901497
20
-3.63278794455681
30
0
41
1
10
41.6723248765553
20
-3.66684404289023
30
0
41
1
10
41.9850430797691
20
-3.71074477861396
30
0
41
1
10
42.0893450044572
20
-3.72417184139485
30
0
41
1
10
42.2976877605451
20
-3.74868511805062
30
0
41
1
10
42.4019280140997
20
-3.7596768686046
30
0
41
1
10
42.7158749711388
20
-3.7885150679499
30
0
41
1
10
42.9267611499445
20
-3.80238503408384
30
0
41
1
10
43.3112671568614
20
-3.81820025193264
30
0
41
1
10
43.485441822803
20
-3.82179273932144
30
0
41
1
10
43.6591727595699
20
-3.82181483466621
30
0
0
SPLINE
5
E3
100
AcDbEntity
8
1
62
256
6
ByLayer
370
18
48
1
60
0
100
AcDbSpline
70
4
71
3
72
100
73
96
40
0
40
0
40
0
40
0
40
0.0264379039385306
40
0.0264379039385306
40
0.0478621717253806
40
0.0478621717253806
40
0.0692864395122306
40
0.0692864395122306
40
0.0907107072990806
40
0.0907107072990806
40
0.101422841192506
40
0.101422841192506
40
0.112134975085931
40
0.112134975085931
40
0.133559242872783
40
0.133559242872783
40
0.154983510659634
40
0.154983510659634
40
0.176407778446485
40
0.176407778446485
40
0.197832046233336
40
0.197832046233336
40
0.219256314020187
40
0.219256314020187
40
0.240680581807038
40
0.240680581807038
40
0.26210484959389
40
0.26210484959389
40
0.283529117380741
40
0.283529117380741
40
0.304953385167592
40
0.304953385167592
40
0.315665519061018
40
0.315665519061018
40
0.326377652954444
40
0.326377652954444
40
0.36922618852815
40
0.36922618852815
40
0.390650456315003
40
0.390650456315003
40
0.412074724101856
40
0.412074724101856
40
0.454923259675562
40
0.454923259675562
40
0.476347527462414
40
0.476347527462414
40
0.497771795249267
40
0.497771795249267
40
0.51919606303612
40
0.51919606303612
40
0.529908196929546
40
0.529908196929546
40
0.540620330822972
40
0.540620330822972
40
0.583468866396675
40
0.583468866396675
40
0.604893134183527
40
0.604893134183527
40
0.615605268076952
40
0.615605268076952
40
0.626317401970378
40
0.626317401970378
40
0.647741669757229
40
0.647741669757229
40
0.66916593754408
40
0.66916593754408
40
0.690590205330931
40
0.690590205330931
40
0.712014473117783
40
0.712014473117783
40
0.733438740904634
40
0.733438740904634
40
0.74415087479806
40
0.74415087479806
40
0.754863008691486
40
0.754863008691486
40
0.797711544265188
40
0.797711544265188
40
0.819135812052039
40
0.819135812052039
40
0.829847945945465
40
0.829847945945465
40
0.84056007983889
40
0.84056007983889
40
0.883408615412597
40
0.883408615412597
40
0.90483288319945
40
0.90483288319945
40
0.926257150986303
40
0.926257150986303
40
0.969105686560009
40
0.969105686560009
40
0.990529954346862
40
0.990529954346862
40
1
40
1
40
1
40
1
41
1
10
57.9855473141856
20
1.83445770783854
30
0
41
1
10
58.2439395705941
20
1.95905117623568
30
0
41
1
10
58.5014065216005
20
2.07946010090131
30
0
41
1
10
58.9652923039072
20
2.29084894473829
30
0
41
1
10
59.17169180357
20
2.38362493453926
30
0
41
1
10
59.5860944282874
20
2.55952475150494
30
0
41
1
10
59.793704196283
20
2.64330132471753
30
0
41
1
10
60.2088869493629
20
2.8038530286515
30
0
41
1
10
60.4164757277303
20
2.88059144504257
30
0
41
1
10
60.7278484469659
20
2.99030903740183
30
0
41
1
10
60.8316221667877
20
3.0260012536327
30
0
41
1
10
61.0390215736293
20
3.09570791813803
30
0
41
1
10
61.1424734711313
20
3.12990447690626
30
0
41
1
10
61.4538926728983
20
3.22850894469161
30
0
41
1
10
61.6625622227159
20
3.2893783045746
30
0
41
1
10
62.0815842535685
20
3.40201425918014
30
0
41
1
10
62.2921830453655
20
3.45398547497868
30
0
41
1
10
62.7125003138741
20
3.54852509297436
30
0
41
1
10
62.9223527545126
20
3.59097532974786
30
0
41
1
10
63.3397915178074
20
3.66692880432373
30
0
41
1
10
63.5486298146555
20
3.69962204391646
30
0
41
1
10
63.9677616433679
20
3.75425890601957
30
0
41
1
10
64.1777599867809
20
3.77637801106204
30
0
41
1
10
64.597945801439
20
3.81048294666192
30
0
41
1
10
64.8084942213514
20
3.82242395106331
30
0
41
1
10
65.2277423550554
20
3.83578213523091
30
0
41
1
10
65.4361246347906
20
3.83714182928026
30
0
41
1
10
65.8546419724327
20
3.82920655902973
30
0
41
1
10
66.064404919547
20
3.82002848430454
30
0
41
1
10
66.4840574756613
20
3.79138039245143
30
0
41
1
10
66.6939565379064
20
3.77188894211457
30
0
41
1
10
67.0089107971074
20
3.73474356913428
30
0
41
1
10
67.113990443249
20
3.72102262456036
30
0
41
1
10
67.3234382237421
20
3.69089419163879
30
0
41
1
10
67.4276529301897
20
3.6743852418584
30
0
41
1
10
67.9492031851603
20
3.58626977261963
30
0
41
1
10
68.3664615764948
20
3.49766306378504
30
0
41
1
10
68.9895161572407
20
3.33710788048717
30
0
41
1
10
69.196981756309
20
3.27916121887256
30
0
41
1
10
69.6099849618148
20
3.15266674812972
30
0
41
1
10
69.8165938870795
20
3.08512649680495
30
0
41
1
10
70.4389499511303
20
2.87247660135756
30
0
41
1
10
70.8556503722632
20
2.71590226321393
30
0
41
1
10
71.4814494100216
20
2.45543508175729
30
0
41
1
10
71.6896861693823
20
2.36344699846134
30
0
41
1
10
72.1093699193688
20
2.1751027860484
30
0
41
1
10
72.3190176539383
20
2.07904468783002
30
0
41
1
10
72.7371714242807
20
1.88209086189019
30
0
41
1
10
72.9456544675859
20
1.78115027150429
30
0
41
1
10
73.2575096171531
20
1.6260812392174
30
0
41
1
10
73.3613034621329
20
1.57376004067015
30
0
41
1
10
73.5684574074197
20
1.46764295120764
30
0
41
1
10
73.6716353387194
20
1.4135319186893
30
0
41
1
10
74.1882635286814
20
1.14238544563176
30
0
41
1
10
74.6034958650447
20
0.92300291531032
30
0
41
1
10
75.2262096478428
20
0.585191844933121
30
0
41
1
10
75.4339306870925
20
0.471428300111768
30
0
41
1
10
75.7450931340778
20
0.297755435281317
30
0
41
1
10
75.8486538486917
20
0.239184196156572
30
0
41
1
10
76.0566268388352
20
0.122880922117247
30
0
41
1
10
76.1608826669306
20
0.0648576909033522
30
0
41
1
10
76.4744505801729
20
-0.10882193436305
30
0
41
1
10
76.6849740028611
20
-0.224439194406671
30
0
41
1
10
77.1049519234506
20
-0.45496009030154
30
0
41
1
10
77.3141895620341
20
-0.56944377826315
30
0
41
1
10
77.7308463164227
20
-0.797443868883022
30
0
41
1
10
77.9376713857245
20
-0.912016821003107
30
0
41
1
10
78.352283141004
20
-1.13507107522091
30
0
41
1
10
78.5598614938265
20
-1.24398058966105
30
0
41
1
10
78.9748269606163
20
-1.45801392378601
30
0
41
1
10
79.182152929142
20
-1.56323419916055
30
0
41
1
10
79.492938593464
20
-1.7182848124578
30
0
41
1
10
79.5964932475039
20
-1.76951614471602
30
0
41
1
10
79.8034061163299
20
-1.87124241467427
30
0
41
1
10
79.9066075342626
20
-1.92198710627488
30
0
41
1
10
80.4233095368076
20
-2.17188485860248
30
0
41
1
10
80.8404272968538
20
-2.35735031643668
30
0
41
1
10
81.4687214172972
20
-2.61870912547212
30
0
41
1
10
81.6792224945657
20
-2.70295231807145
30
0
41
1
10
81.9926385270849
20
-2.82420665653345
30
0
41
1
10
82.0966214546448
20
-2.86399463570999
30
0
41
1
10
82.3048418411309
20
-2.94073547153127
30
0
41
1
10
82.4089437020845
20
-2.97787429609616
30
0
41
1
10
82.929443694908
20
-3.15757300531948
30
0
41
1
10
83.3453119765907
20
-3.28302170716748
30
0
41
1
10
83.9662124459852
20
-3.44621548176187
30
0
41
1
10
84.1720961159168
20
-3.49681386450246
30
0
41
1
10
84.5854228960159
20
-3.58732256080342
30
0
41
1
10
84.792803787919
20
-3.62738643974953
30
0
41
1
10
85.4160989172849
20
-3.73304474665761
30
0
41
1
10
85.8329934912113
20
-3.78437806199688
30
0
41
1
10
86.4588940223596
20
-3.83093742991545
30
0
41
1
10
86.6690004241682
20
-3.84098914521866
30
0
41
1
10
86.9711772282528
20
-3.84785607122285
30
0
41
1
10
87.0637555179999
20
-3.84893918323334
30
0
41
1
10
87.1562672307061
20
-3.84900553370659
30
0
0
SPLINE
5
E4
100
AcDbEntity
8
1
62
256
6
ByLayer
370
18
48
1
60
0
100
AcDbSpline
70
4
71
3
72
10
73
6
40
0
40
0
40
0
40
0
40
0.5
40
0.5
40
1
40
1
40
1
40
1
41
1
10
88.7546953818619
20
3.74768390329624
30
0
41
1
10
88.9418468682715
20
3.28790437152586
30
0
41
1
10
89.1284646510373
20
2.82616387675896
30
0
41
1
10
89.4976083006056
20
1.89746977107961
30
0
41
1
10
89.6801223211712
20
1.43048601171009
30
0
41
1
10
89.8582672265106
20
0.962705522864667
30
0
0
SPLINE
5
E5
100
AcDbEntity
8
SK1
62
256
6
ByLayer
370
18
48
1
60
0
100
AcDbSpline
70
4
71
3
72
8
73
4
40
0
40
0
40
0
40
0
40
1
40
1
40
1
40
1
41
1
10
-35.25
20
3.79901279814572
30
0
41
1
10
-35.5038836332417
20
3.35971431707662
30
0
41
1
10
-35.7560131506013
20
2.91939786515005
30
0
41
1
10
-36
20
2.47501262292934
30
0
0
SPLINE
5
E6
100
AcDbEntity
8
SK1
62
256
6
ByLayer
370
18
48
1
60
0
100
AcDbSpline
70
4
71
3
72
8
73
4
40
0
40
0
40
0
40
0
40
1
40
1
40
1
40
1
41
1
10
-35.2789109433362
20
-3.74896947813065
30
0
41
1
10
-35.5230179445618
20
-3.32627198244444
30
0
41
1
10
-35.7652770092259
20
-2.90252514406313
30
0
41
1
10
-36
20
-2.47501262292934
30
0
0
SPLINE
5
E7
100
AcDbEntity
8
SK1
62
256
6
ByLayer
370
18
48
1
60
0
100
AcDbSpline
70
4
71
3
72
14
73
10
40
0
40
0
40
0
40
0
40
0.500000000000002
40
0.500000000000002
40
0.750000000000003
40
0.750000000000003
40
0.875000000000002
40
0.875000000000002
40
1
40
1
40
1
40
1
41
1
10
-35.25
20
3.26552453934147
30
0
41
1
10
-35.2287404812744
20
3.302310188598
30
0
41
1
10
-35.208362723075
20
3.34078252215994
30
0
41
1
10
-35.1802905070704
20
3.40017037357083
30
0
41
1
10
-35.1714466180788
20
3.42005689035551
30
0
41
1
10
-35.1602396792677
20
3.44889829644524
30
0
41
1
10
-35.1568594217207
20
3.45834946615352
30
0
41
1
10
-35.1517495297274
20
3.47553156323173
30
0
41
1
10
-35.15
20
3.48339682318988
30
0
41
1
10
-35.15
20
3.4886908565804
30
0
0
SPLINE
5
E8
100
AcDbEntity
8
SK1
62
256
6
ByLayer
370
18
48
1
60
0
100
AcDbSpline
70
4
71
3
72
14
73
10
40
0
40
0
40
0
40
0
40
0.124999999999999
40
0.124999999999999
40
0.249999999999999
40
0.249999999999999
40
0.499999999999997
40
0.499999999999997
40
1
40
1
40
1
40
1
41
1
10
-35.15
20
3.96883028950424
30
0
41
1
10
-35.15
20
3.96928757342459
30
0
41
1
10
-35.1517507934569
20
3.96665964780286
30
0
41
1
10
-35.1569069278761
20
3.95838948321608
30
0
41
1
10
-35.160234831946
20
3.95288497948621
30
0
41
1
10
-35.1714888412645
20
3.93405155977916
30
0
41
1
10
-35.1802429568046
20
3.91914987494798
30
0
41
1
10
-35.2083191353841
20
3.87109182370406
30
0
41
1
10
-35.2286409685638
20
3.83597063566836
30
0
41
1
10
-35.25
20
3.79901279814572
30
0
0
SPLINE
5
E9
100
AcDbEntity
8
SK1
62
256
6
ByLayer
370
18
48
1
60
0
100
AcDbSpline
70
4
71
3
72
8
73
4
40
0
40
0
40
0
40
0
40
1
40
1
40
1
40
1
41
1
10
-36
20
1.94152436412506
30
0
41
1
10
-35.75599290383
20
2.38594648278561
30
0
41
1
10
-35.5038984598463
20
2.82620040358646
30
0
41
1
10
-35.25
20
3.26552453934147
30
0
0
LINE
5
76
100
AcDbEntity
8
81
62
256
6
ByLayer
370
18
48
1
60
0
100
AcDbLine
10
90
20
0
30
0
11
95
21
0
31
0
39
0
210
0
220
0
230
1
0
LINE
5
77
100
AcDbEntity
8
1
62
256
6
ByLayer
370
18
48
1
60
0
100
AcDbLine
10
6.760655
20
3.798754
30
0
11
0.100062
21
3.794591
31
0
39
0
210
0
220
0
230
1
0
LINE
5
79
100
AcDbEntity
8
1
62
256
6
ByLayer
370
18
48
1
60
0
100
AcDbLine
10
66.520143
20
3.836104
30
0
11
65.404052
21
3.835406
31
0
39
0
210
0
220
0
230
1
0
LINE
5
7A
100
AcDbEntity
8
1
62
256
6
ByLayer
370
18
48
1
60
0
100
AcDbLine
10
88.270637
20
3.849698
30
0
11
87.158453
21
3.849003
31
0
39
0
210
0
220
0
230
1
0
LINE
5
7B
100
AcDbEntity
8
1
62
256
6
ByLayer
370
18
48
1
60
0
100
AcDbLine
10
87.158453
20
-3.849003
30
0
11
88.27082
21
-3.849698
31
0
39
0
210
0
220
0
230
1
0
LINE
5
7C
100
AcDbEntity
8
1
62
256
6
ByLayer
370
18
48
1
60
0
100
AcDbLine
10
65.404052
20
-3.835406
30
0
11
66.519848
21
-3.836104
31
0
39
0
210
0
220
0
230
1
0
LINE
5
7D
100
AcDbEntity
8
1
62
256
6
ByLayer
370
18
48
1
60
0
100
AcDbLine
10
0.100062
20
-3.794591
30
0
11
6.760655
21
-3.798754
31
0
39
0
210
0
220
0
230
1
0
LINE
5
7E
100
AcDbEntity
8
1
62
256
6
ByLayer
370
18
48
1
60
0
100
AcDbLine
10
23.01996
20
3.808916
30
0
11
21.89574
21
3.808214
31
0
39
0
210
0
220
0
230
1
0
LINE
5
7F
100
AcDbEntity
8
1
62
256
6
ByLayer
370
18
48
1
60
0
100
AcDbLine
10
44.770169
20
3.82251
30
0
11
43.652325
21
3.821811
31
0
39
0
210
0
220
0
230
1
0
LINE
5
80
100
AcDbEntity
8
1
62
256
6
ByLayer
370
18
48
1
60
0
100
AcDbLine
10
43.652325
20
-3.821811
30
0
11
44.769789
21
-3.82251
31
0
39
0
210
0
220
0
230
1
0
LINE
5
81
100
AcDbEntity
8
1
62
256
6
ByLayer
370
18
48
1
60
0
100
AcDbLine
10
21.89574
20
-3.808214
30
0
11
23.020399
21
-3.808917
31
0
39
0
210
0
220
0
230
1
0
LINE
5
82
100
AcDbEntity
8
SK1
62
256
6
ByLayer
370
18
48
1
60
0
100
AcDbLine
10
-35.133975
20
4
30
0
11
-35.278898
21
3.748985
31
0
39
0
210
0
220
0
230
1
0
LINE
5
84
100
AcDbEntity
8
SK1
62
256
6
ByLayer
370
18
48
1
60
0
100
AcDbLine
10
-35.278898
20
-3.748985
30
0
11
-35.133975
21
-4
31
0
39
0
210
0
220
0
230
1
0
LINE
5
85
100
AcDbEntity
8
SK1
62
256
6
ByLayer
370
18
48
1
60
0
100
AcDbLine
10
0
20
4
30
0
11
-35.133975
21
4
31
0
39
0
210
0
220
0
230
1
0
LINE
5
86
100
AcDbEntity
8
SK1
62
256
6
ByLayer
370
18
48
1
60
0
100
AcDbLine
10
-35.133975
20
-4
30
0
11
0
21
-4
31
0
39
0
210
0
220
0
230
1
0
LINE
5
87
100
AcDbEntity
8
SK4
62
256
6
ByLayer
370
18
48
0.05
60
0
100
AcDbLine
10
95
20
0
30
0
11
-41
21
0
31
0
39
0
210
0
220
0
230
1
0
LINE
5
89
100
AcDbEntity
8
4
62
256
6
ByLayer
370
18
48
0.05
60
0
100
AcDbLine
10
90
20
0
30
0
11
0
21
0
31
0
39
0
210
0
220
0
230
1
0
LINE
5
8B
100
AcDbEntity
8
80
62
256
6
ByLayer
370
18
48
1
60
0
100
AcDbLine
10
0
20
0
30
0
11
-5
21
0
31
0
39
0
210
0
220
0
230
1
0
LINE
5
8C
100
AcDbEntity
8
1
62
256
6
ByLayer
370
18
48
1
60
0
100
AcDbLine
10
88.046949
20
-2.696276
30
0
11
88.877841
21
-1.568512
31
0
39
0
210
0
220
0
230
1
0
LINE
5
8D
100
AcDbEntity
8
1
62
256
6
ByLayer
370
18
48
1
60
0
100
AcDbLine
10
89.384088
20
-0.881388
30
0
11
89.877923
21
-0.21111
31
0
39
0
210
0
220
0
230
1
0
LINE
5
8E
100
AcDbEntity
8
1
62
256
6
ByLayer
370
13
48
1
60
0
100
AcDbLine
10
88.55869
20
0.853669
30
0
11
89.969622
21
-0.039484
31
0
39
0
210
0
220
0
230
1
0
LINE
5
8F
100
AcDbEntity
8
1
62
256
6
ByLayer
370
13
48
1
60
0
100
AcDbLine
10
88.664625
20
0.968423
30
0
11
89.977857
21
0.137116
31
0
39
0
210
0
220
0
230
1
0
LINE
5
90
100
AcDbEntity
8
1
62
256
6
ByLayer
370
13
48
1
60
0
100
AcDbLine
10
0.100062
20
3.794591
30
0
11
0.100062
21
-3.794591
31
0
39
0
210
0
220
0
230
1
0
LINE
5
91
100
AcDbEntity
8
SK1
62
256
6
ByLayer
370
18
48
1
60
0
100
AcDbLine
10
-35.133975
20
4
30
0
11
-35.133975
21
-4
31
0
39
0
210
0
220
0
230
1
0
LINE
5
92
100
AcDbEntity
8
SK1
62
256
6
ByLayer
370
13
48
1
60
0
100
AcDbLine
10
-35.25
20
3.799013
30
0
11
-35.25
21
3.265419
31
0
39
0
210
0
220
0
230
1
0
LINE
5
93
100
AcDbEntity
8
SK1
62
256
6
ByLayer
370
18
48
1
60
0
100
AcDbLine
10
-36
20
1.941524
30
0
11
-36
21
-2.475013
31
0
39
0
210
0
220
0
230
1
0
LINE
5
94
100
AcDbEntity
8
SK1
62
256
6
ByLayer
370
18
48
1
60
0
100
AcDbLine
10
-35.15
20
3.488691
30
0
11
-35.15
21
3.96883
31
0
39
0
210
0
220
0
230
1
0
LINE
5
95
100
AcDbEntity
8
SK1
62
256
6
ByLayer
370
18
48
1
60
0
100
AcDbLine
10
-36
20
2.475013
30
0
11
-36
21
1.941509
31
0
39
0
210
0
220
0
230
1
0
LINE
5
96
100
AcDbEntity
8
SK1
62
256
6
ByLayer
370
18
48
1
60
0
100
AcDbLine
10
0
20
4
30
0
11
0
21
-4
31
0
39
0
210
0
220
0
230
1
0
MTEXT
5
EA
100
AcDbEntity
8
SK6
62
256
6
ByLayer
370
13
48
1
60
0
100
AcDbMText
10
29.129169
20
36.232694
30
0
210
0
220
0
230
1
1
\W0.7538;460.1-0770-058A1-XM GC34
40
3.5
41
0
44
1.084337
50
0
71
8
72
5
7
iso_b_vert
0
DIMENSION
5
F7
100
AcDbEntity
8
SK2
62
256
6
ByLayer
370
13
48
1
60
0
100
AcDbDimension
2
DimnDraft3D1
10
88.8626
20
-14.063398
30
0
11
43.112659
21
-14.063398
31
0
70
32
71
5
72
1
41
1
210
0
220
0
230
1
3
Standard
100
AcDbAlignedDimension
13
0
23
-1.5875
33
0
14
88.8626
24
-5.4375
34
0
50
0
100
AcDbRotatedDimension
1001
ACAD
1000
DSTYLE
1002
{
1070
   279
1070
     0
1070
   172
1070
     1
1070
   173
1070
     1
1070
   340
1005
EB
1070
   271
1070
     2
1070
   272
1070
     2
1070
    77
1070
     1
1070
    73
1070
     0
1070
   171
1070
     3
1070
   274
1070
     4
1070
   177
1070
    35
1070
   176
1070
    35
1070
   178
1070
    35
1070
    48
1040
-0.005
1070
    41
1041
3.5
1070
   147
1041
1.75
1070
    42
1041
1.5875
1070
    44
1041
2.0
1070
   140
1041
3.5
1070
   343
1005
0
1070
   344
1005
0
1002
}
0
DIMENSION
5
101
100
AcDbEntity
8
SK2
62
256
6
ByLayer
370
13
48
1
60
0
100
AcDbDimension
2
DimnDraft3D2
10
90
20
-32.692985
30
0
11
27.2039
21
-32.692985
31
0
70
32
71
5
72
1
41
1
210
0
220
0
230
1
3
Standard
100
AcDbAlignedDimension
13
-36
23
-5.5875
33
0
14
90
24
-1.5875
34
0
50
0
100
AcDbRotatedDimension
1001
ACAD
1000
DSTYLE
1002
{
1070
   279
1070
     0
1070
   172
1070
     1
1070
   173
1070
     1
1070
   340
1005
EB
1070
   271
1070
     2
1070
   272
1070
     2
1070
    77
1070
     1
1070
    73
1070
     0
1070
   171
1070
     3
1070
   274
1070
     4
1070
   177
1070
    35
1070
   176
1070
    35
1070
   178
1070
    35
1070
    48
1040
-0.005
1070
    41
1041
3.5
1070
   147
1041
1.75
1070
    42
1041
1.5875
1070
    44
1041
2.0
1070
   140
1041
3.5
1070
   343
1005
0
1070
   344
1005
0
1002
}
0
DIMENSION
5
10B
100
AcDbEntity
8
SK2
62
256
6
ByLayer
370
13
48
1
60
0
100
AcDbDimension
2
DimnDraft3D3
10
90
20
15.459119
30
0
11
58.635
21
15.459119
31
0
70
32
71
5
72
1
41
1
210
0
220
0
230
1
3
Standard
100
AcDbAlignedDimension
13
27.27
23
5.4375
33
0
14
90
24
1.5875
34
0
50
0
100
AcDbRotatedDimension
1001
ACAD
1000
DSTYLE
1002
{
1070
   279
1070
     0
1070
   172
1070
     1
1070
   173
1070
     1
1070
   340
1005
EB
1070
   271
1070
     2
1070
   272
1070
     2
1070
    77
1070
     1
1070
    73
1070
     0
1070
   171
1070
     3
1070
   274
1070
     4
1070
   177
1070
    35
1070
   176
1070
    35
1070
   178
1070
    35
1070
    48
1040
-0.005
1070
    41
1041
3.5
1070
   147
1041
1.75
1070
    42
1041
1.5875
1070
    44
1041
2.0
1070
   140
1041
3.5
1070
   343
1005
0
1070
   344
1005
0
1002
}
0
DIMENSION
5
115
100
AcDbEntity
8
SK2
62
256
6
ByLayer
370
13
48
1
60
0
100
AcDbDimension
2
DimnDraft3D4
10
88.8626
20
-16.652503
30
0
11
99.981425
21
-16.652503
31
0
70
32
71
5
72
1
41
1
210
0
220
0
230
1
3
Standard
100
AcDbAlignedDimension
13
90
23
-1.5875
33
0
14
88.8626
24
-5.4375
34
0
50
0
100
AcDbRotatedDimension
1001
ACAD
1000
DSTYLE
1002
{
1070
   279
1070
     0
1070
   172
1070
     1
1070
   173
1070
     1
1070
   340
1005
EB
1070
   271
1070
     2
1070
   272
1070
     2
1070
    77
1070
     1
1070
    73
1070
     0
1070
   171
1070
     3
1070
   274
1070
     4
1070
   177
1070
    35
1070
   176
1070
    35
1070
   178
1070
    35
1070
    48
1040
-0.005
1070
    41
1041
3.5
1070
   147
1041
1.75
1070
    42
1041
1.5875
1070
    44
1041
2.0
1070
   140
1041
3.5
1070
   343
1005
0
1070
   344
1005
0
1002
}
0
DIMENSION
5
11F
100
AcDbEntity
8
SK2
62
256
6
ByLayer
370
13
48
1
60
0
100
AcDbDimension
2
DimnDraft3D5
10
88.8626
20
-22.343428
30
0
11
24.123276
21
-22.343428
31
0
70
32
71
5
72
1
41
1
210
0
220
0
230
1
3
Standard
100
AcDbAlignedDimension
13
-36
23
-5.5875
33
0
14
88.8626
24
-5.4375
34
0
50
0
100
AcDbRotatedDimension
1001
ACAD
1000
DSTYLE
1002
{
1070
   279
1070
     0
1070
   172
1070
     1
1070
   173
1070
     1
1070
   340
1005
EB
1070
   271
1070
     2
1070
   272
1070
     2
1070
    77
1070
     1
1070
    73
1070
     0
1070
   171
1070
     3
1070
   274
1070
     4
1070
   177
1070
    35
1070
   176
1070
    35
1070
   178
1070
    35
1070
    48
1040
-0.005
1070
    41
1041
3.5
1070
   147
1041
1.75
1070
    42
1041
1.5875
1070
    44
1041
2.0
1070
   140
1041
3.5
1070
   343
1005
0
1070
   344
1005
0
1002
}
0
DIMENSION
5
12A
100
AcDbEntity
8
SK2
62
256
6
ByLayer
370
13
48
1
60
0
100
AcDbDimension
2
DimnDraft3D6
10
-46.625163
20
4
30
0
11
-47.250163
21
22.47418
31
0
70
33
71
5
72
1
41
1
210
0
220
0
230
1
3
Standard
100
AcDbAlignedDimension
13
-37.5875
23
-4
33
0
14
-37.5875
24
4
34
0
1001
ACAD
1000
DSTYLE
1002
{
1070
   279
1070
     0
1070
    74
1070
     0
1070
   173
1070
     1
1070
   340
1005
EB
1070
   271
1070
     3
1070
   272
1070
     2
1070
    77
1070
     1
1070
    73
1070
     0
1070
   171
1070
     3
1070
   274
1070
     4
1070
   177
1070
    35
1070
   176
1070
    35
1070
   178
1070
    35
1070
    48
1040
-0.005
1070
    41
1041
3.5
1070
   147
1041
1.75
1070
    42
1041
1.5875
1070
    44
1041
2.0
1070
   140
1041
3.5
1070
   343
1005
0
1070
   344
1005
0
1002
}
0
DIMENSION
5
135
100
AcDbEntity
8
2
62
256
6
ByLayer
370
13
48
1
60
0
100
AcDbDimension
2
DimnDraft3D7
10
104.083343
20
3.85
30
0
11
99.458343
21
20.917266
31
0
70
33
71
5
72
1
41
1
210
0
220
0
230
1
3
Standard
100
AcDbAlignedDimension
13
90.4501
23
-3.85
33
0
14
90.4501
24
3.85
34
0
1001
ACAD
1000
DSTYLE
1002
{
1070
   279
1070
     0
1070
    74
1070
     0
1070
   173
1070
     1
1070
   340
1005
EB
1070
   271
1070
     3
1070
   272
1070
     2
1070
    77
1070
     1
1070
    73
1070
     0
1070
   171
1070
     3
1070
   274
1070
     4
1070
   177
1070
    35
1070
   176
1070
    35
1070
   178
1070
    35
1070
    48
1040
-0.005
1070
    41
1041
3.5
1070
   147
1041
1.75
1070
    42
1041
1.5875
1070
    44
1041
2.0
1070
   140
1041
3.5
1070
   343
1005
0
1070
   344
1005
0
1002
}
0
ENDSEC
0
SECTION
2
OBJECTS
0
DICTIONARY
5
1a0
330
0
100
AcDbDictionary
280
0
281
1
3
ACAD_GROUP
350
1a1
3
ACAD_MLINESTYLE
350
1a2
0
DICTIONARY
5
1a1
330
0
100
AcDbDictionary
280
0
281
1
0
DICTIONARY
5
1a2
330
0
100
AcDbDictionary
280
0
281
1
3
Standard
350
18
0
MLINESTYLE
5
18
330
1a2
100
AcDbMlineStyle
2
Standard
70
0
3

62
256
51
90
52
90
71
2
49
-0.5
62
256
6
ByLayer
49
0.5
62
256
6
ByLayer
0
RASTERVARIABLES
5
18e
330

100
AcDbRasterVariables
90
0
70
1
71
1
72
1
0
ENDSEC
0
EOF
