0
SECTION
2
HEADER
9
$ACADVER
1
AC1015
9
$DWGCODEPAGE
3
ANSI_1252
9
$HANDSEED
5
19a
9
$ANGBASE
50
0
9
$ANGDIR
70
0
9
$ATTMODE
70
1
9
$AUNITS
70
0
9
$AUPREC
70
0
9
$CECOLOR
62
256
9
$CELTSCALE
40
1
9
$CELTYPE
6
ByLayer
9
$CELWEIGHT
370
18
9
$CLAYER
8
0
9
$CMLJUST
70
0
9
$CMLSCALE
40
1
9
$CMLSTYLE
2
Standard
9
$DIMSTYLE
2
Standard
9
$TEXTSIZE
40
0.2
9
$TEXTSTYLE
7
Standard
9
$LUNITS
70
2
9
$LUPREC
70
4
9
$EXTNAMES
290
1
9
$INSUNITS
70
4
9
$LTSCALE
40
1
9
$LWDISPLAY
290
1
9
$PDMODE
70
0
9
$PDSIZE
40
0
9
$PLINEGEN
70
0
0
ENDSEC
0
SECTION
2
CLASSES
0
CLASS
1
RASTERVARIABLES
2
AcDbRasterVariables
3
ISM
90
0
280
0
281
0
0
ENDSEC
0
SECTION
2
TABLES
0
TABLE
2
VPORT
5
190
100
AcDbSymbolTable
0
VPORT
5
1
100
AcDbSymbolTableRecord
100
AcDbViewportTableRecord
2
*Active
70
0
10
0
20
0
11
1
21
1
12
-1
22
1
13
0
23
0
14
0.5
24
0.5
15
10
25
10
16
0
26
0
36
1
17
0
27
0
37
0
0
ENDTAB
0
TABLE
2
LTYPE
5
191
100
AcDbSymbolTable
0
LTYPE
5
14
100
AcDbSymbolTableRecord
100
AcDbLinetypeTableRecord
70
0
2
ByBlock
3

72
65
73
0
40
0
0
LTYPE
5
15
100
AcDbSymbolTableRecord
100
AcDbLinetypeTableRecord
70
0
2
ByLayer
3

72
65
73
0
40
0
0
LTYPE
5
16
100
AcDbSymbolTableRecord
100
AcDbLinetypeTableRecord
70
0
2
CONTINUOUS
3
Solid line
72
65
73
0
40
0
0
LTYPE
5
6A
100
AcDbSymbolTableRecord
100
AcDbLinetypeTableRecord
70
0
2
CENTER
3
____ _ ____ _ ____ _ ____
72
65
73
4
40
47.5
49
22
74
0
49
-8.5
74
0
49
8.5
74
0
49
-8.5
74
0
0
LTYPE
5
6B
100
AcDbSymbolTableRecord
100
AcDbLinetypeTableRecord
70
0
2
DASHED
3
__ __ __ __ __ __ __ __ __
72
65
73
2
40
25.72
49
12.86
74
0
49
-12.86
74
0
0
ENDTAB
0
TABLE
2
LAYER
5
192
100
AcDbSymbolTable
0
LAYER
5
10
100
AcDbSymbolTableRecord
100
AcDbLayerTableRecord
2
0
70
0
62
7
6
CONTINUOUS
290
1
370
-3
390
0
0
LAYER
5
6D
100
AcDbSymbolTableRecord
100
AcDbLayerTableRecord
2
81
70
0
62
-3
6
CONTINUOUS
290
1
370
-3
390
0
0
LAYER
5
6F
100
AcDbSymbolTableRecord
100
AcDbLayerTableRecord
2
80
70
0
62
-6
6
CONTINUOUS
290
1
370
-3
390
0
0
LAYER
5
74
100
AcDbSymbolTableRecord
100
AcDbLayerTableRecord
2
2
70
0
62
7
6
CONTINUOUS
290
1
370
-3
390
0
0
LAYER
5
78
100
AcDbSymbolTableRecord
100
AcDbLayerTableRecord
2
1
70
0
62
4
6
CONTINUOUS
290
1
370
-3
390
0
0
LAYER
5
86
100
AcDbSymbolTableRecord
100
AcDbLayerTableRecord
2
4
70
0
62
-2
6
CENTER
290
1
370
-3
390
0
0
LAYER
5
17c
100
AcDbSymbolTableRecord
100
AcDbLayerTableRecord
2
SK2
70
0
62
7
6
CONTINUOUS
290
1
370
-3
390
0
0
LAYER
5
17d
100
AcDbSymbolTableRecord
100
AcDbLayerTableRecord
2
SK1
70
0
62
4
6
CONTINUOUS
290
1
370
-3
390
0
0
LAYER
5
17e
100
AcDbSymbolTableRecord
100
AcDbLayerTableRecord
2
SK4
70
0
62
2
6
CENTER
290
1
370
-3
390
0
0
LAYER
5
17f
100
AcDbSymbolTableRecord
100
AcDbLayerTableRecord
2
SK6
70
0
62
5
6
CONTINUOUS
290
1
370
-3
390
0
0
ENDTAB
0
TABLE
2
STYLE
5
193
100
AcDbSymbolTable
0
STYLE
5
11
100
AcDbSymbolTableRecord
100
AcDbTextStyleTableRecord
2
Standard
3
txt
70
0
71
0
40
0
41
1
42
0
50
0
0
STYLE
5
D8
100
AcDbSymbolTableRecord
100
AcDbTextStyleTableRecord
2
iso_b_vert
3
simplex.shx
70
0
71
0
40
0
41
1
42
0
50
0
0
STYLE
5
D9
100
AcDbSymbolTableRecord
100
AcDbTextStyleTableRecord
2
DWGDirectTextStyle
3
simplex
70
0
71
0
40
0
41
1
42
0
50
0
0
ENDTAB
0
TABLE
2
DIMSTYLE
5
194
100
AcDbSymbolTable
100
AcDbDimStyleTable
0
DIMSTYLE
105
27
100
AcDbSymbolTableRecord
100
AcDbDimStyleTableRecord
2
Standard
70
0
3
<>
41
0.18
42
0.0625
44
0.18
140
0.18
147
0.09
73
0
74
0
77
1
271
2
275
0
278
52
280
0
340
11
0
ENDTAB
0
TABLE
2
VIEW
5
195
100
AcDbSymbolTable
0
ENDTAB
0
TABLE
2
UCS
5
196
100
AcDbSymbolTable
0
ENDTAB
0
TABLE
2
APPID
5
197
100
AcDbSymbolTable
0
APPID
5
12
100
AcDbSymbolTableRecord
100
AcDbRegAppTableRecord
2
ACAD
70
0
0
ENDTAB
0
TABLE
2
BLOCK_RECORD
5
198
100
AcDbSymbolTable
0
BLOCK_RECORD
5
1F
100
AcDbSymbolTableRecord
100
AcDbBlockTableRecord
2
*Model_Space
340
0
70
0
0
BLOCK_RECORD
5
1B
100
AcDbSymbolTableRecord
100
AcDbBlockTableRecord
2
*Paper_Space
340
0
70
0
0
BLOCK_RECORD
5
23
100
AcDbSymbolTableRecord
100
AcDbBlockTableRecord
2
*Paper_Space0
340
0
70
0
0
BLOCK_RECORD
5
DB
100
AcDbSymbolTableRecord
100
AcDbBlockTableRecord
2
DimnDraft3D1
340
0
70
0
0
BLOCK_RECORD
5
E5
100
AcDbSymbolTableRecord
100
AcDbBlockTableRecord
2
DimnDraft3D2
340
0
70
0
0
BLOCK_RECORD
5
EF
100
AcDbSymbolTableRecord
100
AcDbBlockTableRecord
2
DimnDraft3D3
340
0
70
0
0
BLOCK_RECORD
5
F9
100
AcDbSymbolTableRecord
100
AcDbBlockTableRecord
2
DimnDraft3D4
340
0
70
0
0
BLOCK_RECORD
5
103
100
AcDbSymbolTableRecord
100
AcDbBlockTableRecord
2
DimnDraft3D5
340
0
70
0
0
BLOCK_RECORD
5
10D
100
AcDbSymbolTableRecord
100
AcDbBlockTableRecord
2
DimnDraft3D6
340
0
70
0
0
BLOCK_RECORD
5
118
100
AcDbSymbolTableRecord
100
AcDbBlockTableRecord
2
DimnDraft3D7
340
0
70
0
0
ENDTAB
0
ENDSEC
0
SECTION
2
BLOCKS
0
BLOCK
5
20
100
AcDbEntity
8
0
100
AcDbBlockBegin
2
*Model_Space
70
0
10
0
20
0
30
0
3
*Model_Space
0
ENDBLK
5
21
100
AcDbEntity
8
0
100
AcDbBlockEnd
0
BLOCK
5
1C
100
AcDbEntity
8
0
100
AcDbBlockBegin
2
*Paper_Space
70
0
10
0
20
0
30
0
3
*Paper_Space
0
ENDBLK
5
1D
100
AcDbEntity
8
0
100
AcDbBlockEnd
0
BLOCK
5
24
100
AcDbEntity
8
0
100
AcDbBlockBegin
2
*Paper_Space0
70
0
10
0
20
0
30
0
3
*Paper_Space0
0
ENDBLK
5
25
100
AcDbEntity
8
0
100
AcDbBlockEnd
0
BLOCK
5
E2
100
AcDbEntity
8
0
100
AcDbBlockBegin
2
DimnDraft3D1
70
0
10
0
20
0
30
0
3
DimnDraft3D1
0
MTEXT
5
DC
100
AcDbEntity
8
SK2
62
256
6
ByLayer
370
13
48
1
60
0
100
AcDbMText
10
15.560464
20
-12.711898
30
0
210
0
220
0
230
1
1
\W0.7494;42,01
40
3.5
41
0
44
1.084337
50
0
71
7
72
5
7
iso_b_vert
0
LINE
5
DD
100
AcDbEntity
8
SK2
62
256
6
ByLayer
370
13
48
1
60
0
100
AcDbLine
10
0
20
-1.5875
30
0
11
0
21
-15.586898
31
0
39
0
210
0
220
0
230
1
0
LINE
5
DE
100
AcDbEntity
8
SK2
62
256
6
ByLayer
370
13
48
1
60
0
100
AcDbLine
10
42.0058
20
-4.961
30
0
11
42.0058
21
-15.586898
31
0
39
0
210
0
220
0
230
1
0
LINE
5
DF
100
AcDbEntity
8
SK2
62
256
6
ByLayer
370
13
48
1
60
0
100
AcDbLine
10
0
20
-13.586898
30
0
11
42.0058
21
-13.586898
31
0
39
0
210
0
220
0
230
1
0
SOLID
5
E0
100
AcDbEntity
8
SK2
62
256
6
ByLayer
370
13
48
1
60
0
100
AcDbTrace
10
0
20
-13.586898
30
0
11
3.499998
21
-13.126115
31
0
12
3.500002
22
-14.047682
32
0
13
0
23
-13.586898
33
0
39
0
210
0
220
0
230
1
0
SOLID
5
E1
100
AcDbEntity
8
SK2
62
256
6
ByLayer
370
13
48
1
60
0
100
AcDbTrace
10
42.0058
20
-13.586898
30
0
11
38.505802
21
-14.047682
31
0
12
38.505798
22
-13.126115
32
0
13
42.0058
23
-13.586898
33
0
39
0
210
0
220
0
230
1
0
ENDBLK
5
E3
100
AcDbEntity
8
0
100
AcDbBlockEnd
0
BLOCK
5
EC
100
AcDbEntity
8
0
100
AcDbBlockBegin
2
DimnDraft3D2
70
0
10
0
20
0
30
0
3
DimnDraft3D2
0
MTEXT
5
E6
100
AcDbEntity
8
SK2
62
256
6
ByLayer
370
13
48
1
60
0
100
AcDbMText
10
-0.601584
20
-31.817985
30
0
210
0
220
0
230
1
1
\W0.7317;79,00
40
3.5
41
0
44
1.084337
50
0
71
7
72
5
7
iso_b_vert
0
LINE
5
E7
100
AcDbEntity
8
SK2
62
256
6
ByLayer
370
13
48
1
60
0
100
AcDbLine
10
-36
20
-5.5875
30
0
11
-36
21
-34.692985
31
0
39
0
210
0
220
0
230
1
0
LINE
5
E8
100
AcDbEntity
8
SK2
62
256
6
ByLayer
370
13
48
1
60
0
100
AcDbLine
10
43
20
-1.5875
30
0
11
43
21
-34.692985
31
0
39
0
210
0
220
0
230
1
0
LINE
5
E9
100
AcDbEntity
8
SK2
62
256
6
ByLayer
370
13
48
1
60
0
100
AcDbLine
10
-36
20
-32.692985
30
0
11
43
21
-32.692985
31
0
39
0
210
0
220
0
230
1
0
SOLID
5
EA
100
AcDbEntity
8
SK2
62
256
6
ByLayer
370
13
48
1
60
0
100
AcDbTrace
10
-36
20
-32.692985
30
0
11
-32.500002
21
-32.232202
31
0
12
-32.499998
22
-33.153769
32
0
13
-36
23
-32.692985
33
0
39
0
210
0
220
0
230
1
0
SOLID
5
EB
100
AcDbEntity
8
SK2
62
256
6
ByLayer
370
13
48
1
60
0
100
AcDbTrace
10
43
20
-32.692985
30
0
11
39.500002
21
-33.153769
31
0
12
39.499998
22
-32.232202
32
0
13
43
23
-32.692985
33
0
39
0
210
0
220
0
230
1
0
ENDBLK
5
ED
100
AcDbEntity
8
0
100
AcDbBlockEnd
0
BLOCK
5
F6
100
AcDbEntity
8
0
100
AcDbBlockBegin
2
DimnDraft3D3
70
0
10
0
20
0
30
0
3
DimnDraft3D3
0
MTEXT
5
F0
100
AcDbEntity
8
SK2
62
256
6
ByLayer
370
13
48
1
60
0
100
AcDbMText
10
28.184605
20
15.857619
30
0
210
0
220
0
230
1
1
\W0.6898;21,24
40
3.5
41
0
44
1.084337
50
0
71
7
72
5
7
iso_b_vert
0
LINE
5
F1
100
AcDbEntity
8
SK2
62
256
6
ByLayer
370
13
48
1
60
0
100
AcDbLine
10
21.76
20
4.961
30
0
11
21.76
21
16.982619
31
0
39
0
210
0
220
0
230
1
0
LINE
5
F2
100
AcDbEntity
8
SK2
62
256
6
ByLayer
370
13
48
1
60
0
100
AcDbLine
10
43
20
1.5875
30
0
11
43
21
16.982619
31
0
39
0
210
0
220
0
230
1
0
LINE
5
F3
100
AcDbEntity
8
SK2
62
256
6
ByLayer
370
13
48
1
60
0
100
AcDbLine
10
21.76
20
14.982619
30
0
11
43
21
14.982619
31
0
39
0
210
0
220
0
230
1
0
SOLID
5
F4
100
AcDbEntity
8
SK2
62
256
6
ByLayer
370
13
48
1
60
0
100
AcDbTrace
10
21.76
20
14.982619
30
0
11
25.259998
21
15.443403
31
0
12
25.260002
22
14.521835
32
0
13
21.76
23
14.982619
33
0
39
0
210
0
220
0
230
1
0
SOLID
5
F5
100
AcDbEntity
8
SK2
62
256
6
ByLayer
370
13
48
1
60
0
100
AcDbTrace
10
43
20
14.982619
30
0
11
39.500002
21
14.521835
31
0
12
39.499998
22
15.443403
32
0
13
43
23
14.982619
33
0
39
0
210
0
220
0
230
1
0
ENDBLK
5
F7
100
AcDbEntity
8
0
100
AcDbBlockEnd
0
BLOCK
5
100
100
AcDbEntity
8
0
100
AcDbBlockBegin
2
DimnDraft3D4
70
0
10
0
20
0
30
0
3
DimnDraft3D4
0
MTEXT
5
FA
100
AcDbEntity
8
SK2
62
256
6
ByLayer
370
13
48
1
60
0
100
AcDbMText
10
49.840636
20
-15.301003
30
0
210
0
220
0
230
1
1
\W0.7259;0,99
40
3.5
41
0
44
1.084337
50
0
71
7
72
5
7
iso_b_vert
0
LINE
5
FB
100
AcDbEntity
8
SK2
62
256
6
ByLayer
370
13
48
1
60
0
100
AcDbLine
10
43
20
-1.5875
30
0
11
43
21
-18.176003
31
0
39
0
210
0
220
0
230
1
0
LINE
5
FC
100
AcDbEntity
8
SK2
62
256
6
ByLayer
370
13
48
1
60
0
100
AcDbLine
10
42.0058
20
-4.961
30
0
11
42.0058
21
-18.176003
31
0
39
0
210
0
220
0
230
1
0
LINE
5
FD
100
AcDbEntity
8
SK2
62
256
6
ByLayer
370
13
48
1
60
0
100
AcDbLine
10
33.2558
20
-16.176003
30
0
11
56.997215
21
-16.176003
31
0
39
0
210
0
220
0
230
1
0
SOLID
5
FE
100
AcDbEntity
8
SK2
62
256
6
ByLayer
370
13
48
1
60
0
100
AcDbTrace
10
43
20
-16.176003
30
0
11
46.499998
21
-15.715219
31
0
12
46.500002
22
-16.636787
32
0
13
43
23
-16.176003
33
0
39
0
210
0
220
0
230
1
0
SOLID
5
FF
100
AcDbEntity
8
SK2
62
256
6
ByLayer
370
13
48
1
60
0
100
AcDbTrace
10
42.0058
20
-16.176003
30
0
11
38.505802
21
-16.636787
31
0
12
38.505798
22
-15.715219
32
0
13
42.0058
23
-16.176003
33
0
39
0
210
0
220
0
230
1
0
ENDBLK
5
101
100
AcDbEntity
8
0
100
AcDbBlockEnd
0
BLOCK
5
10A
100
AcDbEntity
8
0
100
AcDbBlockBegin
2
DimnDraft3D5
70
0
10
0
20
0
30
0
3
DimnDraft3D5
0
MTEXT
5
104
100
AcDbEntity
8
SK2
62
256
6
ByLayer
370
13
48
1
60
0
100
AcDbMText
10
-3.244708
20
-21.468428
30
0
210
0
220
0
230
1
1
\W0.7211;78,01
40
3.5
41
0
44
1.084337
50
0
71
7
72
5
7
iso_b_vert
0
LINE
5
105
100
AcDbEntity
8
SK2
62
256
6
ByLayer
370
13
48
1
60
0
100
AcDbLine
10
-36
20
-5.5875
30
0
11
-36
21
-24.343428
31
0
39
0
210
0
220
0
230
1
0
LINE
5
106
100
AcDbEntity
8
SK2
62
256
6
ByLayer
370
13
48
1
60
0
100
AcDbLine
10
42.0058
20
-4.961
30
0
11
42.0058
21
-24.343428
31
0
39
0
210
0
220
0
230
1
0
LINE
5
107
100
AcDbEntity
8
SK2
62
256
6
ByLayer
370
13
48
1
60
0
100
AcDbLine
10
-36
20
-22.343428
30
0
11
42.0058
21
-22.343428
31
0
39
0
210
0
220
0
230
1
0
SOLID
5
108
100
AcDbEntity
8
SK2
62
256
6
ByLayer
370
13
48
1
60
0
100
AcDbTrace
10
-36
20
-22.343428
30
0
11
-32.500002
21
-21.882645
31
0
12
-32.499998
22
-22.804212
32
0
13
-36
23
-22.343428
33
0
39
0
210
0
220
0
230
1
0
SOLID
5
109
100
AcDbEntity
8
SK2
62
256
6
ByLayer
370
13
48
1
60
0
100
AcDbTrace
10
42.0058
20
-22.343428
30
0
11
38.505802
21
-22.804212
31
0
12
38.505798
22
-21.882645
32
0
13
42.0058
23
-22.343428
33
0
39
0
210
0
220
0
230
1
0
ENDBLK
5
10B
100
AcDbEntity
8
0
100
AcDbBlockEnd
0
BLOCK
5
115
100
AcDbEntity
8
0
100
AcDbBlockBegin
2
DimnDraft3D6
70
0
10
0
20
0
30
0
3
DimnDraft3D6
0
MTEXT
5
10E
100
AcDbEntity
8
SK2
62
256
6
ByLayer
370
13
48
1
60
0
100
AcDbMText
10
-46.375163
20
23.34918
30
0
210
0
220
0
230
1
1
\W0.7317;8,000
40
3.5
41
0
44
1.084337
50
90
71
7
72
5
7
iso_b_vert
0
MTEXT
5
10F
100
AcDbEntity
8
SK2
62
256
6
ByLayer
370
13
48
1
60
0
100
AcDbMText
10
-46.375163
20
18.126524
30
0
210
0
220
0
230
1
1
%%c
40
3.5
41
0
44
1.084337
50
90
71
7
72
5
7
iso_b_vert
0
LINE
5
110
100
AcDbEntity
8
SK2
62
256
6
ByLayer
370
13
48
1
60
0
100
AcDbLine
10
-37.5875
20
-4
30
0
11
-46.625163
21
-4
31
0
39
0
210
0
220
0
230
1
0
LINE
5
111
100
AcDbEntity
8
SK2
62
256
6
ByLayer
370
13
48
1
60
0
100
AcDbLine
10
-37.5875
20
4
30
0
11
-46.625163
21
4
31
0
39
0
210
0
220
0
230
1
0
LINE
5
112
100
AcDbEntity
8
SK2
62
256
6
ByLayer
370
13
48
1
60
0
100
AcDbLine
10
-44.625163
20
-4
30
0
11
-44.625163
21
33.121549
31
0
39
0
210
0
220
0
230
1
0
SOLID
5
113
100
AcDbEntity
8
SK2
62
256
6
ByLayer
370
13
48
1
60
0
100
AcDbTrace
10
-44.625163
20
-4
30
0
11
-45.085946
21
-0.500002
31
0
12
-44.164379
22
-0.499998
32
0
13
-44.625163
23
-4
33
0
39
0
210
0
220
0
230
1
0
SOLID
5
114
100
AcDbEntity
8
SK2
62
256
6
ByLayer
370
13
48
1
60
0
100
AcDbTrace
10
-44.625163
20
4
30
0
11
-44.164379
21
0.500002
31
0
12
-45.085946
22
0.499998
32
0
13
-44.625163
23
4
33
0
39
0
210
0
220
0
230
1
0
ENDBLK
5
116
100
AcDbEntity
8
0
100
AcDbBlockEnd
0
BLOCK
5
120
100
AcDbEntity
8
0
100
AcDbBlockBegin
2
DimnDraft3D7
70
0
10
0
20
0
30
0
3
DimnDraft3D7
0
MTEXT
5
119
100
AcDbEntity
8
2
62
256
6
ByLayer
370
13
48
1
60
0
100
AcDbMText
10
53.333343
20
21.315766
30
0
210
0
220
0
230
1
1
\W0.7581;6,747
40
3.5
41
0
44
1.084337
50
90
71
7
72
5
7
iso_b_vert
0
MTEXT
5
11A
100
AcDbEntity
8
2
62
256
6
ByLayer
370
13
48
1
60
0
100
AcDbMText
10
53.333343
20
16.09311
30
0
210
0
220
0
230
1
1
%%c
40
3.5
41
0
44
1.084337
50
90
71
7
72
5
7
iso_b_vert
0
LINE
5
11B
100
AcDbEntity
8
2
62
256
6
ByLayer
370
13
48
1
60
0
100
AcDbLine
10
43.5933
20
-3.3735
30
0
11
57.083343
21
-3.3735
31
0
39
0
210
0
220
0
230
1
0
LINE
5
11C
100
AcDbEntity
8
2
62
256
6
ByLayer
370
13
48
1
60
0
100
AcDbLine
10
43.5933
20
3.3735
30
0
11
57.083343
21
3.3735
31
0
39
0
210
0
220
0
230
1
0
LINE
5
11D
100
AcDbEntity
8
2
62
256
6
ByLayer
370
13
48
1
60
0
100
AcDbLine
10
55.083343
20
31.456556
30
0
11
55.083343
21
-12.1235
31
0
39
0
210
0
220
0
230
1
0
SOLID
5
11E
100
AcDbEntity
8
2
62
256
6
ByLayer
370
13
48
1
60
0
100
AcDbTrace
10
55.083343
20
-3.3735
30
0
11
55.544126
21
-6.873498
31
0
12
54.622559
22
-6.873502
32
0
13
55.083343
23
-3.3735
33
0
39
0
210
0
220
0
230
1
0
SOLID
5
11F
100
AcDbEntity
8
2
62
256
6
ByLayer
370
13
48
1
60
0
100
AcDbTrace
10
55.083343
20
3.3735
30
0
11
54.622559
21
6.873498
31
0
12
55.544126
22
6.873502
32
0
13
55.083343
23
3.3735
33
0
39
0
210
0
220
0
230
1
0
ENDBLK
5
121
100
AcDbEntity
8
0
100
AcDbBlockEnd
0
ENDSEC
0
SECTION
2
ENTITIES
0
ARC
5
92
100
AcDbEntity
8
1
62
256
6
ByLayer
370
18
48
1
60
0
100
AcDbCircle
39
0
10
-0.35
20
3.697482
30
0
40
0.349999999999994
210
0
220
0
230
-1
100
AcDbArc
50
269.96419
51
0
0
ARC
5
93
100
AcDbEntity
8
1
62
256
6
ByLayer
370
18
48
1
60
0
100
AcDbCircle
39
0
10
-0.35
20
-3.697482
30
0
40
0.349999999999994
210
0
220
0
230
-1
100
AcDbArc
50
0
51
90.03581
0
ELLIPSE
5
94
100
AcDbEntity
8
1
62
256
6
ByLayer
370
13
48
1
60
0
100
AcDbEllipse
10
10.164419
20
-0.525451
30
0
11
-0.0356474077547463
21
-0.0934305213533932
31
0
210
0
220
0
230
1
40
0.453265
41
-1.55214072587138
42
-0.190074016462799
0
ELLIPSE
5
95
100
AcDbEntity
8
1
62
256
6
ByLayer
370
13
48
1
60
0
100
AcDbEllipse
10
10.229131
20
-0.553011
30
0
11
0.0423733666184977
21
0.0905786829304467
31
0
210
0
220
0
230
1
40
0.071123
41
1.416777199881
42
2.96321009392261
0
POINT
5
6C
100
AcDbEntity
8
81
62
256
6
ByLayer
370
18
48
1
60
0
100
AcDbPoint
10
43
20
0
30
0
39
0
210
0
220
0
230
1
50
360
0
POINT
5
6E
100
AcDbEntity
8
80
62
256
6
ByLayer
370
18
48
1
60
0
100
AcDbPoint
10
0
20
0
30
0
39
0
210
0
220
0
230
1
50
360
0
POINT
5
70
100
AcDbEntity
8
SK2
62
256
6
ByLayer
370
18
48
1
60
1
100
AcDbPoint
10
-36
20
-4
30
0
39
0
210
0
220
0
230
1
50
360
0
POINT
5
72
100
AcDbEntity
8
SK2
62
256
6
ByLayer
370
18
48
1
60
1
100
AcDbPoint
10
-36
20
4
30
0
39
0
210
0
220
0
230
1
50
360
0
POINT
5
73
100
AcDbEntity
8
2
62
256
6
ByLayer
370
18
48
1
60
1
100
AcDbPoint
10
42.0058
20
-3.3735
30
0
39
0
210
0
220
0
230
1
50
360
0
POINT
5
75
100
AcDbEntity
8
2
62
256
6
ByLayer
370
18
48
1
60
1
100
AcDbPoint
10
42.0058
20
3.3735
30
0
39
0
210
0
220
0
230
1
50
360
0
SPLINE
5
96
100
AcDbEntity
8
1
62
256
6
ByLayer
370
18
48
1
60
0
100
AcDbSpline
70
4
71
2
72
6
73
3
40
0
40
0
40
0
40
1
40
1
40
1
41
1
10
41.6086759020704
20
-3.20464823275142
30
0
41
1
10
41.7275264024954
20
-3.20482594428699
30
0
41
1
10
41.8449067268667
20
-3.20372028237941
30
0
0
SPLINE
5
97
100
AcDbEntity
8
1
62
256
6
ByLayer
370
18
48
1
60
0
100
AcDbSpline
70
4
71
3
72
32
73
28
40
0
40
0
40
0
40
0
40
0.0531278634810558
40
0.100261046848575
40
0.135157770111052
40
0.170629024944281
40
0.203443485385872
40
0.247697976018898
40
0.288164233396073
40
0.318638943420245
40
0.35810015287738
40
0.410848152638557
40
0.457574925552315
40
0.493961914354819
40
0.524463668842342
40
0.555787190245131
40
0.609908659977657
40
0.671683926115642
40
0.726263315220198
40
0.786870065308125
40
0.834697725220361
40
0.875337225823208
40
0.903007186236045
40
0.911221105905709
40
0.924409774905065
40
0.967942328245063
40
1
40
1
40
1
40
1
41
1
10
19.9388771670436
20
-3.19119881432061
30
0
41
1
10
20.116418488949
20
-3.1912940842272
30
0
41
1
10
20.4515402128202
20
-3.1915009861431
30
0
41
1
10
20.9034932379184
20
-3.19197950967381
30
0
41
1
10
21.2965251880592
20
-3.19224692553365
30
0
41
1
10
21.6411339029363
20
-3.19234795895196
30
0
41
1
10
22.0174572528171
20
-3.19230824719838
30
0
41
1
10
22.4105013276684
20
-3.19232078851107
30
0
41
1
10
22.7957129702734
20
-3.1935587682255
30
0
41
1
10
23.1649041952886
20
-3.19356587440271
30
0
41
1
10
23.5751550435781
20
-3.19345015823927
30
0
41
1
10
24.0397655418187
20
-3.19321177252405
30
0
41
1
10
24.494092525737
20
-3.19354265404112
30
0
41
1
10
24.8740227161579
20
-3.19412358014617
30
0
41
1
10
25.2024471629105
20
-3.19423289855584
30
0
41
1
10
25.5901783235862
20
-3.19396171079151
30
0
41
1
10
26.0824907087751
20
-3.19381946602414
30
0
41
1
10
26.6525672951123
20
-3.19544523131145
30
0
41
1
10
27.2443349276575
20
-3.19532304989897
30
0
41
1
10
27.7894523843832
20
-3.19423410824882
30
0
41
1
10
28.2879732809217
20
-3.19526600723947
30
0
41
1
10
28.6763114550363
20
-3.19580178159796
30
0
41
1
10
28.9322090793957
20
-3.19596596879623
30
0
41
1
10
29.095894913932
20
-3.19619178888044
30
0
41
1
10
29.3130501434932
20
-3.1966204277266
30
0
41
1
10
29.6099103514288
20
-3.19693822338806
30
0
41
1
10
29.8626806748675
20
-3.19668067793009
30
0
41
1
10
29.9698788405892
20
-3.19649117199901
30
0
0
SPLINE
5
98
100
AcDbEntity
8
1
62
256
6
ByLayer
370
18
48
1
60
0
100
AcDbSpline
70
4
71
3
72
29
73
25
40
0
40
0
40
0
40
0
40
0.0238431409883893
40
0.0771518424390678
40
0.113830624625683
40
0.150147865049396
40
0.185804043963574
40
0.220076847852406
40
0.252945918536951
40
0.289451181060141
40
0.341302707559257
40
0.404477299390133
40
0.455728919971618
40
0.4875083527852
40
0.523693715174067
40
0.604042450201426
40
0.681838559878612
40
0.745765440202332
40
0.814201217882784
40
0.890249153319856
40
0.955887114244428
40
0.972951727928035
40
0.99999008481679
40
1
40
1
40
1
40
1
41
1
10
30.0219531766664
20
3.19658546195887
30
0
41
1
10
29.9566348614351
20
3.19667594685458
30
0
41
1
10
29.7452771766198
20
3.19688306400965
30
0
41
1
10
29.4334344366994
20
3.19707968635788
30
0
41
1
10
29.0874231957063
20
3.1962064774724
30
0
41
1
10
28.7897663897133
20
3.19583002589303
30
0
41
1
10
28.4987044691204
20
3.19567526877321
30
0
41
1
10
28.2170873155339
20
3.19503871239354
30
0
41
1
10
27.9331433753673
20
3.19453143589746
30
0
41
1
10
27.6010413112672
20
3.19467847982267
30
0
41
1
10
27.1859188477459
20
3.19530988614253
30
0
41
1
10
26.7303964586251
20
3.19541210483345
30
0
41
1
10
26.3298627940904
20
3.19458511736892
30
0
41
1
10
26.0032662609029
20
3.19394346116755
30
0
41
1
10
25.5969590540919
20
3.19387510465154
30
0
41
1
10
25.0645910470726
20
3.19449401034538
30
0
41
1
10
24.4562176391102
20
3.19341896294225
30
0
41
1
10
23.8804851032265
20
3.19323816898486
30
0
41
1
10
23.3095423532805
20
3.19361451379464
30
0
41
1
10
22.7339089321641
20
3.19348752965499
30
0
41
1
10
22.2990028641415
20
3.19231765013839
30
0
41
1
10
21.998373994089
20
3.19232008757879
30
0
41
1
10
21.87755195708
20
3.19231401576903
30
0
41
1
10
21.8034661980601
20
3.19231332369222
30
0
41
1
10
21.8034390401743
20
3.19231332343892
30
0
0
SPLINE
5
99
100
AcDbEntity
8
1
62
256
6
ByLayer
370
18
48
1
60
0
100
AcDbSpline
70
4
71
3
72
10
73
6
40
0
40
0
40
0
40
0
40
0.540397696799356
40
0.540397696799356
40
1
40
1
40
1
40
1
41
1
10
9.99304993544956
20
3.32776626094491
30
0
41
1
10
9.90605498869414
20
3.33625817316056
30
0
41
1
10
9.82048872028483
20
3.34292491349584
30
0
41
1
10
9.66791269957412
20
3.35102250879248
30
0
41
1
10
9.59985891705438
20
3.35311458873417
30
0
41
1
10
9.53453010036537
20
3.353215648343
30
0
0
SPLINE
5
9A
100
AcDbEntity
8
1
62
256
6
ByLayer
370
18
48
1
60
0
100
AcDbSpline
70
4
71
3
72
16
73
12
40
0
40
0
40
0
40
0
40
0.0405008232822387
40
0.0405008232822387
40
0.177572134241919
40
0.177572134241919
40
0.451714756161279
40
0.451714756161279
40
0.72585737808064
40
0.72585737808064
40
1
40
1
40
1
40
1
41
1
10
12.3707135455275
20
2.70565432437167
30
0
41
1
10
12.436392338396
20
2.71236166987578
30
0
41
1
10
12.5019821573716
20
2.71922741501561
30
0
41
1
10
12.7890552964842
20
2.74996688670038
30
0
41
1
10
13.009517191212
20
2.77537083308641
30
0
41
1
10
13.6676577542213
20
2.85504782748157
30
0
41
1
10
14.1020775272282
20
2.91282198322031
30
0
41
1
10
14.9633297205126
20
3.0283389596392
30
0
41
1
10
15.390184300564
20
3.08599677157153
30
0
41
1
10
16.2381561592993
20
3.19082288161283
30
0
41
1
10
16.6592730640532
20
3.23795806007678
30
0
41
1
10
17.0786873767691
20
3.27492747362163
30
0
0
SPLINE
5
9B
100
AcDbEntity
8
1
62
256
6
ByLayer
370
18
48
1
60
0
100
AcDbSpline
70
4
71
3
72
29
73
25
40
0
40
0
40
0
40
0
40
0.125
40
0.125
40
0.25
40
0.25
40
0.3125
40
0.3125
40
0.375
40
0.4375
40
0.4375
40
0.5
40
0.5
40
0.625
40
0.625
40
0.6875
40
0.6875
40
0.75
40
0.75
40
0.875
40
0.875
40
0.9375
40
0.9375
40
1
40
1
40
1
40
1
41
1
10
9.99265251154591
20
-0.451625016174887
30
0
41
1
10
9.99268232600124
20
-0.231219550661024
30
0
41
1
10
9.99270965899473
20
-0.0071290287105796
30
0
41
1
10
9.99275934547512
20
0.433497295414327
30
0
41
1
10
9.99278188428545
20
0.651235800044361
30
0
41
1
10
9.99281355445245
20
0.973881240707897
30
0
41
1
10
9.99282364161149
20
1.07963876893439
30
0
41
1
10
9.9928429602484
20
1.2859590325171
30
0
41
1
10
9.99286147828366
20
1.48765007775088
30
0
41
1
10
9.99287880905186
20
1.68016452584914
30
0
41
1
10
9.99289571239845
20
1.86799634450344
30
0
41
1
10
9.9929039840658
20
1.95993744055733
30
0
41
1
10
9.99292785602063
20
2.22293867075936
30
0
41
1
10
9.99294268979443
20
2.38294186547432
30
0
41
1
10
9.99296383252823
20
2.60024205326553
30
0
41
1
10
9.99297070329578
20
2.66900863335599
30
0
41
1
10
9.99298399826054
20
2.79801246460735
30
0
41
1
10
9.992990342561
20
2.85748463606143
30
0
41
1
10
9.99300844691277
20
3.02130698528504
30
0
41
1
10
9.99301931090247
20
3.11120230177715
30
0
41
1
10
9.99303314967486
20
3.21643581510094
30
0
41
1
10
9.99303733827722
20
3.24647244643378
30
0
41
1
10
9.99304452813766
20
3.29523234472234
30
0
41
1
10
9.99304755753758
20
3.31417488388581
30
0
41
1
10
9.99304993544712
20
3.32776626094486
30
0
0
SPLINE
5
9C
100
AcDbEntity
8
1
62
256
6
ByLayer
370
18
48
1
60
0
100
AcDbSpline
70
4
71
3
72
8
73
4
40
0
40
0
40
0
40
0
40
1
40
1
40
1
40
1
41
1
10
41.9790700643002
20
3.28271895908497
30
0
41
1
10
41.9366244329347
20
3.32812749146362
30
0
41
1
10
41.8931025049474
20
3.35653236112992
30
0
41
1
10
41.8480037089498
20
3.3678470701791
30
0
0
SPLINE
5
9D
100
AcDbEntity
8
1
62
256
6
ByLayer
370
18
48
1
60
0
100
AcDbSpline
70
4
71
3
72
8
73
4
40
0
40
0
40
0
40
0
40
1
40
1
40
1
40
1
41
1
10
42.9180856260581
20
0.682516288313394
30
0
41
1
10
42.9092378123928
20
0.722079137412663
30
0
41
1
10
42.8997172546024
20
0.762113190525838
30
0
41
1
10
42.8895493454883
20
0.802699637293472
30
0
0
SPLINE
5
9E
100
AcDbEntity
8
1
62
256
6
ByLayer
370
18
48
1
60
0
100
AcDbSpline
70
4
71
3
72
38
73
34
40
0
40
0
40
0
40
0
40
0.062500000000001
40
0.062500000000001
40
0.125000000000002
40
0.125000000000002
40
0.187500000000003
40
0.187500000000003
40
0.250000000000004
40
0.250000000000004
40
0.312500000000005
40
0.312500000000005
40
0.343750000000002
40
0.343750000000002
40
0.374999999999998
40
0.374999999999998
40
0.406249999999995
40
0.406249999999995
40
0.437499999999992
40
0.437499999999992
40
0.468749999999988
40
0.468749999999988
40
0.499999999999985
40
0.499999999999985
40
0.562499999999987
40
0.562499999999987
40
0.624999999999989
40
0.624999999999989
40
0.749999999999992
40
0.749999999999992
40
0.874999999999996
40
0.874999999999996
40
1
40
1
40
1
40
1
41
1
10
41.8919563180739
20
-1.63204357922649
30
0
41
1
10
41.8373354306175
20
-1.61170574085787
30
0
41
1
10
41.7825925082627
20
-1.58890856977058
30
0
41
1
10
41.6746068086509
20
-1.5388838496792
30
0
41
1
10
41.6212009958532
20
-1.51161154919251
30
0
41
1
10
41.5156967713808
20
-1.45203379250603
30
0
41
1
10
41.463594065519
20
-1.41974486781425
30
0
41
1
10
41.3610072576029
20
-1.3489358129842
30
0
41
1
10
41.3102096648718
20
-1.3101790024225
30
0
41
1
10
41.2132237947975
20
-1.22566978278479
30
0
41
1
10
41.166805227178
20
-1.18002010473998
30
0
41
1
10
41.1026813943072
20
-1.10253729031618
30
0
41
1
10
41.0823368180732
20
-1.07524252863149
30
0
41
1
10
41.0456536725339
20
-1.017609086231
30
0
41
1
10
41.0291809663563
20
-0.9870376687727
30
0
41
1
10
41.0037544861119
20
-0.923536137881854
30
0
41
1
10
40.9946095473371
20
-0.889695094316068
30
0
41
1
10
40.9893631892071
20
-0.823547509807526
30
0
41
1
10
40.9934878599108
20
-0.791421583613982
30
0
41
1
10
41.0146592715051
20
-0.735516838997
30
0
41
1
10
41.0311265615859
20
-0.712295682830188
30
0
41
1
10
41.0695479290036
20
-0.674606489284457
30
0
41
1
10
41.0916762591752
20
-0.659767398610882
30
0
41
1
10
41.1619198960871
20
-0.623867367082738
30
0
41
1
10
41.2129429416211
20
-0.611154194751066
30
0
41
1
10
41.3186412632139
20
-0.596531635389852
30
0
41
1
10
41.3722520735227
20
-0.595119668801061
30
0
41
1
10
41.5344774220171
20
-0.601672533040897
30
0
41
1
10
41.645045306967
20
-0.620496598170632
30
0
41
1
10
41.8652812220136
20
-0.675718961579975
30
0
41
1
10
41.9752373605893
20
-0.712390371001391
30
0
41
1
10
42.1933734740137
20
-0.801733300600233
30
0
41
1
10
42.3007123451126
20
-0.853953198926092
30
0
41
1
10
42.4058775974633
20
-0.915661619770617
30
0
0
SPLINE
5
9F
100
AcDbEntity
8
1
62
256
6
ByLayer
370
13
48
1
60
0
100
AcDbSpline
70
4
71
3
72
8
73
4
40
0
40
0
40
0
40
0
40
1
40
1
40
1
40
1
41
1
10
10.1199319442196
20
-0.623721244846678
30
0
41
1
10
10.1204231806184
20
-0.620532376464951
30
0
41
1
10
10.1209167363491
20
-0.617340715695178
30
0
41
1
10
10.1214126081858
20
-0.614146206303445
30
0
0
SPLINE
5
A0
100
AcDbEntity
8
1
62
256
6
ByLayer
370
18
48
1
60
0
100
AcDbSpline
70
4
71
3
72
14
73
10
40
0
40
0
40
0
40
0
40
0.25
40
0.25
40
0.5
40
0.5
40
0.75
40
0.75
40
1
40
1
40
1
40
1
41
1
10
41.8858627310938
20
-3.20339779505488
30
0
41
1
10
41.8890472238944
20
-3.20299971410361
30
0
41
1
10
41.8915406848741
20
-3.20433520173503
30
0
41
1
10
41.8947636754733
20
-3.2114804655977
30
0
41
1
10
41.8954345495043
20
-3.21738906031101
30
0
41
1
10
41.893977957538
20
-3.23453681190219
30
0
41
1
10
41.8918140059704
20
-3.24568651913805
30
0
41
1
10
41.8850066310765
20
-3.27060420628015
30
0
41
1
10
41.880405866287
20
-3.28425205953133
30
0
41
1
10
41.8753397579163
20
-3.29734853995649
30
0
0
SPLINE
5
A1
100
AcDbEntity
8
1
62
256
6
ByLayer
370
18
48
1
60
0
100
AcDbSpline
70
4
71
3
72
8
73
4
40
0
40
0
40
0
40
0
40
1
40
1
40
1
40
1
41
1
10
10.0172067567897
20
-0.533034509571934
30
0
41
1
10
10.0016798477162
20
-0.508609813794436
30
0
41
1
10
9.99264859076732
20
-0.480609652570621
30
0
41
1
10
9.99265251154591
20
-0.451625016173551
30
0
0
SPLINE
5
A2
100
AcDbEntity
8
1
62
256
6
ByLayer
370
18
48
1
60
0
100
AcDbSpline
70
4
71
3
72
14
73
10
40
0
40
0
40
0
40
0
40
0.25
40
0.25
40
0.5
40
0.5
40
0.75
40
0.75
40
1
40
1
40
1
40
1
41
1
10
9.99304993544899
20
-3.32776626094625
30
0
41
1
10
10.0004169115383
20
-3.30920049587536
30
0
41
1
10
10.0109086450024
20
-3.29008669034047
30
0
41
1
10
10.040771536744
20
-3.25165919401277
30
0
41
1
10
10.0602815204705
20
-3.23256229400928
30
0
41
1
10
10.1068434823986
20
-3.19985387621586
30
0
41
1
10
10.1336686904763
20
-3.18672232091538
30
0
41
1
10
10.183911097773
20
-3.16964648481059
30
0
41
1
10
10.2079489637497
20
-3.16502518081739
30
0
41
1
10
10.2302148086764
20
-3.16290572268059
30
0
0
SPLINE
5
A3
100
AcDbEntity
8
1
62
256
6
ByLayer
370
13
48
1
60
0
100
AcDbSpline
70
4
71
3
72
30
73
26
40
0
40
0
40
0
40
0
40
0.125
40
0.125
40
0.1875
40
0.1875
40
0.25
40
0.3125
40
0.3125
40
0.375
40
0.375
40
0.4375
40
0.4375
40
0.5
40
0.5
40
0.625
40
0.625
40
0.6875
40
0.6875
40
0.75
40
0.8125
40
0.8125
40
0.875
40
0.875
40
1
40
1
40
1
40
1
41
1
10
10.2292651189862
20
-0.53613739105279
30
0
41
1
10
10.2293406627726
20
-0.322741132140521
30
0
41
1
10
10.2294082492129
20
-0.108157485184563
30
0
41
1
10
10.2295012664446
20
0.215483613957559
30
0
41
1
10
10.2295307999477
20
0.323459590355696
30
0
41
1
10
10.2295865963302
20
0.535908980329339
30
0
41
1
10
10.2296394219444
20
0.745882744226748
30
0
41
1
10
10.229687616702
20
0.95097252867194
30
0
41
1
10
10.2297340619682
20
1.1535789301289
30
0
41
1
10
10.2297564978333
20
1.25404961087438
30
0
41
1
10
10.2297995169772
20
1.44962766376869
30
0
41
1
10
10.2298201371589
20
1.54487503113899
30
0
41
1
10
10.2298600937706
20
1.73027628723375
30
0
41
1
10
10.2298793769202
20
1.82017883201078
30
0
41
1
10
10.2299349627019
20
2.07785468575059
30
0
41
1
10
10.2299694018042
20
2.23523256413154
30
0
41
1
10
10.2300185146355
20
2.44958785741611
30
0
41
1
10
10.2300345153556
20
2.51768245474545
30
0
41
1
10
10.2300651167737
20
2.64409246249673
30
0
41
1
10
10.2300943962139
20
2.76110449165833
30
0
41
1
10
10.2301209091402
20
2.859532991988
30
0
41
1
10
10.2301458068411
20
2.94848654904899
30
0
41
1
10
10.230157346866
20
2.98785623859175
30
0
41
1
10
10.2301884621673
20
3.08975883246222
30
0
41
1
10
10.2302047920441
20
3.13686650380242
30
0
41
1
10
10.2302148086764
20
3.16290572259223
30
0
0
SPLINE
5
A4
100
AcDbEntity
8
1
62
256
6
ByLayer
370
18
48
1
60
0
100
AcDbSpline
70
4
71
3
72
10
73
6
40
0
40
0
40
0
40
0
40
0.5
40
0.5
40
1
40
1
40
1
40
1
41
1
10
10.1199319442196
20
-0.623721244847246
30
0
41
1
10
10.0987605010169
20
-0.613641113746581
30
0
41
1
10
10.0795074957864
20
-0.600911329475792
30
0
41
1
10
10.0447462496522
20
-0.570246632849546
30
0
41
1
10
10.0295530829432
20
-0.552455970652289
30
0
41
1
10
10.0172067567897
20
-0.533034509571962
30
0
0
SPLINE
5
A5
100
AcDbEntity
8
1
62
256
6
ByLayer
370
18
48
1
60
0
100
AcDbSpline
70
4
71
3
72
14
73
10
40
0
40
0
40
0
40
0
40
0.203601709320432
40
0.203601709320432
40
0.416908816748441
40
0.416908816748441
40
0.843523031604462
40
0.843523031604462
40
1
40
1
40
1
40
1
41
1
10
20.0861090540925
20
-3.19052359532773
30
0
41
1
10
19.7724384669346
20
-3.19352297577652
30
0
41
1
10
19.4581505506732
20
-3.1866098557698
30
0
41
1
10
18.812549879518
20
-3.15231661840531
30
0
41
1
10
18.4803144432262
20
-3.1238488753678
30
0
41
1
10
17.4840360053172
20
-3.00624397341912
30
0
41
1
10
16.8227498834405
20
-2.88534447976795
30
0
41
1
10
15.9156803276098
20
-2.66835063337584
30
0
41
1
10
15.6716591190765
20
-2.60484830032004
30
0
41
1
10
15.428297589774
20
-2.53681693056251
30
0
0
SPLINE
5
A6
100
AcDbEntity
8
1
62
256
6
ByLayer
370
13
48
1
60
0
100
AcDbSpline
70
4
71
3
72
12
73
8
40
0
40
0
40
0
40
0
40
0.0505891716461103
40
0.0505891716461103
40
0.240471337316887
40
0.240471337316887
40
1
40
1
40
1
40
1
41
1
10
15.4282975896795
20
-2.53681693053611
30
0
41
1
10
15.3399122529601
20
-2.51210893523032
30
0
41
1
10
15.2516139302943
20
-2.48680354376012
30
0
41
1
10
14.8325962970889
20
-2.36384565364074
30
0
41
1
10
14.5030214406862
20
-2.25881724037586
30
0
41
1
10
12.8589263389205
20
-1.69884192869787
30
0
41
1
10
11.5563720564857
20
-1.13793131010399
30
0
41
1
10
10.2292651189863
20
-0.53613739105279
30
0
0
SPLINE
5
A7
100
AcDbEntity
8
1
62
256
6
ByLayer
370
18
48
1
60
0
100
AcDbSpline
70
4
71
3
72
10
73
6
40
0
40
0
40
0
40
0
40
0.5
40
0.5
40
1
40
1
40
1
40
1
41
1
10
42.999694447635
20
0.0401824816835301
30
0
41
1
10
42.9964391906528
20
0.0241407782469878
30
0
41
1
10
42.9916259466196
20
0.0067053059810291
30
0
41
1
10
42.979432894349
20
-0.0265450440327015
30
0
41
1
10
42.9720310219695
20
-0.0423242675115603
30
0
41
1
10
42.9644135387645
20
-0.0549067099328511
30
0
0
SPLINE
5
A8
100
AcDbEntity
8
1
62
256
6
ByLayer
370
18
48
1
60
0
100
AcDbSpline
70
4
71
3
72
12
73
8
40
0
40
0
40
0
40
0
40
0.504795506745578
40
0.504795506745578
40
0.757193260118367
40
0.757193260118367
40
1
40
1
40
1
40
1
41
1
10
17.0786873767691
20
-3.27492747362163
30
0
41
1
10
17.3399158946568
20
-3.30334960298276
30
0
41
1
10
17.6005490761661
20
-3.32431852840116
30
0
41
1
10
17.9906292240389
20
-3.34519107055016
30
0
41
1
10
18.1204829041353
20
-3.35039035936464
30
0
41
1
10
18.3747286698104
20
-3.35716181270092
30
0
41
1
10
18.4990668030094
20
-3.35885463821037
30
0
41
1
10
18.6234268724857
20
-3.35890231442059
30
0
0
SPLINE
5
A9
100
AcDbEntity
8
1
62
256
6
ByLayer
370
18
48
1
60
0
100
AcDbSpline
70
4
71
3
72
24
73
20
40
0
40
0
40
0
40
0
40
0.106943562606917
40
0.106943562606917
40
0.218575617281053
40
0.218575617281053
40
0.330207671955188
40
0.330207671955188
40
0.441839726629324
40
0.441839726629324
40
0.553471781303459
40
0.553471781303459
40
0.665103835977594
40
0.665103835977594
40
0.776735890651729
40
0.776735890651729
40
0.888367945325865
40
0.888367945325865
40
1
40
1
40
1
40
1
41
1
10
35.0047112226721
20
2.40685719100981
30
0
41
1
10
35.2544703536971
20
2.4919868871782
30
0
41
1
10
35.5040942484686
20
2.57291146529417
30
0
41
1
10
36.0158588821584
20
2.72708596793697
30
0
41
1
10
36.2772575033783
20
2.79967903302546
30
0
41
1
10
36.7967869570407
20
2.93331533100343
30
0
41
1
10
37.0556934292005
20
2.99388435469393
30
0
41
1
10
37.573259848834
20
3.10142591914334
30
0
41
1
10
37.8312872582787
20
3.14898880919387
30
0
41
1
10
38.3469394372873
20
3.23071352824249
30
0
41
1
10
38.6048939208103
20
3.26469867184576
30
0
41
1
10
39.1209125490478
20
3.31916760755578
30
0
41
1
10
39.37849865917
20
3.33976402883096
30
0
41
1
10
39.895439688264
20
3.36663985411187
30
0
41
1
10
40.1545840349613
20
3.37309521483635
30
0
41
1
10
40.6735406808618
20
3.37181317193875
30
0
41
1
10
40.9337267901561
20
3.36400161668851
30
0
41
1
10
41.4567523411598
20
3.33409848547336
30
0
41
1
10
41.7180167269062
20
3.3119815715452
30
0
41
1
10
41.9790700643008
20
3.28271895908424
30
0
0
SPLINE
5
AA
100
AcDbEntity
8
1
62
256
6
ByLayer
370
13
48
1
60
0
100
AcDbSpline
70
4
71
3
72
8
73
4
40
0
40
0
40
0
40
0
40
1
40
1
40
1
40
1
41
1
10
10.1214126081858
20
-0.614146206303445
30
0
41
1
10
10.1419861989527
20
-0.621954253411673
30
0
41
1
10
10.1638915159113
20
-0.631199380208955
30
0
41
1
10
10.1862864697392
20
-0.641617825257811
30
0
0
SPLINE
5
AB
100
AcDbEntity
8
1
62
256
6
ByLayer
370
18
48
1
60
0
100
AcDbSpline
70
4
71
3
72
10
73
6
40
0
40
0
40
0
40
0
40
0.949104910697851
40
0.949104910697851
40
1
40
1
40
1
40
1
41
1
10
41.8858627310939
20
-3.20339779505488
30
0
41
1
10
40.5573445989615
20
-3.2208976450851
30
0
41
1
10
39.2545510254127
20
-3.05940605943712
30
0
41
1
10
37.8711433045129
20
-2.72929767917944
30
0
41
1
10
37.8007032632458
20
-2.71206670737777
30
0
41
1
10
37.7302261905204
20
-2.69441095872026
30
0
0
SPLINE
5
AC
100
AcDbEntity
8
1
62
256
6
ByLayer
370
13
48
1
60
0
100
AcDbSpline
70
4
71
3
72
22
73
18
40
0
40
0
40
0
40
0
40
0.0717909925430888
40
0.0717909925430888
40
0.117488495657551
40
0.117488495657551
40
0.163185998772014
40
0.163185998772014
40
0.345976011229863
40
0.345976011229863
40
0.528766023687713
40
0.528766023687713
40
0.620161029916638
40
0.620161029916638
40
0.711556036145563
40
0.711556036145563
40
1
40
1
40
1
40
1
41
1
10
37.7302257627604
20
-2.69441085155884
30
0
41
1
10
37.4721342652352
20
-2.62975437720991
30
0
41
1
10
37.213546149515
20
-2.55940134499053
30
0
41
1
10
36.7890907543136
20
-2.43536942980757
30
0
41
1
10
36.6236934646975
20
-2.38490918010837
30
0
41
1
10
36.292143315353
20
-2.27972761567872
30
0
41
1
10
36.1258522415731
20
-2.22495300091333
30
0
41
1
10
35.2975267862362
20
-1.94276066733508
30
0
41
1
10
34.6406486007394
20
-1.68953687533343
30
0
41
1
10
33.3296472310731
20
-1.14572429338361
30
0
41
1
10
32.6753227284058
20
-0.85558414444327
30
0
41
1
10
31.6890651746912
20
-0.406610257782319
30
0
41
1
10
31.3594448641244
20
-0.254812596705335
30
0
41
1
10
30.697468144813
20
0.0508411764758705
30
0
41
1
10
30.3646155833977
20
0.204933463298232
30
0
41
1
10
28.9891661520811
20
0.836131169829656
30
0
41
1
10
27.954672367779
20
1.29790599044088
30
0
41
1
10
26.9119391321516
20
1.70476559569093
30
0
0
SPLINE
5
AD
100
AcDbEntity
8
1
62
256
6
ByLayer
370
18
48
1
60
0
100
AcDbSpline
70
4
71
3
72
10
73
6
40
0
40
0
40
0
40
0
40
0.960499367723453
40
0.960499367723453
40
1
40
1
40
1
40
1
41
1
10
10.1862864697392
20
-0.641617825257811
30
0
41
1
10
11.518392388895
20
-1.26133208877545
30
0
41
1
10
12.8235001636263
20
-1.83235401999042
30
0
41
1
10
14.1951876251955
20
-2.30109301746899
30
0
41
1
10
14.2493901114157
20
-2.31940682919097
30
0
41
1
10
14.303615034983
20
-2.33751464942296
30
0
0
SPLINE
5
AE
100
AcDbEntity
8
1
62
256
6
ByLayer
370
13
48
1
60
0
100
AcDbSpline
70
4
71
3
72
20
73
16
40
0
40
0
40
0
40
0
40
0.118208918373424
40
0.118208918373424
40
0.259691781460135
40
0.259691781460135
40
0.542657507633558
40
0.542657507633558
40
0.613398939176913
40
0.613398939176913
40
0.684140370720268
40
0.684140370720268
40
0.825623233806978
40
0.825623233806978
40
1
40
1
40
1
40
1
41
1
10
14.3036147365435
20
-2.33751454976235
30
0
41
1
10
14.5790239064804
20
-2.42948443421952
30
0
41
1
10
14.8550118788097
20
-2.51614048252486
30
0
41
1
10
15.4633100330996
20
-2.69359780108223
30
0
41
1
10
15.7967881884321
20
-2.78185397650671
30
0
41
1
10
16.7937121005095
20
-3.01572870036111
30
0
41
1
10
17.4558726856379
20
-3.13184487118067
30
0
41
1
10
18.2874528093968
20
-3.22159158061038
30
0
41
1
10
18.4540712076171
20
-3.23678442076317
30
0
41
1
10
18.7861614878962
20
-3.26147676573453
30
0
41
1
10
18.9518153641029
20
-3.27100006755856
30
0
41
1
10
19.447862018889
20
-3.29115157117522
30
0
41
1
10
19.7773979386239
20
-3.29338267411575
30
0
41
1
10
20.5115788025473
20
-3.27333668297678
30
0
41
1
10
20.9160506864097
20
-3.24541799429227
30
0
41
1
10
21.3207061027743
20
-3.20106496751359
30
0
0
SPLINE
5
AF
100
AcDbEntity
8
1
62
256
6
ByLayer
370
18
48
1
60
0
100
AcDbSpline
70
4
71
3
72
32
73
28
40
0
40
0
40
0
40
0
40
0.0624272111842359
40
0.0624272111842359
40
0.140558276918883
40
0.140558276918883
40
0.21868934265353
40
0.21868934265353
40
0.296820408388177
40
0.296820408388177
40
0.374951474122824
40
0.374951474122824
40
0.453082539857471
40
0.453082539857471
40
0.531213605592118
40
0.531213605592118
40
0.609344671326765
40
0.609344671326765
40
0.687475737061412
40
0.687475737061412
40
0.765606802796059
40
0.765606802796059
40
0.843737868530706
40
0.843737868530706
40
0.921868934265353
40
0.921868934265353
40
1
40
1
40
1
40
1
41
1
10
30.0226318412307
20
3.19652899734101
30
0
41
1
10
30.2020151032614
20
3.19641138760048
30
0
41
1
10
30.3815187761059
20
3.19304400353883
30
0
41
1
10
30.7862864298961
20
3.17855837711673
30
0
41
1
10
31.011491396784
20
3.16560840714843
30
0
41
1
10
31.4607615284485
20
3.13135730624782
30
0
41
1
10
31.6852737700992
20
3.10894278860076
30
0
41
1
10
32.1340992025857
20
3.05277870665177
30
0
41
1
10
32.3584099992612
20
3.01962565240677
30
0
41
1
10
32.8072805162355
20
2.94446258594175
30
0
41
1
10
33.0319490520238
20
2.90283520002157
30
0
41
1
10
33.481955439216
20
2.8108532412468
30
0
41
1
10
33.7070022909815
20
2.75963813049407
30
0
41
1
10
34.1558628856719
20
2.64807243936431
30
0
41
1
10
34.3803700195585
20
2.5883853320129
30
0
41
1
10
34.8291177400788
20
2.46136661819907
30
0
41
1
10
35.0533819509295
20
2.39424945153343
30
0
41
1
10
35.5021641426823
20
2.25249660056582
30
0
41
1
10
35.7267561312377
20
2.17743359650518
30
0
41
1
10
36.1766330040831
20
2.02029989804655
30
0
41
1
10
36.4015078816946
20
1.93804992553507
30
0
41
1
10
36.8507108383095
20
1.76891057825503
30
0
41
1
10
37.0752979161393
20
1.68220752346784
30
0
41
1
10
37.5241191411567
20
1.50312189903704
30
0
41
1
10
37.7483008391548
20
1.41025840184668
30
0
41
1
10
38.1971397373353
20
1.22061348650249
30
0
41
1
10
38.4218294808742
20
1.12394361211136
30
0
41
1
10
38.6468039700417
20
1.02562408411859
30
0
0
SPLINE
5
B0
100
AcDbEntity
8
1
62
256
6
ByLayer
370
18
48
1
60
0
100
AcDbSpline
70
4
71
3
72
10
73
6
40
0
40
0
40
0
40
0
40
0.5
40
0.5
40
1
40
1
40
1
40
1
41
1
10
41.979070064295
20
3.28271895910089
30
0
41
1
10
42.1251335569778
20
2.86820558687754
30
0
41
1
10
42.2748937021679
20
2.45382347244419
30
0
41
1
10
42.5797865035204
20
1.62557975141172
30
0
41
1
10
42.7343356570518
20
1.21334573321877
30
0
41
1
10
42.8895493454883
20
0.802699637293472
30
0
0
SPLINE
5
B1
100
AcDbEntity
8
1
62
256
6
ByLayer
370
18
48
1
60
0
100
AcDbSpline
70
4
71
3
72
10
73
6
40
0
40
0
40
0
40
0
40
0.5
40
0.5
40
1
40
1
40
1
40
1
41
1
10
41.9790700642939
20
-3.28271895910402
30
0
41
1
10
42.1259229587022
20
-2.86596534487862
30
0
41
1
10
42.2757967423
20
-2.45135264721239
30
0
41
1
10
42.5799703237478
20
-1.62509817522724
30
0
41
1
10
42.7342888560596
20
-1.21346955377186
30
0
41
1
10
42.8895493454882
20
-0.802699637293472
30
0
0
SPLINE
5
B2
100
AcDbEntity
8
1
62
256
6
ByLayer
370
18
48
1
60
0
100
AcDbSpline
70
4
71
3
72
8
73
4
40
0
40
0
40
0
40
0
40
1
40
1
40
1
40
1
41
1
10
42.8895493454882
20
0.802699637293472
30
0
41
1
10
42.888165367478
20
0.797870552570174
30
0
41
1
10
42.8867754211952
20
0.793043931580513
30
0
41
1
10
42.8853795516865
20
0.788219762433101
30
0
0
SPLINE
5
B3
100
AcDbEntity
8
1
62
256
6
ByLayer
370
13
48
1
60
0
100
AcDbSpline
70
4
71
3
72
10
73
6
40
0
40
0
40
0
40
0
40
0.5
40
0.5
40
1
40
1
40
1
40
1
41
1
10
9.99265251154833
20
-0.451625016174262
30
0
41
1
10
10.0030268329004
20
-0.464345801010978
30
0
41
1
10
10.0191132547736
20
-0.476074483376408
30
0
41
1
10
10.0625177397562
20
-0.496448804360767
30
0
41
1
10
10.0896191614574
20
-0.504966770829611
30
0
41
1
10
10.1214126081858
20
-0.511039028800212
30
0
0
SPLINE
5
B4
100
AcDbEntity
8
1
62
256
6
ByLayer
370
18
48
1
60
0
100
AcDbSpline
70
4
71
3
72
8
73
4
40
0
40
0
40
0
40
0
40
1
40
1
40
1
40
1
41
1
10
41.8919563180739
20
-1.63204357922649
30
0
41
1
10
41.7014154705444
20
-1.88809559214962
30
0
41
1
10
41.507009430758
20
-2.14016767739747
30
0
41
1
10
41.309913081475
20
-2.38893869098169
30
0
0
SPLINE
5
B5
100
AcDbEntity
8
1
62
256
6
ByLayer
370
18
48
1
60
0
100
AcDbSpline
70
4
71
3
72
10
73
6
40
0
40
0
40
0
40
0
40
0.5
40
0.5
40
1
40
1
40
1
40
1
41
1
10
42.9908754190047
20
0.110155064038821
30
0
41
1
10
42.9912406850218
20
0.100174469578889
30
0
41
1
10
42.9922604089866
20
0.0889646882092165
30
0
41
1
10
42.9952644080261
20
0.065502790121684
30
0
41
1
10
42.9972549264975
20
0.0531293987566812
30
0
41
1
10
42.9996944476347
20
0.0401824816833596
30
0
0
SPLINE
5
B6
100
AcDbEntity
8
1
62
256
6
ByLayer
370
18
48
1
60
0
100
AcDbSpline
70
4
71
3
72
8
73
4
40
0
40
0
40
0
40
0
40
1
40
1
40
1
40
1
41
1
10
10.0172067567902
20
-0.533034509573525
30
0
41
1
10
10.0412149893552
20
-0.566505363611867
30
0
41
1
10
10.0766445314915
20
-0.59551786840828
30
0
41
1
10
10.1214126081858
20
-0.614146206303445
30
0
0
SPLINE
5
B7
100
AcDbEntity
8
1
62
256
6
ByLayer
370
18
48
1
60
0
100
AcDbSpline
70
4
71
3
72
62
73
58
40
0
40
0
40
0
40
0
40
0.0312499999999985
40
0.0312499999999985
40
0.0624999999999971
40
0.0624999999999971
40
0.0937499999999956
40
0.0937499999999956
40
0.109374999999995
40
0.109374999999995
40
0.124999999999995
40
0.124999999999995
40
0.140624999999995
40
0.140624999999995
40
0.156249999999995
40
0.156249999999995
40
0.171874999999995
40
0.171874999999995
40
0.187499999999995
40
0.187499999999995
40
0.203124999999995
40
0.203124999999995
40
0.218749999999994
40
0.218749999999994
40
0.234374999999994
40
0.234374999999994
40
0.249999999999994
40
0.249999999999994
40
0.281249999999992
40
0.281249999999992
40
0.312499999999991
40
0.312499999999991
40
0.32812499999999
40
0.32812499999999
40
0.335937499999989
40
0.335937499999989
40
0.343749999999989
40
0.343749999999989
40
0.347656249999989
40
0.347656249999989
40
0.351562499999989
40
0.351562499999989
40
0.35937499999999
40
0.35937499999999
40
0.374999999999991
40
0.374999999999991
40
0.499999999999992
40
0.499999999999992
40
0.562499999999992
40
0.562499999999992
40
0.624999999999992
40
0.624999999999992
40
0.749999999999995
40
0.749999999999995
40
0.874999999999997
40
0.874999999999997
40
1
40
1
40
1
40
1
41
1
10
9.99304993544985
20
-3.32776626094488
30
0
41
1
10
9.90605498869439
20
-3.33625817316053
30
0
41
1
10
9.82048872028508
20
-3.34292491349584
30
0
41
1
10
9.65558525992734
20
-3.35167675719168
30
0
41
1
10
9.57599599024132
20
-3.35379977926519
30
0
41
1
10
9.42467004805229
20
-3.35236500657049
30
0
41
1
10
9.35287826047215
20
-3.3488364886461
30
0
41
1
10
9.25398931909328
20
-3.33767345113605
30
0
41
1
10
9.2225104575395
20
-3.33296466746276
30
0
41
1
10
9.16342095831996
20
-3.32107935146223
30
0
41
1
10
9.13584665433632
20
-3.31387774557783
30
0
41
1
10
9.087275564587
20
-3.29685754712082
30
0
41
1
10
9.06606615322198
20
-3.28700894973193
30
0
41
1
10
9.03140790137348
20
-3.26409306987742
30
0
41
1
10
9.01809074964817
20
-3.25100050005665
30
0
41
1
10
9.0016861674946
20
-3.22216378995262
30
0
41
1
10
8.99841750699906
20
-3.20632499156977
30
0
41
1
10
9.00301043232264
20
-3.17163705256499
30
0
41
1
10
9.01105305287041
20
-3.15278297847019
30
0
41
1
10
9.03750545442654
20
-3.11409886327726
30
0
41
1
10
9.05591917255873
20
-3.09404983985886
30
0
41
1
10
9.10229189292696
20
-3.05281529991351
30
0
41
1
10
9.12978308585298
20
-3.03205885352705
30
0
41
1
10
9.19098886453406
20
-2.99095844759921
30
0
41
1
10
9.22481753410767
20
-2.9705199030787
30
0
41
1
10
9.29775716409372
20
-2.92992875028736
30
0
41
1
10
9.33691987333214
20
-2.90976674581884
30
0
41
1
10
9.45841301541424
20
-2.85098936988476
30
0
41
1
10
9.54554886063752
20
-2.8135982619481
30
0
41
1
10
9.7279510971309
20
-2.74165028834148
30
0
41
1
10
9.82356819302731
20
-2.7070120095137
30
0
41
1
10
9.97032124785665
20
-2.65735499162315
30
0
41
1
10
10.0198046831127
20
-2.64118311049506
30
0
41
1
10
10.094769090883
20
-2.61745336808434
30
0
41
1
10
10.1198807705939
20
-2.6096316146743
30
0
41
1
10
10.1703364262108
20
-2.59415885431207
30
0
41
1
10
10.1957897086476
20
-2.58669921835838
30
0
41
1
10
10.2337680492854
20
-2.57499397011026
30
0
41
1
10
10.2464063437956
20
-2.57103709806339
30
0
41
1
10
10.2727328396826
20
-2.56511597011064
30
0
41
1
10
10.2864434196369
20
-2.56319736166441
30
0
41
1
10
10.3288263303567
20
-2.55984530790923
30
0
41
1
10
10.3571317281249
20
-2.56139225745372
30
0
41
1
10
10.4416184688845
20
-2.56465231221034
30
0
41
1
10
10.4979273869166
20
-2.56699889788734
30
0
41
1
10
11.0045681742555
20
-2.58965103326619
30
0
41
1
10
11.4532383988978
20
-2.62076856412929
30
0
41
1
10
12.1229589845957
20
-2.68044652854465
30
0
41
1
10
12.3458608539839
20
-2.70251011990499
30
0
41
1
10
12.7890552964843
20
-2.74996688670038
30
0
41
1
10
13.009517191212
20
-2.77537083308641
30
0
41
1
10
13.6676577542214
20
-2.8550478274816
30
0
41
1
10
14.1020775272282
20
-2.91282198322031
30
0
41
1
10
14.9633297205127
20
-3.0283389596392
30
0
41
1
10
15.390184300564
20
-3.08599677157153
30
0
41
1
10
16.2381561592993
20
-3.19082288161283
30
0
41
1
10
16.6592730640533
20
-3.23795806007681
30
0
41
1
10
17.0786873767691
20
-3.27492747362163
30
0
0
SPLINE
5
B8
100
AcDbEntity
8
1
62
256
6
ByLayer
370
18
48
1
60
0
100
AcDbSpline
70
4
71
3
72
68
73
64
40
0
40
0
40
0
40
0
40
0.0334112881142172
40
0.0334112881142172
40
0.0501169321713261
40
0.0501169321713261
40
0.066822576228435
40
0.066822576228435
40
0.100233864342653
40
0.100233864342653
40
0.133645152456871
40
0.133645152456871
40
0.167056440571089
40
0.167056440571089
40
0.200467728685306
40
0.200467728685306
40
0.233879016799524
40
0.233879016799524
40
0.267290304913742
40
0.267290304913742
40
0.30070159302796
40
0.30070159302796
40
0.334112881142178
40
0.334112881142178
40
0.367524169256396
40
0.367524169256396
40
0.400935457370614
40
0.400935457370614
40
0.434346745484831
40
0.434346745484831
40
0.467758033599049
40
0.467758033599049
40
0.501169321713267
40
0.501169321713267
40
0.534580609827485
40
0.534580609827485
40
0.567991897941703
40
0.567991897941703
40
0.601403186055921
40
0.601403186055921
40
0.634814474170139
40
0.634814474170139
40
0.668225762284357
40
0.668225762284357
40
0.701637050398574
40
0.701637050398574
40
0.735048338512792
40
0.735048338512792
40
0.76845962662701
40
0.76845962662701
40
0.801870914741228
40
0.801870914741228
40
0.835282202855446
40
0.835282202855446
40
0.868693490969664
40
0.868693490969664
40
0.902104779083882
40
0.902104779083882
40
0.935516067198099
40
0.935516067198099
40
0.968927355312317
40
0.968927355312317
40
1
40
1
40
1
40
1
41
1
10
17.0786873767691
20
3.27492747362163
30
0
41
1
10
17.3399158946568
20
3.30334960298276
30
0
41
1
10
17.6005490761661
20
3.32431852840116
30
0
41
1
10
17.9906292240389
20
3.34519107055016
30
0
41
1
10
18.1204829041353
20
3.35039035936464
30
0
41
1
10
18.3796528467956
20
3.35729296074416
30
0
41
1
10
18.5088891629104
20
3.35898583436389
30
0
41
1
10
18.8967133469305
20
3.35872911808454
30
0
41
1
10
19.1552852962445
20
3.35156215548955
30
0
41
1
10
19.6714736774621
20
3.32328391502509
30
0
41
1
10
19.9291332710316
20
3.3020706449625
30
0
41
1
10
20.4454613055019
20
3.2461890462171
30
0
41
1
10
20.7041102782756
20
3.21162956740875
30
0
41
1
10
21.2212442615087
20
3.12832982139042
30
0
41
1
10
21.4803578643269
20
3.07995110445688
30
0
41
1
10
22.0006744400434
20
2.97061324532882
30
0
41
1
10
22.2616942150333
20
2.90896989885968
30
0
41
1
10
22.7842358086972
20
2.77337232217363
30
0
41
1
10
23.0448068501477
20
2.70015860202472
30
0
41
1
10
23.5642688642027
20
2.54280502183596
30
0
41
1
10
23.8227605500786
20
2.45804446458291
30
0
41
1
10
24.3399341042884
20
2.28029886336086
30
0
41
1
10
24.5982911356198
20
2.18689729196424
30
0
41
1
10
25.1140561085417
20
1.99022232835108
30
0
41
1
10
25.3718695381636
20
1.88758458279725
30
0
41
1
10
25.8883982369244
20
1.67561018369611
30
0
41
1
10
26.1466157018817
20
1.56538132177883
30
0
41
1
10
26.6639391130796
20
1.33807091015339
30
0
41
1
10
26.9235776851704
20
1.22206782333825
30
0
41
1
10
27.443890648643
20
0.98346427411883
30
0
41
1
10
27.7051774630156
20
0.860421849391741
30
0
41
1
10
28.2274166027088
20
0.613011833386196
30
0
41
1
10
28.4878616901652
20
0.488902134079382
30
0
41
1
10
29.0063613479382
20
0.237579009777221
30
0
41
1
10
29.2649113922059
20
0.111452301661245
30
0
41
1
10
29.7819114469926
20
-0.138998840959573
30
0
41
1
10
30.0397410151812
20
-0.264645401803165
30
0
41
1
10
30.5552436851253
20
-0.514258173144526
30
0
41
1
10
30.8132329046284
20
-0.637569466272794
30
0
41
1
10
31.3294890187265
20
-0.881633196793985
30
0
41
1
10
31.5872975206794
20
-1.00331525310784
30
0
41
1
10
32.1049085791353
20
-1.24056726876665
30
0
41
1
10
32.3644690688689
20
-1.35664726871488
30
0
41
1
10
32.8844832859704
20
-1.58490425989501
30
0
41
1
10
33.1458333830815
20
-1.69651218483892
30
0
41
1
10
33.6686258373026
20
-1.91081925613656
30
0
41
1
10
33.9293697627456
20
-2.01430717970879
30
0
41
1
10
34.4503090114629
20
-2.21258283977079
30
0
41
1
10
34.7111384752455
20
-2.30639244143112
30
0
41
1
10
35.2325844071719
20
-2.48488073605759
30
0
41
1
10
35.4931167915355
20
-2.56960439041731
30
0
41
1
10
36.0158588821585
20
-2.72708596793694
30
0
41
1
10
36.2772575033783
20
-2.79967903302548
30
0
41
1
10
36.7967869570407
20
-2.9333153310034
30
0
41
1
10
37.0556934292005
20
-2.99388435469393
30
0
41
1
10
37.573259848834
20
-3.10142591914337
30
0
41
1
10
37.8312872582787
20
-3.14898880919387
30
0
41
1
10
38.3469394372874
20
-3.23071352824249
30
0
41
1
10
38.6048939208103
20
-3.26469867184576
30
0
41
1
10
39.1209125490479
20
-3.31916760755578
30
0
41
1
10
39.37849865917
20
-3.33976402883096
30
0
41
1
10
39.877347887441
20
-3.36569925924599
30
0
41
1
10
40.1183094040966
20
-3.37215731082736
30
0
41
1
10
40.3595803543406
20
-3.37248453475399
30
0
0
SPLINE
5
B9
100
AcDbEntity
8
1
62
256
6
ByLayer
370
18
48
1
60
0
100
AcDbSpline
70
4
71
3
72
36
73
32
40
0
40
0
40
0
40
0
40
0.0052908435079002
40
0.0052908435079002
40
0.0790084703124386
40
0.0790084703124386
40
0.152726097116977
40
0.152726097116977
40
0.300161350726054
40
0.300161350726054
40
0.447596604335131
40
0.447596604335131
40
0.52131423113967
40
0.52131423113967
40
0.558173044541939
40
0.558173044541939
40
0.576602451243074
40
0.576602451243074
40
0.581209802918357
40
0.581209802918357
40
0.585817154593641
40
0.585817154593641
40
0.595031857944208
40
0.595031857944208
40
0.742467111553285
40
0.742467111553285
40
0.889902365162362
40
0.889902365162362
40
0.963619991966901
40
0.963619991966901
40
1
40
1
40
1
40
1
41
1
10
17.0786873767691
20
3.27492747360782
30
0
41
1
10
17.0786873767691
20
3.26544812713223
30
0
41
1
10
17.0786873767691
20
3.25597360261503
30
0
41
1
10
17.0786873767691
20
3.11456177469194
30
0
41
1
10
17.0786873767692
20
2.98355878289638
30
0
41
1
10
17.0786873767692
20
2.72341581191273
30
0
41
1
10
17.0786873767692
20
2.59386849841687
30
0
41
1
10
17.0786873767692
20
2.21080640905433
30
0
41
1
10
17.0786873767692
20
1.96670414779817
30
0
41
1
10
17.0786873767692
20
1.49909122169572
30
0
41
1
10
17.0786873767692
20
1.27559522914339
30
0
41
1
10
17.0786873767692
20
0.955627206925527
30
0
41
1
10
17.0786873767691
20
0.85142760465763
30
0
41
1
10
17.0786873767691
20
0.700533827568023
30
0
41
1
10
17.0786873767692
20
0.651071628649845
30
0
41
1
10
17.0786873767692
20
0.578125361989891
30
0
41
1
10
17.0786873767692
20
0.554025053757442
30
0
41
1
10
17.0786873767692
20
0.524176099156449
30
0
41
1
10
17.0786873767691
20
0.51793735316619
30
0
41
1
10
17.0786873767691
20
0.507952981527723
30
0
41
1
10
17.0786873767692
20
0.504073825300054
30
0
41
1
10
17.0786873767692
20
0.495838500316012
30
0
41
1
10
17.0786873767692
20
0.49657650004707
30
0
41
1
10
17.0786873767692
20
0.486052382598615
30
0
41
1
10
17.0786873767692
20
0.498862461449079
30
0
41
1
10
17.0786873767692
20
0.570311896153726
30
0
41
1
10
17.0786873767692
20
0.628745877781626
30
0
41
1
10
17.0786873767692
20
0.753291325317008
30
0
41
1
10
17.0786873767692
20
0.801075170548899
30
0
41
1
10
17.0786873767692
20
0.880533546919168
30
0
41
1
10
17.0786873767691
20
0.908155924072645
30
0
41
1
10
17.0786873767691
20
0.937154800012166
30
0
0
SPLINE
5
BA
100
AcDbEntity
8
1
62
256
6
ByLayer
370
18
48
1
60
0
100
AcDbSpline
70
4
71
3
72
8
73
4
40
0
40
0
40
0
40
0
40
1
40
1
40
1
40
1
41
1
10
42.9996944476343
20
-0.0401824817097349
30
0
41
1
10
43.000102047629
20
-0.0133738185380707
30
0
41
1
10
43.0001015942316
20
0.0134036393734505
30
0
41
1
10
42.9996944476347
20
0.0401824816833596
30
0
0
SPLINE
5
BB
100
AcDbEntity
8
1
62
256
6
ByLayer
370
18
48
1
60
0
100
AcDbSpline
70
4
71
3
72
8
73
4
40
0
40
0
40
0
40
0
40
1
40
1
40
1
40
1
41
1
10
41.8753397579165
20
-3.29734853995649
30
0
41
1
10
41.8662419310117
20
-3.32086748255549
30
0
41
1
10
41.8571299610254
20
-3.34436701945074
30
0
41
1
10
41.8480037089498
20
-3.36784707017904
30
0
0
SPLINE
5
BC
100
AcDbEntity
8
1
62
256
6
ByLayer
370
18
48
1
60
0
100
AcDbSpline
70
4
71
3
72
24
73
20
40
0
40
0
40
0
40
0
40
0.124999999999989
40
0.124999999999989
40
0.187499999999986
40
0.187499999999986
40
0.249999999999983
40
0.249999999999983
40
0.374999999999986
40
0.374999999999986
40
0.499999999999989
40
0.499999999999989
40
0.624999999999992
40
0.624999999999992
40
0.749999999999994
40
0.749999999999994
40
0.874999999999997
40
0.874999999999997
40
1
40
1
40
1
40
1
41
1
10
42.4058775974633
20
-0.915661619770617
30
0
41
1
10
42.4091289570049
20
-0.960049274622918
30
0
41
1
10
42.4055571690405
20
-1.01331389861426
30
0
41
1
10
42.3905445672289
20
-1.09786699106533
30
0
41
1
10
42.3838707452255
20
-1.12737962946105
30
0
41
1
10
42.367992727305
20
-1.18613843506122
30
0
41
1
10
42.3588401083018
20
-1.21535879158938
30
0
41
1
10
42.3280342424086
20
-1.30260136166279
30
0
41
1
10
42.3036990412361
20
-1.35819243014978
30
0
41
1
10
42.2516214748217
20
-1.45830282242872
30
0
41
1
10
42.2239112852882
20
-1.50277159776812
30
0
41
1
10
42.1680147897287
20
-1.57760377491948
30
0
41
1
10
42.1395906849645
20
-1.60827201498591
30
0
41
1
10
42.083957772922
20
-1.65443270178099
30
0
41
1
10
42.0566616136316
20
-1.67008916372637
30
0
41
1
10
42.0039461228921
20
-1.6860827097565
30
0
41
1
10
41.9791129009828
20
-1.68636950200707
30
0
41
1
10
41.93221122452
20
-1.67110921953469
30
0
41
1
10
41.910670619098
20
-1.65554834765223
30
0
41
1
10
41.8919563180739
20
-1.63204357922649
30
0
0
SPLINE
5
BD
100
AcDbEntity
8
1
62
256
6
ByLayer
370
18
48
1
60
0
100
AcDbSpline
70
4
71
3
72
8
73
4
40
0
40
0
40
0
40
0
40
1
40
1
40
1
40
1
41
1
10
42.9180856260581
20
0.682516288313394
30
0
41
1
10
42.957448003595
20
0.491033425831176
30
0
41
1
10
42.9839222588232
20
0.300144465597128
30
0
41
1
10
42.9908754190048
20
0.110155064038651
30
0
0
SPLINE
5
BE
100
AcDbEntity
8
1
62
256
6
ByLayer
370
18
48
1
60
0
100
AcDbSpline
70
4
71
3
72
8
73
4
40
0
40
0
40
0
40
0
40
1
40
1
40
1
40
1
41
1
10
42.9908754190049
20
-0.110155064038594
30
0
41
1
10
42.9916120294754
20
-0.090027786822958
30
0
41
1
10
42.9948200197846
20
-0.0660518263736947
30
0
41
1
10
42.9996944476259
20
-0.0401824817307386
30
0
0
SPLINE
5
BF
100
AcDbEntity
8
1
62
256
6
ByLayer
370
18
48
1
60
0
100
AcDbSpline
70
4
71
3
72
20
73
16
40
0
40
0
40
0
40
0
40
0.0684632261807398
40
0.0684632261807398
40
0.431405035430759
40
0.431405035430759
40
0.522140487743262
40
0.522140487743262
40
0.612875940055765
40
0.612875940055765
40
0.794346844680769
40
0.794346844680769
40
0.975817749305772
40
0.975817749305772
40
1
40
1
40
1
40
1
41
1
10
25.3035273314112
20
2.27238201431084
30
0
41
1
10
25.5542862704302
20
2.18615933595279
30
0
41
1
10
25.805211018812
20
2.09537733102977
30
0
41
1
10
27.3867823901077
20
1.49790552274672
30
0
41
1
10
28.6954249954343
20
0.892573617229402
30
0
41
1
10
30.3528112368815
20
0.106176046532596
30
0
41
1
10
30.6862433144119
20
-0.0530553247801606
30
0
41
1
10
31.3489175289181
20
-0.368019364081277
30
0
41
1
10
31.6788119815561
20
-0.524083480028281
30
0
41
1
10
32.6659231291682
20
-0.984362864142611
30
0
41
1
10
33.3206730765452
20
-1.28042343921521
30
0
41
1
10
34.6329220263098
20
-1.83220935990909
30
0
41
1
10
35.290530408835
20
-2.08768182498284
30
0
41
1
10
36.0428394179057
20
-2.34375795119715
30
0
41
1
10
36.1314773379808
20
-2.37335875341543
30
0
41
1
10
36.220098533711
20
-2.40236478587616
30
0
0
SPLINE
5
C0
100
AcDbEntity
8
1
62
256
6
ByLayer
370
13
48
1
60
0
100
AcDbSpline
70
4
71
3
72
14
73
10
40
0
40
0
40
0
40
0
40
0.0407232504637436
40
0.0407232504637436
40
0.12793022769431
40
0.12793022769431
40
0.302344182155447
40
0.302344182155447
40
1
40
1
40
1
40
1
41
1
10
36.2200985338375
20
-2.40236478591757
30
0
41
1
10
36.29773738517
20
-2.42777625800804
30
0
41
1
10
36.3753634004316
20
-2.45273123946643
30
0
41
1
10
36.6187750945238
20
-2.52951425555767
30
0
41
1
10
36.7842815894313
20
-2.57958610166483
30
0
41
1
10
37.2797631764222
20
-2.72274711283558
30
0
41
1
10
37.6086720410332
20
-2.80884193807927
30
0
41
1
10
39.2493103482326
20
-3.19009127408151
30
0
41
1
10
40.5496894672339
20
-3.33582535487383
30
0
41
1
10
41.8753397579161
20
-3.29734853995649
30
0
0
SPLINE
5
C1
100
AcDbEntity
8
1
62
256
6
ByLayer
370
18
48
1
60
0
100
AcDbSpline
70
4
71
3
72
8
73
4
40
0
40
0
40
0
40
0
40
1
40
1
40
1
40
1
41
1
10
42.8853795516868
20
0.78821976243421
30
0
41
1
10
42.8972252478943
20
0.753002207956172
30
0
41
1
10
42.9081149656432
20
0.717767495697331
30
0
41
1
10
42.9180856260581
20
0.682516288313366
30
0
0
SPLINE
5
C2
100
AcDbEntity
8
1
62
256
6
ByLayer
370
18
48
1
60
0
100
AcDbSpline
70
4
71
3
72
8
73
4
40
0
40
0
40
0
40
0
40
1
40
1
40
1
40
1
41
1
10
42.9180856260583
20
-0.682516288312968
30
0
41
1
10
42.9573147836772
20
-0.491681489611807
30
0
41
1
10
42.983895082872
20
-0.300887026184114
30
0
41
1
10
42.9908754190048
20
-0.110155064038679
30
0
0
SPLINE
5
C3
100
AcDbEntity
8
1
62
256
6
ByLayer
370
18
48
1
60
0
100
AcDbSpline
70
4
71
3
72
52
73
48
40
0
40
0
40
0
40
0
40
0.0232366252637943
40
0.0232366252637943
40
0.0608044473690324
40
0.0608044473690324
40
0.0983722694742704
40
0.0983722694742704
40
0.135940091579509
40
0.135940091579509
40
0.173507913684747
40
0.173507913684747
40
0.211075735789985
40
0.211075735789985
40
0.248643557895223
40
0.248643557895223
40
0.323779202105699
40
0.323779202105699
40
0.361347024210938
40
0.361347024210938
40
0.398914846316177
40
0.398914846316177
40
0.474050490526655
40
0.474050490526655
40
0.511618312631894
40
0.511618312631894
40
0.549186134737133
40
0.549186134737133
40
0.624321778947611
40
0.624321778947611
40
0.66188960105285
40
0.66188960105285
40
0.68067351210547
40
0.68067351210547
40
0.69945742315809
40
0.69945742315809
40
0.774593067368568
40
0.774593067368568
40
0.812160889473806
40
0.812160889473806
40
0.849728711579045
40
0.849728711579045
40
0.924864355789522
40
0.924864355789522
40
0.962432177894761
40
0.962432177894761
40
1
40
1
40
1
40
1
41
1
10
35.0214878352957
20
-2.40271009551969
30
0
41
1
10
34.8827299608506
20
-2.44479321574423
30
0
41
1
10
34.7439616653423
20
-2.48546750602895
30
0
41
1
10
34.3806707665893
20
-2.58830450660952
30
0
41
1
10
34.1560172133115
20
-2.64803481616207
30
0
41
1
10
33.7067263198693
20
-2.75970598835932
30
0
41
1
10
33.4814817714023
20
-2.81095392539973
30
0
41
1
10
33.031866929048
20
-2.90284811553124
30
0
41
1
10
32.8073437367906
20
-2.94444990139814
30
0
41
1
10
32.3586724147554
20
-3.0195838078904
30
0
41
1
10
32.134412324241
20
-3.05273482280467
30
0
41
1
10
31.6855797046362
20
-3.10890919994213
30
0
41
1
10
31.4610029932584
20
-3.13133735557918
30
0
41
1
10
31.0114904582773
20
-3.16561001993853
30
0
41
1
10
30.7861575012384
20
-3.17856291499334
30
0
41
1
10
30.1115749998181
20
-3.2027047714241
30
0
41
1
10
29.6633883745893
20
-3.19961868833977
30
0
41
1
10
28.9898835987286
20
-3.1618327015826
30
0
41
1
10
28.7654155377531
20
-3.14447923770734
30
0
41
1
10
28.3159446357707
20
-3.09961186985353
30
0
41
1
10
28.0905039622315
20
-3.07186646993392
30
0
41
1
10
27.4156703878515
20
-2.97625743809226
30
0
41
1
10
26.9672858388135
20
-2.89424378570098
30
0
41
1
10
26.2936181491693
20
-2.74241898769384
30
0
41
1
10
26.0691265664658
20
-2.68697685989889
30
0
41
1
10
25.6195400660642
20
-2.56896979575333
30
0
41
1
10
25.3941549888875
20
-2.50614088328814
30
0
41
1
10
24.7193725263074
20
-2.30536515865754
30
0
41
1
10
24.2707692063683
20
-2.15523253107335
30
0
41
1
10
23.5972323457684
20
-1.91308096935114
30
0
41
1
10
23.3729052154339
20
-1.82887996671116
30
0
41
1
10
23.0357348537457
20
-1.69865381556264
30
0
41
1
10
22.9232627700605
20
-1.65459248254334
30
0
41
1
10
22.6980660282771
20
-1.56485172545334
30
0
41
1
10
22.5854101151954
20
-1.51911024803329
30
0
41
1
10
22.022899350066
20
-1.28824507817754
30
0
41
1
10
21.5741455366735
20
-1.09594844874727
30
0
41
1
10
20.9006125648332
20
-0.798136702306692
30
0
41
1
10
20.6762145944339
20
-0.696798777797085
30
0
41
1
10
20.226448766049
20
-0.493170292256252
30
0
41
1
10
20.0010399602541
20
-0.390340169346445
30
0
41
1
10
19.3256574248435
20
-0.0802109338359571
30
0
41
1
10
18.8765943305543
20
0.127460171607368
30
0
41
1
10
18.2032140679238
20
0.436534112370765
30
0
41
1
10
17.978921264666
20
0.539403735492016
30
0
41
1
10
17.529199788419
20
0.741627975396426
30
0
41
1
10
17.3039928243863
20
0.841554037261318
30
0
41
1
10
17.0786873767691
20
0.940866571361994
30
0
0
SPLINE
5
C4
100
AcDbEntity
8
1
62
256
6
ByLayer
370
18
48
1
60
0
100
AcDbSpline
70
4
71
3
72
14
73
10
40
0
40
0
40
0
40
0
40
0.25
40
0.25
40
0.5
40
0.5
40
0.75
40
0.75
40
1
40
1
40
1
40
1
41
1
10
41.7285921183404
20
0.727397850731279
30
0
41
1
10
41.7275431226814
20
0.742728238258451
30
0
41
1
10
41.7305795982838
20
0.758299682627865
30
0
41
1
10
41.7456420856969
20
0.785389022468706
30
0
41
1
10
41.75764936696
20
0.796728627146024
30
0
41
1
10
41.7847605902727
20
0.812786921582642
30
0
41
1
10
41.8000819174065
20
0.817962902896625
30
0
41
1
10
41.8309009029012
20
0.82400091172002
30
0
41
1
10
41.846749389998
20
0.824970816539974
30
0
41
1
10
41.8625367963342
20
0.824420439197638
30
0
0
SPLINE
5
C5
100
AcDbEntity
8
1
62
256
6
ByLayer
370
18
48
1
60
0
100
AcDbSpline
70
4
71
3
72
44
73
40
40
0
40
0
40
0
40
0
40
0.0447607382593132
40
0.0447607382593132
40
0.0895214765186264
40
0.0895214765186264
40
0.179042953037253
40
0.179042953037253
40
0.268564429555879
40
0.268564429555879
40
0.313325167815192
40
0.313325167815192
40
0.335705536944848
40
0.335705536944848
40
0.358085906074504
40
0.358085906074504
40
0.447607382593126
40
0.447607382593126
40
0.537128859111748
40
0.537128859111748
40
0.559509228241404
40
0.559509228241404
40
0.58188959737106
40
0.58188959737106
40
0.626650335630372
40
0.626650335630372
40
0.716171812148997
40
0.716171812148997
40
0.805693288667622
40
0.805693288667622
40
0.828073657797278
40
0.828073657797278
40
0.850454026926934
40
0.850454026926934
40
0.895214765186246
40
0.895214765186246
40
0.984736241704871
40
0.984736241704871
40
1
40
1
40
1
40
1
41
1
10
41.8480037089498
20
-3.36784707017904
30
0
41
1
10
41.5154266011401
20
-3.37696522347832
30
0
41
1
10
41.1832038431228
20
-3.37436105778974
30
0
41
1
10
40.5182448219899
20
-3.34591605747062
30
0
41
1
10
40.1847448580231
20
-3.31997873285945
30
0
41
1
10
39.1879326240726
20
-3.20826829610601
30
0
41
1
10
38.529475815082
20
-3.08918398430225
30
0
41
1
10
37.2149938030874
20
-2.77211786735859
30
0
41
1
10
36.5587614775516
20
-2.57434896868645
30
0
41
1
10
35.5687046355278
20
-2.22753874805525
30
0
41
1
10
35.2377055970061
20
-2.10362131101618
30
0
41
1
10
34.7387402860576
20
-1.90662095558693
30
0
41
1
10
34.5719943730944
20
-1.83907948872638
30
0
41
1
10
34.2398470841961
20
-1.7014812205619
30
0
41
1
10
34.0741563559724
20
-1.63131215784855
30
0
41
1
10
33.2472284790239
20
-1.27440230762937
30
0
41
1
10
32.5903648894765
20
-0.969855219626083
30
0
41
1
10
31.2762201482886
20
-0.342750841657249
30
0
41
1
10
30.6189129745602
20
-0.0202378500534905
30
0
41
1
10
29.7905823934134
20
0.380733036358293
30
0
41
1
10
29.6245779753705
20
0.460809799472827
30
0
41
1
10
29.2917595492754
20
0.620451067097889
30
0
41
1
10
29.1250634830979
20
0.69995308425942
30
0
41
1
10
28.6269272507494
20
0.935465602744927
30
0
41
1
10
28.296353678224
20
1.08909362121756
30
0
41
1
10
27.3071471691683
20
1.5359960564393
30
0
41
1
10
26.6509707494787
20
1.81517681121406
30
0
41
1
10
25.3356609321924
20
2.31894642379106
30
0
41
1
10
24.6763056424941
20
2.54316311227467
30
0
41
1
10
23.8438948156066
20
2.7785325385851
30
0
41
1
10
23.677247515356
20
2.82325745627327
30
0
41
1
10
23.3451674628477
20
2.90740645448349
30
0
41
1
10
23.1794862342825
20
2.94690187035906
30
0
41
1
10
22.6832759824388
20
3.05750709121779
30
0
41
1
10
22.3537224219444
20
3.12086235555307
30
0
41
1
10
21.3665493587384
20
3.2782637421779
30
0
41
1
10
20.7103224432457
20
3.33964410666144
30
0
41
1
10
19.9389944356236
20
3.35816479592185
30
0
41
1
10
19.8265468516177
20
3.35953760707952
30
0
41
1
10
19.7139868507514
20
3.35957810977538
30
0
0
SPLINE
5
C6
100
AcDbEntity
8
1
62
256
6
ByLayer
370
18
48
1
60
0
100
AcDbSpline
70
4
71
3
72
8
73
4
40
0
40
0
40
0
40
0
40
1
40
1
40
1
40
1
41
1
10
42.8895493454883
20
-0.802699637293472
30
0
41
1
10
42.8996837569817
20
-0.762246900355763
30
0
41
1
10
42.9092089328097
20
-0.722208271979639
30
0
41
1
10
42.9180856260582
20
-0.682516288312883
30
0
0
SPLINE
5
C7
100
AcDbEntity
8
1
62
256
6
ByLayer
370
18
48
1
60
0
100
AcDbSpline
70
4
71
3
72
8
73
4
40
0
40
0
40
0
40
0
40
1
40
1
40
1
40
1
41
1
10
42.9644135387645
20
-0.0549067099329079
30
0
41
1
10
42.7859214623187
20
-0.34973719581518
30
0
41
1
10
42.5987582107424
20
-0.635641995055352
30
0
41
1
10
42.4058775974633
20
-0.915661619770617
30
0
0
SPLINE
5
C8
100
AcDbEntity
8
1
62
256
6
ByLayer
370
13
48
1
60
0
100
AcDbSpline
70
4
71
3
72
8
73
4
40
0
40
0
40
0
40
0
40
1
40
1
40
1
40
1
41
1
10
10.2292651189863
20
-0.536137391052762
30
0
41
1
10
10.1918874200178
20
-0.525961972481952
30
0
41
1
10
10.1554255042657
20
-0.517535181327332
30
0
41
1
10
10.1214126081858
20
-0.511039028800212
30
0
0
SPLINE
5
C9
100
AcDbEntity
8
1
62
256
6
ByLayer
370
18
48
1
60
0
100
AcDbSpline
70
4
71
3
72
16
73
12
40
0
40
0
40
0
40
0
40
0.269305708625008
40
0.269305708625008
40
0.403958562937511
40
0.403958562937511
40
0.538611417250015
40
0.538611417250015
40
0.807917125875022
40
0.807917125875022
40
1
40
1
40
1
40
1
41
1
10
41.309913081475
20
-2.38893869098121
30
0
41
1
10
41.3545110703135
20
-2.52514778175336
30
0
41
1
10
41.4008334293298
20
-2.64475466306737
30
0
41
1
10
41.4722176223868
20
-2.80031244365785
30
0
41
1
10
41.4963368522214
20
-2.84816033763172
30
0
41
1
10
41.5451910901558
20
-2.93567870973993
30
0
41
1
10
41.5699662540525
20
-2.97535189395407
30
0
41
1
10
41.6436714419016
20
-3.07960276104978
30
0
41
1
10
41.6924716949749
20
-3.13051916997776
30
0
41
1
10
41.775722295014
20
-3.18617516430359
30
0
41
1
10
41.8104072006672
20
-3.19986668500448
30
0
41
1
10
41.844707250344
20
-3.20365616525663
30
0
0
SPLINE
5
CA
100
AcDbEntity
8
1
62
256
6
ByLayer
370
18
48
1
60
0
100
AcDbSpline
70
4
71
3
72
24
73
20
40
0
40
0
40
0
40
0
40
0.125
40
0.125
40
0.25
40
0.25
40
0.375
40
0.375
40
0.5
40
0.5
40
0.625
40
0.625
40
0.75
40
0.75
40
0.875
40
0.875
40
0.9375
40
0.9375
40
1
40
1
40
1
40
1
41
1
10
17.0786873767692
20
0.940866571361994
30
0
41
1
10
16.7791356288389
20
1.06404537888059
30
0
41
1
10
16.4817481952181
20
1.18894045912282
30
0
41
1
10
15.8894291500331
20
1.43560873247685
30
0
41
1
10
15.5939400980359
20
1.55756863745069
30
0
41
1
10
15.0067436923802
20
1.79623001443463
30
0
41
1
10
14.7154536389833
20
1.91234767589884
30
0
41
1
10
14.1365459310681
20
2.13418507863983
30
0
41
1
10
13.8489283047469
20
2.23982467285322
30
0
41
1
10
13.2765591944429
20
2.43873109178924
30
0
41
1
10
12.9918253483942
20
2.53185517593616
30
0
41
1
10
12.4251193817123
20
2.70388068463359
30
0
41
1
10
12.1429867356387
20
2.7838626336596
30
0
41
1
10
11.5822530476528
20
2.92745535294492
30
0
41
1
10
11.303587619583
20
2.99116515573539
30
0
41
1
10
10.8903455855278
20
3.07058058729191
30
0
41
1
10
10.7538069536274
20
3.0942399718443
30
0
41
1
10
10.4871474089635
20
3.13433738868972
30
0
41
1
10
10.3566161959279
20
3.15087373152883
30
0
41
1
10
10.2302148095584
20
3.16290572259663
30
0
0
SPLINE
5
CB
100
AcDbEntity
8
1
62
256
6
ByLayer
370
18
48
1
60
0
100
AcDbSpline
70
4
71
3
72
14
73
10
40
0
40
0
40
0
40
0
40
0.189391687280441
40
0.189391687280441
40
0.378783374560881
40
0.378783374560881
40
0.757566749121756
40
0.757566749121756
40
1
40
1
40
1
40
1
41
1
10
10.2302148095383
20
-3.16290572259854
30
0
41
1
10
10.3559193109431
20
-3.15094006714591
30
0
41
1
10
10.4854370979798
20
-3.13454792280913
30
0
41
1
10
10.7495758699508
20
-3.09492180413042
30
0
41
1
10
10.8842307675593
20
-3.07166281426348
30
0
41
1
10
11.2939441723418
20
-2.99319695419658
30
0
41
1
10
11.5753980863389
20
-2.92910662486693
30
0
41
1
10
12.0373465589005
20
-2.81097996809058
30
0
41
1
10
12.2182703340165
20
-2.76151097286697
30
0
41
1
10
12.3997081761445
20
-2.7092500454028
30
0
0
SPLINE
5
CC
100
AcDbEntity
8
1
62
256
6
ByLayer
370
18
48
1
60
0
100
AcDbSpline
70
4
71
3
72
8
73
4
40
0
40
0
40
0
40
0
40
1
40
1
40
1
40
1
41
1
10
41.9790700643001
20
-3.28271895908509
30
0
41
1
10
41.9366244329347
20
-3.32812749146365
30
0
41
1
10
41.8931025049473
20
-3.35653236112995
30
0
41
1
10
41.8480037089498
20
-3.3678470701791
30
0
0
SPLINE
5
CD
100
AcDbEntity
8
1
62
256
6
ByLayer
370
18
48
1
60
0
100
AcDbSpline
70
4
71
3
72
28
73
24
40
0
40
0
40
0
40
0
40
0.0625000000000023
40
0.0625000000000023
40
0.125000000000005
40
0.125000000000005
40
0.250000000000007
40
0.250000000000007
40
0.312500000000007
40
0.312500000000007
40
0.375000000000006
40
0.375000000000006
40
0.437500000000006
40
0.437500000000006
40
0.500000000000005
40
0.500000000000005
40
0.625000000000004
40
0.625000000000004
40
0.750000000000002
40
0.750000000000002
40
0.875000000000001
40
0.875000000000001
40
1
40
1
40
1
40
1
41
1
10
38.6468039700549
20
1.02562408411288
30
0
41
1
10
38.647191739857
20
0.932233709623773
30
0
41
1
10
38.6537582161992
20
0.837951627240869
30
0
41
1
10
38.6789596155187
20
0.647645750182988
30
0
41
1
10
38.6978241887812
20
0.550810972030405
30
0
41
1
10
38.7707270556114
20
0.264261779744146
30
0
41
1
10
38.8400587050825
20
0.0796075592781165
30
0
41
1
10
38.9689634073197
20
-0.189709776586312
30
0
41
1
10
39.0158820267272
20
-0.277587626404937
30
0
41
1
10
39.1150905094095
20
-0.447355068376851
30
0
41
1
10
39.1676003231498
20
-0.52970020051265
30
0
41
1
10
39.2777292413854
20
-0.689926494605174
30
0
41
1
10
39.3353515338351
20
-0.767804871256743
30
0
41
1
10
39.4552444488713
20
-0.919500394125379
30
0
41
1
10
39.51777087115
20
-0.993575920391862
30
0
41
1
10
39.7097570535897
20
-1.20802374054494
30
0
41
1
10
39.8431748525067
20
-1.34046049253982
30
0
41
1
10
40.1183612272859
20
-1.5891333956535
30
0
41
1
10
40.2601599516075
20
-1.70531105842329
30
0
41
1
10
40.550853450089
20
-1.92389996773832
30
0
41
1
10
40.7002290941898
20
-2.02657396341158
30
0
41
1
10
41.0024942694942
20
-2.21784268465686
30
0
41
1
10
41.1554034490102
20
-2.30652298866875
30
0
41
1
10
41.309913081475
20
-2.38893869098121
30
0
0
SPLINE
5
CE
100
AcDbEntity
8
1
62
256
6
ByLayer
370
18
48
1
60
0
100
AcDbSpline
70
4
71
3
72
10
73
6
40
0
40
0
40
0
40
0
40
0.5
40
0.5
40
1
40
1
40
1
40
1
41
1
10
41.8625367963343
20
0.82442043919599
30
0
41
1
10
42.0330031099043
20
0.818477677312188
30
0
41
1
10
42.2034747847377
20
0.812469909025907
30
0
41
1
10
42.5444421767392
20
0.800162854283172
30
0
41
1
10
42.7149382625146
20
0.793859098388964
30
0
41
1
10
42.885379551683
20
0.788219762434153
30
0
0
SPLINE
5
CF
100
AcDbEntity
8
1
62
256
6
ByLayer
370
18
48
1
60
0
100
AcDbSpline
70
4
71
3
72
8
73
4
40
0
40
0
40
0
40
0
40
1
40
1
40
1
40
1
41
1
10
41.8480037089498
20
3.36784707017904
30
0
41
1
10
41.7146640425852
20
3.37150279840037
30
0
41
1
10
41.5813730579398
20
3.37327446150076
30
0
41
1
10
41.4480913686467
20
3.37316806534545
30
0
0
SPLINE
5
D0
100
AcDbEntity
8
1
62
256
6
ByLayer
370
18
48
1
60
0
100
AcDbSpline
70
4
71
3
72
22
73
18
40
0
40
0
40
0
40
0
40
0.151427616678649
40
0.151427616678649
40
0.236284855010784
40
0.236284855010784
40
0.32114209334292
40
0.32114209334292
40
0.49085657000719
40
0.49085657000719
40
0.66057104667146
40
0.66057104667146
40
0.745428285003595
40
0.745428285003595
40
0.83028552333573
40
0.83028552333573
40
1
40
1
40
1
40
1
41
1
10
21.8125392108299
20
-3.20565007981702
30
0
41
1
10
21.22574127867
20
-3.290891028787
30
0
41
1
10
20.6398947486342
20
-3.34132045919173
30
0
41
1
10
19.7220993546537
20
-3.36338099748738
30
0
41
1
10
19.3916632140176
20
-3.35990162837626
30
0
41
1
10
18.7280274910655
20
-3.32975159029738
30
0
41
1
10
18.3939068077831
20
-3.30292609763311
30
0
41
1
10
17.3983013840435
20
-3.18922542492209
30
0
41
1
10
16.740440016775
20
-3.06884713299314
30
0
41
1
10
15.4252753547198
20
-2.75008529938412
30
0
41
1
10
14.7684803656423
20
-2.5511878888953
30
0
41
1
10
13.7763155168353
20
-2.20329373279614
30
0
41
1
10
13.44434152758
20
-2.07893837942373
30
0
41
1
10
12.7775419825011
20
-1.81548780118047
30
0
41
1
10
12.4451648348765
20
-1.6773872083366
30
0
41
1
10
11.4491336967276
20
-1.24765838714455
30
0
41
1
10
10.7863567192345
20
-0.94101889133222
30
0
41
1
10
10.1199319442199
20
-0.623721244847388
30
0
0
SPLINE
5
D1
100
AcDbEntity
8
1
62
256
6
ByLayer
370
18
48
1
60
0
100
AcDbSpline
70
4
71
3
72
14
73
10
40
0
40
0
40
0
40
0
40
0.25
40
0.25
40
0.5
40
0.5
40
0.75
40
0.75
40
1
40
1
40
1
40
1
41
1
10
10.2302148086764
20
3.16290572268059
30
0
41
1
10
10.2079334077922
20
3.1650266615697
30
0
41
1
10
10.1839314973758
20
3.16963318277973
30
0
41
1
10
10.1335156857516
20
3.18678070808821
30
0
41
1
10
10.1071168075153
20
3.19968027961545
30
0
41
1
10
10.0602521059889
20
3.23256464608397
30
0
41
1
10
10.0405505132461
20
3.25192423516631
30
0
41
1
10
10.0109776179192
20
3.29001740732383
30
0
41
1
10
10.0003681811088
20
3.30932330307411
30
0
41
1
10
9.99304993544882
20
3.32776626094523
30
0
0
SPLINE
5
D2
100
AcDbEntity
8
1
62
256
6
ByLayer
370
18
48
1
60
0
100
AcDbSpline
70
4
71
3
72
34
73
30
40
0
40
0
40
0
40
0
40
0.249999999999994
40
0.249999999999994
40
0.312499999999993
40
0.312499999999993
40
0.374999999999991
40
0.374999999999991
40
0.499999999999988
40
0.499999999999988
40
0.624999999999985
40
0.624999999999985
40
0.749999999999982
40
0.749999999999982
40
0.81249999999998
40
0.81249999999998
40
0.843749999999979
40
0.843749999999979
40
0.851562499999979
40
0.851562499999979
40
0.859374999999979
40
0.859374999999979
40
0.867187499999978
40
0.867187499999978
40
0.871093749999979
40
0.871093749999979
40
0.87499999999998
40
0.87499999999998
40
1
40
1
40
1
40
1
41
1
10
38.6468039700549
20
1.02562408411285
30
0
41
1
10
38.9229538588722
20
0.809746817635698
30
0
41
1
10
39.2099839818654
20
0.622922033390893
30
0
41
1
10
39.5841210765544
20
0.430377244484561
30
0
41
1
10
39.6598568002797
20
0.393857949483362
30
0
41
1
10
39.8111792173889
20
0.325846482225444
30
0
41
1
10
39.8869525899553
20
0.294248152807541
30
0
41
1
10
40.1146162839622
20
0.206827428706589
30
0
41
1
10
40.2668479538979
20
0.158331482071873
30
0
41
1
10
40.5723357975914
20
0.0833287703427175
30
0
41
1
10
40.7259672872709
20
0.0567699852393559
30
0
41
1
10
41.0328402533487
20
0.0296527186776814
30
0
41
1
10
41.183946866855
20
0.0291719400547663
30
0
41
1
10
41.4066021758891
20
0.0509291653653179
30
0
41
1
10
41.4802572321768
20
0.0619947494895996
30
0
41
1
10
41.588827464919
20
0.0847662755005274
30
0
41
1
10
41.6247082993684
20
0.0933850383517267
30
0
41
1
10
41.6691131683135
20
0.105496147337789
30
0
41
1
10
41.6780760651386
20
0.107679282655937
30
0
41
1
10
41.6957089014182
20
0.112900528273514
30
0
41
1
10
41.7043880148711
20
0.115928367548832
30
0
41
1
10
41.7191933639364
20
0.127277898485232
30
0
41
1
10
41.7250289917835
20
0.135603347056531
30
0
41
1
10
41.7282332947364
20
0.151470460728149
30
0
41
1
10
41.7285059159344
20
0.157184677305509
30
0
41
1
10
41.7293352434154
20
0.16838764872827
30
0
41
1
10
41.7297879180346
20
0.17397626816981
30
0
41
1
10
41.7434009576431
20
0.35884928328241
30
0
41
1
10
41.7412014352058
20
0.543120907025411
30
0
41
1
10
41.7285921183408
20
0.727397850731364
30
0
0
SPLINE
5
D3
100
AcDbEntity
8
SK1
62
256
6
ByLayer
370
18
48
1
60
0
100
AcDbSpline
70
4
71
3
72
8
73
4
40
0
40
0
40
0
40
0
40
1
40
1
40
1
40
1
41
1
10
-35.25
20
3.55686973864488
30
0
41
1
10
-35.5038946990288
20
3.18729719898249
30
0
41
1
10
-35.7559878577602
20
2.81693926785223
30
0
41
1
10
-36
20
2.44306488383791
30
0
0
SPLINE
5
D4
100
AcDbEntity
8
SK1
62
256
6
ByLayer
370
18
48
1
60
0
100
AcDbSpline
70
4
71
3
72
8
73
4
40
0
40
0
40
0
40
0
40
1
40
1
40
1
40
1
41
1
10
-36
20
1.27231252297548
30
0
41
1
10
-35.7560755449217
20
1.64605255308757
30
0
41
1
10
-35.5039401788319
20
2.01647863710679
30
0
41
1
10
-35.25
20
2.38611737778246
30
0
0
SPLINE
5
D5
100
AcDbEntity
8
SK1
62
256
6
ByLayer
370
18
48
1
60
0
100
AcDbSpline
70
4
71
3
72
14
73
10
40
0
40
0
40
0
40
0
40
0.125000000000001
40
0.125000000000001
40
0.250000000000001
40
0.250000000000001
40
0.500000000000001
40
0.500000000000001
40
1
40
1
40
1
40
1
41
1
10
-35.15
20
3.66362940759223
30
0
41
1
10
-35.15
20
3.66789345210592
30
0
41
1
10
-35.1517507934569
20
3.66925006690832
30
0
41
1
10
-35.1569069278761
20
3.66841125476117
30
0
41
1
10
-35.160234831946
20
3.66634412942688
30
0
41
1
10
-35.1714888412645
20
3.65735138462531
30
0
41
1
10
-35.1802429568046
20
3.64804596230673
30
0
41
1
10
-35.2083191353842
20
3.61529799075896
30
0
41
1
10
-35.2286409685639
20
3.58796023215567
30
0
41
1
10
-35.25
20
3.55686973864488
30
0
0
SPLINE
5
D6
100
AcDbEntity
8
SK1
62
256
6
ByLayer
370
18
48
1
60
0
100
AcDbSpline
70
4
71
3
72
14
73
10
40
0
40
0
40
0
40
0
40
0.5
40
0.5
40
0.75
40
0.75
40
0.875
40
0.875
40
1
40
1
40
1
40
1
41
1
10
-35.25
20
2.38611737778234
30
0
41
1
10
-35.2287404812745
20
2.41706301925282
30
0
41
1
10
-35.208362723075
20
2.45162948736018
30
0
41
1
10
-35.1802905070704
20
2.50925921471313
30
0
41
1
10
-35.1714466180788
20
2.52925867870957
30
0
41
1
10
-35.1602396792677
20
2.56034666432401
30
0
41
1
10
-35.1568594217207
20
2.57090998453009
30
0
41
1
10
-35.1517495297275
20
2.59144613886647
30
0
41
1
10
-35.15
20
2.60160608542549
30
0
41
1
10
-35.15
20
2.60995228281604
30
0
0
LINE
5
76
100
AcDbEntity
8
81
62
256
6
ByLayer
370
18
48
1
60
0
100
AcDbLine
10
43
20
0
30
0
11
48
21
0
31
0
39
0
210
0
220
0
230
1
0
LINE
5
77
100
AcDbEntity
8
1
62
256
6
ByLayer
370
18
48
1
60
0
100
AcDbLine
10
9.530869
20
3.35322
30
0
11
0.350219
21
3.347482
31
0
39
0
210
0
220
0
230
1
0
LINE
5
79
100
AcDbEntity
8
1
62
256
6
ByLayer
370
18
48
1
60
0
100
AcDbLine
10
19.700261
20
3.359576
30
0
11
18.620462
21
3.358901
31
0
39
0
210
0
220
0
230
1
0
LINE
5
7A
100
AcDbEntity
8
1
62
256
6
ByLayer
370
18
48
1
60
0
100
AcDbLine
10
41.450803
20
3.37317
30
0
11
40.369207
21
3.372494
31
0
39
0
210
0
220
0
230
1
0
LINE
5
7B
100
AcDbEntity
8
1
62
256
6
ByLayer
370
18
48
1
60
0
100
AcDbLine
10
40.369207
20
-3.372494
30
0
11
41.450908
21
-3.37317
31
0
39
0
210
0
220
0
230
1
0
LINE
5
7C
100
AcDbEntity
8
1
62
256
6
ByLayer
370
18
48
1
60
0
100
AcDbLine
10
18.620462
20
-3.358901
30
0
11
19.700308
21
-3.359576
31
0
39
0
210
0
220
0
230
1
0
LINE
5
7D
100
AcDbEntity
8
1
62
256
6
ByLayer
370
18
48
1
60
0
100
AcDbLine
10
0.350219
20
-3.347482
30
0
11
9.530869
21
-3.35322
31
0
39
0
210
0
220
0
230
1
0
LINE
5
7E
100
AcDbEntity
8
SK1
62
256
6
ByLayer
370
18
48
1
60
0
100
AcDbLine
10
-35.133975
20
4
30
0
11
-36
21
2.5
31
0
39
0
210
0
220
0
230
1
0
LINE
5
80
100
AcDbEntity
8
SK1
62
256
6
ByLayer
370
18
48
1
60
0
100
AcDbLine
10
-36
20
-2.5
30
0
11
-35.133975
21
-4
31
0
39
0
210
0
220
0
230
1
0
LINE
5
81
100
AcDbEntity
8
SK1
62
256
6
ByLayer
370
18
48
1
60
0
100
AcDbLine
10
0
20
4
30
0
11
-35.133975
21
4
31
0
39
0
210
0
220
0
230
1
0
LINE
5
82
100
AcDbEntity
8
SK1
62
256
6
ByLayer
370
18
48
1
60
0
100
AcDbLine
10
-35.133975
20
-4
30
0
11
0
21
-4
31
0
39
0
210
0
220
0
230
1
0
LINE
5
83
100
AcDbEntity
8
SK4
62
256
6
ByLayer
370
18
48
0.05
60
0
100
AcDbLine
10
48
20
0
30
0
11
-41
21
0
31
0
39
0
210
0
220
0
230
1
0
LINE
5
85
100
AcDbEntity
8
4
62
256
6
ByLayer
370
18
48
0.05
60
0
100
AcDbLine
10
43
20
0
30
0
11
0
21
0
31
0
39
0
210
0
220
0
230
1
0
LINE
5
87
100
AcDbEntity
8
80
62
256
6
ByLayer
370
18
48
1
60
0
100
AcDbLine
10
0
20
0
30
0
11
-5
21
0
31
0
39
0
210
0
220
0
230
1
0
LINE
5
88
100
AcDbEntity
8
1
62
256
6
ByLayer
370
13
48
1
60
0
100
AcDbLine
10
0.350219
20
3.347482
30
0
11
0.350219
21
-3.347482
31
0
39
0
210
0
220
0
230
1
0
LINE
5
89
100
AcDbEntity
8
1
62
256
6
ByLayer
370
13
48
1
60
0
100
AcDbLine
10
41.862537
20
0.82442
30
0
11
42.990875
21
0.110155
31
0
39
0
210
0
220
0
230
1
0
LINE
5
8A
100
AcDbEntity
8
1
62
256
6
ByLayer
370
13
48
1
60
0
100
AcDbLine
10
41.728592
20
0.727398
30
0
11
42.964414
21
-0.054907
31
0
39
0
210
0
220
0
230
1
0
LINE
5
8B
100
AcDbEntity
8
SK1
62
256
6
ByLayer
370
18
48
1
60
0
100
AcDbLine
10
-35.15
20
2.609952
30
0
11
-35.15
21
3.663629
31
0
39
0
210
0
220
0
230
1
0
LINE
5
8C
100
AcDbEntity
8
SK1
62
256
6
ByLayer
370
18
48
1
60
0
100
AcDbLine
10
-36
20
2.443065
30
0
11
-36
21
1.272257
31
0
39
0
210
0
220
0
230
1
0
LINE
5
8D
100
AcDbEntity
8
SK1
62
256
6
ByLayer
370
18
48
1
60
0
100
AcDbLine
10
-36
20
1.272313
30
0
11
-36
21
-2.5
31
0
39
0
210
0
220
0
230
1
0
LINE
5
8E
100
AcDbEntity
8
SK1
62
256
6
ByLayer
370
18
48
1
60
0
100
AcDbLine
10
-36
20
2.5
30
0
11
-36
21
2.443065
31
0
39
0
210
0
220
0
230
1
0
LINE
5
8F
100
AcDbEntity
8
SK1
62
256
6
ByLayer
370
18
48
1
60
0
100
AcDbLine
10
-35.133975
20
4
30
0
11
-35.133975
21
-4
31
0
39
0
210
0
220
0
230
1
0
LINE
5
90
100
AcDbEntity
8
SK1
62
256
6
ByLayer
370
13
48
1
60
0
100
AcDbLine
10
-35.25
20
3.55687
30
0
11
-35.25
21
2.386101
31
0
39
0
210
0
220
0
230
1
0
LINE
5
91
100
AcDbEntity
8
SK1
62
256
6
ByLayer
370
18
48
1
60
0
100
AcDbLine
10
0
20
4
30
0
11
0
21
-4
31
0
39
0
210
0
220
0
230
1
0
MTEXT
5
D7
100
AcDbEntity
8
SK6
62
256
6
ByLayer
370
13
48
1
60
0
100
AcDbMText
10
5.629169
20
35.756194
30
0
210
0
220
0
230
1
1
\W0.7538;460.1-0675-020A1-XM GC34
40
3.5
41
0
44
1.084337
50
0
71
8
72
5
7
iso_b_vert
0
DIMENSION
5
E4
100
AcDbEntity
8
SK2
62
256
6
ByLayer
370
13
48
1
60
0
100
AcDbDimension
2
DimnDraft3D1
10
42.0058
20
-13.586898
30
0
11
19.755859
21
-13.586898
31
0
70
32
71
5
72
1
41
1
210
0
220
0
230
1
3
Standard
100
AcDbAlignedDimension
13
0
23
-1.5875
33
0
14
42.0058
24
-4.961
34
0
50
0
100
AcDbRotatedDimension
1001
ACAD
1000
DSTYLE
1002
{
1070
   279
1070
     0
1070
   172
1070
     1
1070
   173
1070
     1
1070
   340
1005
D8
1070
   271
1070
     2
1070
   272
1070
     2
1070
    77
1070
     1
1070
    73
1070
     0
1070
   171
1070
     3
1070
   274
1070
     4
1070
   177
1070
    35
1070
   176
1070
    35
1070
   178
1070
    35
1070
    48
1040
-0.005
1070
    41
1041
3.5
1070
   147
1041
1.75
1070
    42
1041
1.5875
1070
    44
1041
2.0
1070
   140
1041
3.5
1070
   343
1005
0
1070
   344
1005
0
1002
}
0
DIMENSION
5
EE
100
AcDbEntity
8
SK2
62
256
6
ByLayer
370
13
48
1
60
0
100
AcDbDimension
2
DimnDraft3D2
10
43
20
-32.692985
30
0
11
3.8471
21
-32.692985
31
0
70
32
71
5
72
1
41
1
210
0
220
0
230
1
3
Standard
100
AcDbAlignedDimension
13
-36
23
-5.5875
33
0
14
43
24
-1.5875
34
0
50
0
100
AcDbRotatedDimension
1001
ACAD
1000
DSTYLE
1002
{
1070
   279
1070
     0
1070
   172
1070
     1
1070
   173
1070
     1
1070
   340
1005
D8
1070
   271
1070
     2
1070
   272
1070
     2
1070
    77
1070
     1
1070
    73
1070
     0
1070
   171
1070
     3
1070
   274
1070
     4
1070
   177
1070
    35
1070
   176
1070
    35
1070
   178
1070
    35
1070
    48
1040
-0.005
1070
    41
1041
3.5
1070
   147
1041
1.75
1070
    42
1041
1.5875
1070
    44
1041
2.0
1070
   140
1041
3.5
1070
   343
1005
0
1070
   344
1005
0
1002
}
0
DIMENSION
5
F8
100
AcDbEntity
8
SK2
62
256
6
ByLayer
370
13
48
1
60
0
100
AcDbDimension
2
DimnDraft3D3
10
43
20
14.982619
30
0
11
32.38
21
14.982619
31
0
70
32
71
5
72
1
41
1
210
0
220
0
230
1
3
Standard
100
AcDbAlignedDimension
13
21.76
23
4.961
33
0
14
43
24
1.5875
34
0
50
0
100
AcDbRotatedDimension
1001
ACAD
1000
DSTYLE
1002
{
1070
   279
1070
     0
1070
   172
1070
     1
1070
   173
1070
     1
1070
   340
1005
D8
1070
   271
1070
     2
1070
   272
1070
     2
1070
    77
1070
     1
1070
    73
1070
     0
1070
   171
1070
     3
1070
   274
1070
     4
1070
   177
1070
    35
1070
   176
1070
    35
1070
   178
1070
    35
1070
    48
1040
-0.005
1070
    41
1041
3.5
1070
   147
1041
1.75
1070
    42
1041
1.5875
1070
    44
1041
2.0
1070
   140
1041
3.5
1070
   343
1005
0
1070
   344
1005
0
1002
}
0
DIMENSION
5
102
100
AcDbEntity
8
SK2
62
256
6
ByLayer
370
13
48
1
60
0
100
AcDbDimension
2
DimnDraft3D4
10
42.0058
20
-16.176003
30
0
11
52.981425
21
-16.176003
31
0
70
32
71
5
72
1
41
1
210
0
220
0
230
1
3
Standard
100
AcDbAlignedDimension
13
43
23
-1.5875
33
0
14
42.0058
24
-4.961
34
0
50
0
100
AcDbRotatedDimension
1001
ACAD
1000
DSTYLE
1002
{
1070
   279
1070
     0
1070
   172
1070
     1
1070
   173
1070
     1
1070
   340
1005
D8
1070
   271
1070
     2
1070
   272
1070
     2
1070
    77
1070
     1
1070
    73
1070
     0
1070
   171
1070
     3
1070
   274
1070
     4
1070
   177
1070
    35
1070
   176
1070
    35
1070
   178
1070
    35
1070
    48
1040
-0.005
1070
    41
1041
3.5
1070
   147
1041
1.75
1070
    42
1041
1.5875
1070
    44
1041
2.0
1070
   140
1041
3.5
1070
   343
1005
0
1070
   344
1005
0
1002
}
0
DIMENSION
5
10C
100
AcDbEntity
8
SK2
62
256
6
ByLayer
370
13
48
1
60
0
100
AcDbDimension
2
DimnDraft3D5
10
42.0058
20
-22.343428
30
0
11
0.766476
21
-22.343428
31
0
70
32
71
5
72
1
41
1
210
0
220
0
230
1
3
Standard
100
AcDbAlignedDimension
13
-36
23
-5.5875
33
0
14
42.0058
24
-4.961
34
0
50
0
100
AcDbRotatedDimension
1001
ACAD
1000
DSTYLE
1002
{
1070
   279
1070
     0
1070
   172
1070
     1
1070
   173
1070
     1
1070
   340
1005
D8
1070
   271
1070
     2
1070
   272
1070
     2
1070
    77
1070
     1
1070
    73
1070
     0
1070
   171
1070
     3
1070
   274
1070
     4
1070
   177
1070
    35
1070
   176
1070
    35
1070
   178
1070
    35
1070
    48
1040
-0.005
1070
    41
1041
3.5
1070
   147
1041
1.75
1070
    42
1041
1.5875
1070
    44
1041
2.0
1070
   140
1041
3.5
1070
   343
1005
0
1070
   344
1005
0
1002
}
0
DIMENSION
5
117
100
AcDbEntity
8
SK2
62
256
6
ByLayer
370
13
48
1
60
0
100
AcDbDimension
2
DimnDraft3D6
10
-46.625163
20
4
30
0
11
-47.250163
21
22.47418
31
0
70
33
71
5
72
1
41
1
210
0
220
0
230
1
3
Standard
100
AcDbAlignedDimension
13
-37.5875
23
-4
33
0
14
-37.5875
24
4
34
0
1001
ACAD
1000
DSTYLE
1002
{
1070
   279
1070
     0
1070
    74
1070
     0
1070
   173
1070
     1
1070
   340
1005
D8
1070
   271
1070
     3
1070
   272
1070
     2
1070
    77
1070
     1
1070
    73
1070
     0
1070
   171
1070
     3
1070
   274
1070
     4
1070
   177
1070
    35
1070
   176
1070
    35
1070
   178
1070
    35
1070
    48
1040
-0.005
1070
    41
1041
3.5
1070
   147
1041
1.75
1070
    42
1041
1.5875
1070
    44
1041
2.0
1070
   140
1041
3.5
1070
   343
1005
0
1070
   344
1005
0
1002
}
0
DIMENSION
5
122
100
AcDbEntity
8
2
62
256
6
ByLayer
370
13
48
1
60
0
100
AcDbDimension
2
DimnDraft3D7
10
57.083343
20
3.3735
30
0
11
52.458343
21
20.440766
31
0
70
33
71
5
72
1
41
1
210
0
220
0
230
1
3
Standard
100
AcDbAlignedDimension
13
43.5933
23
-3.3735
33
0
14
43.5933
24
3.3735
34
0
1001
ACAD
1000
DSTYLE
1002
{
1070
   279
1070
     0
1070
    74
1070
     0
1070
   173
1070
     1
1070
   340
1005
D8
1070
   271
1070
     3
1070
   272
1070
     2
1070
    77
1070
     1
1070
    73
1070
     0
1070
   171
1070
     3
1070
   274
1070
     4
1070
   177
1070
    35
1070
   176
1070
    35
1070
   178
1070
    35
1070
    48
1040
-0.005
1070
    41
1041
3.5
1070
   147
1041
1.75
1070
    42
1041
1.5875
1070
    44
1041
2.0
1070
   140
1041
3.5
1070
   343
1005
0
1070
   344
1005
0
1002
}
0
ENDSEC
0
SECTION
2
OBJECTS
0
DICTIONARY
5
18d
330
0
100
AcDbDictionary
280
0
281
1
3
ACAD_GROUP
350
18e
3
ACAD_MLINESTYLE
350
18f
0
DICTIONARY
5
18e
330
0
100
AcDbDictionary
280
0
281
1
0
DICTIONARY
5
18f
330
0
100
AcDbDictionary
280
0
281
1
3
Standard
350
18
0
MLINESTYLE
5
18
330
18f
100
AcDbMlineStyle
2
Standard
70
0
3

62
256
51
90
52
90
71
2
49
-0.5
62
256
6
ByLayer
49
0.5
62
256
6
ByLayer
0
RASTERVARIABLES
5
17b
330

100
AcDbRasterVariables
90
0
70
1
71
1
72
1
0
ENDSEC
0
EOF
