0
SECTION
2
HEADER
9
$ACADVER
1
AC1015
9
$DWGCODEPAGE
3
ANSI_1252
9
$HANDSEED
5
192
9
$ANGBASE
50
0
9
$ANGDIR
70
0
9
$ATTMODE
70
1
9
$AUNITS
70
0
9
$AUPREC
70
0
9
$CECOLOR
62
256
9
$CELTSCALE
40
1
9
$CELTYPE
6
ByLayer
9
$CELWEIGHT
370
18
9
$CLAYER
8
0
9
$CMLJUST
70
0
9
$CMLSCALE
40
1
9
$CMLSTYLE
2
Standard
9
$DIMSTYLE
2
Standard
9
$TEXTSIZE
40
0.2
9
$TEXTSTYLE
7
Standard
9
$LUNITS
70
2
9
$LUPREC
70
4
9
$EXTNAMES
290
1
9
$INSUNITS
70
4
9
$LTSCALE
40
1
9
$LWDISPLAY
290
1
9
$PDMODE
70
0
9
$PDSIZE
40
0
9
$PLINEGEN
70
0
0
ENDSEC
0
SECTION
2
CLASSES
0
CLASS
1
RASTERVARIABLES
2
AcDbRasterVariables
3
ISM
90
0
280
0
281
0
0
ENDSEC
0
SECTION
2
TABLES
0
TABLE
2
VPORT
5
188
100
AcDbSymbolTable
0
VPORT
5
1
100
AcDbSymbolTableRecord
100
AcDbViewportTableRecord
2
*Active
70
0
10
0
20
0
11
1
21
1
12
-1
22
1
13
0
23
0
14
0.5
24
0.5
15
10
25
10
16
0
26
0
36
1
17
0
27
0
37
0
0
ENDTAB
0
TABLE
2
LTYPE
5
189
100
AcDbSymbolTable
0
LTYPE
5
14
100
AcDbSymbolTableRecord
100
AcDbLinetypeTableRecord
70
0
2
ByBlock
3

72
65
73
0
40
0
0
LTYPE
5
15
100
AcDbSymbolTableRecord
100
AcDbLinetypeTableRecord
70
0
2
ByLayer
3

72
65
73
0
40
0
0
LTYPE
5
16
100
AcDbSymbolTableRecord
100
AcDbLinetypeTableRecord
70
0
2
CONTINUOUS
3
Solid line
72
65
73
0
40
0
0
LTYPE
5
6A
100
AcDbSymbolTableRecord
100
AcDbLinetypeTableRecord
70
0
2
CENTER
3
____ _ ____ _ ____ _ ____
72
65
73
4
40
47.5
49
22
74
0
49
-8.5
74
0
49
8.5
74
0
49
-8.5
74
0
0
LTYPE
5
6B
100
AcDbSymbolTableRecord
100
AcDbLinetypeTableRecord
70
0
2
DASHED
3
__ __ __ __ __ __ __ __ __
72
65
73
2
40
25.72
49
12.86
74
0
49
-12.86
74
0
0
ENDTAB
0
TABLE
2
LAYER
5
18a
100
AcDbSymbolTable
0
LAYER
5
10
100
AcDbSymbolTableRecord
100
AcDbLayerTableRecord
2
0
70
0
62
7
6
CONTINUOUS
290
1
370
-3
390
0
0
LAYER
5
6D
100
AcDbSymbolTableRecord
100
AcDbLayerTableRecord
2
81
70
0
62
-3
6
CONTINUOUS
290
1
370
-3
390
0
0
LAYER
5
6F
100
AcDbSymbolTableRecord
100
AcDbLayerTableRecord
2
80
70
0
62
-6
6
CONTINUOUS
290
1
370
-3
390
0
0
LAYER
5
74
100
AcDbSymbolTableRecord
100
AcDbLayerTableRecord
2
2
70
0
62
7
6
CONTINUOUS
290
1
370
-3
390
0
0
LAYER
5
78
100
AcDbSymbolTableRecord
100
AcDbLayerTableRecord
2
1
70
0
62
4
6
CONTINUOUS
290
1
370
-3
390
0
0
LAYER
5
88
100
AcDbSymbolTableRecord
100
AcDbLayerTableRecord
2
4
70
0
62
-2
6
CENTER
290
1
370
-3
390
0
0
LAYER
5
174
100
AcDbSymbolTableRecord
100
AcDbLayerTableRecord
2
SK2
70
0
62
7
6
CONTINUOUS
290
1
370
-3
390
0
0
LAYER
5
175
100
AcDbSymbolTableRecord
100
AcDbLayerTableRecord
2
SK1
70
0
62
4
6
CONTINUOUS
290
1
370
-3
390
0
0
LAYER
5
176
100
AcDbSymbolTableRecord
100
AcDbLayerTableRecord
2
SK4
70
0
62
2
6
CENTER
290
1
370
-3
390
0
0
LAYER
5
177
100
AcDbSymbolTableRecord
100
AcDbLayerTableRecord
2
SK6
70
0
62
5
6
CONTINUOUS
290
1
370
-3
390
0
0
ENDTAB
0
TABLE
2
STYLE
5
18b
100
AcDbSymbolTable
0
STYLE
5
11
100
AcDbSymbolTableRecord
100
AcDbTextStyleTableRecord
2
Standard
3
txt
70
0
71
0
40
0
41
1
42
0
50
0
0
STYLE
5
D0
100
AcDbSymbolTableRecord
100
AcDbTextStyleTableRecord
2
iso_b_vert
3
simplex.shx
70
0
71
0
40
0
41
1
42
0
50
0
0
STYLE
5
D1
100
AcDbSymbolTableRecord
100
AcDbTextStyleTableRecord
2
DWGDirectTextStyle
3
simplex
70
0
71
0
40
0
41
1
42
0
50
0
0
ENDTAB
0
TABLE
2
DIMSTYLE
5
18c
100
AcDbSymbolTable
100
AcDbDimStyleTable
0
DIMSTYLE
105
27
100
AcDbSymbolTableRecord
100
AcDbDimStyleTableRecord
2
Standard
70
0
3
<>
41
0.18
42
0.0625
44
0.18
140
0.18
147
0.09
73
0
74
0
77
1
271
2
275
0
278
52
280
0
340
11
0
ENDTAB
0
TABLE
2
VIEW
5
18d
100
AcDbSymbolTable
0
ENDTAB
0
TABLE
2
UCS
5
18e
100
AcDbSymbolTable
0
ENDTAB
0
TABLE
2
APPID
5
18f
100
AcDbSymbolTable
0
APPID
5
12
100
AcDbSymbolTableRecord
100
AcDbRegAppTableRecord
2
ACAD
70
0
0
ENDTAB
0
TABLE
2
BLOCK_RECORD
5
190
100
AcDbSymbolTable
0
BLOCK_RECORD
5
1F
100
AcDbSymbolTableRecord
100
AcDbBlockTableRecord
2
*Model_Space
340
0
70
0
0
BLOCK_RECORD
5
1B
100
AcDbSymbolTableRecord
100
AcDbBlockTableRecord
2
*Paper_Space
340
0
70
0
0
BLOCK_RECORD
5
23
100
AcDbSymbolTableRecord
100
AcDbBlockTableRecord
2
*Paper_Space0
340
0
70
0
0
BLOCK_RECORD
5
D3
100
AcDbSymbolTableRecord
100
AcDbBlockTableRecord
2
DimnDraft3D1
340
0
70
0
0
BLOCK_RECORD
5
DD
100
AcDbSymbolTableRecord
100
AcDbBlockTableRecord
2
DimnDraft3D2
340
0
70
0
0
BLOCK_RECORD
5
E7
100
AcDbSymbolTableRecord
100
AcDbBlockTableRecord
2
DimnDraft3D3
340
0
70
0
0
BLOCK_RECORD
5
F1
100
AcDbSymbolTableRecord
100
AcDbBlockTableRecord
2
DimnDraft3D4
340
0
70
0
0
BLOCK_RECORD
5
FB
100
AcDbSymbolTableRecord
100
AcDbBlockTableRecord
2
DimnDraft3D5
340
0
70
0
0
BLOCK_RECORD
5
105
100
AcDbSymbolTableRecord
100
AcDbBlockTableRecord
2
DimnDraft3D6
340
0
70
0
0
BLOCK_RECORD
5
110
100
AcDbSymbolTableRecord
100
AcDbBlockTableRecord
2
DimnDraft3D7
340
0
70
0
0
ENDTAB
0
ENDSEC
0
SECTION
2
BLOCKS
0
BLOCK
5
20
100
AcDbEntity
8
0
100
AcDbBlockBegin
2
*Model_Space
70
0
10
0
20
0
30
0
3
*Model_Space
0
ENDBLK
5
21
100
AcDbEntity
8
0
100
AcDbBlockEnd
0
BLOCK
5
1C
100
AcDbEntity
8
0
100
AcDbBlockBegin
2
*Paper_Space
70
0
10
0
20
0
30
0
3
*Paper_Space
0
ENDBLK
5
1D
100
AcDbEntity
8
0
100
AcDbBlockEnd
0
BLOCK
5
24
100
AcDbEntity
8
0
100
AcDbBlockBegin
2
*Paper_Space0
70
0
10
0
20
0
30
0
3
*Paper_Space0
0
ENDBLK
5
25
100
AcDbEntity
8
0
100
AcDbBlockEnd
0
BLOCK
5
DA
100
AcDbEntity
8
0
100
AcDbBlockBegin
2
DimnDraft3D1
70
0
10
0
20
0
30
0
3
DimnDraft3D1
0
MTEXT
5
D4
100
AcDbEntity
8
SK2
62
256
6
ByLayer
370
13
48
1
60
0
100
AcDbMText
10
14.976354
20
-12.588398
30
0
210
0
220
0
230
1
1
\W0.7756;42,04
40
3.5
41
0
44
1.084337
50
0
71
7
72
5
7
iso_b_vert
0
LINE
5
D5
100
AcDbEntity
8
SK2
62
256
6
ByLayer
370
13
48
1
60
0
100
AcDbLine
10
0
20
-1.5875
30
0
11
0
21
-15.463398
31
0
39
0
210
0
220
0
230
1
0
LINE
5
D6
100
AcDbEntity
8
SK2
62
256
6
ByLayer
370
13
48
1
60
0
100
AcDbLine
10
42.0434
20
-4.8375
30
0
11
42.0434
21
-15.463398
31
0
39
0
210
0
220
0
230
1
0
LINE
5
D7
100
AcDbEntity
8
SK2
62
256
6
ByLayer
370
13
48
1
60
0
100
AcDbLine
10
0
20
-13.463398
30
0
11
42.0434
21
-13.463398
31
0
39
0
210
0
220
0
230
1
0
SOLID
5
D8
100
AcDbEntity
8
SK2
62
256
6
ByLayer
370
13
48
1
60
0
100
AcDbTrace
10
0
20
-13.463398
30
0
11
3.499998
21
-13.002615
31
0
12
3.500002
22
-13.924182
32
0
13
0
23
-13.463398
33
0
39
0
210
0
220
0
230
1
0
SOLID
5
D9
100
AcDbEntity
8
SK2
62
256
6
ByLayer
370
13
48
1
60
0
100
AcDbTrace
10
42.0434
20
-13.463398
30
0
11
38.543402
21
-13.924182
31
0
12
38.543398
22
-13.002615
32
0
13
42.0434
23
-13.463398
33
0
39
0
210
0
220
0
230
1
0
ENDBLK
5
DB
100
AcDbEntity
8
0
100
AcDbBlockEnd
0
BLOCK
5
E4
100
AcDbEntity
8
0
100
AcDbBlockBegin
2
DimnDraft3D2
70
0
10
0
20
0
30
0
3
DimnDraft3D2
0
MTEXT
5
DE
100
AcDbEntity
8
SK2
62
256
6
ByLayer
370
13
48
1
60
0
100
AcDbMText
10
-0.563984
20
-31.817985
30
0
210
0
220
0
230
1
1
\W0.7317;79,00
40
3.5
41
0
44
1.084337
50
0
71
7
72
5
7
iso_b_vert
0
LINE
5
DF
100
AcDbEntity
8
SK2
62
256
6
ByLayer
370
13
48
1
60
0
100
AcDbLine
10
-36
20
-5.5875
30
0
11
-36
21
-34.692985
31
0
39
0
210
0
220
0
230
1
0
LINE
5
E0
100
AcDbEntity
8
SK2
62
256
6
ByLayer
370
13
48
1
60
0
100
AcDbLine
10
43
20
-1.5875
30
0
11
43
21
-34.692985
31
0
39
0
210
0
220
0
230
1
0
LINE
5
E1
100
AcDbEntity
8
SK2
62
256
6
ByLayer
370
13
48
1
60
0
100
AcDbLine
10
-36
20
-32.692985
30
0
11
43
21
-32.692985
31
0
39
0
210
0
220
0
230
1
0
SOLID
5
E2
100
AcDbEntity
8
SK2
62
256
6
ByLayer
370
13
48
1
60
0
100
AcDbTrace
10
-36
20
-32.692985
30
0
11
-32.500002
21
-32.232202
31
0
12
-32.499998
22
-33.153769
32
0
13
-36
23
-32.692985
33
0
39
0
210
0
220
0
230
1
0
SOLID
5
E3
100
AcDbEntity
8
SK2
62
256
6
ByLayer
370
13
48
1
60
0
100
AcDbTrace
10
43
20
-32.692985
30
0
11
39.500002
21
-33.153769
31
0
12
39.499998
22
-32.232202
32
0
13
43
23
-32.692985
33
0
39
0
210
0
220
0
230
1
0
ENDBLK
5
E5
100
AcDbEntity
8
0
100
AcDbBlockEnd
0
BLOCK
5
EE
100
AcDbEntity
8
0
100
AcDbBlockBegin
2
DimnDraft3D3
70
0
10
0
20
0
30
0
3
DimnDraft3D3
0
MTEXT
5
E8
100
AcDbEntity
8
SK2
62
256
6
ByLayer
370
13
48
1
60
0
100
AcDbMText
10
28.142105
20
15.734119
30
0
210
0
220
0
230
1
1
\W0.7581;20,45
40
3.5
41
0
44
1.084337
50
0
71
7
72
5
7
iso_b_vert
0
LINE
5
E9
100
AcDbEntity
8
SK2
62
256
6
ByLayer
370
13
48
1
60
0
100
AcDbLine
10
22.55
20
4.8375
30
0
11
22.55
21
16.859119
31
0
39
0
210
0
220
0
230
1
0
LINE
5
EA
100
AcDbEntity
8
SK2
62
256
6
ByLayer
370
13
48
1
60
0
100
AcDbLine
10
43
20
1.5875
30
0
11
43
21
16.859119
31
0
39
0
210
0
220
0
230
1
0
LINE
5
EB
100
AcDbEntity
8
SK2
62
256
6
ByLayer
370
13
48
1
60
0
100
AcDbLine
10
22.55
20
14.859119
30
0
11
43
21
14.859119
31
0
39
0
210
0
220
0
230
1
0
SOLID
5
EC
100
AcDbEntity
8
SK2
62
256
6
ByLayer
370
13
48
1
60
0
100
AcDbTrace
10
22.55
20
14.859119
30
0
11
26.049998
21
15.319903
31
0
12
26.050002
22
14.398335
32
0
13
22.55
23
14.859119
33
0
39
0
210
0
220
0
230
1
0
SOLID
5
ED
100
AcDbEntity
8
SK2
62
256
6
ByLayer
370
13
48
1
60
0
100
AcDbTrace
10
43
20
14.859119
30
0
11
39.500002
21
14.398335
31
0
12
39.499998
22
15.319903
32
0
13
43
23
14.859119
33
0
39
0
210
0
220
0
230
1
0
ENDBLK
5
EF
100
AcDbEntity
8
0
100
AcDbBlockEnd
0
BLOCK
5
F8
100
AcDbEntity
8
0
100
AcDbBlockBegin
2
DimnDraft3D4
70
0
10
0
20
0
30
0
3
DimnDraft3D4
0
MTEXT
5
F2
100
AcDbEntity
8
SK2
62
256
6
ByLayer
370
13
48
1
60
0
100
AcDbMText
10
49.840636
20
-15.177503
30
0
210
0
220
0
230
1
1
\W0.7150;0,96
40
3.5
41
0
44
1.084337
50
0
71
7
72
5
7
iso_b_vert
0
LINE
5
F3
100
AcDbEntity
8
SK2
62
256
6
ByLayer
370
13
48
1
60
0
100
AcDbLine
10
43
20
-1.5875
30
0
11
43
21
-18.052503
31
0
39
0
210
0
220
0
230
1
0
LINE
5
F4
100
AcDbEntity
8
SK2
62
256
6
ByLayer
370
13
48
1
60
0
100
AcDbLine
10
42.0434
20
-4.8375
30
0
11
42.0434
21
-18.052503
31
0
39
0
210
0
220
0
230
1
0
LINE
5
F5
100
AcDbEntity
8
SK2
62
256
6
ByLayer
370
13
48
1
60
0
100
AcDbLine
10
33.2934
20
-16.052503
30
0
11
56.997215
21
-16.052503
31
0
39
0
210
0
220
0
230
1
0
SOLID
5
F6
100
AcDbEntity
8
SK2
62
256
6
ByLayer
370
13
48
1
60
0
100
AcDbTrace
10
43
20
-16.052503
30
0
11
46.499998
21
-15.591719
31
0
12
46.500002
22
-16.513287
32
0
13
43
23
-16.052503
33
0
39
0
210
0
220
0
230
1
0
SOLID
5
F7
100
AcDbEntity
8
SK2
62
256
6
ByLayer
370
13
48
1
60
0
100
AcDbTrace
10
42.0434
20
-16.052503
30
0
11
38.543402
21
-16.513287
31
0
12
38.543398
22
-15.591719
32
0
13
42.0434
23
-16.052503
33
0
39
0
210
0
220
0
230
1
0
ENDBLK
5
F9
100
AcDbEntity
8
0
100
AcDbBlockEnd
0
BLOCK
5
102
100
AcDbEntity
8
0
100
AcDbBlockBegin
2
DimnDraft3D5
70
0
10
0
20
0
30
0
3
DimnDraft3D5
0
MTEXT
5
FC
100
AcDbEntity
8
SK2
62
256
6
ByLayer
370
13
48
1
60
0
100
AcDbMText
10
-3.828818
20
-21.468428
30
0
210
0
220
0
230
1
1
\W0.7495;78,04
40
3.5
41
0
44
1.084337
50
0
71
7
72
5
7
iso_b_vert
0
LINE
5
FD
100
AcDbEntity
8
SK2
62
256
6
ByLayer
370
13
48
1
60
0
100
AcDbLine
10
-36
20
-5.5875
30
0
11
-36
21
-24.343428
31
0
39
0
210
0
220
0
230
1
0
LINE
5
FE
100
AcDbEntity
8
SK2
62
256
6
ByLayer
370
13
48
1
60
0
100
AcDbLine
10
42.0434
20
-4.8375
30
0
11
42.0434
21
-24.343428
31
0
39
0
210
0
220
0
230
1
0
LINE
5
FF
100
AcDbEntity
8
SK2
62
256
6
ByLayer
370
13
48
1
60
0
100
AcDbLine
10
-36
20
-22.343428
30
0
11
42.0434
21
-22.343428
31
0
39
0
210
0
220
0
230
1
0
SOLID
5
100
100
AcDbEntity
8
SK2
62
256
6
ByLayer
370
13
48
1
60
0
100
AcDbTrace
10
-36
20
-22.343428
30
0
11
-32.500002
21
-21.882645
31
0
12
-32.499998
22
-22.804212
32
0
13
-36
23
-22.343428
33
0
39
0
210
0
220
0
230
1
0
SOLID
5
101
100
AcDbEntity
8
SK2
62
256
6
ByLayer
370
13
48
1
60
0
100
AcDbTrace
10
42.0434
20
-22.343428
30
0
11
38.543402
21
-22.804212
31
0
12
38.543398
22
-21.882645
32
0
13
42.0434
23
-22.343428
33
0
39
0
210
0
220
0
230
1
0
ENDBLK
5
103
100
AcDbEntity
8
0
100
AcDbBlockEnd
0
BLOCK
5
10D
100
AcDbEntity
8
0
100
AcDbBlockBegin
2
DimnDraft3D6
70
0
10
0
20
0
30
0
3
DimnDraft3D6
0
MTEXT
5
106
100
AcDbEntity
8
SK2
62
256
6
ByLayer
370
13
48
1
60
0
100
AcDbMText
10
-46.375163
20
23.34918
30
0
210
0
220
0
230
1
1
\W0.7317;8,000
40
3.5
41
0
44
1.084337
50
90
71
7
72
5
7
iso_b_vert
0
MTEXT
5
107
100
AcDbEntity
8
SK2
62
256
6
ByLayer
370
13
48
1
60
0
100
AcDbMText
10
-46.375163
20
18.126524
30
0
210
0
220
0
230
1
1
%%c
40
3.5
41
0
44
1.084337
50
90
71
7
72
5
7
iso_b_vert
0
LINE
5
108
100
AcDbEntity
8
SK2
62
256
6
ByLayer
370
13
48
1
60
0
100
AcDbLine
10
-37.5875
20
-4
30
0
11
-46.625163
21
-4
31
0
39
0
210
0
220
0
230
1
0
LINE
5
109
100
AcDbEntity
8
SK2
62
256
6
ByLayer
370
13
48
1
60
0
100
AcDbLine
10
-37.5875
20
4
30
0
11
-46.625163
21
4
31
0
39
0
210
0
220
0
230
1
0
LINE
5
10A
100
AcDbEntity
8
SK2
62
256
6
ByLayer
370
13
48
1
60
0
100
AcDbLine
10
-44.625163
20
-4
30
0
11
-44.625163
21
33.121549
31
0
39
0
210
0
220
0
230
1
0
SOLID
5
10B
100
AcDbEntity
8
SK2
62
256
6
ByLayer
370
13
48
1
60
0
100
AcDbTrace
10
-44.625163
20
-4
30
0
11
-45.085946
21
-0.500002
31
0
12
-44.164379
22
-0.499998
32
0
13
-44.625163
23
-4
33
0
39
0
210
0
220
0
230
1
0
SOLID
5
10C
100
AcDbEntity
8
SK2
62
256
6
ByLayer
370
13
48
1
60
0
100
AcDbTrace
10
-44.625163
20
4
30
0
11
-44.164379
21
0.500002
31
0
12
-45.085946
22
0.499998
32
0
13
-44.625163
23
4
33
0
39
0
210
0
220
0
230
1
0
ENDBLK
5
10E
100
AcDbEntity
8
0
100
AcDbBlockEnd
0
BLOCK
5
118
100
AcDbEntity
8
0
100
AcDbBlockBegin
2
DimnDraft3D7
70
0
10
0
20
0
30
0
3
DimnDraft3D7
0
MTEXT
5
111
100
AcDbEntity
8
2
62
256
6
ByLayer
370
13
48
1
60
0
100
AcDbMText
10
53.333343
20
21.192266
30
0
210
0
220
0
230
1
1
\W0.7317;6,500
40
3.5
41
0
44
1.084337
50
90
71
7
72
5
7
iso_b_vert
0
MTEXT
5
112
100
AcDbEntity
8
2
62
256
6
ByLayer
370
13
48
1
60
0
100
AcDbMText
10
53.333343
20
15.96961
30
0
210
0
220
0
230
1
1
%%c
40
3.5
41
0
44
1.084337
50
90
71
7
72
5
7
iso_b_vert
0
LINE
5
113
100
AcDbEntity
8
2
62
256
6
ByLayer
370
13
48
1
60
0
100
AcDbLine
10
43.6309
20
-3.25
30
0
11
57.083343
21
-3.25
31
0
39
0
210
0
220
0
230
1
0
LINE
5
114
100
AcDbEntity
8
2
62
256
6
ByLayer
370
13
48
1
60
0
100
AcDbLine
10
43.6309
20
3.25
30
0
11
57.083343
21
3.25
31
0
39
0
210
0
220
0
230
1
0
LINE
5
115
100
AcDbEntity
8
2
62
256
6
ByLayer
370
13
48
1
60
0
100
AcDbLine
10
55.083343
20
30.964635
30
0
11
55.083343
21
-12
31
0
39
0
210
0
220
0
230
1
0
SOLID
5
116
100
AcDbEntity
8
2
62
256
6
ByLayer
370
13
48
1
60
0
100
AcDbTrace
10
55.083343
20
-3.25
30
0
11
55.544126
21
-6.749998
31
0
12
54.622559
22
-6.750002
32
0
13
55.083343
23
-3.25
33
0
39
0
210
0
220
0
230
1
0
SOLID
5
117
100
AcDbEntity
8
2
62
256
6
ByLayer
370
13
48
1
60
0
100
AcDbTrace
10
55.083343
20
3.25
30
0
11
54.622559
21
6.749998
31
0
12
55.544126
22
6.750002
32
0
13
55.083343
23
3.25
33
0
39
0
210
0
220
0
230
1
0
ENDBLK
5
119
100
AcDbEntity
8
0
100
AcDbBlockEnd
0
ENDSEC
0
SECTION
2
ENTITIES
0
ARC
5
91
100
AcDbEntity
8
1
62
256
6
ByLayer
370
18
48
1
60
0
100
AcDbCircle
39
0
10
-0.35
20
3.573957
30
0
40
0.350000000000001
210
0
220
0
230
-1
100
AcDbArc
50
269.96419
51
0
0
ARC
5
92
100
AcDbEntity
8
1
62
256
6
ByLayer
370
18
48
1
60
0
100
AcDbCircle
39
0
10
-0.35
20
-3.573957
30
0
40
0.350000000000001
210
0
220
0
230
-1
100
AcDbArc
50
0
51
90.03581
0
ELLIPSE
5
93
100
AcDbEntity
8
1
62
256
6
ByLayer
370
13
48
1
60
0
100
AcDbEllipse
10
10.269001
20
-0.533517
30
0
11
0.0411215418591737
21
0.0911538194214824
31
0
210
0
220
0
230
1
40
0.069039
41
1.41572096428231
42
2.96088675681855
0
ELLIPSE
5
94
100
AcDbEntity
8
1
62
256
6
ByLayer
370
13
48
1
60
0
100
AcDbEllipse
10
10.206193
20
-0.507752
30
0
11
-0.0344652243646204
21
-0.0938730435721372
31
0
210
0
220
0
230
1
40
0.441939
41
-1.563442825887
42
-0.191710298947216
0
POINT
5
6C
100
AcDbEntity
8
81
62
256
6
ByLayer
370
18
48
1
60
0
100
AcDbPoint
10
43
20
0
30
0
39
0
210
0
220
0
230
1
50
360
0
POINT
5
6E
100
AcDbEntity
8
80
62
256
6
ByLayer
370
18
48
1
60
0
100
AcDbPoint
10
0
20
0
30
0
39
0
210
0
220
0
230
1
50
360
0
POINT
5
70
100
AcDbEntity
8
SK2
62
256
6
ByLayer
370
18
48
1
60
1
100
AcDbPoint
10
-36
20
-4
30
0
39
0
210
0
220
0
230
1
50
360
0
POINT
5
72
100
AcDbEntity
8
SK2
62
256
6
ByLayer
370
18
48
1
60
1
100
AcDbPoint
10
-36
20
4
30
0
39
0
210
0
220
0
230
1
50
360
0
POINT
5
73
100
AcDbEntity
8
2
62
256
6
ByLayer
370
18
48
1
60
1
100
AcDbPoint
10
42.0434
20
-3.25
30
0
39
0
210
0
220
0
230
1
50
360
0
POINT
5
75
100
AcDbEntity
8
2
62
256
6
ByLayer
370
18
48
1
60
1
100
AcDbPoint
10
42.0434
20
3.25
30
0
39
0
210
0
220
0
230
1
50
360
0
SPLINE
5
95
100
AcDbEntity
8
1
62
256
6
ByLayer
370
18
48
1
60
0
100
AcDbSpline
70
4
71
3
72
24
73
20
40
0
40
0
40
0
40
0
40
0.0226870684474639
40
0.0739303045483817
40
0.110848708749086
40
0.171856596836046
40
0.231458840516165
40
0.299916495692791
40
0.390126170312033
40
0.468276263546038
40
0.523523761340884
40
0.60537499568778
40
0.684403132444252
40
0.749581470366885
40
0.821705634054261
40
0.89773997053712
40
0.962204695162299
40
0.97994625365168
40
1
40
1
40
1
40
1
41
1
10
30.0135417049945
20
3.07949687784117
30
0
41
1
10
29.9521073627278
20
3.07958532203932
30
0
41
1
10
29.7519147433757
20
3.07978099144879
30
0
41
1
10
29.4516962581828
20
3.0797062030629
30
0
41
1
10
29.0478852266031
20
3.07868547414549
30
0
41
1
10
28.6212530770744
20
3.0785863588232
30
0
41
1
10
28.1092696118536
20
3.07729250591896
30
0
41
1
10
27.5181867136302
20
3.07745985755372
30
0
41
1
10
26.8768851308325
20
3.07847713087125
30
0
41
1
10
26.2713529497568
20
3.0769258511296
30
0
41
1
10
25.6884568694235
20
3.07649308826154
30
0
41
1
10
25.1031858161835
20
3.07721267708882
30
0
41
1
10
24.4910170815792
20
3.07610385568594
30
0
41
1
10
23.9051923620055
20
3.0759444027675
30
0
41
1
10
23.3274766368754
20
3.07632079121368
30
0
41
1
10
22.7516907968789
20
3.07604407524235
30
0
41
1
10
22.3231677702382
20
3.07499649588272
30
0
41
1
10
22.0462543389139
20
3.07499826943331
30
0
41
1
10
21.9439208345732
20
3.07499252979252
30
0
41
1
10
21.8896241310368
20
3.0749899283505
30
0
0
SPLINE
5
96
100
AcDbEntity
8
1
62
256
6
ByLayer
370
18
48
1
60
0
100
AcDbSpline
70
4
71
3
72
31
73
27
40
0
40
0
40
0
40
0
40
0.0535138128765995
40
0.10098607601801
40
0.136142128239278
40
0.171920303313184
40
0.205149067092724
40
0.249995297308397
40
0.29081558689564
40
0.321535649384754
40
0.3606873791021
40
0.423909236205397
40
0.477271004122857
40
0.518915017341726
40
0.557251548942644
40
0.608157792370616
40
0.674306518687848
40
0.730985757510381
40
0.792008490134564
40
0.84029369397491
40
0.881448588409333
40
0.909420159901777
40
0.917643253600513
40
0.930480150605464
40
0.972090970758588
40
1
40
1
40
1
40
1
41
1
10
19.9784645427738
20
-3.07385588376522
30
0
41
1
10
20.1560678110793
20
-3.07395251001736
30
0
41
1
10
20.4912946412603
20
-3.07416161976599
30
0
41
1
10
20.9433954076904
20
-3.07463499225943
30
0
41
1
10
21.3367419665241
20
-3.07490839342285
30
0
41
1
10
21.6821535335546
20
-3.07502119424859
30
0
41
1
10
22.0602536055859
20
-3.07498027994242
30
0
41
1
10
22.4550933225918
20
-3.07501733882174
30
0
41
1
10
22.8415998655221
20
-3.07621682095572
30
0
41
1
10
23.2092091663286
20
-3.07623312131531
30
0
41
1
10
23.6512040793454
20
-3.07613280540627
30
0
41
1
10
24.1684028818677
20
-3.07587220257102
30
0
41
1
10
24.6938728148912
20
-3.07649884477618
30
0
41
1
10
25.1366968919398
20
-3.07700818123652
30
0
41
1
10
25.5713709208989
20
-3.07673446537547
30
0
41
1
10
26.0874235978749
20
-3.07647933082219
30
0
41
1
10
26.6644002612769
20
-3.07810402403786
30
0
41
1
10
27.2749269842656
20
-3.07805952159572
30
0
41
1
10
27.8261650427305
20
-3.07698041359094
30
0
41
1
10
28.3258550765155
20
-3.07797609268559
30
0
41
1
10
28.7157518644459
20
-3.07850299617138
30
0
41
1
10
28.9726778804931
20
-3.07866686181299
30
0
41
1
10
29.1351668340107
20
-3.07889496538567
30
0
41
1
10
29.3433013022096
20
-3.07929671840765
30
0
41
1
10
29.6167970437534
20
-3.07975446783365
30
0
41
1
10
29.8476630439702
20
-3.07955925729743
30
0
41
1
10
29.9403440176596
20
-3.07941768533084
30
0
0
SPLINE
5
97
100
AcDbEntity
8
1
62
256
6
ByLayer
370
18
48
1
60
0
100
AcDbSpline
70
4
71
2
72
6
73
3
40
0
40
0
40
0
40
1
40
1
40
1
41
1
10
41.6494144014711
20
-3.08731847215964
30
0
41
1
10
41.7693094603659
20
-3.08747250682865
30
0
41
1
10
41.887860919708
20
-3.08645988209267
30
0
0
SPLINE
5
98
100
AcDbEntity
8
1
62
256
6
ByLayer
370
18
48
1
60
0
100
AcDbSpline
70
4
71
3
72
24
73
20
40
0
40
0
40
0
40
0
40
0.125
40
0.125
40
0.249999999999999
40
0.249999999999999
40
0.374999999999999
40
0.374999999999999
40
0.499999999999999
40
0.499999999999999
40
0.624999999999999
40
0.624999999999999
40
0.749999999999998
40
0.749999999999998
40
0.874999999999998
40
0.874999999999998
40
0.937499999999999
40
0.937499999999999
40
1
40
1
40
1
40
1
41
1
10
17.0899422762673
20
0.887346107984996
30
0
41
1
10
16.7921761229342
20
1.00407306226367
30
0
41
1
10
16.4964126950904
20
1.12257144339844
30
0
41
1
10
15.9072636193853
20
1.35709950204384
30
0
41
1
10
15.6134583452461
20
1.47327201899884
30
0
41
1
10
15.0288290907645
20
1.70156154775734
30
0
41
1
10
14.7387855000091
20
1.81294166032177
30
0
41
1
10
14.1624405717065
20
2.02634496416155
30
0
41
1
10
13.8761411679242
20
2.12828434000417
30
0
41
1
10
13.3065405231539
20
2.32088978569769
30
0
41
1
10
13.0232633861922
20
2.41139577208696
30
0
41
1
10
12.4596048596479
20
2.57929057882995
30
0
41
1
10
12.1790510395833
20
2.65771311821294
30
0
41
1
10
11.6215343973606
20
2.79933011525796
30
0
41
1
10
11.3445125949934
20
2.86261528209155
30
0
41
1
10
10.9335809032975
20
2.9425547602973
30
0
41
1
10
10.7968832055402
20
2.9667589880832
30
0
41
1
10
10.5288632535871
20
3.00845894364454
30
0
41
1
10
10.3975297206252
20
3.02599391754666
30
0
41
1
10
10.2700929479604
20
3.03930014435807
30
0
0
SPLINE
5
99
100
AcDbEntity
8
1
62
256
6
ByLayer
370
18
48
1
60
0
100
AcDbSpline
70
4
71
3
72
10
73
6
40
0
40
0
40
0
40
0
40
0.954882228126391
40
0.954882228126391
40
1
40
1
40
1
40
1
41
1
10
41.927538087514
20
-3.086090128135
30
0
41
1
10
40.6041745777506
20
-3.10304788258975
30
0
41
1
10
39.302200081437
20
-2.94875980861971
30
0
41
1
10
37.9259041383168
20
-2.63289898047216
30
0
41
1
10
37.8637798298213
20
-2.61832455526277
30
0
41
1
10
37.8016229608811
20
-2.60343010363695
30
0
0
SPLINE
5
9A
100
AcDbEntity
8
1
62
256
6
ByLayer
370
13
48
1
60
0
100
AcDbSpline
70
4
71
3
72
24
73
20
40
0
40
0
40
0
40
0
40
0.0727714735125584
40
0.0727714735125584
40
0.16250181292178
40
0.16250181292178
40
0.341962491740224
40
0.341962491740224
40
0.431692831149448
40
0.431692831149448
40
0.521423170558671
40
0.521423170558671
40
0.700883849377114
40
0.700883849377114
40
0.880344528195558
40
0.880344528195558
40
0.97007486760478
40
0.97007486760478
40
1
40
1
40
1
40
1
41
1
10
37.8016231022911
20
-2.60343013752256
30
0
41
1
10
37.5349045884783
20
-2.53951723548738
30
0
41
1
10
37.2675865343958
20
-2.46971163932125
30
0
41
1
10
36.6686696208433
20
-2.30128494433927
30
0
41
1
10
36.3362635891377
20
-2.19951476721008
30
0
41
1
10
35.3431515824565
20
-1.87381383725321
30
0
41
1
10
34.6832991635118
20
-1.62903055754344
30
0
41
1
10
33.6905075232941
20
-1.23221056323234
30
0
41
1
10
33.3582101546971
20
-1.09475854250851
30
0
41
1
10
32.6960583312674
20
-0.814453531116612
30
0
41
1
10
32.3663681747153
20
-0.671588401392995
30
0
41
1
10
31.3797976770622
20
-0.238711930528922
30
0
41
1
10
30.7252645072593
20
0.0552228890009587
30
0
41
1
10
29.4143276467233
20
0.634802013909848
30
0
41
1
10
28.7578235314734
20
0.92020069749762
30
0
41
1
10
27.7651802283086
20
1.32717516287883
30
0
41
1
10
27.4327603309451
20
1.4593049711213
30
0
41
1
10
26.9904834505022
20
1.6276939249588
30
0
41
1
10
26.8798859761115
20
1.66919004160533
30
0
41
1
10
26.7692817460766
20
1.71003366652772
30
0
0
SPLINE
5
9B
100
AcDbEntity
8
1
62
256
6
ByLayer
370
18
48
1
60
0
100
AcDbSpline
70
4
71
3
72
8
73
4
40
0
40
0
40
0
40
0
40
1
40
1
40
1
40
1
41
1
10
42.9996904220775
20
-0.0404463849568799
30
0
41
1
10
43.0001035034855
20
-0.0134542746170609
30
0
41
1
10
43.0001028193046
20
0.0134989812677588
30
0
41
1
10
42.9996904220775
20
0.0404463849567378
30
0
0
SPLINE
5
9C
100
AcDbEntity
8
1
62
256
6
ByLayer
370
18
48
1
60
0
100
AcDbSpline
70
4
71
3
72
14
73
10
40
0
40
0
40
0
40
0
40
0.25
40
0.25
40
0.5
40
0.5
40
0.75
40
0.75
40
1
40
1
40
1
40
1
41
1
10
41.9275380875142
20
-3.086090128135
30
0
41
1
10
41.9307305853749
20
-3.08568945356689
30
0
41
1
10
41.9332405330585
20
-3.08703251481916
30
0
41
1
10
41.9364724381333
20
-3.0943369286658
30
0
41
1
10
41.9371002854951
20
-3.10030884702232
30
0
41
1
10
41.9356391997736
20
-3.11734184508526
30
0
41
1
10
41.9334933245792
20
-3.12846084190929
30
0
41
1
10
41.9267186226468
20
-3.15334992810162
30
0
41
1
10
41.9221733346009
20
-3.16688215281681
30
0
41
1
10
41.9171572814814
20
-3.17990867045563
30
0
0
SPLINE
5
9D
100
AcDbEntity
8
1
62
256
6
ByLayer
370
18
48
1
60
0
100
AcDbSpline
70
4
71
3
72
8
73
4
40
0
40
0
40
0
40
0
40
1
40
1
40
1
40
1
41
1
10
10.0637675021215
20
-0.523521508413893
30
0
41
1
10
10.0455947168889
20
-0.497806692423552
30
0
41
1
10
10.0347445150538
20
-0.467510655021044
30
0
41
1
10
10.0347494139372
20
-0.435972021163536
30
0
0
SPLINE
5
9E
100
AcDbEntity
8
1
62
256
6
ByLayer
370
18
48
1
60
0
100
AcDbSpline
70
4
71
3
72
8
73
4
40
0
40
0
40
0
40
0
40
1
40
1
40
1
40
1
41
1
10
42.8964303270021
20
0.774911782207454
30
0
41
1
10
42.8953903825396
20
0.771349253348149
30
0
41
1
10
42.8943472556055
20
0.767788096649582
30
0
41
1
10
42.8933009640101
20
0.76422830730408
30
0
0
SPLINE
5
9F
100
AcDbEntity
8
1
62
256
6
ByLayer
370
18
48
1
60
0
100
AcDbSpline
70
4
71
3
72
40
73
36
40
0
40
0
40
0
40
0
40
0.0447366870918339
40
0.0447366870918339
40
0.0894733741836678
40
0.0894733741836678
40
0.178946748367336
40
0.178946748367336
40
0.268420122551004
40
0.268420122551004
40
0.313156809642837
40
0.313156809642837
40
0.335525153188755
40
0.335525153188755
40
0.357893496734673
40
0.357893496734673
40
0.536840245102018
40
0.536840245102018
40
0.581576932193854
40
0.581576932193854
40
0.626313619285691
40
0.626313619285691
40
0.715786993469366
40
0.715786993469366
40
0.805260367653041
40
0.805260367653041
40
0.827628711198959
40
0.827628711198959
40
0.849997054744878
40
0.849997054744878
40
0.894733741836715
40
0.894733741836715
40
0.984207116020388
40
0.984207116020388
40
1
40
1
40
1
40
1
41
1
10
41.8923384269585
20
-3.24422226537192
30
0
41
1
10
41.5596886167008
20
-3.2532740702103
30
0
41
1
10
41.2273783783637
20
-3.25102786974492
30
0
41
1
10
40.5622866067433
20
-3.22413747692849
30
0
41
1
10
40.2287830844957
20
-3.19940700700664
30
0
41
1
10
39.2316908190885
20
-3.09250372107166
30
0
41
1
10
38.5728940335619
20
-2.9781898939805
30
0
41
1
10
37.2580518379619
20
-2.67347298053826
30
0
41
1
10
36.6017882986089
20
-2.48330405113805
30
0
41
1
10
35.6123821878331
20
-2.14992317777231
30
0
41
1
10
35.2817141164202
20
-2.0308267567942
30
0
41
1
10
34.783484782789
20
-1.84156698598989
30
0
41
1
10
34.6167643218317
20
-1.77659191625739
30
0
41
1
10
34.284005034697
20
-1.64393447541965
30
0
41
1
10
34.1180254124666
20
-1.57628265268249
30
0
41
1
10
32.6271484713684
20
-0.956902740447759
30
0
41
1
10
31.3221719616367
20
-0.332701215980933
30
0
41
1
10
29.6693439555472
20
0.438302724572964
30
0
41
1
10
29.337619247891
20
0.59206946132295
30
0
41
1
10
28.6710948863604
20
0.895762783202485
30
0
41
1
10
28.339524294504
20
1.04427097488804
30
0
41
1
10
27.3479638204614
20
1.47603831513459
30
0
41
1
10
26.691061746568
20
1.74540504715935
30
0
41
1
10
25.3765286700614
20
2.23082149800544
30
0
41
1
10
24.7186877621805
20
2.44650739762338
30
0
41
1
10
23.8900202673035
20
2.67279501285284
30
0
41
1
10
23.7239540964032
20
2.71586823562293
30
0
41
1
10
23.3910005052471
20
2.79740339302754
30
0
41
1
10
23.224248123652
20
2.83582238413564
30
0
41
1
10
22.7258531860623
20
2.9431762532397
30
0
41
1
10
22.3951340310849
20
3.00460075759466
30
0
41
1
10
21.4054687544776
20
3.15710841492569
30
0
41
1
10
20.7489102207226
20
3.21640730007135
30
0
41
1
10
19.975122945318
20
3.2346850435502
30
0
41
1
10
19.8589920211346
20
3.23606028899545
30
0
41
1
10
19.7427933608816
20
3.23606686843382
30
0
0
SPLINE
5
A0
100
AcDbEntity
8
1
62
256
6
ByLayer
370
13
48
1
60
0
100
AcDbSpline
70
4
71
3
72
8
73
4
40
0
40
0
40
0
40
0
40
1
40
1
40
1
40
1
41
1
10
10.164454494892
20
-0.597003382881297
30
0
41
1
10
10.1844889097384
20
-0.604317315764405
30
0
41
1
10
10.2057092208201
20
-0.612940048472041
30
0
41
1
10
10.2274184363279
20
-0.622676521160315
30
0
0
SPLINE
5
A1
100
AcDbEntity
8
1
62
256
6
ByLayer
370
18
48
1
60
0
100
AcDbSpline
70
4
71
3
72
10
73
6
40
0
40
0
40
0
40
0
40
0.5
40
0.5
40
1
40
1
40
1
40
1
41
1
10
42.9996904220775
20
0.0404463849567662
30
0
41
1
10
42.9964442888864
20
0.0244460277073983
30
0
41
1
10
42.9916831701123
20
0.007153153850993
30
0
41
1
10
42.9794590633329
20
-0.0262230212688621
30
0
41
1
10
42.9719829549146
20
-0.0421345060337615
30
0
41
1
10
42.9644109020784
20
-0.0546406197375973
30
0
0
SPLINE
5
A2
100
AcDbEntity
8
1
62
256
6
ByLayer
370
18
48
1
60
0
100
AcDbSpline
70
4
71
3
72
8
73
4
40
0
40
0
40
0
40
0
40
1
40
1
40
1
40
1
41
1
10
42.0188742629733
20
-3.16259386513545
30
0
41
1
10
41.9778409413981
20
-3.20576074008127
30
0
41
1
10
41.9358245793268
20
-3.23307873707691
30
0
41
1
10
41.8923384269585
20
-3.24422226537195
30
0
0
SPLINE
5
A3
100
AcDbEntity
8
1
62
256
6
ByLayer
370
18
48
1
60
0
100
AcDbSpline
70
4
71
3
72
8
73
4
40
0
40
0
40
0
40
0
40
1
40
1
40
1
40
1
41
1
10
41.8986922344013
20
0.801797601982372
30
0
41
1
10
42.2302057853527
20
0.789566182816088
30
0
41
1
10
42.5618212780971
20
0.776024435853287
30
0
41
1
10
42.8933009640062
20
0.764228307305217
30
0
0
SPLINE
5
A4
100
AcDbEntity
8
1
62
256
6
ByLayer
370
18
48
1
60
0
100
AcDbSpline
70
4
71
3
72
10
73
6
40
0
40
0
40
0
40
0
40
0.5
40
0.5
40
1
40
1
40
1
40
1
41
1
10
42.0188742629667
20
-3.1625938651556
30
0
41
1
10
42.1604731033028
20
-2.76133911966923
30
0
41
1
10
42.3049028419168
20
-2.36212504971672
30
0
41
1
10
42.5980130582878
20
-1.56660222686622
30
0
41
1
10
42.7467228708808
20
-1.17031346752239
30
0
41
1
10
42.8964303270021
20
-0.774911782207454
30
0
0
SPLINE
5
A5
100
AcDbEntity
8
1
62
256
6
ByLayer
370
18
48
1
60
0
100
AcDbSpline
70
4
71
3
72
14
73
10
40
0
40
0
40
0
40
0
40
0.25
40
0.25
40
0.5
40
0.5
40
0.75
40
0.75
40
1
40
1
40
1
40
1
41
1
10
10.2700929480046
20
3.03930014435346
30
0
41
1
10
10.2480558208423
20
3.04160113649397
30
0
41
1
10
10.224380216332
20
3.04630796040453
30
0
41
1
10
10.1749503821697
20
3.06309965509027
30
0
41
1
10
10.1491967126677
20
3.07550690701376
30
0
41
1
10
10.1034457232105
20
3.10657515765033
30
0
41
1
10
10.0837961201202
20
3.12494684644062
30
0
41
1
10
10.0539266477456
20
3.16125943579033
30
0
41
1
10
10.0429471962357
20
3.17975963104746
30
0
41
1
10
10.0351850784776
20
3.19750709584457
30
0
0
SPLINE
5
A6
100
AcDbEntity
8
1
62
256
6
ByLayer
370
18
48
1
60
0
100
AcDbSpline
70
4
71
3
72
8
73
4
40
0
40
0
40
0
40
0
40
1
40
1
40
1
40
1
41
1
10
42.9908654986467
20
-0.110425764972774
30
0
41
1
10
42.9916018255776
20
-0.0903603024411268
30
0
41
1
10
42.9948033191792
20
-0.066375412995086
30
0
41
1
10
42.9996904220775
20
-0.0404463849568799
30
0
0
SPLINE
5
A7
100
AcDbEntity
8
1
62
256
6
ByLayer
370
18
48
1
60
0
100
AcDbSpline
70
4
71
3
72
28
73
24
40
0
40
0
40
0
40
0
40
0.0625000000000028
40
0.0625000000000028
40
0.125000000000005
40
0.125000000000005
40
0.250000000000008
40
0.250000000000008
40
0.312500000000012
40
0.312500000000012
40
0.375000000000016
40
0.375000000000016
40
0.500000000000017
40
0.500000000000017
40
0.562500000000015
40
0.562500000000015
40
0.625000000000013
40
0.625000000000013
40
0.750000000000009
40
0.750000000000009
40
0.875000000000004
40
0.875000000000004
40
1
40
1
40
1
40
1
41
1
10
38.8088948478706
20
0.905285437202139
30
0
41
1
10
38.8128342965021
20
0.816141072298137
30
0
41
1
10
38.822470634958
20
0.726552575113146
30
0
41
1
10
38.8526757940124
20
0.546523279157498
30
0
41
1
10
38.8733986292862
20
0.455567396069
30
0
41
1
10
38.9506398392236
20
0.184975204855476
30
0
41
1
10
39.0205386482099
20
0.0116697141051532
30
0
41
1
10
39.1471293898619
20
-0.239913507044918
30
0
41
1
10
39.1931426257522
20
-0.322514486081246
30
0
41
1
10
39.2898100282664
20
-0.481762231055711
30
0
41
1
10
39.3406825962505
20
-0.558880472022793
30
0
41
1
10
39.4999724328769
20
-0.783650404254956
30
0
41
1
10
39.6150525787118
20
-0.924726439172616
30
0
41
1
10
39.7984695411383
20
-1.12568508337949
30
0
41
1
10
39.8612405810028
20
-1.19066581222833
30
0
41
1
10
39.9883914110215
20
-1.31580190942213
30
0
41
1
10
40.0529643345474
20
-1.37617266017739
30
0
41
1
10
40.2493458287286
20
-1.55141950204401
30
0
41
1
10
40.3838019071015
20
-1.66046370009681
30
0
41
1
10
40.65864323364
20
-1.86549140371548
30
0
41
1
10
40.7990367740989
20
-1.96145664313389
30
0
41
1
10
41.0851084208895
20
-2.14174635400343
30
0
41
1
10
41.2304372842084
20
-2.22581331700348
30
0
41
1
10
41.3768265239702
20
-2.30377331371437
30
0
0
SPLINE
5
A8
100
AcDbEntity
8
1
62
256
6
ByLayer
370
18
48
1
60
0
100
AcDbSpline
70
4
71
3
72
10
73
6
40
0
40
0
40
0
40
0
40
0.5
40
0.5
40
1
40
1
40
1
40
1
41
1
10
42.0188742629674
20
3.16259386515372
30
0
41
1
10
42.1597631412725
20
2.76335096971747
30
0
41
1
10
42.3040748501435
20
2.36438857298418
30
0
41
1
10
42.5978515489035
20
1.56702433776104
30
0
41
1
10
42.7467696249314
20
1.17018998248804
30
0
41
1
10
42.8964303270022
20
0.774911782207454
30
0
0
SPLINE
5
A9
100
AcDbEntity
8
1
62
256
6
ByLayer
370
18
48
1
60
0
100
AcDbSpline
70
4
71
3
72
10
73
6
40
0
40
0
40
0
40
0
40
0.960618836500195
40
0.960618836500195
40
1
40
1
40
1
40
1
41
1
10
10.0351850784771
20
3.19750709584451
30
0
41
1
10
9.86092253732022
20
3.21609170936318
30
0
41
1
10
9.69234916703564
20
3.22815309416592
30
0
41
1
10
9.52908466855678
20
3.22960666896773
30
0
41
1
10
9.52268311053692
20
3.22964548349063
30
0
41
1
10
9.51631057853555
20
3.22966536630602
30
0
0
SPLINE
5
AA
100
AcDbEntity
8
1
62
256
6
ByLayer
370
18
48
1
60
0
100
AcDbSpline
70
4
71
3
72
14
73
10
40
0
40
0
40
0
40
0
40
0.184339260128509
40
0.184339260128509
40
0.456226173419006
40
0.456226173419006
40
0.728113086709503
40
0.728113086709503
40
1
40
1
40
1
40
1
41
1
10
12.294804600335
20
2.59785099009611
30
0
41
1
10
12.5974699158083
20
2.62667584168713
30
0
41
1
10
12.8990858549736
20
2.65888164606355
30
0
41
1
10
13.6431196296547
20
2.74432044027373
30
0
41
1
10
14.0823607722804
20
2.79995831329481
30
0
41
1
10
14.9528436590684
20
2.91151420625403
30
0
41
1
10
15.3842179871631
20
2.96737232433929
30
0
41
1
10
16.2409998082437
20
3.0692216113099
30
0
41
1
10
16.666403322605
20
3.1151889132322
30
0
41
1
10
17.0899422762673
20
3.15145140788678
30
0
0
SPLINE
5
AB
100
AcDbEntity
8
1
62
256
6
ByLayer
370
18
48
1
60
0
100
AcDbSpline
70
4
71
3
72
12
73
8
40
0
40
0
40
0
40
0
40
0.75298699427758
40
0.75298699427758
40
0.941233742846975
40
0.941233742846975
40
1
40
1
40
1
40
1
41
1
10
10.2274184363279
20
-0.622676521160315
30
0
41
1
10
11.555569442612
20
-1.21834548920364
30
0
41
1
10
12.8604260087629
20
-1.76877515111639
30
0
41
1
10
14.5085528259704
20
-2.31144956843812
30
0
41
1
10
14.8390011791847
20
-2.41280617636102
30
0
41
1
10
15.2743736796003
20
-2.53513474258983
30
0
41
1
10
15.3780518161773
20
-2.56341644240558
30
0
41
1
10
15.4817642118634
20
-2.5908330443599
30
0
0
SPLINE
5
AC
100
AcDbEntity
8
1
62
256
6
ByLayer
370
13
48
1
60
0
100
AcDbSpline
70
4
71
3
72
16
73
12
40
0
40
0
40
0
40
0
40
0.116209535402468
40
0.116209535402468
40
0.454114956347391
40
0.454114956347391
40
0.623067666819853
40
0.623067666819853
40
0.792020377292315
40
0.792020377292315
40
1
40
1
40
1
40
1
41
1
10
15.4817646125341
20
-2.59083315027809
30
0
41
1
10
15.7102754072105
20
-2.6512404809929
30
0
41
1
10
15.9389525152344
20
-2.70744812034792
30
0
41
1
10
16.8304730338182
20
-2.90884560209051
30
0
41
1
10
17.4920372095079
20
-3.0205902514966
30
0
41
1
10
18.4894995116811
20
-3.12418498444879
30
0
41
1
10
18.8208860925894
20
-3.14788217372305
30
0
41
1
10
19.480861206364
20
-3.17368394802605
30
0
41
1
10
19.8098060191914
20
-3.17583280017777
30
0
41
1
10
20.542370140845
20
-3.15657852776769
30
0
41
1
10
20.9458486147742
20
-3.12978492310899
30
0
41
1
10
21.3495638594087
20
-3.08721091619049
30
0
0
SPLINE
5
AD
100
AcDbEntity
8
1
62
256
6
ByLayer
370
13
48
1
60
0
100
AcDbSpline
70
4
71
3
72
8
73
4
40
0
40
0
40
0
40
0
40
1
40
1
40
1
40
1
41
1
10
10.0347494139334
20
-0.435972021156203
30
0
41
1
10
10.0567127145762
20
-0.460677437876569
30
0
41
1
10
10.1015064861383
20
-0.481670805682171
30
0
41
1
10
10.164454494892
20
-0.493211461137548
30
0
0
SPLINE
5
AE
100
AcDbEntity
8
1
62
256
6
ByLayer
370
18
48
1
60
0
100
AcDbSpline
70
4
71
3
72
10
73
6
40
0
40
0
40
0
40
0
40
0.5
40
0.5
40
1
40
1
40
1
40
1
41
1
10
42.9644109020784
20
-0.0546406197375973
30
0
41
1
10
42.7229324178181
20
-0.453470031861144
30
0
41
1
10
42.4658245119809
20
-0.836116930682664
30
0
41
1
10
41.9335613692623
20
-1.58272474092362
30
0
41
1
10
41.6580663046418
20
-1.94659223817817
30
0
41
1
10
41.3768265239702
20
-2.30377331371437
30
0
0
SPLINE
5
AF
100
AcDbEntity
8
1
62
256
6
ByLayer
370
18
48
1
60
0
100
AcDbSpline
70
4
71
3
72
48
73
44
40
0
40
0
40
0
40
0
40
0.0624999999999952
40
0.0624999999999952
40
0.0937499999999921
40
0.0937499999999921
40
0.124999999999989
40
0.124999999999989
40
0.156249999999986
40
0.156249999999986
40
0.171874999999984
40
0.171874999999984
40
0.187499999999982
40
0.187499999999982
40
0.203124999999981
40
0.203124999999981
40
0.218749999999979
40
0.218749999999979
40
0.249999999999977
40
0.249999999999977
40
0.281249999999975
40
0.281249999999975
40
0.312499999999972
40
0.312499999999972
40
0.34374999999997
40
0.34374999999997
40
0.347656249999969
40
0.347656249999969
40
0.351562499999968
40
0.351562499999968
40
0.359374999999969
40
0.359374999999969
40
0.37499999999997
40
0.37499999999997
40
0.499999999999976
40
0.499999999999976
40
0.624999999999982
40
0.624999999999982
40
0.749999999999988
40
0.749999999999988
40
0.874999999999994
40
0.874999999999994
40
1
40
1
40
1
40
1
41
1
10
10.0351850784777
20
-3.19750709584446
30
0
41
1
10
9.86092253732073
20
-3.21609170936313
30
0
41
1
10
9.69234916703616
20
-3.22815309416592
30
0
41
1
10
9.45709673818033
20
-3.23024759116822
30
0
41
1
10
9.38284253838091
20
-3.22820440000038
30
0
41
1
10
9.24642755141366
20
-3.21681102438157
30
0
41
1
10
9.18411929687716
20
-3.20753064231136
30
0
41
1
10
9.07928772357309
20
-3.17793435099026
30
0
41
1
10
9.03852956087491
20
-3.15794012885752
30
0
41
1
10
9.00599525289073
20
-3.11778521200881
30
0
41
1
10
9.00023294188969
20
-3.1030346429807
30
0
41
1
10
8.99977990921263
20
-3.0707542632301
30
0
41
1
10
9.00519745774307
20
-3.05301123022491
30
0
41
1
10
9.02740228966707
20
-3.01571483282442
30
0
41
1
10
9.04391410510178
20
-2.99640889317462
30
0
41
1
10
9.08651062322323
20
-2.95679500909523
30
0
41
1
10
9.11280715346291
20
-2.9363863205223
30
0
41
1
10
9.20108580791612
20
-2.87617721136718
30
0
41
1
10
9.2733255802452
20
-2.83644456468929
30
0
41
1
10
9.43270099052955
20
-2.75948829651816
30
0
41
1
10
9.51845046635265
20
-2.72291662592949
30
0
41
1
10
9.69768376151814
20
-2.65264939542826
30
0
41
1
10
9.79124136614763
20
-2.61896978163716
30
0
41
1
10
9.98410071294754
20
-2.55409046906149
30
0
41
1
10
10.0827784257076
20
-2.52311272419899
30
0
41
1
10
10.1955241156149
20
-2.4897391679232
30
0
41
1
10
10.208081824653
20
-2.48607444277144
30
0
41
1
10
10.2331249988228
20
-2.47858852077545
30
0
41
1
10
10.2457073090313
20
-2.47494258090271
30
0
41
1
10
10.2855973835443
20
-2.46793735851796
30
0
41
1
10
10.314556715098
20
-2.4671356836121
30
0
41
1
10
10.3993807101036
20
-2.46969049100724
30
0
41
1
10
10.4558561567906
20
-2.47213695175392
30
0
41
1
10
10.9642697579356
20
-2.49275113066122
30
0
41
1
10
11.4149563171673
20
-2.52176012535134
30
0
41
1
10
12.3107562360849
20
-2.59660741636228
30
0
41
1
10
12.7563092791393
20
-2.64248634400084
30
0
41
1
10
13.6431196296544
20
-2.74432044027367
30
0
41
1
10
14.08236077228
20
-2.79995831329475
30
0
41
1
10
14.9528436590681
20
-2.91151420625397
30
0
41
1
10
15.3842179871628
20
-2.96737232433924
30
0
41
1
10
16.2409998082434
20
-3.06922161130987
30
0
41
1
10
16.666403322605
20
-3.1151889132322
30
0
41
1
10
17.0899422762673
20
-3.15145140788678
30
0
0
SPLINE
5
B0
100
AcDbEntity
8
1
62
256
6
ByLayer
370
18
48
1
60
0
100
AcDbSpline
70
4
71
3
72
14
73
10
40
0
40
0
40
0
40
0
40
0.25
40
0.25
40
0.5
40
0.5
40
0.75
40
0.75
40
1
40
1
40
1
40
1
41
1
10
41.7651430748539
20
0.704524640865799
30
0
41
1
10
41.7640143518708
20
0.719869514496736
30
0
41
1
10
41.7669423616771
20
0.735479558916126
30
0
41
1
10
41.7818348241079
20
0.762689862034165
30
0
41
1
10
41.7937914508055
20
0.774104893948362
30
0
41
1
10
41.8208670587481
20
0.790245066722463
30
0
41
1
10
41.8361947237265
20
0.79542963799679
30
0
41
1
10
41.8670290857944
20
0.801442022505682
30
0
41
1
10
41.882897047084
20
0.802380376220071
30
0
41
1
10
41.8986922344013
20
0.801797601982543
30
0
0
SPLINE
5
B1
100
AcDbEntity
8
1
62
256
6
ByLayer
370
18
48
1
60
0
100
AcDbSpline
70
4
71
3
72
30
73
26
40
0
40
0
40
0
40
0
40
0.24999999999999
40
0.24999999999999
40
0.374999999999985
40
0.374999999999985
40
0.49999999999998
40
0.49999999999998
40
0.624999999999975
40
0.624999999999975
40
0.74999999999997
40
0.74999999999997
40
0.812499999999968
40
0.812499999999968
40
0.843749999999967
40
0.843749999999967
40
0.851562499999968
40
0.851562499999968
40
0.85937499999997
40
0.85937499999997
40
0.867187499999971
40
0.867187499999971
40
0.874999999999972
40
0.874999999999972
40
1
40
1
40
1
40
1
41
1
10
38.8088948478705
20
0.905285437201854
30
0
41
1
10
39.0786977039469
20
0.70589493411191
30
0
41
1
10
39.3579170660718
20
0.534618626979977
30
0
41
1
10
39.7923126966971
20
0.324180225170892
30
0
41
1
10
39.9397793660724
20
0.261823997952035
30
0
41
1
10
40.2333855402151
20
0.156719268000927
30
0
41
1
10
40.3803489731703
20
0.113573267288928
30
0
41
1
10
40.6746327331034
20
0.048217725888577
30
0
41
1
10
40.8219516500885
20
0.0259254708380467
30
0
41
1
10
41.1170019622053
20
0.0055381500102101
30
0
41
1
10
41.2625315185198
20
0.0075745227779578
30
0
41
1
10
41.4761468721646
20
0.031713528088062
30
0
41
1
10
41.5467453887795
20
0.0433235346361585
30
0
41
1
10
41.6509839569291
20
0.0665556599311117
30
0
41
1
10
41.6853158755508
20
0.0756259734033904
30
0
41
1
10
41.7280997356085
20
0.0873181707994206
30
0
41
1
10
41.7368298261116
20
0.089409470625526
30
0
41
1
10
41.7524008986681
20
0.0974793175030868
30
0
41
1
10
41.7594363096246
20
0.103690685475641
30
0
41
1
10
41.7678230373521
20
0.121359312531638
30
0
41
1
10
41.7680701224665
20
0.132605383040044
30
0
41
1
10
41.769352936402
20
0.154286180207322
30
0
41
1
10
41.7701989296722
20
0.165060837367861
30
0
41
1
10
41.7816048767632
20
0.349186292239295
30
0
41
1
10
41.7782101991967
20
0.526878420529982
30
0
41
1
10
41.7651430748542
20
0.704524640865827
30
0
0
SPLINE
5
B2
100
AcDbEntity
8
1
62
256
6
ByLayer
370
18
48
1
60
0
100
AcDbSpline
70
4
71
3
72
8
73
4
40
0
40
0
40
0
40
0
40
1
40
1
40
1
40
1
41
1
10
41.9171572814815
20
-3.17990867045563
30
0
41
1
10
41.9088963802272
20
-3.20136194723284
30
0
41
1
10
41.9006234585036
20
-3.22279983000652
30
0
41
1
10
41.8923384269585
20
-3.24422226537192
30
0
0
SPLINE
5
B3
100
AcDbEntity
8
1
62
256
6
ByLayer
370
13
48
1
60
0
100
AcDbSpline
70
4
71
3
72
8
73
4
40
0
40
0
40
0
40
0
40
1
40
1
40
1
40
1
41
1
10
10.2691351937902
20
-0.516633143441425
30
0
41
1
10
10.232916493254
20
-0.507135845358022
30
0
41
1
10
10.1976024340294
20
-0.49928868188195
30
0
41
1
10
10.164454494892
20
-0.493211461137548
30
0
0
SPLINE
5
B4
100
AcDbEntity
8
1
62
256
6
ByLayer
370
18
48
1
60
0
100
AcDbSpline
70
4
71
3
72
8
73
4
40
0
40
0
40
0
40
0
40
1
40
1
40
1
40
1
41
1
10
42.8933009640103
20
0.764228307305274
30
0
41
1
10
42.9021242128447
20
0.736997259646444
30
0
41
1
10
42.9103798944219
20
0.709759854200513
30
0
41
1
10
42.9180856260581
20
0.682516288313508
30
0
0
SPLINE
5
B5
100
AcDbEntity
8
1
62
256
6
ByLayer
370
18
48
1
60
0
100
AcDbSpline
70
4
71
3
72
8
73
4
40
0
40
0
40
0
40
0
40
1
40
1
40
1
40
1
41
1
10
42.9180856260581
20
0.682516288313508
30
0
41
1
10
42.9574565985266
20
0.490991614787134
30
0
41
1
10
42.9839024151882
20
0.300175024930923
30
0
41
1
10
42.9908654986466
20
0.110425764972831
30
0
0
SPLINE
5
B6
100
AcDbEntity
8
1
62
256
6
ByLayer
370
18
48
1
60
0
100
AcDbSpline
70
4
71
3
72
70
73
66
40
0
40
0
40
0
40
0
40
0.0334073822539477
40
0.0334073822539477
40
0.0501110733809211
40
0.0501110733809211
40
0.0668147645078946
40
0.0668147645078946
40
0.100222146761842
40
0.100222146761842
40
0.13362952901579
40
0.13362952901579
40
0.167036911269738
40
0.167036911269738
40
0.200444293523685
40
0.200444293523685
40
0.233851675777633
40
0.233851675777633
40
0.267259058031581
40
0.267259058031581
40
0.300666440285528
40
0.300666440285528
40
0.334073822539476
40
0.334073822539476
40
0.367481204793424
40
0.367481204793424
40
0.400888587047371
40
0.400888587047371
40
0.434295969301319
40
0.434295969301319
40
0.467703351555267
40
0.467703351555267
40
0.501110733809214
40
0.501110733809214
40
0.534518116063162
40
0.534518116063162
40
0.56792549831711
40
0.56792549831711
40
0.601332880571057
40
0.601332880571057
40
0.634740262825005
40
0.634740262825005
40
0.668147645078953
40
0.668147645078953
40
0.701555027332901
40
0.701555027332901
40
0.718258718459874
40
0.718258718459874
40
0.734962409586848
40
0.734962409586848
40
0.768369791840794
40
0.768369791840794
40
0.801777174094741
40
0.801777174094741
40
0.835184556348687
40
0.835184556348687
40
0.868591938602633
40
0.868591938602633
40
0.901999320856579
40
0.901999320856579
40
0.935406703110526
40
0.935406703110526
40
0.968814085364472
40
0.968814085364472
40
1
40
1
40
1
40
1
41
1
10
17.0899422762673
20
3.15145140788678
30
0
41
1
10
17.3511899467737
20
3.17933632009058
30
0
41
1
10
17.6118432657248
20
3.20004378015301
30
0
41
1
10
18.0019686823663
20
3.22091021943061
30
0
41
1
10
18.1318407952845
20
3.22617255620207
30
0
41
1
10
18.3910614993925
20
3.23333195781393
30
0
41
1
10
18.5203373196435
20
3.23521905089532
30
0
41
1
10
18.9082546222267
20
3.23573382769476
30
0
41
1
10
19.1668575746259
20
3.22933193684767
30
0
41
1
10
19.6830992328579
20
3.20309193343434
30
0
41
1
10
19.9407838550308
20
3.18315479579889
30
0
41
1
10
20.4570457268719
20
3.13032025159754
30
0
41
1
10
20.7156086244773
20
3.09753339350735
30
0
41
1
10
21.2324713698707
20
3.01827598879387
30
0
41
1
10
21.4914266980736
20
2.97220341536891
30
0
41
1
10
22.0111881913683
20
2.867939389811
30
0
41
1
10
22.2714545170566
20
2.80919435479868
30
0
41
1
10
22.7940951343032
20
2.67948634170048
30
0
41
1
10
23.0553934140642
20
2.60922644857439
30
0
41
1
10
23.5755310521502
20
2.45825079759462
30
0
41
1
10
23.8343513391328
20
2.37687772453779
30
0
41
1
10
24.3520087986528
20
2.20624757465441
30
0
41
1
10
24.6105082184133
20
2.11652754424841
30
0
41
1
10
25.1264603372975
20
1.92760891605852
30
0
41
1
10
25.384304452694
20
1.8290531359751
30
0
41
1
10
25.9006356768709
20
1.62549134060296
30
0
41
1
10
26.1586177917456
20
1.51954124502694
30
0
41
1
10
26.6753635489031
20
1.30135592326406
30
0
41
1
10
26.9345585266343
20
1.19003229207377
30
0
41
1
10
27.4536761042629
20
0.960983273785217
30
0
41
1
10
27.7136218112762
20
0.843240310109763
30
0
41
1
10
28.2360681999426
20
0.605130811862381
30
0
41
1
10
28.4978310987762
20
0.485104619924215
30
0
41
1
10
29.0175858593406
20
0.242300873496816
30
0
41
1
10
29.2767710154305
20
0.12074692845502
30
0
41
1
10
29.7945838868426
20
-0.120887357302337
30
0
41
1
10
30.0526677711602
20
-0.242180562899733
30
0
41
1
10
30.5684887695425
20
-0.482829020011508
30
0
41
1
10
30.8264929384429
20
-0.601613112597278
30
0
41
1
10
31.3423587656532
20
-0.836846743704115
30
0
41
1
10
31.5998441465205
20
-0.954078547601284
30
0
41
1
10
32.1164479329478
20
-1.18240495427895
30
0
41
1
10
32.3752556551534
20
-1.29417393195143
30
0
41
1
10
32.8934317695328
20
-1.51379608948162
30
0
41
1
10
33.1531842151139
20
-1.62085294712787
30
0
41
1
10
33.5445335307229
20
-1.77584087671187
30
0
41
1
10
33.675347133443
20
-1.82670416734376
30
0
41
1
10
33.9367220218506
20
-1.92675120670657
30
0
41
1
10
34.0670972636367
20
-1.97605341092949
30
0
41
1
10
34.4583469481002
20
-2.11994781144381
30
0
41
1
10
34.7192957761935
20
-2.21069427017264
30
0
41
1
10
35.2404582091906
20
-2.3834847861861
30
0
41
1
10
35.5006936743906
20
-2.4654134044564
30
0
41
1
10
36.022334839204
20
-2.61766672410758
30
0
41
1
10
36.283900223
20
-2.68814345261103
30
0
41
1
10
36.8062495906322
20
-2.81876234712073
30
0
41
1
10
37.0670252086162
20
-2.87783976499838
30
0
41
1
10
37.588534702325
20
-2.98310759224051
30
0
41
1
10
37.8487079968524
20
-3.02979140212113
30
0
41
1
10
38.3693262285578
20
-3.10993581621389
30
0
41
1
10
38.630032557794
20
-3.14328383167228
30
0
41
1
10
39.1518151450356
20
-3.19683275763754
30
0
41
1
10
39.4129429399342
20
-3.21708519350383
30
0
41
1
10
39.9179757813318
20
-3.2424816241809
30
0
41
1
10
40.1614752587217
20
-3.24874164196029
30
0
41
1
10
40.4045242566387
20
-3.24899022175794
30
0
0
SPLINE
5
B7
100
AcDbEntity
8
1
62
256
6
ByLayer
370
18
48
1
60
0
100
AcDbSpline
70
4
71
3
72
29
73
25
40
0
40
0
40
0
40
0
40
0.125
40
0.125
40
0.25
40
0.25
40
0.3125
40
0.3125
40
0.375
40
0.4375
40
0.4375
40
0.5
40
0.5
40
0.625
40
0.625
40
0.6875
40
0.6875
40
0.75
40
0.75
40
0.875
40
0.875
40
0.9375
40
0.9375
40
1
40
1
40
1
40
1
41
1
10
10.0347494139372
20
-0.435972021151542
30
0
41
1
10
10.0347820137758
20
-0.226096804633443
30
0
41
1
10
10.0348122024553
20
-0.0126208918503323
30
0
41
1
10
10.0348674180925
20
0.407074915961601
30
0
41
1
10
10.034892624226
20
0.614259108735268
30
0
41
1
10
10.0349280927694
20
0.920974472701516
30
0
41
1
10
10.0349395147486
20
1.02249106502441
30
0
41
1
10
10.034961300381
20
1.21985057729941
30
0
41
1
10
10.0349821587199
20
1.41265817949616
30
0
41
1
10
10.0350015755282
20
1.59650457317144
30
0
41
1
10
10.0350204327967
20
1.77581302627647
30
0
41
1
10
10.0350296252064
20
1.86361249429026
30
0
41
1
10
10.0350562221525
20
2.11681894735932
30
0
41
1
10
10.0350725342584
20
2.27076560019282
30
0
41
1
10
10.035095436181
20
2.48003947661371
30
0
41
1
10
10.0351028016562
20
2.54616391129616
30
0
41
1
10
10.035117001845
20
2.67093594104588
30
0
41
1
10
10.0351238058642
20
2.72929690353166
30
0
41
1
10
10.0351429508852
20
2.88943309192618
30
0
41
1
10
10.0351542047211
20
2.97770111079183
30
0
41
1
10
10.0351682948472
20
3.08230843302189
30
0
41
1
10
10.035172537116
20
3.11263764218006
30
0
41
1
10
10.0351797727576
20
3.16279885591479
30
0
41
1
10
10.0351827709094
20
3.18268362061997
30
0
41
1
10
10.0351850784776
20
3.19750709584446
30
0
0
SPLINE
5
B8
100
AcDbEntity
8
1
62
256
6
ByLayer
370
18
48
1
60
0
100
AcDbSpline
70
4
71
3
72
8
73
4
40
0
40
0
40
0
40
0
40
1
40
1
40
1
40
1
41
1
10
42.9180856260581
20
-0.682516288313565
30
0
41
1
10
42.9573035031167
20
-0.491736365210358
30
0
41
1
10
42.9838711616904
20
-0.301026706245096
30
0
41
1
10
42.9908654986466
20
-0.110425764972831
30
0
0
SPLINE
5
B9
100
AcDbEntity
8
1
62
256
6
ByLayer
370
18
48
1
60
0
100
AcDbSpline
70
4
71
3
72
52
73
48
40
0
40
0
40
0
40
0
40
0.0152454296911822
40
0.0152454296911822
40
0.0531206054722905
40
0.0531206054722905
40
0.0909957812533988
40
0.0909957812533988
40
0.128870957034507
40
0.128870957034507
40
0.166746132815615
40
0.166746132815615
40
0.204621308596724
40
0.204621308596724
40
0.242496484377832
40
0.242496484377832
40
0.31824683594005
40
0.31824683594005
40
0.35612201172116
40
0.35612201172116
40
0.393997187502269
40
0.393997187502269
40
0.469747539064487
40
0.469747539064487
40
0.507622714845596
40
0.507622714845596
40
0.545497890626704
40
0.545497890626704
40
0.621248242188921
40
0.621248242188921
40
0.659123417970028
40
0.659123417970028
40
0.678061005860583
40
0.678061005860583
40
0.696998593751137
40
0.696998593751137
40
0.772748945313352
40
0.772748945313352
40
0.81062412109446
40
0.81062412109446
40
0.848499296875568
40
0.848499296875568
40
0.924249648437785
40
0.924249648437785
40
0.962124824218892
40
0.962124824218892
40
1
40
1
40
1
40
1
41
1
10
35.0114849756952
20
-2.3076445905032
30
0
41
1
10
34.9205565085463
20
-2.33431896134587
30
0
41
1
10
34.8296202020466
20
-2.36042211073311
30
0
41
1
10
34.5126680007037
20
-2.44945704618331
30
0
41
1
10
34.286536201055
20
-2.50935576087613
30
0
41
1
10
33.8339028856407
20
-2.6212764069802
30
0
41
1
10
33.6072907910288
20
-2.67347633572004
30
0
41
1
10
33.1544510752088
20
-2.7668824927253
30
0
41
1
10
32.9282650953639
20
-2.80900841246532
30
0
41
1
10
32.4763439407308
20
-2.88579906757053
30
0
41
1
10
32.250563499488
20
-2.92003319963024
30
0
41
1
10
31.7986695858528
20
-2.97863343443501
30
0
41
1
10
31.5725391580332
20
-3.00288855297535
30
0
41
1
10
31.1200846843765
20
-3.04042874220767
30
0
41
1
10
30.8933574973983
20
-3.05462323198412
30
0
41
1
10
30.2137177537356
20
-3.08409350407956
30
0
41
1
10
29.7622601538496
20
-3.08497686041523
30
0
41
1
10
29.0842277248362
20
-3.0538866076019
30
0
41
1
10
28.8581467153971
20
-3.03883815161413
30
0
41
1
10
28.4059526492342
20
-2.99892359599772
30
0
41
1
10
28.1792384089703
20
-2.97372897064287
30
0
41
1
10
27.4992107162952
20
-2.88575845138851
30
0
41
1
10
27.0475695556265
20
-2.80935547626882
30
0
41
1
10
26.3694364641094
20
-2.66641836758524
30
0
41
1
10
26.143446452593
20
-2.61405536352149
30
0
41
1
10
25.6911930021914
20
-2.5020944045923
30
0
41
1
10
25.4647715422652
20
-2.44250047029209
30
0
41
1
10
24.7845090986878
20
-2.25106908914401
30
0
41
1
10
24.3326431434147
20
-2.10722237711653
30
0
41
1
10
23.6546029386488
20
-1.87495424952115
30
0
41
1
10
23.4288239320482
20
-1.79415856532168
30
0
41
1
10
23.0897091019986
20
-1.66898827960338
30
0
41
1
10
22.9766073712356
20
-1.62663241351194
30
0
41
1
10
22.7502156504633
20
-1.5403782345484
30
0
41
1
10
22.636888263141
20
-1.49636287336568
30
0
41
1
10
22.0700200088724
20
-1.27367398476585
30
0
41
1
10
21.6174578789038
20
-1.08766775667974
30
0
41
1
10
20.939009070465
20
-0.799681470270684
30
0
41
1
10
20.7130544636304
20
-0.701632422612647
30
0
41
1
10
20.2603787131441
20
-0.504547106904283
30
0
41
1
10
20.0338278450268
20
-0.405146040390804
30
0
41
1
10
19.3533055546453
20
-0.104437753106595
30
0
41
1
10
18.90079963149
20
0.0972481109185708
30
0
41
1
10
18.2223786842589
20
0.397306417152436
30
0
41
1
10
17.9964402559326
20
0.497238176529123
30
0
41
1
10
17.5435304880901
20
0.693703181087102
30
0
41
1
10
17.3167753776181
20
0.790822930383428
30
0
41
1
10
17.0899422762673
20
0.887346107984996
30
0
0
SPLINE
5
BA
100
AcDbEntity
8
1
62
256
6
ByLayer
370
13
48
1
60
0
100
AcDbSpline
70
4
71
3
72
8
73
4
40
0
40
0
40
0
40
0
40
1
40
1
40
1
40
1
41
1
10
10.1630863857519
20
-0.605760294122945
30
0
41
1
10
10.1635405282044
20
-0.602843730100659
30
0
41
1
10
10.1639965659637
20
-0.599924773793504
30
0
41
1
10
10.164454494892
20
-0.597003382881297
30
0
0
SPLINE
5
BB
100
AcDbEntity
8
1
62
256
6
ByLayer
370
18
48
1
60
0
100
AcDbSpline
70
4
71
3
72
16
73
12
40
0
40
0
40
0
40
0
40
0.269323390757481
40
0.269323390757481
40
0.403985086136218
40
0.403985086136218
40
0.538646781514956
40
0.538646781514956
40
0.807970172272432
40
0.807970172272432
40
1
40
1
40
1
40
1
41
1
10
41.3768265239702
20
-2.30377331371437
30
0
41
1
10
41.4187757214823
20
-2.43479180572001
30
0
41
1
10
41.4625763340018
20
-2.54979313363108
30
0
41
1
10
41.5303528674084
20
-2.69930710254547
30
0
41
1
10
41.5532988307235
20
-2.74528547582514
30
0
41
1
10
41.5998638852332
20
-2.82936513909831
30
0
41
1
10
41.6235193184547
20
-2.86746460407627
30
0
41
1
10
41.6940160469075
20
-2.96755412909584
30
0
41
1
10
41.740854630318
20
-3.01640019754711
30
0
41
1
10
41.8210094536635
20
-3.06972572863862
30
0
41
1
10
41.8544761777088
20
-3.0828148410848
30
0
41
1
10
41.8876493176272
20
-3.08640223111979
30
0
0
SPLINE
5
BC
100
AcDbEntity
8
1
62
256
6
ByLayer
370
18
48
1
60
0
100
AcDbSpline
70
4
71
3
72
10
73
6
40
0
40
0
40
0
40
0
40
0.5
40
0.5
40
1
40
1
40
1
40
1
41
1
10
10.1630863857518
20
-0.605760294123485
30
0
41
1
10
10.1430668033077
20
-0.596581964500075
30
0
41
1
10
10.1247081584681
20
-0.58503847236102
30
0
41
1
10
10.0912160670262
20
-0.557330849895777
30
0
41
1
10
10.0762276797987
20
-0.541152882586033
30
0
41
1
10
10.0637675021215
20
-0.523521508415797
30
0
0
SPLINE
5
BD
100
AcDbEntity
8
1
62
256
6
ByLayer
370
18
48
1
60
0
100
AcDbSpline
70
4
71
3
72
37
73
33
40
0
40
0
40
0
40
0
40
0.066716722418109
40
0.066716722418109
40
0.143291115101529
40
0.143291115101529
40
0.296439900468369
40
0.296439900468369
40
0.449588685835208
40
0.449588685835208
40
0.526163078518628
40
0.526163078518628
40
0.564450274860338
40
0.564450274860338
40
0.574022073945766
40
0.578807973488479
40
0.578807973488479
40
0.583593873031193
40
0.583593873031193
40
0.59316567211662
40
0.59316567211662
40
0.597951571659334
40
0.597951571659334
40
0.602737471202048
40
0.602737471202048
40
0.755886256568886
40
0.755886256568886
40
0.909035041935724
40
0.909035041935724
40
0.985609434619143
40
0.985609434619143
40
1
40
1
40
1
40
1
41
1
10
17.0899422762673
20
3.15145140786242
30
0
41
1
10
17.0899422762673
20
3.03669777495784
30
0
41
1
10
17.0899422762673
20
2.92263225134181
30
0
41
1
10
17.0899422762673
20
2.67911910269373
30
0
41
1
10
17.0899422762673
20
2.549320752146
30
0
41
1
10
17.0899422762673
20
2.16695131834976
30
0
41
1
10
17.0899422762673
20
1.9231941342558
30
0
41
1
10
17.0899422762673
20
1.45618462386014
30
0
41
1
10
17.0899422762673
20
1.23294519007084
30
0
41
1
10
17.0899422762673
20
0.913393911679719
30
0
41
1
10
17.0899422762673
20
0.809531547634919
30
0
41
1
10
17.0899422762673
20
0.65920223705038
30
0
41
1
10
17.0899422762673
20
0.609926949499538
30
0
41
1
10
17.0899422762673
20
0.549398402766144
30
0
41
1
10
17.0899422762672
20
0.531322896269415
30
0
41
1
10
17.0899422762673
20
0.513371756824512
30
0
41
1
10
17.0899422762673
20
0.501431947086132
30
0
41
1
10
17.0899422762673
20
0.495216714550821
30
0
41
1
10
17.0899422762673
20
0.478467843219903
30
0
41
1
10
17.0899422762735
20
0.471661293726754
30
0
41
1
10
17.0899422762735
20
0.469671104739831
30
0
41
1
10
17.0899422762674
20
0.469661103739838
30
0
41
1
10
17.0899422762674
20
0.469123492527103
30
0
41
1
10
17.0899422762673
20
0.46887623710424
30
0
41
1
10
17.0899422762673
20
0.461441382845578
30
0
41
1
10
17.0899422762673
20
0.476913496310829
30
0
41
1
10
17.0899422762673
20
0.553460562334408
30
0
41
1
10
17.0899422762673
20
0.614284478818291
30
0
41
1
10
17.0899422762673
20
0.741727628711431
30
0
41
1
10
17.0899422762673
20
0.79052895707315
30
0
41
1
10
17.0899422762673
20
0.854761264346166
30
0
41
1
10
17.0899422762673
20
0.86511431856249
30
0
41
1
10
17.0899422762673
20
0.875659004829373
30
0
0
SPLINE
5
BE
100
AcDbEntity
8
1
62
256
6
ByLayer
370
18
48
1
60
0
100
AcDbSpline
70
4
71
3
72
14
73
10
40
0
40
0
40
0
40
0
40
0.18424045837968
40
0.18424045837968
40
0.389980660800942
40
0.389980660800942
40
0.801461065643471
40
0.801461065643471
40
1
40
1
40
1
40
1
41
1
10
20.0659705112999
20
-3.07364049135865
30
0
41
1
10
19.7720140775713
20
-3.07521111912976
30
0
41
1
10
19.4775667483157
20
-3.06840428446941
30
0
41
1
10
18.852655192191
20
-3.03642566510484
30
0
41
1
10
18.5216192447539
20
-3.00913877411975
30
0
41
1
10
17.5255607604444
20
-2.8959924496703
30
0
41
1
10
16.8647220260788
20
-2.77966443064298
30
0
41
1
10
15.8824588779992
20
-2.55351463931552
30
0
41
1
10
15.5617437059142
20
-2.4711742223742
30
0
41
1
10
15.2419143484824
20
-2.38139576055778
30
0
0
SPLINE
5
BF
100
AcDbEntity
8
1
62
256
6
ByLayer
370
13
48
1
60
0
100
AcDbSpline
70
4
71
3
72
12
73
8
40
0
40
0
40
0
40
0
40
0.0069516866136368
40
0.0069516866136368
40
0.205561349290911
40
0.205561349290911
40
1
40
1
40
1
40
1
41
1
10
15.241914348236
20
-2.38139576048866
30
0
41
1
10
15.2303137172112
20
-2.37813937771657
30
0
41
1
10
15.2187142515714
20
-2.37487320939152
30
0
41
1
10
14.875755248445
20
-2.27800509728499
30
0
41
1
10
14.5456836975817
20
-2.17674034472427
30
0
41
1
10
12.8992450278398
20
-1.63679287292018
30
0
41
1
10
11.5951916909692
20
-1.09581348077842
30
0
41
1
10
10.2691351937902
20
-0.516633143441396
30
0
0
SPLINE
5
C0
100
AcDbEntity
8
1
62
256
6
ByLayer
370
18
48
1
60
0
100
AcDbSpline
70
4
71
3
72
8
73
4
40
0
40
0
40
0
40
0
40
1
40
1
40
1
40
1
41
1
10
41.8923384269585
20
3.24422226537195
30
0
41
1
10
41.7549797715203
20
3.24795996100124
30
0
41
1
10
41.6176703993603
20
3.24977152013921
30
0
41
1
10
41.4803698099235
20
3.24966319504514
30
0
0
SPLINE
5
C1
100
AcDbEntity
8
1
62
256
6
ByLayer
370
18
48
1
60
0
100
AcDbSpline
70
4
71
3
72
24
73
20
40
0
40
0
40
0
40
0
40
0.152542348454623
40
0.152542348454623
40
0.322033878763701
40
0.322033878763701
40
0.364406761340969
40
0.364406761340969
40
0.406779643918238
40
0.406779643918238
40
0.491525409072775
40
0.491525409072775
40
0.66101693938185
40
0.66101693938185
40
0.745762704536388
40
0.745762704536388
40
0.830508469690926
40
0.830508469690926
40
1
40
1
40
1
40
1
41
1
10
21.8680690925746
20
-3.08457167952724
30
0
41
1
10
21.2750122980862
20
-3.16843356782309
30
0
41
1
10
20.6840541508836
20
-3.21790694341917
30
0
41
1
10
19.4342054681745
20
-3.24749801244454
30
0
41
1
10
18.7748787734339
20
-3.21918679604787
30
0
41
1
10
17.9427850536512
20
-3.12844981188925
30
0
41
1
10
17.7758790311452
20
-3.10752043740192
30
0
41
1
10
17.4434207954301
20
-3.06044416944513
30
0
41
1
10
17.277595569369
20
-3.03426905503693
30
0
41
1
10
16.7809768208426
20
-2.9481833605854
30
0
41
1
10
16.4510161419462
20
-2.88074251716793
30
0
41
1
10
15.4628599836416
20
-2.65040982461181
30
0
41
1
10
14.8066660076311
20
-2.45906538206404
30
0
41
1
10
13.8186219237908
20
-2.12574922992809
30
0
41
1
10
13.4887113420263
20
-2.00685617917907
30
0
41
1
10
12.826583708032
20
-1.75524514218225
30
0
41
1
10
12.4938025422641
20
-1.62230057256073
30
0
41
1
10
11.4939919577671
20
-1.20728913368288
30
0
41
1
10
10.8297266839681
20
-0.911393261962132
30
0
41
1
10
10.163086385752
20
-0.605760294123598
30
0
0
SPLINE
5
C2
100
AcDbEntity
8
1
62
256
6
ByLayer
370
18
48
1
60
0
100
AcDbSpline
70
4
71
3
72
8
73
4
40
0
40
0
40
0
40
0
40
1
40
1
40
1
40
1
41
1
10
42.8964303270021
20
-0.774911782207454
30
0
41
1
10
42.9040253441745
20
-0.743872261514412
30
0
41
1
10
42.9112493629196
20
-0.71308452326727
30
0
41
1
10
42.9180856260581
20
-0.682516288313565
30
0
0
SPLINE
5
C3
100
AcDbEntity
8
1
62
256
6
ByLayer
370
18
48
1
60
0
100
AcDbSpline
70
4
71
3
72
24
73
20
40
0
40
0
40
0
40
0
40
0.0583445644333079
40
0.0583445644333079
40
0.160415406805742
40
0.160415406805742
40
0.262486249178177
40
0.262486249178177
40
0.466627933923045
40
0.466627933923045
40
0.670769618667914
40
0.670769618667914
40
0.772840461040347
40
0.772840461040347
40
0.823875882226563
40
0.823875882226563
40
0.874911303412779
40
0.874911303412779
40
1
40
1
40
1
40
1
41
1
10
25.5117745638082
20
2.132277215286
30
0
41
1
10
25.7015276114867
20
2.06784967022085
30
0
41
1
10
25.8913603476401
20
2.00097527825724
30
0
41
1
10
26.4137556393398
20
1.81082441290479
30
0
41
1
10
26.7457063821986
20
1.68334350250544
30
0
41
1
10
27.4099209426385
20
1.41758459132674
30
0
41
1
10
27.7428290554791
20
1.27896264442495
30
0
41
1
10
28.7364516059872
20
0.85317092700484
30
0
41
1
10
29.3933392233791
20
0.556115533882689
30
0
41
1
10
30.705100494062
20
-0.0441799288371669
30
0
41
1
10
31.360001005648
20
-0.347357210967516
30
0
41
1
10
32.3475412882791
20
-0.791759572822031
30
0
41
1
10
32.6776135027427
20
-0.938104535879745
30
0
41
1
10
33.1749168532067
20
-1.15301649755787
30
0
41
1
10
33.3412479357364
20
-1.22396721334846
30
0
41
1
10
33.6732510735594
20
-1.36342309651897
30
0
41
1
10
33.839033555221
20
-1.43197605383574
30
0
41
1
10
34.4107001664289
20
-1.6638907671196
30
0
41
1
10
34.8159236820397
20
-1.82049049211506
30
0
41
1
10
35.2214063659843
20
-1.96712040443839
30
0
0
SPLINE
5
C4
100
AcDbEntity
8
1
62
256
6
ByLayer
370
13
48
1
60
0
100
AcDbSpline
70
4
71
3
72
14
73
10
40
0
40
0
40
0
40
0
40
0.11432465432464
40
0.11432465432464
40
0.261937211937198
40
0.261937211937198
40
0.409549769549756
40
0.409549769549756
40
1
40
1
40
1
40
1
41
1
10
35.2214063658533
20
-1.96712040439104
30
0
41
1
10
35.4776614767626
20
-2.05978691256359
30
0
41
1
10
35.7340200976898
20
-2.14847154736103
30
0
41
1
10
36.3222260153697
20
-2.34146624678848
30
0
41
1
10
36.6551236852146
20
-2.44294531977374
30
0
41
1
10
37.317106184538
20
-2.62726420677782
30
0
41
1
10
37.6466716149255
20
-2.71036560857354
30
0
41
1
10
39.2903601759109
20
-3.0781692165375
30
0
41
1
10
40.5924940361215
20
-3.21780606999135
30
0
41
1
10
41.9171572814813
20
-3.17990867045563
30
0
0
SPLINE
5
C5
100
AcDbEntity
8
1
62
256
6
ByLayer
370
18
48
1
60
0
100
AcDbSpline
70
4
71
3
72
10
73
6
40
0
40
0
40
0
40
0
40
0.5
40
0.5
40
1
40
1
40
1
40
1
41
1
10
42.9908654986466
20
0.110425764972859
30
0
41
1
10
42.9912324786053
20
0.100425285156859
30
0
41
1
10
42.9922503376832
20
0.0892572147078852
30
0
41
1
10
42.9952510620195
20
0.0658201757789527
30
0
41
1
10
42.9972423811881
20
0.0534347181634018
30
0
41
1
10
42.9996904220775
20
0.0404463849567378
30
0
0
SPLINE
5
C6
100
AcDbEntity
8
1
62
256
6
ByLayer
370
18
48
1
60
0
100
AcDbSpline
70
4
71
3
72
8
73
4
40
0
40
0
40
0
40
0
40
1
40
1
40
1
40
1
41
1
10
42.9180856260581
20
0.682516288313508
30
0
41
1
10
42.9112609863641
20
0.713032549232253
30
0
41
1
10
42.9040384047414
20
0.743818885237772
30
0
41
1
10
42.8964303270021
20
0.774911782207454
30
0
0
SPLINE
5
C7
100
AcDbEntity
8
1
62
256
6
ByLayer
370
18
48
1
60
0
100
AcDbSpline
70
4
71
3
72
32
73
28
40
0
40
0
40
0
40
0
40
0.0741856254527701
40
0.0741856254527701
40
0.151336823331706
40
0.151336823331706
40
0.228488021210642
40
0.228488021210642
40
0.305639219089578
40
0.305639219089578
40
0.382790416968513
40
0.382790416968513
40
0.459941614847449
40
0.459941614847449
40
0.537092812726385
40
0.537092812726385
40
0.614244010605321
40
0.614244010605321
40
0.691395208484257
40
0.691395208484257
40
0.768546406363192
40
0.768546406363192
40
0.845697604242128
40
0.845697604242128
40
0.922848802121064
40
0.922848802121064
40
1
40
1
40
1
40
1
41
1
10
30.0155269517359
20
3.07945465242281
30
0
41
1
10
30.2328030256936
20
3.07898005211109
30
0
41
1
10
30.4501666089581
20
3.07385435769049
30
0
41
1
10
30.8942667884757
20
3.05456953395128
30
0
41
1
10
31.1210360800831
20
3.04036454376833
30
0
41
1
10
31.5736637449926
20
3.00278043918988
30
0
41
1
10
31.7998353050921
20
2.97849906397394
30
0
41
1
10
32.2517344574638
20
2.91986446978513
30
0
41
1
10
32.4774790399107
20
2.88561899104587
30
0
41
1
10
32.9292611320616
20
2.80882630485337
30
0
41
1
10
33.1553464140688
20
2.76670858863932
30
0
41
1
10
33.6079075479337
20
2.67333830739656
30
0
41
1
10
33.8344483491528
20
2.62114864525429
30
0
41
1
10
34.2872230706005
20
2.50917878965231
30
0
41
1
10
34.513400017976
20
2.44925945644724
30
0
41
1
10
34.9654200561889
20
2.32226655187446
30
0
41
1
10
35.1912365943949
20
2.25537898971564
30
0
41
1
10
35.6430865617621
20
2.11418706832347
30
0
41
1
10
35.8691282461388
20
2.0395880688024
30
0
41
1
10
36.3215753564697
20
1.88391395497587
30
0
41
1
10
36.5480876847323
20
1.80247222394107
30
0
41
1
10
37.0010938179581
20
1.63560931360968
30
0
41
1
10
37.227391687312
20
1.55008522730952
30
0
41
1
10
37.6793474779943
20
1.37321860162345
30
0
41
1
10
37.9050312488069
20
1.28179885419911
30
0
41
1
10
38.3567759520032
20
1.09597816690032
30
0
41
1
10
38.5827909993517
20
1.00143583354532
30
0
41
1
10
38.8088948478705
20
0.905285437201826
30
0
0
SPLINE
5
C8
100
AcDbEntity
8
1
62
256
6
ByLayer
370
18
48
1
60
0
100
AcDbSpline
70
4
71
3
72
8
73
4
40
0
40
0
40
0
40
0
40
1
40
1
40
1
40
1
41
1
10
42.0188742629733
20
3.16259386513536
30
0
41
1
10
41.9778409413981
20
3.20576074008125
30
0
41
1
10
41.9358245793268
20
3.23307873707691
30
0
41
1
10
41.8923384269585
20
3.24422226537195
30
0
0
SPLINE
5
C9
100
AcDbEntity
8
1
62
256
6
ByLayer
370
18
48
1
60
0
100
AcDbSpline
70
4
71
3
72
10
73
6
40
0
40
0
40
0
40
0
40
0.5
40
0.5
40
1
40
1
40
1
40
1
41
1
10
10.0637675021215
20
-0.523521508415769
30
0
41
1
10
10.0759058283893
20
-0.538731911170174
30
0
41
1
10
10.0906436088071
20
-0.553004170730702
30
0
41
1
10
10.1245009777707
20
-0.577952225096567
30
0
41
1
10
10.1433619445695
20
-0.588551318266838
30
0
41
1
10
10.164454494892
20
-0.597003382881297
30
0
0
SPLINE
5
CA
100
AcDbEntity
8
1
62
256
6
ByLayer
370
18
48
1
60
0
100
AcDbSpline
70
4
71
3
72
14
73
10
40
0
40
0
40
0
40
0
40
0.197013083162908
40
0.197013083162908
40
0.394026166325816
40
0.394026166325816
40
0.788052332651631
40
0.788052332651631
40
1
40
1
40
1
40
1
41
1
10
10.2700929479756
20
-3.03930014435647
30
0
41
1
10
10.3965731236803
20
-3.02609379998725
30
0
41
1
10
10.5264871106901
20
-3.00876770159758
30
0
41
1
10
10.7909423819681
20
-2.96774234184255
30
0
41
1
10
10.9255120221804
20
-2.94402007135429
30
0
41
1
10
11.3344506288344
20
-2.86477164304696
30
0
41
1
10
11.6149824829644
20
-2.80091766801459
30
0
41
1
10
12.047004837054
20
-2.69129504903367
30
0
41
1
10
12.1984958107144
20
-2.65075020744558
30
0
41
1
10
12.3503094315636
20
-2.60833676297574
30
0
0
SPLINE
5
CB
100
AcDbEntity
8
1
62
256
6
ByLayer
370
18
48
1
60
0
100
AcDbSpline
70
4
71
3
72
14
73
10
40
0
40
0
40
0
40
0
40
0.25
40
0.25
40
0.5
40
0.5
40
0.75
40
0.75
40
1
40
1
40
1
40
1
41
1
10
10.0351850784776
20
-3.19750709584451
30
0
41
1
10
10.0430217137535
20
-3.17958925267081
30
0
41
1
10
10.0538844787337
20
-3.16129420731647
30
0
41
1
10
10.0839806727942
20
-3.12473905604142
30
0
41
1
10
10.10337635964
20
-3.10664256069592
30
0
41
1
10
10.1489742740741
20
-3.0756377883323
30
0
41
1
10
10.1750676901827
20
-3.06305344118934
30
0
41
1
10
10.224402327592
20
-3.0463068305157
30
0
41
1
10
10.2480648287897
20
-3.04160019593508
30
0
41
1
10
10.2700929480046
20
-3.03930014435346
30
0
0
SPLINE
5
CC
100
AcDbEntity
8
1
62
256
6
ByLayer
370
13
48
1
60
0
100
AcDbSpline
70
4
71
3
72
31
73
27
40
0
40
0
40
0
40
0
40
0.125
40
0.125
40
0.1875
40
0.1875
40
0.25
40
0.3125
40
0.3125
40
0.374999999999999
40
0.374999999999999
40
0.437499999999999
40
0.437499999999999
40
0.499999999999999
40
0.499999999999999
40
0.624999999999999
40
0.624999999999999
40
0.687499999999999
40
0.687499999999999
40
0.749999999999999
40
0.749999999999999
40
0.875
40
0.875
40
0.9375
40
0.9375
40
1
40
1
40
1
40
1
41
1
10
10.2691351937902
20
-0.516633143441396
30
0
41
1
10
10.269211359773
20
-0.313255756803983
30
0
41
1
10
10.2692802316268
20
-0.108752746756636
30
0
41
1
10
10.2693756845949
20
0.199674812980675
30
0
41
1
10
10.2694061360123
20
0.302645818829262
30
0
41
1
10
10.2694638240665
20
0.505269446614591
30
0
41
1
10
10.2695186079809
20
0.70556072185957
30
0
41
1
10
10.2695687393966
20
0.901254569313409
30
0
41
1
10
10.2696170386311
20
1.09461424393692
30
0
41
1
10
10.2696403653304
20
1.19052418345169
30
0
41
1
10
10.2696850558769
20
1.37754019672036
30
0
41
1
10
10.2697064272961
20
1.46865102636991
30
0
41
1
10
10.2697476675249
20
1.64607839476602
30
0
41
1
10
10.2697675233816
20
1.73234202392345
30
0
41
1
10
10.2698244083466
20
1.9796815319163
30
0
41
1
10
10.2698591839846
20
2.13095979932217
30
0
41
1
10
10.2699079624466
20
2.33747203458262
30
0
41
1
10
10.2699237242866
20
2.40322216190941
30
0
41
1
10
10.2699536290721
20
2.52563458670122
30
0
41
1
10
10.2699677636119
20
2.5822797093299
30
0
41
1
10
10.2700077171726
20
2.73889864163539
30
0
41
1
10
10.270031166729
20
2.82568959175151
30
0
41
1
10
10.2700601673215
20
2.92848294442987
30
0
41
1
10
10.2700686770401
20
2.95776724562956
30
0
41
1
10
10.2700829337934
20
3.00605448983978
30
0
41
1
10
10.2700887127878
20
3.02516938347551
30
0
41
1
10
10.2700929480046
20
3.03930014435829
30
0
0
SPLINE
5
CD
100
AcDbEntity
8
1
62
256
6
ByLayer
370
18
48
1
60
0
100
AcDbSpline
70
4
71
3
72
14
73
10
40
0
40
0
40
0
40
0
40
0.496154759276354
40
0.496154759276354
40
0.744232138914531
40
0.744232138914531
40
0.992309518552709
40
0.992309518552709
40
1
40
1
40
1
40
1
41
1
10
17.0899422762673
20
-3.15145140788678
30
0
41
1
10
17.3511899467738
20
-3.17933632009058
30
0
41
1
10
17.6118432657248
20
-3.20004378015301
30
0
41
1
10
18.0019686823662
20
-3.22091021943063
30
0
41
1
10
18.1318407952845
20
-3.22617255620207
30
0
41
1
10
18.3910614993925
20
-3.23333195781393
30
0
41
1
10
18.5203373196436
20
-3.23521905089532
30
0
41
1
10
18.6536516090593
20
-3.23539596257925
30
0
41
1
10
18.6576601288853
20
-3.23539966145748
30
0
41
1
10
18.6616686448858
20
-3.23540173989693
30
0
0
SPLINE
5
CE
100
AcDbEntity
8
1
62
256
6
ByLayer
370
18
48
1
60
0
100
AcDbSpline
70
4
71
3
72
28
73
24
40
0
40
0
40
0
40
0
40
0.0003886713940858
40
0.0003886713940858
40
0.111456596794743
40
0.111456596794743
40
0.2225245221954
40
0.2225245221954
40
0.333592447596057
40
0.333592447596057
40
0.444660372996714
40
0.444660372996714
40
0.555728298397371
40
0.555728298397371
40
0.666796223798029
40
0.666796223798029
40
0.777864149198686
40
0.777864149198686
40
0.888932074599343
40
0.888932074599343
40
0.944466037299671
40
0.944466037299671
40
1
40
1
40
1
40
1
41
1
10
34.9771413433976
20
2.29618237290347
30
0
41
1
10
34.9780532309837
20
2.2964848113032
30
0
41
1
10
34.9789651140887
20
2.29678719638329
30
0
41
1
10
35.2404582091906
20
2.3834847861861
30
0
41
1
10
35.5006936743906
20
2.46541340445643
30
0
41
1
10
36.022334839204
20
2.61766672410758
30
0
41
1
10
36.2839002230001
20
2.688143452611
30
0
41
1
10
36.8062495906322
20
2.81876234712075
30
0
41
1
10
37.0670252086162
20
2.87783976499838
30
0
41
1
10
37.5885347023249
20
2.98310759224051
30
0
41
1
10
37.8487079968524
20
3.02979140212113
30
0
41
1
10
38.3693262285578
20
3.10993581621389
30
0
41
1
10
38.630032557794
20
3.14328383167228
30
0
41
1
10
39.1518151450356
20
3.19683275763754
30
0
41
1
10
39.4129429399342
20
3.21708519350383
30
0
41
1
10
39.9353446749699
20
3.24335504837643
30
0
41
1
10
40.196163989388
20
3.24960302978323
30
0
41
1
10
40.7167494430699
20
3.24830063160931
30
0
41
1
10
40.9769360264658
20
3.24071206457012
30
0
41
1
10
41.3676669215331
20
3.2191716696822
30
0
41
1
10
41.4979396316727
20
3.21029388673503
30
0
41
1
10
41.7583942409774
20
3.18905052479147
30
0
41
1
10
41.8885071989664
20
3.17664078688097
30
0
41
1
10
42.0188742629741
20
3.16259386513454
30
0
0
LINE
5
76
100
AcDbEntity
8
81
62
256
6
ByLayer
370
18
48
1
60
0
100
AcDbLine
10
43
20
0
30
0
11
48
21
0
31
0
39
0
210
0
220
0
230
1
0
LINE
5
77
100
AcDbEntity
8
1
62
256
6
ByLayer
370
18
48
1
60
0
100
AcDbLine
10
9.508082
20
3.229681
30
0
11
1
21
3.224363
31
0
39
0
210
0
220
0
230
1
0
LINE
5
79
100
AcDbEntity
8
1
62
256
6
ByLayer
370
18
48
1
60
0
100
AcDbLine
10
19.731594
20
3.23607
30
0
11
18.660392
21
3.235401
31
0
39
0
210
0
220
0
230
1
0
LINE
5
7A
100
AcDbEntity
8
1
62
256
6
ByLayer
370
18
48
1
60
0
100
AcDbLine
10
41.483029
20
3.249665
30
0
11
40.410003
21
3.248995
31
0
39
0
210
0
220
0
230
1
0
LINE
5
7B
100
AcDbEntity
8
1
62
256
6
ByLayer
370
18
48
1
60
0
100
AcDbLine
10
40.410003
20
-3.248995
30
0
11
41.483141
21
-3.249665
31
0
39
0
210
0
220
0
230
1
0
LINE
5
7C
100
AcDbEntity
8
1
62
256
6
ByLayer
370
18
48
1
60
0
100
AcDbLine
10
18.660392
20
-3.235401
30
0
11
19.731531
21
-3.23607
31
0
39
0
210
0
220
0
230
1
0
LINE
5
7D
100
AcDbEntity
8
1
62
256
6
ByLayer
370
18
48
1
60
0
100
AcDbLine
10
1
20
-3.224363
30
0
11
9.508082
21
-3.229681
31
0
39
0
210
0
220
0
230
1
0
LINE
5
7E
100
AcDbEntity
8
1
62
256
6
ByLayer
370
18
48
1
60
0
100
AcDbLine
10
1
20
3.224363
30
0
11
0.350219
21
3.223957
31
0
39
0
210
0
220
0
230
1
0
LINE
5
7F
100
AcDbEntity
8
1
62
256
6
ByLayer
370
18
48
1
60
0
100
AcDbLine
10
0.350219
20
-3.223957
30
0
11
1
21
-3.224363
31
0
39
0
210
0
220
0
230
1
0
LINE
5
80
100
AcDbEntity
8
SK1
62
256
6
ByLayer
370
18
48
1
60
0
100
AcDbLine
10
0
20
4
30
0
11
-35.133975
21
4
31
0
39
0
210
0
220
0
230
1
0
LINE
5
82
100
AcDbEntity
8
SK1
62
256
6
ByLayer
370
18
48
1
60
0
100
AcDbLine
10
-35.133975
20
-4
30
0
11
0
21
-4
31
0
39
0
210
0
220
0
230
1
0
LINE
5
83
100
AcDbEntity
8
SK1
62
256
6
ByLayer
370
18
48
1
60
0
100
AcDbLine
10
-35.133975
20
4
30
0
11
-36
21
2.5
31
0
39
0
210
0
220
0
230
1
0
LINE
5
84
100
AcDbEntity
8
SK1
62
256
6
ByLayer
370
18
48
1
60
0
100
AcDbLine
10
-36
20
-2.5
30
0
11
-35.133975
21
-4
31
0
39
0
210
0
220
0
230
1
0
LINE
5
85
100
AcDbEntity
8
SK4
62
256
6
ByLayer
370
18
48
0.05
60
0
100
AcDbLine
10
48
20
0
30
0
11
-41
21
0
31
0
39
0
210
0
220
0
230
1
0
LINE
5
87
100
AcDbEntity
8
4
62
256
6
ByLayer
370
18
48
0.05
60
0
100
AcDbLine
10
43
20
0
30
0
11
0
21
0
31
0
39
0
210
0
220
0
230
1
0
LINE
5
89
100
AcDbEntity
8
80
62
256
6
ByLayer
370
18
48
1
60
0
100
AcDbLine
10
0
20
0
30
0
11
-5
21
0
31
0
39
0
210
0
220
0
230
1
0
LINE
5
8A
100
AcDbEntity
8
1
62
256
6
ByLayer
370
18
48
1
60
0
100
AcDbLine
10
1
20
3.224363
30
0
11
1
21
-3.224363
31
0
39
0
210
0
220
0
230
1
0
LINE
5
8B
100
AcDbEntity
8
1
62
256
6
ByLayer
370
13
48
1
60
0
100
AcDbLine
10
0.350219
20
3.223957
30
0
11
0.350219
21
-3.223957
31
0
39
0
210
0
220
0
230
1
0
LINE
5
8C
100
AcDbEntity
8
1
62
256
6
ByLayer
370
13
48
1
60
0
100
AcDbLine
10
41.898692
20
0.801798
30
0
11
42.990865
21
0.110426
31
0
39
0
210
0
220
0
230
1
0
LINE
5
8D
100
AcDbEntity
8
1
62
256
6
ByLayer
370
13
48
1
60
0
100
AcDbLine
10
41.765143
20
0.704525
30
0
11
42.964411
21
-0.054641
31
0
39
0
210
0
220
0
230
1
0
LINE
5
8E
100
AcDbEntity
8
SK1
62
256
6
ByLayer
370
18
48
1
60
0
100
AcDbLine
10
-36
20
2.5
30
0
11
-36
21
-2.5
31
0
39
0
210
0
220
0
230
1
0
LINE
5
8F
100
AcDbEntity
8
SK1
62
256
6
ByLayer
370
18
48
1
60
0
100
AcDbLine
10
0
20
4
30
0
11
0
21
-4
31
0
39
0
210
0
220
0
230
1
0
LINE
5
90
100
AcDbEntity
8
SK1
62
256
6
ByLayer
370
18
48
1
60
0
100
AcDbLine
10
-35.133975
20
4
30
0
11
-35.133975
21
-4
31
0
39
0
210
0
220
0
230
1
0
MTEXT
5
CF
100
AcDbEntity
8
SK6
62
256
6
ByLayer
370
13
48
1
60
0
100
AcDbMText
10
5.629169
20
35.632694
30
0
210
0
220
0
230
1
1
\W0.7645;460.1-0650-020A0-XM GC34
40
3.5
41
0
44
1.084337
50
0
71
8
72
5
7
iso_b_vert
0
DIMENSION
5
DC
100
AcDbEntity
8
SK2
62
256
6
ByLayer
370
13
48
1
60
0
100
AcDbDimension
2
DimnDraft3D1
10
42.0434
20
-13.463398
30
0
11
19.793459
21
-13.463398
31
0
70
32
71
5
72
1
41
1
210
0
220
0
230
1
3
Standard
100
AcDbAlignedDimension
13
0
23
-1.5875
33
0
14
42.0434
24
-4.8375
34
0
50
0
100
AcDbRotatedDimension
1001
ACAD
1000
DSTYLE
1002
{
1070
   279
1070
     0
1070
   172
1070
     1
1070
   173
1070
     1
1070
   340
1005
D0
1070
   271
1070
     2
1070
   272
1070
     2
1070
    77
1070
     1
1070
    73
1070
     0
1070
   171
1070
     3
1070
   274
1070
     4
1070
   177
1070
    35
1070
   176
1070
    35
1070
   178
1070
    35
1070
    48
1040
-0.005
1070
    41
1041
3.5
1070
   147
1041
1.75
1070
    42
1041
1.5875
1070
    44
1041
2.0
1070
   140
1041
3.5
1070
   343
1005
0
1070
   344
1005
0
1002
}
0
DIMENSION
5
E6
100
AcDbEntity
8
SK2
62
256
6
ByLayer
370
13
48
1
60
0
100
AcDbDimension
2
DimnDraft3D2
10
43
20
-32.692985
30
0
11
3.8847
21
-32.692985
31
0
70
32
71
5
72
1
41
1
210
0
220
0
230
1
3
Standard
100
AcDbAlignedDimension
13
-36
23
-5.5875
33
0
14
43
24
-1.5875
34
0
50
0
100
AcDbRotatedDimension
1001
ACAD
1000
DSTYLE
1002
{
1070
   279
1070
     0
1070
   172
1070
     1
1070
   173
1070
     1
1070
   340
1005
D0
1070
   271
1070
     2
1070
   272
1070
     2
1070
    77
1070
     1
1070
    73
1070
     0
1070
   171
1070
     3
1070
   274
1070
     4
1070
   177
1070
    35
1070
   176
1070
    35
1070
   178
1070
    35
1070
    48
1040
-0.005
1070
    41
1041
3.5
1070
   147
1041
1.75
1070
    42
1041
1.5875
1070
    44
1041
2.0
1070
   140
1041
3.5
1070
   343
1005
0
1070
   344
1005
0
1002
}
0
DIMENSION
5
F0
100
AcDbEntity
8
SK2
62
256
6
ByLayer
370
13
48
1
60
0
100
AcDbDimension
2
DimnDraft3D3
10
43
20
14.859119
30
0
11
32.775
21
14.859119
31
0
70
32
71
5
72
1
41
1
210
0
220
0
230
1
3
Standard
100
AcDbAlignedDimension
13
22.55
23
4.8375
33
0
14
43
24
1.5875
34
0
50
0
100
AcDbRotatedDimension
1001
ACAD
1000
DSTYLE
1002
{
1070
   279
1070
     0
1070
   172
1070
     1
1070
   173
1070
     1
1070
   340
1005
D0
1070
   271
1070
     2
1070
   272
1070
     2
1070
    77
1070
     1
1070
    73
1070
     0
1070
   171
1070
     3
1070
   274
1070
     4
1070
   177
1070
    35
1070
   176
1070
    35
1070
   178
1070
    35
1070
    48
1040
-0.005
1070
    41
1041
3.5
1070
   147
1041
1.75
1070
    42
1041
1.5875
1070
    44
1041
2.0
1070
   140
1041
3.5
1070
   343
1005
0
1070
   344
1005
0
1002
}
0
DIMENSION
5
FA
100
AcDbEntity
8
SK2
62
256
6
ByLayer
370
13
48
1
60
0
100
AcDbDimension
2
DimnDraft3D4
10
42.0434
20
-16.052503
30
0
11
52.981425
21
-16.052503
31
0
70
32
71
5
72
1
41
1
210
0
220
0
230
1
3
Standard
100
AcDbAlignedDimension
13
43
23
-1.5875
33
0
14
42.0434
24
-4.8375
34
0
50
0
100
AcDbRotatedDimension
1001
ACAD
1000
DSTYLE
1002
{
1070
   279
1070
     0
1070
   172
1070
     1
1070
   173
1070
     1
1070
   340
1005
D0
1070
   271
1070
     2
1070
   272
1070
     2
1070
    77
1070
     1
1070
    73
1070
     0
1070
   171
1070
     3
1070
   274
1070
     4
1070
   177
1070
    35
1070
   176
1070
    35
1070
   178
1070
    35
1070
    48
1040
-0.005
1070
    41
1041
3.5
1070
   147
1041
1.75
1070
    42
1041
1.5875
1070
    44
1041
2.0
1070
   140
1041
3.5
1070
   343
1005
0
1070
   344
1005
0
1002
}
0
DIMENSION
5
104
100
AcDbEntity
8
SK2
62
256
6
ByLayer
370
13
48
1
60
0
100
AcDbDimension
2
DimnDraft3D5
10
42.0434
20
-22.343428
30
0
11
0.804076
21
-22.343428
31
0
70
32
71
5
72
1
41
1
210
0
220
0
230
1
3
Standard
100
AcDbAlignedDimension
13
-36
23
-5.5875
33
0
14
42.0434
24
-4.8375
34
0
50
0
100
AcDbRotatedDimension
1001
ACAD
1000
DSTYLE
1002
{
1070
   279
1070
     0
1070
   172
1070
     1
1070
   173
1070
     1
1070
   340
1005
D0
1070
   271
1070
     2
1070
   272
1070
     2
1070
    77
1070
     1
1070
    73
1070
     0
1070
   171
1070
     3
1070
   274
1070
     4
1070
   177
1070
    35
1070
   176
1070
    35
1070
   178
1070
    35
1070
    48
1040
-0.005
1070
    41
1041
3.5
1070
   147
1041
1.75
1070
    42
1041
1.5875
1070
    44
1041
2.0
1070
   140
1041
3.5
1070
   343
1005
0
1070
   344
1005
0
1002
}
0
DIMENSION
5
10F
100
AcDbEntity
8
SK2
62
256
6
ByLayer
370
13
48
1
60
0
100
AcDbDimension
2
DimnDraft3D6
10
-46.625163
20
4
30
0
11
-47.250163
21
22.47418
31
0
70
33
71
5
72
1
41
1
210
0
220
0
230
1
3
Standard
100
AcDbAlignedDimension
13
-37.5875
23
-4
33
0
14
-37.5875
24
4
34
0
1001
ACAD
1000
DSTYLE
1002
{
1070
   279
1070
     0
1070
    74
1070
     0
1070
   173
1070
     1
1070
   340
1005
D0
1070
   271
1070
     3
1070
   272
1070
     2
1070
    77
1070
     1
1070
    73
1070
     0
1070
   171
1070
     3
1070
   274
1070
     4
1070
   177
1070
    35
1070
   176
1070
    35
1070
   178
1070
    35
1070
    48
1040
-0.005
1070
    41
1041
3.5
1070
   147
1041
1.75
1070
    42
1041
1.5875
1070
    44
1041
2.0
1070
   140
1041
3.5
1070
   343
1005
0
1070
   344
1005
0
1002
}
0
DIMENSION
5
11A
100
AcDbEntity
8
2
62
256
6
ByLayer
370
13
48
1
60
0
100
AcDbDimension
2
DimnDraft3D7
10
57.083343
20
3.25
30
0
11
52.458343
21
20.317266
31
0
70
33
71
5
72
1
41
1
210
0
220
0
230
1
3
Standard
100
AcDbAlignedDimension
13
43.6309
23
-3.25
33
0
14
43.6309
24
3.25
34
0
1001
ACAD
1000
DSTYLE
1002
{
1070
   279
1070
     0
1070
    74
1070
     0
1070
   173
1070
     1
1070
   340
1005
D0
1070
   271
1070
     3
1070
   272
1070
     2
1070
    77
1070
     1
1070
    73
1070
     0
1070
   171
1070
     3
1070
   274
1070
     4
1070
   177
1070
    35
1070
   176
1070
    35
1070
   178
1070
    35
1070
    48
1040
-0.005
1070
    41
1041
3.5
1070
   147
1041
1.75
1070
    42
1041
1.5875
1070
    44
1041
2.0
1070
   140
1041
3.5
1070
   343
1005
0
1070
   344
1005
0
1002
}
0
ENDSEC
0
SECTION
2
OBJECTS
0
DICTIONARY
5
185
330
0
100
AcDbDictionary
280
0
281
1
3
ACAD_GROUP
350
186
3
ACAD_MLINESTYLE
350
187
0
DICTIONARY
5
186
330
0
100
AcDbDictionary
280
0
281
1
0
DICTIONARY
5
187
330
0
100
AcDbDictionary
280
0
281
1
3
Standard
350
18
0
MLINESTYLE
5
18
330
187
100
AcDbMlineStyle
2
Standard
70
0
3

62
256
51
90
52
90
71
2
49
-0.5
62
256
6
ByLayer
49
0.5
62
256
6
ByLayer
0
RASTERVARIABLES
5
173
330

100
AcDbRasterVariables
90
0
70
1
71
1
72
1
0
ENDSEC
0
EOF
