0
SECTION
2
HEADER
9
$ACADVER
1
AC1015
9
$DWGCODEPAGE
3
ANSI_1252
9
$HANDSEED
5
1a5
9
$ANGBASE
50
0
9
$ANGDIR
70
0
9
$ATTMODE
70
1
9
$AUNITS
70
0
9
$AUPREC
70
0
9
$CECOLOR
62
256
9
$CELTSCALE
40
1
9
$CELTYPE
6
ByLayer
9
$CELWEIGHT
370
18
9
$CLAYER
8
0
9
$CMLJUST
70
0
9
$CMLSCALE
40
1
9
$CMLSTYLE
2
Standard
9
$DIMSTYLE
2
Standard
9
$TEXTSIZE
40
0.2
9
$TEXTSTYLE
7
Standard
9
$LUNITS
70
2
9
$LUPREC
70
4
9
$EXTNAMES
290
1
9
$INSUNITS
70
4
9
$LTSCALE
40
1
9
$LWDISPLAY
290
1
9
$PDMODE
70
0
9
$PDSIZE
40
0
9
$PLINEGEN
70
0
0
ENDSEC
0
SECTION
2
CLASSES
0
CLASS
1
RASTERVARIABLES
2
AcDbRasterVariables
3
ISM
90
0
280
0
281
0
0
ENDSEC
0
SECTION
2
TABLES
0
TABLE
2
VPORT
5
19b
100
AcDbSymbolTable
0
VPORT
5
1
100
AcDbSymbolTableRecord
100
AcDbViewportTableRecord
2
*Active
70
0
10
0
20
0
11
1
21
1
12
-1
22
1
13
0
23
0
14
0.5
24
0.5
15
10
25
10
16
0
26
0
36
1
17
0
27
0
37
0
0
ENDTAB
0
TABLE
2
LTYPE
5
19c
100
AcDbSymbolTable
0
LTYPE
5
14
100
AcDbSymbolTableRecord
100
AcDbLinetypeTableRecord
70
0
2
ByBlock
3

72
65
73
0
40
0
0
LTYPE
5
15
100
AcDbSymbolTableRecord
100
AcDbLinetypeTableRecord
70
0
2
ByLayer
3

72
65
73
0
40
0
0
LTYPE
5
16
100
AcDbSymbolTableRecord
100
AcDbLinetypeTableRecord
70
0
2
CONTINUOUS
3
Solid line
72
65
73
0
40
0
0
LTYPE
5
6A
100
AcDbSymbolTableRecord
100
AcDbLinetypeTableRecord
70
0
2
CENTER
3
____ _ ____ _ ____ _ ____
72
65
73
4
40
47.5
49
22
74
0
49
-8.5
74
0
49
8.5
74
0
49
-8.5
74
0
0
LTYPE
5
6B
100
AcDbSymbolTableRecord
100
AcDbLinetypeTableRecord
70
0
2
DASHED
3
__ __ __ __ __ __ __ __ __
72
65
73
2
40
25.72
49
12.86
74
0
49
-12.86
74
0
0
ENDTAB
0
TABLE
2
LAYER
5
19d
100
AcDbSymbolTable
0
LAYER
5
10
100
AcDbSymbolTableRecord
100
AcDbLayerTableRecord
2
0
70
0
62
7
6
CONTINUOUS
290
1
370
-3
390
0
0
LAYER
5
6D
100
AcDbSymbolTableRecord
100
AcDbLayerTableRecord
2
81
70
0
62
-3
6
CONTINUOUS
290
1
370
-3
390
0
0
LAYER
5
6F
100
AcDbSymbolTableRecord
100
AcDbLayerTableRecord
2
80
70
0
62
-6
6
CONTINUOUS
290
1
370
-3
390
0
0
LAYER
5
74
100
AcDbSymbolTableRecord
100
AcDbLayerTableRecord
2
2
70
0
62
7
6
CONTINUOUS
290
1
370
-3
390
0
0
LAYER
5
78
100
AcDbSymbolTableRecord
100
AcDbLayerTableRecord
2
1
70
0
62
4
6
CONTINUOUS
290
1
370
-3
390
0
0
LAYER
5
8A
100
AcDbSymbolTableRecord
100
AcDbLayerTableRecord
2
4
70
0
62
-2
6
CENTER
290
1
370
-3
390
0
0
LAYER
5
187
100
AcDbSymbolTableRecord
100
AcDbLayerTableRecord
2
SK2
70
0
62
7
6
CONTINUOUS
290
1
370
-3
390
0
0
LAYER
5
188
100
AcDbSymbolTableRecord
100
AcDbLayerTableRecord
2
SK1
70
0
62
4
6
CONTINUOUS
290
1
370
-3
390
0
0
LAYER
5
189
100
AcDbSymbolTableRecord
100
AcDbLayerTableRecord
2
SK4
70
0
62
2
6
CENTER
290
1
370
-3
390
0
0
LAYER
5
18a
100
AcDbSymbolTableRecord
100
AcDbLayerTableRecord
2
SK6
70
0
62
5
6
CONTINUOUS
290
1
370
-3
390
0
0
ENDTAB
0
TABLE
2
STYLE
5
19e
100
AcDbSymbolTable
0
STYLE
5
11
100
AcDbSymbolTableRecord
100
AcDbTextStyleTableRecord
2
Standard
3
txt
70
0
71
0
40
0
41
1
42
0
50
0
0
STYLE
5
E3
100
AcDbSymbolTableRecord
100
AcDbTextStyleTableRecord
2
iso_b_vert
3
simplex.shx
70
0
71
0
40
0
41
1
42
0
50
0
0
STYLE
5
E4
100
AcDbSymbolTableRecord
100
AcDbTextStyleTableRecord
2
DWGDirectTextStyle
3
simplex
70
0
71
0
40
0
41
1
42
0
50
0
0
ENDTAB
0
TABLE
2
DIMSTYLE
5
19f
100
AcDbSymbolTable
100
AcDbDimStyleTable
0
DIMSTYLE
105
27
100
AcDbSymbolTableRecord
100
AcDbDimStyleTableRecord
2
Standard
70
0
3
<>
41
0.18
42
0.0625
44
0.18
140
0.18
147
0.09
73
0
74
0
77
1
271
2
275
0
278
52
280
0
340
11
0
ENDTAB
0
TABLE
2
VIEW
5
1a0
100
AcDbSymbolTable
0
ENDTAB
0
TABLE
2
UCS
5
1a1
100
AcDbSymbolTable
0
ENDTAB
0
TABLE
2
APPID
5
1a2
100
AcDbSymbolTable
0
APPID
5
12
100
AcDbSymbolTableRecord
100
AcDbRegAppTableRecord
2
ACAD
70
0
0
ENDTAB
0
TABLE
2
BLOCK_RECORD
5
1a3
100
AcDbSymbolTable
0
BLOCK_RECORD
5
1F
100
AcDbSymbolTableRecord
100
AcDbBlockTableRecord
2
*Model_Space
340
0
70
0
0
BLOCK_RECORD
5
1B
100
AcDbSymbolTableRecord
100
AcDbBlockTableRecord
2
*Paper_Space
340
0
70
0
0
BLOCK_RECORD
5
23
100
AcDbSymbolTableRecord
100
AcDbBlockTableRecord
2
*Paper_Space0
340
0
70
0
0
BLOCK_RECORD
5
E6
100
AcDbSymbolTableRecord
100
AcDbBlockTableRecord
2
DimnDraft3D1
340
0
70
0
0
BLOCK_RECORD
5
F0
100
AcDbSymbolTableRecord
100
AcDbBlockTableRecord
2
DimnDraft3D2
340
0
70
0
0
BLOCK_RECORD
5
FA
100
AcDbSymbolTableRecord
100
AcDbBlockTableRecord
2
DimnDraft3D3
340
0
70
0
0
BLOCK_RECORD
5
104
100
AcDbSymbolTableRecord
100
AcDbBlockTableRecord
2
DimnDraft3D4
340
0
70
0
0
BLOCK_RECORD
5
10E
100
AcDbSymbolTableRecord
100
AcDbBlockTableRecord
2
DimnDraft3D5
340
0
70
0
0
BLOCK_RECORD
5
118
100
AcDbSymbolTableRecord
100
AcDbBlockTableRecord
2
DimnDraft3D6
340
0
70
0
0
BLOCK_RECORD
5
123
100
AcDbSymbolTableRecord
100
AcDbBlockTableRecord
2
DimnDraft3D7
340
0
70
0
0
ENDTAB
0
ENDSEC
0
SECTION
2
BLOCKS
0
BLOCK
5
20
100
AcDbEntity
8
0
100
AcDbBlockBegin
2
*Model_Space
70
0
10
0
20
0
30
0
3
*Model_Space
0
ENDBLK
5
21
100
AcDbEntity
8
0
100
AcDbBlockEnd
0
BLOCK
5
1C
100
AcDbEntity
8
0
100
AcDbBlockBegin
2
*Paper_Space
70
0
10
0
20
0
30
0
3
*Paper_Space
0
ENDBLK
5
1D
100
AcDbEntity
8
0
100
AcDbBlockEnd
0
BLOCK
5
24
100
AcDbEntity
8
0
100
AcDbBlockBegin
2
*Paper_Space0
70
0
10
0
20
0
30
0
3
*Paper_Space0
0
ENDBLK
5
25
100
AcDbEntity
8
0
100
AcDbBlockEnd
0
BLOCK
5
ED
100
AcDbEntity
8
0
100
AcDbBlockBegin
2
DimnDraft3D1
70
0
10
0
20
0
30
0
3
DimnDraft3D1
0
MTEXT
5
E7
100
AcDbEntity
8
SK2
62
256
6
ByLayer
370
13
48
1
60
0
100
AcDbMText
10
21.190764
20
-12.488398
30
0
210
0
220
0
230
1
1
\W0.7581;54,07
40
3.5
41
0
44
1.084337
50
0
71
7
72
5
7
iso_b_vert
0
LINE
5
E8
100
AcDbEntity
8
SK2
62
256
6
ByLayer
370
13
48
1
60
0
100
AcDbLine
10
0
20
-1.5875
30
0
11
0
21
-15.363398
31
0
39
0
210
0
220
0
230
1
0
LINE
5
E9
100
AcDbEntity
8
SK2
62
256
6
ByLayer
370
13
48
1
60
0
100
AcDbLine
10
54.0736
20
-4.7375
30
0
11
54.0736
21
-15.363398
31
0
39
0
210
0
220
0
230
1
0
LINE
5
EA
100
AcDbEntity
8
SK2
62
256
6
ByLayer
370
13
48
1
60
0
100
AcDbLine
10
0
20
-13.363398
30
0
11
54.0736
21
-13.363398
31
0
39
0
210
0
220
0
230
1
0
SOLID
5
EB
100
AcDbEntity
8
SK2
62
256
6
ByLayer
370
13
48
1
60
0
100
AcDbTrace
10
0
20
-13.363398
30
0
11
3.499998
21
-12.902615
31
0
12
3.500002
22
-13.824182
32
0
13
0
23
-13.363398
33
0
39
0
210
0
220
0
230
1
0
SOLID
5
EC
100
AcDbEntity
8
SK2
62
256
6
ByLayer
370
13
48
1
60
0
100
AcDbTrace
10
54.0736
20
-13.363398
30
0
11
50.573602
21
-13.824182
31
0
12
50.573598
22
-12.902615
32
0
13
54.0736
23
-13.363398
33
0
39
0
210
0
220
0
230
1
0
ENDBLK
5
EE
100
AcDbEntity
8
0
100
AcDbBlockEnd
0
BLOCK
5
F7
100
AcDbEntity
8
0
100
AcDbBlockBegin
2
DimnDraft3D2
70
0
10
0
20
0
30
0
3
DimnDraft3D2
0
MTEXT
5
F1
100
AcDbEntity
8
SK2
62
256
6
ByLayer
370
13
48
1
60
0
100
AcDbMText
10
5.903716
20
-31.817985
30
0
210
0
220
0
230
1
1
\W0.6713;91,00
40
3.5
41
0
44
1.084337
50
0
71
7
72
5
7
iso_b_vert
0
LINE
5
F2
100
AcDbEntity
8
SK2
62
256
6
ByLayer
370
13
48
1
60
0
100
AcDbLine
10
-36
20
-5.5875
30
0
11
-36
21
-34.692985
31
0
39
0
210
0
220
0
230
1
0
LINE
5
F3
100
AcDbEntity
8
SK2
62
256
6
ByLayer
370
13
48
1
60
0
100
AcDbLine
10
55
20
-1.5875
30
0
11
55
21
-34.692985
31
0
39
0
210
0
220
0
230
1
0
LINE
5
F4
100
AcDbEntity
8
SK2
62
256
6
ByLayer
370
13
48
1
60
0
100
AcDbLine
10
-36
20
-32.692985
30
0
11
55
21
-32.692985
31
0
39
0
210
0
220
0
230
1
0
SOLID
5
F5
100
AcDbEntity
8
SK2
62
256
6
ByLayer
370
13
48
1
60
0
100
AcDbTrace
10
-36
20
-32.692985
30
0
11
-32.500002
21
-32.232202
31
0
12
-32.499998
22
-33.153769
32
0
13
-36
23
-32.692985
33
0
39
0
210
0
220
0
230
1
0
SOLID
5
F6
100
AcDbEntity
8
SK2
62
256
6
ByLayer
370
13
48
1
60
0
100
AcDbTrace
10
55
20
-32.692985
30
0
11
51.500002
21
-33.153769
31
0
12
51.499998
22
-32.232202
32
0
13
55
23
-32.692985
33
0
39
0
210
0
220
0
230
1
0
ENDBLK
5
F8
100
AcDbEntity
8
0
100
AcDbBlockEnd
0
BLOCK
5
101
100
AcDbEntity
8
0
100
AcDbBlockBegin
2
DimnDraft3D3
70
0
10
0
20
0
30
0
3
DimnDraft3D3
0
MTEXT
5
FB
100
AcDbEntity
8
SK2
62
256
6
ByLayer
370
13
48
1
60
0
100
AcDbMText
10
34.157105
20
15.634119
30
0
210
0
220
0
230
1
1
\W0.7581;32,42
40
3.5
41
0
44
1.084337
50
0
71
7
72
5
7
iso_b_vert
0
LINE
5
FC
100
AcDbEntity
8
SK2
62
256
6
ByLayer
370
13
48
1
60
0
100
AcDbLine
10
22.58
20
4.7375
30
0
11
22.58
21
16.759119
31
0
39
0
210
0
220
0
230
1
0
LINE
5
FD
100
AcDbEntity
8
SK2
62
256
6
ByLayer
370
13
48
1
60
0
100
AcDbLine
10
55
20
1.5875
30
0
11
55
21
16.759119
31
0
39
0
210
0
220
0
230
1
0
LINE
5
FE
100
AcDbEntity
8
SK2
62
256
6
ByLayer
370
13
48
1
60
0
100
AcDbLine
10
22.58
20
14.759119
30
0
11
55
21
14.759119
31
0
39
0
210
0
220
0
230
1
0
SOLID
5
FF
100
AcDbEntity
8
SK2
62
256
6
ByLayer
370
13
48
1
60
0
100
AcDbTrace
10
22.58
20
14.759119
30
0
11
26.079998
21
15.219903
31
0
12
26.080002
22
14.298335
32
0
13
22.58
23
14.759119
33
0
39
0
210
0
220
0
230
1
0
SOLID
5
100
100
AcDbEntity
8
SK2
62
256
6
ByLayer
370
13
48
1
60
0
100
AcDbTrace
10
55
20
14.759119
30
0
11
51.500002
21
14.298335
31
0
12
51.499998
22
15.219903
32
0
13
55
23
14.759119
33
0
39
0
210
0
220
0
230
1
0
ENDBLK
5
102
100
AcDbEntity
8
0
100
AcDbBlockEnd
0
BLOCK
5
10B
100
AcDbEntity
8
0
100
AcDbBlockBegin
2
DimnDraft3D4
70
0
10
0
20
0
30
0
3
DimnDraft3D4
0
MTEXT
5
105
100
AcDbEntity
8
SK2
62
256
6
ByLayer
370
13
48
1
60
0
100
AcDbMText
10
61.840636
20
-15.077503
30
0
210
0
220
0
230
1
1
\W0.7150;0,93
40
3.5
41
0
44
1.084337
50
0
71
7
72
5
7
iso_b_vert
0
LINE
5
106
100
AcDbEntity
8
SK2
62
256
6
ByLayer
370
13
48
1
60
0
100
AcDbLine
10
55
20
-1.5875
30
0
11
55
21
-17.952503
31
0
39
0
210
0
220
0
230
1
0
LINE
5
107
100
AcDbEntity
8
SK2
62
256
6
ByLayer
370
13
48
1
60
0
100
AcDbLine
10
54.0736
20
-4.7375
30
0
11
54.0736
21
-17.952503
31
0
39
0
210
0
220
0
230
1
0
LINE
5
108
100
AcDbEntity
8
SK2
62
256
6
ByLayer
370
13
48
1
60
0
100
AcDbLine
10
45.3236
20
-15.952503
30
0
11
68.997215
21
-15.952503
31
0
39
0
210
0
220
0
230
1
0
SOLID
5
109
100
AcDbEntity
8
SK2
62
256
6
ByLayer
370
13
48
1
60
0
100
AcDbTrace
10
55
20
-15.952503
30
0
11
58.499998
21
-15.491719
31
0
12
58.500002
22
-16.413287
32
0
13
55
23
-15.952503
33
0
39
0
210
0
220
0
230
1
0
SOLID
5
10A
100
AcDbEntity
8
SK2
62
256
6
ByLayer
370
13
48
1
60
0
100
AcDbTrace
10
54.0736
20
-15.952503
30
0
11
50.573602
21
-16.413287
31
0
12
50.573598
22
-15.491719
32
0
13
54.0736
23
-15.952503
33
0
39
0
210
0
220
0
230
1
0
ENDBLK
5
10C
100
AcDbEntity
8
0
100
AcDbBlockEnd
0
BLOCK
5
115
100
AcDbEntity
8
0
100
AcDbBlockBegin
2
DimnDraft3D5
70
0
10
0
20
0
30
0
3
DimnDraft3D5
0
MTEXT
5
10F
100
AcDbEntity
8
SK2
62
256
6
ByLayer
370
13
48
1
60
0
100
AcDbMText
10
2.385592
20
-21.468428
30
0
210
0
220
0
230
1
1
\W0.7317;90,07
40
3.5
41
0
44
1.084337
50
0
71
7
72
5
7
iso_b_vert
0
LINE
5
110
100
AcDbEntity
8
SK2
62
256
6
ByLayer
370
13
48
1
60
0
100
AcDbLine
10
-36
20
-5.5875
30
0
11
-36
21
-24.343428
31
0
39
0
210
0
220
0
230
1
0
LINE
5
111
100
AcDbEntity
8
SK2
62
256
6
ByLayer
370
13
48
1
60
0
100
AcDbLine
10
54.0736
20
-4.7375
30
0
11
54.0736
21
-24.343428
31
0
39
0
210
0
220
0
230
1
0
LINE
5
112
100
AcDbEntity
8
SK2
62
256
6
ByLayer
370
13
48
1
60
0
100
AcDbLine
10
-36
20
-22.343428
30
0
11
54.0736
21
-22.343428
31
0
39
0
210
0
220
0
230
1
0
SOLID
5
113
100
AcDbEntity
8
SK2
62
256
6
ByLayer
370
13
48
1
60
0
100
AcDbTrace
10
-36
20
-22.343428
30
0
11
-32.500002
21
-21.882645
31
0
12
-32.499998
22
-22.804212
32
0
13
-36
23
-22.343428
33
0
39
0
210
0
220
0
230
1
0
SOLID
5
114
100
AcDbEntity
8
SK2
62
256
6
ByLayer
370
13
48
1
60
0
100
AcDbTrace
10
54.0736
20
-22.343428
30
0
11
50.573602
21
-22.804212
31
0
12
50.573598
22
-21.882645
32
0
13
54.0736
23
-22.343428
33
0
39
0
210
0
220
0
230
1
0
ENDBLK
5
116
100
AcDbEntity
8
0
100
AcDbBlockEnd
0
BLOCK
5
120
100
AcDbEntity
8
0
100
AcDbBlockBegin
2
DimnDraft3D6
70
0
10
0
20
0
30
0
3
DimnDraft3D6
0
MTEXT
5
119
100
AcDbEntity
8
SK2
62
256
6
ByLayer
370
13
48
1
60
0
100
AcDbMText
10
-46.375163
20
23.34918
30
0
210
0
220
0
230
1
1
\W0.7317;8,000
40
3.5
41
0
44
1.084337
50
90
71
7
72
5
7
iso_b_vert
0
MTEXT
5
11A
100
AcDbEntity
8
SK2
62
256
6
ByLayer
370
13
48
1
60
0
100
AcDbMText
10
-46.375163
20
18.126524
30
0
210
0
220
0
230
1
1
%%c
40
3.5
41
0
44
1.084337
50
90
71
7
72
5
7
iso_b_vert
0
LINE
5
11B
100
AcDbEntity
8
SK2
62
256
6
ByLayer
370
13
48
1
60
0
100
AcDbLine
10
-37.5875
20
-4
30
0
11
-46.625163
21
-4
31
0
39
0
210
0
220
0
230
1
0
LINE
5
11C
100
AcDbEntity
8
SK2
62
256
6
ByLayer
370
13
48
1
60
0
100
AcDbLine
10
-37.5875
20
4
30
0
11
-46.625163
21
4
31
0
39
0
210
0
220
0
230
1
0
LINE
5
11D
100
AcDbEntity
8
SK2
62
256
6
ByLayer
370
13
48
1
60
0
100
AcDbLine
10
-44.625163
20
-4
30
0
11
-44.625163
21
33.121549
31
0
39
0
210
0
220
0
230
1
0
SOLID
5
11E
100
AcDbEntity
8
SK2
62
256
6
ByLayer
370
13
48
1
60
0
100
AcDbTrace
10
-44.625163
20
-4
30
0
11
-45.085946
21
-0.500002
31
0
12
-44.164379
22
-0.499998
32
0
13
-44.625163
23
-4
33
0
39
0
210
0
220
0
230
1
0
SOLID
5
11F
100
AcDbEntity
8
SK2
62
256
6
ByLayer
370
13
48
1
60
0
100
AcDbTrace
10
-44.625163
20
4
30
0
11
-44.164379
21
0.500002
31
0
12
-45.085946
22
0.499998
32
0
13
-44.625163
23
4
33
0
39
0
210
0
220
0
230
1
0
ENDBLK
5
121
100
AcDbEntity
8
0
100
AcDbBlockEnd
0
BLOCK
5
12B
100
AcDbEntity
8
0
100
AcDbBlockBegin
2
DimnDraft3D7
70
0
10
0
20
0
30
0
3
DimnDraft3D7
0
MTEXT
5
124
100
AcDbEntity
8
2
62
256
6
ByLayer
370
13
48
1
60
0
100
AcDbMText
10
65.333343
20
21.092266
30
0
210
0
220
0
230
1
1
\W0.7317;6,300
40
3.5
41
0
44
1.084337
50
90
71
7
72
5
7
iso_b_vert
0
MTEXT
5
125
100
AcDbEntity
8
2
62
256
6
ByLayer
370
13
48
1
60
0
100
AcDbMText
10
65.333343
20
15.86961
30
0
210
0
220
0
230
1
1
%%c
40
3.5
41
0
44
1.084337
50
90
71
7
72
5
7
iso_b_vert
0
LINE
5
126
100
AcDbEntity
8
2
62
256
6
ByLayer
370
13
48
1
60
0
100
AcDbLine
10
55.6611
20
-3.15
30
0
11
69.083343
21
-3.15
31
0
39
0
210
0
220
0
230
1
0
LINE
5
127
100
AcDbEntity
8
2
62
256
6
ByLayer
370
13
48
1
60
0
100
AcDbLine
10
55.6611
20
3.15
30
0
11
69.083343
21
3.15
31
0
39
0
210
0
220
0
230
1
0
LINE
5
128
100
AcDbEntity
8
2
62
256
6
ByLayer
370
13
48
1
60
0
100
AcDbLine
10
67.083343
20
30.864635
30
0
11
67.083343
21
-11.9
31
0
39
0
210
0
220
0
230
1
0
SOLID
5
129
100
AcDbEntity
8
2
62
256
6
ByLayer
370
13
48
1
60
0
100
AcDbTrace
10
67.083343
20
-3.15
30
0
11
67.544126
21
-6.649998
31
0
12
66.622559
22
-6.650002
32
0
13
67.083343
23
-3.15
33
0
39
0
210
0
220
0
230
1
0
SOLID
5
12A
100
AcDbEntity
8
2
62
256
6
ByLayer
370
13
48
1
60
0
100
AcDbTrace
10
67.083343
20
3.15
30
0
11
66.622559
21
6.649998
31
0
12
67.544126
22
6.650002
32
0
13
67.083343
23
3.15
33
0
39
0
210
0
220
0
230
1
0
ENDBLK
5
12C
100
AcDbEntity
8
0
100
AcDbBlockEnd
0
ENDSEC
0
SECTION
2
ENTITIES
0
ARC
5
98
100
AcDbEntity
8
1
62
256
6
ByLayer
370
18
48
1
60
0
100
AcDbCircle
39
0
10
-0.35
20
3.466437
30
0
40
0.350000000000001
210
0
220
0
230
-1
100
AcDbArc
50
269.96419
51
0
0
ARC
5
99
100
AcDbEntity
8
1
62
256
6
ByLayer
370
18
48
1
60
0
100
AcDbCircle
39
0
10
-0.35
20
-3.466437
30
0
40
0.350000000000001
210
0
220
0
230
-1
100
AcDbArc
50
0
51
90.03581
0
ELLIPSE
5
9A
100
AcDbEntity
8
1
62
256
6
ByLayer
370
13
48
1
60
0
100
AcDbEllipse
10
3.240127
20
-1.626637
30
0
11
0.0129387474834247
21
0.0991594111194705
31
0
210
0
220
0
230
1
40
0.51446
41
1.12910099403134
42
2.50928310444135
0
ELLIPSE
5
9B
100
AcDbEntity
8
1
62
256
6
ByLayer
370
13
48
1
60
0
100
AcDbEllipse
10
3.301235
20
-1.642342
30
0
11
0.0350283560085625
21
0.0936643703621468
31
0
210
0
220
0
230
1
40
0.216064
41
1.04313057740452
42
2.58717826029654
0
POINT
5
6C
100
AcDbEntity
8
81
62
256
6
ByLayer
370
18
48
1
60
0
100
AcDbPoint
10
55
20
0
30
0
39
0
210
0
220
0
230
1
50
360
0
POINT
5
6E
100
AcDbEntity
8
80
62
256
6
ByLayer
370
18
48
1
60
0
100
AcDbPoint
10
0
20
0
30
0
39
0
210
0
220
0
230
1
50
360
0
POINT
5
70
100
AcDbEntity
8
SK2
62
256
6
ByLayer
370
18
48
1
60
1
100
AcDbPoint
10
-36
20
-4
30
0
39
0
210
0
220
0
230
1
50
360
0
POINT
5
72
100
AcDbEntity
8
SK2
62
256
6
ByLayer
370
18
48
1
60
1
100
AcDbPoint
10
-36
20
4
30
0
39
0
210
0
220
0
230
1
50
360
0
POINT
5
73
100
AcDbEntity
8
2
62
256
6
ByLayer
370
18
48
1
60
1
100
AcDbPoint
10
54.0736
20
-3.15
30
0
39
0
210
0
220
0
230
1
50
360
0
POINT
5
75
100
AcDbEntity
8
2
62
256
6
ByLayer
370
18
48
1
60
1
100
AcDbPoint
10
54.0736
20
3.15
30
0
39
0
210
0
220
0
230
1
50
360
0
SPLINE
5
9C
100
AcDbEntity
8
1
62
256
6
ByLayer
370
18
48
1
60
0
100
AcDbSpline
70
4
71
3
72
21
73
17
40
0
40
0
40
0
40
0
40
0.110138369531267
40
0.204526461671164
40
0.285181961599231
40
0.354274704800887
40
0.413844265897921
40
0.483345525963695
40
0.563718404533411
40
0.631449706959423
40
0.686164790701429
40
0.735715051866326
40
0.802276997894559
40
0.886374327294178
40
0.978772900355703
40
1
40
1
40
1
40
1
41
1
10
10.1945171952198
20
-2.96518679320076
30
0
41
1
10
10.5719824981826
20
-2.9649098082283
30
0
41
1
10
11.2728743940316
20
-2.96488965744558
30
0
41
1
10
12.257972280637
20
-2.96584289857006
30
0
41
1
10
13.0885344497844
20
-2.96807011765549
30
0
41
1
10
13.8095216405633
20
-2.9669755128061
30
0
41
1
10
14.4902753383
20
-2.96880624051047
30
0
41
1
10
15.2105524146645
20
-2.96926884790312
30
0
41
1
10
15.9594138014539
20
-2.97024874221074
30
0
41
1
10
16.6573637924326
20
-2.96974794374742
30
0
41
1
10
17.2489760789106
20
-2.97187092898889
30
0
41
1
10
17.8374946706929
20
-2.97032437089217
30
0
41
1
10
18.5226458204654
20
-2.97278037474553
30
0
41
1
10
19.3484871365232
20
-2.96400306977299
30
0
41
1
10
20.0351894384007
20
-2.96896627762646
30
0
41
1
10
20.4215421643135
20
-2.97004853602067
30
0
41
1
10
20.4936460334038
20
-2.97028673904467
30
0
0
SPLINE
5
9D
100
AcDbEntity
8
1
62
256
6
ByLayer
370
18
48
1
60
0
100
AcDbSpline
70
4
71
1
72
4
73
2
40
0
40
0
40
1
40
1
41
1
10
53.6367255024377
20
-2.99185393292703
30
0
41
1
10
53.9220269624963
20
-2.99147397723124
30
0
0
SPLINE
5
9E
100
AcDbEntity
8
1
62
256
6
ByLayer
370
18
48
1
60
0
100
AcDbSpline
70
4
71
3
72
23
73
19
40
0
40
0
40
0
40
0
40
0.102130183614348
40
0.19235887120716
40
0.26828618564761
40
0.325496180253318
40
0.389857674707287
40
0.464299037970322
40
0.538979990382955
40
0.594060129755845
40
0.644927719741848
40
0.701051091927442
40
0.768070556079968
40
0.841905484044542
40
0.890482097590768
40
0.928765109391046
40
0.963631015345937
40
1
40
1
40
1
40
1
41
1
10
31.9497047033224
20
-2.97876480570645
30
0
41
1
10
32.2865243678736
20
-2.9769086150217
30
0
41
1
10
32.9224906750399
20
-2.97501258252052
30
0
41
1
10
33.8266133932543
20
-2.97728308275123
30
0
41
1
10
34.562425827455
20
-2.98110487929571
30
0
41
1
10
35.2257730665803
20
-2.97995996528073
30
0
41
1
10
35.8816034274147
20
-2.98170353016241
30
0
41
1
10
36.5966885474586
20
-2.98066673810882
30
0
41
1
10
37.2804540684644
20
-2.98223911145792
30
0
41
1
10
37.8853404258676
20
-2.98224741728802
30
0
41
1
10
38.4280714053162
20
-2.98123464219208
30
0
41
1
10
39.0107874071398
20
-2.98345452407494
30
0
41
1
10
39.6704102497256
20
-2.98207256225484
30
0
41
1
10
40.3047617835856
20
-2.98375075800925
30
0
41
1
10
40.842892117378
20
-2.98418595271599
30
0
41
1
10
41.2504927992189
20
-2.98350176727445
30
0
41
1
10
41.6172120109408
20
-2.98341798456309
30
0
41
1
10
41.855756021756
20
-2.98355953129652
30
0
41
1
10
41.9775471053374
20
-2.98369495933883
30
0
0
SPLINE
5
9F
100
AcDbEntity
8
1
62
256
6
ByLayer
370
18
48
1
60
0
100
AcDbSpline
70
4
71
3
72
20
73
16
40
0
40
0
40
0
40
0
40
0.0260568364522143
40
0.139610634782654
40
0.242962568331983
40
0.324764283939155
40
0.385659384127038
40
0.452901824995998
40
0.536140628388821
40
0.634915375032288
40
0.720329378818645
40
0.793537759679798
40
0.878449714139496
40
0.977571790054568
40
1
40
1
40
1
40
1
41
1
10
20.4933939599562
20
2.97028591990414
30
0
41
1
10
20.4213738098061
20
2.97004799714097
30
0
41
1
10
20.0351047040919
20
2.96896580362466
30
0
41
1
10
19.348486771942
20
2.96400301689587
30
0
41
1
10
18.5226458934735
20
2.97278038533491
30
0
41
1
10
17.8374946581129
20
2.97032436906761
30
0
41
1
10
17.2489760821676
20
2.97187092946305
30
0
41
1
10
16.6573637912535
20
2.96974794358047
30
0
41
1
10
15.9594138018269
20
2.97024874226994
30
0
41
1
10
15.2105524145413
20
2.96926884788852
30
0
41
1
10
14.4902753383151
20
2.96880624051352
30
0
41
1
10
13.8095216405579
20
2.96697551280522
30
0
41
1
10
13.0885344497872
20
2.96807011765574
30
0
41
1
10
12.5169979658032
20
2.96653749672433
30
0
41
1
10
12.1775987336867
20
2.96595822762743
30
0
41
1
10
12.1149019294517
20
2.96586129717781
30
0
0
SPLINE
5
A0
100
AcDbEntity
8
1
62
256
6
ByLayer
370
18
48
1
60
0
100
AcDbSpline
70
4
71
3
72
20
73
16
40
0
40
0
40
0
40
0
40
0.0324287010092525
40
0.0764844708126588
40
0.114847192838261
40
0.19582145653998
40
0.297263094974246
40
0.403225594952724
40
0.488661413634966
40
0.577964192226697
40
0.671573236503896
40
0.764881967110459
40
0.845556058559591
40
0.917266082940523
40
1
40
1
40
1
40
1
41
1
10
41.978331174815
20
2.98366748803906
30
0
41
1
10
41.8916967585241
20
2.98361554959999
30
0
41
1
10
41.6873674554845
20
2.9835428486318
30
0
41
1
10
41.3805309668907
20
2.98337451864987
30
0
41
1
10
40.9440751432683
20
2.98403227310143
30
0
41
1
10
40.3542156619164
20
2.98392208334988
30
0
41
1
10
39.5837926338451
20
2.98229414034688
30
0
41
1
10
38.8014365372526
20
2.98269593904732
30
0
41
1
10
38.0515182100982
20
2.98156545960944
30
0
41
1
10
37.3345840309461
20
2.98253733281899
30
0
41
1
10
36.5966882750914
20
2.98061918743267
30
0
41
1
10
35.8816034896437
20
2.98171438939937
30
0
41
1
10
35.2257730530297
20
2.97995759842013
30
0
41
1
10
34.5957529298267
20
2.98104802022235
30
0
41
1
10
34.1892659379373
20
2.97914974439198
30
0
41
1
10
33.9700637423149
20
2.97823205503752
30
0
0
SPLINE
5
A1
100
AcDbEntity
8
1
62
256
6
ByLayer
370
18
48
1
60
0
100
AcDbSpline
70
4
71
3
72
8
73
4
40
0
40
0
40
0
40
0
40
1
40
1
40
1
40
1
41
1
10
54.9180856260583
20
-0.682516288312542
30
0
41
1
10
54.9572945318388
20
-0.491780007034293
30
0
41
1
10
54.9838526665904
20
-0.301135949282411
30
0
41
1
10
54.9908578334319
20
-0.110634431747798
30
0
0
SPLINE
5
A2
100
AcDbEntity
8
1
62
256
6
ByLayer
370
13
48
1
60
0
100
AcDbSpline
70
4
71
3
72
30
73
26
40
0
40
0
40
0
40
0
40
0.0625
40
0.0625
40
0.125
40
0.125
40
0.25
40
0.25
40
0.375
40
0.375
40
0.4375
40
0.4375
40
0.5
40
0.5
40
0.625
40
0.625
40
0.6875
40
0.6875
40
0.75
40
0.75
40
0.875
40
0.875
40
0.9375
40
0.9375
40
1
40
1
40
1
40
1
41
1
10
3.30138789836656
20
-1.58864104109443
30
0
41
1
10
3.30143679022422
20
-1.50522293356212
30
0
41
1
10
3.30148444815484
20
-1.41898894680406
30
0
41
1
10
3.30157635955007
20
-1.24344820063047
30
0
41
1
10
3.3016206903051
20
-1.15404174189734
30
0
41
1
10
3.30174951586466
20
-0.881027860255955
30
0
41
1
10
3.30182989068629
20
-0.692622857892019
30
0
41
1
10
3.30198242307424
20
-0.302785905671982
30
0
41
1
10
3.30205207877873
20
-0.107839963093113
30
0
41
1
10
3.30214926022254
20
0.184618486563494
30
0
41
1
10
3.30218041973888
20
0.282111275707138
30
0
41
1
10
3.30224052236798
20
0.477110452434289
30
0
41
1
10
3.30226950090255
20
0.574785127776209
30
0
41
1
10
3.30235154043544
20
0.861338925533829
30
0
41
1
10
3.30240047705055
20
1.045976862022
30
0
41
1
10
3.30246611740011
20
1.31338926949397
30
0
41
1
10
3.30248677727775
20
1.40134721788266
30
0
41
1
10
3.30252491733492
20
1.57184457110597
30
0
41
1
10
3.30254231617653
20
1.65397148514359
30
0
41
1
10
3.30258955834319
20
1.89127585341447
30
0
41
1
10
3.30261453622927
20
2.03746489434903
30
0
41
1
10
3.30264087482814
20
2.23825138484821
30
0
41
1
10
3.30264774364957
20
2.30200389058464
30
0
41
1
10
3.30265711323585
20
2.4203720943641
30
0
41
1
10
3.30265967230855
20
2.47539082618726
30
0
41
1
10
3.30265997231419
20
2.52630800364676
30
0
0
SPLINE
5
A3
100
AcDbEntity
8
1
62
256
6
ByLayer
370
18
48
1
60
0
100
AcDbSpline
70
4
71
3
72
28
73
24
40
0
40
0
40
0
40
0
40
0.0625000000000054
40
0.0625000000000054
40
0.125000000000011
40
0.125000000000011
40
0.250000000000017
40
0.250000000000017
40
0.312500000000021
40
0.312500000000021
40
0.375000000000024
40
0.375000000000024
40
0.500000000000019
40
0.500000000000019
40
0.625000000000014
40
0.625000000000014
40
0.75000000000001
40
0.75000000000001
40
0.875000000000005
40
0.875000000000005
40
0.937500000000002
40
0.937500000000002
40
1
40
1
40
1
40
1
41
1
10
54.4058762166518
20
-0.915047148861532
30
0
41
1
10
54.4075347168494
20
-0.937306758437273
30
0
41
1
10
54.4075452559742
20
-0.961301072025833
30
0
41
1
10
54.4041386255798
20
-1.01309739610525
30
0
41
1
10
54.4006655639192
20
-1.04088445841228
30
0
41
1
10
54.385685223425
20
-1.12552622555569
30
0
41
1
10
54.369214935454
20
-1.18591577334251
30
0
41
1
10
54.3385322133821
20
-1.27290612243939
30
0
41
1
10
54.3272095718183
20
-1.30163342715664
30
0
41
1
10
54.3034785655315
20
-1.35633688227526
30
0
41
1
10
54.2909080931185
20
-1.38273391950088
30
0
41
1
10
54.25166032076
20
-1.45822424680699
30
0
41
1
10
54.2240815241731
20
-1.50248474564259
30
0
41
1
10
54.1679704638119
20
-1.57761357998854
30
0
41
1
10
54.1397054829339
20
-1.60811194273879
30
0
41
1
10
54.0838236362417
20
-1.65446297221285
30
0
41
1
10
54.056760524975
20
-1.66997583063935
30
0
41
1
10
54.0038158602491
20
-1.68601563102339
30
0
41
1
10
53.9788968585726
20
-1.68621544387307
30
0
41
1
10
53.9438588692963
20
-1.67474947947648
30
0
41
1
10
53.9324783029853
20
-1.66886289553071
30
0
41
1
10
53.9111125439698
20
-1.65316660197559
30
0
41
1
10
53.901090777973
20
-1.64338551897993
30
0
41
1
10
53.8917542577144
20
-1.63160410317585
30
0
0
SPLINE
5
A4
100
AcDbEntity
8
1
62
256
6
ByLayer
370
18
48
1
60
0
100
AcDbSpline
70
4
71
3
72
48
73
44
40
0
40
0
40
0
40
0
40
0.0840054170099008
40
0.0840054170099008
40
0.126008125514851
40
0.126008125514851
40
0.168010834019802
40
0.168010834019802
40
0.252016251029703
40
0.252016251029703
40
0.294018959534655
40
0.294018959534655
40
0.336021668039607
40
0.336021668039607
40
0.378024376544558
40
0.378024376544558
40
0.42002708504951
40
0.42002708504951
40
0.462029793554461
40
0.462029793554461
40
0.504032502059413
40
0.504032502059413
40
0.546035210564364
40
0.546035210564364
40
0.588037919069316
40
0.588037919069316
40
0.630040627574267
40
0.630040627574267
40
0.672043336079219
40
0.672043336079219
40
0.71404604458417
40
0.71404604458417
40
0.756048753089122
40
0.756048753089122
40
0.840054170099024
40
0.840054170099024
40
0.882056878603975
40
0.882056878603975
40
0.924059587108926
40
0.924059587108926
40
0.966062295613877
40
0.966062295613877
40
1
40
1
40
1
40
1
41
1
10
10.0692620233959
20
-0.314302916778047
30
0
41
1
10
10.4981944063062
20
-0.497334741368149
30
0
41
1
10
10.9252986852746
20
-0.676705923325073
30
0
41
1
10
11.5632271851956
20
-0.939102928214851
30
0
41
1
10
11.7754326460105
20
-1.02542235539508
30
0
41
1
10
12.199879313987
20
-1.19415287193118
30
0
41
1
10
12.4120508241412
20
-1.27673402829538
30
0
41
1
10
13.0481187461335
20
-1.5191999742168
30
0
41
1
10
13.4715269515472
20
-1.67361961370344
30
0
41
1
10
14.1087684003987
20
-1.88958487951436
30
0
41
1
10
14.3213863408982
20
-1.95913912749899
30
0
41
1
10
14.7471573667117
20
-2.09284672725718
30
0
41
1
10
14.9603022103406
20
-2.15708119879889
30
0
41
1
10
15.3878594175757
20
-2.27957752873309
30
0
41
1
10
15.6025506931462
20
-2.33773306413261
30
0
41
1
10
16.0311915501405
20
-2.44644207636756
30
0
41
1
10
16.2451286827513
20
-2.49732609683488
30
0
41
1
10
16.6728318710999
20
-2.59234517923571
30
0
41
1
10
16.8867595401103
20
-2.63670878235425
30
0
41
1
10
17.3146363309818
20
-2.71671888863764
30
0
41
1
10
17.5285574484692
20
-2.75231772995306
30
0
41
1
10
17.9565614112018
20
-2.8162543606779
30
0
41
1
10
18.1707285239456
20
-2.84453511663355
30
0
41
1
10
18.5996313962536
20
-2.89365656524163
30
0
41
1
10
18.8138256528003
20
-2.9136348705436
30
0
41
1
10
19.2416640265727
20
-2.94431123689074
30
0
41
1
10
19.4553164446625
20
-2.95549426692242
30
0
41
1
10
19.8826979516141
20
-2.97033326361884
30
0
41
1
10
20.096551415063
20
-2.97449399881137
30
0
41
1
10
20.5244743286423
20
-2.97202992312705
30
0
41
1
10
20.7385441750112
20
-2.9657556157994
30
0
41
1
10
21.1670417574841
20
-2.94572125892179
30
0
41
1
10
21.3811624010875
20
-2.93187695251186
30
0
41
1
10
22.0221553763835
20
-2.87966236501421
30
0
41
1
10
22.447101998338
20
-2.82514302000308
30
0
41
1
10
23.0833797789369
20
-2.72309803105873
30
0
41
1
10
23.2954662990028
20
-2.68610596589855
30
0
41
1
10
23.7193614029368
20
-2.60289147117797
30
0
41
1
10
23.9311876683618
20
-2.55703776795747
30
0
41
1
10
24.3548175343304
20
-2.4588113441871
30
0
41
1
10
24.566639891352
20
-2.40639775414991
30
0
41
1
10
24.9502659660463
20
-2.30648132468926
30
0
41
1
10
25.1218887360393
20
-2.25933150273113
30
0
41
1
10
25.293690313745
20
-2.20983163985878
30
0
0
SPLINE
5
A5
100
AcDbEntity
8
1
62
256
6
ByLayer
370
18
48
1
60
0
100
AcDbSpline
70
4
71
3
72
30
73
26
40
0
40
0
40
0
40
0
40
0.0028488444399194
40
0.0028488444399194
40
0.145299009519929
40
0.145299009519929
40
0.216524092059936
40
0.216524092059936
40
0.287749174599943
40
0.287749174599943
40
0.35897425713995
40
0.35897425713995
40
0.430199339679957
40
0.430199339679957
40
0.501424422219964
40
0.501424422219964
40
0.572649504759971
40
0.572649504759971
40
0.715099669839981
40
0.715099669839981
40
0.85754983491999
40
0.85754983491999
40
0.928774917459995
40
0.928774917459995
40
1
40
1
40
1
40
1
41
1
10
41.9792491799861
20
2.983800805296
30
0
41
1
10
41.9877976372379
20
2.98379801728987
30
0
41
1
10
41.9963454307231
20
2.98378803420621
30
0
41
1
10
42.4322707900202
20
2.98290946068988
30
0
41
1
10
42.8593307037597
20
2.96397082549842
30
0
41
1
10
43.4995578816818
20
2.91451425340591
30
0
41
1
10
43.7129536937183
20
2.89334457218541
30
0
41
1
10
44.1405136180164
20
2.84177202327157
30
0
41
1
10
44.3548578488213
20
2.81147880751607
30
0
41
1
10
44.7827494675631
20
2.74290095983434
30
0
41
1
10
44.9959414706786
20
2.70455109337843
30
0
41
1
10
45.4216234129151
20
2.6210003019161
30
0
41
1
10
45.634180498567
20
2.57590052744945
30
0
41
1
10
46.0587013602307
20
2.47959407590085
30
0
41
1
10
46.2706458167237
20
2.42844670311572
30
0
41
1
10
46.6937782175391
20
2.31863239190619
30
0
41
1
10
46.9050584985127
20
2.25999301997902
30
0
41
1
10
47.5391407744401
20
2.07508861348464
30
0
41
1
10
47.9615009943834
20
1.93925725427889
30
0
41
1
10
48.8076690325705
20
1.6462539468915
30
0
41
1
10
49.2321327276384
20
1.49083282536617
30
0
41
1
10
49.8707636508651
20
1.24382809357854
30
0
41
1
10
50.0841024766531
20
1.15920342735291
30
0
41
1
10
50.5123300523379
20
0.987094407767557
30
0
41
1
10
50.7266441704091
20
0.899719262709027
30
0
41
1
10
50.9402784272577
20
0.811196522200532
30
0
0
SPLINE
5
A6
100
AcDbEntity
8
1
62
256
6
ByLayer
370
18
48
1
60
0
100
AcDbSpline
70
4
71
3
72
24
73
20
40
0
40
0
40
0
40
0
40
0.155763176936456
40
0.155763176936456
40
0.311526353872911
40
0.311526353872911
40
0.467289530809367
40
0.467289530809367
40
0.623052707745822
40
0.623052707745822
40
0.70093429621405
40
0.70093429621405
40
0.778815884682278
40
0.778815884682278
40
0.856697473150506
40
0.856697473150506
40
0.934579061618734
40
0.934579061618734
40
1
40
1
40
1
40
1
41
1
10
3.06950171714644
20
2.65474919990189
30
0
41
1
10
2.97992098831634
20
2.68893799058591
30
0
41
1
10
2.89165808422183
20
2.72253678575228
30
0
41
1
10
2.71873651010108
20
2.78845316421646
30
0
41
1
10
2.63430404418233
20
2.82068231081195
30
0
41
1
10
2.4738450676162
20
2.88247723199442
30
0
41
1
10
2.39743661413115
20
2.91217516451795
30
0
41
1
10
2.25609283453286
20
2.96859961322309
30
0
41
1
10
2.19078727111489
20
2.99543309259189
30
0
41
1
10
2.10826755678883
20
3.03227368654524
30
0
41
1
10
2.08395281216667
20
3.04373202476072
30
0
41
1
10
2.04332491403116
20
3.0647361839915
30
0
41
1
10
2.02688777294992
20
3.07436816828869
30
0
41
1
10
2.00497587374514
20
3.0908625732545
30
0
41
1
10
1.99947989604112
20
3.09769637622759
30
0
41
1
10
2.00059395005215
20
3.10844498173085
30
0
41
1
10
2.00742899300417
20
3.11237058354533
30
0
41
1
10
2.03096763300633
20
3.11665319734289
30
0
41
1
10
2.04578587145986
20
3.11753704947142
30
0
41
1
10
2.06428836523315
20
3.117507273607
30
0
0
SPLINE
5
A7
100
AcDbEntity
8
1
62
256
6
ByLayer
370
18
48
1
60
0
100
AcDbSpline
70
4
71
3
72
38
73
34
40
0
40
0
40
0
40
0
40
0.0162433649256367
40
0.0162433649256367
40
0.035918497627123
40
0.035918497627123
40
0.0555936303286093
40
0.0555936303286093
40
0.0949438957315819
40
0.0949438957315819
40
0.134294161134555
40
0.134294161134555
40
0.153969293836041
40
0.153969293836041
40
0.163806860186784
40
0.163806860186784
40
0.168725643362156
40
0.168725643362156
40
0.173644426537527
40
0.173644426537527
40
0.183481992888273
40
0.183481992888273
40
0.193319559239018
40
0.193319559239018
40
0.212994691940507
40
0.212994691940507
40
0.370395753552405
40
0.370395753552405
40
0.527796815164304
40
0.527796815164304
40
0.685197876776202
40
0.685197876776202
40
1
40
1
40
1
40
1
41
1
10
2.08808303606446
20
3.11704740733165
30
0
41
1
10
2.10898451590614
20
3.11632923070951
30
0
41
1
10
2.13298404060447
20
3.11479966114854
30
0
41
1
10
2.19081514149184
20
3.11010000458526
30
0
41
1
10
2.22585079875895
20
3.10664424861807
30
0
41
1
10
2.30126942713852
20
3.09844610743471
30
0
41
1
10
2.34164958226558
20
3.09369793773729
30
0
41
1
10
2.46666133357246
20
3.07836746390561
30
0
41
1
10
2.55598239553157
20
3.0666358518489
30
0
41
1
10
2.74238650761183
20
3.04176054585503
30
0
41
1
10
2.83981242143108
20
3.02855516911839
30
0
41
1
10
2.98888944944332
20
3.00845244476111
30
0
41
1
10
3.03910769192123
20
3.00169501063559
30
0
41
1
10
3.11511730080349
20
2.99152076732591
30
0
41
1
10
3.14056786058711
20
2.98812286507089
30
0
41
1
10
3.17890388685697
20
2.98302108155926
30
0
41
1
10
3.19175395083761
20
2.98134588241459
30
0
41
1
10
3.21726664541097
20
2.97785429461533
30
0
41
1
10
3.23019454421973
20
2.9760783685951
30
0
41
1
10
3.27028686870616
20
2.97270448685526
30
0
41
1
10
3.29833340073171
20
2.97226435158146
30
0
41
1
10
3.35415226290755
20
2.97303902546918
30
0
41
1
10
3.38204305648421
20
2.9735290401662
30
0
41
1
10
3.46571917418723
20
2.97497466721566
30
0
41
1
10
3.52149765988076
20
2.97596519006839
30
0
41
1
10
4.02334965742358
20
2.9856763616196
30
0
41
1
10
4.46822296986269
20
2.99877187714443
30
0
41
1
10
5.35392244685269
20
3.02965559164474
30
0
41
1
10
5.79303770652982
20
3.04735258972045
30
0
41
1
10
6.66427582595017
20
3.080784197783
30
0
41
1
10
7.09640880753196
20
3.09647082664958
30
0
41
1
10
8.38366975510331
20
3.1287893574825
30
0
41
1
10
9.22946988566594
20
3.13003574034667
30
0
41
1
10
10.0692620233959
20
3.08123734401733
30
0
0
SPLINE
5
A8
100
AcDbEntity
8
1
62
256
6
ByLayer
370
18
48
1
60
0
100
AcDbSpline
70
4
71
3
72
16
73
12
40
0
40
0
40
0
40
0
40
0.269613924947329
40
0.269613924947329
40
0.404420887420996
40
0.404420887420996
40
0.539227849894663
40
0.539227849894663
40
0.808841774842
40
0.808841774842
40
1
40
1
40
1
40
1
41
1
10
53.4304447731939
20
-2.23516142813938
30
0
41
1
10
53.4703221506447
20
-2.36194290104845
30
0
41
1
10
53.5121439120496
20
-2.47317979554347
30
0
41
1
10
53.5770823202802
20
-2.6177450314199
30
0
41
1
10
53.599103995395
20
-2.66219098287414
30
0
41
1
10
53.6438630237905
20
-2.7434487984687
30
0
41
1
10
53.6666343279668
20
-2.78025629954163
30
0
41
1
10
53.7345940115008
20
-2.87692550123643
30
0
41
1
10
53.7798759334583
20
-2.9240629108667
30
0
41
1
10
53.8573882051148
20
-2.97534739864429
30
0
41
1
10
53.8897041057305
20
-2.98791666399245
30
0
41
1
10
53.92179941949
20
-2.9914158152263
30
0
0
SPLINE
5
A9
100
AcDbEntity
8
1
62
256
6
ByLayer
370
18
48
1
60
0
100
AcDbSpline
70
4
71
3
72
32
73
28
40
0
40
0
40
0
40
0
40
0.250000000000009
40
0.250000000000009
40
0.375000000000014
40
0.375000000000014
40
0.500000000000019
40
0.500000000000019
40
0.625000000000023
40
0.625000000000023
40
0.687500000000022
40
0.687500000000022
40
0.75000000000002
40
0.75000000000002
40
0.812500000000018
40
0.812500000000018
40
0.828125000000016
40
0.828125000000016
40
0.843750000000014
40
0.843750000000014
40
0.851562500000013
40
0.851562500000013
40
0.859375000000012
40
0.859375000000012
40
0.875000000000011
40
0.875000000000011
40
1
40
1
40
1
40
1
41
1
10
50.9402784272576
20
0.811196522200703
30
0
41
1
10
51.2044454876487
20
0.625156346125209
30
0
41
1
10
51.4766742310389
20
0.465553017034608
30
0
41
1
10
51.898762467554
20
0.271222689825578
30
0
41
1
10
52.0422059843734
20
0.213943816638221
30
0
41
1
10
52.3275341665409
20
0.11813225411322
30
0
41
1
10
52.4701476797863
20
0.07918540079487
30
0
41
1
10
52.7552644386238
20
0.0208235680017879
30
0
41
1
10
52.8977680916125
20
0.0013364257917203
30
0
41
1
10
53.1114242954251
20
-0.010309439992966
30
0
41
1
10
53.182554106153
20
-0.0112136268923564
30
0
41
1
10
53.322960242671
20
-0.0067052593011283
30
0
41
1
10
53.3924527238057
20
-0.0013042044743941
30
0
41
1
10
53.5299156650051
20
0.0162382524901545
30
0
41
1
10
53.5979198335375
20
0.0283842098694151
30
0
41
1
10
53.681800748698
20
0.0481455173094218
30
0
41
1
10
53.6985025702942
20
0.0523228143573817
30
0
41
1
10
53.7317547975466
20
0.061135629442191
30
0
41
1
10
53.7484850304483
20
0.0653272824096405
30
0
41
1
10
53.7729770762338
20
0.0731070246513639
30
0
41
1
10
53.7810135283069
20
0.0766767624070042
30
0
41
1
10
53.7935483884741
20
0.0890897718074655
30
0
41
1
10
53.7977511575891
20
0.0982539834085117
30
0
41
1
10
53.8006391279856
20
0.129545959781353
30
0
41
1
10
53.8015844936272
20
0.150740742358551
30
0
41
1
10
53.8117491291466
20
0.340853336607069
30
0
41
1
10
53.8074357287126
20
0.513674055462985
30
0
41
1
10
53.7939202310826
20
0.686511826186404
30
0
0
SPLINE
5
AA
100
AcDbEntity
8
1
62
256
6
ByLayer
370
13
48
1
60
0
100
AcDbSpline
70
4
71
3
72
8
73
4
40
0
40
0
40
0
40
0
40
1
40
1
40
1
40
1
41
1
10
3.19953988836232
20
-1.5782316660115
30
0
41
1
10
3.23190689043776
20
-1.57750930474003
30
0
41
1
10
3.26620016154686
20
-1.58099131378731
30
0
41
1
10
3.30138789836659
20
-1.58864104109443
30
0
0
SPLINE
5
AB
100
AcDbEntity
8
1
62
256
6
ByLayer
370
13
48
1
60
0
100
AcDbSpline
70
4
71
3
72
10
73
6
40
0
40
0
40
0
40
0
40
0.5
40
0.5
40
1
40
1
40
1
40
1
41
1
10
3.10198518658524
20
-1.66321372477344
30
0
41
1
10
3.11415878101519
20
-1.67144220678159
30
0
41
1
10
3.1286932176927
20
-1.67913962976297
30
0
41
1
10
3.16143329109602
20
-1.69249463076366
30
0
41
1
10
3.17950672337233
20
-1.69816293295278
30
0
41
1
10
3.19953988836232
20
-1.70269160270948
30
0
0
SPLINE
5
AC
100
AcDbEntity
8
1
62
256
6
ByLayer
370
18
48
1
60
0
100
AcDbSpline
70
4
71
3
72
8
73
4
40
0
40
0
40
0
40
0
40
1
40
1
40
1
40
1
41
1
10
54.0509742930535
20
-3.0653775632382
30
0
41
1
10
54.0109368430016
20
-3.10690647948152
30
0
41
1
10
53.9701366697541
20
-3.133204645484
30
0
41
1
10
53.9281290543802
20
-3.14413915881514
30
0
0
SPLINE
5
AD
100
AcDbEntity
8
1
62
256
6
ByLayer
370
18
48
1
60
0
100
AcDbSpline
70
4
71
3
72
26
73
22
40
0
40
0
40
0
40
0
40
0.125000000000002
40
0.125000000000002
40
0.250000000000005
40
0.250000000000005
40
0.312500000000006
40
0.312500000000006
40
0.375000000000007
40
0.375000000000007
40
0.500000000000015
40
0.500000000000015
40
0.562500000000016
40
0.562500000000016
40
0.625000000000017
40
0.625000000000017
40
0.750000000000011
40
0.750000000000011
40
0.875000000000006
40
0.875000000000006
40
1
40
1
40
1
40
1
41
1
10
50.9402784272577
20
0.811196522201158
30
0
41
1
10
50.9533732428251
20
0.63992421545268
30
0
41
1
10
50.987628723056
20
0.46784482989338
30
0
41
1
10
51.0945756662319
20
0.124131655402692
30
0
41
1
10
51.164810635497
20
-0.040146410158286
30
0
41
1
10
51.2898070179049
20
-0.277681728300195
30
0
41
1
10
51.3350337389482
20
-0.355722496306555
30
0
41
1
10
51.4298777352126
20
-0.506494472577913
30
0
41
1
10
51.4795548509389
20
-0.579419859857353
30
0
41
1
10
51.6344004061863
20
-0.791852030860554
30
0
41
1
10
51.745332153551
20
-0.92507036193274
30
0
41
1
10
51.9210280881006
20
-1.11475229530106
30
0
41
1
10
51.9813526492862
20
-1.17645601052177
30
0
41
1
10
52.1037941230709
20
-1.29565555434328
30
0
41
1
10
52.1658734566139
20
-1.35314079302853
30
0
41
1
10
52.3544069715205
20
-1.51994316626448
30
0
41
1
10
52.4831422399346
20
-1.62364248905772
30
0
41
1
10
52.7457157446605
20
-1.81847365588629
30
0
41
1
10
52.8795610770956
20
-1.90958802374291
30
0
41
1
10
53.1517897842373
20
-2.08064056728821
30
0
41
1
10
53.290474657585
20
-2.16073362141114
30
0
41
1
10
53.4304447731923
20
-2.23516142813938
30
0
0
SPLINE
5
AE
100
AcDbEntity
8
1
62
256
6
ByLayer
370
18
48
1
60
0
100
AcDbSpline
70
4
71
3
72
10
73
6
40
0
40
0
40
0
40
0
40
0.5
40
0.5
40
1
40
1
40
1
40
1
41
1
10
3.19826037100498
20
-1.72755090301928
30
0
41
1
10
3.17919115536813
20
-1.72038746318597
30
0
41
1
10
3.16158529386462
20
-1.71139489317309
30
0
41
1
10
3.12920480869266
20
-1.68979740114182
30
0
41
1
10
3.11446212148422
20
-1.6771053352999
30
0
41
1
10
3.10198518658513
20
-1.66321372477324
30
0
0
SPLINE
5
AF
100
AcDbEntity
8
1
62
256
6
ByLayer
370
18
48
1
60
0
100
AcDbSpline
70
4
71
3
72
14
73
10
40
0
40
0
40
0
40
0
40
0.25
40
0.25
40
0.5
40
0.5
40
0.75
40
0.75
40
1
40
1
40
1
40
1
41
1
10
53.9611796695817
20
-2.99111559955267
30
0
41
1
10
53.9643815783717
20
-2.99071275657167
30
0
41
1
10
53.9668958217545
20
-2.99206818156927
30
0
41
1
10
53.9701275734431
20
-2.99942261658288
30
0
41
1
10
53.9707470643545
20
-3.00542338444026
30
0
41
1
10
53.969284683943
20
-3.02246565327687
30
0
41
1
10
53.9671474993749
20
-3.03356234746406
30
0
41
1
10
53.9604226871506
20
-3.05835614026517
30
0
41
1
10
53.9559155754853
20
-3.07182721495289
30
0
41
1
10
53.9509307032641
20
-3.08482119097658
30
0
0
SPLINE
5
B0
100
AcDbEntity
8
1
62
256
6
ByLayer
370
18
48
1
60
0
100
AcDbSpline
70
4
71
3
72
37
73
33
40
0
40
0
40
0
40
0
40
0.150058229064414
40
0.150058229064414
40
0.246712277944859
40
0.246712277944859
40
0.343366326825304
40
0.343366326825304
40
0.536674424586194
40
0.536674424586194
40
0.633328473466638
40
0.633328473466638
40
0.681655497906861
40
0.681655497906861
40
0.705819010126972
40
0.705819010126972
40
0.717900766237028
40
0.717900766237028
40
0.729982522347083
40
0.729982522347083
40
0.736023400402111
40
0.736023400402111
40
0.742064278457139
40
0.754146034567195
40
0.754146034567195
40
0.778309546787306
40
0.778309546787306
40
0.826636571227528
40
0.826636571227528
40
0.923290620107974
40
0.923290620107974
40
1
40
1
40
1
40
1
41
1
10
10.0692620233959
20
3.08123734408159
30
0
41
1
10
10.0692620233959
20
2.8744904447075
30
0
41
1
10
10.0692620233959
20
2.66656340120733
30
0
41
1
10
10.0692620233959
20
2.32286261385104
30
0
41
1
10
10.0692620233959
20
2.18774310113369
30
0
41
1
10
10.0692620233959
20
1.91656838479838
30
0
41
1
10
10.0692620233959
20
1.78111528987091
30
0
41
1
10
10.0692620233959
20
1.37898680708869
30
0
41
1
10
10.0692620233959
20
1.11494272339726
30
0
41
1
10
10.0692620233959
20
0.724718308870479
30
0
41
1
10
10.0692620233959
20
0.595396081940919
30
0
41
1
10
10.0692620233959
20
0.40372685036013
30
0
41
1
10
10.0692620233959
20
0.340280132785495
30
0
41
1
10
10.0692620233959
20
0.245770159766522
30
0
41
1
10
10.0692620233959
20
0.214372002032974
30
0
41
1
10
10.0692620233959
20
0.167459515501093
30
0
41
1
10
10.0692620233958
20
0.151763840259832
30
0
41
1
10
10.0692620233958
20
0.120798066823852
30
0
41
1
10
10.0692620233961
20
0.107517458982954
30
0
41
1
10
10.0692620233961
20
0.0956258484518173
30
0
41
1
10
10.0692620233959
20
0.0924639414032242
30
0
41
1
10
10.0692620233959
20
0.0855177889483798
30
0
41
1
10
10.0692620233959
20
0.0751603105862841
30
0
41
1
10
10.0692620233959
20
0.0649874858071087
30
0
41
1
10
10.0692620233959
20
0.0448912196649758
30
0
41
1
10
10.0692620233959
20
0.0318267019418954
30
0
41
1
10
10.0692620233959
20
-0.0063624178931718
30
0
41
1
10
10.0692620233959
20
-0.0304700435973757
30
0
41
1
10
10.0692620233959
20
-0.0986560132540717
30
0
41
1
10
10.0692620233959
20
-0.138431432917031
30
0
41
1
10
10.0692620233959
20
-0.199185146638826
30
0
41
1
10
10.0692620233959
20
-0.222423610241918
30
0
41
1
10
10.0692620233959
20
-0.241925655933358
30
0
0
SPLINE
5
B1
100
AcDbEntity
8
1
62
256
6
ByLayer
370
18
48
1
60
0
100
AcDbSpline
70
4
71
3
72
8
73
4
40
0
40
0
40
0
40
0
40
1
40
1
40
1
40
1
41
1
10
53.9509307032657
20
-3.08482119097283
30
0
41
1
10
53.9433405333858
20
-3.10460634915884
30
0
41
1
10
53.935740005117
20
-3.1243790193513
30
0
41
1
10
53.9281290543803
20
-3.14413915881508
30
0
0
SPLINE
5
B2
100
AcDbEntity
8
1
62
256
6
ByLayer
370
18
48
1
60
0
100
AcDbSpline
70
4
71
3
72
16
73
12
40
0
40
0
40
0
40
0
40
0.0396108399158148
40
0.0396108399158148
40
0.210346329287073
40
0.210346329287073
40
0.38108181865833
40
0.38108181865833
40
0.722552797400846
40
0.722552797400846
40
1
40
1
40
1
40
1
41
1
10
32.008213449092
20
-2.97879472558861
30
0
41
1
10
31.946813941516
20
-2.97877375019237
30
0
41
1
10
31.8853736397704
20
-2.97839975806565
30
0
41
1
10
31.5588721174412
20
-2.97452811201308
30
0
41
1
10
31.2926200434438
20
-2.96478399988911
30
0
41
1
10
30.7613462276464
20
-2.93230154935614
30
0
41
1
10
30.4960387508402
20
-2.90957246405066
30
0
41
1
10
29.7003883321315
20
-2.82232308065903
30
0
41
1
10
29.1702564921563
20
-2.73879830907072
30
0
41
1
10
28.2060365593336
20
-2.54445753709152
30
0
41
1
10
27.7746356771727
20
-2.44215368245563
30
0
41
1
10
27.3430749426369
20
-2.32627187206589
30
0
0
SPLINE
5
B3
100
AcDbEntity
8
1
62
256
6
ByLayer
370
13
48
1
60
0
100
AcDbSpline
70
4
71
3
72
20
73
16
40
0
40
0
40
0
40
0
40
0.0295708198572722
40
0.0295708198572722
40
0.108428842710328
40
0.108428842710328
40
0.187286865563385
40
0.187286865563385
40
0.502718956975611
40
0.502718956975611
40
0.660435002681725
40
0.660435002681725
40
0.818151048387838
40
0.818151048387838
40
1
40
1
40
1
40
1
41
1
10
27.3430749424705
20
-2.32627187202121
30
0
41
1
10
27.2434878946072
20
-2.29953096054663
30
0
41
1
10
27.1438923345606
20
-2.27206701916978
30
0
41
1
10
26.7786240385609
20
-2.16878482414083
30
0
41
1
10
26.5123720423791
20
-2.08853024149221
30
0
41
1
10
25.9812563326674
20
-1.91960668116238
30
0
41
1
10
25.7165881971901
20
-1.83101562012968
30
0
41
1
10
24.3963033780658
20
-1.37030192542994
30
0
41
1
10
23.3499797693554
20
-0.944633541220014
30
0
41
1
10
21.7705913656556
20
-0.275763055966621
30
0
41
1
10
21.2424690321302
20
-0.047833081455309
30
0
41
1
10
20.1785926280035
20
0.407818165688667
30
0
41
1
10
19.6495106832742
20
0.632892143626151
30
0
41
1
10
18.5153561844577
20
1.09888761958132
30
0
41
1
10
17.9104288374016
20
1.33753782602236
30
0
41
1
10
17.3047441919576
20
1.55851857310046
30
0
0
SPLINE
5
B4
100
AcDbEntity
8
1
62
256
6
ByLayer
370
18
48
1
60
0
100
AcDbSpline
70
4
71
3
72
10
73
6
40
0
40
0
40
0
40
0
40
0.5
40
0.5
40
1
40
1
40
1
40
1
41
1
10
54.0509742930462
20
3.06537756325912
30
0
41
1
10
54.1875712515293
20
2.67865259935229
30
0
41
1
10
54.3274308175527
20
2.29229456346158
30
0
41
1
10
54.612204886419
20
1.52025459965549
30
0
41
1
10
54.7565748578915
20
1.13601587904012
30
0
41
1
10
54.9016660369758
20
0.753308133805803
30
0
0
SPLINE
5
B5
100
AcDbEntity
8
1
62
256
6
ByLayer
370
18
48
1
60
0
100
AcDbSpline
70
4
71
3
72
12
73
8
40
0
40
0
40
0
40
0
40
0.636220429604694
40
0.636220429604694
40
0.954330644407037
40
0.954330644407037
40
1
40
1
40
1
40
1
41
1
10
53.9611796695988
20
-2.99111559955247
30
0
41
1
10
52.9009412177251
20
-3.00436835916042
30
0
41
1
10
51.8525488966795
20
-2.91110730993177
30
0
41
1
10
50.2736182126562
20
-2.62799024456112
30
0
41
1
10
49.7461806945377
20
-2.50974151896034
30
0
41
1
10
49.1392420871024
20
-2.34969056802356
30
0
41
1
10
49.0629968087867
20
-2.3291498873138
30
0
41
1
10
48.9867489821291
20
-2.30818894919497
30
0
0
SPLINE
5
B6
100
AcDbEntity
8
1
62
256
6
ByLayer
370
13
48
1
60
0
100
AcDbSpline
70
4
71
3
72
20
73
16
40
0
40
0
40
0
40
0
40
0.0552190825577083
40
0.0552190825577083
40
0.132679138402969
40
0.132679138402969
40
0.442519361784017
40
0.442519361784017
40
0.519979417629279
40
0.519979417629279
40
0.597439473474542
40
0.597439473474542
40
0.752359585165067
40
0.752359585165067
40
1
40
1
40
1
40
1
41
1
10
48.9867496571756
20
-2.30818913476887
30
0
41
1
10
48.7974448747527
20
-2.25614823688201
30
0
41
1
10
48.6081243832955
20
-2.20151683840513
30
0
41
1
10
48.1549154385259
20
-2.06503369563441
30
0
41
1
10
47.8910915393051
20
-1.98093265188729
30
0
41
1
10
46.5745820118301
20
-1.5408203277409
30
0
41
1
10
45.52988672837
20
-1.12514198803052
30
0
41
1
10
44.2132356399935
20
-0.572351278520301
30
0
41
1
10
43.9493771586692
20
-0.460129111800057
30
0
41
1
10
43.4201251040936
20
-0.23340007362421
30
0
41
1
10
43.1540831075362
20
-0.118643589876029
30
0
41
1
10
42.357965712051
20
0.224819359446968
30
0
41
1
10
41.830758341116
20
0.452027463729678
30
0
41
1
10
40.4647368493042
20
1.02569416061749
30
0
41
1
10
39.6281558668694
20
1.36166729994133
30
0
41
1
10
38.7869103213215
20
1.66236913784397
30
0
0
SPLINE
5
B7
100
AcDbEntity
8
1
62
256
6
ByLayer
370
18
48
1
60
0
100
AcDbSpline
70
4
71
3
72
16
73
12
40
0
40
0
40
0
40
0
40
0.112285774207319
40
0.112285774207319
40
0.25925768281051
40
0.25925768281051
40
0.4062295914137
40
0.4062295914137
40
0.70017340862008
40
0.70017340862008
40
1
40
1
40
1
40
1
41
1
10
10.2411627172635
20
-2.96519165391703
30
0
41
1
10
10.0396771438502
20
-2.9649155687772
30
0
41
1
10
9.83787911267339
20
-2.96086991644069
30
0
41
1
10
9.37095866252886
20
-2.94270813794364
30
0
41
1
10
9.10513963114252
20
-2.92585003692244
30
0
41
1
10
8.57319431888925
20
-2.87924534904482
30
0
41
1
10
8.30814965995964
20
-2.8496122928037
30
0
41
1
10
7.5150201087616
20
-2.74250967679291
30
0
41
1
10
6.98898345092249
20
-2.64682436587836
30
0
41
1
10
5.92751050434165
20
-2.40967995861578
30
0
41
1
10
5.39217090329237
20
-2.26733788826738
30
0
41
1
10
4.85525724801872
20
-2.10561160309385
30
0
0
SPLINE
5
B8
100
AcDbEntity
8
1
62
256
6
ByLayer
370
13
48
1
60
0
100
AcDbSpline
70
4
71
3
72
8
73
4
40
0
40
0
40
0
40
0
40
1
40
1
40
1
40
1
41
1
10
4.85525724792981
20
-2.10561160306705
30
0
41
1
10
4.33941271647569
20
-1.95023164768537
30
0
41
1
10
3.82211524243934
20
-1.77695894712099
30
0
41
1
10
3.3013878983667
20
-1.58864104109446
30
0
0
SPLINE
5
B9
100
AcDbEntity
8
1
62
256
6
ByLayer
370
18
48
1
60
0
100
AcDbSpline
70
4
71
3
72
8
73
4
40
0
40
0
40
0
40
0
40
1
40
1
40
1
40
1
41
1
10
54.9996873010847
20
-0.0406498099947612
30
0
41
1
10
55.0001045347394
20
-0.0135226603000547
30
0
41
1
10
55.0001038690495
20
0.0135659412491975
30
0
41
1
10
54.9996873010847
20
0.0406498099900716
30
0
0
SPLINE
5
BA
100
AcDbEntity
8
1
62
256
6
ByLayer
370
18
48
1
60
0
100
AcDbSpline
70
4
71
3
72
10
73
6
40
0
40
0
40
0
40
0
40
0.5
40
0.5
40
1
40
1
40
1
40
1
41
1
10
53.9279887298593
20
0.783456033131358
30
0
41
1
10
54.0899037039722
20
0.776777805349354
30
0
41
1
10
54.2518229871866
20
0.770046416362305
30
0
41
1
10
54.5756076392149
20
0.757248778109329
30
0
41
1
10
54.7374608277026
20
0.751332797022712
30
0
41
1
10
54.8993168796566
20
0.745381489471669
30
0
0
SPLINE
5
BB
100
AcDbEntity
8
1
62
256
6
ByLayer
370
18
48
1
60
0
100
AcDbSpline
70
4
71
3
72
22
73
18
40
0
40
0
40
0
40
0
40
0.125
40
0.125
40
0.25
40
0.25
40
0.375
40
0.375
40
0.5
40
0.5
40
0.625
40
0.625
40
0.75
40
0.75
40
0.875
40
0.875
40
1
40
1
40
1
40
1
41
1
10
3.3026599724669
20
2.52630800359401
30
0
41
1
10
3.55514974966894
20
2.42774967767056
30
0
41
1
10
3.82003576615534
20
2.32411632808433
30
0
41
1
10
4.36244955235515
20
2.10787151110742
30
0
41
1
10
4.64094784122909
20
1.99496994674325
30
0
41
1
10
5.1979518708709
20
1.76505498548963
30
0
41
1
10
5.47776300414066
20
1.64750238083761
30
0
41
1
10
6.03939505145004
20
1.40825995969547
30
0
41
1
10
6.32114548397541
20
1.2868777560663
30
0
41
1
10
6.88704720088469
20
1.04041453812411
30
0
41
1
10
7.17117582131857
20
0.915474400343953
30
0
41
1
10
7.74224460415167
20
0.664622540233438
30
0
41
1
10
8.02917119899081
20
0.538705938422794
30
0
41
1
10
8.60699852169503
20
0.287886163191615
30
0
41
1
10
8.89809170674482
20
0.163078657442071
30
0
41
1
10
9.48169629887809
20
-0.0805501220717133
30
0
41
1
10
9.77460114117156
20
-0.199598365228581
30
0
41
1
10
10.0692620233959
20
-0.314302916778047
30
0
0
SPLINE
5
BC
100
AcDbEntity
8
1
62
256
6
ByLayer
370
18
48
1
60
0
100
AcDbSpline
70
4
71
3
72
8
73
4
40
0
40
0
40
0
40
0
40
1
40
1
40
1
40
1
41
1
10
54.050974293053
20
3.06537756323874
30
0
41
1
10
54.0109368430012
20
3.10690647948175
30
0
41
1
10
53.9701366697539
20
3.13320464548403
30
0
41
1
10
53.9281290543802
20
3.14413915881511
30
0
0
SPLINE
5
BD
100
AcDbEntity
8
1
62
256
6
ByLayer
370
18
48
1
60
0
100
AcDbSpline
70
4
71
3
72
8
73
4
40
0
40
0
40
0
40
0
40
1
40
1
40
1
40
1
41
1
10
54.9016660369758
20
0.753308133805803
30
0
41
1
10
54.9008846980191
20
0.750665154860656
30
0
41
1
10
54.9001016431635
20
0.748022940752691
30
0
41
1
10
54.8993168796603
20
0.745381489470532
30
0
0
SPLINE
5
BE
100
AcDbEntity
8
1
62
256
6
ByLayer
370
18
48
1
60
0
100
AcDbSpline
70
4
71
3
72
42
73
38
40
0
40
0
40
0
40
0
40
0.0714694086378975
40
0.0714694086378975
40
0.142938817275795
40
0.142938817275795
40
0.178673521594745
40
0.178673521594745
40
0.214408225913694
40
0.214408225913694
40
0.285877634551593
40
0.285877634551593
40
0.357347043189492
40
0.357347043189492
40
0.428816451827391
40
0.428816451827391
40
0.464551156146341
40
0.464551156146341
40
0.50028586046529
40
0.50028586046529
40
0.571755269103189
40
0.571755269103189
40
0.607489973422139
40
0.607489973422139
40
0.643224677741088
40
0.643224677741088
40
0.714694086378986
40
0.714694086378986
40
0.786163495016883
40
0.786163495016883
40
0.821898199335833
40
0.821898199335833
40
0.857632903654782
40
0.857632903654782
40
0.929102312292681
40
0.929102312292681
40
1
40
1
40
1
40
1
41
1
10
53.9281290543802
20
-3.14413915881508
30
0
41
1
10
53.3984789869098
20
-3.15843619936166
30
0
41
1
10
52.8694665014391
20
-3.14496836059314
30
0
41
1
10
51.8086351848725
20
-3.06318336685084
30
0
41
1
10
51.2795819690336
20
-2.99506720810007
30
0
41
1
10
50.4864999225483
20
-2.85468296382501
30
0
41
1
10
50.2221125864545
20
-2.80152293377901
30
0
41
1
10
49.6926298081364
20
-2.68306821215265
30
0
41
1
10
49.4271812852083
20
-2.61768581134407
30
0
41
1
10
48.6322136963345
20
-2.4050583974751
30
0
41
1
10
48.1038903267946
20
-2.24137870766444
30
0
41
1
10
47.0457555973994
20
-1.87762279667496
30
0
41
1
10
46.5147211489868
20
-1.67684930455263
30
0
41
1
10
45.4561741837529
20
-1.25054581788879
30
0
41
1
10
44.9278616076578
20
-1.02526362190244
30
0
41
1
10
44.1333932635605
20
-0.676322024944369
30
0
41
1
10
43.8679017058487
20
-0.557993314060553
30
0
41
1
10
43.3377708987297
20
-0.319619246260629
30
0
41
1
10
43.0731691331431
20
-0.19958654337438
30
0
41
1
10
42.2796910825527
20
0.160686568008657
30
0
41
1
10
41.7511365292261
20
0.401090015077756
30
0
41
1
10
40.9555772348963
20
0.754554201769082
30
0
41
1
10
40.6904065206178
20
0.870903874652953
30
0
41
1
10
40.1625201925727
20
1.09823150267653
30
0
41
1
10
39.8993778336844
20
1.20941698394495
30
0
41
1
10
39.1114523949357
20
1.53375333501094
30
0
41
1
10
38.5881476627687
20
1.73762591511832
30
0
41
1
10
37.5410743989076
20
2.11242373710778
30
0
41
1
10
37.0172720421952
20
2.2832882086764
30
0
41
1
10
36.2278452685166
20
2.50897727692907
30
0
41
1
10
35.964072623516
20
2.57909404942953
30
0
41
1
10
35.4346864970284
20
2.70815090900041
30
0
41
1
10
35.1689307430703
20
2.76709710982891
30
0
41
1
10
34.3742544326261
20
2.92477234705163
30
0
41
1
10
33.8458039162243
20
3.00474741394461
30
0
41
1
10
32.7911373319288
20
3.11072725512403
30
0
41
1
10
32.2635893735683
20
3.13697973337943
30
0
41
1
10
31.7404751665903
20
3.13604535472433
30
0
0
SPLINE
5
BF
100
AcDbEntity
8
1
62
256
6
ByLayer
370
18
48
1
60
0
100
AcDbSpline
70
4
71
3
72
18
73
14
40
0
40
0
40
0
40
0
40
0.109052525590038
40
0.109052525590038
40
0.198147273031035
40
0.198147273031035
40
0.287242020472032
40
0.287242020472032
40
0.465431515354025
40
0.465431515354025
40
0.643621010236017
40
0.643621010236017
40
1
40
1
40
1
40
1
41
1
10
12.1014090340511
20
-2.98210587065725
30
0
41
1
10
11.7804789710367
20
-3.02502528077
30
0
41
1
10
11.4591787501533
20
-3.05837905044984
30
0
41
1
10
10.8737751872925
20
-3.10087926924982
30
0
41
1
10
10.6099708169238
20
-3.11334590194906
30
0
41
1
10
10.0805923481403
20
-3.12462943371969
30
0
41
1
10
9.8146183515311
20
-3.12341722666326
30
0
41
1
10
9.01896834340073
20
-3.09915208239858
30
0
41
1
10
8.49001811806085
20
-3.0555638726
30
0
41
1
10
7.43043792226285
20
-2.91572276883557
30
0
41
1
10
6.89841153108532
20
-2.81898445496796
30
0
41
1
10
5.3109100750566
20
-2.45917244767935
30
0
41
1
10
4.2599160821762
20
-2.12636682473757
30
0
41
1
10
3.1982603710054
20
-1.72755090301942
30
0
0
SPLINE
5
C0
100
AcDbEntity
8
1
62
256
6
ByLayer
370
18
48
1
60
0
100
AcDbSpline
70
4
71
3
72
8
73
4
40
0
40
0
40
0
40
0
40
1
40
1
40
1
40
1
41
1
10
54.9016660369758
20
-0.753308133805803
30
0
41
1
10
54.9073642621791
20
-0.729564985471171
30
0
41
1
10
54.9128398395094
20
-0.705972734107149
30
0
41
1
10
54.9180856260583
20
-0.682516288312542
30
0
0
SPLINE
5
C1
100
AcDbEntity
8
1
62
256
6
ByLayer
370
18
48
1
60
0
100
AcDbSpline
70
4
71
3
72
8
73
4
40
0
40
0
40
0
40
0
40
1
40
1
40
1
40
1
41
1
10
53.8917542577153
20
-1.63160410317585
30
0
41
1
10
53.7402389323281
20
-1.83518280617304
30
0
41
1
10
53.586251847678
20
-2.03626718157895
30
0
41
1
10
53.4304447731914
20
-2.2351614281439
30
0
0
SPLINE
5
C2
100
AcDbEntity
8
1
62
256
6
ByLayer
370
18
48
1
60
0
100
AcDbSpline
70
4
71
3
72
60
73
56
40
0
40
0
40
0
40
0
40
0.0666711124976922
40
0.0666711124976922
40
0.100006668746538
40
0.100006668746538
40
0.133342224995385
40
0.133342224995385
40
0.166677781244231
40
0.166677781244231
40
0.200013337493077
40
0.200013337493077
40
0.233348893741923
40
0.233348893741923
40
0.266684449990769
40
0.266684449990769
40
0.300020006239615
40
0.300020006239615
40
0.333355562488461
40
0.333355562488461
40
0.366691118737307
40
0.366691118737307
40
0.400026674986153
40
0.400026674986153
40
0.433362231235
40
0.433362231235
40
0.466697787483845
40
0.466697787483845
40
0.533368899981538
40
0.533368899981538
40
0.566704456230383
40
0.566704456230383
40
0.600040012479229
40
0.600040012479229
40
0.633375568728075
40
0.633375568728075
40
0.66671112497692
40
0.66671112497692
40
0.700046681225766
40
0.700046681225766
40
0.733382237474612
40
0.733382237474612
40
0.766717793723458
40
0.766717793723458
40
0.800053349972303
40
0.800053349972303
40
0.833388906221148
40
0.833388906221148
40
0.866724462469993
40
0.866724462469993
40
0.900060018718838
40
0.900060018718838
40
0.933395574967682
40
0.933395574967682
40
1
40
1
40
1
40
1
41
1
10
10.0692620233959
20
3.08123734401733
30
0
41
1
10
10.5309945675301
20
3.0473237277215
30
0
41
1
10
10.9918148277864
20
2.99395694229094
30
0
41
1
10
11.6785578019455
20
2.88437649875576
30
0
41
1
10
11.9067640178346
20
2.84278913674314
30
0
41
1
10
12.3636691952473
20
2.75141070324233
30
0
41
1
10
12.5921149300017
20
2.70143455673426
30
0
41
1
10
13.0485971565364
20
2.59250356120728
30
0
41
1
10
13.2763539787619
20
2.53314077311703
30
0
41
1
10
13.7326971262164
20
2.40683588831118
30
0
41
1
10
13.9613605855107
20
2.34007230845455
30
0
41
1
10
14.4192485235027
20
2.19878690447933
30
0
41
1
10
14.648391851081
20
2.1241189361775
30
0
41
1
10
15.1072247190892
20
1.96663277485325
30
0
41
1
10
15.337435865855
20
1.8847503292732
30
0
41
1
10
15.7995747031963
20
1.71505009979018
30
0
41
1
10
16.0311785277324
20
1.62719603614556
30
0
41
1
10
16.4914158375021
20
1.44568792461999
30
0
41
1
10
16.720686537881
20
1.35215923436158
30
0
41
1
10
17.1791852884746
20
1.16311379038819
30
0
41
1
10
17.4081675579223
20
1.0670846128483
30
0
41
1
10
17.8652306027634
20
0.871232727566991
30
0
41
1
10
18.0930236642989
20
0.770765430724737
30
0
41
1
10
18.5491336394955
20
0.569148947284873
30
0
41
1
10
18.7774314894809
20
0.467973773307932
30
0
41
1
10
19.23407035748
20
0.263921740433432
30
0
41
1
10
19.4622924300676
20
0.160769876369471
30
0
41
1
10
20.147288899194
20
-0.150729433095989
30
0
41
1
10
20.6066481401853
20
-0.355844049624039
30
0
41
1
10
21.2976917312615
20
-0.664594287816044
30
0
41
1
10
21.5290144147522
20
-0.767323973325688
30
0
41
1
10
21.9902717113021
20
-0.967204234854762
30
0
41
1
10
22.2203598498993
20
-1.06508613735309
30
0
41
1
10
22.6791079516325
20
-1.25759145355647
30
0
41
1
10
22.9074973860925
20
-1.35274771583701
30
0
41
1
10
23.3644265315786
20
-1.53640595398824
30
0
41
1
10
23.5928697578967
20
-1.62516568269336
30
0
41
1
10
24.0492720248021
20
-1.79752983156595
30
0
41
1
10
24.2770707073012
20
-1.88141423189958
30
0
41
1
10
24.7325794952641
20
-2.04312234527629
30
0
41
1
10
24.9607289270998
20
-2.12018724296001
30
0
41
1
10
25.4176034515361
20
-2.26724004277705
30
0
41
1
10
25.6463120803286
20
-2.33726262996004
30
0
41
1
10
26.1037648120367
20
-2.4708837065524
30
0
41
1
10
26.3328914952075
20
-2.53386936802195
30
0
41
1
10
26.7930483452343
20
-2.65066768787938
30
0
41
1
10
27.0241476155397
20
-2.70486086551787
30
0
41
1
10
27.4862782982171
20
-2.80470589831822
30
0
41
1
10
27.7161173832503
20
-2.85032992343108
30
0
41
1
10
28.175478118269
20
-2.93091360762645
30
0
41
1
10
28.4048518587095
20
-2.96611584602906
30
0
41
1
10
28.8625647449688
20
-3.02690597694675
30
0
41
1
10
29.0907013478347
20
-3.05257357260933
30
0
41
1
10
29.7740506614797
20
-3.11425214743352
30
0
41
1
10
30.2301489907802
20
-3.13489496024823
30
0
41
1
10
30.6853631650299
20
-3.13539477103896
30
0
0
SPLINE
5
C3
100
AcDbEntity
8
1
62
256
6
ByLayer
370
18
48
1
60
0
100
AcDbSpline
70
4
71
3
72
28
73
24
40
0
40
0
40
0
40
0
40
0.0245821394615263
40
0.0245821394615263
40
0.122123925515374
40
0.122123925515374
40
0.219665711569221
40
0.219665711569221
40
0.317207497623069
40
0.317207497623069
40
0.414749283676916
40
0.414749283676916
40
0.512291069730764
40
0.512291069730764
40
0.609832855784611
40
0.609832855784611
40
0.707374641838458
40
0.707374641838458
40
0.804916427892306
40
0.804916427892306
40
0.902458213946153
40
0.902458213946153
40
1
40
1
40
1
40
1
41
1
10
47.0010681699352
20
2.22357824871457
30
0
41
1
10
47.0584597704253
20
2.24209821542846
30
0
41
1
10
47.1158629773295
20
2.2603595294232
30
0
41
1
10
47.4011684319479
20
2.34968814199337
30
0
41
1
10
47.6291911939712
20
2.41707623509865
30
0
41
1
10
48.0851472378133
20
2.54448172771487
30
0
41
1
10
48.3127963391934
20
2.60483196172922
30
0
41
1
10
48.7693790608278
20
2.71614195584181
30
0
41
1
10
48.9983254767266
20
2.76715277834356
30
0
41
1
10
49.4570965511135
20
2.86041653612537
30
0
41
1
10
49.6868161505767
20
2.90275908147143
30
0
41
1
10
50.1472826980618
20
2.97816913819329
30
0
41
1
10
50.3786387205534
20
3.01080458435101
30
0
41
1
10
50.839653005829
20
3.06567426408032
30
0
41
1
10
51.0697328299578
20
3.08803925598221
30
0
41
1
10
51.5284654628593
20
3.1227813997985
30
0
41
1
10
51.757384757833
20
3.13498230644635
30
0
41
1
10
52.2158120716795
20
3.1488972751315
30
0
41
1
10
52.4450757384737
20
3.15071566112448
30
0
41
1
10
52.9033259027862
20
3.14405641694978
30
0
41
1
10
53.1320306184822
20
3.13546364504981
30
0
41
1
10
53.5907562966568
20
3.10803395696794
30
0
41
1
10
53.8206927666845
20
3.08926994477451
30
0
41
1
10
54.0509742930539
20
3.06537756323772
30
0
0
SPLINE
5
C4
100
AcDbEntity
8
1
62
256
6
ByLayer
370
18
48
1
60
0
100
AcDbSpline
70
4
71
3
72
8
73
4
40
0
40
0
40
0
40
0
40
1
40
1
40
1
40
1
41
1
10
53.9281290543803
20
3.14413915881505
30
0
41
1
10
53.7877776795626
20
3.14792771548628
30
0
41
1
10
53.6474067530891
20
3.14976398360068
30
0
41
1
10
53.5070117039623
20
3.14965504364798
30
0
0
SPLINE
5
C5
100
AcDbEntity
8
1
62
256
6
ByLayer
370
18
48
1
60
0
100
AcDbSpline
70
4
71
3
72
46
73
42
40
0
40
0
40
0
40
0
40
0.0237316430902766
40
0.0237316430902766
40
0.0569219704144479
40
0.0569219704144479
40
0.0901122977386192
40
0.0901122977386192
40
0.156492952386962
40
0.156492952386962
40
0.189683279711134
40
0.189683279711134
40
0.222873607035306
40
0.222873607035306
40
0.256063934359478
40
0.256063934359478
40
0.28925426168365
40
0.28925426168365
40
0.355634916331993
40
0.355634916331993
40
0.388825243656165
40
0.388825243656165
40
0.422015570980336
40
0.422015570980336
40
0.48839622562868
40
0.48839622562868
40
0.621157534925366
40
0.621157534925366
40
0.654347862249537
40
0.654347862249537
40
0.687538189573709
40
0.687538189573709
40
0.753918844222051
40
0.753918844222051
40
0.886680153518737
40
0.886680153518737
40
0.953060808167081
40
0.953060808167081
40
0.986251135491252
40
0.986251135491252
40
1
40
1
40
1
40
1
41
1
10
33.87278743151
20
-2.99221286811297
30
0
41
1
10
33.6835090964571
20
-3.01789017921647
30
0
41
1
10
33.4941636628431
20
-3.04021962372855
30
0
41
1
10
33.0395891929115
20
-3.08555897799559
30
0
41
1
10
32.7738635963284
20
-3.10531419863119
30
0
41
1
10
32.2433035308138
20
-3.13097489428392
30
0
41
1
10
31.9784226754359
20
-3.13691377746261
30
0
41
1
10
31.184169209123
20
-3.13409371686225
30
0
41
1
10
30.6551228296483
20
-3.1046588941185
30
0
41
1
10
29.8586802630388
20
-3.01985887730936
30
0
41
1
10
29.5931739855708
20
-2.9848495443799
30
0
41
1
10
29.0632115615241
20
-2.90204523900604
30
0
41
1
10
28.7985177415398
20
-2.85420658056876
30
0
41
1
10
28.2690515264398
20
-2.74627110305997
30
0
41
1
10
28.0042887703957
20
-2.68616818898337
30
0
41
1
10
27.4741427562276
20
-2.5542703472066
30
0
41
1
10
27.2083939064518
20
-2.48239398412161
30
0
41
1
10
26.412260874256
20
-2.25120677650133
30
0
41
1
10
25.8832656558216
20
-2.07629873058619
30
0
41
1
10
25.0886700870279
20
-1.78899115604116
30
0
41
1
10
24.8236616958575
20
-1.68899999230999
30
0
41
1
10
24.2927403723639
20
-1.48165053317672
30
0
41
1
10
24.0272592481957
20
-1.3744854493041
30
0
41
1
10
23.2344853370761
20
-1.04635055440116
30
0
41
1
10
22.7091069050788
20
-0.817979220267262
30
0
41
1
10
21.1357362231965
20
-0.11896536031287
30
0
41
1
10
20.0904928638715
20
0.365598443528512
30
0
41
1
10
18.7656825575939
20
0.942441692941401
30
0
41
1
10
18.4996438291155
20
1.05652562515792
30
0
41
1
10
17.9692341408628
20
1.27875648876852
30
0
41
1
10
17.7043492284477
20
1.38708024949162
30
0
41
1
10
16.9098459510758
20
1.70210837668037
30
0
41
1
10
16.3803322613023
20
1.89908071935139
30
0
41
1
10
14.7859817211501
20
2.43606278598156
30
0
41
1
10
13.73937713763
20
2.71440034566805
30
0
41
1
10
12.1663542288195
20
2.98168200771417
30
0
41
1
10
11.6415291432857
20
3.04590441661014
30
0
41
1
10
10.8501994055931
20
3.10218332091023
30
0
41
1
10
10.5857447416794
20
3.11427343675925
30
0
41
1
10
10.2103543049852
20
3.12166457460918
30
0
41
1
10
10.1003572054259
20
3.12264403074852
30
0
41
1
10
9.99043194049753
20
3.12244570208077
30
0
0
SPLINE
5
C6
100
AcDbEntity
8
1
62
256
6
ByLayer
370
18
48
1
60
0
100
AcDbSpline
70
4
71
3
72
82
73
78
40
0
40
0
40
0
40
0
40
0.0226548819660061
40
0.0226548819660061
40
0.0479393297731609
40
0.0479393297731609
40
0.0732237775803158
40
0.0732237775803158
40
0.0985082253874706
40
0.0985082253874706
40
0.123792673194625
40
0.123792673194625
40
0.14907712100178
40
0.14907712100178
40
0.19964601661609
40
0.19964601661609
40
0.224930464423245
40
0.224930464423245
40
0.250214912230401
40
0.250214912230401
40
0.275499360037556
40
0.275499360037556
40
0.300783807844711
40
0.300783807844711
40
0.326068255651867
40
0.326068255651867
40
0.351352703459022
40
0.351352703459022
40
0.376637151266177
40
0.376637151266177
40
0.401921599073333
40
0.401921599073333
40
0.427206046880488
40
0.427206046880488
40
0.452490494687644
40
0.452490494687644
40
0.477774942494799
40
0.477774942494799
40
0.503059390301954
40
0.503059390301954
40
0.553628285916265
40
0.553628285916265
40
0.57891273372342
40
0.57891273372342
40
0.604197181530575
40
0.604197181530575
40
0.62948162933773
40
0.62948162933773
40
0.654766077144885
40
0.654766077144885
40
0.680050524952039
40
0.680050524952039
40
0.705334972759194
40
0.705334972759194
40
0.730619420566349
40
0.730619420566349
40
0.755903868373504
40
0.755903868373504
40
0.781188316180659
40
0.781188316180659
40
0.806472763987814
40
0.806472763987814
40
0.831757211794968
40
0.831757211794968
40
0.857041659602123
40
0.857041659602123
40
0.882326107409278
40
0.882326107409278
40
0.907610555216433
40
0.907610555216433
40
0.932895003023588
40
0.932895003023588
40
0.958179450830742
40
0.958179450830742
40
0.983463898637897
40
0.983463898637897
40
1
40
1
40
1
40
1
41
1
10
25.2604466815544
20
2.21654037160189
30
0
41
1
10
25.4651747354922
20
2.28176990716415
30
0
41
1
10
25.6700994710285
20
2.34421088173411
30
0
41
1
10
26.1037648120367
20
2.4708837065524
30
0
41
1
10
26.3328914952075
20
2.53386936802195
30
0
41
1
10
26.7930483452343
20
2.65066768787938
30
0
41
1
10
27.0241476155398
20
2.70486086551787
30
0
41
1
10
27.4862782982171
20
2.80470589831825
30
0
41
1
10
27.7161173832503
20
2.85032992343105
30
0
41
1
10
28.175478118269
20
2.93091360762642
30
0
41
1
10
28.4048518587095
20
2.96611584602906
30
0
41
1
10
28.8625647449688
20
3.02690597694675
30
0
41
1
10
29.0907013478347
20
3.05257357260933
30
0
41
1
10
29.7745066434912
20
3.11429330401341
30
0
41
1
10
30.2310623254231
20
3.13493627683394
30
0
41
1
10
30.9145645985878
20
3.13562617922503
30
0
41
1
10
31.1426306769311
20
3.13068175127481
30
0
41
1
10
31.6000579135737
20
3.11070964118295
30
0
41
1
10
31.8292402500342
20
3.09568881123317
30
0
41
1
10
32.2881734852564
20
3.05522672504836
30
0
41
1
10
32.5177492123908
20
3.02960030875954
30
0
41
1
10
32.9792614127196
20
2.96864375289559
30
0
41
1
10
33.2107963457136
20
2.93327543981306
30
0
41
1
10
33.6712704118861
20
2.85312534978687
30
0
41
1
10
33.9004829677504
20
2.8080068240979
30
0
41
1
10
34.3581713917657
20
2.70898993069895
30
0
41
1
10
34.586900149478
20
2.65542393624986
30
0
41
1
10
35.0437817370591
20
2.54000457764218
30
0
41
1
10
35.2719028909167
20
2.47810730720283
30
0
41
1
10
35.7272267555318
20
2.34537920534172
30
0
41
1
10
35.9549477225879
20
2.27527941573493
30
0
41
1
10
36.4110731976362
20
2.12867079073518
30
0
41
1
10
36.6393362068959
20
2.05195976019655
30
0
41
1
10
37.0958489430001
20
1.89088709716765
30
0
41
1
10
37.3239905863793
20
1.80626037399284
30
0
41
1
10
37.7821439190745
20
1.63271805804436
30
0
41
1
10
38.0119176326743
20
1.54340903751802
30
0
41
1
10
38.4724600783492
20
1.35881517796224
30
0
41
1
10
38.7035128402506
20
1.26271867237617
30
0
41
1
10
39.394914037883
20
0.97053348040555
30
0
41
1
10
39.8542035973207
20
0.771993503176162
30
0
41
1
10
40.5388649655966
20
0.464464527052769
30
0
41
1
10
40.7669538063014
20
0.361651299130955
30
0
41
1
10
41.2232022716957
20
0.156175440737087
30
0
41
1
10
41.4512597423765
20
0.05328118594241
30
0
41
1
10
41.9067744591027
20
-0.153878494278985
30
0
41
1
10
42.134226190058
20
-0.258156516211358
30
0
41
1
10
42.5904898840261
20
-0.463637524873519
30
0
41
1
10
42.8190440254691
20
-0.565425193972573
30
0
41
1
10
43.2766016062546
20
-0.767991531160362
30
0
41
1
10
43.5053371187321
20
-0.869378029881233
30
0
41
1
10
43.9644647728825
20
-1.06840363116137
30
0
41
1
10
44.1949451513419
20
-1.16584247685566
30
0
41
1
10
44.6573375075633
20
-1.35748314711594
30
0
41
1
10
44.8877402516887
20
-1.4512718529603
30
0
41
1
10
45.3466780312532
20
-1.63426229748293
30
0
41
1
10
45.5758021966561
20
-1.72240978648489
30
0
41
1
10
46.033524489431
20
-1.89200516039673
30
0
41
1
10
46.2620563666489
20
-1.97359640054421
30
0
41
1
10
46.7179395859898
20
-2.1312284063537
30
0
41
1
10
46.9454149258771
20
-2.20699255832233
30
0
41
1
10
47.4011684319479
20
-2.34968814199334
30
0
41
1
10
47.6291911939712
20
-2.41707623509865
30
0
41
1
10
48.0851472378133
20
-2.54448172771484
30
0
41
1
10
48.3127963391934
20
-2.60483196172919
30
0
41
1
10
48.7693790608277
20
-2.71614195584181
30
0
41
1
10
48.9983254767266
20
-2.76715277834356
30
0
41
1
10
49.4570965511134
20
-2.86041653612534
30
0
41
1
10
49.6868161505768
20
-2.9027590814714
30
0
41
1
10
50.1472826980618
20
-2.97816913819332
30
0
41
1
10
50.3786387205534
20
-3.01080458435101
30
0
41
1
10
50.839653005829
20
-3.06567426408032
30
0
41
1
10
51.0697328299578
20
-3.08803925598221
30
0
41
1
10
51.5284654628593
20
-3.1227813997985
30
0
41
1
10
51.7573847578331
20
-3.13498230644635
30
0
41
1
10
52.1365048035915
20
-3.14649000549764
30
0
41
1
10
52.2864325826361
20
-3.14884212634331
30
0
41
1
10
52.436328996359
20
-3.14899366100744
30
0
0
SPLINE
5
C7
100
AcDbEntity
8
1
62
256
6
ByLayer
370
18
48
1
60
0
100
AcDbSpline
70
4
71
3
72
10
73
6
40
0
40
0
40
0
40
0
40
0.5
40
0.5
40
1
40
1
40
1
40
1
41
1
10
54.0509742930511
20
-3.06537756324539
30
0
41
1
10
54.1882343334981
20
-2.67677532219128
30
0
41
1
10
54.3282117049838
20
-2.29016201456028
30
0
41
1
10
54.6123603628638
20
-1.51984865988717
30
0
41
1
10
54.756525748631
20
-1.13614541478785
30
0
41
1
10
54.9016660369758
20
-0.753308133805803
30
0
0
SPLINE
5
C8
100
AcDbEntity
8
1
62
256
6
ByLayer
370
18
48
1
60
0
100
AcDbSpline
70
4
71
3
72
22
73
18
40
0
40
0
40
0
40
0
40
0.0506018243761345
40
0.0506018243761345
40
0.335681938200846
40
0.335681938200846
40
0.406951966657023
40
0.406951966657023
40
0.478221995113201
40
0.478221995113201
40
0.620762052025556
40
0.620762052025556
40
0.905842165850266
40
0.905842165850266
40
0.977112194306443
40
0.977112194306443
40
1
40
1
40
1
40
1
41
1
10
15.3717876779434
20
2.19158151381634
30
0
41
1
10
15.5599481957622
20
2.13334791137081
30
0
41
1
10
15.7477101739154
20
2.072825084855
30
0
41
1
10
16.9912881808322
20
1.65738577342739
30
0
41
1
10
18.0374835050226
20
1.23681578455077
30
0
41
1
10
19.3551272089133
20
0.672595542280135
30
0
41
1
10
19.6191308047861
20
0.557798447107928
30
0
41
1
10
20.1486172290816
20
0.325414203190633
30
0
41
1
10
20.4144476766252
20
0.207801404035251
30
0
41
1
10
21.2131170317281
20
-0.146055398219886
30
0
41
1
10
21.7415056329582
20
-0.381204522420376
30
0
41
1
10
23.3215534487178
20
-1.06842036791807
30
0
41
1
10
24.3679407322757
20
-1.5023465763455
30
0
41
1
10
25.6891977606508
20
-1.96750611359161
30
0
41
1
10
25.9540926225687
20
-2.05671873333378
30
0
41
1
10
26.3053024120271
20
-2.16874664664621
30
0
41
1
10
26.3907448176436
20
-2.19551029608684
30
0
41
1
10
26.4762148918863
20
-2.22177509953647
30
0
0
SPLINE
5
C9
100
AcDbEntity
8
1
62
256
6
ByLayer
370
13
48
1
60
0
100
AcDbSpline
70
4
71
3
72
18
73
14
40
0
40
0
40
0
40
0
40
0.0779237477910539
40
0.0779237477910539
40
0.307496818488725
40
0.307496818488725
40
0.537069889186395
40
0.537069889186395
40
0.65185642453523
40
0.65185642453523
40
0.766642959884066
40
0.766642959884066
40
1
40
1
40
1
40
1
41
1
10
26.4762148919758
20
-2.22177509956393
30
0
41
1
10
26.6568889253994
20
-2.27729591217934
30
0
41
1
10
26.8376865965223
20
-2.33058762350112
30
0
41
1
10
27.5500232185916
20
-2.53093725828447
30
0
41
1
10
28.0812752278582
20
-2.65932119135059
30
0
41
1
10
29.1462949363266
20
-2.86753078343887
30
0
41
1
10
29.6768388792009
20
-2.94675087631504
30
0
41
1
10
30.473224280525
20
-3.02585274813077
30
0
41
1
10
30.7387765872887
20
-3.04559833673142
30
0
41
1
10
31.2705970662921
20
-3.07159897279121
30
0
41
1
10
31.5371226454133
20
-3.07783514544249
30
0
41
1
10
32.3414730782453
20
-3.07607330154138
30
0
41
1
10
32.8770592832939
20
-3.04674573839301
30
0
41
1
10
33.4113900658796
20
-2.99088459007183
30
0
0
SPLINE
5
CA
100
AcDbEntity
8
1
62
256
6
ByLayer
370
18
48
1
60
0
100
AcDbSpline
70
4
71
3
72
80
73
76
40
0
40
0
40
0
40
0
40
0.0202531801845402
40
0.0202531801845402
40
0.0443356373466707
40
0.0443356373466707
40
0.0684180945088013
40
0.0684180945088013
40
0.0925005516709319
40
0.0925005516709319
40
0.116583008833062
40
0.116583008833062
40
0.140665465995193
40
0.140665465995193
40
0.188830380319454
40
0.188830380319454
40
0.212912837481584
40
0.212912837481584
40
0.236995294643715
40
0.236995294643715
40
0.261077751805846
40
0.261077751805846
40
0.285160208967976
40
0.285160208967976
40
0.309242666130107
40
0.309242666130107
40
0.333325123292237
40
0.333325123292237
40
0.357407580454368
40
0.357407580454368
40
0.381490037616498
40
0.381490037616498
40
0.429654951940759
40
0.429654951940759
40
0.453737409102889
40
0.453737409102889
40
0.477819866265019
40
0.477819866265019
40
0.501902323427149
40
0.501902323427149
40
0.525984780589279
40
0.525984780589279
40
0.574149694913539
40
0.574149694913539
40
0.598232152075669
40
0.598232152075669
40
0.6223146092378
40
0.6223146092378
40
0.64639706639993
40
0.64639706639993
40
0.670479523562061
40
0.670479523562061
40
0.718644437886321
40
0.718644437886321
40
0.742726895048451
40
0.742726895048451
40
0.766809352210582
40
0.766809352210582
40
0.790891809372712
40
0.790891809372712
40
0.814974266534843
40
0.814974266534843
40
0.839056723696973
40
0.839056723696973
40
0.863139180859104
40
0.863139180859104
40
0.887221638021234
40
0.887221638021234
40
0.911304095183365
40
0.911304095183365
40
0.959469009507625
40
0.959469009507625
40
0.983551466669756
40
0.983551466669756
40
1
40
1
40
1
40
1
41
1
10
47.0121419480181
20
-2.22852131977217
30
0
41
1
10
46.8341000866818
20
-2.27959687874375
30
0
41
1
10
46.6562997357267
20
-2.32839577693068
30
0
41
1
10
46.2671450242867
20
-2.42931076788747
30
0
41
1
10
46.0557037865314
20
-2.48029612043675
30
0
41
1
10
45.6326966139142
20
-2.57621490835132
30
0
41
1
10
45.4211589287976
20
-2.6210823933319
30
0
41
1
10
44.998098485128
20
-2.70413676406375
30
0
41
1
10
44.7865104793228
20
-2.74222586207136
30
0
41
1
10
44.3624289118147
20
-2.81033581546183
30
0
41
1
10
44.1500009701115
20
-2.84048084294503
30
0
41
1
10
43.7242652116381
20
-2.89211997639046
30
0
41
1
10
43.5110187974785
20
-2.91348032289034
30
0
41
1
10
42.8690748347163
20
-2.96350425922273
30
0
41
1
10
42.4412724941121
20
-2.98261211396846
30
0
41
1
10
41.8010792236802
20
-2.9843165283954
30
0
41
1
10
41.5877875915858
20
-2.98035697508075
30
0
41
1
10
41.1607614018782
20
-2.96491208601643
30
0
41
1
10
40.9470849654709
20
-2.95325012199143
30
0
41
1
10
40.5193483220466
20
-2.92076443522876
30
0
41
1
10
40.305135210454
20
-2.89948370803091
30
0
41
1
10
39.8772388681675
20
-2.84907408366658
30
0
41
1
10
39.6634239266444
20
-2.82056405078575
30
0
41
1
10
39.2360000760798
20
-2.75556728349164
30
0
41
1
10
39.0224210694515
20
-2.7190705142005
30
0
41
1
10
38.5954557472209
20
-2.63716133571126
30
0
41
1
10
38.3819830527052
20
-2.59223178892015
30
0
41
1
10
37.9545446276546
20
-2.49662280528298
30
0
41
1
10
37.7405954340204
20
-2.4454058061969
30
0
41
1
10
37.3121741059911
20
-2.33513022723705
30
0
41
1
10
37.098311563055
20
-2.27582511892902
30
0
41
1
10
36.4586287765356
20
-2.09030740085933
30
0
41
1
10
36.0336030742445
20
-1.95685879577093
30
0
41
1
10
35.3984346044116
20
-1.7383864629071
30
0
41
1
10
35.1869749207625
20
-1.66310995552897
30
0
41
1
10
34.7640198656578
20
-1.50928982226589
30
0
41
1
10
34.5525685473826
20
-1.43041051407116
30
0
41
1
10
34.1297352169632
20
-1.26824436681505
30
0
41
1
10
33.9184075381224
20
-1.18467133860153
30
0
41
1
10
33.4953347627206
20
-1.01496323945255
30
0
41
1
10
33.2835870446732
20
-0.928941834037943
30
0
41
1
10
32.6472937943597
20
-0.666924870115906
30
0
41
1
10
32.222046277947
20
-0.485749146859433
30
0
41
1
10
31.580696446367
20
-0.21144210899206
30
0
41
1
10
31.3660998371117
20
-0.119475693364905
30
0
41
1
10
30.9381810211017
20
0.0643777939492338
30
0
41
1
10
30.724636252653
20
0.156533019508487
30
0
41
1
10
30.2976020298364
20
0.339879573153127
30
0
41
1
10
30.0840996256873
20
0.43103136132865
30
0
41
1
10
29.6569458869627
20
0.611578004741034
30
0
41
1
10
29.4433145936417
20
0.70100258173099
30
0
41
1
10
28.8022223397436
20
0.966799509152679
30
0
41
1
10
28.373331349848
20
1.14057099333382
30
0
41
1
10
27.7320413697159
20
1.38748955493344
30
0
41
1
10
27.5186276564813
20
1.46803314210297
30
0
41
1
10
27.0917417102709
20
1.62512631804998
30
0
41
1
10
26.878264627743
20
1.70152487994943
30
0
41
1
10
26.451021881917
20
1.84855537324432
30
0
41
1
10
26.2372761984491
20
1.91917247118184
30
0
41
1
10
25.8096233761179
20
2.05573899114989
30
0
41
1
10
25.5953145369853
20
2.12172760011259
30
0
41
1
10
25.167776324224
20
2.24691612906659
30
0
41
1
10
24.9545517192507
20
2.30569971519893
30
0
41
1
10
24.5291975903495
20
2.41575099074802
30
0
41
1
10
24.3170932891191
20
2.46793268291714
30
0
41
1
10
23.8932820965144
20
2.56537933654465
30
0
41
1
10
23.6815810926324
20
2.61078774149934
30
0
41
1
10
23.2584836602205
20
2.69279372836283
30
0
41
1
10
23.0471034659977
20
2.72926161940143
30
0
41
1
10
22.4135104335268
20
2.82974448111659
30
0
41
1
10
21.9910851857648
20
2.88285438301935
30
0
41
1
10
21.3557367180596
20
2.93358435432819
30
0
41
1
10
21.1439327733229
20
2.94704658754918
30
0
41
1
10
20.7867807358199
20
2.96331155586117
30
0
41
1
10
20.6416608412742
20
2.96821261887033
30
0
41
1
10
20.496274534702
20
2.97095997186079
30
0
0
SPLINE
5
CB
100
AcDbEntity
8
1
62
256
6
ByLayer
370
13
48
1
60
0
100
AcDbSpline
70
4
71
3
72
8
73
4
40
0
40
0
40
0
40
0
40
1
40
1
40
1
40
1
41
1
10
3.19953988836232
20
-1.70269160270948
30
0
41
1
10
3.21908968906826
20
-1.70512039097997
30
0
41
1
10
3.23970090423737
20
-1.71026051951412
30
0
41
1
10
3.26080002499188
20
-1.71799163421713
30
0
0
SPLINE
5
CC
100
AcDbEntity
8
1
62
256
6
ByLayer
370
18
48
1
60
0
100
AcDbSpline
70
4
71
3
72
8
73
4
40
0
40
0
40
0
40
0
40
1
40
1
40
1
40
1
41
1
10
54.9180856260583
20
0.682516288312399
30
0
41
1
10
54.9574468683701
20
0.491038948264475
30
0
41
1
10
54.9838838109302
20
0.300288996722429
30
0
41
1
10
54.9908578334319
20
0.110634431747769
30
0
0
SPLINE
5
CD
100
AcDbEntity
8
1
62
256
6
ByLayer
370
18
48
1
60
0
100
AcDbSpline
70
4
71
3
72
28
73
24
40
0
40
0
40
0
40
0
40
0.0625
40
0.0625
40
0.125
40
0.125
40
0.25
40
0.25
40
0.3125
40
0.3125
40
0.375
40
0.375
40
0.5
40
0.5
40
0.625
40
0.625
40
0.6875
40
0.6875
40
0.75
40
0.75
40
0.875
40
0.875
40
1
40
1
40
1
40
1
41
1
10
3.06891452689399
20
-1.58328878246874
30
0
41
1
10
3.06893626855688
20
-1.49594974861651
30
0
41
1
10
3.06895744303435
20
-1.40625111688166
30
0
41
1
10
3.06899880648839
20
-1.22211436063734
30
0
41
1
10
3.06901889466474
20
-1.12809711182609
30
0
41
1
10
3.06907705552348
20
-0.843213032396989
30
0
41
1
10
3.06911329717065
20
-0.648407842056855
30
0
41
1
10
3.06916484437934
20
-0.348817889838614
30
0
41
1
10
3.06918162642836
20
-0.247233261018835
30
0
41
1
10
3.06921374580295
20
-0.0454841793743697
30
0
41
1
10
3.06922914610041
20
0.0550099816042575
30
0
41
1
10
3.06927363005289
20
0.355376216023217
30
0
41
1
10
3.06930102063876
20
0.554142727584463
30
0
41
1
10
3.06935203266212
20
0.948598367360006
30
0
41
1
10
3.06937485934301
20
1.13810557624964
30
0
41
1
10
3.06940550215739
20
1.4105457351429
30
0
41
1
10
3.06941511344513
20
1.4994165455858
30
0
41
1
10
3.06943311368155
20
1.67319219764644
30
0
41
1
10
3.06944153036992
20
1.75843009366017
30
0
41
1
10
3.06946437094356
20
2.00292158977189
30
0
41
1
10
3.06947659170115
20
2.15255059351645
30
0
41
1
10
3.06949450828964
20
2.42545145219861
30
0
41
1
10
3.06950016030271
20
2.54936057745411
30
0
41
1
10
3.06950171714644
20
2.65474919990189
30
0
0
SPLINE
5
CE
100
AcDbEntity
8
1
62
256
6
ByLayer
370
18
48
1
60
0
100
AcDbSpline
70
4
71
3
72
14
73
10
40
0
40
0
40
0
40
0
40
0.25
40
0.25
40
0.5
40
0.5
40
0.75
40
0.75
40
1
40
1
40
1
40
1
41
1
10
53.7939202310826
20
0.686511826186404
30
0
41
1
10
53.7927160570081
20
0.70191094564899
30
0
41
1
10
53.7955941067891
20
0.717591115186082
30
0
41
1
10
53.8105427905026
20
0.74489262548056
30
0
41
1
10
53.8225906393378
20
0.756292092233394
30
0
41
1
10
53.8498293112098
20
0.772313771183121
30
0
41
1
10
53.865238703209
20
0.777408709431626
30
0
41
1
10
53.8962040633721
20
0.783251869318491
30
0
41
1
10
53.9121426362846
20
0.78410960963302
30
0
41
1
10
53.9279887298593
20
0.783456033131358
30
0
0
SPLINE
5
CF
100
AcDbEntity
8
1
62
256
6
ByLayer
370
18
48
1
60
0
100
AcDbSpline
70
4
71
3
72
8
73
4
40
0
40
0
40
0
40
0
40
1
40
1
40
1
40
1
41
1
10
54.9180856260583
20
0.682516288312399
30
0
41
1
10
54.9128457214618
20
0.70594643305617
30
0
41
1
10
54.9073707095721
20
0.729538120718814
30
0
41
1
10
54.9016660369758
20
0.753308133805803
30
0
0
SPLINE
5
D0
100
AcDbEntity
8
1
62
256
6
ByLayer
370
18
48
1
60
0
100
AcDbSpline
70
4
71
3
72
40
73
36
40
0
40
0
40
0
40
0
40
0.0038558613327421
40
0.0038558613327421
40
0.0279561586094047
40
0.0279561586094047
40
0.0520564558860672
40
0.0520564558860672
40
0.0761567531627298
40
0.0761567531627298
40
0.124357347716055
40
0.124357347716055
40
0.17255794226938
40
0.17255794226938
40
0.196658239546044
40
0.196658239546044
40
0.208708388184376
40
0.208708388184376
40
0.214733462503542
40
0.214733462503542
40
0.220758536822708
40
0.220758536822708
40
0.232808685461037
40
0.232808685461037
40
0.244858834099366
40
0.244858834099366
40
0.268959131376027
40
0.268959131376027
40
0.461761509589312
40
0.461761509589312
40
0.654563887802597
40
0.654563887802597
40
0.847366266015883
40
0.847366266015883
40
1
40
1
40
1
40
1
41
1
10
2.0642885330162
20
-3.11750727333691
30
0
41
1
10
2.06781262981147
20
-3.11750160100064
30
0
41
1
10
2.07147038112939
20
-3.11746278479191
30
0
41
1
10
2.09893977821542
20
-3.11694894932631
30
0
41
1
10
2.12745867285051
20
-3.11524868131986
30
0
41
1
10
2.19081514148874
20
-3.11010000458555
30
0
41
1
10
2.22585079875557
20
-3.10664424861841
30
0
41
1
10
2.30126942713466
20
-3.09844610743514
30
0
41
1
10
2.34164958226151
20
-3.09369793773777
30
0
41
1
10
2.4666613335678
20
-3.07836746390618
30
0
41
1
10
2.55598239552663
20
-3.06663585184955
30
0
41
1
10
2.74238650760617
20
-3.04176054585579
30
0
41
1
10
2.83981242142502
20
-3.02855516911919
30
0
41
1
10
2.98888944943684
20
-3.00845244476199
30
0
41
1
10
3.03910769191458
20
-3.0016950106365
30
0
41
1
10
3.11511730079661
20
-2.99152076732685
30
0
41
1
10
3.14056786058015
20
-2.98812286507183
30
0
41
1
10
3.17890388684989
20
-2.9830210815602
30
0
41
1
10
3.19175395083053
20
-2.98134588241555
30
0
41
1
10
3.21726664540384
20
-2.97785429461632
30
0
41
1
10
3.23019454421245
20
-2.97607836859589
30
0
41
1
10
3.27028686869835
20
-2.97270448685555
30
0
41
1
10
3.29833340072293
20
-2.97226435158134
30
0
41
1
10
3.35415226289877
20
-2.97303902546903
30
0
41
1
10
3.38204305647543
20
-2.97352904016603
30
0
41
1
10
3.46571917417847
20
-2.97497466721552
30
0
41
1
10
3.52149765987201
20
-2.97596519006822
30
0
41
1
10
4.02334965741477
20
-2.98567636161934
30
0
41
1
10
4.46822296985226
20
-2.99877187714409
30
0
41
1
10
5.35392244684527
20
-3.02965559164446
30
0
41
1
10
5.79303770652368
20
-3.04735258972019
30
0
41
1
10
6.66427582594619
20
-3.08078419778286
30
0
41
1
10
7.09640880752886
20
-3.09647082664949
30
0
41
1
10
7.86518635276124
20
-3.11577208864006
30
0
41
1
10
8.20293817089419
20
-3.12111999201878
30
0
41
1
10
8.53914604729491
20
-3.12144259715129
30
0
0
SPLINE
5
D1
100
AcDbEntity
8
1
62
256
6
ByLayer
370
18
48
1
60
0
100
AcDbSpline
70
4
71
3
72
8
73
4
40
0
40
0
40
0
40
0
40
1
40
1
40
1
40
1
41
1
10
54.9644088523215
20
-0.0544355076820011
30
0
41
1
10
54.7859085948629
20
-0.34922576084989
30
0
41
1
10
54.5987472278872
20
-0.635081420962536
30
0
41
1
10
54.4058762166515
20
-0.915047148861419
30
0
0
SPLINE
5
D2
100
AcDbEntity
8
1
62
256
6
ByLayer
370
18
48
1
60
0
100
AcDbSpline
70
4
71
3
72
38
73
34
40
0
40
0
40
0
40
0
40
0.0625000000000023
40
0.0625000000000023
40
0.125000000000005
40
0.125000000000005
40
0.187500000000007
40
0.187500000000007
40
0.250000000000009
40
0.250000000000009
40
0.312500000000012
40
0.312500000000012
40
0.343750000000013
40
0.343750000000013
40
0.375000000000014
40
0.375000000000014
40
0.406250000000015
40
0.406250000000015
40
0.437500000000016
40
0.437500000000016
40
0.468750000000018
40
0.468750000000018
40
0.500000000000019
40
0.500000000000019
40
0.562500000000013
40
0.562500000000013
40
0.625000000000007
40
0.625000000000007
40
0.750000000000004
40
0.750000000000004
40
0.875000000000002
40
0.875000000000002
40
1
40
1
40
1
40
1
41
1
10
53.8917542577152
20
-1.63160410317582
30
0
41
1
10
53.8371929366416
20
-1.61124575735533
30
0
41
1
10
53.7825143931178
20
-1.5884345511657
30
0
41
1
10
53.6746602131381
20
-1.5383924133526
30
0
41
1
10
53.6213192115609
20
-1.51111544493361
30
0
41
1
10
53.5159432267792
20
-1.45153454262979
30
0
41
1
10
53.4639039363379
20
-1.4192471876315
30
0
41
1
10
53.3614431619205
20
-1.34844541574915
30
0
41
1
10
53.3107120040609
20
-1.30969660351488
30
0
41
1
10
53.2138682416885
20
-1.22521612455199
30
0
41
1
10
53.1675183047179
20
-1.17958221597027
30
0
41
1
10
53.1034988327685
20
-1.10211391940459
30
0
41
1
10
53.083199948703
20
-1.07483640158407
30
0
41
1
10
53.0466025153413
20
-1.01722560432265
30
0
41
1
10
53.0301807553448
20
-0.986675642790402
30
0
41
1
10
53.0048580695384
20
-0.923215636680965
30
0
41
1
10
52.9957721106756
20
-0.889402997043391
30
0
41
1
10
52.9906407889333
20
-0.823332209439002
30
0
41
1
10
52.9948218150018
20
-0.791261192119748
30
0
41
1
10
53.0160487249792
20
-0.73548709305615
30
0
41
1
10
53.0325237852238
20
-0.712316046626
30
0
41
1
10
53.0709313316174
20
-0.67470872130545
30
0
41
1
10
53.0930440627789
20
-0.659896620960325
30
0
41
1
10
53.1632207963905
20
-0.624059073216074
30
0
41
1
10
53.2141865496246
20
-0.611356417839971
30
0
41
1
10
53.3197688071901
20
-0.596734433430157
30
0
41
1
10
53.373320200182
20
-0.595311126256576
30
0
41
1
10
53.5353652076096
20
-0.601812144316597
30
0
41
1
10
53.6458085252739
20
-0.620576760934966
30
0
41
1
10
53.865811175827
20
-0.675655917584123
30
0
41
1
10
53.9756449568849
20
-0.712239109590911
30
0
41
1
10
54.1935697299454
20
-0.801381848592484
30
0
41
1
10
54.3008061220195
20
-0.853486797217926
30
0
41
1
10
54.4058762166515
20
-0.91504714886139
30
0
0
SPLINE
5
D3
100
AcDbEntity
8
1
62
256
6
ByLayer
370
18
48
1
60
0
100
AcDbSpline
70
4
71
3
72
14
73
10
40
0
40
0
40
0
40
0
40
0.25
40
0.25
40
0.5
40
0.5
40
0.75
40
0.75
40
1
40
1
40
1
40
1
41
1
10
3.06950171714652
20
2.65474919990189
30
0
41
1
10
3.07772871148532
20
2.64619866426364
30
0
41
1
10
3.08891096970444
20
2.63674602813768
30
0
41
1
10
3.11922778159271
20
2.61544617739949
30
0
41
1
10
3.1385529045865
20
2.60356839224261
30
0
41
1
10
3.18343391216195
20
2.57911296196266
30
0
41
1
10
3.20893926618987
20
2.56659610623981
30
0
41
1
10
3.25752787544607
20
2.54454835701406
30
0
41
1
10
3.280848142152
20
2.53482216010772
30
0
41
1
10
3.30265997231419
20
2.52630800365364
30
0
0
SPLINE
5
D4
100
AcDbEntity
8
1
62
256
6
ByLayer
370
18
48
1
60
0
100
AcDbSpline
70
4
71
3
72
8
73
4
40
0
40
0
40
0
40
0
40
1
40
1
40
1
40
1
41
1
10
54.9908578334306
20
-0.110634431750327
30
0
41
1
10
54.9915898828056
20
-0.0907267664525193
30
0
41
1
10
54.9948397408022
20
-0.0663632448680858
30
0
41
1
10
54.9996873010844
20
-0.0406498099951591
30
0
0
SPLINE
5
D5
100
AcDbEntity
8
1
62
256
6
ByLayer
370
18
48
1
60
0
100
AcDbSpline
70
4
71
3
72
10
73
6
40
0
40
0
40
0
40
0
40
0.5
40
0.5
40
1
40
1
40
1
40
1
41
1
10
54.9908578334309
20
0.110634431749872
30
0
41
1
10
54.9912235975948
20
0.100687683891067
30
0
41
1
10
54.9922400746142
20
0.0894875139647411
30
0
41
1
10
54.995263565548
20
0.0659013178471923
30
0
41
1
10
54.9972597074958
20
0.0535267555107168
30
0
41
1
10
54.9996873010853
20
0.0406498099905832
30
0
0
SPLINE
5
D6
100
AcDbEntity
8
1
62
256
6
ByLayer
370
13
48
1
60
0
100
AcDbSpline
70
4
71
3
72
8
73
4
40
0
40
0
40
0
40
0
40
1
40
1
40
1
40
1
41
1
10
3.06891452689405
20
-1.58328878247082
30
0
41
1
10
3.09186422276826
20
-1.58187811889437
30
0
41
1
10
3.13702303251222
20
-1.57962690661339
30
0
41
1
10
3.19953988836232
20
-1.5782316660115
30
0
0
SPLINE
5
D7
100
AcDbEntity
8
1
62
256
6
ByLayer
370
13
48
1
60
0
100
AcDbSpline
70
4
71
3
72
8
73
4
40
0
40
0
40
0
40
0
40
1
40
1
40
1
40
1
41
1
10
3.19826037100509
20
-1.72755090301763
30
0
41
1
10
3.19868528467964
20
-1.71926625007026
30
0
41
1
10
3.19911179194807
20
-1.71097982589407
30
0
41
1
10
3.19953988836232
20
-1.70269160270945
30
0
0
SPLINE
5
D8
100
AcDbEntity
8
1
62
256
6
ByLayer
370
13
48
1
60
0
100
AcDbSpline
70
4
71
3
72
16
73
12
40
0
40
0
40
0
40
0
40
0.372717541752512
40
0.372717541752512
40
0.559076312628768
40
0.559076312628768
40
0.652255698066895
40
0.652255698066895
40
0.745435083505022
40
0.745435083505022
40
1
40
1
40
1
40
1
41
1
10
3.26080002499191
20
-1.71799163421713
30
0
41
1
10
4.32484608363424
20
-2.10787812400682
30
0
41
1
10
5.37382407501104
20
-2.4299433637766
30
0
41
1
10
6.95101220886167
20
-2.77583492725566
30
0
41
1
10
7.47731389567303
20
-2.86826228129084
30
0
41
1
10
8.27104762679539
20
-2.96882222778683
30
0
41
1
10
8.53633220518293
20
-2.99600465391168
30
0
41
1
10
9.06884491025224
20
-3.03715185414791
30
0
41
1
10
9.33489710816448
20
-3.05100262872136
30
0
41
1
10
10.3234504018721
20
-3.07738860996355
30
0
41
1
10
11.0413395178337
20
-3.04614382073297
30
0
41
1
10
11.759028684071
20
-2.96714589148328
30
0
0
SPLINE
5
D9
100
AcDbEntity
8
1
62
256
6
ByLayer
370
18
48
1
60
0
100
AcDbSpline
70
4
71
3
72
20
73
16
40
0
40
0
40
0
40
0
40
0.0701995025402993
40
0.0701995025402993
40
0.374752568054658
40
0.374752568054658
40
0.527029100811838
40
0.527029100811838
40
0.603167367190426
40
0.603167367190426
40
0.679305633569014
40
0.679305633569014
40
0.98385869908337
40
0.98385869908337
40
1
40
1
40
1
40
1
41
1
10
37.4011982643264
20
2.11295466033826
30
0
41
1
10
37.6461730521302
20
2.03372146873568
30
0
41
1
10
37.8903290714575
20
1.95076965046687
30
0
41
1
10
39.1905541763384
20
1.49056179223294
30
0
41
1
10
40.2360863759477
20
1.05502375005258
30
0
41
1
10
41.8139433003827
20
0.365694722960484
30
0
41
1
10
42.3415227221911
20
0.130063579214834
30
0
41
1
10
43.1385506523059
20
-0.224983575975415
30
0
41
1
10
43.4047721227951
20
-0.343366297715164
30
0
41
1
10
43.9343307772771
20
-0.576678833940349
30
0
41
1
10
44.1983212398551
20
-0.691889664510001
30
0
41
1
10
45.515516902721
20
-1.25827609342343
30
0
41
1
10
46.560215908655
20
-1.68051439503722
30
0
41
1
10
47.6699846688758
20
-2.05302386505423
30
0
41
1
10
47.7258671440489
20
-2.07158357351784
30
0
41
1
10
47.7817773034379
20
-2.0899489095689
30
0
0
SPLINE
5
DA
100
AcDbEntity
8
1
62
256
6
ByLayer
370
13
48
1
60
0
100
AcDbSpline
70
4
71
3
72
14
73
10
40
0
40
0
40
0
40
0
40
0.101181322013935
40
0.101181322013935
40
0.229583990297662
40
0.229583990297662
40
0.48638932686511
40
0.48638932686511
40
1
40
1
40
1
40
1
41
1
10
47.7817773039403
20
-2.08994890973395
30
0
41
1
10
47.9895945001171
20
-2.15821257927874
30
0
41
1
10
48.1977941806954
20
-2.22379080466055
30
0
41
1
10
48.6713632291311
20
-2.36593695893018
30
0
41
1
10
48.9377114993874
20
-2.440872014132
30
0
41
1
10
49.7343816039177
20
-2.648274550965
30
0
41
1
10
50.262010218002
20
-2.76352956440439
30
0
41
1
10
51.8413519823807
20
-3.03426635019324
30
0
41
1
10
52.8899116358751
20
-3.11471665206227
30
0
41
1
10
53.9509307032735
20
-3.08482119097633
30
0
0
SPLINE
5
DB
100
AcDbEntity
8
1
62
256
6
ByLayer
370
18
48
1
60
0
100
AcDbSpline
70
4
71
3
72
10
73
6
40
0
40
0
40
0
40
0
40
0.5
40
0.5
40
1
40
1
40
1
40
1
41
1
10
54.9996873010837
20
0.04064980998956
30
0
41
1
10
54.9964184437163
20
0.0245346364727368
30
0
41
1
10
54.9916138533789
20
0.0071580118887198
30
0
41
1
10
54.9794576746322
20
-0.0260027060265315
30
0
41
1
10
54.9720568053962
20
-0.0418050383750881
30
0
41
1
10
54.9644088523215
20
-0.0544355076819727
30
0
0
SPLINE
5
DC
100
AcDbEntity
8
1
62
256
6
ByLayer
370
18
48
1
60
0
100
AcDbSpline
70
4
71
3
72
8
73
4
40
0
40
0
40
0
40
0
40
1
40
1
40
1
40
1
41
1
10
54.8993168796606
20
0.745381489471669
30
0
41
1
10
54.9059046429425
20
0.72442796629278
30
0
41
1
10
54.9121581376507
20
0.703472886413778
30
0
41
1
10
54.9180856260583
20
0.682516288312399
30
0
0
SPLINE
5
DD
100
AcDbEntity
8
1
62
256
6
ByLayer
370
18
48
1
60
0
100
AcDbSpline
70
4
71
3
72
8
73
4
40
0
40
0
40
0
40
0
40
1
40
1
40
1
40
1
41
1
10
3.10198518658501
20
-1.66321372477299
30
0
41
1
10
3.08144773563413
20
-1.64034767055955
30
0
41
1
10
3.06890723003008
20
-1.61260122015906
30
0
41
1
10
3.06891452689399
20
-1.58328878247443
30
0
0
SPLINE
5
DE
100
AcDbEntity
8
SK1
62
256
6
ByLayer
370
18
48
1
60
0
100
AcDbSpline
70
4
71
3
72
14
73
10
40
0
40
0
40
0
40
0
40
0.499999999999997
40
0.499999999999997
40
0.749999999999998
40
0.749999999999998
40
0.874999999999999
40
0.874999999999999
40
1
40
1
40
1
40
1
41
1
10
-35.25
20
-2.53122962598087
30
0
41
1
10
-35.2287404812744
20
-2.54827184608567
30
0
41
1
10
-35.208362723075
20
-2.55988363674871
30
0
41
1
10
-35.1802905070704
20
-2.56575876048504
30
0
41
1
10
-35.1714466180788
20
-2.56574660873221
30
0
41
1
10
-35.1602396792677
20
-2.5598532599935
30
0
41
1
10
-35.1568594217207
20
-2.5568614218638
30
0
41
1
10
-35.1517495297275
20
-2.54766406955511
30
0
41
1
10
-35.15
20
-2.54131172804509
30
0
41
1
10
-35.15
20
-2.53278283421014
30
0
0
SPLINE
5
DF
100
AcDbEntity
8
SK1
62
256
6
ByLayer
370
18
48
1
60
0
100
AcDbSpline
70
4
71
3
72
14
73
10
40
0
40
0
40
0
40
0
40
0.125
40
0.125
40
0.250000000000001
40
0.250000000000001
40
0.500000000000001
40
0.500000000000001
40
1
40
1
40
1
40
1
41
1
10
-35.15
20
-0.92217091477238
30
0
41
1
10
-35.15
20
-0.911438680176303
30
0
41
1
10
-35.1517507934569
20
-0.900157361265087
30
0
41
1
10
-35.1569069278762
20
-0.879065257650211
30
0
41
1
10
-35.1602348319461
20
-0.869283208936878
30
0
41
1
10
-35.1714888412644
20
-0.841231349413533
30
0
41
1
10
-35.1802429568049
20
-0.825214029528496
30
0
41
1
10
-35.2083191353838
20
-0.781281988850537
30
0
41
1
10
-35.2286409685644
20
-0.758782818859686
30
0
41
1
10
-35.25
20
-0.741660826605369
30
0
0
SPLINE
5
E0
100
AcDbEntity
8
SK1
62
256
6
ByLayer
370
18
48
1
60
0
100
AcDbSpline
70
4
71
3
72
8
73
4
40
0
40
0
40
0
40
0
40
1
40
1
40
1
40
1
41
1
10
-35.25
20
-0.741660826605369
30
0
41
1
10
-35.5038885359022
20
-0.538136731503442
30
0
41
1
10
-35.7560050601911
20
-0.334155713237948
30
0
41
1
10
-35.9999999999999
20
-0.12827210407815
30
0
0
SPLINE
5
E1
100
AcDbEntity
8
SK1
62
256
6
ByLayer
370
18
48
1
60
0
100
AcDbSpline
70
4
71
3
72
8
73
4
40
0
40
0
40
0
40
0
40
1
40
1
40
1
40
1
41
1
10
-36
20
-1.91784090345328
30
0
41
1
10
-35.7560178188137
20
-2.12371374685191
30
0
41
1
10
-35.5039153272086
20
-2.32768405422411
30
0
41
1
10
-35.25
20
-2.53122962598062
30
0
0
LINE
5
76
100
AcDbEntity
8
81
62
256
6
ByLayer
370
18
48
1
60
0
100
AcDbLine
10
55
20
0
30
0
11
60
21
0
31
0
39
0
210
0
220
0
230
1
0
LINE
5
77
100
AcDbEntity
8
1
62
256
6
ByLayer
370
18
48
1
60
0
100
AcDbLine
10
2.07064
20
3.117512
30
0
11
1
21
3.116843
31
0
39
0
210
0
220
0
230
1
0
LINE
5
79
100
AcDbEntity
8
1
62
256
6
ByLayer
370
18
48
1
60
0
100
AcDbLine
10
31.758171
20
3.136067
30
0
11
30.691508
21
3.1354
31
0
39
0
210
0
220
0
230
1
0
LINE
5
7A
100
AcDbEntity
8
1
62
256
6
ByLayer
370
18
48
1
60
0
100
AcDbLine
10
53.509021
20
3.149661
30
0
11
52.439993
21
3.148993
31
0
39
0
210
0
220
0
230
1
0
LINE
5
7B
100
AcDbEntity
8
1
62
256
6
ByLayer
370
18
48
1
60
0
100
AcDbLine
10
52.439993
20
-3.148993
30
0
11
53.509281
21
-3.149661
31
0
39
0
210
0
220
0
230
1
0
LINE
5
7C
100
AcDbEntity
8
1
62
256
6
ByLayer
370
18
48
1
60
0
100
AcDbLine
10
30.691508
20
-3.1354
30
0
11
31.757903
21
-3.136067
31
0
39
0
210
0
220
0
230
1
0
LINE
5
7D
100
AcDbEntity
8
1
62
256
6
ByLayer
370
18
48
1
60
0
100
AcDbLine
10
1
20
-3.116843
30
0
11
2.07064
21
-3.117512
31
0
39
0
210
0
220
0
230
1
0
LINE
5
7E
100
AcDbEntity
8
1
62
256
6
ByLayer
370
18
48
1
60
0
100
AcDbLine
10
1
20
3.116843
30
0
11
0.350219
21
3.116437
31
0
39
0
210
0
220
0
230
1
0
LINE
5
7F
100
AcDbEntity
8
1
62
256
6
ByLayer
370
18
48
1
60
0
100
AcDbLine
10
0.350219
20
-3.116437
30
0
11
1
21
-3.116843
31
0
39
0
210
0
220
0
230
1
0
LINE
5
80
100
AcDbEntity
8
1
62
256
6
ByLayer
370
18
48
1
60
0
100
AcDbLine
10
10.008724
20
3.122474
30
0
11
8.535867
21
3.121553
31
0
39
0
210
0
220
0
230
1
0
LINE
5
81
100
AcDbEntity
8
1
62
256
6
ByLayer
370
18
48
1
60
0
100
AcDbLine
10
8.535867
20
-3.121553
30
0
11
10.008134
21
-3.122473
31
0
39
0
210
0
220
0
230
1
0
LINE
5
82
100
AcDbEntity
8
SK1
62
256
6
ByLayer
370
18
48
1
60
0
100
AcDbLine
10
0
20
4
30
0
11
-35.133975
21
4
31
0
39
0
210
0
220
0
230
1
0
LINE
5
84
100
AcDbEntity
8
SK1
62
256
6
ByLayer
370
18
48
1
60
0
100
AcDbLine
10
-35.133975
20
-4
30
0
11
0
21
-4
31
0
39
0
210
0
220
0
230
1
0
LINE
5
85
100
AcDbEntity
8
SK1
62
256
6
ByLayer
370
18
48
1
60
0
100
AcDbLine
10
-35.133975
20
4
30
0
11
-36
21
2.5
31
0
39
0
210
0
220
0
230
1
0
LINE
5
86
100
AcDbEntity
8
SK1
62
256
6
ByLayer
370
18
48
1
60
0
100
AcDbLine
10
-36
20
-2.5
30
0
11
-35.133975
21
-4
31
0
39
0
210
0
220
0
230
1
0
LINE
5
87
100
AcDbEntity
8
SK4
62
256
6
ByLayer
370
18
48
0.05
60
0
100
AcDbLine
10
60
20
0
30
0
11
-41
21
0
31
0
39
0
210
0
220
0
230
1
0
LINE
5
89
100
AcDbEntity
8
4
62
256
6
ByLayer
370
18
48
0.05
60
0
100
AcDbLine
10
55
20
0
30
0
11
0
21
0
31
0
39
0
210
0
220
0
230
1
0
LINE
5
8B
100
AcDbEntity
8
80
62
256
6
ByLayer
370
18
48
1
60
0
100
AcDbLine
10
0
20
0
30
0
11
-5
21
0
31
0
39
0
210
0
220
0
230
1
0
LINE
5
8C
100
AcDbEntity
8
1
62
256
6
ByLayer
370
13
48
1
60
0
100
AcDbLine
10
0.350219
20
3.116437
30
0
11
0.350219
21
-3.116437
31
0
39
0
210
0
220
0
230
1
0
LINE
5
8D
100
AcDbEntity
8
1
62
256
6
ByLayer
370
13
48
1
60
0
100
AcDbLine
10
53.927989
20
0.783456
30
0
11
54.990858
21
0.110634
31
0
39
0
210
0
220
0
230
1
0
LINE
5
8E
100
AcDbEntity
8
1
62
256
6
ByLayer
370
18
48
1
60
0
100
AcDbLine
10
10.069262
20
-0.311425
30
0
11
10.069262
21
-0.315044
31
0
39
0
210
0
220
0
230
1
0
LINE
5
8F
100
AcDbEntity
8
1
62
256
6
ByLayer
370
18
48
1
60
0
100
AcDbLine
10
1
20
3.116843
30
0
11
1
21
-3.116843
31
0
39
0
210
0
220
0
230
1
0
LINE
5
90
100
AcDbEntity
8
1
62
256
6
ByLayer
370
13
48
1
60
0
100
AcDbLine
10
53.79392
20
0.686512
30
0
11
54.964409
21
-0.054436
31
0
39
0
210
0
220
0
230
1
0
LINE
5
91
100
AcDbEntity
8
SK1
62
256
6
ByLayer
370
18
48
1
60
0
100
AcDbLine
10
-35.15
20
-2.532783
30
0
11
-35.15
21
-0.922171
31
0
39
0
210
0
220
0
230
1
0
LINE
5
92
100
AcDbEntity
8
SK1
62
256
6
ByLayer
370
13
48
1
60
0
100
AcDbLine
10
-35.25
20
-0.741674
30
0
11
-35.25
21
-2.53123
31
0
39
0
210
0
220
0
230
1
0
LINE
5
93
100
AcDbEntity
8
SK1
62
256
6
ByLayer
370
18
48
1
60
0
100
AcDbLine
10
-36
20
-0.128291
30
0
11
-36
21
-1.917841
31
0
39
0
210
0
220
0
230
1
0
LINE
5
94
100
AcDbEntity
8
SK1
62
256
6
ByLayer
370
18
48
1
60
0
100
AcDbLine
10
-36
20
-2.5
30
0
11
-36
21
-1.917841
31
0
39
0
210
0
220
0
230
1
0
LINE
5
95
100
AcDbEntity
8
SK1
62
256
6
ByLayer
370
18
48
1
60
0
100
AcDbLine
10
-35.133975
20
4
30
0
11
-35.133975
21
-4
31
0
39
0
210
0
220
0
230
1
0
LINE
5
96
100
AcDbEntity
8
SK1
62
256
6
ByLayer
370
18
48
1
60
0
100
AcDbLine
10
-36
20
2.5
30
0
11
-36
21
-0.128272
31
0
39
0
210
0
220
0
230
1
0
LINE
5
97
100
AcDbEntity
8
SK1
62
256
6
ByLayer
370
18
48
1
60
0
100
AcDbLine
10
0
20
4
30
0
11
0
21
-4
31
0
39
0
210
0
220
0
230
1
0
MTEXT
5
E2
100
AcDbEntity
8
SK6
62
256
6
ByLayer
370
13
48
1
60
0
100
AcDbMText
10
11.629169
20
35.532694
30
0
210
0
220
0
230
1
1
\W0.7538;460.1-0630-032A1-XM GC34
40
3.5
41
0
44
1.084337
50
0
71
8
72
5
7
iso_b_vert
0
DIMENSION
5
EF
100
AcDbEntity
8
SK2
62
256
6
ByLayer
370
13
48
1
60
0
100
AcDbDimension
2
DimnDraft3D1
10
54.0736
20
-13.363398
30
0
11
25.823659
21
-13.363398
31
0
70
32
71
5
72
1
41
1
210
0
220
0
230
1
3
Standard
100
AcDbAlignedDimension
13
0
23
-1.5875
33
0
14
54.0736
24
-4.7375
34
0
50
0
100
AcDbRotatedDimension
1001
ACAD
1000
DSTYLE
1002
{
1070
   279
1070
     0
1070
   172
1070
     1
1070
   173
1070
     1
1070
   340
1005
E3
1070
   271
1070
     2
1070
   272
1070
     2
1070
    77
1070
     1
1070
    73
1070
     0
1070
   171
1070
     3
1070
   274
1070
     4
1070
   177
1070
    35
1070
   176
1070
    35
1070
   178
1070
    35
1070
    48
1040
-0.005
1070
    41
1041
3.5
1070
   147
1041
1.75
1070
    42
1041
1.5875
1070
    44
1041
2.0
1070
   140
1041
3.5
1070
   343
1005
0
1070
   344
1005
0
1002
}
0
DIMENSION
5
F9
100
AcDbEntity
8
SK2
62
256
6
ByLayer
370
13
48
1
60
0
100
AcDbDimension
2
DimnDraft3D2
10
55
20
-32.692985
30
0
11
9.9149
21
-32.692985
31
0
70
32
71
5
72
1
41
1
210
0
220
0
230
1
3
Standard
100
AcDbAlignedDimension
13
-36
23
-5.5875
33
0
14
55
24
-1.5875
34
0
50
0
100
AcDbRotatedDimension
1001
ACAD
1000
DSTYLE
1002
{
1070
   279
1070
     0
1070
   172
1070
     1
1070
   173
1070
     1
1070
   340
1005
E3
1070
   271
1070
     2
1070
   272
1070
     2
1070
    77
1070
     1
1070
    73
1070
     0
1070
   171
1070
     3
1070
   274
1070
     4
1070
   177
1070
    35
1070
   176
1070
    35
1070
   178
1070
    35
1070
    48
1040
-0.005
1070
    41
1041
3.5
1070
   147
1041
1.75
1070
    42
1041
1.5875
1070
    44
1041
2.0
1070
   140
1041
3.5
1070
   343
1005
0
1070
   344
1005
0
1002
}
0
DIMENSION
5
103
100
AcDbEntity
8
SK2
62
256
6
ByLayer
370
13
48
1
60
0
100
AcDbDimension
2
DimnDraft3D3
10
55
20
14.759119
30
0
11
38.79
21
14.759119
31
0
70
32
71
5
72
1
41
1
210
0
220
0
230
1
3
Standard
100
AcDbAlignedDimension
13
22.58
23
4.7375
33
0
14
55
24
1.5875
34
0
50
0
100
AcDbRotatedDimension
1001
ACAD
1000
DSTYLE
1002
{
1070
   279
1070
     0
1070
   172
1070
     1
1070
   173
1070
     1
1070
   340
1005
E3
1070
   271
1070
     2
1070
   272
1070
     2
1070
    77
1070
     1
1070
    73
1070
     0
1070
   171
1070
     3
1070
   274
1070
     4
1070
   177
1070
    35
1070
   176
1070
    35
1070
   178
1070
    35
1070
    48
1040
-0.005
1070
    41
1041
3.5
1070
   147
1041
1.75
1070
    42
1041
1.5875
1070
    44
1041
2.0
1070
   140
1041
3.5
1070
   343
1005
0
1070
   344
1005
0
1002
}
0
DIMENSION
5
10D
100
AcDbEntity
8
SK2
62
256
6
ByLayer
370
13
48
1
60
0
100
AcDbDimension
2
DimnDraft3D4
10
54.0736
20
-15.952503
30
0
11
64.981425
21
-15.952503
31
0
70
32
71
5
72
1
41
1
210
0
220
0
230
1
3
Standard
100
AcDbAlignedDimension
13
55
23
-1.5875
33
0
14
54.0736
24
-4.7375
34
0
50
0
100
AcDbRotatedDimension
1001
ACAD
1000
DSTYLE
1002
{
1070
   279
1070
     0
1070
   172
1070
     1
1070
   173
1070
     1
1070
   340
1005
E3
1070
   271
1070
     2
1070
   272
1070
     2
1070
    77
1070
     1
1070
    73
1070
     0
1070
   171
1070
     3
1070
   274
1070
     4
1070
   177
1070
    35
1070
   176
1070
    35
1070
   178
1070
    35
1070
    48
1040
-0.005
1070
    41
1041
3.5
1070
   147
1041
1.75
1070
    42
1041
1.5875
1070
    44
1041
2.0
1070
   140
1041
3.5
1070
   343
1005
0
1070
   344
1005
0
1002
}
0
DIMENSION
5
117
100
AcDbEntity
8
SK2
62
256
6
ByLayer
370
13
48
1
60
0
100
AcDbDimension
2
DimnDraft3D5
10
54.0736
20
-22.343428
30
0
11
6.834276
21
-22.343428
31
0
70
32
71
5
72
1
41
1
210
0
220
0
230
1
3
Standard
100
AcDbAlignedDimension
13
-36
23
-5.5875
33
0
14
54.0736
24
-4.7375
34
0
50
0
100
AcDbRotatedDimension
1001
ACAD
1000
DSTYLE
1002
{
1070
   279
1070
     0
1070
   172
1070
     1
1070
   173
1070
     1
1070
   340
1005
E3
1070
   271
1070
     2
1070
   272
1070
     2
1070
    77
1070
     1
1070
    73
1070
     0
1070
   171
1070
     3
1070
   274
1070
     4
1070
   177
1070
    35
1070
   176
1070
    35
1070
   178
1070
    35
1070
    48
1040
-0.005
1070
    41
1041
3.5
1070
   147
1041
1.75
1070
    42
1041
1.5875
1070
    44
1041
2.0
1070
   140
1041
3.5
1070
   343
1005
0
1070
   344
1005
0
1002
}
0
DIMENSION
5
122
100
AcDbEntity
8
SK2
62
256
6
ByLayer
370
13
48
1
60
0
100
AcDbDimension
2
DimnDraft3D6
10
-46.625163
20
4
30
0
11
-47.250163
21
22.47418
31
0
70
33
71
5
72
1
41
1
210
0
220
0
230
1
3
Standard
100
AcDbAlignedDimension
13
-37.5875
23
-4
33
0
14
-37.5875
24
4
34
0
1001
ACAD
1000
DSTYLE
1002
{
1070
   279
1070
     0
1070
    74
1070
     0
1070
   173
1070
     1
1070
   340
1005
E3
1070
   271
1070
     3
1070
   272
1070
     2
1070
    77
1070
     1
1070
    73
1070
     0
1070
   171
1070
     3
1070
   274
1070
     4
1070
   177
1070
    35
1070
   176
1070
    35
1070
   178
1070
    35
1070
    48
1040
-0.005
1070
    41
1041
3.5
1070
   147
1041
1.75
1070
    42
1041
1.5875
1070
    44
1041
2.0
1070
   140
1041
3.5
1070
   343
1005
0
1070
   344
1005
0
1002
}
0
DIMENSION
5
12D
100
AcDbEntity
8
2
62
256
6
ByLayer
370
13
48
1
60
0
100
AcDbDimension
2
DimnDraft3D7
10
69.083343
20
3.15
30
0
11
64.458343
21
20.217266
31
0
70
33
71
5
72
1
41
1
210
0
220
0
230
1
3
Standard
100
AcDbAlignedDimension
13
55.6611
23
-3.15
33
0
14
55.6611
24
3.15
34
0
1001
ACAD
1000
DSTYLE
1002
{
1070
   279
1070
     0
1070
    74
1070
     0
1070
   173
1070
     1
1070
   340
1005
E3
1070
   271
1070
     3
1070
   272
1070
     2
1070
    77
1070
     1
1070
    73
1070
     0
1070
   171
1070
     3
1070
   274
1070
     4
1070
   177
1070
    35
1070
   176
1070
    35
1070
   178
1070
    35
1070
    48
1040
-0.005
1070
    41
1041
3.5
1070
   147
1041
1.75
1070
    42
1041
1.5875
1070
    44
1041
2.0
1070
   140
1041
3.5
1070
   343
1005
0
1070
   344
1005
0
1002
}
0
ENDSEC
0
SECTION
2
OBJECTS
0
DICTIONARY
5
198
330
0
100
AcDbDictionary
280
0
281
1
3
ACAD_GROUP
350
199
3
ACAD_MLINESTYLE
350
19a
0
DICTIONARY
5
199
330
0
100
AcDbDictionary
280
0
281
1
0
DICTIONARY
5
19a
330
0
100
AcDbDictionary
280
0
281
1
3
Standard
350
18
0
MLINESTYLE
5
18
330
19a
100
AcDbMlineStyle
2
Standard
70
0
3

62
256
51
90
52
90
71
2
49
-0.5
62
256
6
ByLayer
49
0.5
62
256
6
ByLayer
0
RASTERVARIABLES
5
186
330

100
AcDbRasterVariables
90
0
70
1
71
1
72
1
0
ENDSEC
0
EOF
