0
SECTION
2
HEADER
9
$ACADVER
1
AC1015
9
$DWGCODEPAGE
3
ANSI_1252
9
$HANDSEED
5
1b0
9
$ANGBASE
50
0
9
$ANGDIR
70
0
9
$ATTMODE
70
1
9
$AUNITS
70
0
9
$AUPREC
70
0
9
$CECOLOR
62
256
9
$CELTSCALE
40
1
9
$CELTYPE
6
ByLayer
9
$CELWEIGHT
370
18
9
$CLAYER
8
0
9
$CMLJUST
70
0
9
$CMLSCALE
40
1
9
$CMLSTYLE
2
Standard
9
$DIMSTYLE
2
Standard
9
$TEXTSIZE
40
0.2
9
$TEXTSTYLE
7
Standard
9
$LUNITS
70
2
9
$LUPREC
70
4
9
$EXTNAMES
290
1
9
$INSUNITS
70
4
9
$LTSCALE
40
1
9
$LWDISPLAY
290
1
9
$PDMODE
70
0
9
$PDSIZE
40
0
9
$PLINEGEN
70
0
0
ENDSEC
0
SECTION
2
CLASSES
0
CLASS
1
RASTERVARIABLES
2
AcDbRasterVariables
3
ISM
90
0
280
0
281
0
0
ENDSEC
0
SECTION
2
TABLES
0
TABLE
2
VPORT
5
1a6
100
AcDbSymbolTable
0
VPORT
5
1
100
AcDbSymbolTableRecord
100
AcDbViewportTableRecord
2
*Active
70
0
10
0
20
0
11
1
21
1
12
-1
22
1
13
0
23
0
14
0.5
24
0.5
15
10
25
10
16
0
26
0
36
1
17
0
27
0
37
0
0
ENDTAB
0
TABLE
2
LTYPE
5
1a7
100
AcDbSymbolTable
0
LTYPE
5
14
100
AcDbSymbolTableRecord
100
AcDbLinetypeTableRecord
70
0
2
ByBlock
3

72
65
73
0
40
0
0
LTYPE
5
15
100
AcDbSymbolTableRecord
100
AcDbLinetypeTableRecord
70
0
2
ByLayer
3

72
65
73
0
40
0
0
LTYPE
5
16
100
AcDbSymbolTableRecord
100
AcDbLinetypeTableRecord
70
0
2
CONTINUOUS
3
Solid line
72
65
73
0
40
0
0
LTYPE
5
6A
100
AcDbSymbolTableRecord
100
AcDbLinetypeTableRecord
70
0
2
CENTER
3
____ _ ____ _ ____ _ ____
72
65
73
4
40
47.5
49
22
74
0
49
-8.5
74
0
49
8.5
74
0
49
-8.5
74
0
0
LTYPE
5
6B
100
AcDbSymbolTableRecord
100
AcDbLinetypeTableRecord
70
0
2
DASHED
3
__ __ __ __ __ __ __ __ __
72
65
73
2
40
25.72
49
12.86
74
0
49
-12.86
74
0
0
ENDTAB
0
TABLE
2
LAYER
5
1a8
100
AcDbSymbolTable
0
LAYER
5
10
100
AcDbSymbolTableRecord
100
AcDbLayerTableRecord
2
0
70
0
62
7
6
CONTINUOUS
290
1
370
-3
390
0
0
LAYER
5
6D
100
AcDbSymbolTableRecord
100
AcDbLayerTableRecord
2
81
70
0
62
-3
6
CONTINUOUS
290
1
370
-3
390
0
0
LAYER
5
6F
100
AcDbSymbolTableRecord
100
AcDbLayerTableRecord
2
80
70
0
62
-6
6
CONTINUOUS
290
1
370
-3
390
0
0
LAYER
5
74
100
AcDbSymbolTableRecord
100
AcDbLayerTableRecord
2
2
70
0
62
7
6
CONTINUOUS
290
1
370
-3
390
0
0
LAYER
5
78
100
AcDbSymbolTableRecord
100
AcDbLayerTableRecord
2
1
70
0
62
4
6
CONTINUOUS
290
1
370
-3
390
0
0
LAYER
5
8C
100
AcDbSymbolTableRecord
100
AcDbLayerTableRecord
2
4
70
0
62
-2
6
CENTER
290
1
370
-3
390
0
0
LAYER
5
192
100
AcDbSymbolTableRecord
100
AcDbLayerTableRecord
2
SK2
70
0
62
7
6
CONTINUOUS
290
1
370
-3
390
0
0
LAYER
5
193
100
AcDbSymbolTableRecord
100
AcDbLayerTableRecord
2
SK1
70
0
62
4
6
CONTINUOUS
290
1
370
-3
390
0
0
LAYER
5
194
100
AcDbSymbolTableRecord
100
AcDbLayerTableRecord
2
SK4
70
0
62
2
6
CENTER
290
1
370
-3
390
0
0
LAYER
5
195
100
AcDbSymbolTableRecord
100
AcDbLayerTableRecord
2
SK6
70
0
62
5
6
CONTINUOUS
290
1
370
-3
390
0
0
ENDTAB
0
TABLE
2
STYLE
5
1a9
100
AcDbSymbolTable
0
STYLE
5
11
100
AcDbSymbolTableRecord
100
AcDbTextStyleTableRecord
2
Standard
3
txt
70
0
71
0
40
0
41
1
42
0
50
0
0
STYLE
5
EE
100
AcDbSymbolTableRecord
100
AcDbTextStyleTableRecord
2
iso_b_vert
3
simplex.shx
70
0
71
0
40
0
41
1
42
0
50
0
0
STYLE
5
EF
100
AcDbSymbolTableRecord
100
AcDbTextStyleTableRecord
2
DWGDirectTextStyle
3
simplex
70
0
71
0
40
0
41
1
42
0
50
0
0
ENDTAB
0
TABLE
2
DIMSTYLE
5
1aa
100
AcDbSymbolTable
100
AcDbDimStyleTable
0
DIMSTYLE
105
27
100
AcDbSymbolTableRecord
100
AcDbDimStyleTableRecord
2
Standard
70
0
3
<>
41
0.18
42
0.0625
44
0.18
140
0.18
147
0.09
73
0
74
0
77
1
271
2
275
0
278
52
280
0
340
11
0
ENDTAB
0
TABLE
2
VIEW
5
1ab
100
AcDbSymbolTable
0
ENDTAB
0
TABLE
2
UCS
5
1ac
100
AcDbSymbolTable
0
ENDTAB
0
TABLE
2
APPID
5
1ad
100
AcDbSymbolTable
0
APPID
5
12
100
AcDbSymbolTableRecord
100
AcDbRegAppTableRecord
2
ACAD
70
0
0
ENDTAB
0
TABLE
2
BLOCK_RECORD
5
1ae
100
AcDbSymbolTable
0
BLOCK_RECORD
5
1F
100
AcDbSymbolTableRecord
100
AcDbBlockTableRecord
2
*Model_Space
340
0
70
0
0
BLOCK_RECORD
5
1B
100
AcDbSymbolTableRecord
100
AcDbBlockTableRecord
2
*Paper_Space
340
0
70
0
0
BLOCK_RECORD
5
23
100
AcDbSymbolTableRecord
100
AcDbBlockTableRecord
2
*Paper_Space0
340
0
70
0
0
BLOCK_RECORD
5
F1
100
AcDbSymbolTableRecord
100
AcDbBlockTableRecord
2
DimnDraft3D1
340
0
70
0
0
BLOCK_RECORD
5
FB
100
AcDbSymbolTableRecord
100
AcDbBlockTableRecord
2
DimnDraft3D2
340
0
70
0
0
BLOCK_RECORD
5
105
100
AcDbSymbolTableRecord
100
AcDbBlockTableRecord
2
DimnDraft3D3
340
0
70
0
0
BLOCK_RECORD
5
10F
100
AcDbSymbolTableRecord
100
AcDbBlockTableRecord
2
DimnDraft3D4
340
0
70
0
0
BLOCK_RECORD
5
119
100
AcDbSymbolTableRecord
100
AcDbBlockTableRecord
2
DimnDraft3D5
340
0
70
0
0
BLOCK_RECORD
5
123
100
AcDbSymbolTableRecord
100
AcDbBlockTableRecord
2
DimnDraft3D6
340
0
70
0
0
BLOCK_RECORD
5
12E
100
AcDbSymbolTableRecord
100
AcDbBlockTableRecord
2
DimnDraft3D7
340
0
70
0
0
ENDTAB
0
ENDSEC
0
SECTION
2
BLOCKS
0
BLOCK
5
20
100
AcDbEntity
8
0
100
AcDbBlockBegin
2
*Model_Space
70
0
10
0
20
0
30
0
3
*Model_Space
0
ENDBLK
5
21
100
AcDbEntity
8
0
100
AcDbBlockEnd
0
BLOCK
5
1C
100
AcDbEntity
8
0
100
AcDbBlockBegin
2
*Paper_Space
70
0
10
0
20
0
30
0
3
*Paper_Space
0
ENDBLK
5
1D
100
AcDbEntity
8
0
100
AcDbBlockEnd
0
BLOCK
5
24
100
AcDbEntity
8
0
100
AcDbBlockBegin
2
*Paper_Space0
70
0
10
0
20
0
30
0
3
*Paper_Space0
0
ENDBLK
5
25
100
AcDbEntity
8
0
100
AcDbBlockEnd
0
BLOCK
5
F8
100
AcDbEntity
8
0
100
AcDbBlockBegin
2
DimnDraft3D1
70
0
10
0
20
0
30
0
3
DimnDraft3D1
0
MTEXT
5
F2
100
AcDbEntity
8
SK2
62
256
6
ByLayer
370
13
48
1
60
0
100
AcDbMText
10
38.890075
20
-12.438398
30
0
210
0
220
0
230
1
1
\W0.7402;89,09
40
3.5
41
0
44
1.084337
50
0
71
7
72
5
7
iso_b_vert
0
LINE
5
F3
100
AcDbEntity
8
SK2
62
256
6
ByLayer
370
13
48
1
60
0
100
AcDbLine
10
0
20
-1.5875
30
0
11
0
21
-15.313398
31
0
39
0
210
0
220
0
230
1
0
LINE
5
F4
100
AcDbEntity
8
SK2
62
256
6
ByLayer
370
13
48
1
60
0
100
AcDbLine
10
89.0887
20
-4.6875
30
0
11
89.0887
21
-15.313398
31
0
39
0
210
0
220
0
230
1
0
LINE
5
F5
100
AcDbEntity
8
SK2
62
256
6
ByLayer
370
13
48
1
60
0
100
AcDbLine
10
0
20
-13.313398
30
0
11
89.0887
21
-13.313398
31
0
39
0
210
0
220
0
230
1
0
SOLID
5
F6
100
AcDbEntity
8
SK2
62
256
6
ByLayer
370
13
48
1
60
0
100
AcDbTrace
10
0
20
-13.313398
30
0
11
3.499998
21
-12.852615
31
0
12
3.500002
22
-13.774182
32
0
13
0
23
-13.313398
33
0
39
0
210
0
220
0
230
1
0
SOLID
5
F7
100
AcDbEntity
8
SK2
62
256
6
ByLayer
370
13
48
1
60
0
100
AcDbTrace
10
89.0887
20
-13.313398
30
0
11
85.588702
21
-13.774182
31
0
12
85.588698
22
-12.852615
32
0
13
89.0887
23
-13.313398
33
0
39
0
210
0
220
0
230
1
0
ENDBLK
5
F9
100
AcDbEntity
8
0
100
AcDbBlockEnd
0
BLOCK
5
102
100
AcDbEntity
8
0
100
AcDbBlockBegin
2
DimnDraft3D2
70
0
10
0
20
0
30
0
3
DimnDraft3D2
0
MTEXT
5
FC
100
AcDbEntity
8
SK2
62
256
6
ByLayer
370
13
48
1
60
0
100
AcDbMText
10
22.110921
20
-31.817985
30
0
210
0
220
0
230
1
1
\W0.6930;126,00
40
3.5
41
0
44
1.084337
50
0
71
7
72
5
7
iso_b_vert
0
LINE
5
FD
100
AcDbEntity
8
SK2
62
256
6
ByLayer
370
13
48
1
60
0
100
AcDbLine
10
-36
20
-5.5875
30
0
11
-36
21
-34.692985
31
0
39
0
210
0
220
0
230
1
0
LINE
5
FE
100
AcDbEntity
8
SK2
62
256
6
ByLayer
370
13
48
1
60
0
100
AcDbLine
10
90
20
-1.5875
30
0
11
90
21
-34.692985
31
0
39
0
210
0
220
0
230
1
0
LINE
5
FF
100
AcDbEntity
8
SK2
62
256
6
ByLayer
370
13
48
1
60
0
100
AcDbLine
10
-36
20
-32.692985
30
0
11
90
21
-32.692985
31
0
39
0
210
0
220
0
230
1
0
SOLID
5
100
100
AcDbEntity
8
SK2
62
256
6
ByLayer
370
13
48
1
60
0
100
AcDbTrace
10
-36
20
-32.692985
30
0
11
-32.500002
21
-32.232202
31
0
12
-32.499998
22
-33.153769
32
0
13
-36
23
-32.692985
33
0
39
0
210
0
220
0
230
1
0
SOLID
5
101
100
AcDbEntity
8
SK2
62
256
6
ByLayer
370
13
48
1
60
0
100
AcDbTrace
10
90
20
-32.692985
30
0
11
86.500002
21
-33.153769
31
0
12
86.499998
22
-32.232202
32
0
13
90
23
-32.692985
33
0
39
0
210
0
220
0
230
1
0
ENDBLK
5
103
100
AcDbEntity
8
0
100
AcDbBlockEnd
0
BLOCK
5
10C
100
AcDbEntity
8
0
100
AcDbBlockBegin
2
DimnDraft3D3
70
0
10
0
20
0
30
0
3
DimnDraft3D3
0
MTEXT
5
106
100
AcDbEntity
8
SK2
62
256
6
ByLayer
370
13
48
1
60
0
100
AcDbMText
10
60.733816
20
15.584119
30
0
210
0
220
0
230
1
1
\W0.7211;50,51
40
3.5
41
0
44
1.084337
50
0
71
7
72
5
7
iso_b_vert
0
LINE
5
107
100
AcDbEntity
8
SK2
62
256
6
ByLayer
370
13
48
1
60
0
100
AcDbLine
10
39.49
20
4.6875
30
0
11
39.49
21
16.709119
31
0
39
0
210
0
220
0
230
1
0
LINE
5
108
100
AcDbEntity
8
SK2
62
256
6
ByLayer
370
13
48
1
60
0
100
AcDbLine
10
90
20
1.5875
30
0
11
90
21
16.709119
31
0
39
0
210
0
220
0
230
1
0
LINE
5
109
100
AcDbEntity
8
SK2
62
256
6
ByLayer
370
13
48
1
60
0
100
AcDbLine
10
39.49
20
14.709119
30
0
11
90
21
14.709119
31
0
39
0
210
0
220
0
230
1
0
SOLID
5
10A
100
AcDbEntity
8
SK2
62
256
6
ByLayer
370
13
48
1
60
0
100
AcDbTrace
10
39.49
20
14.709119
30
0
11
42.989998
21
15.169903
31
0
12
42.990002
22
14.248335
32
0
13
39.49
23
14.709119
33
0
39
0
210
0
220
0
230
1
0
SOLID
5
10B
100
AcDbEntity
8
SK2
62
256
6
ByLayer
370
13
48
1
60
0
100
AcDbTrace
10
90
20
14.709119
30
0
11
86.500002
21
14.248335
31
0
12
86.499998
22
15.169903
32
0
13
90
23
14.709119
33
0
39
0
210
0
220
0
230
1
0
ENDBLK
5
10D
100
AcDbEntity
8
0
100
AcDbBlockEnd
0
BLOCK
5
116
100
AcDbEntity
8
0
100
AcDbBlockBegin
2
DimnDraft3D4
70
0
10
0
20
0
30
0
3
DimnDraft3D4
0
MTEXT
5
110
100
AcDbEntity
8
SK2
62
256
6
ByLayer
370
13
48
1
60
0
100
AcDbMText
10
97.278136
20
-15.027503
30
0
210
0
220
0
230
1
1
\W0.6993;0,91
40
3.5
41
0
44
1.084337
50
0
71
7
72
5
7
iso_b_vert
0
LINE
5
111
100
AcDbEntity
8
SK2
62
256
6
ByLayer
370
13
48
1
60
0
100
AcDbLine
10
90
20
-1.5875
30
0
11
90
21
-17.902503
31
0
39
0
210
0
220
0
230
1
0
LINE
5
112
100
AcDbEntity
8
SK2
62
256
6
ByLayer
370
13
48
1
60
0
100
AcDbLine
10
89.0887
20
-4.6875
30
0
11
89.0887
21
-17.902503
31
0
39
0
210
0
220
0
230
1
0
LINE
5
113
100
AcDbEntity
8
SK2
62
256
6
ByLayer
370
13
48
1
60
0
100
AcDbLine
10
80.3387
20
-15.902503
30
0
11
103.559715
21
-15.902503
31
0
39
0
210
0
220
0
230
1
0
SOLID
5
114
100
AcDbEntity
8
SK2
62
256
6
ByLayer
370
13
48
1
60
0
100
AcDbTrace
10
90
20
-15.902503
30
0
11
93.499998
21
-15.441719
31
0
12
93.500002
22
-16.363287
32
0
13
90
23
-15.902503
33
0
39
0
210
0
220
0
230
1
0
SOLID
5
115
100
AcDbEntity
8
SK2
62
256
6
ByLayer
370
13
48
1
60
0
100
AcDbTrace
10
89.0887
20
-15.902503
30
0
11
85.588702
21
-16.363287
31
0
12
85.588698
22
-15.441719
32
0
13
89.0887
23
-15.902503
33
0
39
0
210
0
220
0
230
1
0
ENDBLK
5
117
100
AcDbEntity
8
0
100
AcDbBlockEnd
0
BLOCK
5
120
100
AcDbEntity
8
0
100
AcDbBlockBegin
2
DimnDraft3D5
70
0
10
0
20
0
30
0
3
DimnDraft3D5
0
MTEXT
5
11A
100
AcDbEntity
8
SK2
62
256
6
ByLayer
370
13
48
1
60
0
100
AcDbMText
10
19.030297
20
-21.468428
30
0
210
0
220
0
230
1
1
\W0.6996;125,09
40
3.5
41
0
44
1.084337
50
0
71
7
72
5
7
iso_b_vert
0
LINE
5
11B
100
AcDbEntity
8
SK2
62
256
6
ByLayer
370
13
48
1
60
0
100
AcDbLine
10
-36
20
-5.5875
30
0
11
-36
21
-24.343428
31
0
39
0
210
0
220
0
230
1
0
LINE
5
11C
100
AcDbEntity
8
SK2
62
256
6
ByLayer
370
13
48
1
60
0
100
AcDbLine
10
89.0887
20
-4.6875
30
0
11
89.0887
21
-24.343428
31
0
39
0
210
0
220
0
230
1
0
LINE
5
11D
100
AcDbEntity
8
SK2
62
256
6
ByLayer
370
13
48
1
60
0
100
AcDbLine
10
-36
20
-22.343428
30
0
11
89.0887
21
-22.343428
31
0
39
0
210
0
220
0
230
1
0
SOLID
5
11E
100
AcDbEntity
8
SK2
62
256
6
ByLayer
370
13
48
1
60
0
100
AcDbTrace
10
-36
20
-22.343428
30
0
11
-32.500002
21
-21.882645
31
0
12
-32.499998
22
-22.804212
32
0
13
-36
23
-22.343428
33
0
39
0
210
0
220
0
230
1
0
SOLID
5
11F
100
AcDbEntity
8
SK2
62
256
6
ByLayer
370
13
48
1
60
0
100
AcDbTrace
10
89.0887
20
-22.343428
30
0
11
85.588702
21
-22.804212
31
0
12
85.588698
22
-21.882645
32
0
13
89.0887
23
-22.343428
33
0
39
0
210
0
220
0
230
1
0
ENDBLK
5
121
100
AcDbEntity
8
0
100
AcDbBlockEnd
0
BLOCK
5
12B
100
AcDbEntity
8
0
100
AcDbBlockBegin
2
DimnDraft3D6
70
0
10
0
20
0
30
0
3
DimnDraft3D6
0
MTEXT
5
124
100
AcDbEntity
8
SK2
62
256
6
ByLayer
370
13
48
1
60
0
100
AcDbMText
10
-46.375163
20
23.34918
30
0
210
0
220
0
230
1
1
\W0.7317;8,000
40
3.5
41
0
44
1.084337
50
90
71
7
72
5
7
iso_b_vert
0
MTEXT
5
125
100
AcDbEntity
8
SK2
62
256
6
ByLayer
370
13
48
1
60
0
100
AcDbMText
10
-46.375163
20
18.126524
30
0
210
0
220
0
230
1
1
%%c
40
3.5
41
0
44
1.084337
50
90
71
7
72
5
7
iso_b_vert
0
LINE
5
126
100
AcDbEntity
8
SK2
62
256
6
ByLayer
370
13
48
1
60
0
100
AcDbLine
10
-37.5875
20
-4
30
0
11
-46.625163
21
-4
31
0
39
0
210
0
220
0
230
1
0
LINE
5
127
100
AcDbEntity
8
SK2
62
256
6
ByLayer
370
13
48
1
60
0
100
AcDbLine
10
-37.5875
20
4
30
0
11
-46.625163
21
4
31
0
39
0
210
0
220
0
230
1
0
LINE
5
128
100
AcDbEntity
8
SK2
62
256
6
ByLayer
370
13
48
1
60
0
100
AcDbLine
10
-44.625163
20
-4
30
0
11
-44.625163
21
33.121549
31
0
39
0
210
0
220
0
230
1
0
SOLID
5
129
100
AcDbEntity
8
SK2
62
256
6
ByLayer
370
13
48
1
60
0
100
AcDbTrace
10
-44.625163
20
-4
30
0
11
-45.085946
21
-0.500002
31
0
12
-44.164379
22
-0.499998
32
0
13
-44.625163
23
-4
33
0
39
0
210
0
220
0
230
1
0
SOLID
5
12A
100
AcDbEntity
8
SK2
62
256
6
ByLayer
370
13
48
1
60
0
100
AcDbTrace
10
-44.625163
20
4
30
0
11
-44.164379
21
0.500002
31
0
12
-45.085946
22
0.499998
32
0
13
-44.625163
23
4
33
0
39
0
210
0
220
0
230
1
0
ENDBLK
5
12C
100
AcDbEntity
8
0
100
AcDbBlockEnd
0
BLOCK
5
136
100
AcDbEntity
8
0
100
AcDbBlockBegin
2
DimnDraft3D7
70
0
10
0
20
0
30
0
3
DimnDraft3D7
0
MTEXT
5
12F
100
AcDbEntity
8
2
62
256
6
ByLayer
370
13
48
1
60
0
100
AcDbMText
10
100.333343
20
21.042266
30
0
210
0
220
0
230
1
1
\W0.7317;6,200
40
3.5
41
0
44
1.084337
50
90
71
7
72
5
7
iso_b_vert
0
MTEXT
5
130
100
AcDbEntity
8
2
62
256
6
ByLayer
370
13
48
1
60
0
100
AcDbMText
10
100.333343
20
15.81961
30
0
210
0
220
0
230
1
1
%%c
40
3.5
41
0
44
1.084337
50
90
71
7
72
5
7
iso_b_vert
0
LINE
5
131
100
AcDbEntity
8
2
62
256
6
ByLayer
370
13
48
1
60
0
100
AcDbLine
10
90.6762
20
-3.1
30
0
11
104.083343
21
-3.1
31
0
39
0
210
0
220
0
230
1
0
LINE
5
132
100
AcDbEntity
8
2
62
256
6
ByLayer
370
13
48
1
60
0
100
AcDbLine
10
90.6762
20
3.1
30
0
11
104.083343
21
3.1
31
0
39
0
210
0
220
0
230
1
0
LINE
5
133
100
AcDbEntity
8
2
62
256
6
ByLayer
370
13
48
1
60
0
100
AcDbLine
10
102.083343
20
30.814635
30
0
11
102.083343
21
-11.85
31
0
39
0
210
0
220
0
230
1
0
SOLID
5
134
100
AcDbEntity
8
2
62
256
6
ByLayer
370
13
48
1
60
0
100
AcDbTrace
10
102.083343
20
-3.1
30
0
11
102.544126
21
-6.599998
31
0
12
101.622559
22
-6.600002
32
0
13
102.083343
23
-3.1
33
0
39
0
210
0
220
0
230
1
0
SOLID
5
135
100
AcDbEntity
8
2
62
256
6
ByLayer
370
13
48
1
60
0
100
AcDbTrace
10
102.083343
20
3.1
30
0
11
101.622559
21
6.599998
31
0
12
102.544126
22
6.600002
32
0
13
102.083343
23
3.1
33
0
39
0
210
0
220
0
230
1
0
ENDBLK
5
137
100
AcDbEntity
8
0
100
AcDbBlockEnd
0
ENDSEC
0
SECTION
2
ENTITIES
0
ARC
5
9A
100
AcDbEntity
8
1
62
256
6
ByLayer
370
18
48
1
60
0
100
AcDbCircle
39
0
10
-0.35
20
3.394598
30
0
40
0.350000000000001
210
0
220
0
230
-1
100
AcDbArc
50
269.96419
51
0
0
ARC
5
9B
100
AcDbEntity
8
1
62
256
6
ByLayer
370
18
48
1
60
0
100
AcDbCircle
39
0
10
-0.35
20
-3.394598
30
0
40
0.350000000000001
210
0
220
0
230
-1
100
AcDbArc
50
0
51
90.03581
0
ELLIPSE
5
9C
100
AcDbEntity
8
1
62
256
6
ByLayer
370
18
48
1
60
0
100
AcDbEllipse
10
7.243368
20
-3.144252
30
0
11
0.25
21
0
31
0
210
0
220
0
230
1
40
0.999982
41
1.5695049309881
42
2.72650435247436
0
ELLIPSE
5
9D
100
AcDbEntity
8
1
62
256
6
ByLayer
370
18
48
1
60
0
100
AcDbEllipse
10
7.243368
20
3.144252
30
0
11
0.25
21
0
31
0
210
0
220
0
230
1
40
0.999982
41
-2.7269020877932
42
-1.5679703525192
0
POINT
5
6C
100
AcDbEntity
8
81
62
256
6
ByLayer
370
18
48
1
60
0
100
AcDbPoint
10
90
20
0
30
0
39
0
210
0
220
0
230
1
50
360
0
POINT
5
6E
100
AcDbEntity
8
80
62
256
6
ByLayer
370
18
48
1
60
0
100
AcDbPoint
10
0
20
0
30
0
39
0
210
0
220
0
230
1
50
360
0
POINT
5
70
100
AcDbEntity
8
SK2
62
256
6
ByLayer
370
18
48
1
60
1
100
AcDbPoint
10
-36
20
-4
30
0
39
0
210
0
220
0
230
1
50
360
0
POINT
5
72
100
AcDbEntity
8
SK2
62
256
6
ByLayer
370
18
48
1
60
1
100
AcDbPoint
10
-36
20
4
30
0
39
0
210
0
220
0
230
1
50
360
0
POINT
5
73
100
AcDbEntity
8
2
62
256
6
ByLayer
370
18
48
1
60
1
100
AcDbPoint
10
89.0887
20
-3.1
30
0
39
0
210
0
220
0
230
1
50
360
0
POINT
5
75
100
AcDbEntity
8
2
62
256
6
ByLayer
370
18
48
1
60
1
100
AcDbPoint
10
89.0887
20
3.1
30
0
39
0
210
0
220
0
230
1
50
360
0
SPLINE
5
9E
100
AcDbEntity
8
1
62
256
6
ByLayer
370
18
48
1
60
0
100
AcDbSpline
70
4
71
1
72
4
73
2
40
0
40
0
40
1
40
1
41
1
10
7.02218037728505
20
2.17624312963719
30
0
41
1
10
7.04580759604906
20
2.11797862492108
30
0
0
SPLINE
5
9F
100
AcDbEntity
8
1
62
256
6
ByLayer
370
18
48
1
60
0
100
AcDbSpline
70
4
71
3
72
19
73
15
40
0
40
0
40
0
40
0
40
0.121815905689329
40
0.206639849120076
40
0.313534982593229
40
0.411517775956917
40
0.486091178124121
40
0.559385288070295
40
0.654580524461936
40
0.74827734806363
40
0.830902790469499
40
0.902340591093877
40
0.987935532699723
40
1
40
1
40
1
40
1
41
1
10
23.4167962179218
20
-2.90397507550287
30
0
41
1
10
23.7049126095255
20
-2.9041483403654
30
0
41
1
10
24.1936319714412
20
-2.90448191895189
30
0
41
1
10
24.9348977370279
20
-2.90520375964763
30
0
41
1
10
25.6202205597327
20
-2.90572098319035
30
0
41
1
10
26.2812256670216
20
-2.90602501467339
30
0
41
1
10
26.8627843005057
20
-2.90664551684225
30
0
41
1
10
27.4372945356312
20
-2.9065045625085
30
0
41
1
10
28.0575225721407
20
-2.90745262396638
30
0
41
1
10
28.6995780892182
20
-2.90737057568043
30
0
41
1
10
29.285856031852
20
-2.90794220834724
30
0
41
1
10
29.8520713228181
20
-2.90813570585127
30
0
41
1
10
30.252364431326
20
-2.90827527194787
30
0
41
1
10
30.4832196939992
20
-2.90851432583909
30
0
41
1
10
30.5117380086484
20
-2.90854515407929
30
0
0
SPLINE
5
A0
100
AcDbEntity
8
1
62
256
6
ByLayer
370
18
48
1
60
0
100
AcDbSpline
70
4
71
3
72
22
73
18
40
0
40
0
40
0
40
0
40
0.0747310735414191
40
0.13602169945329
40
0.178174409985887
40
0.224021821071559
40
0.283192657821654
40
0.346995773973722
40
0.402631070382084
40
0.487244593469048
40
0.561986294083608
40
0.653476668288521
40
0.746200232585283
40
0.833607577263536
40
0.905601267033001
40
0.987833927184087
40
1
40
1
40
1
40
1
41
1
10
66.9691099659617
20
-2.93131488348612
30
0
41
1
10
67.1453408934593
20
-2.93137424573277
30
0
41
1
10
67.4661044545464
20
-2.93151350427453
30
0
41
1
10
67.8862879010344
20
-2.93172262343521
30
0
41
1
10
68.2383181776744
20
-2.93201272386088
30
0
41
1
10
68.585284288553
20
-2.93216404382227
30
0
41
1
10
68.9834249233875
20
-2.93222375797177
30
0
41
1
10
69.404631684723
20
-2.93237375351245
30
0
41
1
10
69.8858213777135
20
-2.93225217466522
30
0
41
1
10
70.3928801947014
20
-2.93309943621261
30
0
41
1
10
70.9838991237592
20
-2.93380937967277
30
0
41
1
10
71.5946279497608
20
-2.93315761180045
30
0
41
1
10
72.2349131197734
20
-2.93249736892008
30
0
41
1
10
72.8295549467232
20
-2.93404646525553
30
0
41
1
10
73.3993326632964
20
-2.93522929457726
30
0
41
1
10
73.7917487786239
20
-2.93493838158776
30
0
41
1
10
74.014348976092
20
-2.93488396887162
30
0
41
1
10
74.0430375180961
20
-2.93487496989448
30
0
0
SPLINE
5
A1
100
AcDbEntity
8
1
62
256
6
ByLayer
370
18
48
1
60
0
100
AcDbSpline
70
4
71
3
72
20
73
16
40
0
40
0
40
0
40
0
40
0.106282250876003
40
0.181266286806385
40
0.26546931246473
40
0.363225174141182
40
0.43900215182028
40
0.50392038917718
40
0.57016914298605
40
0.653547465621517
40
0.747349950117534
40
0.832165146256356
40
0.90416162270592
40
0.988295132457706
40
1
40
1
40
1
40
1
41
1
10
45.2150845457997
20
-2.91750517858262
30
0
41
1
10
45.4655250499134
20
-2.91765738995113
30
0
41
1
10
45.8926524658892
20
-2.91793106966435
30
0
41
1
10
46.5182259179201
20
-2.91828166866969
30
0
41
1
10
47.1236129443409
20
-2.91882634102262
30
0
41
1
10
47.7310852485798
20
-2.91887051160958
30
0
41
1
10
48.2930408383411
20
-2.91958576469037
30
0
41
1
10
48.7807314417361
20
-2.91949086824474
30
0
41
1
10
49.2863584127569
20
-2.92021255825742
30
0
41
1
10
49.8600411827341
20
-2.92015914447722
30
0
41
1
10
50.4774983667865
20
-2.92060545912261
30
0
41
1
10
51.068149675496
20
-2.92085648779323
30
0
41
1
10
51.6359240222916
20
-2.92089018077411
30
0
41
1
10
52.0315298846584
20
-2.92199936591103
30
0
41
1
10
52.257353120671
20
-2.92183698277708
30
0
41
1
10
52.2849328591415
20
-2.92181348359401
30
0
0
SPLINE
5
A2
100
AcDbEntity
8
1
62
256
6
ByLayer
370
18
48
1
60
0
100
AcDbSpline
70
4
71
3
72
17
73
13
40
0
40
0
40
0
40
0
40
0.0401882759522604
40
0.115066525613475
40
0.218219898575291
40
0.342523381856612
40
0.475874345339859
40
0.596447939126339
40
0.694594927746006
40
0.803066731526877
40
0.939277002650907
40
1
40
1
40
1
40
1
41
1
10
74.0427702753743
20
2.93487090588025
30
0
41
1
10
73.9737650499641
20
2.93488254505996
30
0
41
1
10
73.7761915821065
20
2.93489824551594
30
0
41
1
10
73.4014949888692
20
2.93506732632537
30
0
41
1
10
72.8824240013099
20
2.93432230461278
30
0
41
1
10
72.262828503092
20
2.93242275594417
30
0
41
1
10
71.6136443507095
20
2.93316476135072
30
0
41
1
10
71.0091205874007
20
2.93372877672911
30
0
41
1
10
70.4477720810303
20
2.93328872350736
30
0
41
1
10
69.8591173506337
20
2.93206424812357
30
0
41
1
10
69.3347438520728
20
2.93232213443295
30
0
41
1
10
68.9965740115367
20
2.93227459846855
30
0
41
1
10
68.8923074533778
20
2.93224830395093
30
0
0
SPLINE
5
A3
100
AcDbEntity
8
1
62
256
6
ByLayer
370
18
48
1
60
0
100
AcDbSpline
70
4
71
3
72
18
73
14
40
0
40
0
40
0
40
0
40
0.0414007847926555
40
0.119417189010713
40
0.222733300312591
40
0.340529337264874
40
0.475214568629737
40
0.580691395029177
40
0.665206643429888
40
0.742117677961554
40
0.825252399520255
40
0.931946274318259
40
1
40
1
40
1
40
1
41
1
10
30.5116448685816
20
2.90857123823173
30
0
41
1
10
30.4405097882371
20
2.90845506299567
30
0
41
1
10
30.235311343703
20
2.90817268553408
30
0
41
1
10
29.8521858568961
20
2.90809967578193
30
0
41
1
10
29.3384677561533
20
2.90804926066295
30
0
41
1
10
28.7265560361446
20
2.90730800291078
30
0
41
1
10
28.1112126221543
20
2.90754617145876
30
0
41
1
10
27.5531718945095
20
2.90649182756292
30
0
41
1
10
27.094255493102
20
2.90676936393604
30
0
41
1
10
26.6741398593739
20
2.90631994325969
30
0
41
1
10
26.2154334887723
20
2.90608134099997
30
0
41
1
10
25.7721052641644
20
2.90582782465412
30
0
41
1
10
25.4715980505194
20
2.90556739196353
30
0
41
1
10
25.3545871315442
20
2.9054680604113
30
0
0
SPLINE
5
A4
100
AcDbEntity
8
1
62
256
6
ByLayer
370
18
48
1
60
0
100
AcDbSpline
70
4
71
1
72
4
73
2
40
0
40
0
40
1
40
1
41
1
10
88.7391104243636
20
-2.94488959200703
30
0
41
1
10
88.91475416973
20
-2.94508656177157
30
0
0
SPLINE
5
A5
100
AcDbEntity
8
1
62
256
6
ByLayer
370
18
48
1
60
0
100
AcDbSpline
70
4
71
3
72
10
73
6
40
0
40
0
40
0
40
0
40
0.437793930535701
40
0.900839794316282
40
1
40
1
40
1
40
1
41
1
10
7.24387913877842
20
-2.89416676187361
30
0
41
1
10
7.46624090582432
20
-2.89469198011361
30
0
41
1
10
7.92379838999329
20
-2.89551557575976
30
0
41
1
10
8.4321184923171
20
-2.89541717627944
30
0
41
1
10
8.7176474543507
20
-2.89544609217816
30
0
41
1
10
8.76800585173788
20
-2.89544763717834
30
0
0
SPLINE
5
A6
100
AcDbEntity
8
1
62
256
6
ByLayer
370
18
48
1
60
0
100
AcDbSpline
70
4
71
3
72
17
73
13
40
0
40
0
40
0
40
0
40
0.0399304621135957
40
0.115589999967643
40
0.217970313824717
40
0.337151439043678
40
0.470222348919089
40
0.595351238212621
40
0.693605117243999
40
0.795070079282355
40
0.924658622828387
40
1
40
1
40
1
40
1
41
1
10
52.2860878002252
20
2.921771476065
30
0
41
1
10
52.216726810883
20
2.92186562301299
30
0
41
1
10
52.015938400009
20
2.92203208964099
30
0
41
1
10
51.6372504100889
20
2.92106310544722
30
0
41
1
10
51.1209617392451
20
2.92078436285291
30
0
41
1
10
50.5048707057153
20
2.92066005597138
30
0
41
1
10
49.8492732069316
20
2.92017659808454
30
0
41
1
10
49.2300400605729
20
2.92008615061877
30
0
41
1
10
48.6657244269171
20
2.91950999475392
30
0
41
1
10
48.093646848126
20
2.91938338757012
30
0
41
1
10
47.5614011812895
20
2.91886260655676
30
0
41
1
10
47.2053354746111
20
2.91872311601395
30
0
41
1
10
47.0744522366938
20
2.91866473066924
30
0
0
SPLINE
5
A7
100
AcDbEntity
8
1
62
256
6
ByLayer
370
18
48
1
60
0
100
AcDbSpline
70
4
71
3
72
10
73
6
40
0
40
0
40
0
40
0
40
0.0991912661073331
40
0.562221164324433
40
1
40
1
40
1
40
1
41
1
10
8.76805838877118
20
2.89544764035094
30
0
41
1
10
8.71768248164949
20
2.89544609524225
30
0
41
1
10
8.43213601047631
20
2.89541717398842
30
0
41
1
10
7.92379839358898
20
2.89551557531078
30
0
41
1
10
7.46624090581588
20
2.89469198011329
30
0
41
1
10
7.24387913877831
20
2.89416676187349
30
0
0
SPLINE
5
A8
100
AcDbEntity
8
1
62
256
6
ByLayer
370
18
48
1
60
0
100
AcDbSpline
70
4
71
3
72
8
73
4
40
0
40
0
40
0
40
0
40
1
40
1
40
1
40
1
41
1
10
89.977603230517
20
0.137354384337812
30
0
41
1
10
89.9813564284503
20
0.10819932196668
30
0
41
1
10
89.989478253733
20
0.0721526439062359
30
0
41
1
10
89.9999534211393
20
0.0339888091470186
30
0
0
SPLINE
5
A9
100
AcDbEntity
8
1
62
256
6
ByLayer
370
18
48
1
60
0
100
AcDbSpline
70
4
71
3
72
42
73
38
40
0
40
0
40
0
40
0
40
0.0575506564334385
40
0.0575506564334385
40
0.115101312866877
40
0.115101312866877
40
0.172651969300315
40
0.172651969300315
40
0.230202625733754
40
0.230202625733754
40
0.287753282167192
40
0.287753282167192
40
0.345303938600631
40
0.345303938600631
40
0.402854595034069
40
0.402854595034069
40
0.460405251467508
40
0.460405251467508
40
0.575506564334383
40
0.575506564334383
40
0.690607877201258
40
0.690607877201258
40
0.719383205417977
40
0.719383205417977
40
0.748158533634695
40
0.748158533634695
40
0.805709190068129
40
0.805709190068129
40
0.863259846501564
40
0.863259846501564
40
0.920810502934998
40
0.920810502934998
40
0.949585831151716
40
0.949585831151716
40
0.978361159368435
40
0.978361159368435
40
1
40
1
40
1
40
1
41
1
10
88.8866374216887
20
-3.09422768958035
30
0
41
1
10
88.4612953953512
20
-3.10553455951219
30
0
41
1
10
88.0361824784024
20
-3.09922688806392
30
0
41
1
10
87.1843673827435
20
-3.05163113358205
30
0
41
1
10
86.7586118169634
20
-3.0103396346621
30
0
41
1
10
85.9089403110754
20
-2.89454524655514
30
0
41
1
10
85.4844722804789
20
-2.81997882132097
30
0
41
1
10
84.6336892338966
20
-2.63968243870417
30
0
41
1
10
84.2071300609892
20
-2.53377397030536
30
0
41
1
10
83.3570358957924
20
-2.29514400180699
30
0
41
1
10
82.9326101624779
20
-2.1622971094873
30
0
41
1
10
82.082405705749
20
-1.87365662907962
30
0
41
1
10
81.6558184189132
20
-1.71743445388617
30
0
41
1
10
80.8049171102298
20
-1.38815645750205
30
0
41
1
10
80.380339516799
20
-1.21504641167789
30
0
41
1
10
79.5304567704084
20
-0.857004410811953
30
0
41
1
10
79.1045323189056
20
-0.6716647771959
30
0
41
1
10
77.8268174471711
20
-0.10760923308672
30
0
41
1
10
76.9794283754371
20
0.277166777297509
30
0
41
1
10
75.2744694895523
20
1.02132688921168
30
0
41
1
10
74.426497765406
20
1.37641561788413
30
0
41
1
10
73.3620438539378
20
1.77339639797233
30
0
41
1
10
73.1487151136914
20
1.85054026024886
30
0
41
1
10
72.7228864769681
20
1.99910370972697
30
0
41
1
10
72.5102400109852
20
2.07056667074878
30
0
41
1
10
71.8726295893314
20
2.27573617971024
30
0
41
1
10
71.4479354314602
20
2.40012059307668
30
0
41
1
10
70.5969528269983
20
2.62068050670857
30
0
41
1
10
70.1701824038367
20
2.71710084372873
30
0
41
1
10
69.3194291353355
20
2.87741839561664
30
0
41
1
10
68.8947210636788
20
2.94152546818035
30
0
41
1
10
68.2568758606118
20
3.01235328237632
30
0
41
1
10
68.0441429610394
20
3.03175133834773
30
0
41
1
10
67.6181632833004
20
3.06194004705895
30
0
41
1
10
67.4048173736545
20
3.07271946517471
30
0
41
1
10
67.0318284274541
20
3.08389914888707
30
0
41
1
10
66.8718683004834
20
3.08621916948985
30
0
41
1
10
66.7119789164281
20
3.08607036870316
30
0
0
SPLINE
5
AA
100
AcDbEntity
8
1
62
256
6
ByLayer
370
18
48
1
60
0
100
AcDbSpline
70
4
71
3
72
44
73
40
40
0
40
0
40
0
40
0
40
0.0124852378228295
40
0.0124852378228295
40
0.0660700447913666
40
0.0660700447913666
40
0.119654851759903
40
0.119654851759903
40
0.17323965872844
40
0.17323965872844
40
0.226824465696978
40
0.226824465696978
40
0.280409272665515
40
0.280409272665515
40
0.333994079634052
40
0.333994079634052
40
0.387578886602589
40
0.387578886602589
40
0.441163693571126
40
0.441163693571126
40
0.494748500539663
40
0.494748500539663
40
0.5483333075082
40
0.5483333075082
40
0.601918114476737
40
0.601918114476737
40
0.655502921445275
40
0.655502921445275
40
0.709087728413811
40
0.709087728413811
40
0.762672535382349
40
0.762672535382349
40
0.789464938866617
40
0.789464938866617
40
0.816257342350886
40
0.816257342350886
40
0.92342695628796
40
0.92342695628796
40
1
40
1
40
1
40
1
41
1
10
47.0580009028937
20
-2.93458464846114
30
0
41
1
10
46.9588100029879
20
-2.9476272574515
30
0
41
1
10
46.8596556421937
20
-2.95976088565368
30
0
41
1
10
46.3350643951389
20
-3.01912137177243
30
0
41
1
10
45.9099814815588
20
-3.05035623067988
30
0
41
1
10
45.0583075653162
20
-3.07807528942769
30
0
41
1
10
44.631172474063
20
-3.0744543836168
30
0
41
1
10
43.7797127464219
20
-3.03248098508732
30
0
41
1
10
43.3546457381618
20
-2.99419323832552
30
0
41
1
10
42.5034463634124
20
-2.88415908030961
30
0
41
1
10
42.0764527208999
20
-2.81219956659831
30
0
41
1
10
41.2242178931581
20
-2.63754654425261
30
0
41
1
10
40.7989851223846
20
-2.53498233118083
30
0
41
1
10
39.9481963202046
20
-2.30202136136538
30
0
41
1
10
39.5219591509167
20
-2.1717303693616
30
0
41
1
10
38.668650917594
20
-1.8878827926606
30
0
41
1
10
38.2431742071807
20
-1.73482627086295
30
0
41
1
10
37.3923535991698
20
-1.41065022522278
30
0
41
1
10
36.966899263084
20
-1.23974278581008
30
0
41
1
10
36.1135843459263
20
-0.884952911261649
30
0
41
1
10
35.6872936182413
20
-0.701748205527792
30
0
41
1
10
34.8362599773139
20
-0.329970085733748
30
0
41
1
10
34.4109572812675
20
-0.141385921197639
30
0
41
1
10
33.5584988792658
20
0.236008075175306
30
0
41
1
10
33.131374339196
20
0.424782360065848
30
0
41
1
10
32.2798789709719
20
0.794081446276067
30
0
41
1
10
31.8546376580314
20
0.975005706443227
30
0
41
1
10
31.0028112131006
20
1.32426389131081
30
0
41
1
10
30.5754633247211
20
1.49284977653207
30
0
41
1
10
29.723337399588
20
1.810104065269
30
0
41
1
10
29.2980567445918
20
1.95904584372153
30
0
41
1
10
28.659450664587
20
2.16465541917341
30
0
41
1
10
28.4464767076398
20
2.23024360940411
30
0
41
1
10
28.0200491505561
20
2.35506383761029
30
0
41
1
10
27.8064125864859
20
2.41433259792024
30
0
41
1
10
26.7402002074746
20
2.69243867527501
30
0
41
1
10
25.8911193796144
20
2.85724003110164
30
0
41
1
10
24.4267197572086
20
3.02454850145537
30
0
41
1
10
23.8191157375822
20
3.05939890002986
30
0
41
1
10
23.2106626572563
20
3.05884221443316
30
0
0
SPLINE
5
AB
100
AcDbEntity
8
1
62
256
6
ByLayer
370
18
48
1
60
0
100
AcDbSpline
70
4
71
3
72
10
73
6
40
0
40
0
40
0
40
0
40
0.5
40
0.5
40
1
40
1
40
1
40
1
41
1
10
88.9933132510705
20
-3.01864881972702
30
0
41
1
10
89.1433292482109
20
-2.63878823529268
30
0
41
1
10
89.2935482717767
20
-2.25891368866985
30
0
41
1
10
89.5931482433337
20
-1.4984858849788
30
0
41
1
10
89.7424052060034
20
-1.11785821726161
30
0
41
1
10
89.8904780028068
20
-0.736531267301217
30
0
0
SPLINE
5
AC
100
AcDbEntity
8
1
62
256
6
ByLayer
370
13
48
1
60
0
100
AcDbSpline
70
4
71
3
72
16
73
12
40
0
40
0
40
0
40
0
40
0.0750452553453304
40
0.0750452553453304
40
0.229204379454442
40
0.229204379454442
40
0.383363503563553
40
0.383363503563553
40
0.691681751781777
40
0.691681751781777
40
1
40
1
40
1
40
1
41
1
10
7.24388785821375
20
-2.89430497953921
30
0
41
1
10
7.24389089834597
20
-2.89417861673832
30
0
41
1
10
7.24389396967339
20
-2.89324986377315
30
0
41
1
10
7.24390348050898
20
-2.88797444276258
30
0
41
1
10
7.24391005120992
20
-2.88103893874057
30
0
41
1
10
7.2439236719791
20
-2.86024276161072
30
0
41
1
10
7.2439307384908
20
-2.84632818574539
30
0
41
1
10
7.2439525175848
20
-2.79447775690053
30
0
41
1
10
7.24396792606933
20
-2.74620621162777
30
0
41
1
10
7.24399949078074
20
-2.62557080886
30
0
41
1
10
7.24401573697375
20
-2.55303883268508
30
0
41
1
10
7.2440318895263
20
-2.46814203088852
30
0
0
SPLINE
5
AD
100
AcDbEntity
8
1
62
256
6
ByLayer
370
18
48
1
60
0
100
AcDbSpline
70
4
71
3
72
8
73
4
40
0
40
0
40
0
40
0
40
1
40
1
40
1
40
1
41
1
10
88.9088238766203
20
-3.03740160500357
30
0
41
1
10
88.9014318102839
20
-3.05635184895945
30
0
41
1
10
88.894036174744
20
-3.0752940219011
30
0
41
1
10
88.8866374216886
20
-3.09422768958035
30
0
0
SPLINE
5
AE
100
AcDbEntity
8
1
62
256
6
ByLayer
370
18
48
1
60
0
100
AcDbSpline
70
4
71
3
72
82
73
78
40
0
40
0
40
0
40
0
40
0.0209868140662806
40
0.0209868140662806
40
0.0425338712762261
40
0.0425338712762261
40
0.0640809284861716
40
0.0640809284861716
40
0.0856279856961172
40
0.0856279856961172
40
0.107175042906063
40
0.107175042906063
40
0.128722100116008
40
0.128722100116008
40
0.171816214535901
40
0.171816214535901
40
0.193363271745847
40
0.193363271745847
40
0.214910328955793
40
0.214910328955793
40
0.258004443375685
40
0.258004443375685
40
0.279551500585631
40
0.279551500585631
40
0.301098557795577
40
0.301098557795577
40
0.344192672215469
40
0.344192672215469
40
0.365739729425415
40
0.365739729425415
40
0.387286786635361
40
0.387286786635361
40
0.408833843845307
40
0.408833843845307
40
0.430380901055253
40
0.430380901055253
40
0.451927958265199
40
0.451927958265199
40
0.473475015475145
40
0.473475015475145
40
0.495022072685092
40
0.495022072685092
40
0.516569129895038
40
0.516569129895038
40
0.559663244314929
40
0.559663244314929
40
0.581210301524875
40
0.581210301524875
40
0.602757358734821
40
0.602757358734821
40
0.645851473154712
40
0.645851473154712
40
0.667398530364658
40
0.667398530364658
40
0.688945587574603
40
0.688945587574603
40
0.710492644784549
40
0.710492644784549
40
0.732039701994495
40
0.732039701994495
40
0.775133816414387
40
0.775133816414387
40
0.818227930834279
40
0.818227930834279
40
0.839774988044226
40
0.839774988044226
40
0.861322045254173
40
0.861322045254173
40
0.904416159674066
40
0.904416159674066
40
0.925963216884013
40
0.925963216884013
40
0.94751027409396
40
0.94751027409396
40
0.990604388513852
40
0.990604388513852
40
1
40
1
40
1
40
1
41
1
10
80.5815797409917
20
-1.72160712264511
30
0
41
1
10
80.3840031613194
20
-1.78949769228686
30
0
41
1
10
80.1867081575918
20
-1.8545210423259
30
0
41
1
10
79.7869933472749
20
-1.98246976262047
30
0
41
1
10
79.5846414400364
20
-2.04492121844348
30
0
41
1
10
79.1802255071627
20
-2.16446087339028
30
0
41
1
10
78.9783119403435
20
-2.22179820551665
30
0
41
1
10
78.5742139551819
20
-2.33039713012335
30
0
41
1
10
78.3719752718886
20
-2.38170238004466
30
0
41
1
10
77.9671006584018
20
-2.47801402133189
30
0
41
1
10
77.7644759543
20
-2.52285192771322
30
0
41
1
10
77.3586799183479
20
-2.60597808986088
30
0
41
1
10
77.1554615613597
20
-2.64445567983464
30
0
41
1
10
76.5455120772815
20
-2.75099616109944
30
0
41
1
10
76.135873627883
20
-2.80741523566232
30
0
41
1
10
75.5235753650506
20
-2.86996484744111
30
0
41
1
10
75.3196879406698
20
-2.88658585542129
30
0
41
1
10
74.9121489954618
20
-2.91264828555643
30
0
41
1
10
74.7086706416129
20
-2.92233986459374
30
0
41
1
10
74.0974289073936
20
-2.939883572806
30
0
41
1
10
73.6888826341759
20
-2.93642332905813
30
0
41
1
10
73.0756877903086
20
-2.90778924630547
30
0
41
1
10
72.8720868515554
20
-2.89366256011232
30
0
41
1
10
72.4658032978861
20
-2.8582555168648
30
0
41
1
10
72.2628702531676
20
-2.83740390693112
30
0
41
1
10
71.6547549782483
20
-2.76483207679652
30
0
41
1
10
71.2502924349188
20
-2.70326363221085
30
0
41
1
10
70.6448819745713
20
-2.58933748621627
30
0
41
1
10
70.4434429164907
20
-2.54681059726545
30
0
41
1
10
70.0399276330654
20
-2.45629337059887
30
0
41
1
10
69.8379962681256
20
-2.4086728578383
30
0
41
1
10
69.4338765146179
20
-2.30722437049945
30
0
41
1
10
69.2316554093441
20
-2.25342074405586
30
0
41
1
10
68.8268125912014
20
-2.14004711845644
30
0
41
1
10
68.6243414061628
20
-2.08018727389114
30
0
41
1
10
68.2185177219067
20
-1.95511613343095
30
0
41
1
10
68.0150806627822
20
-1.88982571416807
30
0
41
1
10
67.6071033891296
20
-1.7542636466199
30
0
41
1
10
67.4023579543733
20
-1.68423042595569
30
0
41
1
10
66.9937258123923
20
-1.54005645129934
30
0
41
1
10
66.7896492979002
20
-1.46580330185944
30
0
41
1
10
66.3822782915267
20
-1.31282409290472
30
0
41
1
10
66.1785974877206
20
-1.23492933579678
30
0
41
1
10
65.5672364228213
20
-0.997277787150324
30
0
41
1
10
65.1593818184499
20
-0.833321253163831
30
0
41
1
10
64.5466521224839
20
-0.580957023871292
30
0
41
1
10
64.3423114053006
20
-0.495140099089951
30
0
41
1
10
63.9341174511891
20
-0.323465423598463
30
0
41
1
10
63.7300482378165
20
-0.237641614846467
30
0
41
1
10
63.1180755528643
20
0.0201406299511575
30
0
41
1
10
62.7104610512176
20
0.19250898354511
30
0
41
1
10
62.0989967674937
20
0.450425312305868
30
0
41
1
10
61.8949090937891
20
0.535674723475012
30
0
41
1
10
61.4860191645926
20
0.70425637518241
30
0
41
1
10
61.2814786167573
20
0.78755621671408
30
0
41
1
10
60.8735684666167
20
0.95171287279328
30
0
41
1
10
60.6700086875609
20
1.03255398422186
30
0
41
1
10
60.2639005516762
20
1.19180844234305
30
0
41
1
10
60.0613876781785
20
1.27033163766149
30
0
41
1
10
59.453942110423
20
1.49860420502301
30
0
41
1
10
59.0498097013024
20
1.64163776035843
30
0
41
1
10
58.2416395905626
20
1.91211178463504
30
0
41
1
10
57.8380478443886
20
2.03995708459709
30
0
41
1
10
57.2305044778364
20
2.21343370815859
30
0
41
1
10
57.0277508552647
20
2.268420709357
30
0
41
1
10
56.6215118462178
20
2.37163171181152
30
0
41
1
10
56.4179848280228
20
2.4201874103012
30
0
41
1
10
55.8069647265222
20
2.55898812106136
30
0
41
1
10
55.3967915085996
20
2.63940049456727
30
0
41
1
10
54.7841331091311
20
2.73805492989985
30
0
41
1
10
54.5800981346602
20
2.76725112353546
30
0
41
1
10
54.1723577105531
20
2.81714886411851
30
0
41
1
10
53.9687841328714
20
2.83830863764891
30
0
41
1
10
53.3570765503482
20
2.8924637086152
30
0
41
1
10
52.9480444582277
20
2.91343427356648
30
0
41
1
10
52.4497712958727
20
2.92115851597799
30
0
41
1
10
52.3607026275729
20
2.92185903168601
30
0
41
1
10
52.2717524766679
20
2.92181120018682
30
0
0
SPLINE
5
AF
100
AcDbEntity
8
1
62
256
6
ByLayer
370
18
48
1
60
0
100
AcDbSpline
70
4
71
3
72
82
73
78
40
0
40
0
40
0
40
0
40
0.0143639052093459
40
0.0143639052093459
40
0.0574989674556505
40
0.0574989674556505
40
0.100634029701955
40
0.100634029701955
40
0.122201560825106
40
0.122201560825106
40
0.143769091948258
40
0.143769091948258
40
0.186904154194561
40
0.186904154194561
40
0.230039216440864
40
0.230039216440864
40
0.273174278687167
40
0.273174278687167
40
0.294741809810319
40
0.294741809810319
40
0.31630934093347
40
0.31630934093347
40
0.337876872056622
40
0.337876872056622
40
0.359444403179774
40
0.359444403179774
40
0.402579465426075
40
0.402579465426075
40
0.424146996549227
40
0.424146996549227
40
0.445714527672378
40
0.445714527672378
40
0.467282058795529
40
0.467282058795529
40
0.48884958991868
40
0.48884958991868
40
0.510417121041832
40
0.510417121041832
40
0.531984652164983
40
0.531984652164983
40
0.553552183288134
40
0.553552183288134
40
0.575119714411286
40
0.575119714411286
40
0.596687245534437
40
0.596687245534437
40
0.618254776657588
40
0.618254776657588
40
0.639822307780739
40
0.639822307780739
40
0.66138983890389
40
0.66138983890389
40
0.704524901150193
40
0.704524901150193
40
0.726092432273343
40
0.726092432273343
40
0.747659963396494
40
0.747659963396494
40
0.769227494519645
40
0.769227494519645
40
0.790795025642796
40
0.790795025642796
40
0.812362556765947
40
0.812362556765947
40
0.833930087889098
40
0.833930087889098
40
0.855497619012249
40
0.855497619012249
40
0.8770651501354
40
0.8770651501354
40
0.920200212381702
40
0.920200212381702
40
0.941767743504853
40
0.941767743504853
40
0.963335274628004
40
0.963335274628004
40
1
40
1
40
1
40
1
41
1
10
37.0861514834342
20
-1.7072922763588
30
0
41
1
10
36.951435897036
20
-1.75321536184748
30
0
41
1
10
36.8166197244519
20
-1.79807594001292
30
0
41
1
10
36.276517465233
20
-1.97354187043302
30
0
41
1
10
35.8702506120232
20
-2.09577681476009
30
0
41
1
10
35.0556574241702
20
-2.31970361321996
30
0
41
1
10
34.6453063467897
20
-2.42043618488376
30
0
41
1
10
34.0322142984659
20
-2.55047410962297
30
0
41
1
10
33.82799038994
20
-2.59070592849144
30
0
41
1
10
33.4198480516313
20
-2.66459435059792
30
0
41
1
10
33.2161160051886
20
-2.69815078377584
30
0
41
1
10
32.6040466619918
20
-2.78715855887825
30
0
41
1
10
32.1951572255405
20
-2.83283326031813
30
0
41
1
10
31.3759960794396
20
-2.89300773515691
30
0
41
1
10
30.9690824792835
20
-2.90883966766182
30
0
41
1
10
30.1570736147175
20
-2.90852291231934
30
0
41
1
10
29.7520628693759
20
-2.89427314292027
30
0
41
1
10
29.1460741835623
20
-2.84952221761301
30
0
41
1
10
28.9443284582712
20
-2.83082837253804
30
0
41
1
10
28.5403455647927
20
-2.78714356512205
30
0
41
1
10
28.3382629151467
20
-2.76187176767837
30
0
41
1
10
27.9338943304803
20
-2.70353994329531
30
0
41
1
10
27.7315695646364
20
-2.67071990994637
30
0
41
1
10
27.3265847619029
20
-2.59891539412669
30
0
41
1
10
27.12409394145
20
-2.55955267589772
30
0
41
1
10
26.5152366177715
20
-2.43067062093425
30
0
41
1
10
26.1074314224304
20
-2.33263581708781
30
0
41
1
10
25.492684570314
20
-2.16597989651845
30
0
41
1
10
25.2880547307964
20
-2.10753687375791
30
0
41
1
10
24.8795978954771
20
-1.98509925834088
30
0
41
1
10
24.675403596996
20
-1.92160225719778
30
0
41
1
10
24.267006131104
20
-1.78938533858963
30
0
41
1
10
24.0627920319177
20
-1.72093283523742
30
0
41
1
10
23.6542195540123
20
-1.58031852424494
30
0
41
1
10
23.449868553612
20
-1.50789922721157
30
0
41
1
10
23.0409850917671
20
-1.35818024120974
30
0
41
1
10
22.8365226577282
20
-1.28075769314154
30
0
41
1
10
22.4269058368571
20
-1.12423461853066
30
0
41
1
10
22.2222614834959
20
-1.04477091951571
30
0
41
1
10
21.8133681478474
20
-0.883086294330866
30
0
41
1
10
21.6090562678517
20
-0.801088872793855
30
0
41
1
10
21.2005385433954
20
-0.635416805273309
30
0
41
1
10
20.9964941130929
20
-0.551252663620403
30
0
41
1
10
20.5883001255275
20
-0.38133509127934
30
0
41
1
10
20.3839733179433
20
-0.296082171464207
30
0
41
1
10
19.9748087932342
20
-0.125336123076551
30
0
41
1
10
19.7697306900981
20
-0.0395383418506867
30
0
41
1
10
19.3603432221204
20
0.13169427301699
30
0
41
1
10
19.156104940486
20
0.216906623182155
30
0
41
1
10
18.7488962329537
20
0.387352902392053
30
0
41
1
10
18.5458011526955
20
0.472140814889968
30
0
41
1
10
17.9368961225452
20
0.722498611208891
30
0
41
1
10
17.5317725094599
20
0.885369443925356
30
0
41
1
10
16.925003139857
20
1.12241978204142
30
0
41
1
10
16.7230654995863
20
1.20061727014729
30
0
41
1
10
16.3188446523639
20
1.35310904504999
30
0
41
1
10
16.1165754304301
20
1.42743491851357
30
0
41
1
10
15.7116824130525
20
1.57199727395138
30
0
41
1
10
15.5090538954934
20
1.64219023663117
30
0
41
1
10
15.1033161867291
20
1.77890080725248
30
0
41
1
10
14.9002091415764
20
1.84532308126498
30
0
41
1
10
14.4936944689289
20
1.97430486926123
30
0
41
1
10
14.2899419579173
20
2.03621151420705
30
0
41
1
10
13.8812949296682
20
2.1544894009904
30
0
41
1
10
13.6760537770237
20
2.21097317903312
30
0
41
1
10
13.2667645339752
20
2.3171937089667
30
0
41
1
10
13.0626053456617
20
2.36689925926973
30
0
41
1
10
12.6549874144194
20
2.46067456626704
30
0
41
1
10
12.4517059339108
20
2.50487326155482
30
0
41
1
10
11.8417499646456
20
2.62696898086921
30
0
41
1
10
11.4355433845666
20
2.69520069049039
30
0
41
1
10
10.8265281652484
20
2.77504421334643
30
0
41
1
10
10.6236661520929
20
2.7979471570687
30
0
41
1
10
10.2176728769978
20
2.83693032230056
30
0
41
1
10
10.0144526024632
20
2.85304253373315
30
0
41
1
10
9.4649567116013
20
2.88625836199509
30
0
41
1
10
9.11793287828985
20
2.89612635879982
30
0
41
1
10
8.76983173636984
20
2.89545177495663
30
0
0
SPLINE
5
B0
100
AcDbEntity
8
1
62
256
6
ByLayer
370
18
48
1
60
0
100
AcDbSpline
70
4
71
3
72
14
73
10
40
0
40
0
40
0
40
0
40
0.25
40
0.25
40
0.5
40
0.5
40
0.75
40
0.75
40
1
40
1
40
1
40
1
41
1
10
88.8731498752998
20
0.654687035073721
30
0
41
1
10
88.8692375176538
20
0.669949900988058
30
0
41
1
10
88.8681368774049
20
0.686065984770096
30
0
41
1
10
88.8752725973524
20
0.716451593104068
30
0
41
1
10
88.8840263594401
20
0.730662121638659
30
0
41
1
10
88.9082434872228
20
0.751064368033468
30
0
41
1
10
88.9231143172622
20
0.757506392508844
30
0
41
1
10
88.9537356220953
20
0.764937529463168
30
0
41
1
10
88.9695820358947
20
0.766038185553072
30
0
41
1
10
88.9853580315319
20
0.765469362468451
30
0
0
SPLINE
5
B1
100
AcDbEntity
8
1
62
256
6
ByLayer
370
18
48
1
60
0
100
AcDbSpline
70
4
71
3
72
8
73
4
40
0
40
0
40
0
40
0
40
1
40
1
40
1
40
1
41
1
10
89.9999534211364
20
0.033988809146166
30
0
41
1
10
89.9916663919566
20
0.0079503725000336
30
0
41
1
10
89.98062527339
20
-0.018919002988639
30
0
41
1
10
89.9696078994482
20
-0.0393971575871888
30
0
0
SPLINE
5
B2
100
AcDbEntity
8
1
62
256
6
ByLayer
370
18
48
1
60
0
100
AcDbSpline
70
4
71
3
72
36
73
32
40
0
40
0
40
0
40
0
40
0.0624999999999973
40
0.0624999999999973
40
0.124999999999995
40
0.124999999999995
40
0.187499999999992
40
0.187499999999992
40
0.249999999999989
40
0.249999999999989
40
0.374999999999991
40
0.374999999999991
40
0.437499999999992
40
0.437499999999992
40
0.499999999999993
40
0.499999999999993
40
0.562499999999994
40
0.562499999999994
40
0.624999999999995
40
0.624999999999995
40
0.687499999999995
40
0.687499999999995
40
0.749999999999996
40
0.749999999999996
40
0.812499999999997
40
0.812499999999997
40
0.874999999999998
40
0.874999999999998
40
0.937499999999999
40
0.937499999999999
40
1
40
1
40
1
40
1
41
1
10
88.877784476822
20
-1.56849756504477
30
0
41
1
10
88.8738401191764
20
-1.60565430263929
30
0
41
1
10
88.8733166038285
20
-1.64001914152172
30
0
41
1
10
88.878602158816
20
-1.699083930104
30
0
41
1
10
88.8844188865215
20
-1.72438219785576
30
0
41
1
10
88.9010032512273
20
-1.76503845254422
30
0
41
1
10
88.911822625827
20
-1.78069287164971
30
0
41
1
10
88.9372673688108
20
-1.80287820919233
30
0
41
1
10
88.951725691415
20
-1.80938309696739
30
0
41
1
10
88.9997775036742
20
-1.81653777047404
30
0
41
1
10
89.0371432952787
20
-1.80461347470072
30
0
41
1
10
89.0971230297764
20
-1.76509717434624
30
0
41
1
10
89.1175475400903
20
-1.74847915175223
30
0
41
1
10
89.1592673380169
20
-1.7082853712605
30
0
41
1
10
89.1807156953851
20
-1.68449561220089
30
0
41
1
10
89.2233718295974
20
-1.63047033926202
30
0
41
1
10
89.2445251186318
20
-1.60032583869511
30
0
41
1
10
89.2854195170788
20
-1.53476431634147
30
0
41
1
10
89.3055726725768
20
-1.49862970599966
30
0
41
1
10
89.3430455148232
20
-1.42237636655909
30
0
41
1
10
89.3604330196532
20
-1.38221572904084
30
0
41
1
10
89.391261150705
20
-1.29888361850132
30
0
41
1
10
89.4041150145673
20
-1.25737745924363
30
0
41
1
10
89.4242751912657
20
-1.17471161003104
30
0
41
1
10
89.4312148931488
20
-1.13466717955146
30
0
41
1
10
89.4381737985668
20
-1.06112913301177
30
0
41
1
10
89.4381912049517
20
-1.02756442119164
30
0
41
1
10
89.4319337697416
20
-0.96986426101563
30
0
41
1
10
89.4256593153931
20
-0.945459457430928
30
0
41
1
10
89.4082523024491
20
-0.906483273824335
30
0
41
1
10
89.3969954166919
20
-0.891617469044604
30
0
41
1
10
89.3840271197737
20
-0.881378625201705
30
0
0
SPLINE
5
B3
100
AcDbEntity
8
1
62
256
6
ByLayer
370
18
48
1
60
0
100
AcDbSpline
70
4
71
3
72
16
73
12
40
0
40
0
40
0
40
0
40
0.125
40
0.125
40
0.25
40
0.25
40
0.5
40
0.5
40
0.75
40
0.75
40
1
40
1
40
1
40
1
41
1
10
86.7066214768664
20
-0.753666196313077
30
0
41
1
10
86.7670171333185
20
-0.830998559016848
30
0
41
1
10
86.8298172583781
20
-0.905838400534464
30
0
41
1
10
86.9597314847106
20
-1.05104612786374
30
0
41
1
10
87.0270492604317
20
-1.12160171953428
30
0
41
1
10
87.2335436055662
20
-1.32579350829798
30
0
41
1
10
87.3757626771693
20
-1.45074793725701
30
0
41
1
10
87.6672484624509
20
-1.68337336344368
30
0
41
1
10
87.8165301010318
20
-1.7910077592764
30
0
41
1
10
88.1211426275256
20
-1.99144154843449
30
0
41
1
10
88.2767604564374
20
-2.08436255178753
30
0
41
1
10
88.4345131873022
20
-2.1701460092454
30
0
0
SPLINE
5
B4
100
AcDbEntity
8
1
62
256
6
ByLayer
370
18
48
1
60
0
100
AcDbSpline
70
4
71
3
72
24
73
20
40
0
40
0
40
0
40
0
40
0.180570597588852
40
0.180570597588852
40
0.270855896383278
40
0.270855896383278
40
0.361141195177703
40
0.361141195177703
40
0.541711792766558
40
0.541711792766558
40
0.631997091560984
40
0.631997091560984
40
0.72228239035541
40
0.72228239035541
40
0.902852987944259
40
0.902852987944259
40
0.993138286738683
40
0.993138286738683
40
1
40
1
40
1
40
1
41
1
10
8.585439470887
20
-2.89411242737776
30
0
41
1
10
8.99538089019725
20
-2.89926475169139
30
0
41
1
10
9.40372216615043
20
-2.88994915032882
30
0
41
1
10
10.0139048393899
20
-2.85308098963674
30
0
41
1
10
10.2169748664443
20
-2.83698732108169
30
0
41
1
10
10.6226193767019
20
-2.79805764828254
30
0
41
1
10
10.8252801394029
20
-2.77518950910692
30
0
41
1
10
11.4336012642033
20
-2.69549175539268
30
0
41
1
10
11.8392240999144
20
-2.62740446460094
30
0
41
1
10
12.4481420257003
20
-2.50562129973827
30
0
41
1
10
12.6510479090501
20
-2.46154098377323
30
0
41
1
10
13.0578570541247
20
-2.3680306862563
30
0
41
1
10
13.2615848516195
20
-2.31847878310427
30
0
41
1
10
13.8741200279271
20
-2.1596860996404
30
0
41
1
10
14.2850791764259
20
-2.04041908640332
30
0
41
1
10
14.8965001803479
20
-1.84653763157573
30
0
41
1
10
15.100147204254
20
-1.77995124136146
30
0
41
1
10
15.3190182578183
20
-1.70622265426618
30
0
41
1
10
15.3344762152164
20
-1.70100436708725
30
0
41
1
10
15.3499327981374
20
-1.69577529944016
30
0
0
SPLINE
5
B5
100
AcDbEntity
8
1
62
256
6
ByLayer
370
18
48
1
60
0
100
AcDbSpline
70
4
71
3
72
84
73
80
40
0
40
0
40
0
40
0
40
0.0022407604826712
40
0.0022407604826712
40
0.0237869124339794
40
0.0237869124339794
40
0.0453330643852875
40
0.0453330643852875
40
0.0884253682879026
40
0.0884253682879026
40
0.109971520239211
40
0.109971520239211
40
0.131517672190519
40
0.131517672190519
40
0.174609976093134
40
0.174609976093134
40
0.217702279995749
40
0.217702279995749
40
0.239248431947057
40
0.239248431947057
40
0.260794583898364
40
0.260794583898364
40
0.303886887800978
40
0.303886887800978
40
0.325433039752284
40
0.325433039752284
40
0.34697919170359
40
0.34697919170359
40
0.368525343654897
40
0.368525343654897
40
0.390071495606203
40
0.390071495606203
40
0.433163799508815
40
0.433163799508815
40
0.45470995146012
40
0.45470995146012
40
0.476256103411425
40
0.476256103411425
40
0.519348407314035
40
0.519348407314035
40
0.540894559265339
40
0.540894559265339
40
0.562440711216644
40
0.562440711216644
40
0.583986863167948
40
0.583986863167948
40
0.605533015119253
40
0.605533015119253
40
0.627079167070557
40
0.627079167070557
40
0.648625319021861
40
0.648625319021861
40
0.670171470973166
40
0.670171470973166
40
0.691717622924471
40
0.691717622924471
40
0.734809926827079
40
0.734809926827079
40
0.756356078778385
40
0.756356078778385
40
0.777902230729689
40
0.777902230729689
40
0.820994534632301
40
0.820994534632301
40
0.842540686583606
40
0.842540686583606
40
0.864086838534911
40
0.864086838534911
40
0.885632990486216
40
0.885632990486216
40
0.907179142437521
40
0.907179142437521
40
0.928725294388827
40
0.928725294388827
40
0.950271446340132
40
0.950271446340132
40
0.99336375024274
40
0.99336375024274
40
1
40
1
40
1
40
1
41
1
10
30.5102635307092
20
2.90858354847154
30
0
41
1
10
30.5314186014882
20
2.90865483536527
30
0
41
1
10
30.5525769722628
20
2.90868757264144
30
0
41
1
10
30.7772198215328
20
2.90862794892027
30
0
41
1
10
30.9810620986723
20
2.90460448813812
30
0
41
1
10
31.389546602077
20
2.88872312984555
30
0
41
1
10
31.5945900801385
20
2.87710731809835
30
0
41
1
10
32.207644460796
20
2.83158562108909
30
0
41
1
10
32.6144226209481
20
2.7858295633263
30
0
41
1
10
33.2223352812057
20
2.697153871469
30
0
41
1
10
33.4244646293098
20
2.66378836214781
30
0
41
1
10
33.8288955081962
20
2.59051188225394
30
0
41
1
10
34.0310347509316
20
2.55068795879805
30
0
41
1
10
34.6372241989951
20
2.42222216205087
30
0
41
1
10
35.0412010552434
20
2.32333552372845
30
0
41
1
10
35.84920981
20
2.10188832968362
30
0
41
1
10
36.2547261586452
20
1.98029992953172
30
0
41
1
10
36.8649231036297
20
1.78253239029689
30
0
41
1
10
37.0686676458058
20
1.71410033930209
30
0
41
1
10
37.4770183882263
20
1.57179069587238
30
0
41
1
10
37.6818149378563
20
1.49798273439424
30
0
41
1
10
38.295615165826
20
1.2737348803673
30
0
41
1
10
38.7040372842612
20
1.11689072159857
30
0
41
1
10
39.3163511603183
20
0.87311669733225
30
0
41
1
10
39.5202371532416
20
0.79007987765641
30
0
41
1
10
39.9285698511143
20
0.622996598832799
30
0
41
1
10
40.1330012879538
20
0.538929672909319
30
0
41
1
10
40.5420916662946
20
0.369327681482645
30
0
41
1
10
40.7469589223929
20
0.283718118270514
30
0
41
1
10
41.1558815450913
20
0.112200852688005
30
0
41
1
10
41.3600613914279
20
0.0261217668220866
30
0
41
1
10
41.9718924802759
20
-0.232748871161846
30
0
41
1
10
42.3799474257072
20
-0.403462681585921
30
0
41
1
10
42.9926216938122
20
-0.656179811085707
30
0
41
1
10
43.1968894533272
20
-0.740027403779663
30
0
41
1
10
43.6059108351209
20
-0.905660307515149
30
0
41
1
10
43.8102522179346
20
-0.987794111882437
30
0
41
1
10
44.4219270686778
20
-1.22772496702433
30
0
41
1
10
44.8281618559173
20
-1.38059757864073
30
0
41
1
10
45.4357383169562
20
-1.599093205055
30
0
41
1
10
45.637919406008
20
-1.67032615470623
30
0
41
1
10
46.0418350700666
20
-1.80799426175849
30
0
41
1
10
46.2439722281752
20
-1.87381577557815
30
0
41
1
10
46.6481619151815
20
-2.00104267896944
30
0
41
1
10
46.8502490451702
20
-2.06243945970399
30
0
41
1
10
47.2546333595365
20
-2.1794961355352
30
0
41
1
10
47.4569380142489
20
-2.23510355359406
30
0
41
1
10
47.8616621348883
20
-2.34160655146883
30
0
41
1
10
48.0641230930456
20
-2.39230290074866
30
0
41
1
10
48.470204210866
20
-2.48661901720047
30
0
41
1
10
48.6737061541097
20
-2.53027481955965
30
0
41
1
10
49.0814775893261
20
-2.61180533117394
30
0
41
1
10
49.2859625494355
20
-2.64973987368569
30
0
41
1
10
49.695084094571
20
-2.71794494683874
30
0
41
1
10
49.8991148065909
20
-2.74827300300606
30
0
41
1
10
50.5113390015568
20
-2.82913033654927
30
0
41
1
10
50.9193004078617
20
-2.86830161606895
30
0
41
1
10
51.5313998561351
20
-2.904262920284
30
0
41
1
10
51.735370775064
20
-2.9133652845259
30
0
41
1
10
52.1435344432522
20
-2.92265651111379
30
0
41
1
10
52.3481363607832
20
-2.92289263987206
30
0
41
1
10
52.9619908728528
20
-2.9128843307326
30
0
41
1
10
53.3703887614263
20
-2.89160848119408
30
0
41
1
10
53.9821457272451
20
-2.83695598238458
30
0
41
1
10
54.1857838617372
20
-2.81568560534754
30
0
41
1
10
54.5937806039561
20
-2.76538458399139
30
0
41
1
10
54.7980048348937
20
-2.73598375894557
30
0
41
1
10
55.2069299188299
20
-2.66979912402996
30
0
41
1
10
55.4119198222576
20
-2.63298910173714
30
0
41
1
10
55.8206250465519
20
-2.55297848909913
30
0
41
1
10
56.0243614388072
20
-2.50972037474833
30
0
41
1
10
56.4308920886804
20
-2.4171308208328
30
0
41
1
10
56.634054065868
20
-2.36858078486753
30
0
41
1
10
57.0396405376654
20
-2.26525592324373
30
0
41
1
10
57.2421240313438
20
-2.21022275965876
30
0
41
1
10
57.8489998189638
20
-2.03660683683037
30
0
41
1
10
58.2523390822481
20
-1.9086642619508
30
0
41
1
10
58.7185606561155
20
-1.75247582689749
30
0
41
1
10
58.7807825009007
20
-1.73144598928482
30
0
41
1
10
58.843012225873
20
-1.71022461818336
30
0
0
SPLINE
5
B6
100
AcDbEntity
8
1
62
256
6
ByLayer
370
18
48
1
60
0
100
AcDbSpline
70
4
71
3
72
42
73
38
40
0
40
0
40
0
40
0
40
0.0370618783920415
40
0.0370618783920415
40
0.0852087844724397
40
0.0852087844724397
40
0.133355690552838
40
0.133355690552838
40
0.181502596633236
40
0.181502596633236
40
0.229649502713634
40
0.229649502713634
40
0.277796408794033
40
0.277796408794033
40
0.325943314874432
40
0.325943314874432
40
0.37409022095483
40
0.37409022095483
40
0.422237127035228
40
0.422237127035228
40
0.470384033115626
40
0.470384033115626
40
0.518530939196025
40
0.518530939196025
40
0.566677845276423
40
0.566677845276423
40
0.614824751356822
40
0.614824751356822
40
0.711118563517618
40
0.711118563517618
40
0.807412375678415
40
0.807412375678415
40
0.855559281758811
40
0.855559281758811
40
0.903706187839209
40
0.903706187839209
40
1
40
1
40
1
40
1
41
1
10
74.0456013924909
20
2.93491458659833
30
0
41
1
10
74.2027498854252
20
2.93482293032613
30
0
41
1
10
74.3597866672879
20
2.93246060374696
30
0
41
1
10
74.7203461576736
20
2.92185600919393
30
0
41
1
10
74.9237921203355
20
2.91203040215285
30
0
41
1
10
75.3312147248926
20
2.88571459756102
30
0
41
1
10
75.5350175215357
20
2.86894063861311
30
0
41
1
10
75.9429840682183
20
2.82696701642144
30
0
41
1
10
76.1471394404958
20
2.80222032799276
30
0
41
1
10
76.5557796685116
20
2.74575329912926
30
0
41
1
10
76.7599549046159
20
2.71365478056322
30
0
41
1
10
77.1667261815161
20
2.6423659414281
30
0
41
1
10
77.3699333267178
20
2.60378798348981
30
0
41
1
10
77.7755523528933
20
2.5204613228959
30
0
41
1
10
77.9780079835409
20
2.47553004729917
30
0
41
1
10
78.382374651494
20
2.379111920767
30
0
41
1
10
78.5842779879267
20
2.3277887651164
30
0
41
1
10
78.9875550496938
20
2.21921316880227
30
0
41
1
10
79.1889909441791
20
2.16193812030215
30
0
41
1
10
79.5922686248839
20
2.04259571379492
30
0
41
1
10
79.7939653136323
20
1.98028236155386
30
0
41
1
10
80.197479949719
20
1.85102727256052
30
0
41
1
10
80.3992494838728
20
1.78443574818357
30
0
41
1
10
80.8031827163329
20
1.64526548405109
30
0
41
1
10
81.0051846415117
20
1.57262161555619
30
0
41
1
10
81.4102681431343
20
1.42418991064702
30
0
41
1
10
81.6132860702372
20
1.34824025273969
30
0
41
1
10
82.2235857238414
20
1.11520295070863
30
0
41
1
10
82.6330213783267
20
0.952980946509342
30
0
41
1
10
83.4476220670868
20
0.618054590202831
30
0
41
1
10
83.854728605168
20
0.447877113178947
30
0
41
1
10
84.4656675235822
20
0.19015517212253
30
0
41
1
10
84.6693813114879
20
0.103855572662923
30
0
41
1
10
85.0768852729005
20
-0.0695775383877333
30
0
41
1
10
85.2806243111498
20
-0.156944409799337
30
0
41
1
10
85.8932958195431
20
-0.416496619636888
30
0
41
1
10
86.3004240331948
20
-0.586760723605693
30
0
41
1
10
86.7066214768656
20
-0.753666196312764
30
0
0
SPLINE
5
B7
100
AcDbEntity
8
1
62
256
6
ByLayer
370
18
48
1
60
0
100
AcDbSpline
70
4
71
3
72
10
73
6
40
0
40
0
40
0
40
0
40
0.5
40
0.5
40
1
40
1
40
1
40
1
41
1
10
7.14261228191521
20
2.08021554679715
30
0
41
1
10
7.12389556374148
20
2.0862332993199
30
0
41
1
10
7.10656042502495
20
2.09376027181997
30
0
41
1
10
7.07455976038852
20
2.11164324181371
30
0
41
1
10
7.0598881191531
20
2.12208755981953
30
0
41
1
10
7.04737270936226
20
2.13337691294103
30
0
0
SPLINE
5
B8
100
AcDbEntity
8
1
62
256
6
ByLayer
370
18
48
1
60
0
100
AcDbSpline
70
4
71
3
72
8
73
4
40
0
40
0
40
0
40
0
40
1
40
1
40
1
40
1
41
1
10
89.9999534211381
20
0.0339888091492924
30
0
41
1
10
90.000015526223
20
0.0113296263068037
30
0
41
1
10
90.000015526223
20
-0.0113296262987603
30
0
41
1
10
89.9999534211381
20
-0.033988809141249
30
0
0
SPLINE
5
B9
100
AcDbEntity
8
1
62
256
6
ByLayer
370
18
48
1
60
0
100
AcDbSpline
70
4
71
3
72
8
73
4
40
0
40
0
40
0
40
0
40
1
40
1
40
1
40
1
41
1
10
88.8853790070199
20
-2.93810124741071
30
0
41
1
10
88.8939947344268
20
-2.94267975896636
30
0
41
1
10
88.9034121629261
20
-2.94495551046788
30
0
41
1
10
88.9136547253286
20
-2.94495557486405
30
0
0
SPLINE
5
BA
100
AcDbEntity
8
1
62
256
6
ByLayer
370
18
48
1
60
0
100
AcDbSpline
70
4
71
3
72
14
73
10
40
0
40
0
40
0
40
0
40
0.25
40
0.25
40
0.5
40
0.5
40
0.75
40
0.75
40
1
40
1
40
1
40
1
41
1
10
88.9279720935256
20
-2.94357815604442
30
0
41
1
10
88.9301963179241
20
-2.94316511432089
30
0
41
1
10
88.9317008477468
20
-2.94466454373048
30
0
41
1
10
88.9328070472251
20
-2.95248059389962
30
0
41
1
10
88.9323407841388
20
-2.95883028748616
30
0
41
1
10
88.9290154826446
20
-2.97613919515476
30
0
41
1
10
88.9260990738094
20
-2.98725869394852
30
0
41
1
10
88.9184692268861
20
-3.01155084728623
30
0
41
1
10
88.9137900544051
20
-3.02467035013299
30
0
41
1
10
88.9088238766204
20
-3.03740160500359
30
0
0
SPLINE
5
BB
100
AcDbEntity
8
1
62
256
6
ByLayer
370
13
48
1
60
0
100
AcDbSpline
70
4
71
3
72
20
73
16
40
0
40
0
40
0
40
0
40
0.210256497276944
40
0.210256497276944
40
0.315384745915416
40
0.315384745915416
40
0.420512994553888
40
0.420512994553888
40
0.630769491830832
40
0.630769491830832
40
0.735897740469304
40
0.735897740469304
40
0.841025989107776
40
0.841025989107776
40
1
40
1
40
1
40
1
41
1
10
7.24364856549551
20
2.02030419606757
30
0
41
1
10
7.24367786648762
20
2.1377018768402
30
0
41
1
10
7.24370251300672
20
2.2439923931704
30
0
41
1
10
7.24373468143034
20
2.38727978834004
30
0
41
1
10
7.24374459990577
20
2.43233616415998
30
0
41
1
10
7.2437631591917
20
2.5169468809014
30
0
41
1
10
7.24377181658713
20
2.55657220749657
30
0
41
1
10
7.24379596005497
20
2.6651195455064
30
0
41
1
10
7.24380979821808
20
2.72451699384445
30
0
41
1
10
7.24382924373896
20
2.79453689405912
30
0
41
1
10
7.24383550169878
20
2.81468069028514
30
0
41
1
10
7.24384786725523
20
2.8484328456251
30
0
41
1
10
7.24385399298046
20
2.86204312100472
30
0
41
1
10
7.24386925344606
20
2.88732747619648
30
0
41
1
10
7.24387839602096
20
2.894687989864
30
0
41
1
10
7.24388783938591
20
2.89430575187222
30
0
0
SPLINE
5
BC
100
AcDbEntity
8
1
62
256
6
ByLayer
370
18
48
1
60
0
100
AcDbSpline
70
4
71
3
72
14
73
10
40
0
40
0
40
0
40
0
40
0.163202983763972
40
0.163202983763972
40
0.442135322509315
40
0.442135322509315
40
0.721067661254658
40
0.721067661254658
40
1
40
1
40
1
40
1
41
1
10
7.0123465401594
20
-3.04870397955352
30
0
41
1
10
7.012350034164
20
-3.04875648011461
30
0
41
1
10
7.0123536315626
20
-3.0436105752888
30
0
41
1
10
7.01236373238882
20
-3.01559743635653
30
0
41
1
10
7.01237051060966
20
-2.98309621690922
30
0
41
1
10
7.0123851715075
20
-2.88855324960369
30
0
41
1
10
7.01239312680417
20
-2.82571027261065
30
0
41
1
10
7.01240937633119
20
-2.67425472587732
30
0
41
1
10
7.01241771501412
20
-2.58553018531964
30
0
41
1
10
7.01242590549114
20
-2.48380480311968
30
0
0
SPLINE
5
BD
100
AcDbEntity
8
1
62
256
6
ByLayer
370
18
48
1
60
0
100
AcDbSpline
70
4
71
3
72
10
73
6
40
0
40
0
40
0
40
0
40
0.5
40
0.5
40
1
40
1
40
1
40
1
41
1
10
88.9853580315319
20
0.76546936246848
30
0
41
1
10
89.1362900033388
20
0.760027323072279
30
0
41
1
10
89.2872065503267
20
0.754706696821046
30
0
41
1
10
89.5888704433191
20
0.745397273465869
30
0
41
1
10
89.7396624202718
20
0.741057173454351
30
0
41
1
10
89.890478002792
20
0.736531267295391
30
0
0
SPLINE
5
BE
100
AcDbEntity
8
1
62
256
6
ByLayer
370
18
48
1
60
0
100
AcDbSpline
70
4
71
3
72
82
73
78
40
0
40
0
40
0
40
0
40
0.0274385325129827
40
0.0274385325129827
40
0.0494591491914018
40
0.0494591491914018
40
0.0714797658698209
40
0.0714797658698209
40
0.11552099922666
40
0.11552099922666
40
0.13754161590508
40
0.13754161590508
40
0.159562232583499
40
0.159562232583499
40
0.181582849261919
40
0.181582849261919
40
0.203603465940339
40
0.203603465940339
40
0.247644699297179
40
0.247644699297179
40
0.269665315975599
40
0.269665315975599
40
0.291685932654019
40
0.291685932654019
40
0.335727166010858
40
0.335727166010858
40
0.357747782689277
40
0.357747782689277
40
0.379768399367697
40
0.379768399367697
40
0.401789016046116
40
0.401789016046116
40
0.423809632724535
40
0.423809632724535
40
0.467850866081373
40
0.467850866081373
40
0.489871482759793
40
0.489871482759793
40
0.511892099438212
40
0.511892099438212
40
0.555933332795051
40
0.555933332795051
40
0.57795394947347
40
0.57795394947347
40
0.599974566151888
40
0.599974566151888
40
0.621995182830307
40
0.621995182830307
40
0.644015799508726
40
0.644015799508726
40
0.688057032865563
40
0.688057032865563
40
0.710077649543981
40
0.710077649543981
40
0.732098266222399
40
0.732098266222399
40
0.776139499579237
40
0.776139499579237
40
0.798160116257656
40
0.798160116257656
40
0.820180732936074
40
0.820180732936074
40
0.842201349614493
40
0.842201349614493
40
0.864221966292912
40
0.864221966292912
40
0.886242582971331
40
0.886242582971331
40
0.90826319964975
40
0.90826319964975
40
0.930283816328168
40
0.930283816328168
40
0.952304433006587
40
0.952304433006587
40
0.996345666363424
40
0.996345666363424
40
1
40
1
40
1
40
1
41
1
10
15.3448099468838
20
1.69868485305523
30
0
41
1
10
15.6059277518558
20
1.79431615651635
30
0
41
1
10
15.8667997400653
20
1.88539912494798
30
0
41
1
10
16.3360690558529
20
2.04278215478354
30
0
41
1
10
16.5447283370578
20
2.11025161388142
30
0
41
1
10
16.9610940510535
20
2.24049248590333
30
0
41
1
10
17.1689217225746
20
2.30300258048271
30
0
41
1
10
17.7943167856299
20
2.47827639262587
30
0
41
1
10
18.2124421300651
20
2.58117685244383
30
0
41
1
10
18.8399213222884
20
2.7162601106705
30
0
41
1
10
19.0488329898941
20
2.75830816621166
30
0
41
1
10
19.4685221672058
20
2.83376540591246
30
0
41
1
10
19.6792188174739
20
2.86733436406766
30
0
41
1
10
20.1018793441822
20
2.92666465950211
30
0
41
1
10
20.3129239901659
20
2.95232865384779
30
0
41
1
10
20.7333137334326
20
2.99551742971048
30
0
41
1
10
20.9426274091517
20
3.01315545049249
30
0
41
1
10
21.5691301907603
20
3.05334107854606
30
0
41
1
10
21.987038206019
20
3.06285894155266
30
0
41
1
10
22.6122824377267
20
3.05287031658301
30
0
41
1
10
22.8205185590004
20
3.04544701799571
30
0
41
1
10
23.2361672267704
20
3.02200790182548
30
0
41
1
10
23.443944851702
20
3.00603439480776
30
0
41
1
10
24.0692781204203
20
2.94658451387994
30
0
41
1
10
24.4876295781452
20
2.89140375593095
30
0
41
1
10
25.1159789826959
20
2.78349909398713
30
0
41
1
10
25.3253259693515
20
2.74295759874298
30
0
41
1
10
25.7462594147148
20
2.65519422989698
30
0
41
1
10
25.9578722269252
20
2.60781526018675
30
0
41
1
10
26.3800510563605
20
2.506263440163
30
0
41
1
10
26.5908512675297
20
2.45198890025094
30
0
41
1
10
27.0118686167792
20
2.33636471643112
30
0
41
1
10
27.221751098643
20
2.27449672119545
30
0
41
1
10
27.8519224257148
20
2.08008743162878
30
0
41
1
10
28.2738886381933
20
1.94095118555623
30
0
41
1
10
28.9074954957621
20
1.71471038594882
30
0
41
1
10
29.1184102246036
20
1.63664110494145
30
0
41
1
10
29.538742705114
20
1.47442050256373
30
0
41
1
10
29.7489823067318
20
1.39169213283722
30
0
41
1
10
30.3806104415069
20
1.1402904442688
30
0
41
1
10
30.8021814842384
20
0.967026182317625
30
0
41
1
10
31.433823223975
20
0.695204349180983
30
0
41
1
10
31.6444091745814
20
0.602372952561495
30
0
41
1
10
32.0660820795574
20
0.418366492127916
30
0
41
1
10
32.2769995788061
20
0.326538923096535
30
0
41
1
10
32.698421179456
20
0.141925940855657
30
0
41
1
10
32.9089633730738
20
0.0492271825931141
30
0
41
1
10
33.3296203865743
20
-0.137160415369863
30
0
41
1
10
33.539356375948
20
-0.23171173319372
30
0
41
1
10
34.1703792714146
20
-0.51126061104523
30
0
41
1
10
34.5943213586232
20
-0.693157687492203
30
0
41
1
10
35.2247247720395
20
-0.960221427123884
30
0
41
1
10
35.4340447149547
20
-1.04856250593099
30
0
41
1
10
35.851554936365
20
-1.2226055848592
30
0
41
1
10
36.0603552873017
20
-1.30696799572411
30
0
41
1
10
36.686658493316
20
-1.55299598867577
30
0
41
1
10
37.103754500426
20
-1.70836673692369
30
0
41
1
10
37.7273334343584
20
-1.93071158317585
30
0
41
1
10
37.9350747289962
20
-2.0025554835874
30
0
41
1
10
38.3519938576602
20
-2.13883311039723
30
0
41
1
10
38.5609130721356
20
-2.20375853988082
30
0
41
1
10
38.9791447303877
20
-2.32808643728958
30
0
41
1
10
39.188521631743
20
-2.38737847691789
30
0
41
1
10
39.6076608690703
20
-2.50025229734413
30
0
41
1
10
39.8171261461977
20
-2.55421228892266
30
0
41
1
10
40.2382743336552
20
-2.65367531576277
30
0
41
1
10
40.449679751273
20
-2.69939521770715
30
0
41
1
10
40.8705884327798
20
-2.78297941580254
30
0
41
1
10
41.0804704501484
20
-2.82097432140719
30
0
41
1
10
41.4990915181809
20
-2.8893470033677
30
0
41
1
10
41.7075518762589
20
-2.91992592744543
30
0
41
1
10
42.1239904457665
20
-2.97273778316415
30
0
41
1
10
42.3323535390655
20
-2.99476933386825
30
0
41
1
10
42.9575325687262
20
-3.04855225863002
30
0
41
1
10
43.3741730132158
20
-3.06830247360054
30
0
41
1
10
43.8242344769671
20
-3.07165024608969
30
0
41
1
10
43.8587221297067
20
-3.07178895341838
30
0
41
1
10
43.8932171745735
20
-3.07181064072603
30
0
0
SPLINE
5
BF
100
AcDbEntity
8
1
62
256
6
ByLayer
370
18
48
1
60
0
100
AcDbSpline
70
4
71
3
72
84
73
80
40
0
40
0
40
0
40
0
40
0.000615494718156
40
0.000615494718156
40
0.0445792749418975
40
0.0445792749418975
40
0.0665611650537689
40
0.0665611650537689
40
0.0885430551656402
40
0.0885430551656402
40
0.110524945277511
40
0.110524945277511
40
0.132506835389383
40
0.132506835389383
40
0.176470615613125
40
0.176470615613125
40
0.198452505724996
40
0.198452505724996
40
0.220434395836867
40
0.220434395836867
40
0.264398176060607
40
0.264398176060607
40
0.286380066172476
40
0.286380066172476
40
0.308361956284346
40
0.308361956284346
40
0.330343846396215
40
0.330343846396215
40
0.352325736508085
40
0.352325736508085
40
0.396289516731825
40
0.396289516731825
40
0.418271406843696
40
0.418271406843696
40
0.440253296955566
40
0.440253296955566
40
0.484217077179307
40
0.484217077179307
40
0.506198967291177
40
0.506198967291177
40
0.528180857403047
40
0.528180857403047
40
0.550162747514917
40
0.550162747514917
40
0.572144637626787
40
0.572144637626787
40
0.616108417850528
40
0.616108417850528
40
0.638090307962398
40
0.638090307962398
40
0.660072198074269
40
0.660072198074269
40
0.704035978298009
40
0.704035978298009
40
0.726017868409879
40
0.726017868409879
40
0.747999758521749
40
0.747999758521749
40
0.769981648633619
40
0.769981648633619
40
0.791963538745489
40
0.791963538745489
40
0.83592731896923
40
0.83592731896923
40
0.857909209081101
40
0.857909209081101
40
0.879891099192971
40
0.879891099192971
40
0.901872989304842
40
0.901872989304842
40
0.923854879416713
40
0.923854879416713
40
0.945836769528583
40
0.945836769528583
40
0.967818659640454
40
0.967818659640454
40
0.989800549752325
40
0.989800549752325
40
1
40
1
40
1
40
1
41
1
10
58.8300538203115
20
1.70583208432532
30
0
41
1
10
58.8359398233294
20
1.70801564023907
30
0
41
1
10
58.8418262134378
20
1.71019645037964
30
0
41
1
10
59.2681975036614
20
1.86794698494864
30
0
41
1
10
59.6893657805299
20
2.01225858398465
30
0
41
1
10
60.3205480156012
20
2.21447098322574
30
0
41
1
10
60.5306634718543
20
2.27994401941461
30
0
41
1
10
60.9520589310559
20
2.40272401454666
30
0
41
1
10
61.1630223824879
20
2.4602167197128
30
0
41
1
10
61.5850037564687
20
2.56829834908788
30
0
41
1
10
61.7959682519138
20
2.61894370935767
30
0
41
1
10
62.2178421244094
20
2.71332832120339
30
0
41
1
10
62.4281833981136
20
2.75726869797052
30
0
41
1
10
63.0583203740309
20
2.87703886788154
30
0
41
1
10
63.4794568895288
20
2.93953052216361
30
0
41
1
10
64.1105889907581
20
3.00986634764931
30
0
41
1
10
64.32096378177
20
3.02930343041129
30
0
41
1
10
64.7412420301042
20
3.05999967244489
30
0
41
1
10
64.9519045024564
20
3.07100589308396
30
0
41
1
10
65.5841766591037
20
3.09091619193922
30
0
41
1
10
66.005405956606
20
3.08732357278569
30
0
41
1
10
66.6353359278168
20
3.05617577971719
30
0
41
1
10
66.8448245395577
20
3.04130923074501
30
0
41
1
10
67.2653828106895
20
3.00356587268044
30
0
41
1
10
67.4761998868695
20
2.98068061682423
30
0
41
1
10
67.8983377680427
20
2.9266987038138
30
0
41
1
10
68.108999576675
20
2.89566875680029
30
0
41
1
10
68.5286616395167
20
2.82558864550052
30
0
41
1
10
68.7374301903859
20
2.78613243304599
30
0
41
1
10
69.3634853700803
20
2.65738651114145
30
0
41
1
10
69.7809544984785
20
2.55864015480472
30
0
41
1
10
70.4053712348233
20
2.38950109726568
30
0
41
1
10
70.6132545940839
20
2.3296302928812
30
0
41
1
10
71.0282564397638
20
2.20225226384511
30
0
41
1
10
71.2361476491377
20
2.13594605955987
30
0
41
1
10
71.8612237166151
20
1.92997227194039
30
0
41
1
10
72.2792611243065
20
1.78249383337771
30
0
41
1
10
72.9070149526389
20
1.54267221721949
30
0
41
1
10
73.1163706700275
20
1.45949600784942
30
0
41
1
10
73.5374493655166
20
1.29131323261717
30
0
41
1
10
73.7486355403119
20
1.20588701841498
30
0
41
1
10
74.1689800748795
20
1.03234803861162
30
0
41
1
10
74.3785701922046
20
0.944160416534231
30
0
41
1
10
74.7964959420352
20
0.764740774079968
30
0
41
1
10
75.00446580228
20
0.672667551923496
30
0
41
1
10
75.6288261862624
20
0.397236386417973
30
0
41
1
10
76.0455029066898
20
0.21430008891943
30
0
41
1
10
76.669274105037
20
-0.0634368280159379
30
0
41
1
10
76.876952485467
20
-0.1566604093737
30
0
41
1
10
77.2920164959439
20
-0.343946614794703
30
0
41
1
10
77.5001206351493
20
-0.436348353072844
30
0
41
1
10
78.1259303684722
20
-0.71032635609717
30
0
41
1
10
78.5447668730848
20
-0.889519508398735
30
0
41
1
10
79.1742418250653
20
-1.15599261512278
30
0
41
1
10
79.384812543348
20
-1.24422943242178
30
0
41
1
10
79.8054155519232
20
-1.41386363126404
30
0
41
1
10
80.0154226574269
20
-1.49599332483842
30
0
41
1
10
80.4343489693754
20
-1.6561403607904
30
0
41
1
10
80.6433258934625
20
-1.73402702301124
30
0
41
1
10
81.0601573414174
20
-1.88564460682352
30
0
41
1
10
81.2676782957778
20
-1.9599432369578
30
0
41
1
10
81.8912432391858
20
-2.17157307881075
30
0
41
1
10
82.3076722448966
20
-2.29917276526089
30
0
41
1
10
82.9315588339741
20
-2.47360816536792
30
0
41
1
10
83.1392529046482
20
-2.52906141734331
30
0
41
1
10
83.5549236518305
20
-2.6332063777993
30
0
41
1
10
83.7634317976879
20
-2.68123836009445
30
0
41
1
10
84.1815728407325
20
-2.769720125204
30
0
41
1
10
84.3911261998799
20
-2.81026123744198
30
0
41
1
10
84.8109702835313
20
-2.88407586185775
30
0
41
1
10
85.0216224276415
20
-2.91732270610822
30
0
41
1
10
85.4421247470425
20
-2.97619138768877
30
0
41
1
10
85.651751666554
20
-3.00138680742341
30
0
41
1
10
86.0711709460311
20
-3.04282973210752
30
0
41
1
10
86.2807285866828
20
-3.05926839295651
30
0
41
1
10
86.6990523188327
20
-3.08394716003926
30
0
41
1
10
86.9078927253681
20
-3.09215404297029
30
0
41
1
10
87.2130043782965
20
-3.09802482109666
30
0
41
1
10
87.3095548577778
20
-3.09896671578133
30
0
41
1
10
87.4060830564251
20
-3.0989921357592
30
0
0
SPLINE
5
C0
100
AcDbEntity
8
1
62
256
6
ByLayer
370
18
48
1
60
0
100
AcDbSpline
70
4
71
3
72
14
73
10
40
0
40
0
40
0
40
0
40
0.25
40
0.25
40
0.5
40
0.5
40
0.75
40
0.75
40
1
40
1
40
1
40
1
41
1
10
7.01242590549111
20
-2.48380480311965
30
0
41
1
10
7.0242400164106
20
-2.45781021547745
30
0
41
1
10
7.04237233197858
20
-2.43842002890429
30
0
41
1
10
7.08230869930105
20
-2.41793274703886
30
0
41
1
10
7.1035815048015
20
-2.415701336653
30
0
41
1
10
7.14562187372263
20
-2.41990413482372
30
0
41
1
10
7.16592253652288
20
-2.42623844557053
30
0
41
1
10
7.20566959254125
20
-2.4437567100772
30
0
41
1
10
7.2251502640963
20
-2.4550843858122
30
0
41
1
10
7.24403188953039
20
-2.46814202942608
30
0
0
SPLINE
5
C1
100
AcDbEntity
8
1
62
256
6
ByLayer
370
18
48
1
60
0
100
AcDbSpline
70
4
71
3
72
55
73
51
40
0
40
0
40
0
40
0
40
0.0624999999999956
40
0.0624999999999956
40
0.0937499999999943
40
0.0937499999999943
40
0.124999999999993
40
0.124999999999993
40
0.249999999999985
40
0.249999999999985
40
0.312499999999981
40
0.312499999999981
40
0.343749999999979
40
0.343749999999979
40
0.374999999999977
40
0.374999999999977
40
0.437499999999974
40
0.437499999999974
40
0.468749999999973
40
0.468749999999973
40
0.499999999999971
40
0.499999999999971
40
0.562499999999968
40
0.562499999999968
40
0.593749999999967
40
0.593749999999967
40
0.624999999999966
40
0.624999999999966
40
0.687499999999965
40
0.687499999999965
40
0.703124999999965
40
0.703124999999965
40
0.710937499999965
40
0.710937499999965
40
0.714843749999966
40
0.714843749999966
40
0.718749999999967
40
0.718749999999967
40
0.726562499999967
40
0.726562499999967
40
0.730468749999967
40
0.730468749999967
40
0.734374999999966
40
0.749999999999969
40
0.749999999999969
40
0.812499999999977
40
0.812499999999977
40
0.874999999999985
40
0.874999999999985
40
1
40
1
40
1
40
1
41
1
10
7.01242590549114
20
-2.48380480311968
30
0
41
1
10
6.93131398813176
20
-2.41784711792388
30
0
41
1
10
6.85277915851176
20
-2.34581999336319
30
0
41
1
10
6.73913312748272
20
-2.22772995479781
30
0
41
1
10
6.70194679829643
20
-2.18668647318918
30
0
41
1
10
6.62905961074489
20
-2.10099879574702
30
0
41
1
10
6.59326238324482
20
-2.05621510567679
30
0
41
1
10
6.42034213512156
20
-1.82530591036743
30
0
41
1
10
6.29957147966888
20
-1.61774977593731
30
0
41
1
10
6.15474392054381
20
-1.26170049816972
30
0
41
1
10
6.11365282527339
20
-1.1376065939676
30
0
41
1
10
6.06511505714172
20
-0.944655888654438
30
0
41
1
10
6.05108791518012
20
-0.879096738303247
30
0
41
1
10
6.02776117308309
20
-0.745313833338429
30
0
41
1
10
6.01842754100733
20
-0.67668064955572
30
0
41
1
10
5.99865077882092
20
-0.46962044904123
30
0
41
1
10
5.99633951436687
20
-0.331010812405026
30
0
41
1
10
6.01015869185457
20
-0.122315032647634
30
0
41
1
10
6.0176563238756
20
-0.0526190807869398
30
0
41
1
10
6.03873938962215
20
0.0870267839171674
30
0
41
1
10
6.0524000704774
20
0.157086237691061
30
0
41
1
10
6.10154691936845
20
0.362260957229523
30
0
41
1
10
6.14537902908361
20
0.49422554514328
30
0
41
1
10
6.2267442704179
20
0.685534633755111
30
0
41
1
10
6.25663131286882
20
0.748450109236927
30
0
41
1
10
6.3203217120469
20
0.869932486918685
30
0
41
1
10
6.35419242086962
20
0.928722241483371
30
0
41
1
10
6.4613573101033
20
1.09982325397132
30
0
41
1
10
6.540189799709
20
1.20688714944848
30
0
41
1
10
6.64677194706701
20
1.33332273181094
30
0
41
1
10
6.66849249970713
20
1.35823787163631
30
0
41
1
10
6.701662500384
20
1.3950721201536
30
0
41
1
10
6.71281950243292
20
1.40726271343681
30
0
41
1
10
6.72969356103067
20
1.4254088954265
30
0
41
1
10
6.73533884253575
20
1.43143167016686
30
0
41
1
10
6.74667018546523
20
1.44342593953078
30
0
41
1
10
6.75205699926693
20
1.44972063825253
30
0
41
1
10
6.77040727650325
20
1.46624819596229
30
0
41
1
10
6.78817490275915
20
1.47156751534956
30
0
41
1
10
6.81438029113247
20
1.47222202785474
30
0
41
1
10
6.82310748392212
20
1.47182464016197
30
0
41
1
10
6.84056841902373
20
1.47153781769842
30
0
41
1
10
6.88421978438248
20
1.47071614958321
30
0
41
1
10
6.9278621642309
20
1.46937208757143
30
0
41
1
10
7.10226400856516
20
1.46233890948295
30
0
41
1
10
7.24170142435713
20
1.45137916467263
30
0
41
1
10
7.51789509593357
20
1.41913112051395
30
0
41
1
10
7.65456984204945
20
1.39788058375925
30
0
41
1
10
8.06047615959045
20
1.31876789104606
30
0
41
1
10
8.32560094972061
20
1.2456552478728
30
0
41
1
10
8.585439470887
20
1.15065020255679
30
0
0
SPLINE
5
C2
100
AcDbEntity
8
1
62
256
6
ByLayer
370
18
48
1
60
0
100
AcDbSpline
70
4
71
3
72
33
73
29
40
0
40
0
40
0
40
0
40
0.125000000000003
40
0.125000000000003
40
0.250000000000007
40
0.250000000000007
40
0.500000000000005
40
0.500000000000005
40
0.625000000000004
40
0.625000000000004
40
0.750000000000003
40
0.750000000000003
40
0.812500000000003
40
0.812500000000003
40
0.843750000000005
40
0.851562500000003
40
0.851562500000003
40
0.859375000000001
40
0.859375000000001
40
0.874999999999998
40
0.874999999999998
40
0.882812499999997
40
0.882812499999997
40
0.890624999999996
40
0.890624999999996
40
0.906249999999996
40
0.937499999999998
40
1
40
1
40
1
40
1
41
1
10
86.7066214768664
20
-0.753666196313105
30
0
41
1
10
86.8356609102602
20
-0.773289822151725
30
0
41
1
10
86.9642761927583
20
-0.786216900224531
30
0
41
1
10
87.2205268387282
20
-0.796599971354254
30
0
41
1
10
87.3486450084215
20
-0.794050170435668
30
0
41
1
10
87.7216107933667
20
-0.757509276643532
30
0
41
1
10
87.9584351169281
20
-0.697291251643293
30
0
41
1
10
88.2920071579903
20
-0.541239851675044
30
0
41
1
10
88.3997460407161
20
-0.477785832447182
30
0
41
1
10
88.6015271682946
20
-0.330211665526633
30
0
41
1
10
88.6962325108489
20
-0.245757995007864
30
0
41
1
10
88.8274221579705
20
-0.105182674606482
30
0
41
1
10
88.869366145553
20
-0.0560116286909818
30
0
41
1
10
88.9295305146064
20
0.0208492368323618
30
0
41
1
10
88.954019198251
20
0.0535099869041176
30
0
41
1
10
88.9778029345986
20
0.0869432678366593
30
0
41
1
10
88.9872604135918
20
0.100377965986752
30
0
41
1
10
88.9915293865128
20
0.107841987848218
30
0
41
1
10
88.9992048807773
20
0.134152246007574
30
0
41
1
10
88.9983389067609
20
0.154646119095133
30
0
41
1
10
88.9924300587042
20
0.18464689510597
30
0
41
1
10
88.9897112860759
20
0.194665613949041
30
0
41
1
10
88.9846134036768
20
0.214662817229254
30
0
41
1
10
88.9821462942131
20
0.224672166646997
30
0
41
1
10
88.9746253432083
20
0.254684503669864
30
0
41
1
10
88.9595574475215
20
0.314705716593323
30
0
41
1
10
88.9242223017773
20
0.454732377298456
30
0
41
1
10
88.893649235334
20
0.574715056066424
30
0
41
1
10
88.8731498752998
20
0.654687035073749
30
0
0
SPLINE
5
C3
100
AcDbEntity
8
1
62
256
6
ByLayer
370
18
48
1
60
0
100
AcDbSpline
70
4
71
3
72
16
73
12
40
0
40
0
40
0
40
0
40
0.195379306605593
40
0.195379306605593
40
0.320944990566836
40
0.320944990566836
40
0.446510674528079
40
0.446510674528079
40
0.697642042450572
40
0.697642042450572
40
1
40
1
40
1
40
1
41
1
10
66.9899534323529
20
-2.93126400141975
30
0
41
1
10
66.659271804407
20
-2.93156187748457
30
0
41
1
10
66.3276723708835
20
-2.92185197483457
30
0
41
1
10
65.7806124573749
20
-2.88914122335751
30
0
41
1
10
65.5662474076034
20
-2.87214511197709
30
0
41
1
10
65.1393087477462
20
-2.83016729174457
30
0
41
1
10
64.9263547989817
20
-2.80516339251213
30
0
41
1
10
64.2886174296023
20
-2.71850066949818
30
0
41
1
10
63.8649853159831
20
-2.64519671928113
30
0
41
1
10
62.9323718210198
20
-2.45240975246591
30
0
41
1
10
62.4235357708565
20
-2.32638133340302
30
0
41
1
10
61.9135259491614
20
-2.18232648453702
30
0
0
SPLINE
5
C4
100
AcDbEntity
8
1
62
256
6
ByLayer
370
13
48
1
60
0
100
AcDbSpline
70
4
71
3
72
24
73
20
40
0
40
0
40
0
40
0
40
0.100697822008468
40
0.100697822008468
40
0.163948951017294
40
0.163948951017294
40
0.227200080026121
40
0.227200080026121
40
0.353702338043774
40
0.353702338043774
40
0.606706854079078
40
0.606706854079078
40
0.733209112096731
40
0.733209112096731
40
0.859711370114384
40
0.859711370114384
40
0.986213628132038
40
0.986213628132038
40
1
40
1
40
1
40
1
41
1
10
61.9135249869127
20
-2.18232621274495
30
0
41
1
10
61.5763309389214
20
-2.08708403688772
30
0
41
1
10
61.2386238090123
20
-1.98396211175361
30
0
41
1
10
60.6871100205805
20
-1.80450154049575
30
0
41
1
10
60.4739276006632
20
-1.73250601174485
30
0
41
1
10
60.0464616376476
20
-1.58344886316919
30
0
41
1
10
59.8318270047466
20
-1.50625302237032
30
0
41
1
10
59.190380560332
20
-1.2693955430459
30
0
41
1
10
58.7650007002856
20
-1.10407386770226
30
0
41
1
10
57.4922584204238
20
-0.59394310092523
30
0
41
1
10
56.6482587832399
20
-0.234960960384456
30
0
41
1
10
55.3765754813052
20
0.301753012178722
30
0
41
1
10
54.9517290580701
20
0.480331700862479
30
0
41
1
10
54.0979313099163
20
0.831479465758946
30
0
41
1
10
53.6684576751974
20
1.00433534358277
30
0
41
1
10
52.8130419985952
20
1.33514968242775
30
0
41
1
10
52.3859369832032
20
1.49357144900571
30
0
41
1
10
51.9116890676797
20
1.65886194724186
30
0
41
1
10
51.8650683621292
20
1.6749982149145
30
0
41
1
10
51.8184347913227
20
1.69102350244182
30
0
0
SPLINE
5
C5
100
AcDbEntity
8
1
62
256
6
ByLayer
370
18
48
1
60
0
100
AcDbSpline
70
4
71
3
72
14
73
10
40
0
40
0
40
0
40
0
40
0.199535118803305
40
0.199535118803305
40
0.776224728253409
40
0.776224728253409
40
0.920397130615935
40
0.920397130615935
40
1
40
1
40
1
40
1
41
1
10
23.4338768130624
20
-2.90392537906095
30
0
41
1
10
23.1400557208751
20
-2.90314126103948
30
0
41
1
10
22.8467106974909
20
-2.89452392283684
30
0
41
1
10
21.7060192315355
20
-2.83075159513163
30
0
41
1
10
20.8596556071555
20
-2.71846356472508
30
0
41
1
10
19.7926481324996
20
-2.50342812196376
30
0
41
1
10
19.5787888376618
20
-2.4567085415234
30
0
41
1
10
19.2459365552277
20
-2.37861505258681
30
0
41
1
10
19.1275236151856
20
-2.34977572383781
30
0
41
1
10
19.0092394509291
20
-2.31995586014077
30
0
0
SPLINE
5
C6
100
AcDbEntity
8
1
62
256
6
ByLayer
370
13
48
1
60
0
100
AcDbSpline
70
4
71
3
72
22
73
18
40
0
40
0
40
0
40
0
40
0.0266112365409971
40
0.0266112365409971
40
0.14544765246136
40
0.14544765246136
40
0.383120484302087
40
0.383120484302087
40
0.50195690022245
40
0.50195690022245
40
0.561375108182633
40
0.561375108182633
40
0.620793316142815
40
0.620793316142815
40
0.858466147983541
40
0.858466147983541
40
1
40
1
40
1
40
1
41
1
10
19.0092394481943
20
-2.31995585945125
30
0
41
1
10
18.9132937463473
20
-2.29576760254568
30
0
41
1
10
18.817432773494
20
-2.27093419532483
30
0
41
1
10
18.2943538270299
20
-2.13190735684188
30
0
41
1
10
17.8689622343399
20
-2.00603736905435
30
0
41
1
10
16.5956421144386
20
-1.59779410493175
30
0
41
1
10
15.7504354141313
20
-1.28476823777476
30
0
41
1
10
14.4760488332743
20
-0.780078008305139
30
0
41
1
10
14.0500673679198
20
-0.606209977067124
30
0
41
1
10
13.4077982907008
20
-0.340358939610439
30
0
41
1
10
13.1928380310432
20
-0.25075282994365
30
0
41
1
10
12.7647030257752
20
-0.0717562731734631
30
0
41
1
10
12.5512210283739
20
0.0177473978204432
30
0
41
1
10
11.486003256754
20
0.463461879928872
30
0
41
1
10
10.6406482528143
20
0.813575140887082
30
0
41
1
10
9.29047283659935
20
1.33283630987717
30
0
41
1
10
8.78610082860158
20
1.51762548162227
30
0
41
1
10
8.27953036557878
20
1.68942754931609
30
0
0
SPLINE
5
C7
100
AcDbEntity
8
1
62
256
6
ByLayer
370
18
48
1
60
0
100
AcDbSpline
70
4
71
3
72
8
73
4
40
0
40
0
40
0
40
0
40
1
40
1
40
1
40
1
41
1
10
89.9696078994482
20
-0.0393971575871603
30
0
41
1
10
89.9389183164913
20
-0.0964403357231163
30
0
41
1
10
89.9083784425179
20
-0.153617456289368
30
0
41
1
10
89.8779885990741
20
-0.210928806896419
30
0
0
SPLINE
5
C8
100
AcDbEntity
8
1
62
256
6
ByLayer
370
18
48
1
60
0
100
AcDbSpline
70
4
71
3
72
8
73
4
40
0
40
0
40
0
40
0
40
1
40
1
40
1
40
1
41
1
10
89.8904780028093
20
-0.736531267295248
30
0
41
1
10
89.9228470890994
20
-0.536780603896034
30
0
41
1
10
89.9518953223675
20
-0.337054927405916
30
0
41
1
10
89.977603230517
20
-0.137354384337726
30
0
0
SPLINE
5
C9
100
AcDbEntity
8
1
62
256
6
ByLayer
370
18
48
1
60
0
100
AcDbSpline
70
4
71
3
72
12
73
8
40
0
40
0
40
0
40
0
40
0.488037852237478
40
0.488037852237478
40
0.976075704474956
40
0.976075704474956
40
1
40
1
40
1
40
1
41
1
10
88.9279720937333
20
-2.94357815604178
30
0
41
1
10
88.0734841544457
20
-2.95440233282136
30
0
41
1
10
87.2269995543908
20
-2.89718258070408
30
0
41
1
10
85.5334672962916
20
-2.65799785462392
30
0
41
1
10
84.686366364319
20
-2.47582935037724
30
0
41
1
10
83.788493591843
20
-2.22790631059186
30
0
41
1
10
83.7465300525479
20
-2.21619424273933
30
0
41
1
10
83.704568482725
20
-2.20436055393165
30
0
0
SPLINE
5
CA
100
AcDbEntity
8
1
62
256
6
ByLayer
370
13
48
1
60
0
100
AcDbSpline
70
4
71
3
72
24
73
20
40
0
40
0
40
0
40
0
40
0.050554550919882
40
0.050554550919882
40
0.113440061850683
40
0.113440061850683
40
0.239211083712282
40
0.239211083712282
40
0.490753127435484
40
0.490753127435484
40
0.553638638366285
40
0.553638638366285
40
0.616524149297086
40
0.616524149297086
40
0.742295171158689
40
0.742295171158689
40
0.993837214881891
40
0.993837214881891
40
1
40
1
40
1
40
1
41
1
10
83.704568293442
20
-2.20436050055145
30
0
41
1
10
83.5325337149648
20
-2.15584459093077
30
0
41
1
10
83.360532240477
20
-2.10528441992577
30
0
41
1
10
82.9757912473455
20
-1.98799546965415
30
0
41
1
10
82.7630043101357
20
-1.920258981492
30
0
41
1
10
82.1257668848715
20
-1.70965086423851
30
0
41
1
10
81.7024728823867
20
-1.55931047237436
30
0
41
1
10
80.4339979589027
20
-1.08529272968298
30
0
41
1
10
79.5901475434605
20
-0.738669050994957
30
0
41
1
10
78.5271053624708
20
-0.29109809725972
30
0
41
1
10
78.3140759591811
20
-0.20089020375903
30
0
41
1
10
77.8869172875366
20
-0.0197137428863243
30
0
41
1
10
77.6724051090811
20
0.0714213053587684
30
0
41
1
10
77.0311587820563
20
0.343094968331798
30
0
41
1
10
76.6059257762421
20
0.522252834616296
30
0
41
1
10
75.3337868782779
20
1.04632105290855
30
0
41
1
10
74.4904698707043
20
1.37782923234721
30
0
41
1
10
73.6226645199546
20
1.67988550026868
30
0
41
1
10
73.6019094431144
20
1.68708680192088
30
0
41
1
10
73.5811519791361
20
1.69426577040196
30
0
0
SPLINE
5
CB
100
AcDbEntity
8
1
62
256
6
ByLayer
370
18
48
1
60
0
100
AcDbSpline
70
4
71
3
72
10
73
6
40
0
40
0
40
0
40
0
40
0.544572581864485
40
0.544572581864485
40
1
40
1
40
1
40
1
41
1
10
45.1898013529984
20
-2.91745814106076
30
0
41
1
10
44.4523504524158
20
-2.91572480408641
30
0
41
1
10
43.720420418067
20
-2.8642384846305
30
0
41
1
10
42.3763872078221
20
-2.68438781455146
30
0
41
1
10
41.7643219478688
20
-2.56996973520049
30
0
41
1
10
41.1491650270659
20
-2.42609842608769
30
0
0
SPLINE
5
CC
100
AcDbEntity
8
1
62
256
6
ByLayer
370
13
48
1
60
0
100
AcDbSpline
70
4
71
3
72
24
73
20
40
0
40
0
40
0
40
0
40
0.0630222505694308
40
0.0630222505694308
40
0.119898407367663
40
0.119898407367663
40
0.176774564165894
40
0.176774564165894
40
0.290526877762355
40
0.290526877762355
40
0.518031504955278
40
0.518031504955278
40
0.631783818551737
40
0.631783818551737
40
0.745536132148196
40
0.745536132148196
40
0.973040759341119
40
0.973040759341119
40
1
40
1
40
1
40
1
41
1
10
41.1491650269274
20
-2.42609842605529
30
0
41
1
10
40.9134645561466
20
-2.3709734097481
30
0
41
1
10
40.6773102055002
20
-2.31152443016805
30
0
41
1
10
40.2268327991889
20
-2.19052487616358
30
0
41
1
10
40.0121977218728
20
-2.12964796354385
30
0
41
1
10
39.5839615600116
20
-2.00230086774073
30
0
41
1
10
39.3704070838177
20
-1.93586110905883
30
0
41
1
10
38.7310272939346
20
-1.72911227286733
30
0
41
1
10
38.3064993160282
20
-1.58131455746508
30
0
41
1
10
37.0351843406114
20
-1.11430061346664
30
0
41
1
10
36.1903695481639
20
-0.772146344435328
30
0
41
1
10
34.9148565953136
20
-0.241074172197045
30
0
41
1
10
34.4882861702675
20
-0.0611531101927483
30
0
41
1
10
33.6301838371586
20
0.299252974599312
30
0
41
1
10
33.2034924889804
20
0.47776871012806
30
0
41
1
10
31.9277228857791
20
1.00013659350191
30
0
41
1
10
31.082812925601
20
1.33109192361528
30
0
41
1
10
30.1346253354999
20
1.66100285072793
30
0
41
1
10
30.0341322711551
20
1.69545755393702
30
0
41
1
10
29.9335870178229
20
1.72938294969381
30
0
0
SPLINE
5
CD
100
AcDbEntity
8
1
62
256
6
ByLayer
370
18
48
1
60
0
100
AcDbSpline
70
4
71
3
72
8
73
4
40
0
40
0
40
0
40
0
40
1
40
1
40
1
40
1
41
1
10
89.977603230517
20
-0.137354384337641
30
0
41
1
10
89.9813564284506
20
-0.108199321964946
30
0
41
1
10
89.9894782537339
20
-0.0721526439022
30
0
41
1
10
89.9999534211411
20
-0.0339888091406806
30
0
0
SPLINE
5
CE
100
AcDbEntity
8
1
62
256
6
ByLayer
370
18
48
1
60
0
100
AcDbSpline
70
4
71
3
72
38
73
34
40
0
40
0
40
0
40
0
40
0.092781507128194
40
0.092781507128194
40
0.139172260692292
40
0.139172260692292
40
0.185563014256389
40
0.185563014256389
40
0.278344521384584
40
0.278344521384584
40
0.324735274948682
40
0.324735274948682
40
0.37112602851278
40
0.37112602851278
40
0.463907535640976
40
0.463907535640976
40
0.556689042769173
40
0.556689042769173
40
0.603079796333271
40
0.603079796333271
40
0.649470549897369
40
0.649470549897369
40
0.742252057025566
40
0.742252057025566
40
0.788642810589665
40
0.788642810589665
40
0.835033564153764
40
0.835033564153764
40
0.881424317717863
40
0.881424317717863
40
0.927815071281962
40
0.927815071281962
40
1
40
1
40
1
40
1
41
1
10
8.585439470887
20
1.15065020255679
30
0
41
1
10
9.00676595857914
20
0.975574718690922
30
0
41
1
10
9.42754011124083
20
0.799607908632623
30
0
41
1
10
10.0562561036248
20
0.530464968652495
30
0
41
1
10
10.2654247129811
20
0.439896336310539
30
0
41
1
10
10.6825999305208
20
0.256222766964527
30
0
41
1
10
10.8905474559443
20
0.162981593987837
30
0
41
1
10
11.5159664060184
20
-0.112781685841583
30
0
41
1
10
11.933727359381
20
-0.294362933682521
30
0
41
1
10
12.5599692704083
20
-0.567124353648637
30
0
41
1
10
12.7683458794585
20
-0.658814486981896
30
0
41
1
10
13.1864303985558
20
-0.838910279064208
30
0
41
1
10
13.3962113581482
20
-0.9271482236027
30
0
41
1
10
14.0272161281555
20
-1.18772548276604
30
0
41
1
10
14.4511823989123
20
-1.35713303752473
30
0
41
1
10
15.2900314600244
20
-1.68270910804625
30
0
41
1
10
15.7092730095695
20
-1.83256798237926
30
0
41
1
10
16.3360690558529
20
-2.04278215478357
30
0
41
1
10
16.5447283370578
20
-2.11025161388142
30
0
41
1
10
16.9610940510535
20
-2.24049248590333
30
0
41
1
10
17.1689217225746
20
-2.30300258048271
30
0
41
1
10
17.7943167856299
20
-2.4782763926259
30
0
41
1
10
18.2124421300651
20
-2.58117685244383
30
0
41
1
10
18.8399213222884
20
-2.7162601106705
30
0
41
1
10
19.0488329898942
20
-2.75830816621166
30
0
41
1
10
19.4685221672058
20
-2.83376540591249
30
0
41
1
10
19.6792188174739
20
-2.86733436406766
30
0
41
1
10
20.1018793441822
20
-2.92666465950211
30
0
41
1
10
20.3129239901659
20
-2.95232865384779
30
0
41
1
10
20.7333137334327
20
-2.99551742971048
30
0
41
1
10
20.9426274091518
20
-3.01315545049252
30
0
41
1
10
21.476411903356
20
-3.04739387013655
30
0
41
1
10
21.8015071027029
20
-3.0577820134375
30
0
41
1
10
22.1261265732701
20
-3.05823104384618
30
0
0
SPLINE
5
CF
100
AcDbEntity
8
1
62
256
6
ByLayer
370
18
48
1
60
0
100
AcDbSpline
70
4
71
3
72
82
73
78
40
0
40
0
40
0
40
0
40
0.0146482050965486
40
0.0146482050965486
40
0.0366416573533893
40
0.0366416573533893
40
0.0586351096102302
40
0.0586351096102302
40
0.0806285618670709
40
0.0806285618670709
40
0.102622014123912
40
0.102622014123912
40
0.124615466380752
40
0.124615466380752
40
0.146608918637593
40
0.146608918637593
40
0.168602370894434
40
0.168602370894434
40
0.190595823151275
40
0.190595823151275
40
0.234582727664955
40
0.234582727664955
40
0.256576179921795
40
0.256576179921795
40
0.278569632178635
40
0.278569632178635
40
0.300563084435475
40
0.300563084435475
40
0.322556536692315
40
0.322556536692315
40
0.366543441205996
40
0.366543441205996
40
0.388536893462836
40
0.388536893462836
40
0.410530345719676
40
0.410530345719676
40
0.454517250233356
40
0.454517250233356
40
0.476510702490196
40
0.476510702490196
40
0.498504154747037
40
0.498504154747037
40
0.520497607003877
40
0.520497607003877
40
0.542491059260717
40
0.542491059260717
40
0.586477963774397
40
0.586477963774397
40
0.608471416031237
40
0.608471416031237
40
0.630464868288077
40
0.630464868288077
40
0.674451772801758
40
0.674451772801758
40
0.718438677315438
40
0.718438677315438
40
0.740432129572278
40
0.740432129572278
40
0.762425581829117
40
0.762425581829117
40
0.806412486342796
40
0.806412486342796
40
0.828405938599636
40
0.828405938599636
40
0.850399390856475
40
0.850399390856475
40
0.872392843113315
40
0.872392843113315
40
0.894386295370154
40
0.894386295370154
40
0.938373199883834
40
0.938373199883834
40
0.960366652140675
40
0.960366652140675
40
0.982360104397516
40
0.982360104397516
40
1
40
1
40
1
40
1
41
1
10
37.1037307640944
20
1.70607788060536
30
0
41
1
10
37.2424413718952
20
1.75707980573742
30
0
41
1
10
37.3810339181341
20
1.80723417157293
30
0
41
1
10
37.7273334343585
20
1.93071158317588
30
0
41
1
10
37.9350747289962
20
2.00255548358743
30
0
41
1
10
38.3519938576602
20
2.13883311039726
30
0
41
1
10
38.5609130721356
20
2.20375853988082
30
0
41
1
10
38.9791447303878
20
2.32808643728961
30
0
41
1
10
39.188521631743
20
2.38737847691792
30
0
41
1
10
39.6076608690704
20
2.50025229734416
30
0
41
1
10
39.8171261461978
20
2.55421228892269
30
0
41
1
10
40.2382743336553
20
2.6536753157628
30
0
41
1
10
40.4496797512731
20
2.69939521770718
30
0
41
1
10
40.8705884327799
20
2.78297941580257
30
0
41
1
10
41.0804704501484
20
2.82097432140722
30
0
41
1
10
41.4990915181809
20
2.8893470033677
30
0
41
1
10
41.7075518762589
20
2.91992592744543
30
0
41
1
10
42.1239904457665
20
2.97273778316415
30
0
41
1
10
42.3323535390656
20
2.99476933386828
30
0
41
1
10
42.9575325687262
20
3.04855225863002
30
0
41
1
10
43.3741730132159
20
3.06830247360054
30
0
41
1
10
43.9975410702324
20
3.07293938344503
30
0
41
1
10
44.2055081182607
20
3.07020783438301
30
0
41
1
10
44.6228909738611
20
3.05652816545342
30
0
41
1
10
44.8320929977532
20
3.04559812921576
30
0
41
1
10
45.2510507167433
20
3.01540922142411
30
0
41
1
10
45.4608843920024
20
2.99617372985125
30
0
41
1
10
45.8810646054744
20
2.94895331726238
30
0
41
1
10
46.0916444731395
20
2.92066559411146
30
0
41
1
10
46.7231606043114
20
2.82515140680093
30
0
41
1
10
47.1429807784531
20
2.74699446281915
30
0
41
1
10
47.7693529624615
20
2.60706654049341
30
0
41
1
10
47.9772978892226
20
2.55620145165585
30
0
41
1
10
48.3932427652851
20
2.44815168769466
30
0
41
1
10
48.6014437902481
20
2.39129505093572
30
0
41
1
10
49.2262851146962
20
2.21198687387189
30
0
41
1
10
49.6429351387198
20
2.08058158225916
30
0
41
1
10
50.2667968170342
20
1.86250972017356
30
0
41
1
10
50.4752265080643
20
1.78747799561364
30
0
41
1
10
50.8934950596604
20
1.63383253778031
30
0
41
1
10
51.1031884251678
20
1.55495363143268
30
0
41
1
10
51.5232967232592
20
1.39220991469392
30
0
41
1
10
51.7338583772905
20
1.30850089756103
30
0
41
1
10
52.1553622175462
20
1.13566055088259
30
0
41
1
10
52.3650578439373
20
1.0468261214688
30
0
41
1
10
52.9943814964184
20
0.780994309073293
30
0
41
1
10
53.4130137067897
20
0.601798490133973
30
0
41
1
10
54.0380427860129
20
0.32645347114547
30
0
41
1
10
54.2455795642254
20
0.232839460851977
30
0
41
1
10
54.6611923302879
20
0.0469374969033254
30
0
41
1
10
54.869317807208
20
-0.0452365273540636
30
0
41
1
10
55.4941021199064
20
-0.320704862839591
30
0
41
1
10
55.9109132337328
20
-0.503538616986589
30
0
41
1
10
56.7440946273101
20
-0.869917371787807
30
0
41
1
10
57.1637760969073
20
-1.04580636610481
30
0
41
1
10
57.7960882932693
20
-1.30295982452131
30
0
41
1
10
58.0072781424583
20
-1.38734745817146
30
0
41
1
10
58.4277513806576
20
-1.55324508404988
30
0
41
1
10
58.6374707683725
20
-1.63458821539683
30
0
41
1
10
59.2681975036615
20
-1.86794698494873
30
0
41
1
10
59.6893657805301
20
-2.0122585839847
30
0
41
1
10
60.3205480156012
20
-2.21447098322579
30
0
41
1
10
60.5306634718544
20
-2.27994401941467
30
0
41
1
10
60.9520589310561
20
-2.40272401454669
30
0
41
1
10
61.163022382488
20
-2.46021671971283
30
0
41
1
10
61.5850037564689
20
-2.56829834908791
30
0
41
1
10
61.7959682519139
20
-2.61894370935769
30
0
41
1
10
62.2178421244096
20
-2.71332832120342
30
0
41
1
10
62.4281833981137
20
-2.75726869797055
30
0
41
1
10
63.058320374031
20
-2.87703886788154
30
0
41
1
10
63.4794568895289
20
-2.93953052216364
30
0
41
1
10
64.1105889907582
20
-3.00986634764934
30
0
41
1
10
64.3209637817702
20
-3.02930343041132
30
0
41
1
10
64.7412420301043
20
-3.05999967244489
30
0
41
1
10
64.9519045024566
20
-3.07100589308396
30
0
41
1
10
65.3317003015808
20
-3.08296569201713
30
0
41
1
10
65.5006928047467
20
-3.08557627790322
30
0
41
1
10
65.6695755157843
20
-3.08545465455302
30
0
0
SPLINE
5
D0
100
AcDbEntity
8
1
62
256
6
ByLayer
370
18
48
1
60
0
100
AcDbSpline
70
4
71
3
72
30
73
26
40
0
40
0
40
0
40
0
40
0.0292715301307889
40
0.0292715301307889
40
0.103942950889961
40
0.103942950889961
40
0.253285792408301
40
0.253285792408301
40
0.327957213167471
40
0.327957213167471
40
0.402628633926641
40
0.402628633926641
40
0.477300054685811
40
0.477300054685811
40
0.55197147544498
40
0.55197147544498
40
0.62664289620415
40
0.62664289620415
40
0.70131431696332
40
0.70131431696332
40
0.775985737722491
40
0.775985737722491
40
0.850657158481661
40
0.850657158481661
40
1
40
1
40
1
40
1
41
1
10
80.6063877374227
20
1.71971919232908
30
0
41
1
10
80.688255591671
20
1.75008174439336
30
0
41
1
10
80.770041723664
20
1.78011843022196
30
0
41
1
10
81.0601573414176
20
1.88564460682358
30
0
41
1
10
81.2676782957781
20
1.95994323695783
30
0
41
1
10
81.891243239186
20
2.17157307881087
30
0
41
1
10
82.3076722448968
20
2.29917276526092
30
0
41
1
10
82.9315588339743
20
2.47360816536795
30
0
41
1
10
83.1392529046484
20
2.52906141734337
30
0
41
1
10
83.5549236518306
20
2.63320637779935
30
0
41
1
10
83.763431797688
20
2.68123836009448
30
0
41
1
10
84.1815728407328
20
2.76972012520406
30
0
41
1
10
84.3911261998802
20
2.81026123744204
30
0
41
1
10
84.8109702835315
20
2.88407586185778
30
0
41
1
10
85.0216224276418
20
2.91732270610825
30
0
41
1
10
85.4421247470427
20
2.97619138768883
30
0
41
1
10
85.6517516665543
20
3.00138680742344
30
0
41
1
10
86.0711709460314
20
3.04282973210755
30
0
41
1
10
86.280728586683
20
3.05926839295654
30
0
41
1
10
86.699052318833
20
3.08394716003926
30
0
41
1
10
86.9078927253682
20
3.09215404297029
30
0
41
1
10
87.3247138242778
20
3.1001742682439
30
0
41
1
10
87.5324247400784
20
3.09991678071043
30
0
41
1
10
88.1573130042719
20
3.0864104743041
30
0
41
1
10
88.575237324902
20
3.06093237792632
30
0
41
1
10
88.9933132510771
20
3.0186488197109
30
0
0
SPLINE
5
D1
100
AcDbEntity
8
1
62
256
6
ByLayer
370
18
48
1
60
0
100
AcDbSpline
70
4
71
3
72
20
73
16
40
0
40
0
40
0
40
0
40
0.113116200472017
40
0.113116200472017
40
0.226232400944035
40
0.226232400944035
40
0.452464801888069
40
0.452464801888069
40
0.565581002360087
40
0.565581002360087
40
0.678697202832104
40
0.678697202832104
40
0.904929603776139
40
0.904929603776139
40
1
40
1
40
1
40
1
41
1
10
7.01224152800683
20
2.20086266299714
30
0
41
1
10
7.01224842813167
20
2.26203402026178
30
0
41
1
10
7.01225477496331
20
2.32033919558975
30
0
41
1
10
7.01226653299477
20
2.43120626578292
30
0
41
1
10
7.01227194342781
20
2.48377030878865
30
0
41
1
10
7.01228682451696
20
2.6306503968037
30
0
41
1
10
7.01229504381325
20
2.71507320518526
30
0
41
1
10
7.01230597413246
20
2.82172840921191
30
0
41
1
10
7.01230938228986
20
2.85393200941269
30
0
41
1
10
7.01231590264041
20
2.91145934685659
30
0
41
1
10
7.01231900264463
20
2.93664413863212
30
0
41
1
10
7.01232794800072
20
3.00048822696166
30
0
41
1
10
7.01233350852254
20
3.02805535507835
30
0
41
1
10
7.0123416674943
20
3.0460832336818
30
0
41
1
10
7.01234412486949
20
3.04873446331723
30
0
41
1
10
7.01234663571046
20
3.04870411970359
30
0
0
SPLINE
5
D2
100
AcDbEntity
8
1
62
256
6
ByLayer
370
18
48
1
60
0
100
AcDbSpline
70
4
71
3
72
8
73
4
40
0
40
0
40
0
40
0
40
1
40
1
40
1
40
1
41
1
10
88.9933132510758
20
-3.01864881971196
30
0
41
1
10
88.9524323334675
20
-3.05813571708865
30
0
41
1
10
88.916968003047
20
-3.08355523192373
30
0
41
1
10
88.8866374216888
20
-3.09422768958035
30
0
0
SPLINE
5
D3
100
AcDbEntity
8
1
62
256
6
ByLayer
370
18
48
1
60
0
100
AcDbSpline
70
4
71
3
72
8
73
4
40
0
40
0
40
0
40
0
40
1
40
1
40
1
40
1
41
1
10
89.8779885990834
20
-0.210928806872033
30
0
41
1
10
89.5471187350618
20
-1.11998628705157
30
0
41
1
10
89.2162488710403
20
-2.02904376723089
30
0
41
1
10
88.885379007019
20
-2.93810124740949
30
0
0
SPLINE
5
D4
100
AcDbEntity
8
1
62
256
6
ByLayer
370
18
48
1
60
0
100
AcDbSpline
70
4
71
3
72
30
73
26
40
0
40
0
40
0
40
0
40
0.124999999999999
40
0.124999999999999
40
0.187499999999998
40
0.187499999999998
40
0.249999999999998
40
0.249999999999998
40
0.312499999999997
40
0.312499999999997
40
0.343749999999995
40
0.343749999999995
40
0.374999999999992
40
0.374999999999992
40
0.437499999999987
40
0.437499999999987
40
0.499999999999982
40
0.499999999999982
40
0.624999999999986
40
0.624999999999986
40
0.749999999999991
40
0.749999999999991
40
0.874999999999996
40
0.874999999999996
40
1
40
1
40
1
40
1
41
1
10
88.8777844768233
20
-1.56849756504482
30
0
41
1
10
88.8176006196875
20
-1.52671108684922
30
0
41
1
10
88.7593355200436
20
-1.48082626569982
30
0
41
1
10
88.6767970216905
20
-1.40162019881419
30
0
41
1
10
88.6502941457837
20
-1.37360259023211
30
0
41
1
10
88.600945598249
20
-1.3136388235564
30
0
41
1
10
88.5777091546562
20
-1.28124729732102
30
0
41
1
10
88.538553070272
20
-1.21160461177752
30
0
41
1
10
88.5224725941566
20
-1.17382556463659
30
0
41
1
10
88.5101085270806
20
-1.11600327070451
30
0
41
1
10
88.507968679642
20
-1.09623442720544
30
0
41
1
10
88.5085303067706
20
-1.05868491105022
30
0
41
1
10
88.5111858847018
20
-1.04044905085397
30
0
41
1
10
88.5258896801035
20
-0.989321296152298
30
0
41
1
10
88.5442509487359
20
-0.961203415807233
30
0
41
1
10
88.588132806542
20
-0.916349969897055
30
0
41
1
10
88.6140640580462
20
-0.898903042896848
30
0
41
1
10
88.6952294367698
20
-0.85739129693988
30
0
41
1
10
88.7555688777558
20
-0.84254328530227
30
0
41
1
10
88.877399829253
20
-0.825520041268476
30
0
41
1
10
88.939634885515
20
-0.823520137556415
30
0
41
1
10
89.0657775720365
20
-0.827773961188399
30
0
41
1
10
89.1298281678182
20
-0.834186724607974
30
0
41
1
10
89.2570894135818
20
-0.853273048589386
30
0
41
1
10
89.3206067408409
20
-0.865974531600045
30
0
41
1
10
89.3840271197697
20
-0.881378625201393
30
0
0
SPLINE
5
D5
100
AcDbEntity
8
1
62
256
6
ByLayer
370
18
48
1
60
0
100
AcDbSpline
70
4
71
3
72
18
73
14
40
0
40
0
40
0
40
0
40
0.250000000000004
40
0.250000000000004
40
0.375000000000004
40
0.375000000000004
40
0.500000000000003
40
0.500000000000003
40
0.750000000000002
40
0.750000000000002
40
0.875000000000001
40
0.875000000000001
40
1
40
1
40
1
40
1
41
1
10
88.8853790070182
20
-2.93810124741219
30
0
41
1
10
88.8247967438148
20
-2.92726669386946
30
0
41
1
10
88.7687448430014
20
-2.90367469887602
30
0
41
1
10
88.6920600254399
20
-2.84746801994837
30
0
41
1
10
88.667668038023
20
-2.82512278459515
30
0
41
1
10
88.6224185795895
20
-2.77405434384662
30
0
41
1
10
88.6014432561784
20
-2.74527616695417
30
0
41
1
10
88.5434850517487
20
-2.64917132009796
30
0
41
1
10
88.5114290218194
20
-2.57215480265433
30
0
41
1
10
88.4739689927122
20
-2.43573532300357
30
0
41
1
10
88.4632430210313
20
-2.38653482945665
30
0
41
1
10
88.4458887972428
20
-2.2826630262638
30
0
41
1
10
88.4392008168216
20
-2.22785079457674
30
0
41
1
10
88.4345131873022
20
-2.1701460092454
30
0
0
SPLINE
5
D6
100
AcDbEntity
8
1
62
256
6
ByLayer
370
13
48
1
60
0
100
AcDbSpline
70
4
71
3
72
8
73
4
40
0
40
0
40
0
40
0
40
1
40
1
40
1
40
1
41
1
10
7.0122415280068
20
2.20086266299467
30
0
41
1
10
7.02289892833508
20
2.1721770656369
30
0
41
1
10
7.03810962793608
20
2.14512464551456
30
0
41
1
10
7.05739996339955
20
2.1213281119104
30
0
0
SPLINE
5
D7
100
AcDbEntity
8
1
62
256
6
ByLayer
370
18
48
1
60
0
100
AcDbSpline
70
4
71
3
72
10
73
6
40
0
40
0
40
0
40
0
40
0.5
40
0.5
40
1
40
1
40
1
40
1
41
1
10
88.9933132510709
20
3.01864881972608
30
0
41
1
10
89.1433404563712
20
2.63875985473032
30
0
41
1
10
89.2935672675995
20
2.25886560496309
30
0
41
1
10
89.59316962139
20
1.4984314939579
30
0
41
1
10
89.7424201720345
20
1.11781967573938
30
0
41
1
10
89.8904780028068
20
0.736531267301302
30
0
0
SPLINE
5
D8
100
AcDbEntity
8
1
62
256
6
ByLayer
370
18
48
1
60
0
100
AcDbSpline
70
4
71
3
72
8
73
4
40
0
40
0
40
0
40
0
40
1
40
1
40
1
40
1
41
1
10
89.8904780028093
20
0.73653126729522
30
0
41
1
10
89.9228477042319
20
0.536776807894114
30
0
41
1
10
89.9518958118472
20
0.3370511250981
30
0
41
1
10
89.9776032305169
20
0.137354384337812
30
0
0
SPLINE
5
D9
100
AcDbEntity
8
1
62
256
6
ByLayer
370
18
48
1
60
0
100
AcDbSpline
70
4
71
3
72
8
73
4
40
0
40
0
40
0
40
0
40
1
40
1
40
1
40
1
41
1
10
7.04737270936224
20
2.13337691294092
30
0
41
1
10
7.02565162765683
20
2.15297011569268
30
0
41
1
10
7.01223878880066
20
2.17657894854091
30
0
41
1
10
7.0122415280068
20
2.20086266300743
30
0
0
SPLINE
5
DA
100
AcDbEntity
8
1
62
256
6
ByLayer
370
18
48
1
60
0
100
AcDbSpline
70
4
71
3
72
22
73
18
40
0
40
0
40
0
40
0
40
0.0904856474432611
40
0.0904856474432611
40
0.213442811209907
40
0.213442811209907
40
0.459357138743201
40
0.459357138743201
40
0.520835720626525
40
0.520835720626525
40
0.58231430250985
40
0.58231430250985
40
0.705271466276499
40
0.705271466276499
40
0.951185793809798
40
0.951185793809798
40
1
40
1
40
1
40
1
41
1
10
7.54390912102596
20
1.91191375187535
30
0
41
1
10
7.85936920290266
20
1.80720804976096
30
0
41
1
10
8.17374219967721
20
1.69687388327915
30
0
41
1
10
8.91287898954607
20
1.42577048390788
30
0
41
1
10
9.33708839117182
20
1.26108096011984
30
0
41
1
10
10.6083680363953
20
0.748969165564574
30
0
41
1
10
11.4544025299843
20
0.384185336234623
30
0
41
1
10
12.5203575412886
20
-0.0772946554270391
30
0
41
1
10
12.7339794249576
20
-0.169833454356507
30
0
41
1
10
13.1624001089149
20
-0.354652621972008
30
0
41
1
10
13.377497668175
20
-0.447039226357248
30
0
41
1
10
14.0200263284797
20
-0.720585878997468
30
0
41
1
10
14.4460833439779
20
-0.898846305658282
30
0
41
1
10
15.7204824097342
20
-1.41460924722631
30
0
41
1
10
16.5654339876189
20
-1.73215940363536
30
0
41
1
10
17.582853059329
20
-2.06015030088
30
0
41
1
10
17.7515205852612
20
-2.11274944135673
30
0
41
1
10
17.9204161497366
20
-2.16349234278533
30
0
0
SPLINE
5
DB
100
AcDbEntity
8
1
62
256
6
ByLayer
370
13
48
1
60
0
100
AcDbSpline
70
4
71
3
72
16
73
12
40
0
40
0
40
0
40
0
40
0.110277861888566
40
0.110277861888566
40
0.201719022982814
40
0.201719022982814
40
0.293160184077062
40
0.293160184077062
40
0.658924828454056
40
0.658924828454056
40
1
40
1
40
1
40
1
41
1
10
17.9204151923228
20
-2.16349205514035
30
0
41
1
10
18.1769477299517
20
-2.24056457730251
30
0
41
1
10
18.4340063532076
20
-2.31335474831545
30
0
41
1
10
18.9056249911683
20
-2.43782165838843
30
0
41
1
10
19.1202744793022
20
-2.49105236269182
30
0
41
1
10
19.5493866525857
20
-2.59015018411441
30
0
41
1
10
19.7633187833823
20
-2.6359067125735
30
0
41
1
10
20.8305918206109
20
-2.84513341196109
30
0
41
1
10
21.6767526119876
20
-2.9497470140918
30
0
41
1
10
23.3143562287738
20
-3.02172254689594
30
0
41
1
10
24.1054866269094
20
-2.9978885378159
30
0
41
1
10
24.9049712821387
20
-2.91469003466247
30
0
0
SPLINE
5
DC
100
AcDbEntity
8
1
62
256
6
ByLayer
370
18
48
1
60
0
100
AcDbSpline
70
4
71
3
72
28
73
24
40
0
40
0
40
0
40
0
40
0.0560506283472963
40
0.0560506283472963
40
0.111001674467827
40
0.111001674467827
40
0.165952720588358
40
0.165952720588358
40
0.27585481282942
40
0.27585481282942
40
0.385756905070483
40
0.385756905070483
40
0.495658997311546
40
0.495658997311546
40
0.715463181793673
40
0.715463181793673
40
0.825365274034737
40
0.825365274034737
40
0.880316320155269
40
0.880316320155269
40
0.935267366275801
40
0.935267366275801
40
1
40
1
40
1
40
1
41
1
10
49.9959979106751
20
2.25703470021259
30
0
41
1
10
50.2141110169833
20
2.19396492064468
30
0
41
1
10
50.4323277095647
20
2.12748126517269
30
0
41
1
10
50.8649849258151
20
1.98946160320637
30
0
41
1
10
51.0796306256469
20
1.91800352947891
30
0
41
1
10
51.5082281043783
20
1.7701262972968
30
0
41
1
10
51.7222709438093
20
1.69365742325036
30
0
41
1
10
52.3640055311314
20
1.45737461913256
30
0
41
1
10
52.7912887728045
20
1.29067884441136
30
0
41
1
10
53.6471426465331
20
0.943797898329365
30
0
41
1
10
54.0769012933238
20
0.763055683035731
30
0
41
1
10
54.930877802825
20
0.39739423338952
30
0
41
1
10
55.355744725777
20
0.212142845950609
30
0
41
1
10
56.6273127997438
20
-0.343039374269807
30
0
41
1
10
57.471042317214
20
-0.712118593233981
30
0
41
1
10
58.7439190982559
20
-1.2333295287952
30
0
41
1
10
59.1693961374535
20
-1.40173617498226
30
0
41
1
10
59.8112598014388
20
-1.6420480768532
30
0
41
1
10
60.0260372399697
20
-1.72019885350426
30
0
41
1
10
60.4536401629566
20
-1.87072267200176
30
0
41
1
10
60.6668643094836
20
-1.94324822902993
30
0
41
1
10
61.1303224092612
20
-2.09475711316409
30
0
41
1
10
61.3803925218068
20
-2.17252581210738
30
0
41
1
10
61.630090795545
20
-2.24581361262619
30
0
0
SPLINE
5
DD
100
AcDbEntity
8
1
62
256
6
ByLayer
370
13
48
1
60
0
100
AcDbSpline
70
4
71
3
72
16
73
12
40
0
40
0
40
0
40
0
40
0.265524832740103
40
0.265524832740103
40
0.453707119681695
40
0.453707119681695
40
0.547798263152487
40
0.547798263152487
40
0.64188940662328
40
0.64188940662328
40
1
40
1
40
1
40
1
41
1
10
61.6300898363024
20
-2.24581333108321
30
0
41
1
10
62.228259834157
20
-2.42137950348874
30
0
41
1
10
62.8242959361487
20
-2.57123087112771
30
0
41
1
10
63.8444164907718
20
-2.77620770013172
30
0
41
1
10
64.2680322829497
20
-2.846325601844
30
0
41
1
10
64.905942520549
20
-2.92710122000807
30
0
41
1
10
65.1189796408992
20
-2.94997030055779
30
0
41
1
10
65.546148311466
20
-2.98733497577899
30
0
41
1
10
65.7607029929788
20
-3.00184769472543
30
0
41
1
10
66.7896990420705
20
-3.05061571420222
30
0
41
1
10
67.5955730957368
20
-3.0259590533775
30
0
41
1
10
68.4004208562121
20
-2.94168396867036
30
0
0
SPLINE
5
DE
100
AcDbEntity
8
1
62
256
6
ByLayer
370
18
48
1
60
0
100
AcDbSpline
70
4
71
3
72
29
73
25
40
0
40
0
40
0
40
0
40
0.235326911900902
40
0.235326911900902
40
0.480004631169339
40
0.480004631169339
40
0.510589346077893
40
0.510589346077893
40
0.52588170353217
40
0.533527882259309
40
0.533527882259309
40
0.541174060986448
40
0.541174060986448
40
0.556466418440724
40
0.556466418440724
40
0.571758775895002
40
0.571758775895002
40
0.602343490803556
40
0.602343490803556
40
0.724682350437774
40
0.724682350437774
40
0.96936006970621
40
0.96936006970621
40
1
40
1
40
1
40
1
41
1
10
8.585439470887
20
1.15065020255679
30
0
41
1
10
8.585439470887
20
0.954651526260648
30
0
41
1
10
8.585439470887
20
0.736966717857371
30
0
41
1
10
8.585439470887
20
0.253641115092194
30
0
41
1
10
8.58543947088702
20
-0.0145192438711206
30
0
41
1
10
8.58543947088702
20
-0.335736616812284
30
0
41
1
10
8.585439470887
20
-0.371705011706837
30
0
41
1
10
8.585439470887
20
-0.426073092486149
30
0
41
1
10
8.585439470887
20
-0.453357000977945
30
0
41
1
10
8.585439470887
20
-0.480787236309737
30
0
41
1
10
8.585439470887
20
-0.499106924552933
30
0
41
1
10
8.585439470887
20
-0.508019885287183
30
0
41
1
10
8.585439470887
20
-0.537635171864395
30
0
41
1
10
8.58543947088702
20
-0.560528362897742
30
0
41
1
10
8.58543947088702
20
-0.612779812510951
30
0
41
1
10
8.585439470887
20
-0.638922808101569
30
0
41
1
10
8.585439470887
20
-0.717397875809127
30
0
41
1
10
8.585439470887
20
-0.769780353680545
30
0
41
1
10
8.585439470887
20
-1.03199335495981
30
0
41
1
10
8.585439470887
20
-1.24281202087485
30
0
41
1
10
8.585439470887
20
-1.87752140605397
30
0
41
1
10
8.585439470887
20
-2.30352785726163
30
0
41
1
10
8.585439470887
20
-2.78650349727985
30
0
41
1
10
8.585439470887
20
-2.84029599374355
30
0
41
1
10
8.585439470887
20
-2.89411242737782
30
0
0
SPLINE
5
DF
100
AcDbEntity
8
1
62
256
6
ByLayer
370
18
48
1
60
0
100
AcDbSpline
70
4
71
3
72
24
73
20
40
0
40
0
40
0
40
0
40
0.0514075308983584
40
0.0514075308983584
40
0.160552995209479
40
0.160552995209479
40
0.378843923831718
40
0.378843923831718
40
0.487989388142837
40
0.487989388142837
40
0.597134852453956
40
0.597134852453956
40
0.815425781076198
40
0.815425781076198
40
0.92457124538732
40
0.92457124538732
40
0.979143977542883
40
0.979143977542883
40
1
40
1
40
1
40
1
41
1
10
28.3296271588099
20
2.22260508622082
30
0
41
1
10
28.5313872221501
20
2.16373304300501
30
0
41
1
10
28.7326305240101
20
2.10219859665764
30
0
41
1
10
29.359854581328
20
1.90232778420699
30
0
41
1
10
29.7843618171523
20
1.7553040281943
30
0
41
1
10
31.0558151076544
20
1.28814843355042
30
0
41
1
10
31.9005152006465
20
0.941438701832169
30
0
41
1
10
33.1765207869821
20
0.397524701251626
30
0
41
1
10
33.6034930445651
20
0.212132744516197
30
0
41
1
10
34.4620345464525
20
-0.160969760385456
30
0
41
1
10
34.8886912441851
20
-0.346600419528983
30
0
41
1
10
36.1642317843823
20
-0.892819071807907
30
0
41
1
10
37.0088479638609
20
-1.24230105415469
30
0
41
1
10
38.2800535907369
20
-1.71614639018858
30
0
41
1
10
38.7046306254023
20
-1.86542891932666
30
0
41
1
10
39.3442558525259
20
-2.07333266129663
30
0
41
1
10
39.5579199017857
20
-2.13997506242589
30
0
41
1
10
39.8540627913229
20
-2.22801004267333
30
0
41
1
10
39.9360167948196
20
-2.25191342092623
30
0
41
1
10
40.0179584982526
20
-2.27534031716343
30
0
0
SPLINE
5
E0
100
AcDbEntity
8
1
62
256
6
ByLayer
370
13
48
1
60
0
100
AcDbSpline
70
4
71
3
72
16
73
12
40
0
40
0
40
0
40
0
40
0.0592823669777981
40
0.0592823669777981
40
0.44309214732008
40
0.44309214732008
40
0.826901927662362
40
0.826901927662362
40
0.922854372747932
40
0.922854372747932
40
1
40
1
40
1
40
1
41
1
10
40.0179584983975
20
-2.27534031720484
30
0
41
1
10
40.1504288499002
20
-2.31321320791937
30
0
41
1
10
40.2828670548242
20
-2.34984079884424
30
0
41
1
10
41.2698869480707
20
-2.61309041854119
30
0
41
1
10
42.1163302916452
20
-2.78360048774513
30
0
41
1
10
43.8093169873578
20
-2.9949962158235
30
0
41
1
10
44.6559179362386
20
-3.03576770857509
30
0
41
1
10
45.7254994424031
20
-2.99978410329973
30
0
41
1
10
45.9402600448948
20
-2.98823473736877
30
0
41
1
10
46.3270326531265
20
-2.95970983467856
30
0
41
1
10
46.4992841476487
20
-2.94424200934
30
0
41
1
10
46.6714950353484
20
-2.92605322099485
30
0
0
SPLINE
5
E1
100
AcDbEntity
8
1
62
256
6
ByLayer
370
18
48
1
60
0
100
AcDbSpline
70
4
71
3
72
26
73
22
40
0
40
0
40
0
40
0
40
0.0336914416133512
40
0.0336914416133512
40
0.142058745461663
40
0.142058745461663
40
0.358793353158291
40
0.358793353158291
40
0.467160657006603
40
0.467160657006603
40
0.52134430893076
40
0.52134430893076
40
0.575527960854916
40
0.575527960854916
40
0.792262568551538
40
0.792262568551538
40
0.900629872399849
40
0.900629872399849
40
0.954813524324003
40
0.954813524324003
40
1
40
1
40
1
40
1
41
1
10
71.9513128056686
20
2.20674015676715
30
0
41
1
10
72.0843524859189
20
2.1668069246461
30
0
41
1
10
72.217265031276
20
2.12568100836054
30
0
41
1
10
72.7762951411851
20
1.94776124891706
30
0
41
1
10
73.2007005707851
20
1.80092990073743
30
0
41
1
10
74.471066151214
20
1.33361407526101
30
0
41
1
10
75.3140981048971
20
0.986180783369264
30
0
41
1
10
76.5863286947991
20
0.440376385876448
30
0
41
1
10
77.0116873660517
20
0.254360156151932
30
0
41
1
10
77.6533309795017
20
-0.0269897558722505
30
0
41
1
10
77.8679571886261
20
-0.121219909565781
30
0
41
1
10
78.2952106285489
20
-0.308180719630883
30
0
41
1
10
78.5082614638539
20
-0.401108685253774
30
0
41
1
10
79.571306480684
20
-0.861449713914027
30
0
41
1
10
80.414832560865
20
-1.21553876211075
30
0
41
1
10
81.6831612167823
20
-1.6962550539692
30
0
41
1
10
82.1064475856095
20
-1.84811975041214
30
0
41
1
10
82.7438035317883
20
-2.05991283939463
30
0
41
1
10
82.9566549598008
20
-2.12785579805018
30
0
41
1
10
83.3479933853283
20
-2.24710968280843
30
0
41
1
10
83.526592367876
20
-2.29936972572833
30
0
41
1
10
83.7051440759383
20
-2.34925982212226
30
0
0
SPLINE
5
E2
100
AcDbEntity
8
1
62
256
6
ByLayer
370
13
48
1
60
0
100
AcDbSpline
70
4
71
3
72
12
73
8
40
0
40
0
40
0
40
0
40
0.0203341462820704
40
0.0203341462820704
40
0.510167073141035
40
0.510167073141035
40
1
40
1
40
1
40
1
41
1
10
83.7051440749173
20
-2.34925982183697
30
0
41
1
10
83.7406958894413
20
-2.35919354620819
30
0
41
1
10
83.7762458297378
20
-2.36903331251278
30
0
41
1
10
84.6679803703806
20
-2.61346808167207
30
0
41
1
10
85.5148520980036
20
-2.79064695499034
30
0
41
1
10
87.2079017294248
20
-3.01433147106596
30
0
41
1
10
88.0541728898777
20
-3.06112892782704
30
0
41
1
10
88.9088238766195
20
-3.03740160500354
30
0
0
SPLINE
5
E3
100
AcDbEntity
8
1
62
256
6
ByLayer
370
18
48
1
60
0
100
AcDbSpline
70
4
71
3
72
8
73
4
40
0
40
0
40
0
40
0
40
1
40
1
40
1
40
1
41
1
10
88.8866374216887
20
3.09422768958035
30
0
41
1
10
88.7463166871265
20
3.09795783660601
30
0
41
1
10
88.6059775976981
20
3.09977061067468
30
0
41
1
10
88.4656006611472
20
3.09966934391767
30
0
0
SPLINE
5
E4
100
AcDbEntity
8
1
62
256
6
ByLayer
370
18
48
1
60
0
100
AcDbSpline
70
4
71
3
72
46
73
42
40
0
40
0
40
0
40
0
40
0.0148248248233857
40
0.0148248248233857
40
0.0683436606016552
40
0.0683436606016552
40
0.121862496379925
40
0.121862496379925
40
0.148621914269059
40
0.148621914269059
40
0.175381332158194
40
0.175381332158194
40
0.228900167936462
40
0.228900167936462
40
0.28241900371473
40
0.28241900371473
40
0.335937839492998
40
0.335937839492998
40
0.389456675271266
40
0.389456675271266
40
0.442975511049534
40
0.442975511049534
40
0.496494346827802
40
0.496494346827802
40
0.55001318260607
40
0.55001318260607
40
0.603532018384338
40
0.603532018384338
40
0.657050854162606
40
0.657050854162606
40
0.710569689940874
40
0.710569689940874
40
0.737329107830008
40
0.737329107830008
40
0.764088525719142
40
0.764088525719142
40
0.871126197275678
40
0.871126197275678
40
0.978163868832214
40
0.978163868832214
40
1
40
1
40
1
40
1
41
1
10
68.822424441594
20
-2.94568064611877
30
0
41
1
10
68.704655231511
20
-2.96133628688196
30
0
41
1
10
68.5868529572968
20
-2.97571551576897
30
0
41
1
10
68.0435057401064
20
-3.03603315758807
30
0
41
1
10
67.6166585392751
20
-3.06638977062093
30
0
41
1
10
66.7657337201814
20
-3.09185496337088
30
0
41
1
10
66.3409847499805
20
-3.08708950297481
30
0
41
1
10
65.7031281443897
20
-3.05388058788424
30
0
41
1
10
65.4903927178041
20
-3.03846945955948
30
0
41
1
10
65.064385770557
20
-2.99903170327371
30
0
41
1
10
64.8509912515045
20
-2.97498050057902
30
0
41
1
10
64.2121108857104
20
-2.89044467871457
30
0
41
1
10
63.7872232353429
20
-2.81745513403439
30
0
41
1
10
62.9370011937323
20
-2.64053692705741
30
0
41
1
10
62.5113473499487
20
-2.53658512251289
30
0
41
1
10
61.6585050440799
20
-2.30061249687606
30
0
41
1
10
61.2333680739088
20
-2.16915747217072
30
0
41
1
10
60.383096070274
20
-1.88356344586367
30
0
41
1
10
59.9579766591266
20
-1.72941166333996
30
0
41
1
10
59.1055152984277
20
-1.40239845477646
30
0
41
1
10
58.6793669458374
20
-1.22987699668781
30
0
41
1
10
57.828863453233
20
-0.87397530174394
30
0
41
1
10
57.4038951609043
20
-0.690298655574168
30
0
41
1
10
56.552231868987
20
-0.316490254415356
30
0
41
1
10
56.1253723268412
20
-0.126126269775227
30
0
41
1
10
55.2743876581459
20
0.252225596244955
30
0
41
1
10
54.8494348935226
20
0.440676177717336
30
0
41
1
10
53.9983498372092
20
0.811046115245091
30
0
41
1
10
53.5714093161655
20
0.993369601978145
30
0
41
1
10
52.7197681374023
20
1.34345292322269
30
0
41
1
10
52.2947554850622
20
1.5114260977553
30
0
41
1
10
51.6566649075923
20
1.7492709997997
30
0
41
1
10
51.4438771009269
20
1.82621081042146
30
0
41
1
10
51.0178662000573
20
1.97491282947055
30
0
41
1
10
50.8044282611026
20
2.04674491169109
30
0
41
1
10
49.7387887441438
20
2.3901750284046
30
0
41
1
10
48.8904796384432
20
2.61479158240576
30
0
41
1
10
47.1837289509785
20
2.93906874455916
30
0
41
1
10
46.3350126499769
20
3.03660782080848
30
0
41
1
10
45.3086870576346
20
3.06990888527892
30
0
41
1
10
45.1345097524907
20
3.07264963997602
30
0
41
1
10
44.9605044677924
20
3.07247731237101
30
0
0
SPLINE
5
E5
100
AcDbEntity
8
1
62
256
6
ByLayer
370
18
48
1
60
0
100
AcDbSpline
70
4
71
3
72
34
73
30
40
0
40
0
40
0
40
0
40
0.0196781747007126
40
0.0196781747007126
40
0.159724149743467
40
0.159724149743467
40
0.299770124786222
40
0.299770124786222
40
0.334781618546911
40
0.334781618546911
40
0.369793112307599
40
0.369793112307599
40
0.439816099828977
40
0.439816099828977
40
0.509839087350354
40
0.509839087350354
40
0.579862074871732
40
0.579862074871732
40
0.649885062393109
40
0.649885062393109
40
0.719908049914487
40
0.719908049914487
40
0.754919543675176
40
0.754919543675176
40
0.789931037435864
40
0.789931037435864
40
0.859954024957243
40
0.859954024957243
40
1
40
1
40
1
40
1
41
1
10
25.3942642546614
20
-2.91007661363429
30
0
41
1
10
25.2742929092114
20
-2.92641349785893
30
0
41
1
10
25.1542921059514
20
-2.94144192406003
30
0
41
1
10
24.1811925167992
20
-3.05246345516275
30
0
41
1
10
23.3322434441063
20
-3.08174578943064
30
0
41
1
10
21.6236693331681
20
-3.00035993335155
30
0
41
1
10
20.7746164369486
20
-2.89021887864925
30
0
41
1
10
19.7079893269499
20
-2.67382555886863
30
0
41
1
10
19.4942891795795
20
-2.62659114267595
30
0
41
1
10
19.0677618208959
20
-2.52499355712351
30
0
41
1
10
18.8547368582901
20
-2.47059399011835
30
0
41
1
10
18.2159476816543
20
-2.29721254238118
30
0
41
1
10
17.7904558739872
20
-2.16805679770781
30
0
41
1
10
16.937871905806
20
-1.88620032033887
30
0
41
1
10
16.5103167211194
20
-1.73330976608977
30
0
41
1
10
15.6579893768302
20
-1.41081087194195
30
0
41
1
10
15.2325645768041
20
-1.24068530749665
30
0
41
1
10
14.3805243108329
20
-0.888160454679138
30
0
41
1
10
13.9530149395009
20
-0.705446263179283
30
0
41
1
10
13.0999983914797
20
-0.334774891428907
30
0
41
1
10
12.67446245415
20
-0.146718385217269
30
0
41
1
10
12.0356608008236
20
0.134985376914045
30
0
41
1
10
11.8226459497339
20
0.228827464328873
30
0
41
1
10
11.3961530256354
20
0.415704230571208
30
0
41
1
10
11.1824228769186
20
0.508846398385373
30
0
41
1
10
10.5420917217447
20
0.785223095253713
30
0
41
1
10
10.1169762578152
20
0.965370613285273
30
0
41
1
10
8.84344203776624
20
1.48595088463705
30
0
41
1
10
7.99647135632739
20
1.80568490785555
30
0
41
1
10
7.14261228191558
20
2.08021554679704
30
0
0
SPLINE
5
E6
100
AcDbEntity
8
1
62
256
6
ByLayer
370
18
48
1
60
0
100
AcDbSpline
70
4
71
3
72
12
73
8
40
0
40
0
40
0
40
0
40
0.25
40
0.25
40
0.5
40
0.5
40
1
40
1
40
1
40
1
41
1
10
7.24403189047129
20
-2.46814203007676
30
0
41
1
10
7.34501511101575
20
-2.53797727323746
30
0
41
1
10
7.44900047744562
20
-2.59838932282699
30
0
41
1
10
7.66294637998604
20
-2.70211022222855
30
0
41
1
10
7.77310116289661
20
-2.74546247546667
30
0
41
1
10
8.11190885175722
20
-2.8507371094538
30
0
41
1
10
8.34439874455103
20
-2.88686820814533
30
0
41
1
10
8.58543947088708
20
-2.89411242737776
30
0
0
SPLINE
5
E7
100
AcDbEntity
8
1
62
256
6
ByLayer
370
18
48
1
60
0
100
AcDbSpline
70
4
71
3
72
8
73
4
40
0
40
0
40
0
40
0
40
1
40
1
40
1
40
1
41
1
10
88.9933132510758
20
3.01864881971193
30
0
41
1
10
88.9524323334676
20
3.05813571708862
30
0
41
1
10
88.916968003047
20
3.08355523192373
30
0
41
1
10
88.8866374216887
20
3.09422768958035
30
0
0
SPLINE
5
E8
100
AcDbEntity
8
SK1
62
256
6
ByLayer
370
18
48
1
60
0
100
AcDbSpline
70
4
71
3
72
14
73
10
40
0
40
0
40
0
40
0
40
0.125000000000001
40
0.125000000000001
40
0.250000000000003
40
0.250000000000003
40
0.500000000000006
40
0.500000000000006
40
1
40
1
40
1
40
1
41
1
10
-35.15
20
3.96883028950273
30
0
41
1
10
-35.15
20
3.96928757342317
30
0
41
1
10
-35.1517507934569
20
3.96665964780155
30
0
41
1
10
-35.1569069278761
20
3.95838948321497
30
0
41
1
10
-35.160234831946
20
3.95288497948519
30
0
41
1
10
-35.1714888412645
20
3.93405155977834
30
0
41
1
10
-35.1802429568046
20
3.91914987494727
30
0
41
1
10
-35.2083191353842
20
3.87109182370367
30
0
41
1
10
-35.2286409685639
20
3.8359706356681
30
0
41
1
10
-35.25
20
3.79901279814558
30
0
0
SPLINE
5
E9
100
AcDbEntity
8
SK1
62
256
6
ByLayer
370
18
48
1
60
0
100
AcDbSpline
70
4
71
3
72
8
73
4
40
0
40
0
40
0
40
0
40
1
40
1
40
1
40
1
41
1
10
-35.25
20
3.79901279814558
30
0
41
1
10
-35.5038836332418
20
3.35971431707759
30
0
41
1
10
-35.7560131506013
20
2.91939786515209
30
0
41
1
10
-36
20
2.4750126229325
30
0
0
SPLINE
5
EA
100
AcDbEntity
8
SK1
62
256
6
ByLayer
370
18
48
1
60
0
100
AcDbSpline
70
4
71
3
72
14
73
10
40
0
40
0
40
0
40
0
40
0.499999999999998
40
0.499999999999998
40
0.749999999999997
40
0.749999999999997
40
0.874999999999998
40
0.874999999999998
40
1
40
1
40
1
40
1
41
1
10
-35.25
20
3.26552453932396
30
0
41
1
10
-35.2287404812745
20
3.30231018858041
30
0
41
1
10
-35.208362723075
20
3.34078252214229
30
0
41
1
10
-35.1802905070704
20
3.40017037355327
30
0
41
1
10
-35.1714466180788
20
3.42005689033795
30
0
41
1
10
-35.1602396792677
20
3.44889829642781
30
0
41
1
10
-35.1568594217207
20
3.45834946613613
30
0
41
1
10
-35.1517495297275
20
3.47553156321445
30
0
41
1
10
-35.15
20
3.48339682317265
30
0
41
1
10
-35.15
20
3.4886908565633
30
0
0
SPLINE
5
EB
100
AcDbEntity
8
SK1
62
256
6
ByLayer
370
18
48
1
60
0
100
AcDbSpline
70
4
71
3
72
8
73
4
40
0
40
0
40
0
40
0
40
1
40
1
40
1
40
1
41
1
10
-35.2789109433349
20
-3.74896947813306
30
0
41
1
10
-35.523017944561
20
-3.32627198244711
30
0
41
1
10
-35.7652770092255
20
-2.902525144066
30
0
41
1
10
-36
20
-2.4750126229325
30
0
0
SPLINE
5
EC
100
AcDbEntity
8
SK1
62
256
6
ByLayer
370
18
48
1
60
0
100
AcDbSpline
70
4
71
3
72
8
73
4
40
0
40
0
40
0
40
0
40
1
40
1
40
1
40
1
41
1
10
-36
20
1.9415243641109
30
0
41
1
10
-35.75599290383
20
2.38594648277032
30
0
41
1
10
-35.5038984598463
20
2.82620040357006
30
0
41
1
10
-35.25
20
3.26552453932399
30
0
0
LINE
5
76
100
AcDbEntity
8
81
62
256
6
ByLayer
370
18
48
1
60
0
100
AcDbLine
10
90
20
0
30
0
11
95
21
0
31
0
39
0
210
0
220
0
230
1
0
LINE
5
77
100
AcDbEntity
8
1
62
256
6
ByLayer
370
18
48
1
60
0
100
AcDbLine
10
7.012343
20
3.048762
30
0
11
1
21
3.045004
31
0
39
0
210
0
220
0
230
1
0
LINE
5
79
100
AcDbEntity
8
1
62
256
6
ByLayer
370
18
48
1
60
0
100
AcDbLine
10
23.21656
20
3.058889
30
0
11
22.140103
21
3.058217
31
0
39
0
210
0
220
0
230
1
0
LINE
5
7A
100
AcDbEntity
8
1
62
256
6
ByLayer
370
18
48
1
60
0
100
AcDbLine
10
66.716257
20
3.086077
30
0
11
65.647411
21
3.085409
31
0
39
0
210
0
220
0
230
1
0
LINE
5
7B
100
AcDbEntity
8
1
62
256
6
ByLayer
370
18
48
1
60
0
100
AcDbLine
10
88.466895
20
3.099671
30
0
11
87.402211
21
3.099006
31
0
39
0
210
0
220
0
230
1
0
LINE
5
7C
100
AcDbEntity
8
1
62
256
6
ByLayer
370
18
48
1
60
0
100
AcDbLine
10
87.402211
20
-3.099006
30
0
11
88.467098
21
-3.099671
31
0
39
0
210
0
220
0
230
1
0
LINE
5
7D
100
AcDbEntity
8
1
62
256
6
ByLayer
370
18
48
1
60
0
100
AcDbLine
10
65.647411
20
-3.085409
30
0
11
66.716107
21
-3.086077
31
0
39
0
210
0
220
0
230
1
0
LINE
5
7E
100
AcDbEntity
8
1
62
256
6
ByLayer
370
18
48
1
60
0
100
AcDbLine
10
22.140103
20
-3.058217
30
0
11
23.216196
21
-3.058889
31
0
39
0
210
0
220
0
230
1
0
LINE
5
7F
100
AcDbEntity
8
1
62
256
6
ByLayer
370
18
48
1
60
0
100
AcDbLine
10
1
20
-3.045004
30
0
11
7.012343
21
-3.048762
31
0
39
0
210
0
220
0
230
1
0
LINE
5
80
100
AcDbEntity
8
1
62
256
6
ByLayer
370
18
48
1
60
0
100
AcDbLine
10
1
20
3.045004
30
0
11
0.350219
21
3.044598
31
0
39
0
210
0
220
0
230
1
0
LINE
5
81
100
AcDbEntity
8
1
62
256
6
ByLayer
370
18
48
1
60
0
100
AcDbLine
10
0.350219
20
-3.044598
30
0
11
1
21
-3.045004
31
0
39
0
210
0
220
0
230
1
0
LINE
5
82
100
AcDbEntity
8
SK1
62
256
6
ByLayer
370
18
48
1
60
0
100
AcDbLine
10
0
20
4
30
0
11
-35.133975
21
4
31
0
39
0
210
0
220
0
230
1
0
LINE
5
84
100
AcDbEntity
8
SK1
62
256
6
ByLayer
370
18
48
1
60
0
100
AcDbLine
10
-35.133975
20
-4
30
0
11
0
21
-4
31
0
39
0
210
0
220
0
230
1
0
LINE
5
85
100
AcDbEntity
8
SK1
62
256
6
ByLayer
370
18
48
1
60
0
100
AcDbLine
10
-35.133975
20
4
30
0
11
-35.278898
21
3.748985
31
0
39
0
210
0
220
0
230
1
0
LINE
5
86
100
AcDbEntity
8
SK1
62
256
6
ByLayer
370
18
48
1
60
0
100
AcDbLine
10
-35.278898
20
-3.748985
30
0
11
-35.133975
21
-4
31
0
39
0
210
0
220
0
230
1
0
LINE
5
87
100
AcDbEntity
8
1
62
256
6
ByLayer
370
18
48
1
60
0
100
AcDbLine
10
44.966763
20
3.072483
30
0
11
43.89354
21
3.071813
31
0
39
0
210
0
220
0
230
1
0
LINE
5
88
100
AcDbEntity
8
1
62
256
6
ByLayer
370
18
48
1
60
0
100
AcDbLine
10
43.89354
20
-3.071813
30
0
11
44.966215
21
-3.072483
31
0
39
0
210
0
220
0
230
1
0
LINE
5
89
100
AcDbEntity
8
SK4
62
256
6
ByLayer
370
18
48
0.05
60
0
100
AcDbLine
10
95
20
0
30
0
11
-41
21
0
31
0
39
0
210
0
220
0
230
1
0
LINE
5
8B
100
AcDbEntity
8
4
62
256
6
ByLayer
370
18
48
0.05
60
0
100
AcDbLine
10
90
20
0
30
0
11
0
21
0
31
0
39
0
210
0
220
0
230
1
0
LINE
5
8D
100
AcDbEntity
8
80
62
256
6
ByLayer
370
18
48
1
60
0
100
AcDbLine
10
0
20
0
30
0
11
-5
21
0
31
0
39
0
210
0
220
0
230
1
0
LINE
5
8E
100
AcDbEntity
8
1
62
256
6
ByLayer
370
18
48
1
60
0
100
AcDbLine
10
88.434513
20
-2.170146
30
0
11
88.877784
21
-1.568498
31
0
39
0
210
0
220
0
230
1
0
LINE
5
8F
100
AcDbEntity
8
1
62
256
6
ByLayer
370
13
48
1
60
0
100
AcDbLine
10
88.87315
20
0.654687
30
0
11
89.969608
21
-0.039397
31
0
39
0
210
0
220
0
230
1
0
LINE
5
90
100
AcDbEntity
8
1
62
256
6
ByLayer
370
13
48
1
60
0
100
AcDbLine
10
88.985358
20
0.765469
30
0
11
89.977603
21
0.137354
31
0
39
0
210
0
220
0
230
1
0
LINE
5
91
100
AcDbEntity
8
1
62
256
6
ByLayer
370
18
48
1
60
0
100
AcDbLine
10
1
20
3.045004
30
0
11
1
21
-3.045004
31
0
39
0
210
0
220
0
230
1
0
LINE
5
92
100
AcDbEntity
8
1
62
256
6
ByLayer
370
18
48
1
60
0
100
AcDbLine
10
89.384027
20
-0.881379
30
0
11
89.877989
21
-0.210929
31
0
39
0
210
0
220
0
230
1
0
LINE
5
93
100
AcDbEntity
8
1
62
256
6
ByLayer
370
13
48
1
60
0
100
AcDbLine
10
0.350219
20
3.044598
30
0
11
0.350219
21
-3.044598
31
0
39
0
210
0
220
0
230
1
0
LINE
5
94
100
AcDbEntity
8
SK1
62
256
6
ByLayer
370
18
48
1
60
0
100
AcDbLine
10
-36
20
1.941524
30
0
11
-36
21
-2.475013
31
0
39
0
210
0
220
0
230
1
0
LINE
5
95
100
AcDbEntity
8
SK1
62
256
6
ByLayer
370
18
48
1
60
0
100
AcDbLine
10
-35.15
20
3.488691
30
0
11
-35.15
21
3.96883
31
0
39
0
210
0
220
0
230
1
0
LINE
5
96
100
AcDbEntity
8
SK1
62
256
6
ByLayer
370
18
48
1
60
0
100
AcDbLine
10
0
20
4
30
0
11
0
21
-4
31
0
39
0
210
0
220
0
230
1
0
LINE
5
97
100
AcDbEntity
8
SK1
62
256
6
ByLayer
370
13
48
1
60
0
100
AcDbLine
10
-35.25
20
3.799013
30
0
11
-35.25
21
3.265419
31
0
39
0
210
0
220
0
230
1
0
LINE
5
98
100
AcDbEntity
8
SK1
62
256
6
ByLayer
370
18
48
1
60
0
100
AcDbLine
10
-36
20
2.475013
30
0
11
-36
21
1.941509
31
0
39
0
210
0
220
0
230
1
0
LINE
5
99
100
AcDbEntity
8
SK1
62
256
6
ByLayer
370
18
48
1
60
0
100
AcDbLine
10
-35.133975
20
4
30
0
11
-35.133975
21
-4
31
0
39
0
210
0
220
0
230
1
0
MTEXT
5
ED
100
AcDbEntity
8
SK6
62
256
6
ByLayer
370
13
48
1
60
0
100
AcDbMText
10
29.129169
20
35.482694
30
0
210
0
220
0
230
1
1
\W0.7585;460.1-0620-047A1-XM GC34
40
3.5
41
0
44
1.084337
50
0
71
8
72
5
7
iso_b_vert
0
DIMENSION
5
FA
100
AcDbEntity
8
SK2
62
256
6
ByLayer
370
13
48
1
60
0
100
AcDbDimension
2
DimnDraft3D1
10
89.0887
20
-13.313398
30
0
11
43.338759
21
-13.313398
31
0
70
32
71
5
72
1
41
1
210
0
220
0
230
1
3
Standard
100
AcDbAlignedDimension
13
0
23
-1.5875
33
0
14
89.0887
24
-4.6875
34
0
50
0
100
AcDbRotatedDimension
1001
ACAD
1000
DSTYLE
1002
{
1070
   279
1070
     0
1070
   172
1070
     1
1070
   173
1070
     1
1070
   340
1005
EE
1070
   271
1070
     2
1070
   272
1070
     2
1070
    77
1070
     1
1070
    73
1070
     0
1070
   171
1070
     3
1070
   274
1070
     4
1070
   177
1070
    35
1070
   176
1070
    35
1070
   178
1070
    35
1070
    48
1040
-0.005
1070
    41
1041
3.5
1070
   147
1041
1.75
1070
    42
1041
1.5875
1070
    44
1041
2.0
1070
   140
1041
3.5
1070
   343
1005
0
1070
   344
1005
0
1002
}
0
DIMENSION
5
104
100
AcDbEntity
8
SK2
62
256
6
ByLayer
370
13
48
1
60
0
100
AcDbDimension
2
DimnDraft3D2
10
90
20
-32.692985
30
0
11
27.43
21
-32.692985
31
0
70
32
71
5
72
1
41
1
210
0
220
0
230
1
3
Standard
100
AcDbAlignedDimension
13
-36
23
-5.5875
33
0
14
90
24
-1.5875
34
0
50
0
100
AcDbRotatedDimension
1001
ACAD
1000
DSTYLE
1002
{
1070
   279
1070
     0
1070
   172
1070
     1
1070
   173
1070
     1
1070
   340
1005
EE
1070
   271
1070
     2
1070
   272
1070
     2
1070
    77
1070
     1
1070
    73
1070
     0
1070
   171
1070
     3
1070
   274
1070
     4
1070
   177
1070
    35
1070
   176
1070
    35
1070
   178
1070
    35
1070
    48
1040
-0.005
1070
    41
1041
3.5
1070
   147
1041
1.75
1070
    42
1041
1.5875
1070
    44
1041
2.0
1070
   140
1041
3.5
1070
   343
1005
0
1070
   344
1005
0
1002
}
0
DIMENSION
5
10E
100
AcDbEntity
8
SK2
62
256
6
ByLayer
370
13
48
1
60
0
100
AcDbDimension
2
DimnDraft3D3
10
90
20
14.709119
30
0
11
64.745
21
14.709119
31
0
70
32
71
5
72
1
41
1
210
0
220
0
230
1
3
Standard
100
AcDbAlignedDimension
13
39.49
23
4.6875
33
0
14
90
24
1.5875
34
0
50
0
100
AcDbRotatedDimension
1001
ACAD
1000
DSTYLE
1002
{
1070
   279
1070
     0
1070
   172
1070
     1
1070
   173
1070
     1
1070
   340
1005
EE
1070
   271
1070
     2
1070
   272
1070
     2
1070
    77
1070
     1
1070
    73
1070
     0
1070
   171
1070
     3
1070
   274
1070
     4
1070
   177
1070
    35
1070
   176
1070
    35
1070
   178
1070
    35
1070
    48
1040
-0.005
1070
    41
1041
3.5
1070
   147
1041
1.75
1070
    42
1041
1.5875
1070
    44
1041
2.0
1070
   140
1041
3.5
1070
   343
1005
0
1070
   344
1005
0
1002
}
0
DIMENSION
5
118
100
AcDbEntity
8
SK2
62
256
6
ByLayer
370
13
48
1
60
0
100
AcDbDimension
2
DimnDraft3D4
10
89.0887
20
-15.902503
30
0
11
99.981425
21
-15.902503
31
0
70
32
71
5
72
1
41
1
210
0
220
0
230
1
3
Standard
100
AcDbAlignedDimension
13
90
23
-1.5875
33
0
14
89.0887
24
-4.6875
34
0
50
0
100
AcDbRotatedDimension
1001
ACAD
1000
DSTYLE
1002
{
1070
   279
1070
     0
1070
   172
1070
     1
1070
   173
1070
     1
1070
   340
1005
EE
1070
   271
1070
     2
1070
   272
1070
     2
1070
    77
1070
     1
1070
    73
1070
     0
1070
   171
1070
     3
1070
   274
1070
     4
1070
   177
1070
    35
1070
   176
1070
    35
1070
   178
1070
    35
1070
    48
1040
-0.005
1070
    41
1041
3.5
1070
   147
1041
1.75
1070
    42
1041
1.5875
1070
    44
1041
2.0
1070
   140
1041
3.5
1070
   343
1005
0
1070
   344
1005
0
1002
}
0
DIMENSION
5
122
100
AcDbEntity
8
SK2
62
256
6
ByLayer
370
13
48
1
60
0
100
AcDbDimension
2
DimnDraft3D5
10
89.0887
20
-22.343428
30
0
11
24.349376
21
-22.343428
31
0
70
32
71
5
72
1
41
1
210
0
220
0
230
1
3
Standard
100
AcDbAlignedDimension
13
-36
23
-5.5875
33
0
14
89.0887
24
-4.6875
34
0
50
0
100
AcDbRotatedDimension
1001
ACAD
1000
DSTYLE
1002
{
1070
   279
1070
     0
1070
   172
1070
     1
1070
   173
1070
     1
1070
   340
1005
EE
1070
   271
1070
     2
1070
   272
1070
     2
1070
    77
1070
     1
1070
    73
1070
     0
1070
   171
1070
     3
1070
   274
1070
     4
1070
   177
1070
    35
1070
   176
1070
    35
1070
   178
1070
    35
1070
    48
1040
-0.005
1070
    41
1041
3.5
1070
   147
1041
1.75
1070
    42
1041
1.5875
1070
    44
1041
2.0
1070
   140
1041
3.5
1070
   343
1005
0
1070
   344
1005
0
1002
}
0
DIMENSION
5
12D
100
AcDbEntity
8
SK2
62
256
6
ByLayer
370
13
48
1
60
0
100
AcDbDimension
2
DimnDraft3D6
10
-46.625163
20
4
30
0
11
-47.250163
21
22.47418
31
0
70
33
71
5
72
1
41
1
210
0
220
0
230
1
3
Standard
100
AcDbAlignedDimension
13
-37.5875
23
-4
33
0
14
-37.5875
24
4
34
0
1001
ACAD
1000
DSTYLE
1002
{
1070
   279
1070
     0
1070
    74
1070
     0
1070
   173
1070
     1
1070
   340
1005
EE
1070
   271
1070
     3
1070
   272
1070
     2
1070
    77
1070
     1
1070
    73
1070
     0
1070
   171
1070
     3
1070
   274
1070
     4
1070
   177
1070
    35
1070
   176
1070
    35
1070
   178
1070
    35
1070
    48
1040
-0.005
1070
    41
1041
3.5
1070
   147
1041
1.75
1070
    42
1041
1.5875
1070
    44
1041
2.0
1070
   140
1041
3.5
1070
   343
1005
0
1070
   344
1005
0
1002
}
0
DIMENSION
5
138
100
AcDbEntity
8
2
62
256
6
ByLayer
370
13
48
1
60
0
100
AcDbDimension
2
DimnDraft3D7
10
104.083343
20
3.1
30
0
11
99.458343
21
20.167266
31
0
70
33
71
5
72
1
41
1
210
0
220
0
230
1
3
Standard
100
AcDbAlignedDimension
13
90.6762
23
-3.1
33
0
14
90.6762
24
3.1
34
0
1001
ACAD
1000
DSTYLE
1002
{
1070
   279
1070
     0
1070
    74
1070
     0
1070
   173
1070
     1
1070
   340
1005
EE
1070
   271
1070
     3
1070
   272
1070
     2
1070
    77
1070
     1
1070
    73
1070
     0
1070
   171
1070
     3
1070
   274
1070
     4
1070
   177
1070
    35
1070
   176
1070
    35
1070
   178
1070
    35
1070
    48
1040
-0.005
1070
    41
1041
3.5
1070
   147
1041
1.75
1070
    42
1041
1.5875
1070
    44
1041
2.0
1070
   140
1041
3.5
1070
   343
1005
0
1070
   344
1005
0
1002
}
0
ENDSEC
0
SECTION
2
OBJECTS
0
DICTIONARY
5
1a3
330
0
100
AcDbDictionary
280
0
281
1
3
ACAD_GROUP
350
1a4
3
ACAD_MLINESTYLE
350
1a5
0
DICTIONARY
5
1a4
330
0
100
AcDbDictionary
280
0
281
1
0
DICTIONARY
5
1a5
330
0
100
AcDbDictionary
280
0
281
1
3
Standard
350
18
0
MLINESTYLE
5
18
330
1a5
100
AcDbMlineStyle
2
Standard
70
0
3

62
256
51
90
52
90
71
2
49
-0.5
62
256
6
ByLayer
49
0.5
62
256
6
ByLayer
0
RASTERVARIABLES
5
191
330

100
AcDbRasterVariables
90
0
70
1
71
1
72
1
0
ENDSEC
0
EOF
