0
SECTION
2
HEADER
9
$ACADVER
1
AC1015
9
$DWGCODEPAGE
3
ANSI_1252
9
$HANDSEED
5
1a2
9
$ANGBASE
50
0
9
$ANGDIR
70
0
9
$ATTMODE
70
1
9
$AUNITS
70
0
9
$AUPREC
70
0
9
$CECOLOR
62
256
9
$CELTSCALE
40
1
9
$CELTYPE
6
ByLayer
9
$CELWEIGHT
370
18
9
$CLAYER
8
0
9
$CMLJUST
70
0
9
$CMLSCALE
40
1
9
$CMLSTYLE
2
Standard
9
$DIMSTYLE
2
Standard
9
$TEXTSIZE
40
0.2
9
$TEXTSTYLE
7
Standard
9
$LUNITS
70
2
9
$LUPREC
70
4
9
$EXTNAMES
290
1
9
$INSUNITS
70
4
9
$LTSCALE
40
1
9
$LWDISPLAY
290
1
9
$PDMODE
70
0
9
$PDSIZE
40
0
9
$PLINEGEN
70
0
0
ENDSEC
0
SECTION
2
CLASSES
0
CLASS
1
RASTERVARIABLES
2
AcDbRasterVariables
3
ISM
90
0
280
0
281
0
0
ENDSEC
0
SECTION
2
TABLES
0
TABLE
2
VPORT
5
198
100
AcDbSymbolTable
0
VPORT
5
1
100
AcDbSymbolTableRecord
100
AcDbViewportTableRecord
2
*Active
70
0
10
0
20
0
11
1
21
1
12
-1
22
1
13
0
23
0
14
0.5
24
0.5
15
10
25
10
16
0
26
0
36
1
17
0
27
0
37
0
0
ENDTAB
0
TABLE
2
LTYPE
5
199
100
AcDbSymbolTable
0
LTYPE
5
14
100
AcDbSymbolTableRecord
100
AcDbLinetypeTableRecord
70
0
2
ByBlock
3

72
65
73
0
40
0
0
LTYPE
5
15
100
AcDbSymbolTableRecord
100
AcDbLinetypeTableRecord
70
0
2
ByLayer
3

72
65
73
0
40
0
0
LTYPE
5
16
100
AcDbSymbolTableRecord
100
AcDbLinetypeTableRecord
70
0
2
CONTINUOUS
3
Solid line
72
65
73
0
40
0
0
LTYPE
5
6A
100
AcDbSymbolTableRecord
100
AcDbLinetypeTableRecord
70
0
2
CENTER
3
____ _ ____ _ ____ _ ____
72
65
73
4
40
47.5
49
22
74
0
49
-8.5
74
0
49
8.5
74
0
49
-8.5
74
0
0
LTYPE
5
6B
100
AcDbSymbolTableRecord
100
AcDbLinetypeTableRecord
70
0
2
DASHED
3
__ __ __ __ __ __ __ __ __
72
65
73
2
40
25.72
49
12.86
74
0
49
-12.86
74
0
0
ENDTAB
0
TABLE
2
LAYER
5
19a
100
AcDbSymbolTable
0
LAYER
5
10
100
AcDbSymbolTableRecord
100
AcDbLayerTableRecord
2
0
70
0
62
7
6
CONTINUOUS
290
1
370
-3
390
0
0
LAYER
5
6D
100
AcDbSymbolTableRecord
100
AcDbLayerTableRecord
2
81
70
0
62
-3
6
CONTINUOUS
290
1
370
-3
390
0
0
LAYER
5
6F
100
AcDbSymbolTableRecord
100
AcDbLayerTableRecord
2
80
70
0
62
-6
6
CONTINUOUS
290
1
370
-3
390
0
0
LAYER
5
74
100
AcDbSymbolTableRecord
100
AcDbLayerTableRecord
2
2
70
0
62
7
6
CONTINUOUS
290
1
370
-3
390
0
0
LAYER
5
78
100
AcDbSymbolTableRecord
100
AcDbLayerTableRecord
2
1
70
0
62
4
6
CONTINUOUS
290
1
370
-3
390
0
0
LAYER
5
88
100
AcDbSymbolTableRecord
100
AcDbLayerTableRecord
2
4
70
0
62
-2
6
CENTER
290
1
370
-3
390
0
0
LAYER
5
184
100
AcDbSymbolTableRecord
100
AcDbLayerTableRecord
2
SK2
70
0
62
7
6
CONTINUOUS
290
1
370
-3
390
0
0
LAYER
5
185
100
AcDbSymbolTableRecord
100
AcDbLayerTableRecord
2
SK1
70
0
62
4
6
CONTINUOUS
290
1
370
-3
390
0
0
LAYER
5
186
100
AcDbSymbolTableRecord
100
AcDbLayerTableRecord
2
SK4
70
0
62
2
6
CENTER
290
1
370
-3
390
0
0
LAYER
5
187
100
AcDbSymbolTableRecord
100
AcDbLayerTableRecord
2
SK6
70
0
62
5
6
CONTINUOUS
290
1
370
-3
390
0
0
ENDTAB
0
TABLE
2
STYLE
5
19b
100
AcDbSymbolTable
0
STYLE
5
11
100
AcDbSymbolTableRecord
100
AcDbTextStyleTableRecord
2
Standard
3
txt
70
0
71
0
40
0
41
1
42
0
50
0
0
STYLE
5
E0
100
AcDbSymbolTableRecord
100
AcDbTextStyleTableRecord
2
iso_b_vert
3
simplex.shx
70
0
71
0
40
0
41
1
42
0
50
0
0
STYLE
5
E1
100
AcDbSymbolTableRecord
100
AcDbTextStyleTableRecord
2
DWGDirectTextStyle
3
simplex
70
0
71
0
40
0
41
1
42
0
50
0
0
ENDTAB
0
TABLE
2
DIMSTYLE
5
19c
100
AcDbSymbolTable
100
AcDbDimStyleTable
0
DIMSTYLE
105
27
100
AcDbSymbolTableRecord
100
AcDbDimStyleTableRecord
2
Standard
70
0
3
<>
41
0.18
42
0.0625
44
0.18
140
0.18
147
0.09
73
0
74
0
77
1
271
2
275
0
278
52
280
0
340
11
0
ENDTAB
0
TABLE
2
VIEW
5
19d
100
AcDbSymbolTable
0
ENDTAB
0
TABLE
2
UCS
5
19e
100
AcDbSymbolTable
0
ENDTAB
0
TABLE
2
APPID
5
19f
100
AcDbSymbolTable
0
APPID
5
12
100
AcDbSymbolTableRecord
100
AcDbRegAppTableRecord
2
ACAD
70
0
0
ENDTAB
0
TABLE
2
BLOCK_RECORD
5
1a0
100
AcDbSymbolTable
0
BLOCK_RECORD
5
1F
100
AcDbSymbolTableRecord
100
AcDbBlockTableRecord
2
*Model_Space
340
0
70
0
0
BLOCK_RECORD
5
1B
100
AcDbSymbolTableRecord
100
AcDbBlockTableRecord
2
*Paper_Space
340
0
70
0
0
BLOCK_RECORD
5
23
100
AcDbSymbolTableRecord
100
AcDbBlockTableRecord
2
*Paper_Space0
340
0
70
0
0
BLOCK_RECORD
5
E3
100
AcDbSymbolTableRecord
100
AcDbBlockTableRecord
2
DimnDraft3D1
340
0
70
0
0
BLOCK_RECORD
5
ED
100
AcDbSymbolTableRecord
100
AcDbBlockTableRecord
2
DimnDraft3D2
340
0
70
0
0
BLOCK_RECORD
5
F7
100
AcDbSymbolTableRecord
100
AcDbBlockTableRecord
2
DimnDraft3D3
340
0
70
0
0
BLOCK_RECORD
5
101
100
AcDbSymbolTableRecord
100
AcDbBlockTableRecord
2
DimnDraft3D4
340
0
70
0
0
BLOCK_RECORD
5
10B
100
AcDbSymbolTableRecord
100
AcDbBlockTableRecord
2
DimnDraft3D5
340
0
70
0
0
BLOCK_RECORD
5
115
100
AcDbSymbolTableRecord
100
AcDbBlockTableRecord
2
DimnDraft3D6
340
0
70
0
0
BLOCK_RECORD
5
120
100
AcDbSymbolTableRecord
100
AcDbBlockTableRecord
2
DimnDraft3D7
340
0
70
0
0
ENDTAB
0
ENDSEC
0
SECTION
2
BLOCKS
0
BLOCK
5
20
100
AcDbEntity
8
0
100
AcDbBlockBegin
2
*Model_Space
70
0
10
0
20
0
30
0
3
*Model_Space
0
ENDBLK
5
21
100
AcDbEntity
8
0
100
AcDbBlockEnd
0
BLOCK
5
1C
100
AcDbEntity
8
0
100
AcDbBlockBegin
2
*Paper_Space
70
0
10
0
20
0
30
0
3
*Paper_Space
0
ENDBLK
5
1D
100
AcDbEntity
8
0
100
AcDbBlockEnd
0
BLOCK
5
24
100
AcDbEntity
8
0
100
AcDbBlockBegin
2
*Paper_Space0
70
0
10
0
20
0
30
0
3
*Paper_Space0
0
ENDBLK
5
25
100
AcDbEntity
8
0
100
AcDbBlockEnd
0
BLOCK
5
EA
100
AcDbEntity
8
0
100
AcDbBlockBegin
2
DimnDraft3D1
70
0
10
0
20
0
30
0
3
DimnDraft3D1
0
MTEXT
5
E4
100
AcDbEntity
8
SK2
62
256
6
ByLayer
370
13
48
1
60
0
100
AcDbMText
10
22.103464
20
-12.363398
30
0
210
0
220
0
230
1
1
\W0.6846;54,11
40
3.5
41
0
44
1.084337
50
0
71
7
72
5
7
iso_b_vert
0
LINE
5
E5
100
AcDbEntity
8
SK2
62
256
6
ByLayer
370
13
48
1
60
0
100
AcDbLine
10
0
20
-1.5875
30
0
11
0
21
-15.238398
31
0
39
0
210
0
220
0
230
1
0
LINE
5
E6
100
AcDbEntity
8
SK2
62
256
6
ByLayer
370
13
48
1
60
0
100
AcDbLine
10
54.1113
20
-4.6125
30
0
11
54.1113
21
-15.238398
31
0
39
0
210
0
220
0
230
1
0
LINE
5
E7
100
AcDbEntity
8
SK2
62
256
6
ByLayer
370
13
48
1
60
0
100
AcDbLine
10
0
20
-13.238398
30
0
11
54.1113
21
-13.238398
31
0
39
0
210
0
220
0
230
1
0
SOLID
5
E8
100
AcDbEntity
8
SK2
62
256
6
ByLayer
370
13
48
1
60
0
100
AcDbTrace
10
0
20
-13.238398
30
0
11
3.499998
21
-12.777615
31
0
12
3.500002
22
-13.699182
32
0
13
0
23
-13.238398
33
0
39
0
210
0
220
0
230
1
0
SOLID
5
E9
100
AcDbEntity
8
SK2
62
256
6
ByLayer
370
13
48
1
60
0
100
AcDbTrace
10
54.1113
20
-13.238398
30
0
11
50.611302
21
-13.699182
31
0
12
50.611298
22
-12.777615
32
0
13
54.1113
23
-13.238398
33
0
39
0
210
0
220
0
230
1
0
ENDBLK
5
EB
100
AcDbEntity
8
0
100
AcDbBlockEnd
0
BLOCK
5
F4
100
AcDbEntity
8
0
100
AcDbBlockBegin
2
DimnDraft3D2
70
0
10
0
20
0
30
0
3
DimnDraft3D2
0
MTEXT
5
EE
100
AcDbEntity
8
SK2
62
256
6
ByLayer
370
13
48
1
60
0
100
AcDbMText
10
5.941416
20
-31.817985
30
0
210
0
220
0
230
1
1
\W0.6713;91,00
40
3.5
41
0
44
1.084337
50
0
71
7
72
5
7
iso_b_vert
0
LINE
5
EF
100
AcDbEntity
8
SK2
62
256
6
ByLayer
370
13
48
1
60
0
100
AcDbLine
10
-36
20
-5.5875
30
0
11
-36
21
-34.692985
31
0
39
0
210
0
220
0
230
1
0
LINE
5
F0
100
AcDbEntity
8
SK2
62
256
6
ByLayer
370
13
48
1
60
0
100
AcDbLine
10
55
20
-1.5875
30
0
11
55
21
-34.692985
31
0
39
0
210
0
220
0
230
1
0
LINE
5
F1
100
AcDbEntity
8
SK2
62
256
6
ByLayer
370
13
48
1
60
0
100
AcDbLine
10
-36
20
-32.692985
30
0
11
55
21
-32.692985
31
0
39
0
210
0
220
0
230
1
0
SOLID
5
F2
100
AcDbEntity
8
SK2
62
256
6
ByLayer
370
13
48
1
60
0
100
AcDbTrace
10
-36
20
-32.692985
30
0
11
-32.500002
21
-32.232202
31
0
12
-32.499998
22
-33.153769
32
0
13
-36
23
-32.692985
33
0
39
0
210
0
220
0
230
1
0
SOLID
5
F3
100
AcDbEntity
8
SK2
62
256
6
ByLayer
370
13
48
1
60
0
100
AcDbTrace
10
55
20
-32.692985
30
0
11
51.500002
21
-33.153769
31
0
12
51.499998
22
-32.232202
32
0
13
55
23
-32.692985
33
0
39
0
210
0
220
0
230
1
0
ENDBLK
5
F5
100
AcDbEntity
8
0
100
AcDbBlockEnd
0
BLOCK
5
FE
100
AcDbEntity
8
0
100
AcDbBlockBegin
2
DimnDraft3D3
70
0
10
0
20
0
30
0
3
DimnDraft3D3
0
MTEXT
5
F8
100
AcDbEntity
8
SK2
62
256
6
ByLayer
370
13
48
1
60
0
100
AcDbMText
10
35.861316
20
15.509119
30
0
210
0
220
0
230
1
1
\W0.6110;31,13
40
3.5
41
0
44
1.084337
50
0
71
7
72
5
7
iso_b_vert
0
LINE
5
F9
100
AcDbEntity
8
SK2
62
256
6
ByLayer
370
13
48
1
60
0
100
AcDbLine
10
23.87
20
4.6125
30
0
11
23.87
21
16.634119
31
0
39
0
210
0
220
0
230
1
0
LINE
5
FA
100
AcDbEntity
8
SK2
62
256
6
ByLayer
370
13
48
1
60
0
100
AcDbLine
10
55
20
1.5875
30
0
11
55
21
16.634119
31
0
39
0
210
0
220
0
230
1
0
LINE
5
FB
100
AcDbEntity
8
SK2
62
256
6
ByLayer
370
13
48
1
60
0
100
AcDbLine
10
23.87
20
14.634119
30
0
11
55
21
14.634119
31
0
39
0
210
0
220
0
230
1
0
SOLID
5
FC
100
AcDbEntity
8
SK2
62
256
6
ByLayer
370
13
48
1
60
0
100
AcDbTrace
10
23.87
20
14.634119
30
0
11
27.369998
21
15.094903
31
0
12
27.370002
22
14.173335
32
0
13
23.87
23
14.634119
33
0
39
0
210
0
220
0
230
1
0
SOLID
5
FD
100
AcDbEntity
8
SK2
62
256
6
ByLayer
370
13
48
1
60
0
100
AcDbTrace
10
55
20
14.634119
30
0
11
51.500002
21
14.173335
31
0
12
51.499998
22
15.094903
32
0
13
55
23
14.634119
33
0
39
0
210
0
220
0
230
1
0
ENDBLK
5
FF
100
AcDbEntity
8
0
100
AcDbBlockEnd
0
BLOCK
5
108
100
AcDbEntity
8
0
100
AcDbBlockBegin
2
DimnDraft3D4
70
0
10
0
20
0
30
0
3
DimnDraft3D4
0
MTEXT
5
102
100
AcDbEntity
8
SK2
62
256
6
ByLayer
370
13
48
1
60
0
100
AcDbMText
10
61.840636
20
-14.952503
30
0
210
0
220
0
230
1
1
\W0.7259;0,89
40
3.5
41
0
44
1.084337
50
0
71
7
72
5
7
iso_b_vert
0
LINE
5
103
100
AcDbEntity
8
SK2
62
256
6
ByLayer
370
13
48
1
60
0
100
AcDbLine
10
55
20
-1.5875
30
0
11
55
21
-17.827503
31
0
39
0
210
0
220
0
230
1
0
LINE
5
104
100
AcDbEntity
8
SK2
62
256
6
ByLayer
370
13
48
1
60
0
100
AcDbLine
10
54.1113
20
-4.6125
30
0
11
54.1113
21
-17.827503
31
0
39
0
210
0
220
0
230
1
0
LINE
5
105
100
AcDbEntity
8
SK2
62
256
6
ByLayer
370
13
48
1
60
0
100
AcDbLine
10
45.3613
20
-15.827503
30
0
11
68.997215
21
-15.827503
31
0
39
0
210
0
220
0
230
1
0
SOLID
5
106
100
AcDbEntity
8
SK2
62
256
6
ByLayer
370
13
48
1
60
0
100
AcDbTrace
10
55
20
-15.827503
30
0
11
58.499998
21
-15.366719
31
0
12
58.500002
22
-16.288287
32
0
13
55
23
-15.827503
33
0
39
0
210
0
220
0
230
1
0
SOLID
5
107
100
AcDbEntity
8
SK2
62
256
6
ByLayer
370
13
48
1
60
0
100
AcDbTrace
10
54.1113
20
-15.827503
30
0
11
50.611302
21
-16.288287
31
0
12
50.611298
22
-15.366719
32
0
13
54.1113
23
-15.827503
33
0
39
0
210
0
220
0
230
1
0
ENDBLK
5
109
100
AcDbEntity
8
0
100
AcDbBlockEnd
0
BLOCK
5
112
100
AcDbEntity
8
0
100
AcDbBlockBegin
2
DimnDraft3D5
70
0
10
0
20
0
30
0
3
DimnDraft3D5
0
MTEXT
5
10C
100
AcDbEntity
8
SK2
62
256
6
ByLayer
370
13
48
1
60
0
100
AcDbMText
10
3.298292
20
-21.468428
30
0
210
0
220
0
230
1
1
\W0.6563;90,11
40
3.5
41
0
44
1.084337
50
0
71
7
72
5
7
iso_b_vert
0
LINE
5
10D
100
AcDbEntity
8
SK2
62
256
6
ByLayer
370
13
48
1
60
0
100
AcDbLine
10
-36
20
-5.5875
30
0
11
-36
21
-24.343428
31
0
39
0
210
0
220
0
230
1
0
LINE
5
10E
100
AcDbEntity
8
SK2
62
256
6
ByLayer
370
13
48
1
60
0
100
AcDbLine
10
54.1113
20
-4.6125
30
0
11
54.1113
21
-24.343428
31
0
39
0
210
0
220
0
230
1
0
LINE
5
10F
100
AcDbEntity
8
SK2
62
256
6
ByLayer
370
13
48
1
60
0
100
AcDbLine
10
-36
20
-22.343428
30
0
11
54.1113
21
-22.343428
31
0
39
0
210
0
220
0
230
1
0
SOLID
5
110
100
AcDbEntity
8
SK2
62
256
6
ByLayer
370
13
48
1
60
0
100
AcDbTrace
10
-36
20
-22.343428
30
0
11
-32.500002
21
-21.882645
31
0
12
-32.499998
22
-22.804212
32
0
13
-36
23
-22.343428
33
0
39
0
210
0
220
0
230
1
0
SOLID
5
111
100
AcDbEntity
8
SK2
62
256
6
ByLayer
370
13
48
1
60
0
100
AcDbTrace
10
54.1113
20
-22.343428
30
0
11
50.611302
21
-22.804212
31
0
12
50.611298
22
-21.882645
32
0
13
54.1113
23
-22.343428
33
0
39
0
210
0
220
0
230
1
0
ENDBLK
5
113
100
AcDbEntity
8
0
100
AcDbBlockEnd
0
BLOCK
5
11D
100
AcDbEntity
8
0
100
AcDbBlockBegin
2
DimnDraft3D6
70
0
10
0
20
0
30
0
3
DimnDraft3D6
0
MTEXT
5
116
100
AcDbEntity
8
SK2
62
256
6
ByLayer
370
13
48
1
60
0
100
AcDbMText
10
-46.375163
20
23.34918
30
0
210
0
220
0
230
1
1
\W0.7317;8,000
40
3.5
41
0
44
1.084337
50
90
71
7
72
5
7
iso_b_vert
0
MTEXT
5
117
100
AcDbEntity
8
SK2
62
256
6
ByLayer
370
13
48
1
60
0
100
AcDbMText
10
-46.375163
20
18.126524
30
0
210
0
220
0
230
1
1
%%c
40
3.5
41
0
44
1.084337
50
90
71
7
72
5
7
iso_b_vert
0
LINE
5
118
100
AcDbEntity
8
SK2
62
256
6
ByLayer
370
13
48
1
60
0
100
AcDbLine
10
-37.5875
20
-4
30
0
11
-46.625163
21
-4
31
0
39
0
210
0
220
0
230
1
0
LINE
5
119
100
AcDbEntity
8
SK2
62
256
6
ByLayer
370
13
48
1
60
0
100
AcDbLine
10
-37.5875
20
4
30
0
11
-46.625163
21
4
31
0
39
0
210
0
220
0
230
1
0
LINE
5
11A
100
AcDbEntity
8
SK2
62
256
6
ByLayer
370
13
48
1
60
0
100
AcDbLine
10
-44.625163
20
-4
30
0
11
-44.625163
21
33.121549
31
0
39
0
210
0
220
0
230
1
0
SOLID
5
11B
100
AcDbEntity
8
SK2
62
256
6
ByLayer
370
13
48
1
60
0
100
AcDbTrace
10
-44.625163
20
-4
30
0
11
-45.085946
21
-0.500002
31
0
12
-44.164379
22
-0.499998
32
0
13
-44.625163
23
-4
33
0
39
0
210
0
220
0
230
1
0
SOLID
5
11C
100
AcDbEntity
8
SK2
62
256
6
ByLayer
370
13
48
1
60
0
100
AcDbTrace
10
-44.625163
20
4
30
0
11
-44.164379
21
0.500002
31
0
12
-45.085946
22
0.499998
32
0
13
-44.625163
23
4
33
0
39
0
210
0
220
0
230
1
0
ENDBLK
5
11E
100
AcDbEntity
8
0
100
AcDbBlockEnd
0
BLOCK
5
128
100
AcDbEntity
8
0
100
AcDbBlockBegin
2
DimnDraft3D7
70
0
10
0
20
0
30
0
3
DimnDraft3D7
0
MTEXT
5
121
100
AcDbEntity
8
2
62
256
6
ByLayer
370
13
48
1
60
0
100
AcDbMText
10
65.333343
20
20.967266
30
0
210
0
220
0
230
1
1
\W0.7317;6,050
40
3.5
41
0
44
1.084337
50
90
71
7
72
5
7
iso_b_vert
0
MTEXT
5
122
100
AcDbEntity
8
2
62
256
6
ByLayer
370
13
48
1
60
0
100
AcDbMText
10
65.333343
20
15.74461
30
0
210
0
220
0
230
1
1
%%c
40
3.5
41
0
44
1.084337
50
90
71
7
72
5
7
iso_b_vert
0
LINE
5
123
100
AcDbEntity
8
2
62
256
6
ByLayer
370
13
48
1
60
0
100
AcDbLine
10
55.6988
20
-3.025
30
0
11
69.083343
21
-3.025
31
0
39
0
210
0
220
0
230
1
0
LINE
5
124
100
AcDbEntity
8
2
62
256
6
ByLayer
370
13
48
1
60
0
100
AcDbLine
10
55.6988
20
3.025
30
0
11
69.083343
21
3.025
31
0
39
0
210
0
220
0
230
1
0
LINE
5
125
100
AcDbEntity
8
2
62
256
6
ByLayer
370
13
48
1
60
0
100
AcDbLine
10
67.083343
20
30.739635
30
0
11
67.083343
21
-11.775
31
0
39
0
210
0
220
0
230
1
0
SOLID
5
126
100
AcDbEntity
8
2
62
256
6
ByLayer
370
13
48
1
60
0
100
AcDbTrace
10
67.083343
20
-3.025
30
0
11
67.544126
21
-6.524998
31
0
12
66.622559
22
-6.525002
32
0
13
67.083343
23
-3.025
33
0
39
0
210
0
220
0
230
1
0
SOLID
5
127
100
AcDbEntity
8
2
62
256
6
ByLayer
370
13
48
1
60
0
100
AcDbTrace
10
67.083343
20
3.025
30
0
11
66.622559
21
6.524998
31
0
12
67.544126
22
6.525002
32
0
13
67.083343
23
3.025
33
0
39
0
210
0
220
0
230
1
0
ENDBLK
5
129
100
AcDbEntity
8
0
100
AcDbBlockEnd
0
ENDSEC
0
SECTION
2
ENTITIES
0
ARC
5
95
100
AcDbEntity
8
1
62
256
6
ByLayer
370
18
48
1
60
0
100
AcDbCircle
39
0
10
-0.35
20
3.341412
30
0
40
0.350000000000001
210
0
220
0
230
-1
100
AcDbArc
50
269.96419
51
0
0
ARC
5
96
100
AcDbEntity
8
1
62
256
6
ByLayer
370
18
48
1
60
0
100
AcDbCircle
39
0
10
-0.35
20
-3.341412
30
0
40
0.350000000000001
210
0
220
0
230
-1
100
AcDbArc
50
0
51
90.03581
0
ELLIPSE
5
97
100
AcDbEntity
8
1
62
256
6
ByLayer
370
13
48
1
60
0
100
AcDbEllipse
10
3.282278
20
-1.563688
30
0
11
0.0123857185686411
21
0.0992300054194215
31
0
210
0
220
0
230
1
40
0.49959
41
1.12088265186308
42
2.51036837742535
0
ELLIPSE
5
98
100
AcDbEntity
8
1
62
256
6
ByLayer
370
13
48
1
60
0
100
AcDbEllipse
10
3.341388
20
-1.578254
30
0
11
0.0338340691972205
21
0.0941023685225707
31
0
210
0
220
0
230
1
40
0.208912
41
1.04054074045555
42
2.58311411415157
0
POINT
5
6C
100
AcDbEntity
8
81
62
256
6
ByLayer
370
18
48
1
60
0
100
AcDbPoint
10
55
20
0
30
0
39
0
210
0
220
0
230
1
50
360
0
POINT
5
6E
100
AcDbEntity
8
80
62
256
6
ByLayer
370
18
48
1
60
0
100
AcDbPoint
10
0
20
0
30
0
39
0
210
0
220
0
230
1
50
360
0
POINT
5
70
100
AcDbEntity
8
SK2
62
256
6
ByLayer
370
18
48
1
60
1
100
AcDbPoint
10
-36
20
-4
30
0
39
0
210
0
220
0
230
1
50
360
0
POINT
5
72
100
AcDbEntity
8
SK2
62
256
6
ByLayer
370
18
48
1
60
1
100
AcDbPoint
10
-36
20
4
30
0
39
0
210
0
220
0
230
1
50
360
0
POINT
5
73
100
AcDbEntity
8
2
62
256
6
ByLayer
370
18
48
1
60
1
100
AcDbPoint
10
54.1113
20
-3.025
30
0
39
0
210
0
220
0
230
1
50
360
0
POINT
5
75
100
AcDbEntity
8
2
62
256
6
ByLayer
370
18
48
1
60
1
100
AcDbPoint
10
54.1113
20
3.025
30
0
39
0
210
0
220
0
230
1
50
360
0
SPLINE
5
99
100
AcDbEntity
8
1
62
256
6
ByLayer
370
18
48
1
60
0
100
AcDbSpline
70
4
71
3
72
22
73
18
40
0
40
0
40
0
40
0
40
0.0311831879817096
40
0.0771390933892979
40
0.119223547063327
40
0.169265753194603
40
0.227267952599263
40
0.29001948377392
40
0.39153565678248
40
0.477308773600461
40
0.580108837931888
40
0.680189616336686
40
0.764334379727253
40
0.830619937696768
40
0.894524355039717
40
0.964268456067513
40
1
40
1
40
1
40
1
41
1
10
41.969410200465
20
2.86475082652331
30
0
41
1
10
41.8855145197679
20
2.86467864199665
30
0
41
1
10
41.6779877028603
20
2.86456899317775
30
0
41
1
10
41.357210213962
20
2.86460228268774
30
0
41
1
10
40.9858860386137
20
2.86512389045771
30
0
41
1
10
40.5819474894425
20
2.8654652081328
30
0
41
1
10
40.1224178103366
20
2.863666952373
30
0
41
1
10
39.5243816874771
20
2.86396475190256
30
0
41
1
10
38.8516449164278
20
2.86378966310571
30
0
41
1
10
38.0710837718177
20
2.86282904501513
30
0
41
1
10
37.2946671727329
20
2.86341656069243
30
0
41
1
10
36.522990290208
20
2.86175858137202
30
0
41
1
10
35.8489431392776
20
2.86205996511418
30
0
41
1
10
35.2721335247431
20
2.86105964614646
30
0
41
1
10
34.7355695294524
20
2.86185047530807
30
0
41
1
10
34.2827849852014
20
2.86162457214525
30
0
41
1
10
34.0024972750688
20
2.85960132324743
30
0
41
1
10
33.9074397448615
20
2.85892698471307
30
0
0
SPLINE
5
9A
100
AcDbEntity
8
1
62
256
6
ByLayer
370
18
48
1
60
0
100
AcDbSpline
70
4
71
3
72
21
73
17
40
0
40
0
40
0
40
0
40
0.110186733764066
40
0.204988591626748
40
0.286231105504329
40
0.355860445877817
40
0.415831428221093
40
0.484068503144227
40
0.561890073963147
40
0.631445053045232
40
0.689212687326718
40
0.739281314304115
40
0.806267300874623
40
0.890327732493214
40
0.979385333436912
40
1
40
1
40
1
40
1
41
1
10
10.235850670771
20
-2.84642880530541
30
0
41
1
10
10.6114749761612
20
-2.84619854815654
30
0
41
1
10
11.3102203211467
20
-2.84622218805376
30
0
41
1
10
12.2928610608021
20
-2.84721259721255
30
0
41
1
10
13.1248254210371
20
-2.84927366079148
30
0
41
1
10
13.846910984528
20
-2.84829264920461
30
0
41
1
10
14.5226689285765
20
-2.85008297999687
30
0
41
1
10
15.2271674193479
20
-2.85043067596905
30
0
41
1
10
15.9649072524717
20
-2.85156584419781
30
0
41
1
10
16.6668104622373
20
-2.85090852766405
30
0
41
1
10
17.2734634698828
20
-2.85306007543193
30
0
41
1
10
17.8723082622336
20
-2.85161132436392
30
0
41
1
10
18.5564754177059
20
-2.85396674364282
30
0
41
1
10
19.3664895945358
20
-2.84465307545673
30
0
41
1
10
20.0365652602698
20
-2.84945426015034
30
0
41
1
10
20.4062473108492
20
-2.85076525856729
30
0
41
1
10
20.4756405609335
20
-2.85105418282507
30
0
0
SPLINE
5
9B
100
AcDbEntity
8
1
62
256
6
ByLayer
370
18
48
1
60
0
100
AcDbSpline
70
4
71
1
72
4
73
2
40
0
40
0
40
1
40
1
41
1
10
53.6791830571214
20
-2.87312914931854
30
0
41
1
10
53.9654827216065
20
-2.87279172024773
30
0
0
SPLINE
5
9C
100
AcDbEntity
8
1
62
256
6
ByLayer
370
18
48
1
60
0
100
AcDbSpline
70
4
71
3
72
24
73
20
40
0
40
0
40
0
40
0
40
0.0876601959733803
40
0.160300589389908
40
0.221738266422177
40
0.278031513536284
40
0.329611318910759
40
0.383113037905952
40
0.451029634282468
40
0.531808824316753
40
0.59701354319836
40
0.650651250607757
40
0.706259217905983
40
0.770864636548173
40
0.84081224515476
40
0.888422404137719
40
0.928259447443231
40
0.966072817706889
40
1
40
1
40
1
40
1
41
1
10
31.9914711067639
20
-2.86000921942733
30
0
41
1
10
32.2785311131243
20
-2.8588512157811
30
0
41
1
10
32.8053392077743
20
-2.85785849943338
30
0
41
1
10
33.5494888540599
20
-2.85543447873062
30
0
41
1
10
34.1748250869957
20
-2.8615708957314
30
0
41
1
10
34.7355695763222
20
-2.86184986135828
30
0
41
1
10
35.2721333628913
20
-2.86106176398292
30
0
41
1
10
35.8489438421812
20
-2.86205076273097
30
0
41
1
10
36.5229865924614
20
-2.86180698494383
30
0
41
1
10
37.2354939695368
20
-2.8630902427642
30
0
41
1
10
37.9006403393765
20
-2.8635353646298
30
0
41
1
10
38.4822115546836
20
-2.86247330967282
30
0
41
1
10
39.061724614212
20
-2.86456885609343
30
0
41
1
10
39.6956215829679
20
-2.86338503169566
30
0
41
1
10
40.3028524291217
20
-2.86466140132455
30
0
41
1
10
40.827530674918
20
-2.86541720180384
30
0
41
1
10
41.2449712470351
20
-2.86472858420541
30
0
41
1
10
41.6167875298286
20
-2.86449288765641
30
0
41
1
10
41.8559260283195
20
-2.86464468057386
30
0
41
1
10
41.9690278287707
20
-2.86477821052611
30
0
0
SPLINE
5
9D
100
AcDbEntity
8
1
62
256
6
ByLayer
370
18
48
1
60
0
100
AcDbSpline
70
4
71
3
72
20
73
16
40
0
40
0
40
0
40
0
40
0.0253216709410416
40
0.134688631600559
40
0.237918831176266
40
0.320180801873838
40
0.381667452085644
40
0.452608848678543
40
0.538025664114026
40
0.633594246516355
40
0.717392613078863
40
0.791039825649167
40
0.876547960271599
40
0.976317623124055
40
1
40
1
40
1
40
1
41
1
10
20.4756890535531
20
2.85105437601408
30
0
41
1
10
20.4062797135586
20
2.85076538240566
30
0
41
1
10
20.0365815897104
20
2.84945435919653
30
0
41
1
10
19.3664896837305
20
2.84465308285462
30
0
41
1
10
18.5564753993979
20
2.85396674212492
30
0
41
1
10
17.8723082654084
20
2.85161132462707
30
0
41
1
10
17.2734634689709
20
2.85306007535993
30
0
41
1
10
16.666810462431
20
2.85090852768863
30
0
41
1
10
15.9649072522417
20
2.85156584418991
30
0
41
1
10
15.2271674192835
20
2.85043067597073
30
0
41
1
10
14.5226689285492
20
2.85008297999647
30
0
41
1
10
13.8469109845337
20
2.84829264920481
30
0
41
1
10
13.124825421041
20
2.84927366079128
30
0
41
1
10
12.548597358344
20
2.84784614450621
30
0
41
1
10
12.2054928848277
20
2.84728573962926
30
0
41
1
10
12.1396041717825
20
2.84718776384611
30
0
0
SPLINE
5
9E
100
AcDbEntity
8
1
62
256
6
ByLayer
370
18
48
1
60
0
100
AcDbSpline
70
4
71
3
72
31
73
27
40
0
40
0
40
0
40
0
40
0.0624999999999999
40
0.0624999999999999
40
0.125
40
0.125
40
0.25
40
0.25
40
0.312499999999999
40
0.312499999999999
40
0.374999999999999
40
0.374999999999999
40
0.499999999999999
40
0.499999999999999
40
0.562499999999999
40
0.562499999999999
40
0.624999999999999
40
0.687499999999999
40
0.687499999999999
40
0.75
40
0.75
40
0.875
40
0.875
40
0.9375
40
0.9375
40
1
40
1
40
1
40
1
41
1
10
3.11166719893637
20
-1.52003800333358
30
0
41
1
10
3.11169064903248
20
-1.43720223300775
30
0
41
1
10
3.11171353754151
20
-1.35216908535105
30
0
41
1
10
3.11175832976531
20
-1.17769475819986
30
0
41
1
10
3.11178018468502
20
-1.0884075181306
30
0
41
1
10
3.11184347427033
20
-0.818268023357604
30
0
41
1
10
3.11188300523699
20
-0.633805453349112
30
0
41
1
10
3.11193924602381
20
-0.350565956455767
30
0
41
1
10
3.11195756339231
20
-0.254593599016687
30
0
41
1
10
3.11199286917559
20
-0.0626393215322878
30
0
41
1
10
3.11200978336072
20
0.032894697887258
30
0
41
1
10
3.11205857791327
20
0.318205275161148
30
0
41
1
10
3.11208853513085
20
0.506702040769085
30
0
41
1
10
3.11213018264837
20
0.78681714256183
30
0
41
1
10
3.11214349120002
20
0.879659566741879
30
0
41
1
10
3.112168498686
20
1.06046521475957
30
0
41
1
10
3.11219205264149
20
1.23742403042729
30
0
41
1
10
3.11221283101517
20
1.4068086441757
30
0
41
1
10
3.11223221832981
20
1.57236160523794
30
0
41
1
10
3.11224124978173
20
1.65354258052781
30
0
41
1
10
3.11226591340511
20
1.88886821415608
30
0
41
1
10
3.11227895360094
20
2.03281495941837
30
0
41
1
10
3.11229319680297
20
2.22995761832658
30
0
41
1
10
3.11229704920677
20
2.29252051187521
30
0
41
1
10
3.11230281205323
20
2.41118507945748
30
0
41
1
10
3.11230470920682
20
2.46727967747464
30
0
41
1
10
3.11230552575606
20
2.51892233867088
30
0
0
SPLINE
5
9F
100
AcDbEntity
8
1
62
256
6
ByLayer
370
18
48
1
60
0
100
AcDbSpline
70
4
71
3
72
10
73
6
40
0
40
0
40
0
40
0
40
0.5
40
0.5
40
1
40
1
40
1
40
1
41
1
10
54.9996835674805
20
0.0408918369223841
30
0
41
1
10
54.9964442984296
20
0.024919219451931
30
0
41
1
10
54.9916584801384
20
0.0075242670224611
30
0
41
1
10
54.9793885288072
20
-0.0259382539466344
30
0
41
1
10
54.9719938439822
20
-0.0416621057208033
30
0
41
1
10
54.9644063939646
20
-0.0541914721810883
30
0
0
SPLINE
5
A0
100
AcDbEntity
8
1
62
256
6
ByLayer
370
13
48
1
60
0
100
AcDbSpline
70
4
71
3
72
8
73
4
40
0
40
0
40
0
40
0
40
1
40
1
40
1
40
1
41
1
10
3.24302311197397
20
-1.64014568659232
30
0
41
1
10
3.26199671325148
20
-1.64239277456804
30
0
41
1
10
3.2818933170575
20
-1.64713981714746
30
0
41
1
10
3.30227713153209
20
-1.65431332969527
30
0
0
SPLINE
5
A1
100
AcDbEntity
8
1
62
256
6
ByLayer
370
13
48
1
60
0
100
AcDbSpline
70
4
71
3
72
8
73
4
40
0
40
0
40
0
40
0
40
1
40
1
40
1
40
1
41
1
10
3.24302311197394
20
-1.51496243953579
30
0
41
1
10
3.18121044593585
20
-1.5163292073756
30
0
41
1
10
3.13576127724809
20
-1.51858393720391
30
0
41
1
10
3.11166719893646
20
-1.52003800333571
30
0
0
SPLINE
5
A2
100
AcDbEntity
8
1
62
256
6
ByLayer
370
18
48
1
60
0
100
AcDbSpline
70
4
71
3
72
8
73
4
40
0
40
0
40
0
40
0
40
1
40
1
40
1
40
1
41
1
10
54.9180856260542
20
-0.682516288331016
30
0
41
1
10
54.9572850221917
20
-0.491826267820187
30
0
41
1
10
54.9838309031148
20
-0.301259429420668
30
0
41
1
10
54.9908486929322
20
-0.110882697205113
30
0
0
SPLINE
5
A3
100
AcDbEntity
8
1
62
256
6
ByLayer
370
18
48
1
60
0
100
AcDbSpline
70
4
71
3
72
8
73
4
40
0
40
0
40
0
40
0
40
1
40
1
40
1
40
1
41
1
10
54.9081216316369
20
0.726064099600677
30
0
41
1
10
54.9076528140728
20
0.724506374664031
30
0
41
1
10
54.907183413408
20
0.722948922124203
30
0
41
1
10
54.9067134311009
20
0.721391741567061
30
0
0
SPLINE
5
A4
100
AcDbEntity
8
1
62
256
6
ByLayer
370
18
48
1
60
0
100
AcDbSpline
70
4
71
3
72
10
73
6
40
0
40
0
40
0
40
0
40
0.5
40
0.5
40
1
40
1
40
1
40
1
41
1
10
54.9908486929321
20
0.110882697205312
30
0
41
1
10
54.9912165689362
20
0.100903054988493
30
0
41
1
10
54.9922393496432
20
0.0896839106210905
30
0
41
1
10
54.9952499263826
20
0.0662080836258099
30
0
41
1
10
54.9972431430192
20
0.0538333733223908
30
0
41
1
10
54.9996835674797
20
0.0408918369220146
30
0
0
SPLINE
5
A5
100
AcDbEntity
8
1
62
256
6
ByLayer
370
18
48
1
60
0
100
AcDbSpline
70
4
71
3
72
60
73
56
40
0
40
0
40
0
40
0
40
0.0666089393624745
40
0.0666089393624745
40
0.0999134090437118
40
0.0999134090437118
40
0.133217878724949
40
0.133217878724949
40
0.166522348406186
40
0.166522348406186
40
0.199826818087424
40
0.199826818087424
40
0.266435757449899
40
0.266435757449899
40
0.299740227131136
40
0.299740227131136
40
0.333044696812373
40
0.333044696812373
40
0.366349166493611
40
0.366349166493611
40
0.399653636174848
40
0.399653636174848
40
0.432958105856085
40
0.432958105856085
40
0.466262575537322
40
0.466262575537322
40
0.532871514899796
40
0.532871514899796
40
0.566175984581033
40
0.566175984581033
40
0.59948045426227
40
0.59948045426227
40
0.632784923943507
40
0.632784923943507
40
0.666089393624743
40
0.666089393624743
40
0.69939386330598
40
0.69939386330598
40
0.732698332987217
40
0.732698332987217
40
0.766002802668454
40
0.766002802668454
40
0.79930727234969
40
0.79930727234969
40
0.832611742030927
40
0.832611742030927
40
0.865916211712164
40
0.865916211712164
40
0.899220681393401
40
0.899220681393401
40
0.932525151074638
40
0.932525151074638
40
0.999134090437111
40
0.999134090437111
40
1
40
1
40
1
40
1
41
1
10
10.0755032171093
20
2.96024351424831
30
0
41
1
10
10.537418733783
20
2.92868268791276
30
0
41
1
10
10.9985241023262
20
2.87838337920184
30
0
41
1
10
11.6860311522853
20
2.77442715750559
30
0
41
1
10
11.9145557911787
20
2.73489681523583
30
0
41
1
10
12.3720890334614
20
2.6479116499253
30
0
41
1
10
12.600856360101
20
2.60027466658298
30
0
41
1
10
13.0580215245164
20
2.4963112664735
30
0
41
1
10
13.2861560172778
20
2.4395856295871
30
0
41
1
10
13.7432624846973
20
2.318863597058
30
0
41
1
10
13.9722875388248
20
2.25501584187299
30
0
41
1
10
14.6601545643216
20
2.05218006012865
30
0
41
1
10
15.1190616499965
20
1.9002914658781
30
0
41
1
10
15.8130607646276
20
1.65636884406803
30
0
41
1
10
16.0443600186814
20
1.57234182737128
30
0
41
1
10
16.5045554837738
20
1.39840012682461
30
0
41
1
10
16.7339459673999
20
1.30882535377927
30
0
41
1
10
17.1927210615917
20
1.12761542513434
30
0
41
1
10
17.4218797731482
20
1.03549382860152
30
0
41
1
10
17.879398833793
20
0.847462449541041
30
0
41
1
10
18.1074960609782
20
0.750938270904243
30
0
41
1
10
18.5643250517414
20
0.557348661633057
30
0
41
1
10
18.7929932508463
20
0.460155118765727
30
0
41
1
10
19.2504025244268
20
0.263978073856521
30
0
41
1
10
19.4790073480644
20
0.164664939692955
30
0
41
1
10
20.1654294341302
20
-0.134880880727451
30
0
41
1
10
20.6257181140699
20
-0.332133945553011
30
0
41
1
10
21.3181078919024
20
-0.629552029931148
30
0
41
1
10
21.5492563480177
20
-0.727999320585326
30
0
41
1
10
22.0100088300163
20
-0.919757577993209
30
0
41
1
10
22.2398852284964
20
-1.01375419594279
30
0
41
1
10
22.6983032060646
20
-1.19880917973785
30
0
41
1
10
22.9266309987036
20
-1.2902973048669
30
0
41
1
10
23.3835532125026
20
-1.46675760373188
30
0
41
1
10
23.6119971263231
20
-1.55210967162714
30
0
41
1
10
24.0684308237993
20
-1.71800541615431
30
0
41
1
10
24.2962329635877
20
-1.7988910464878
30
0
41
1
10
24.751999041729
20
-1.95450155184011
30
0
41
1
10
24.9802873183493
20
-2.02865397099467
30
0
41
1
10
25.4373595001111
20
-2.17033238077349
30
0
41
1
10
25.6661270145136
20
-2.23788851240033
30
0
41
1
10
26.123771931706
20
-2.36680109571725
30
0
41
1
10
26.3530944433417
20
-2.42742987185795
30
0
41
1
10
26.8134389225978
20
-2.54005504169831
30
0
41
1
10
27.0445391407908
20
-2.59235639715669
30
0
41
1
10
27.5067651221324
20
-2.68887826483592
30
0
41
1
10
27.7367524897149
20
-2.73296775534254
30
0
41
1
10
28.1964353791218
20
-2.81085396753519
30
0
41
1
10
28.4259325518967
20
-2.84494578991692
30
0
41
1
10
28.883858538883
20
-2.9039259065645
30
0
41
1
10
29.1120526820914
20
-2.92891022674664
30
0
41
1
10
29.7963883399367
20
-2.98896757940815
30
0
41
1
10
30.2529868843227
20
-3.00937566904221
30
0
41
1
10
30.7145978361043
20
-3.01037994437922
30
0
41
1
10
30.7205219275551
20
-3.01038947912758
30
0
41
1
10
30.7264462275569
20
-3.01039566289126
30
0
0
SPLINE
5
A6
100
AcDbEntity
8
1
62
256
6
ByLayer
370
18
48
1
60
0
100
AcDbSpline
70
4
71
3
72
26
73
22
40
0
40
0
40
0
40
0
40
0.02808987379021
40
0.02808987379021
40
0.125280886411187
40
0.125280886411187
40
0.222471899032163
40
0.222471899032163
40
0.31966291165314
40
0.31966291165314
40
0.416853924274117
40
0.416853924274117
40
0.611235949516074
40
0.611235949516074
40
0.708426962137056
40
0.708426962137056
40
0.805617974758038
40
0.805617974758038
40
0.902808987379019
40
0.902808987379019
40
1
40
1
40
1
40
1
41
1
10
47.0132344241593
20
2.1262054515683
30
0
41
1
10
47.0798177032284
20
2.14688295751606
30
0
41
1
10
47.1464295692598
20
2.16723819306804
30
0
41
1
10
47.443693664919
20
2.25651305163106
30
0
41
1
10
47.6745906968358
20
2.32204885143216
30
0
41
1
10
48.1365792290878
20
2.44613433715924
30
0
41
1
10
48.3670733542807
20
2.50472637196936
30
0
41
1
10
48.8271014884813
20
2.61176872299333
30
0
41
1
10
49.0567432033602
20
2.66064412109497
30
0
41
1
10
49.5148971409357
20
2.74976718332851
30
0
41
1
10
49.7431859691916
20
2.79018900722406
30
0
41
1
10
50.4275922806453
20
2.8970526919905
30
0
41
1
10
50.8841431346951
20
2.94888668554768
30
0
41
1
10
51.5673596863168
20
2.99870647220138
30
0
41
1
10
51.7953431645433
20
3.01035298311237
30
0
41
1
10
52.2522926504242
20
3.02379762703708
30
0
41
1
10
52.4811271571249
20
3.02565145537588
30
0
41
1
10
52.939135564915
20
3.01941273738251
30
0
41
1
10
53.1682365142315
20
3.01121964007203
30
0
41
1
10
53.6285485036422
20
2.98499210415554
30
0
41
1
10
53.8598109445304
20
2.96694690116368
30
0
41
1
10
54.0909246594621
20
2.94392436491148
30
0
0
SPLINE
5
A7
100
AcDbEntity
8
1
62
256
6
ByLayer
370
18
48
1
60
0
100
AcDbSpline
70
4
71
3
72
84
73
80
40
0
40
0
40
0
40
0
40
0.0149258926841167
40
0.0149258926841167
40
0.0390781525255147
40
0.0390781525255147
40
0.0632304123669126
40
0.0632304123669126
40
0.0873826722083105
40
0.0873826722083105
40
0.111534932049708
40
0.111534932049708
40
0.135687191891106
40
0.135687191891106
40
0.159839451732504
40
0.159839451732504
40
0.183991711573902
40
0.183991711573902
40
0.2081439714153
40
0.2081439714153
40
0.232296231256698
40
0.232296231256698
40
0.280600750939494
40
0.280600750939494
40
0.304753010780892
40
0.304753010780892
40
0.328905270622291
40
0.328905270622291
40
0.35305753046369
40
0.35305753046369
40
0.377209790305088
40
0.377209790305088
40
0.425514309987885
40
0.425514309987885
40
0.449666569829285
40
0.449666569829285
40
0.473818829670684
40
0.473818829670684
40
0.497971089512083
40
0.497971089512083
40
0.522123349353483
40
0.522123349353483
40
0.546275609194882
40
0.546275609194882
40
0.570427869036281
40
0.570427869036281
40
0.59458012887768
40
0.59458012887768
40
0.61873238871908
40
0.61873238871908
40
0.667036908401878
40
0.667036908401878
40
0.691189168243277
40
0.691189168243277
40
0.715341428084677
40
0.715341428084677
40
0.739493687926076
40
0.739493687926076
40
0.763645947767475
40
0.763645947767475
40
0.787798207608873
40
0.787798207608873
40
0.811950467450271
40
0.811950467450271
40
0.836102727291669
40
0.836102727291669
40
0.860254987133067
40
0.860254987133067
40
0.884407246974465
40
0.884407246974465
40
0.908559506815863
40
0.908559506815863
40
0.932711766657261
40
0.932711766657261
40
0.956864026498659
40
0.956864026498659
40
0.981016286340056
40
0.981016286340056
40
1
40
1
40
1
40
1
41
1
10
47.0217540468592
20
-2.1266232635495
30
0
41
1
10
46.8902971815233
20
-2.16307977664059
30
0
41
1
10
46.7589148655333
20
-2.19833619028179
30
0
41
1
10
46.4150882799706
20
-2.28716891708356
30
0
41
1
10
46.2025901971681
20
-2.33844885717275
30
0
41
1
10
45.7772219924386
20
-2.43477557208749
30
0
41
1
10
45.5644018581168
20
-2.47995201263643
30
0
41
1
10
45.1386318141793
20
-2.56397397663696
30
0
41
1
10
44.9257458520214
20
-2.60286370386461
30
0
41
1
10
44.4991084947422
20
-2.67295913308067
30
0
41
1
10
44.2853729659345
20
-2.70423509068297
30
0
41
1
10
43.8568757177515
20
-2.75850104113849
30
0
41
1
10
43.6417338591237
20
-2.78147109685673
30
0
41
1
10
43.2132332337113
20
-2.81793768124135
30
0
41
1
10
42.9994844911556
20
-2.83210303195855
30
0
41
1
10
42.5725517112789
20
-2.85363340349292
30
0
41
1
10
42.3594238846345
20
-2.86071334127774
30
0
41
1
10
41.9340336122165
20
-2.86630675828027
30
0
41
1
10
41.721814636959
20
-2.86468762260066
30
0
41
1
10
41.2974755499238
20
-2.85418406246737
30
0
41
1
10
41.0853925395834
20
-2.84522070390824
30
0
41
1
10
40.449295406097
20
-2.80579432151018
30
0
41
1
10
40.0257795547004
20
-2.76128433717974
30
0
41
1
10
39.388870638502
20
-2.67492871390581
30
0
41
1
10
39.1763082378511
20
-2.64242495926851
30
0
41
1
10
38.7506289804436
20
-2.56889159210397
30
0
41
1
10
38.5375269917584
20
-2.52771595296701
30
0
41
1
10
38.1104011969982
20
-2.4398803818375
30
0
41
1
10
37.8963475323164
20
-2.39274364606033
30
0
41
1
10
37.4669576347638
20
-2.29090228180837
30
0
41
1
10
37.2519479606553
20
-2.23603769337683
30
0
41
1
10
36.6087461552834
20
-2.06185420223795
30
0
41
1
10
36.1803442185643
20
-1.93590323429808
30
0
41
1
10
35.5377862168564
20
-1.72852676193884
30
0
41
1
10
35.3236663941148
20
-1.65635218283666
30
0
41
1
10
34.8949037100996
20
-1.508762420159
30
0
41
1
10
34.680268602383
20
-1.43293059940427
30
0
41
1
10
34.2503128027823
20
-1.27675310333981
30
0
41
1
10
34.0357154035985
20
-1.19643408969648
30
0
41
1
10
33.6070600763548
20
-1.0325225661995
30
0
41
1
10
33.3928225659305
20
-0.949456562506157
30
0
41
1
10
32.9643306399361
20
-0.781053496722876
30
0
41
1
10
32.7500826492514
20
-0.695727280623629
30
0
41
1
10
32.3216117582797
20
-0.522562609048919
30
0
41
1
10
32.1074131147162
20
-0.434768506269989
30
0
41
1
10
31.6783937497801
20
-0.25881250855241
30
0
41
1
10
31.463367138641
20
-0.170386578674339
30
0
41
1
10
31.0337476169073
20
0.006623573154485
30
0
41
1
10
30.8193252563158
20
0.0953002583108002
30
0
41
1
10
30.1766305653268
20
0.360882551133869
30
0
41
1
10
29.7482574833511
20
0.53573272304692
30
0
41
1
10
29.1053889109095
20
0.792567747660684
30
0
41
1
10
28.8911218755207
20
0.877629513457578
30
0
41
1
10
28.4618443718744
20
1.0447261680728
30
0
41
1
10
28.2466841994666
20
1.12691348819919
30
0
41
1
10
27.8181827104144
20
1.28667380456426
30
0
41
1
10
27.6046249432687
20
1.36454455095424
30
0
41
1
10
27.1782563383953
20
1.51692668724456
30
0
41
1
10
26.9653634871635
20
1.59091441864959
30
0
41
1
10
26.5401046114936
20
1.73337382351414
30
0
41
1
10
26.3277412940078
20
1.80168837158467
30
0
41
1
10
25.9035715255734
20
1.93373236860657
30
0
41
1
10
25.6917423443873
20
1.99757338878001
30
0
41
1
10
25.2678926000155
20
2.11932412080853
30
0
41
1
10
25.0559174698599
20
2.17702531124351
30
0
41
1
10
24.6317493328066
20
2.28505443744564
30
0
41
1
10
24.4196993549317
20
2.33632084328045
30
0
41
1
10
23.9952731661721
20
2.43303997945395
30
0
41
1
10
23.7827943948758
20
2.4784029388174
30
0
41
1
10
23.3569505925139
20
2.56105536903942
30
0
41
1
10
23.1434770925257
20
2.5976861950725
30
0
41
1
10
22.7160696319144
20
2.66548314052474
30
0
41
1
10
22.5020603151075
20
2.69627460789269
30
0
41
1
10
22.0726433575048
20
2.75024468055514
30
0
41
1
10
21.857928399227
20
2.77298076349339
30
0
41
1
10
21.4292323557877
20
2.80860745651046
30
0
41
1
10
21.2152075932555
20
2.82290180334823
30
0
41
1
10
20.8330725614713
20
2.84200400552359
30
0
41
1
10
20.6648890687087
20
2.84819556537195
30
0
41
1
10
20.4966376168815
20
2.85158421395173
30
0
0
SPLINE
5
A8
100
AcDbEntity
8
1
62
256
6
ByLayer
370
18
48
1
60
0
100
AcDbSpline
70
4
71
3
72
26
73
22
40
0
40
0
40
0
40
0
40
0.0624999999999978
40
0.0624999999999978
40
0.124999999999996
40
0.124999999999996
40
0.249999999999996
40
0.249999999999996
40
0.312499999999996
40
0.312499999999996
40
0.374999999999996
40
0.374999999999996
40
0.499999999999997
40
0.499999999999997
40
0.624999999999997
40
0.624999999999997
40
0.749999999999998
40
0.749999999999998
40
0.874999999999999
40
0.874999999999999
40
1
40
1
40
1
40
1
41
1
10
54.4058546571825
20
-0.914759130602363
30
0
41
1
10
54.4075414559069
20
-0.937189321273706
30
0
41
1
10
54.4075411864369
20
-0.961240552995918
30
0
41
1
10
54.4041683396392
20
-1.01276707705642
30
0
41
1
10
54.4007049476668
20
-1.04063196483025
30
0
41
1
10
54.3856906424139
20
-1.12555529223764
30
0
41
1
10
54.3692031512095
20
-1.18593138101559
30
0
41
1
10
54.3385998137521
20
-1.27272333923781
30
0
41
1
10
54.3272650868881
20
-1.30150114696045
30
0
41
1
10
54.3034822117303
20
-1.35633277651309
30
0
41
1
10
54.2909865899374
20
-1.38257220659094
30
0
41
1
10
54.2517869418381
20
-1.45800204390656
30
0
41
1
10
54.2242914499236
20
-1.50219415325719
30
0
41
1
10
54.1678681688194
20
-1.57776004424153
30
0
41
1
10
54.1398816072147
20
-1.6079573203823
30
0
41
1
10
54.0837479185544
20
-1.65453429751929
30
0
41
1
10
54.0566276511638
20
-1.67001398632965
30
0
41
1
10
54.0039711472875
20
-1.68597068441099
30
0
41
1
10
53.9787212166552
20
-1.68618226250467
30
0
41
1
10
53.9321540499901
20
-1.6708947486762
30
0
41
1
10
53.9102891433917
20
-1.65505067172347
30
0
41
1
10
53.8916129958023
20
-1.63142562960928
30
0
0
SPLINE
5
A9
100
AcDbEntity
8
1
62
256
6
ByLayer
370
18
48
1
60
0
100
AcDbSpline
70
4
71
3
72
16
73
12
40
0
40
0
40
0
40
0
40
0.269540676902297
40
0.269540676902297
40
0.404311015353444
40
0.404311015353444
40
0.539081353804591
40
0.539081353804591
40
0.80862203070688
40
0.80862203070688
40
1
40
1
40
1
40
1
41
1
10
53.497713727553
20
-2.14860409915121
30
0
41
1
10
53.5349920432984
20
-2.27012030340703
30
0
41
1
10
53.5743230237331
20
-2.37670039973005
30
0
41
1
10
53.6356790050588
20
-2.5151728982224
30
0
41
1
10
53.6565322262738
20
-2.55773774697568
30
0
41
1
10
53.6990050377842
20
-2.63554258477663
30
0
41
1
10
53.7206550721027
20
-2.67077424331581
30
0
41
1
10
53.7853926411793
20
-2.76328812222047
30
0
41
1
10
53.8286915586896
20
-2.80837484828837
30
0
41
1
10
53.9031154880811
20
-2.85742714067433
30
0
41
1
10
53.9342467840023
20
-2.86943274346927
30
0
41
1
10
53.9652428072606
20
-2.87273656874115
30
0
0
SPLINE
5
AA
100
AcDbEntity
8
1
62
256
6
ByLayer
370
18
48
1
60
0
100
AcDbSpline
70
4
71
3
72
10
73
6
40
0
40
0
40
0
40
0
40
0.5
40
0.5
40
1
40
1
40
1
40
1
41
1
10
54.0909246594412
20
2.94392436493908
30
0
41
1
10
54.2222790832536
20
2.57279922020629
30
0
41
1
10
54.3566530035561
20
2.20215920900927
30
0
41
1
10
54.6301167633384
20
1.46171353630209
30
0
41
1
10
54.7687277992558
20
1.09314012031604
30
0
41
1
10
54.9081216316369
20
0.726064099600649
30
0
0
SPLINE
5
AB
100
AcDbEntity
8
1
62
256
6
ByLayer
370
18
48
1
60
0
100
AcDbSpline
70
4
71
3
72
32
73
28
40
0
40
0
40
0
40
0
40
0.136604136956788
40
0.136604136956788
40
0.236378643281632
40
0.236378643281632
40
0.336153149606476
40
0.336153149606476
40
0.535702162256164
40
0.535702162256164
40
0.635476668581008
40
0.635476668581008
40
0.68536392174343
40
0.68536392174343
40
0.710307548324641
40
0.710307548324641
40
0.722779361615246
40
0.722779361615246
40
0.729015268260549
40
0.729015268260549
40
0.735251174905852
40
0.735251174905852
40
0.835025681230696
40
0.835025681230696
40
0.934800187555539
40
0.934800187555539
40
1
40
1
40
1
40
1
41
1
10
10.0755032171093
20
2.96024351424973
30
0
41
1
10
10.0755032171093
20
2.77851240923565
30
0
41
1
10
10.0755032171093
20
2.59536532587035
30
0
41
1
10
10.0755032171093
20
2.27605672044649
30
0
41
1
10
10.0755032171093
20
2.1399733023533
30
0
41
1
10
10.0755032171093
20
1.86947680255685
30
0
41
1
10
10.0755032171093
20
1.73517702745633
30
0
41
1
10
10.0755032171093
20
1.33500776363979
30
0
41
1
10
10.0755032171093
20
1.07185186399951
30
0
41
1
10
10.0755032171093
20
0.682426090671669
30
0
41
1
10
10.0755032171093
20
0.553218353047157
30
0
41
1
10
10.0755032171093
20
0.362152424246233
30
0
41
1
10
10.0755032171093
20
0.298906464431496
30
0
41
1
10
10.0755032171093
20
0.204698048200299
30
0
41
1
10
10.0755032171093
20
0.173403793239373
30
0
41
1
10
10.0755032171093
20
0.126655671132056
30
0
41
1
10
10.0755032171093
20
0.109970818649799
30
0
41
1
10
10.0755032171093
20
0.0909576047073983
30
0
41
1
10
10.0755032171097
20
0.0855013152564652
30
0
41
1
10
10.0755032171097
20
0.0773919616441958
30
0
41
1
10
10.0755032171093
20
0.0743630404263911
30
0
41
1
10
10.0755032171093
20
0.0165128034895474
30
0
41
1
10
10.0755032171093
20
-0.0326433522405125
30
0
41
1
10
10.0755032171093
20
-0.119878642746272
30
0
41
1
10
10.0755032171093
20
-0.158080221848195
30
0
41
1
10
10.0755032171093
20
-0.211316831477348
30
0
41
1
10
10.0755032171093
20
-0.229852911957067
30
0
41
1
10
10.0755032171093
20
-0.245854485743251
30
0
0
SPLINE
5
AC
100
AcDbEntity
8
1
62
256
6
ByLayer
370
18
48
1
60
0
100
AcDbSpline
70
4
71
3
72
8
73
4
40
0
40
0
40
0
40
0
40
1
40
1
40
1
40
1
41
1
10
3.15036397058358
20
-1.60526186078374
30
0
41
1
10
3.12660013705903
20
-1.58155851015505
30
0
41
1
10
3.11165819938273
20
-1.5518282602869
30
0
41
1
10
3.11166719893637
20
-1.52003800332173
30
0
0
SPLINE
5
AD
100
AcDbEntity
8
1
62
256
6
ByLayer
370
18
48
1
60
0
100
AcDbSpline
70
4
71
3
72
34
73
30
40
0
40
0
40
0
40
0
40
0.250000000000017
40
0.250000000000017
40
0.375000000000026
40
0.375000000000026
40
0.500000000000034
40
0.500000000000034
40
0.625000000000043
40
0.625000000000043
40
0.687500000000043
40
0.687500000000043
40
0.750000000000043
40
0.750000000000043
40
0.812500000000043
40
0.812500000000043
40
0.82812500000004
40
0.82812500000004
40
0.835937500000038
40
0.835937500000038
40
0.843750000000036
40
0.843750000000036
40
0.851562500000034
40
0.851562500000034
40
0.859375000000033
40
0.859375000000033
40
0.875000000000029
40
0.875000000000029
40
1
40
1
40
1
40
1
41
1
10
51.1102687005506
20
0.695604049505363
30
0
41
1
10
51.3670317925087
20
0.525627906741249
30
0
41
1
10
51.6305241552921
20
0.38104507554803
30
0
41
1
10
52.0370978753675
20
0.206944802465358
30
0
41
1
10
52.1752691930667
20
0.15581445384916
30
0
41
1
10
52.4503681401434
20
0.0709771009416045
30
0
41
1
10
52.5875845699803
20
0.0370477760506276
30
0
41
1
10
52.8612907066461
20
-0.0122865567162194
30
0
41
1
10
52.997777774404
20
-0.0276242941438909
30
0
41
1
10
53.2018655677082
20
-0.034245585381143
30
0
41
1
10
53.2699904359313
20
-0.0337137924622937
30
0
41
1
10
53.4045724860535
20
-0.0267236347270625
30
0
41
1
10
53.4711086773167
20
-0.0202928486704366
30
0
41
1
10
53.6025778649113
20
-0.0011961147259569
30
0
41
1
10
53.6675111908891
20
0.0114685510984032
30
0
41
1
10
53.7475911869197
20
0.031525637972635
30
0
41
1
10
53.7635527386336
20
0.0357488130808292
30
0
41
1
10
53.7874113949701
20
0.0424089907487826
30
0
41
1
10
53.7954117824624
20
0.0445008558110374
30
0
41
1
10
53.8112367211804
20
0.0491726113392303
30
0
41
1
10
53.8190355772266
20
0.0520721474108825
30
0
41
1
10
53.8318782393704
20
0.0628063007703474
30
0
41
1
10
53.8364486613401
20
0.0708424756865611
30
0
41
1
10
53.8399660563662
20
0.0899804863020677
30
0
41
1
10
53.8397275565603
20
0.100392212520404
30
0
41
1
10
53.8415719417067
20
0.130556993824257
30
0
41
1
10
53.842604395382
20
0.150726805074726
30
0
41
1
10
53.8501952516493
20
0.332769414457402
30
0
41
1
10
53.8448731567685
20
0.49806474862558
30
0
41
1
10
53.8311370267269
20
0.663195182394787
30
0
0
SPLINE
5
AE
100
AcDbEntity
8
1
62
256
6
ByLayer
370
13
48
1
60
0
100
AcDbSpline
70
4
71
3
72
16
73
12
40
0
40
0
40
0
40
0
40
0.376825571177903
40
0.376825571177903
40
0.565238356766855
40
0.565238356766855
40
0.65944474956133
40
0.65944474956133
40
0.753651142355806
40
0.753651142355806
40
1
40
1
40
1
40
1
41
1
10
3.30227713153209
20
-1.65431332969527
30
0
41
1
10
4.36658828639213
20
-2.02886782898594
30
0
41
1
10
5.41830685800403
20
-2.33895116448957
30
0
41
1
10
7.00180158563342
20
-2.67143936405719
30
0
41
1
10
7.53058988678106
20
-2.76015855427121
30
0
41
1
10
8.32844928632207
20
-2.85624471960335
30
0
41
1
10
8.59516233947784
20
-2.88207733289269
30
0
41
1
10
9.12570833724661
20
-2.92068975452835
30
0
41
1
10
9.39015798010823
20
-2.93355265099734
30
0
41
1
10
10.344151821142
20
-2.95678963719527
30
0
41
1
10
11.0304607276856
20
-2.92940211480248
30
0
41
1
10
11.7175383420603
20
-2.85976548341148
30
0
0
SPLINE
5
AF
100
AcDbEntity
8
1
62
256
6
ByLayer
370
18
48
1
60
0
100
AcDbSpline
70
4
71
3
72
24
73
20
40
0
40
0
40
0
40
0
40
0.106775638877707
40
0.106775638877707
40
0.247451825961767
40
0.247451825961767
40
0.317789919503797
40
0.317789919503797
40
0.388128013045828
40
0.388128013045828
40
0.669480387213952
40
0.669480387213952
40
0.810156574298015
40
0.810156574298015
40
0.880494667840045
40
0.880494667840045
40
0.950832761382075
40
0.950832761382075
40
1
40
1
40
1
40
1
41
1
10
36.9639607250988
20
2.17272406562938
30
0
41
1
10
37.3627516370196
20
2.05699350862514
30
0
41
1
10
37.7609838515471
20
1.93060648476845
30
0
41
1
10
38.6846689751268
20
1.61654890248155
30
0
41
1
10
39.2103804139696
20
1.42222775198437
30
0
41
1
10
40.0028948979058
20
1.11305646224156
30
0
41
1
10
40.2677326473902
20
1.00707540775059
30
0
41
1
10
40.7992818894766
20
0.790347505467253
30
0
41
1
10
41.0655020984661
20
0.679791675982301
30
0
41
1
10
42.3896524962902
20
0.123459999318953
30
0
41
1
10
43.4363183812425
20
-0.336516270286353
30
0
41
1
10
45.0124927306064
20
-0.988346429492452
30
0
41
1
10
45.5387919836938
20
-1.19960529595744
30
0
41
1
10
46.3326869796956
20
-1.50016125068763
30
0
41
1
10
46.5985525782736
20
-1.59771074642694
30
0
41
1
10
47.1302967238436
20
-1.78520066424559
30
0
41
1
10
47.3952298979033
20
-1.87484658250372
30
0
41
1
10
47.8441894212145
20
-2.0195387424105
30
0
41
1
10
48.0285682575382
20
-2.07686278495473
30
0
41
1
10
48.2127015605881
20
-2.13186128929834
30
0
0
SPLINE
5
B0
100
AcDbEntity
8
1
62
256
6
ByLayer
370
13
48
1
60
0
100
AcDbSpline
70
4
71
3
72
14
73
10
40
0
40
0
40
0
40
0
40
0.452128964060361
40
0.452128964060361
40
0.726064482030183
40
0.726064482030183
40
0.863032241015091
40
0.863032241015091
40
1
40
1
40
1
40
1
41
1
10
48.2127006024069
20
-2.1318610031006
30
0
41
1
10
49.0822436768443
20
-2.39158357668313
30
0
41
1
10
49.9463111964347
20
-2.59944514289884
30
0
41
1
10
51.339970004747
20
-2.82968552373836
30
0
41
1
10
51.8672465145401
20
-2.89301289681762
30
0
41
1
10
52.6632975667254
20
-2.94977294402153
30
0
41
1
10
52.9297061900946
20
-2.96228923618406
30
0
41
1
10
53.4614609013893
20
-2.97405303553066
30
0
41
1
10
53.7272010613112
20
-2.973339115014
30
0
41
1
10
53.9930455592151
20
-2.96598585588541
30
0
0
SPLINE
5
B1
100
AcDbEntity
8
1
62
256
6
ByLayer
370
13
48
1
60
0
100
AcDbSpline
70
4
71
3
72
8
73
4
40
0
40
0
40
0
40
0
40
1
40
1
40
1
40
1
41
1
10
3.24186928778002
20
-1.66218272114227
30
0
41
1
10
3.24225266101459
20
-1.65483849316621
30
0
41
1
10
3.24263727045235
20
-1.64749282143239
30
0
41
1
10
3.24302311197397
20
-1.64014568659232
30
0
0
SPLINE
5
B2
100
AcDbEntity
8
1
62
256
6
ByLayer
370
18
48
1
60
0
100
AcDbSpline
70
4
71
3
72
8
73
4
40
0
40
0
40
0
40
0
40
1
40
1
40
1
40
1
41
1
10
54.9908486929322
20
-0.110882697205227
30
0
41
1
10
54.9915845330146
20
-0.0909210235201385
30
0
41
1
10
54.9948016825755
20
-0.0667804035270763
30
0
41
1
10
54.9996835674799
20
-0.0408918369210483
30
0
0
SPLINE
5
B3
100
AcDbEntity
8
1
62
256
6
ByLayer
370
18
48
1
60
0
100
AcDbSpline
70
4
71
3
72
8
73
4
40
0
40
0
40
0
40
0
40
1
40
1
40
1
40
1
41
1
10
54.9081216316369
20
-0.726064099600677
30
0
41
1
10
54.9115299433847
20
-0.711491038838631
30
0
41
1
10
54.9148517911729
20
-0.696976326285835
30
0
41
1
10
54.9180856260542
20
-0.682516288331016
30
0
0
SPLINE
5
B4
100
AcDbEntity
8
1
62
256
6
ByLayer
370
18
48
1
60
0
100
AcDbSpline
70
4
71
3
72
44
73
40
40
0
40
0
40
0
40
0
40
0.0714387784141308
40
0.0714387784141308
40
0.142877556828262
40
0.142877556828262
40
0.178596946035327
40
0.178596946035327
40
0.214316335242392
40
0.214316335242392
40
0.285755113656525
40
0.285755113656525
40
0.321474502863592
40
0.321474502863592
40
0.357193892070659
40
0.357193892070659
40
0.428632670484793
40
0.428632670484793
40
0.500071448898927
40
0.500071448898927
40
0.571510227313061
40
0.571510227313061
40
0.607229616520127
40
0.607229616520127
40
0.642949005727193
40
0.642949005727193
40
0.714387784141324
40
0.714387784141324
40
0.75010717334839
40
0.75010717334839
40
0.785826562555456
40
0.785826562555456
40
0.85726534096959
40
0.85726534096959
40
0.928704119383724
40
0.928704119383724
40
0.964423508590791
40
0.964423508590791
40
1
40
1
40
1
40
1
41
1
10
53.9727460528967
20
-3.01905467430845
30
0
41
1
10
53.4427719310421
20
-3.03317476385632
30
0
41
1
10
52.9133962115928
20
-3.02059669683837
30
0
41
1
10
51.85202973904
20
-2.94270009289249
30
0
41
1
10
51.3226606981899
20
-2.8775587464109
30
0
41
1
10
50.5291608223115
20
-2.74314562925503
30
0
41
1
10
50.2646453584694
20
-2.69223307443221
30
0
41
1
10
49.7350200356653
20
-2.57872305460862
30
0
41
1
10
49.4696045001218
20
-2.516045816336
30
0
41
1
10
48.6739113622982
20
-2.31202168287578
30
0
41
1
10
48.1451694840302
20
-2.15495671201214
30
0
41
1
10
47.351367004023
20
-1.89313122479689
30
0
41
1
10
47.0866466899116
20
-1.80149824489865
30
0
41
1
10
46.5564497616614
20
-1.61041074801892
30
0
41
1
10
46.290855084248
20
-1.51086391120188
30
0
41
1
10
45.4960489241501
20
-1.20367016521322
30
0
41
1
10
44.9674091853477
20
-0.987287122718243
30
0
41
1
10
43.908309150977
20
-0.54071619765466
30
0
41
1
10
43.3768863142473
20
-0.309741087923811
30
0
41
1
10
42.3177908387411
20
0.151995318365295
30
0
41
1
10
41.789113946691
20
0.382907130457823
30
0
41
1
10
40.9942426929725
20
0.722061204447613
30
0
41
1
10
40.7286203413248
20
0.834000250901141
30
0
41
1
10
40.1981501587353
20
1.05339285824635
30
0
41
1
10
39.9333386887972
20
1.16084909626477
30
0
41
1
10
39.139300210123
20
1.47465973514596
30
0
41
1
10
38.6104620651167
20
1.67243099855239
30
0
41
1
10
37.8147152403926
20
1.94536837696469
30
0
41
1
10
37.5490849917654
20
2.03234399186113
30
0
41
1
10
37.0204200043461
20
2.19617972908961
30
0
41
1
10
36.7568912257852
20
2.27321822022071
30
0
41
1
10
35.9678990559647
20
2.48862334851376
30
0
41
1
10
35.4439983931656
20
2.61121787863971
30
0
41
1
10
34.3963257907047
20
2.80979728693617
30
0
41
1
10
33.8724871287203
20
2.88570431711636
30
0
41
1
10
33.0836030248564
20
2.96167115856488
30
0
41
1
10
32.820137965566
20
2.9806906972845
30
0
41
1
10
32.2926616450897
20
3.00564965830105
30
0
41
1
10
32.0281921187731
20
3.0116404334793
30
0
41
1
10
31.7638963047685
20
3.01102202952444
30
0
0
SPLINE
5
B5
100
AcDbEntity
8
1
62
256
6
ByLayer
370
18
48
1
60
0
100
AcDbSpline
70
4
71
3
72
16
73
12
40
0
40
0
40
0
40
0
40
0.286351344365673
40
0.286351344365673
40
0.375557426319964
40
0.375557426319964
40
0.464763508274255
40
0.464763508274255
40
0.643175672182836
40
0.643175672182836
40
1
40
1
40
1
40
1
41
1
10
12.1021908113759
20
-2.86680590909646
30
0
41
1
10
11.2602650271984
20
-2.97316535036248
30
0
41
1
10
10.4205180938698
20
-3.01557622903249
30
0
41
1
10
9.31071135306942
20
-2.98251259229724
30
0
41
1
10
9.04647675425753
20
-2.96813265660205
30
0
41
1
10
8.51619106903587
20
-2.92627822563503
30
0
41
1
10
8.25008672197271
20
-2.89876111903564
30
0
41
1
10
7.45588508121088
20
-2.79775627871416
30
0
41
1
10
6.9293756378589
20
-2.70561668867941
30
0
41
1
10
5.35214740509099
20
-2.36254745157802
30
0
41
1
10
4.30372523533518
20
-2.04470974609273
30
0
41
1
10
3.24186928778045
20
-1.66218272114398
30
0
0
SPLINE
5
B6
100
AcDbEntity
8
1
62
256
6
ByLayer
370
18
48
1
60
0
100
AcDbSpline
70
4
71
3
72
8
73
4
40
0
40
0
40
0
40
0
40
1
40
1
40
1
40
1
41
1
10
53.8916129958023
20
-1.63142562960928
30
0
41
1
10
53.7619817387621
20
-1.80558634287579
30
0
41
1
10
53.6305372367497
20
-1.97792155022716
30
0
41
1
10
53.497713727553
20
-2.14860409915119
30
0
0
SPLINE
5
B7
100
AcDbEntity
8
1
62
256
6
ByLayer
370
18
48
1
60
0
100
AcDbSpline
70
4
71
3
72
10
73
6
40
0
40
0
40
0
40
0
40
0.5
40
0.5
40
1
40
1
40
1
40
1
41
1
10
3.24186928777999
20
-1.66218272114381
30
0
41
1
10
3.22412518451137
20
-1.65579051789877
30
0
41
1
10
3.20760578702732
20
-1.64781848858536
30
0
41
1
10
3.17692712884016
20
-1.628771103742
30
0
41
1
10
3.1626910289315
20
-1.61755754472466
30
0
41
1
10
3.15036397058361
20
-1.60526186078383
30
0
0
SPLINE
5
B8
100
AcDbEntity
8
1
62
256
6
ByLayer
370
18
48
1
60
0
100
AcDbSpline
70
4
71
3
72
14
73
10
40
0
40
0
40
0
40
0
40
0.25
40
0.25
40
0.5
40
0.5
40
0.75
40
0.75
40
1
40
1
40
1
40
1
41
1
10
53.8311370267267
20
0.663195182394759
30
0
41
1
10
53.8298541811207
20
0.678617055274827
30
0
41
1
10
53.8326454341956
20
0.694339968104174
30
0
41
1
10
53.8475074345744
20
0.721736298457927
30
0
41
1
10
53.8595543202486
20
0.733168678228395
30
0
41
1
10
53.8868176943591
20
0.749198269966456
30
0
41
1
10
53.9022497686702
20
0.754274881626202
30
0
41
1
10
53.9332555467789
20
0.760070497171853
30
0
41
1
10
53.9492212207096
20
0.760898580858026
30
0
41
1
10
53.9650835393572
20
0.76021660949209
30
0
0
SPLINE
5
B9
100
AcDbEntity
8
1
62
256
6
ByLayer
370
18
48
1
60
0
100
AcDbSpline
70
4
71
3
72
14
73
10
40
0
40
0
40
0
40
0
40
0.25
40
0.25
40
0.5
40
0.5
40
0.75
40
0.75
40
1
40
1
40
1
40
1
41
1
10
54.0031284904642
20
-2.87240686761101
30
0
41
1
10
54.0063421085175
20
-2.87200434756588
30
0
41
1
10
54.0088615286617
20
-2.87337844418846
30
0
41
1
10
54.0120926553818
20
-2.88080145708284
30
0
41
1
10
54.0127014857004
20
-2.8868401128268
30
0
41
1
10
54.0112378197484
20
-2.90389616556459
30
0
41
1
10
54.0091119308154
20
-2.91496517329807
30
0
41
1
10
54.0024500994611
20
-2.93963981101024
30
0
41
1
10
53.9979909414536
20
-2.95303395558435
30
0
41
1
10
53.9930455592152
20
-2.96598585588541
30
0
0
SPLINE
5
BA
100
AcDbEntity
8
1
62
256
6
ByLayer
370
18
48
1
60
0
100
AcDbSpline
70
4
71
3
72
8
73
4
40
0
40
0
40
0
40
0
40
1
40
1
40
1
40
1
41
1
10
54.0909246594501
20
-2.94392436491305
30
0
41
1
10
54.0523894746632
20
-2.98316772016329
30
0
41
1
10
54.0131403452044
20
-3.00834768632757
30
0
41
1
10
53.9727460528967
20
-3.01905467430845
30
0
0
SPLINE
5
BB
100
AcDbEntity
8
1
62
256
6
ByLayer
370
18
48
1
60
0
100
AcDbSpline
70
4
71
3
72
8
73
4
40
0
40
0
40
0
40
0
40
1
40
1
40
1
40
1
41
1
10
54.9067134311009
20
0.721391741567061
30
0
41
1
10
54.9106305698291
20
0.708432381569622
30
0
41
1
10
54.9144206178401
20
0.69547390189291
30
0
41
1
10
54.9180856260542
20
0.68251628833076
30
0
0
SPLINE
5
BC
100
AcDbEntity
8
1
62
256
6
ByLayer
370
18
48
1
60
0
100
AcDbSpline
70
4
71
3
72
26
73
22
40
0
40
0
40
0
40
0
40
0.154012062315018
40
0.154012062315018
40
0.308024124630036
40
0.308024124630036
40
0.462036186945054
40
0.462036186945054
40
0.539042218102563
40
0.539042218102563
40
0.616048249260073
40
0.616048249260073
40
0.693054280417582
40
0.693054280417582
40
0.770060311575091
40
0.770060311575091
40
0.8470663427326
40
0.8470663427326
40
0.924072373890109
40
0.924072373890109
40
1
40
1
40
1
40
1
41
1
10
3.11230552575606
20
2.51892233867085
30
0
41
1
10
3.0216480767227
20
2.55285365009718
30
0
41
1
10
2.93222282271071
20
2.58625261833595
30
0
41
1
10
2.75671848754195
20
2.6519040130375
30
0
41
1
10
2.67039807076276
20
2.68423692894567
30
0
41
1
10
2.50549119225309
20
2.74657663476111
30
0
41
1
10
2.42657487140122
20
2.77669792093138
30
0
41
1
10
2.31621173868925
20
2.81991365772706
30
0
41
1
10
2.2807746090011
20
2.83398898883337
30
0
41
1
10
2.21341727834215
20
2.86136558220164
30
0
41
1
10
2.18159067354719
20
2.8746320604948
30
0
41
1
10
2.12388484666278
20
2.89969430251807
30
0
41
1
10
2.09784031161169
20
2.91155281158956
30
0
41
1
10
2.05319574224592
20
2.9336349005867
30
0
41
1
10
2.03495980806071
20
2.94369658800051
30
0
41
1
10
2.00917708478187
20
2.96120923352822
30
0
41
1
10
2.00151752356365
20
2.96872597495792
30
0
41
1
10
1.99889002748023
20
2.98093008279031
30
0
41
1
10
2.00406108709714
20
2.98536641605884
30
0
41
1
10
2.02654593547658
20
2.99109070771701
30
0
41
1
10
2.04399319474709
20
2.99244136370763
30
0
41
1
10
2.06634486034886
20
2.99248401868408
30
0
0
SPLINE
5
BD
100
AcDbEntity
8
1
62
256
6
ByLayer
370
18
48
1
60
0
100
AcDbSpline
70
4
71
3
72
40
73
36
40
0
40
0
40
0
40
0
40
0.0039636094079757
40
0.0039636094079757
40
0.023884337219818
40
0.023884337219818
40
0.0438050650316602
40
0.0438050650316602
40
0.0836465206553448
40
0.0836465206553448
40
0.123487976279029
40
0.123487976279029
40
0.143408704090871
40
0.143408704090871
40
0.153369067996791
40
0.153369067996791
40
0.158349249949751
40
0.158349249949751
40
0.163329431902712
40
0.163329431902712
40
0.168309613855672
40
0.168309613855672
40
0.173289795808632
40
0.173289795808632
40
0.183250159714553
40
0.183250159714553
40
0.203170887526394
40
0.203170887526394
40
0.362536710021116
40
0.362536710021116
40
0.521902532515837
40
0.521902532515837
40
0.681268355010559
40
0.681268355010559
40
1
40
1
40
1
40
1
41
1
10
2.13072379160013
20
2.99019295724719
30
0
41
1
10
2.1366449129342
20
2.98982713436126
30
0
41
1
10
2.14272174828645
20
2.98942127233744
30
0
41
1
10
2.18023060736161
20
2.98675087800626
30
0
41
1
10
2.21550950202609
20
2.98354829556914
30
0
41
1
10
2.29023166208577
20
2.97592890818137
30
0
41
1
10
2.32980471736138
20
2.97150715684541
30
0
41
1
10
2.45364395613296
20
2.9569833796686
30
0
41
1
10
2.54330710573942
20
2.94559616438914
30
0
41
1
10
2.72973942059525
20
2.92141377505388
30
0
41
1
10
2.82614513169392
20
2.9086581107581
30
0
41
1
10
2.97408123562522
20
2.88912979345349
30
0
41
1
10
3.02395885961607
20
2.88255040705946
30
0
41
1
10
3.09951054368935
20
2.87262438747908
30
0
41
1
10
3.12481790614058
20
2.86930601923581
30
0
41
1
10
3.16289550227742
20
2.86432631023874
30
0
41
1
10
3.17565067054625
20
2.86269496057562
30
0
41
1
10
3.20102192573626
20
2.85930162338823
30
0
41
1
10
3.21361272669938
20
2.85751725552885
30
0
41
1
10
3.24046495230545
20
2.85514361385589
30
0
41
1
10
3.25468933294488
20
2.8544110146799
30
0
41
1
10
3.28271516659473
20
2.85367377333273
30
0
41
1
10
3.29667554453667
20
2.8536664392189
30
0
41
1
10
3.33850118987536
20
2.85402733848829
30
0
41
1
10
3.3663325767991
20
2.85462786757435
30
0
41
1
10
3.44990083986485
20
2.85591625152645
30
0
41
1
10
3.50560259891176
20
2.85684304236642
30
0
41
1
10
4.00682516784866
20
2.86577344420022
30
0
41
1
10
4.45118487519616
20
2.87799545324467
30
0
41
1
10
5.3359335868586
20
2.90706772256561
30
0
41
1
10
5.77723288644506
20
2.92393161636383
30
0
41
1
10
6.65301786062253
20
2.95604232929034
30
0
41
1
10
7.08742636460002
20
2.97122956217439
30
0
41
1
10
8.38144825066237
20
3.0030618975814
30
0
41
1
10
9.23168091390897
20
3.00539516724643
30
0
41
1
10
10.0755032171093
20
2.96024351424831
30
0
0
SPLINE
5
BE
100
AcDbEntity
8
1
62
256
6
ByLayer
370
18
48
1
60
0
100
AcDbSpline
70
4
71
3
72
8
73
4
40
0
40
0
40
0
40
0
40
1
40
1
40
1
40
1
41
1
10
54.9644063939646
20
-0.0541914721810883
30
0
41
1
10
54.7859097443277
20
-0.348947935821229
30
0
41
1
10
54.5987414944357
20
-0.634792169814148
30
0
41
1
10
54.4058546571824
20
-0.914759130602363
30
0
0
SPLINE
5
BF
100
AcDbEntity
8
1
62
256
6
ByLayer
370
18
48
1
60
0
100
AcDbSpline
70
4
71
3
72
8
73
4
40
0
40
0
40
0
40
0
40
1
40
1
40
1
40
1
41
1
10
54.9180856260542
20
0.68251628833076
30
0
41
1
10
54.9148524131894
20
0.696973544949572
30
0
41
1
10
54.9115306021243
20
0.711488222238359
30
0
41
1
10
54.9081216316369
20
0.726064099600677
30
0
0
SPLINE
5
C0
100
AcDbEntity
8
1
62
256
6
ByLayer
370
18
48
1
60
0
100
AcDbSpline
70
4
71
3
72
42
73
38
40
0
40
0
40
0
40
0
40
0.0003386299562325
40
0.0003386299562325
40
0.0245222732836764
40
0.0245222732836764
40
0.0487059166111203
40
0.0487059166111203
40
0.0728895599385641
40
0.0728895599385641
40
0.121256846593452
40
0.121256846593452
40
0.169624133248339
40
0.169624133248339
40
0.193807776575783
40
0.193807776575783
40
0.205899598239505
40
0.205899598239505
40
0.211945509071366
40
0.211945509071366
40
0.217991419903227
40
0.217991419903227
40
0.224037330735088
40
0.224037330735088
40
0.230083241566949
40
0.230083241566949
40
0.242175063230671
40
0.242175063230671
40
0.266358706558118
40
0.266358706558118
40
0.459827853177693
40
0.459827853177693
40
0.653296999797269
40
0.653296999797269
40
0.846766146416844
40
0.846766146416844
40
1
40
1
40
1
40
1
41
1
10
2.0663449777212
20
-2.9924840189081
30
0
41
1
10
2.06666240101171
20
-2.99248462459982
30
0
41
1
10
2.06698081340943
20
-2.99248496649744
30
0
41
1
10
2.09011035037042
20
-2.99249066047034
30
0
41
1
10
2.11766209099105
20
-2.99120536197472
30
0
41
1
10
2.18023060736158
20
-2.98675087800626
30
0
41
1
10
2.21550950202604
20
-2.98354829556914
30
0
41
1
10
2.29023166208574
20
-2.97592890818137
30
0
41
1
10
2.32980471736136
20
-2.97150715684541
30
0
41
1
10
2.45364395613291
20
-2.9569833796686
30
0
41
1
10
2.54330710573933
20
-2.94559616438914
30
0
41
1
10
2.72973942059514
20
-2.92141377505388
30
0
41
1
10
2.82614513169386
20
-2.9086581107581
30
0
41
1
10
2.97408123562513
20
-2.88912979345349
30
0
41
1
10
3.02395885961602
20
-2.88255040705946
30
0
41
1
10
3.09951054368929
20
-2.87262438747911
30
0
41
1
10
3.12481790614049
20
-2.86930601923581
30
0
41
1
10
3.16289550227736
20
-2.86432631023874
30
0
41
1
10
3.17565067054616
20
-2.86269496057562
30
0
41
1
10
3.20102192573614
20
-2.85930162338826
30
0
41
1
10
3.2136127266993
20
-2.85751725552885
30
0
41
1
10
3.24046495230533
20
-2.85514361385589
30
0
41
1
10
3.25468933294476
20
-2.85441101467993
30
0
41
1
10
3.28271516659464
20
-2.85367377333273
30
0
41
1
10
3.29667554453658
20
-2.8536664392189
30
0
41
1
10
3.33850118987533
20
-2.85402733848829
30
0
41
1
10
3.36633257679898
20
-2.85462786757435
30
0
41
1
10
3.44990083986474
20
-2.85591625152645
30
0
41
1
10
3.50560259891168
20
-2.85684304236642
30
0
41
1
10
4.0068251678486
20
-2.86577344420022
30
0
41
1
10
4.45118487519616
20
-2.87799545324464
30
0
41
1
10
5.33593358685863
20
-2.90706772256561
30
0
41
1
10
5.77723288644512
20
-2.9239316163638
30
0
41
1
10
6.6530178606227
20
-2.95604232929034
30
0
41
1
10
7.08742636460022
20
-2.97122956217439
30
0
41
1
10
7.86040279359818
20
-2.99024442213511
30
0
41
1
10
8.20008629491142
20
-2.99568627480633
30
0
41
1
10
8.53819251252236
20
-2.99638985362336
30
0
0
SPLINE
5
C1
100
AcDbEntity
8
1
62
256
6
ByLayer
370
18
48
1
60
0
100
AcDbSpline
70
4
71
3
72
8
73
4
40
0
40
0
40
0
40
0
40
1
40
1
40
1
40
1
41
1
10
54.0909246594493
20
2.94392436491393
30
0
41
1
10
54.0523894746626
20
2.98316772016369
30
0
41
1
10
54.0131403452041
20
3.00834768632763
30
0
41
1
10
53.9727460528967
20
3.01905467430845
30
0
0
SPLINE
5
C2
100
AcDbEntity
8
1
62
256
6
ByLayer
370
18
48
1
60
0
100
AcDbSpline
70
4
71
3
72
38
73
34
40
0
40
0
40
0
40
0
40
0.0624999999999927
40
0.0624999999999927
40
0.124999999999985
40
0.124999999999985
40
0.187499999999978
40
0.187499999999978
40
0.249999999999971
40
0.249999999999971
40
0.312499999999964
40
0.312499999999964
40
0.343749999999964
40
0.343749999999964
40
0.374999999999964
40
0.374999999999964
40
0.406249999999964
40
0.406249999999964
40
0.437499999999964
40
0.437499999999964
40
0.468749999999965
40
0.468749999999965
40
0.499999999999965
40
0.499999999999965
40
0.562499999999965
40
0.562499999999965
40
0.624999999999966
40
0.624999999999966
40
0.749999999999977
40
0.749999999999977
40
0.874999999999989
40
0.874999999999989
40
1
40
1
40
1
40
1
41
1
10
53.8916129958023
20
-1.63142562960928
30
0
41
1
10
53.8370808425923
20
-1.61105617798807
30
0
41
1
10
53.7824359583452
20
-1.58823772823081
30
0
41
1
10
53.6746527905681
20
-1.53818765353483
30
0
41
1
10
53.6213465694566
20
-1.51090866967877
30
0
41
1
10
53.516038966717
20
-1.45132640162956
30
0
41
1
10
53.4640332719582
20
-1.41903972519927
30
0
41
1
10
53.3616387713735
20
-1.348240521793
30
0
41
1
10
53.3109417394386
20
-1.30949431073628
30
0
41
1
10
53.2141728804164
20
-1.22502624218521
30
0
41
1
10
53.1678602906263
20
-1.17939966889247
30
0
41
1
10
53.1038993996706
20
-1.10194073115221
30
0
41
1
10
53.0836220174606
20
-1.07466802065576
30
0
41
1
10
53.0470692687602
20
-1.01706617099154
30
0
41
1
10
53.0306733840992
20
-0.986524666188359
30
0
41
1
10
53.0054042181663
20
-0.92308059157773
30
0
41
1
10
52.9963500184344
20
-0.88928335304692
30
0
41
1
10
52.9912786785686
20
-0.823250737870239
30
0
41
1
10
52.9954886839499
20
-0.791208066607453
30
0
41
1
10
53.0167422558934
20
-0.735501554801914
30
0
41
1
10
53.0332205833495
20
-0.712354952374454
30
0
41
1
10
53.071619572247
20
-0.674788271353492
30
0
41
1
10
53.0937246076579
20
-0.659988837941967
30
0
41
1
10
53.1638651256101
20
-0.624182339517716
30
0
41
1
10
53.2148037843603
20
-0.611484089526471
30
0
41
1
10
53.3203243982734
20
-0.596862871647431
30
0
41
1
10
53.3738449724754
20
-0.595434059082322
30
0
41
1
10
53.5357978173489
20
-0.601910018375634
30
0
41
1
10
53.6461796093927
20
-0.62064618197661
30
0
41
1
10
53.8660614515026
20
-0.67565388371176
30
0
41
1
10
53.9758352288399
20
-0.712193480299817
30
0
41
1
10
54.1936484460953
20
-0.801232020168243
30
0
41
1
10
54.300831937448
20
-0.853276995927331
30
0
41
1
10
54.4058546571825
20
-0.914759130602334
30
0
0
SPLINE
5
C3
100
AcDbEntity
8
1
62
256
6
ByLayer
370
18
48
1
60
0
100
AcDbSpline
70
4
71
3
72
8
73
4
40
0
40
0
40
0
40
0
40
1
40
1
40
1
40
1
41
1
10
54.9996835674798
20
-0.0408918369211904
30
0
41
1
10
55.0001059534338
20
-0.0135920580627271
30
0
41
1
10
55.0001049345699
20
0.013657909586982
30
0
41
1
10
54.9996835674798
20
0.0408918369218725
30
0
0
SPLINE
5
C4
100
AcDbEntity
8
1
62
256
6
ByLayer
370
13
48
1
60
0
100
AcDbSpline
70
4
71
3
72
8
73
4
40
0
40
0
40
0
40
0
40
1
40
1
40
1
40
1
41
1
10
3.34154005097173
20
-1.52456380891672
30
0
41
1
10
3.30743393505716
20
-1.51744460868329
30
0
41
1
10
3.27457466996467
20
-1.51426478875413
30
0
41
1
10
3.24302311197394
20
-1.51496243953579
30
0
0
SPLINE
5
C5
100
AcDbEntity
8
1
62
256
6
ByLayer
370
18
48
1
60
0
100
AcDbSpline
70
4
71
3
72
50
73
46
40
0
40
0
40
0
40
0
40
0.0843348338756625
40
0.0843348338756625
40
0.126502250813494
40
0.126502250813494
40
0.168669667751325
40
0.168669667751325
40
0.253004501626986
40
0.253004501626986
40
0.295171918564817
40
0.295171918564817
40
0.337339335502648
40
0.337339335502648
40
0.379506752440478
40
0.379506752440478
40
0.421674169378309
40
0.421674169378309
40
0.463841586316139
40
0.463841586316139
40
0.50600900325397
40
0.50600900325397
40
0.548176420191801
40
0.548176420191801
40
0.590343837129631
40
0.590343837129631
40
0.632511254067462
40
0.632511254067462
40
0.674678671005293
40
0.674678671005293
40
0.716846087943123
40
0.716846087943123
40
0.759013504880954
40
0.759013504880954
40
0.801180921818785
40
0.801180921818785
40
0.843348338756615
40
0.843348338756615
40
0.885515755694446
40
0.885515755694446
40
0.927683172632277
40
0.927683172632277
40
0.969850589570107
40
0.969850589570107
40
1
40
1
40
1
40
1
41
1
10
10.0755032171093
20
-0.319789538084223
30
0
41
1
10
10.5052148476121
20
-0.495717602235487
30
0
41
1
10
10.9333020145781
20
-0.668066740952469
30
0
41
1
10
11.5729915402188
20
-0.920150417696789
30
0
41
1
10
11.7858302827867
20
-1.00305842801538
30
0
41
1
10
12.2115818861899
20
-1.16505903219053
30
0
41
1
10
12.4244289155727
20
-1.24432802021823
30
0
41
1
10
13.0626118125816
20
-1.47700888523326
30
0
41
1
10
13.4875658875714
20
-1.62503951744642
30
0
41
1
10
14.1271140320375
20
-1.83183498172517
30
0
41
1
10
14.3405070694748
20
-1.89840538762647
30
0
41
1
10
14.7678398782496
20
-2.02625938354908
30
0
41
1
10
14.9817876524737
20
-2.08758860755452
30
0
41
1
10
15.4109142386958
20
-2.20442025295671
30
0
41
1
10
15.6260062489043
20
-2.25976525667903
30
0
41
1
10
16.0542591380735
20
-2.36282569490317
30
0
41
1
10
16.2677960141247
20
-2.41096253329704
30
0
41
1
10
16.6943624152168
20
-2.50058025442954
30
0
41
1
10
16.9075374415925
20
-2.54230660183882
30
0
41
1
10
17.3334060474063
20
-2.6175116824268
30
0
41
1
10
17.5460653253678
20
-2.65085238974746
30
0
41
1
10
17.9711104887132
20
-2.71053187442479
30
0
41
1
10
18.1835102981376
20
-2.73677042776507
30
0
41
1
10
18.6087828401521
20
-2.7822964646443
30
0
41
1
10
18.821544029262
20
-2.80090626362187
30
0
41
1
10
19.2472925646834
20
-2.82913194835547
30
0
41
1
10
19.4602439752126
20
-2.83927282588743
30
0
41
1
10
19.8868314894192
20
-2.8523168539557
30
0
41
1
10
20.1005219200227
20
-2.85573881433604
30
0
41
1
10
20.5289075750899
20
-2.852511362841
30
0
41
1
10
20.743865693964
20
-2.84590404156705
30
0
41
1
10
21.173011763227
20
-2.82546899944421
30
0
41
1
10
21.3873064882546
20
-2.81152684668851
30
0
41
1
10
21.8160121290166
20
-2.77692761426403
30
0
41
1
10
22.030235063738
20
-2.75501176277601
30
0
41
1
10
22.4584742154643
20
-2.70221326569137
30
0
41
1
10
22.6724710299166
20
-2.67193285894487
30
0
41
1
10
23.1008690470712
20
-2.60482587165353
30
0
41
1
10
23.3153258382877
20
-2.56852400823317
30
0
41
1
10
23.7447531069962
20
-2.48629357649284
30
0
41
1
10
23.9597623468011
20
-2.44075613019035
30
0
41
1
10
24.3880095308273
20
-2.34386387688591
30
0
41
1
10
24.6016494629816
20
-2.29241617636057
30
0
41
1
10
24.9676425543391
20
-2.19969198920225
30
0
41
1
10
25.119996503529
20
-2.15922257536729
30
0
41
1
10
25.2721436261759
20
-2.117064459338
30
0
0
SPLINE
5
C6
100
AcDbEntity
8
1
62
256
6
ByLayer
370
18
48
1
60
0
100
AcDbSpline
70
4
71
3
72
34
73
30
40
0
40
0
40
0
40
0
40
0.0184459955462197
40
0.0184459955462197
40
0.0885569958643453
40
0.0885569958643453
40
0.158667996182471
40
0.158667996182471
40
0.298889996818725
40
0.298889996818725
40
0.369000997136853
40
0.369000997136853
40
0.43911199745498
40
0.43911199745498
40
0.509222997773108
40
0.509222997773108
40
0.579333998091235
40
0.579333998091235
40
0.649444998409363
40
0.649444998409363
40
0.71955599872749
40
0.71955599872749
40
0.789666999045617
40
0.789666999045617
40
0.859777999363745
40
0.859777999363745
40
0.929888999681872
40
0.929888999681872
40
1
40
1
40
1
40
1
41
1
10
41.9760371761928
20
2.86482169544718
30
0
41
1
10
42.0325326595467
20
2.86469167202065
30
0
41
1
10
42.0890406206847
20
2.86426438218029
30
0
41
1
10
42.3603850948926
20
2.86071647262119
30
0
41
1
10
42.5746801526869
20
2.85355430473967
30
0
41
1
10
43.0023202833193
20
2.83193145288342
30
0
41
1
10
43.2156735251073
20
2.81774603592689
30
0
41
1
10
43.8545448768925
20
2.7633281023426
30
0
41
1
10
44.2792554460406
20
2.70885864480897
30
0
41
1
10
44.9153480603928
20
2.60467939110527
30
0
41
1
10
45.127194349316
20
2.56610534481624
30
0
41
1
10
45.5513529344366
20
2.48264576644615
30
0
41
1
10
45.763604716167
20
2.43772352900203
30
0
41
1
10
46.1882707050247
20
2.34181866689622
30
0
41
1
10
46.4006440257834
20
2.29074462602574
30
0
41
1
10
46.8259214836867
20
2.18117004359021
30
0
41
1
10
47.0389865165572
20
2.12282388689769
30
0
41
1
10
47.4660706743166
20
2.00005358055088
30
0
41
1
10
47.6800306344942
20
1.93559677129218
30
0
41
1
10
48.1088696310878
20
1.80058198961999
30
0
41
1
10
48.3238594566745
20
1.72988001807892
30
0
41
1
10
48.7530418132869
20
1.58456428023285
30
0
41
1
10
48.9674901622228
20
1.50979532174134
30
0
41
1
10
49.3960366427049
20
1.35629143208661
30
0
41
1
10
49.610083678115
20
1.277429884583
30
0
41
1
10
50.038196592884
20
1.11609507372322
30
0
41
1
10
50.2523914027133
20
1.03385058064342
30
0
41
1
10
50.6811300718255
20
0.86676545964923
30
0
41
1
10
50.895618775273
20
0.781964946428559
30
0
41
1
10
51.1102687005509
20
0.695604049505221
30
0
0
SPLINE
5
C7
100
AcDbEntity
8
1
62
256
6
ByLayer
370
18
48
1
60
0
100
AcDbSpline
70
4
71
3
72
8
73
4
40
0
40
0
40
0
40
0
40
1
40
1
40
1
40
1
41
1
10
54.9180856260542
20
0.68251628833076
30
0
41
1
10
54.9574355217568
20
0.491094145186281
30
0
41
1
10
54.9838617232234
20
0.3004233497266
30
0
41
1
10
54.9908486929322
20
0.110882697205085
30
0
0
SPLINE
5
C8
100
AcDbEntity
8
1
62
256
6
ByLayer
370
18
48
1
60
0
100
AcDbSpline
70
4
71
3
72
22
73
18
40
0
40
0
40
0
40
0
40
0.125
40
0.125
40
0.25
40
0.25
40
0.375
40
0.375
40
0.5
40
0.5
40
0.625
40
0.625
40
0.75
40
0.75
40
0.875
40
0.875
40
1
40
1
40
1
40
1
41
1
10
3.34281750501367
20
2.39742840066586
30
0
41
1
10
3.59646955662365
20
2.30053764190387
30
0
41
1
10
3.86124398337444
20
2.19926039815382
30
0
41
1
10
4.40229634974293
20
1.98887623278577
30
0
41
1
10
4.67972321231468
20
1.87941316224161
30
0
41
1
10
5.23477473081297
20
1.65697626433737
30
0
41
1
10
5.51340193253392
20
1.54359481528172
30
0
41
1
10
6.07239573696381
20
1.31352806972126
30
0
41
1
10
6.3527008181629
20
1.1971263267796
30
0
41
1
10
6.91542165466277
20
0.961523895657194
30
0
41
1
10
7.19782065452051
20
0.842448278420619
30
0
41
1
10
7.76511526351766
20
0.604046018186665
30
0
41
1
10
8.04999153152488
20
0.484731831329469
30
0
41
1
10
8.62324436405999
20
0.247698576053551
30
0
41
1
10
8.91185502727893
20
0.130048808539698
30
0
41
1
10
9.49194554683936
20
-0.0997924816537932
30
0
41
1
10
9.78296431120452
20
-0.211889287493847
30
0
41
1
10
10.0755032171093
20
-0.319789538084223
30
0
0
SPLINE
5
C9
100
AcDbEntity
8
1
62
256
6
ByLayer
370
13
48
1
60
0
100
AcDbSpline
70
4
71
3
72
10
73
6
40
0
40
0
40
0
40
0
40
0.5
40
0.5
40
1
40
1
40
1
40
1
41
1
10
3.15036397057745
20
-1.60526186077212
30
0
41
1
10
3.16241462476299
20
-1.61255308736318
30
0
41
1
10
3.17650085026548
20
-1.61936064144729
30
0
41
1
10
3.20751916945193
20
-1.63111551133272
30
0
41
1
10
3.22445505838437
20
-1.63612090845498
30
0
41
1
10
3.24302311197397
20
-1.64014568659232
30
0
0
SPLINE
5
CA
100
AcDbEntity
8
1
62
256
6
ByLayer
370
18
48
1
60
0
100
AcDbSpline
70
4
71
3
72
12
73
8
40
0
40
0
40
0
40
0
40
0.0390599976948921
40
0.0390599976948921
40
0.715418218590904
40
0.715418218590904
40
1
40
1
40
1
40
1
41
1
10
32.0351649699619
20
-2.86003108329018
30
0
41
1
10
31.9745305177084
20
-2.85995562335609
30
0
41
1
10
31.9139017525956
20
-2.85955078291164
30
0
41
1
10
30.8034826897273
20
-2.84610058604767
30
0
41
1
10
29.7544200157796
20
-2.73400408019703
30
0
41
1
10
28.2431600553004
20
-2.44242178522947
30
0
41
1
10
27.7962151956239
20
-2.34035721938005
30
0
41
1
10
27.349172237872
20
-2.22435619597283
30
0
0
SPLINE
5
CB
100
AcDbEntity
8
1
62
256
6
ByLayer
370
13
48
1
60
0
100
AcDbSpline
70
4
71
3
72
22
73
18
40
0
40
0
40
0
40
0
40
0.0248901323881439
40
0.0248901323881439
40
0.103413847832181
40
0.103413847832181
40
0.181937563276216
40
0.181937563276216
40
0.496032425052353
40
0.496032425052353
40
0.65307985594042
40
0.65307985594042
40
0.731603571384453
40
0.731603571384453
40
0.810127286828487
40
0.810127286828487
40
1
40
1
40
1
40
1
41
1
10
27.34917223793
20
-2.22435619598787
30
0
41
1
10
27.264977429717
20
-2.20250889082664
30
0
41
1
10
27.1807791418778
20
-2.18016724708642
30
0
41
1
10
26.8309167757978
20
-2.08533730919692
30
0
41
1
10
26.5646967094143
20
-2.00841762437565
30
0
41
1
10
26.0334746154973
20
-1.84643749812392
30
0
41
1
10
25.7687231271792
20
-1.76146938459001
30
0
41
1
10
24.4479921269163
20
-1.31950688222497
30
0
41
1
10
23.4012931460291
20
-0.910673882151599
30
0
41
1
10
21.822585276046
20
-0.269279748476777
30
0
41
1
10
21.2950087688419
20
-0.0506314232759451
30
0
41
1
10
20.4984996480409
20
0.276907515487096
30
0
41
1
10
20.2321285655984
20
0.386075005481871
30
0
41
1
10
19.7021630871559
20
0.601145774243378
30
0
41
1
10
19.4379351525522
20
0.707227834826966
30
0
41
1
10
18.5365478554298
20
1.06293695177777
30
0
41
1
10
17.90194087772
20
1.30290249189167
30
0
41
1
10
17.2669585460514
20
1.52371964913485
30
0
0
SPLINE
5
CC
100
AcDbEntity
8
1
62
256
6
ByLayer
370
18
48
1
60
0
100
AcDbSpline
70
4
71
3
72
10
73
6
40
0
40
0
40
0
40
0
40
0.5
40
0.5
40
1
40
1
40
1
40
1
41
1
10
53.9650835393572
20
0.760216609492062
30
0
41
1
10
54.1220423365428
20
0.753468453204761
30
0
41
1
10
54.2790041045521
20
0.746680069046306
30
0
41
1
10
54.5928726269853
20
0.733848238689035
30
0
41
1
10
54.7497886254922
20
0.727679618531397
30
0
41
1
10
54.9067134311009
20
0.721391741567061
30
0
0
SPLINE
5
CD
100
AcDbEntity
8
1
62
256
6
ByLayer
370
18
48
1
60
0
100
AcDbSpline
70
4
71
3
72
22
73
18
40
0
40
0
40
0
40
0
40
0.0851911387423789
40
0.0851911387423789
40
0.358020799836833
40
0.358020799836833
40
0.426228215110446
40
0.426228215110446
40
0.494435630384059
40
0.494435630384059
40
0.630850460931285
40
0.630850460931285
40
0.903680122025737
40
0.903680122025737
40
0.97188753729935
40
0.97188753729935
40
1
40
1
40
1
40
1
41
1
10
14.9981497001178
20
2.22387076839587
30
0
41
1
10
15.3292237272813
20
2.1314686650187
30
0
41
1
10
15.6590654043383
20
2.03177095420588
30
0
41
1
10
17.0423049313352
20
1.58646455488034
30
0
41
1
10
18.0887705672453
20
1.18164441417662
30
0
41
1
10
19.4081080182716
20
0.638164310751279
30
0
41
1
10
19.6725202248238
20
0.527572994522558
30
0
41
1
10
20.2029311048519
20
0.303690294394642
30
0
41
1
10
20.4696202911784
20
0.190242880078216
30
0
41
1
10
21.2668112277429
20
-0.1493147460763
30
0
41
1
10
21.79461270134
20
-0.375134252914506
30
0
41
1
10
23.373901352419
20
-1.03469664187111
30
0
41
1
10
24.4206248000941
20
-1.45175123011919
30
0
41
1
10
25.7423152248356
20
-1.89805424161557
30
0
41
1
10
26.0072923679803
20
-1.98362191269422
30
0
41
1
10
26.3827728770318
20
-2.09843425964925
30
0
41
1
10
26.4924642400816
20
-2.13119624199464
30
0
41
1
10
26.602174907619
20
-2.16315210135142
30
0
0
SPLINE
5
CE
100
AcDbEntity
8
1
62
256
6
ByLayer
370
13
48
1
60
0
100
AcDbSpline
70
4
71
3
72
16
73
12
40
0
40
0
40
0
40
0
40
0.0675611544702887
40
0.0675611544702887
40
0.29742408847444
40
0.29742408847444
40
0.757149956482744
40
0.757149956482744
40
0.987012890486895
40
0.987012890486895
40
1
40
1
40
1
40
1
41
1
10
26.6021749075446
20
-2.16315210132973
30
0
41
1
10
26.7586480013179
20
-2.20872863723122
30
0
41
1
10
26.9151603631925
20
-2.25266540315693
30
0
41
1
10
27.6032968787125
20
-2.43812429773683
30
0
41
1
10
28.134864397626
20
-2.56104044709861
30
0
41
1
10
29.7318541992836
20
-2.85940934658254
30
0
41
1
10
30.7810089613131
20
-2.96035104728051
30
0
41
1
10
32.3561281224091
20
-2.95747250714189
30
0
41
1
10
32.8813784116459
20
-2.93094200129209
30
0
41
1
10
33.4387371186497
20
-2.87613212115235
30
0
41
1
10
33.4685509757221
20
-2.87312018287807
30
0
41
1
10
33.4983726374046
20
-2.87002750432262
30
0
0
SPLINE
5
CF
100
AcDbEntity
8
1
62
256
6
ByLayer
370
13
48
1
60
0
100
AcDbSpline
70
4
71
3
72
30
73
26
40
0
40
0
40
0
40
0
40
0.0624999999999999
40
0.0624999999999999
40
0.125
40
0.125
40
0.25
40
0.25
40
0.375
40
0.375
40
0.4375
40
0.4375
40
0.5
40
0.5
40
0.625
40
0.625
40
0.6875
40
0.6875
40
0.75
40
0.75
40
0.875
40
0.875
40
0.9375
40
0.9375
40
1
40
1
40
1
40
1
41
1
10
3.34154005097173
20
-1.52456380891672
30
0
41
1
10
3.34158884164285
20
-1.44540793107882
30
0
41
1
10
3.3416365181601
20
-1.36361014730471
30
0
41
1
10
3.34172866482405
20
-1.19712171531759
30
0
41
1
10
3.3417732082714
20
-1.11234130912976
30
0
41
1
10
3.34190286475987
20
-0.853498864900928
30
0
41
1
10
3.34198402953402
20
-0.67497963879768
30
0
41
1
10
3.34213830091838
20
-0.30554409043279
30
0
41
1
10
3.34220902396476
20
-0.120366990128588
30
0
41
1
10
3.34230743866334
20
0.157126122058713
30
0
41
1
10
3.34233897116968
20
0.249631293431293
30
0
41
1
10
3.34239971076255
20
0.434656894474983
30
0
41
1
10
3.34242901050592
20
0.527515392737541
30
0
41
1
10
3.34251186643934
20
0.80023584064304
30
0
41
1
10
3.34256106031535
20
0.976034445100197
30
0
41
1
10
3.34262666635286
20
1.23081064127504
30
0
41
1
10
3.34264720251647
20
1.31445336951262
30
0
41
1
10
3.34268522012962
20
1.47770523427437
30
0
41
1
10
3.34270248513656
20
1.55636024297706
30
0
41
1
10
3.34274917808642
20
1.78373421533249
30
0
41
1
10
3.34277358479886
20
1.92394159983428
30
0
41
1
10
3.34279913817511
20
2.11696108295101
30
0
41
1
10
3.34280580944494
20
2.17871603839646
30
0
41
1
10
3.34281486072439
20
2.29399188726848
30
0
41
1
10
3.34281727950597
20
2.34765150230064
30
0
41
1
10
3.34281750482853
20
2.39742840073123
30
0
0
SPLINE
5
D0
100
AcDbEntity
8
1
62
256
6
ByLayer
370
18
48
1
60
0
100
AcDbSpline
70
4
71
3
72
10
73
6
40
0
40
0
40
0
40
0
40
0.5
40
0.5
40
1
40
1
40
1
40
1
41
1
10
54.0909246594476
20
-2.94392436492097
30
0
41
1
10
54.2228664161472
20
-2.57113978614447
30
0
41
1
10
54.3573494490104
20
-2.20025972893345
30
0
41
1
10
54.630268178642
20
-1.46131734424554
30
0
41
1
10
54.7686883213228
20
-1.09324408045757
30
0
41
1
10
54.9081216316369
20
-0.726064099600677
30
0
0
SPLINE
5
D1
100
AcDbEntity
8
1
62
256
6
ByLayer
370
18
48
1
60
0
100
AcDbSpline
70
4
71
3
72
14
73
10
40
0
40
0
40
0
40
0
40
0.205551096743255
40
0.205551096743255
40
0.41110219348651
40
0.41110219348651
40
0.822204386973019
40
0.822204386973019
40
1
40
1
40
1
40
1
41
1
10
54.0031284904642
20
-2.87240686761101
30
0
41
1
10
53.737520857951
20
-2.8756015423935
30
0
41
1
10
53.4720107949488
20
-2.87240072628543
30
0
41
1
10
52.9407398441506
20
-2.85330781916943
30
0
41
1
10
52.6746340465102
20
-2.83737672218467
30
0
41
1
10
51.8794622712993
20
-2.77123058335477
30
0
41
1
10
51.3525470722922
20
-2.70271599686942
30
0
41
1
10
50.5996459570105
20
-2.5725306125658
30
0
41
1
10
50.3725760547161
20
-2.52900819447953
30
0
41
1
10
50.1455890363175
20
-2.48150214270737
30
0
0
SPLINE
5
D2
100
AcDbEntity
8
1
62
256
6
ByLayer
370
13
48
1
60
0
100
AcDbSpline
70
4
71
3
72
22
73
18
40
0
40
0
40
0
40
0
40
0.213470144182459
40
0.213470144182459
40
0.281562044836995
40
0.281562044836995
40
0.349653945491532
40
0.349653945491532
40
0.485837746800604
40
0.485837746800604
40
0.758205349418753
40
0.758205349418753
40
0.826297250073289
40
0.826297250073289
40
0.894389150727826
40
0.894389150727826
40
1
40
1
40
1
40
1
41
1
10
50.1455892636826
20
-2.48150219029253
30
0
41
1
10
49.322889326107
20
-2.30931955224972
30
0
41
1
10
48.5012781965709
20
-2.08480576250599
30
0
41
1
10
47.4091392431609
20
-1.73436087001528
30
0
41
1
10
47.1443693578775
20
-1.64543855540123
30
0
41
1
10
46.6130273403938
20
-1.46006866341105
30
0
41
1
10
46.3475315080692
20
-1.36397724086112
30
0
41
1
10
45.5542958995791
20
-1.06853764752256
30
0
41
1
10
45.0282639083095
20
-0.861736077551399
30
0
41
1
10
43.4526659824149
20
-0.226214180175163
30
0
41
1
10
42.4059516745835
20
0.218644624951907
30
0
41
1
10
41.0825845751754
20
0.752295036017642
30
0
41
1
10
40.8165701916456
20
0.858119346011421
30
0
41
1
10
40.2856171108888
20
1.0649996077376
30
0
41
1
10
40.0210089988992
20
1.16592906090438
30
0
41
1
10
39.3476025596809
20
1.41585742317386
30
0
41
1
10
38.9396392934857
20
1.5605367786705
30
0
41
1
10
38.5322655954616
20
1.6961886832654
30
0
0
SPLINE
5
D3
100
AcDbEntity
8
1
62
256
6
ByLayer
370
18
48
1
60
0
100
AcDbSpline
70
4
71
3
72
16
73
12
40
0
40
0
40
0
40
0
40
0.146900778443345
40
0.146900778443345
40
0.338178256526258
40
0.338178256526258
40
0.529455734609171
40
0.529455734609171
40
0.912010690774998
40
0.912010690774998
40
1
40
1
40
1
40
1
41
1
10
10.2952513251651
20
-2.84644231779004
30
0
41
1
10
10.0931847736504
20
-2.84633050508344
30
0
41
1
10
9.89091855744181
20
-2.8425795833607
30
0
41
1
10
9.42457485227536
20
-2.82547690001689
30
0
41
1
10
9.16027755145313
20
-2.80958574162256
30
0
41
1
10
8.63013976741334
20
-2.76544520928323
30
0
41
1
10
8.36371978402713
20
-2.73711069701105
30
0
41
1
10
7.56665700952215
20
-2.63436186208887
30
0
41
1
10
7.03823499829366
20
-2.54232117511293
30
0
41
1
10
6.38940121390502
20
-2.4033594223865
30
0
41
1
10
6.26812405814619
20
-2.37626625761081
30
0
41
1
10
6.14687421745674
20
-2.34810219195509
30
0
0
SPLINE
5
D4
100
AcDbEntity
8
1
62
256
6
ByLayer
370
13
48
1
60
0
100
AcDbSpline
70
4
71
3
72
8
73
4
40
0
40
0
40
0
40
0
40
1
40
1
40
1
40
1
41
1
10
6.14687324416917
20
-2.34810196587856
30
0
41
1
10
5.21379697238046
20
-2.13136579030902
30
0
41
1
10
4.28233830835916
20
-1.85121035422455
30
0
41
1
10
3.34154005097176
20
-1.52456380891675
30
0
0
SPLINE
5
D5
100
AcDbEntity
8
1
62
256
6
ByLayer
370
18
48
1
60
0
100
AcDbSpline
70
4
71
3
72
24
73
20
40
0
40
0
40
0
40
0
40
0.125
40
0.125
40
0.1875
40
0.1875
40
0.249999999999999
40
0.249999999999999
40
0.375000000000004
40
0.375000000000004
40
0.500000000000009
40
0.500000000000009
40
0.562500000000008
40
0.562500000000008
40
0.625000000000007
40
0.625000000000007
40
0.750000000000004
40
0.750000000000004
40
1
40
1
40
1
40
1
41
1
10
51.1102687005505
20
0.695604049505647
30
0
41
1
10
51.1293826872496
20
0.533456676536844
30
0
41
1
10
51.1675600360933
20
0.372254551339637
30
0
41
1
10
51.2504304887513
20
0.131720947032051
30
0
41
1
10
51.2820184326288
20
0.0528080840581708
30
0
41
1
10
51.3513614719539
20
-0.100870204846586
30
0
41
1
10
51.3892356854427
20
-0.175972219141215
30
0
41
1
10
51.511383858325
20
-0.396654042454117
30
0
41
1
10
51.6046886567025
20
-0.538117488830352
30
0
41
1
10
51.8029532237587
20
-0.80207071439952
30
0
41
1
10
51.908648861479
20
-0.925955900808333
30
0
41
1
10
52.0750529575181
20
-1.10209293639303
30
0
41
1
10
52.1318442750327
20
-1.15917391035654
30
0
41
1
10
52.2478628807036
20
-1.27033274790401
30
0
41
1
10
52.3071366166373
20
-1.32443402384158
30
0
41
1
10
52.4862734210622
20
-1.48078600524312
30
0
41
1
10
52.6081310236368
20
-1.57781145282533
30
0
41
1
10
52.9797590128878
20
-1.85094621489697
30
0
41
1
10
53.2354926413799
20
-2.00938636726008
30
0
41
1
10
53.497713727553
20
-2.14860409915119
30
0
0
SPLINE
5
D6
100
AcDbEntity
8
1
62
256
6
ByLayer
370
18
48
1
60
0
100
AcDbSpline
70
4
71
3
72
8
73
4
40
0
40
0
40
0
40
0
40
1
40
1
40
1
40
1
41
1
10
53.9930455592153
20
-2.96598585588543
30
0
41
1
10
53.9862875551832
20
-2.9836849922184
30
0
41
1
10
53.9795210650148
20
-3.00137460689501
30
0
41
1
10
53.9727460528967
20
-3.01905467430845
30
0
0
SPLINE
5
D7
100
AcDbEntity
8
1
62
256
6
ByLayer
370
18
48
1
60
0
100
AcDbSpline
70
4
71
3
72
14
73
10
40
0
40
0
40
0
40
0
40
0.25
40
0.25
40
0.5
40
0.5
40
0.75
40
0.75
40
1
40
1
40
1
40
1
41
1
10
3.11230552575609
20
2.51892233867085
30
0
41
1
10
3.12092109892583
20
2.51079236028454
30
0
41
1
10
3.1324512158601
20
2.50178322669939
30
0
41
1
10
3.16288965641232
20
2.48169964991206
30
0
41
1
10
3.18204539367878
20
2.47053987759543
30
0
41
1
10
3.22596487853633
20
2.44764039596097
30
0
41
1
10
3.25072709682624
20
2.43591993054639
30
0
41
1
10
3.29840747571979
20
2.41495338347141
30
0
41
1
10
3.32128039602853
20
2.40565520907478
30
0
41
1
10
3.34281750482853
20
2.39742840073657
30
0
0
SPLINE
5
D8
100
AcDbEntity
8
1
62
256
6
ByLayer
370
18
48
1
60
0
100
AcDbSpline
70
4
71
3
72
8
73
4
40
0
40
0
40
0
40
0
40
1
40
1
40
1
40
1
41
1
10
53.9727460528967
20
3.01905467430845
30
0
41
1
10
53.8282872029926
20
3.02290348845335
30
0
41
1
10
53.6838110234224
20
3.02476627511823
30
0
41
1
10
53.5393117713795
20
3.02465033996873
30
0
0
SPLINE
5
D9
100
AcDbEntity
8
1
62
256
6
ByLayer
370
18
48
1
60
0
100
AcDbSpline
70
4
71
3
72
38
73
34
40
0
40
0
40
0
40
0
40
0.0895876480743519
40
0.0895876480743519
40
0.155973273910766
40
0.155973273910766
40
0.189166086828973
40
0.189166086828973
40
0.22235889974718
40
0.22235889974718
40
0.288744525583596
40
0.288744525583596
40
0.355130151420011
40
0.355130151420011
40
0.421515777256426
40
0.421515777256426
40
0.454708590174634
40
0.454708590174634
40
0.487901403092842
40
0.487901403092842
40
0.620672654765671
40
0.620672654765671
40
0.687058280602086
40
0.687058280602086
40
0.753443906438501
40
0.753443906438501
40
0.786636719356709
40
0.786636719356709
40
0.819829532274916
40
0.819829532274916
40
0.886215158111331
40
0.886215158111331
40
1
40
1
40
1
40
1
41
1
10
33.8926578616324
20
-2.87458161688119
30
0
41
1
10
33.1814345064393
20
-2.96657761093354
30
0
41
1
10
32.4745602676469
20
-3.01255404056326
30
0
41
1
10
31.2424210004487
20
-3.00989833746536
30
0
41
1
10
30.7175359841516
20
-2.98281046749955
30
0
41
1
10
29.9263532851798
20
-2.90349975281592
30
0
41
1
10
29.6619758451843
20
-2.87062980963395
30
0
41
1
10
29.1314154513567
20
-2.7921438077195
30
0
41
1
10
28.8653590466569
20
-2.74650192402407
30
0
41
1
10
28.0695624201081
20
-2.59221151087266
30
0
41
1
10
27.5402582106991
20
-2.46587475713048
30
0
41
1
10
26.4797614579425
20
-2.1718455262436
30
0
41
1
10
25.9475828540755
20
-2.00372542764336
30
0
41
1
10
24.8869566915025
20
-1.63677750722201
30
0
41
1
10
24.3576340352043
20
-1.43741027310949
30
0
41
1
10
23.5615067309774
20
-1.12172213344292
30
0
41
1
10
23.2953269811149
20
-1.0134197767662
30
0
41
1
10
22.7649311828326
20
-0.793662604308224
30
0
41
1
10
22.5005977536656
20
-0.682233286585955
30
0
41
1
10
21.1819879390237
20
-0.120356753030109
30
0
41
1
10
20.1371385105097
20
0.344833535621063
30
0
41
1
10
18.559141882615
20
1.00501655840259
30
0
41
1
10
18.0314969313841
20
1.21914971504023
30
0
41
1
10
16.9682867404153
20
1.62473384766352
30
0
41
1
10
16.4379590673577
20
1.81453625097302
30
0
41
1
10
15.6428670767996
20
2.07247175616178
30
0
41
1
10
15.3778392437383
20
2.15412263893501
30
0
41
1
10
14.8471906216747
20
2.30773626816026
30
0
41
1
10
14.5811071543706
20
2.3797856732123
30
0
41
1
10
13.7845067720148
20
2.57924625022881
30
0
41
1
10
13.2571135629867
20
2.68958036954189
30
0
41
1
10
11.8300151845712
20
2.92297471059879
30
0
41
1
10
10.9333281254782
20
2.99848339145561
30
0
41
1
10
10.0306856761965
20
2.99742874345813
30
0
0
SPLINE
5
DA
100
AcDbEntity
8
1
62
256
6
ByLayer
370
18
48
1
60
0
100
AcDbSpline
70
4
71
3
72
78
73
74
40
0
40
0
40
0
40
0
40
0.0227496877718273
40
0.0227496877718273
40
0.0480271122652796
40
0.0480271122652796
40
0.0733045367587307
40
0.0733045367587307
40
0.0985819612521818
40
0.0985819612521818
40
0.123859385745633
40
0.123859385745633
40
0.149136810239084
40
0.149136810239084
40
0.199691659225986
40
0.199691659225986
40
0.224969083719438
40
0.224969083719438
40
0.250246508212889
40
0.250246508212889
40
0.27552393270634
40
0.27552393270634
40
0.300801357199791
40
0.300801357199791
40
0.326078781693242
40
0.326078781693242
40
0.351356206186693
40
0.351356206186693
40
0.401911055173595
40
0.401911055173595
40
0.427188479667047
40
0.427188479667047
40
0.452465904160498
40
0.452465904160498
40
0.477743328653949
40
0.477743328653949
40
0.5030207531474
40
0.5030207531474
40
0.528298177640851
40
0.528298177640851
40
0.553575602134302
40
0.553575602134302
40
0.604130451121205
40
0.604130451121205
40
0.629407875614656
40
0.629407875614656
40
0.654685300108107
40
0.654685300108107
40
0.679962724601558
40
0.679962724601558
40
0.705240149095009
40
0.705240149095009
40
0.73051757358846
40
0.73051757358846
40
0.755794998081911
40
0.755794998081911
40
0.781072422575362
40
0.781072422575362
40
0.806349847068813
40
0.806349847068813
40
0.831627271562265
40
0.831627271562265
40
0.856904696055716
40
0.856904696055716
40
0.882182120549167
40
0.882182120549167
40
0.907459545042618
40
0.907459545042618
40
0.958014394029521
40
0.958014394029521
40
0.983291818522973
40
0.983291818522973
40
1
40
1
40
1
40
1
41
1
10
25.2773908473363
20
2.12064658067635
30
0
41
1
10
25.4831134487569
20
2.18381257822418
30
0
41
1
10
25.6890092085239
20
2.24433412696092
30
0
41
1
10
26.1237719317066
20
2.36680109571739
30
0
41
1
10
26.3530944433422
20
2.4274298718581
30
0
41
1
10
26.8134389225984
20
2.54005504169845
30
0
41
1
10
27.0445391407914
20
2.59235639715683
30
0
41
1
10
27.506765122133
20
2.68887826483601
30
0
41
1
10
27.7367524897156
20
2.73296775534266
30
0
41
1
10
28.1964353791224
20
2.81085396753531
30
0
41
1
10
28.4259325518974
20
2.84494578991701
30
0
41
1
10
28.8838585388837
20
2.90392590656455
30
0
41
1
10
29.112052682092
20
2.92891022674669
30
0
41
1
10
29.7963883399374
20
2.98896757940818
30
0
41
1
10
30.2529868843234
20
3.00937566904224
30
0
41
1
10
30.9365174824494
20
3.01086275014183
30
0
41
1
10
31.1646644021724
20
3.00639802908125
30
0
41
1
10
31.6219592627677
20
2.9877985794509
30
0
41
1
10
31.8509913276907
20
2.97367018490817
30
0
41
1
10
32.3094316197951
20
2.93536282633786
30
0
41
1
10
32.5388100873884
20
2.91107347781562
30
0
41
1
10
32.9997283990727
20
2.85326610123849
30
0
41
1
10
33.2314984781338
20
2.8195801243948
30
0
41
1
10
33.6928902825164
20
2.74296271986358
30
0
41
1
10
33.9224905025018
20
2.69970728790517
30
0
41
1
10
34.3811183913467
20
2.60506258947277
30
0
41
1
10
34.6102286658078
20
2.55383220965913
30
0
41
1
10
35.2963782183898
20
2.38800743648258
30
0
41
1
10
35.7514297115863
20
2.25985469676718
30
0
41
1
10
36.4356543470307
20
2.0493127904835
30
0
41
1
10
36.6638125069722
20
1.97584203792295
30
0
41
1
10
37.1198201041756
20
1.8213271342461
30
0
41
1
10
37.347785957297
20
1.74043951687307
30
0
41
1
10
37.8052514711169
20
1.57456323100405
30
0
41
1
10
38.0345073983576
20
1.48913818827035
30
0
41
1
10
38.4937264845094
20
1.31250679068862
30
0
41
1
10
38.7234375848908
20
1.22067968170225
30
0
41
1
10
39.1848839789727
20
1.03397759895489
30
0
41
1
10
39.4163719346936
20
0.939222122594742
30
0
41
1
10
39.8769541650871
20
0.747424050990503
30
0
41
1
10
40.1064165187938
20
0.649899878545426
30
0
41
1
10
40.7929680100347
20
0.354037544906873
30
0
41
1
10
41.2502747899384
20
0.157316557781655
30
0
41
1
10
41.9336046615951
20
-0.14189215475804
30
0
41
1
10
42.1611812509908
20
-0.241741009033717
30
0
41
1
10
42.6171886182686
20
-0.438714566704277
30
0
41
1
10
42.8453996174405
20
-0.536361121858988
30
0
41
1
10
43.3018991619139
20
-0.730758396271312
30
0
41
1
10
43.52993905471
20
-0.828083516493109
30
0
41
1
10
43.9875800349442
20
-1.01836368037419
30
0
41
1
10
44.2170886693682
20
-1.11154028136741
30
0
41
1
10
44.6770621079282
20
-1.29493623292447
30
0
41
1
10
44.9074961069056
20
-1.38553435999791
30
0
41
1
10
45.3693031233798
20
-1.56247763854736
30
0
41
1
10
45.6001656619295
20
-1.64763860838573
30
0
41
1
10
46.0615714313314
20
-1.81203068276034
30
0
41
1
10
46.2920948265608
20
-1.89130426440099
30
0
41
1
10
46.7523246157238
20
-2.04468690574015
30
0
41
1
10
46.982467706187
20
-2.11799688761172
30
0
41
1
10
47.4436936649202
20
-2.25651305163143
30
0
41
1
10
47.6745906968371
20
-2.3220488514325
30
0
41
1
10
48.1365792290891
20
-2.44613433715961
30
0
41
1
10
48.3670733542821
20
-2.5047263719697
30
0
41
1
10
48.8271014884827
20
-2.61176872299362
30
0
41
1
10
49.0567432033615
20
-2.66064412109523
30
0
41
1
10
49.514897140937
20
-2.74976718332877
30
0
41
1
10
49.7431859691931
20
-2.79018900722429
30
0
41
1
10
50.4275922806467
20
-2.89705269199067
30
0
41
1
10
50.8841431346965
20
-2.94888668554785
30
0
41
1
10
51.5673596863182
20
-2.99870647220146
30
0
41
1
10
51.7953431645449
20
-3.01035298311246
30
0
41
1
10
52.1748379399635
20
-3.02151870773722
30
0
41
1
10
52.3260151570937
20
-3.02383501323126
30
0
41
1
10
52.4772946686756
20
-3.02399398657704
30
0
0
SPLINE
5
DB
100
AcDbEntity
8
SK1
62
256
6
ByLayer
370
18
48
1
60
0
100
AcDbSpline
70
4
71
3
72
8
73
4
40
0
40
0
40
0
40
0
40
1
40
1
40
1
40
1
41
1
10
-36
20
-1.91784090355119
30
0
41
1
10
-35.7560178188138
20
-2.123713746975
30
0
41
1
10
-35.5039153272086
20
-2.32768405437219
30
0
41
1
10
-35.25
20
-2.53122962615359
30
0
0
SPLINE
5
DC
100
AcDbEntity
8
SK1
62
256
6
ByLayer
370
18
48
1
60
0
100
AcDbSpline
70
4
71
3
72
14
73
10
40
0
40
0
40
0
40
0
40
0.125
40
0.125
40
0.250000000000001
40
0.250000000000001
40
0.499999999999999
40
0.499999999999999
40
1
40
1
40
1
40
1
41
1
10
-35.15
20
-0.922170915008309
30
0
41
1
10
-35.15
20
-0.911438680412374
30
0
41
1
10
-35.1517507934569
20
-0.900157361501158
30
0
41
1
10
-35.1569069278762
20
-0.879065257885998
30
0
41
1
10
-35.1602348319461
20
-0.869283209172437
30
0
41
1
10
-35.1714888412644
20
-0.841231349648268
30
0
41
1
10
-35.1802429568049
20
-0.825214029762492
30
0
41
1
10
-35.2083191353838
20
-0.781281989082061
30
0
41
1
10
-35.2286409685644
20
-0.758782819089276
30
0
41
1
10
-35.25
20
-0.741660826832884
30
0
0
SPLINE
5
DD
100
AcDbEntity
8
SK1
62
256
6
ByLayer
370
18
48
1
60
0
100
AcDbSpline
70
4
71
3
72
14
73
10
40
0
40
0
40
0
40
0
40
0.499999999999998
40
0.499999999999998
40
0.749999999999996
40
0.749999999999996
40
0.874999999999998
40
0.874999999999998
40
1
40
1
40
1
40
1
41
1
10
-35.25
20
-2.53122962615384
30
0
41
1
10
-35.2287404812744
20
-2.54827184626075
30
0
41
1
10
-35.208362723075
20
-2.55988363692603
30
0
41
1
10
-35.1802905070704
20
-2.565758760666
30
0
41
1
10
-35.1714466180788
20
-2.5657466089144
30
0
41
1
10
-35.1602396792677
20
-2.55985326017756
30
0
41
1
10
-35.1568594217207
20
-2.55686142204849
30
0
41
1
10
-35.1517495297275
20
-2.54766406974096
30
0
41
1
10
-35.15
20
-2.54131172823151
30
0
41
1
10
-35.15
20
-2.53278283439698
30
0
0
SPLINE
5
DE
100
AcDbEntity
8
SK1
62
256
6
ByLayer
370
18
48
1
60
0
100
AcDbSpline
70
4
71
3
72
8
73
4
40
0
40
0
40
0
40
0
40
1
40
1
40
1
40
1
41
1
10
-35.25
20
-0.741660826832884
30
0
41
1
10
-35.5038885359022
20
-0.538136731706061
30
0
41
1
10
-35.7560050601911
20
-0.334155713415583
30
0
41
1
10
-35.9999999999999
20
-0.128272104230604
30
0
0
LINE
5
76
100
AcDbEntity
8
81
62
256
6
ByLayer
370
18
48
1
60
0
100
AcDbLine
10
55
20
0
30
0
11
60
21
0
31
0
39
0
210
0
220
0
230
1
0
LINE
5
77
100
AcDbEntity
8
1
62
256
6
ByLayer
370
18
48
1
60
0
100
AcDbLine
10
2.074566
20
2.99249
30
0
11
0.350219
21
2.991412
31
0
39
0
210
0
220
0
230
1
0
LINE
5
79
100
AcDbEntity
8
1
62
256
6
ByLayer
370
18
48
1
60
0
100
AcDbLine
10
10.04135
20
2.997469
30
0
11
8.534303
21
2.996527
31
0
39
0
210
0
220
0
230
1
0
LINE
5
7A
100
AcDbEntity
8
1
62
256
6
ByLayer
370
18
48
1
60
0
100
AcDbLine
10
31.79159
20
3.011063
30
0
11
30.733107
21
3.010401
31
0
39
0
210
0
220
0
230
1
0
LINE
5
7B
100
AcDbEntity
8
1
62
256
6
ByLayer
370
18
48
1
60
0
100
AcDbLine
10
30.733107
20
-3.010401
30
0
11
31.791676
21
-3.011063
31
0
39
0
210
0
220
0
230
1
0
LINE
5
7C
100
AcDbEntity
8
1
62
256
6
ByLayer
370
18
48
1
60
0
100
AcDbLine
10
8.534303
20
-2.996527
30
0
11
10.041026
21
-2.997469
31
0
39
0
210
0
220
0
230
1
0
LINE
5
7D
100
AcDbEntity
8
1
62
256
6
ByLayer
370
18
48
1
60
0
100
AcDbLine
10
0.350219
20
-2.991412
30
0
11
2.074566
21
-2.99249
31
0
39
0
210
0
220
0
230
1
0
LINE
5
7E
100
AcDbEntity
8
1
62
256
6
ByLayer
370
18
48
1
60
0
100
AcDbLine
10
53.541843
20
3.024657
30
0
11
52.48371
21
3.023995
31
0
39
0
210
0
220
0
230
1
0
LINE
5
7F
100
AcDbEntity
8
1
62
256
6
ByLayer
370
18
48
1
60
0
100
AcDbLine
10
52.48371
20
-3.023995
30
0
11
53.542101
21
-3.024657
31
0
39
0
210
0
220
0
230
1
0
LINE
5
80
100
AcDbEntity
8
SK1
62
256
6
ByLayer
370
18
48
1
60
0
100
AcDbLine
10
-35.133975
20
4
30
0
11
-36
21
2.5
31
0
39
0
210
0
220
0
230
1
0
LINE
5
82
100
AcDbEntity
8
SK1
62
256
6
ByLayer
370
18
48
1
60
0
100
AcDbLine
10
-36
20
-2.5
30
0
11
-35.133975
21
-4
31
0
39
0
210
0
220
0
230
1
0
LINE
5
83
100
AcDbEntity
8
SK1
62
256
6
ByLayer
370
18
48
1
60
0
100
AcDbLine
10
0
20
4
30
0
11
-35.133975
21
4
31
0
39
0
210
0
220
0
230
1
0
LINE
5
84
100
AcDbEntity
8
SK1
62
256
6
ByLayer
370
18
48
1
60
0
100
AcDbLine
10
-35.133975
20
-4
30
0
11
0
21
-4
31
0
39
0
210
0
220
0
230
1
0
LINE
5
85
100
AcDbEntity
8
SK4
62
256
6
ByLayer
370
18
48
0.05
60
0
100
AcDbLine
10
60
20
0
30
0
11
-41
21
0
31
0
39
0
210
0
220
0
230
1
0
LINE
5
87
100
AcDbEntity
8
4
62
256
6
ByLayer
370
18
48
0.05
60
0
100
AcDbLine
10
55
20
0
30
0
11
0
21
0
31
0
39
0
210
0
220
0
230
1
0
LINE
5
89
100
AcDbEntity
8
80
62
256
6
ByLayer
370
18
48
1
60
0
100
AcDbLine
10
0
20
0
30
0
11
-5
21
0
31
0
39
0
210
0
220
0
230
1
0
LINE
5
8A
100
AcDbEntity
8
1
62
256
6
ByLayer
370
13
48
1
60
0
100
AcDbLine
10
53.831137
20
0.663195
30
0
11
54.964406
21
-0.054191
31
0
39
0
210
0
220
0
230
1
0
LINE
5
8B
100
AcDbEntity
8
1
62
256
6
ByLayer
370
18
48
1
60
0
100
AcDbLine
10
10.075503
20
-0.314526
30
0
11
10.075503
21
-0.317796
31
0
39
0
210
0
220
0
230
1
0
LINE
5
8C
100
AcDbEntity
8
1
62
256
6
ByLayer
370
13
48
1
60
0
100
AcDbLine
10
0.350219
20
2.991412
30
0
11
0.350219
21
-2.991412
31
0
39
0
210
0
220
0
230
1
0
LINE
5
8D
100
AcDbEntity
8
1
62
256
6
ByLayer
370
13
48
1
60
0
100
AcDbLine
10
53.965084
20
0.760217
30
0
11
54.990849
21
0.110883
31
0
39
0
210
0
220
0
230
1
0
LINE
5
8E
100
AcDbEntity
8
SK1
62
256
6
ByLayer
370
18
48
1
60
0
100
AcDbLine
10
-35.15
20
-2.532783
30
0
11
-35.15
21
-0.922171
31
0
39
0
210
0
220
0
230
1
0
LINE
5
8F
100
AcDbEntity
8
SK1
62
256
6
ByLayer
370
18
48
1
60
0
100
AcDbLine
10
-36
20
-2.5
30
0
11
-36
21
-1.917841
31
0
39
0
210
0
220
0
230
1
0
LINE
5
90
100
AcDbEntity
8
SK1
62
256
6
ByLayer
370
18
48
1
60
0
100
AcDbLine
10
0
20
4
30
0
11
0
21
-4
31
0
39
0
210
0
220
0
230
1
0
LINE
5
91
100
AcDbEntity
8
SK1
62
256
6
ByLayer
370
18
48
1
60
0
100
AcDbLine
10
-36
20
-0.128291
30
0
11
-36
21
-1.917841
31
0
39
0
210
0
220
0
230
1
0
LINE
5
92
100
AcDbEntity
8
SK1
62
256
6
ByLayer
370
18
48
1
60
0
100
AcDbLine
10
-35.133975
20
4
30
0
11
-35.133975
21
-4
31
0
39
0
210
0
220
0
230
1
0
LINE
5
93
100
AcDbEntity
8
SK1
62
256
6
ByLayer
370
13
48
1
60
0
100
AcDbLine
10
-35.25
20
-0.741674
30
0
11
-35.25
21
-2.53123
31
0
39
0
210
0
220
0
230
1
0
LINE
5
94
100
AcDbEntity
8
SK1
62
256
6
ByLayer
370
18
48
1
60
0
100
AcDbLine
10
-36
20
2.5
30
0
11
-36
21
-0.128272
31
0
39
0
210
0
220
0
230
1
0
MTEXT
5
DF
100
AcDbEntity
8
SK6
62
256
6
ByLayer
370
13
48
1
60
0
100
AcDbMText
10
11.629169
20
35.407694
30
0
210
0
220
0
230
1
1
\W0.7538;460.1-0605-030A1-XM GC34
40
3.5
41
0
44
1.084337
50
0
71
8
72
5
7
iso_b_vert
0
DIMENSION
5
EC
100
AcDbEntity
8
SK2
62
256
6
ByLayer
370
13
48
1
60
0
100
AcDbDimension
2
DimnDraft3D1
10
54.1113
20
-13.238398
30
0
11
25.861359
21
-13.238398
31
0
70
32
71
5
72
1
41
1
210
0
220
0
230
1
3
Standard
100
AcDbAlignedDimension
13
0
23
-1.5875
33
0
14
54.1113
24
-4.6125
34
0
50
0
100
AcDbRotatedDimension
1001
ACAD
1000
DSTYLE
1002
{
1070
   279
1070
     0
1070
   172
1070
     1
1070
   173
1070
     1
1070
   340
1005
E0
1070
   271
1070
     2
1070
   272
1070
     2
1070
    77
1070
     1
1070
    73
1070
     0
1070
   171
1070
     3
1070
   274
1070
     4
1070
   177
1070
    35
1070
   176
1070
    35
1070
   178
1070
    35
1070
    48
1040
-0.005
1070
    41
1041
3.5
1070
   147
1041
1.75
1070
    42
1041
1.5875
1070
    44
1041
2.0
1070
   140
1041
3.5
1070
   343
1005
0
1070
   344
1005
0
1002
}
0
DIMENSION
5
F6
100
AcDbEntity
8
SK2
62
256
6
ByLayer
370
13
48
1
60
0
100
AcDbDimension
2
DimnDraft3D2
10
55
20
-32.692985
30
0
11
9.9526
21
-32.692985
31
0
70
32
71
5
72
1
41
1
210
0
220
0
230
1
3
Standard
100
AcDbAlignedDimension
13
-36
23
-5.5875
33
0
14
55
24
-1.5875
34
0
50
0
100
AcDbRotatedDimension
1001
ACAD
1000
DSTYLE
1002
{
1070
   279
1070
     0
1070
   172
1070
     1
1070
   173
1070
     1
1070
   340
1005
E0
1070
   271
1070
     2
1070
   272
1070
     2
1070
    77
1070
     1
1070
    73
1070
     0
1070
   171
1070
     3
1070
   274
1070
     4
1070
   177
1070
    35
1070
   176
1070
    35
1070
   178
1070
    35
1070
    48
1040
-0.005
1070
    41
1041
3.5
1070
   147
1041
1.75
1070
    42
1041
1.5875
1070
    44
1041
2.0
1070
   140
1041
3.5
1070
   343
1005
0
1070
   344
1005
0
1002
}
0
DIMENSION
5
100
100
AcDbEntity
8
SK2
62
256
6
ByLayer
370
13
48
1
60
0
100
AcDbDimension
2
DimnDraft3D3
10
55
20
14.634119
30
0
11
39.435
21
14.634119
31
0
70
32
71
5
72
1
41
1
210
0
220
0
230
1
3
Standard
100
AcDbAlignedDimension
13
23.87
23
4.6125
33
0
14
55
24
1.5875
34
0
50
0
100
AcDbRotatedDimension
1001
ACAD
1000
DSTYLE
1002
{
1070
   279
1070
     0
1070
   172
1070
     1
1070
   173
1070
     1
1070
   340
1005
E0
1070
   271
1070
     2
1070
   272
1070
     2
1070
    77
1070
     1
1070
    73
1070
     0
1070
   171
1070
     3
1070
   274
1070
     4
1070
   177
1070
    35
1070
   176
1070
    35
1070
   178
1070
    35
1070
    48
1040
-0.005
1070
    41
1041
3.5
1070
   147
1041
1.75
1070
    42
1041
1.5875
1070
    44
1041
2.0
1070
   140
1041
3.5
1070
   343
1005
0
1070
   344
1005
0
1002
}
0
DIMENSION
5
10A
100
AcDbEntity
8
SK2
62
256
6
ByLayer
370
13
48
1
60
0
100
AcDbDimension
2
DimnDraft3D4
10
54.1113
20
-15.827503
30
0
11
64.981425
21
-15.827503
31
0
70
32
71
5
72
1
41
1
210
0
220
0
230
1
3
Standard
100
AcDbAlignedDimension
13
55
23
-1.5875
33
0
14
54.1113
24
-4.6125
34
0
50
0
100
AcDbRotatedDimension
1001
ACAD
1000
DSTYLE
1002
{
1070
   279
1070
     0
1070
   172
1070
     1
1070
   173
1070
     1
1070
   340
1005
E0
1070
   271
1070
     2
1070
   272
1070
     2
1070
    77
1070
     1
1070
    73
1070
     0
1070
   171
1070
     3
1070
   274
1070
     4
1070
   177
1070
    35
1070
   176
1070
    35
1070
   178
1070
    35
1070
    48
1040
-0.005
1070
    41
1041
3.5
1070
   147
1041
1.75
1070
    42
1041
1.5875
1070
    44
1041
2.0
1070
   140
1041
3.5
1070
   343
1005
0
1070
   344
1005
0
1002
}
0
DIMENSION
5
114
100
AcDbEntity
8
SK2
62
256
6
ByLayer
370
13
48
1
60
0
100
AcDbDimension
2
DimnDraft3D5
10
54.1113
20
-22.343428
30
0
11
6.871976
21
-22.343428
31
0
70
32
71
5
72
1
41
1
210
0
220
0
230
1
3
Standard
100
AcDbAlignedDimension
13
-36
23
-5.5875
33
0
14
54.1113
24
-4.6125
34
0
50
0
100
AcDbRotatedDimension
1001
ACAD
1000
DSTYLE
1002
{
1070
   279
1070
     0
1070
   172
1070
     1
1070
   173
1070
     1
1070
   340
1005
E0
1070
   271
1070
     2
1070
   272
1070
     2
1070
    77
1070
     1
1070
    73
1070
     0
1070
   171
1070
     3
1070
   274
1070
     4
1070
   177
1070
    35
1070
   176
1070
    35
1070
   178
1070
    35
1070
    48
1040
-0.005
1070
    41
1041
3.5
1070
   147
1041
1.75
1070
    42
1041
1.5875
1070
    44
1041
2.0
1070
   140
1041
3.5
1070
   343
1005
0
1070
   344
1005
0
1002
}
0
DIMENSION
5
11F
100
AcDbEntity
8
SK2
62
256
6
ByLayer
370
13
48
1
60
0
100
AcDbDimension
2
DimnDraft3D6
10
-46.625163
20
4
30
0
11
-47.250163
21
22.47418
31
0
70
33
71
5
72
1
41
1
210
0
220
0
230
1
3
Standard
100
AcDbAlignedDimension
13
-37.5875
23
-4
33
0
14
-37.5875
24
4
34
0
1001
ACAD
1000
DSTYLE
1002
{
1070
   279
1070
     0
1070
    74
1070
     0
1070
   173
1070
     1
1070
   340
1005
E0
1070
   271
1070
     3
1070
   272
1070
     2
1070
    77
1070
     1
1070
    73
1070
     0
1070
   171
1070
     3
1070
   274
1070
     4
1070
   177
1070
    35
1070
   176
1070
    35
1070
   178
1070
    35
1070
    48
1040
-0.005
1070
    41
1041
3.5
1070
   147
1041
1.75
1070
    42
1041
1.5875
1070
    44
1041
2.0
1070
   140
1041
3.5
1070
   343
1005
0
1070
   344
1005
0
1002
}
0
DIMENSION
5
12A
100
AcDbEntity
8
2
62
256
6
ByLayer
370
13
48
1
60
0
100
AcDbDimension
2
DimnDraft3D7
10
69.083343
20
3.025
30
0
11
64.458343
21
20.092266
31
0
70
33
71
5
72
1
41
1
210
0
220
0
230
1
3
Standard
100
AcDbAlignedDimension
13
55.6988
23
-3.025
33
0
14
55.6988
24
3.025
34
0
1001
ACAD
1000
DSTYLE
1002
{
1070
   279
1070
     0
1070
    74
1070
     0
1070
   173
1070
     1
1070
   340
1005
E0
1070
   271
1070
     3
1070
   272
1070
     2
1070
    77
1070
     1
1070
    73
1070
     0
1070
   171
1070
     3
1070
   274
1070
     4
1070
   177
1070
    35
1070
   176
1070
    35
1070
   178
1070
    35
1070
    48
1040
-0.005
1070
    41
1041
3.5
1070
   147
1041
1.75
1070
    42
1041
1.5875
1070
    44
1041
2.0
1070
   140
1041
3.5
1070
   343
1005
0
1070
   344
1005
0
1002
}
0
ENDSEC
0
SECTION
2
OBJECTS
0
DICTIONARY
5
195
330
0
100
AcDbDictionary
280
0
281
1
3
ACAD_GROUP
350
196
3
ACAD_MLINESTYLE
350
197
0
DICTIONARY
5
196
330
0
100
AcDbDictionary
280
0
281
1
0
DICTIONARY
5
197
330
0
100
AcDbDictionary
280
0
281
1
3
Standard
350
18
0
MLINESTYLE
5
18
330
197
100
AcDbMlineStyle
2
Standard
70
0
3

62
256
51
90
52
90
71
2
49
-0.5
62
256
6
ByLayer
49
0.5
62
256
6
ByLayer
0
RASTERVARIABLES
5
183
330

100
AcDbRasterVariables
90
0
70
1
71
1
72
1
0
ENDSEC
0
EOF
