0
SECTION
2
HEADER
9
$ACADVER
1
AC1015
9
$DWGCODEPAGE
3
ANSI_1252
9
$HANDSEED
5
1ab
9
$ANGBASE
50
0
9
$ANGDIR
70
0
9
$ATTMODE
70
1
9
$AUNITS
70
0
9
$AUPREC
70
0
9
$CECOLOR
62
256
9
$CELTSCALE
40
1
9
$CELTYPE
6
ByLayer
9
$CELWEIGHT
370
18
9
$CLAYER
8
0
9
$CMLJUST
70
0
9
$CMLSCALE
40
1
9
$CMLSTYLE
2
Standard
9
$DIMSTYLE
2
Standard
9
$TEXTSIZE
40
0.2
9
$TEXTSTYLE
7
Standard
9
$LUNITS
70
2
9
$LUPREC
70
4
9
$EXTNAMES
290
1
9
$INSUNITS
70
4
9
$LTSCALE
40
1
9
$LWDISPLAY
290
1
9
$PDMODE
70
0
9
$PDSIZE
40
0
9
$PLINEGEN
70
0
0
ENDSEC
0
SECTION
2
CLASSES
0
CLASS
1
RASTERVARIABLES
2
AcDbRasterVariables
3
ISM
90
0
280
0
281
0
0
ENDSEC
0
SECTION
2
TABLES
0
TABLE
2
VPORT
5
1a1
100
AcDbSymbolTable
0
VPORT
5
1
100
AcDbSymbolTableRecord
100
AcDbViewportTableRecord
2
*Active
70
0
10
0
20
0
11
1
21
1
12
-1
22
1
13
0
23
0
14
0.5
24
0.5
15
10
25
10
16
0
26
0
36
1
17
0
27
0
37
0
0
ENDTAB
0
TABLE
2
LTYPE
5
1a2
100
AcDbSymbolTable
0
LTYPE
5
14
100
AcDbSymbolTableRecord
100
AcDbLinetypeTableRecord
70
0
2
ByBlock
3

72
65
73
0
40
0
0
LTYPE
5
15
100
AcDbSymbolTableRecord
100
AcDbLinetypeTableRecord
70
0
2
ByLayer
3

72
65
73
0
40
0
0
LTYPE
5
16
100
AcDbSymbolTableRecord
100
AcDbLinetypeTableRecord
70
0
2
CONTINUOUS
3
Solid line
72
65
73
0
40
0
0
LTYPE
5
6A
100
AcDbSymbolTableRecord
100
AcDbLinetypeTableRecord
70
0
2
CENTER
3
____ _ ____ _ ____ _ ____
72
65
73
4
40
47.5
49
22
74
0
49
-8.5
74
0
49
8.5
74
0
49
-8.5
74
0
0
LTYPE
5
6B
100
AcDbSymbolTableRecord
100
AcDbLinetypeTableRecord
70
0
2
DASHED
3
__ __ __ __ __ __ __ __ __
72
65
73
2
40
25.72
49
12.86
74
0
49
-12.86
74
0
0
ENDTAB
0
TABLE
2
LAYER
5
1a3
100
AcDbSymbolTable
0
LAYER
5
10
100
AcDbSymbolTableRecord
100
AcDbLayerTableRecord
2
0
70
0
62
7
6
CONTINUOUS
290
1
370
-3
390
0
0
LAYER
5
6D
100
AcDbSymbolTableRecord
100
AcDbLayerTableRecord
2
81
70
0
62
-3
6
CONTINUOUS
290
1
370
-3
390
0
0
LAYER
5
6F
100
AcDbSymbolTableRecord
100
AcDbLayerTableRecord
2
80
70
0
62
-6
6
CONTINUOUS
290
1
370
-3
390
0
0
LAYER
5
74
100
AcDbSymbolTableRecord
100
AcDbLayerTableRecord
2
2
70
0
62
7
6
CONTINUOUS
290
1
370
-3
390
0
0
LAYER
5
78
100
AcDbSymbolTableRecord
100
AcDbLayerTableRecord
2
1
70
0
62
4
6
CONTINUOUS
290
1
370
-3
390
0
0
LAYER
5
8A
100
AcDbSymbolTableRecord
100
AcDbLayerTableRecord
2
4
70
0
62
-2
6
CENTER
290
1
370
-3
390
0
0
LAYER
5
18d
100
AcDbSymbolTableRecord
100
AcDbLayerTableRecord
2
SK2
70
0
62
7
6
CONTINUOUS
290
1
370
-3
390
0
0
LAYER
5
18e
100
AcDbSymbolTableRecord
100
AcDbLayerTableRecord
2
SK1
70
0
62
4
6
CONTINUOUS
290
1
370
-3
390
0
0
LAYER
5
18f
100
AcDbSymbolTableRecord
100
AcDbLayerTableRecord
2
SK4
70
0
62
2
6
CENTER
290
1
370
-3
390
0
0
LAYER
5
190
100
AcDbSymbolTableRecord
100
AcDbLayerTableRecord
2
SK6
70
0
62
5
6
CONTINUOUS
290
1
370
-3
390
0
0
ENDTAB
0
TABLE
2
STYLE
5
1a4
100
AcDbSymbolTable
0
STYLE
5
11
100
AcDbSymbolTableRecord
100
AcDbTextStyleTableRecord
2
Standard
3
txt
70
0
71
0
40
0
41
1
42
0
50
0
0
STYLE
5
E9
100
AcDbSymbolTableRecord
100
AcDbTextStyleTableRecord
2
iso_b_vert
3
simplex.shx
70
0
71
0
40
0
41
1
42
0
50
0
0
STYLE
5
EA
100
AcDbSymbolTableRecord
100
AcDbTextStyleTableRecord
2
DWGDirectTextStyle
3
simplex
70
0
71
0
40
0
41
1
42
0
50
0
0
ENDTAB
0
TABLE
2
DIMSTYLE
5
1a5
100
AcDbSymbolTable
100
AcDbDimStyleTable
0
DIMSTYLE
105
27
100
AcDbSymbolTableRecord
100
AcDbDimStyleTableRecord
2
Standard
70
0
3
<>
41
0.18
42
0.0625
44
0.18
140
0.18
147
0.09
73
0
74
0
77
1
271
2
275
0
278
52
280
0
340
11
0
ENDTAB
0
TABLE
2
VIEW
5
1a6
100
AcDbSymbolTable
0
ENDTAB
0
TABLE
2
UCS
5
1a7
100
AcDbSymbolTable
0
ENDTAB
0
TABLE
2
APPID
5
1a8
100
AcDbSymbolTable
0
APPID
5
12
100
AcDbSymbolTableRecord
100
AcDbRegAppTableRecord
2
ACAD
70
0
0
ENDTAB
0
TABLE
2
BLOCK_RECORD
5
1a9
100
AcDbSymbolTable
0
BLOCK_RECORD
5
1F
100
AcDbSymbolTableRecord
100
AcDbBlockTableRecord
2
*Model_Space
340
0
70
0
0
BLOCK_RECORD
5
1B
100
AcDbSymbolTableRecord
100
AcDbBlockTableRecord
2
*Paper_Space
340
0
70
0
0
BLOCK_RECORD
5
23
100
AcDbSymbolTableRecord
100
AcDbBlockTableRecord
2
*Paper_Space0
340
0
70
0
0
BLOCK_RECORD
5
EC
100
AcDbSymbolTableRecord
100
AcDbBlockTableRecord
2
DimnDraft3D1
340
0
70
0
0
BLOCK_RECORD
5
F6
100
AcDbSymbolTableRecord
100
AcDbBlockTableRecord
2
DimnDraft3D2
340
0
70
0
0
BLOCK_RECORD
5
100
100
AcDbSymbolTableRecord
100
AcDbBlockTableRecord
2
DimnDraft3D3
340
0
70
0
0
BLOCK_RECORD
5
10A
100
AcDbSymbolTableRecord
100
AcDbBlockTableRecord
2
DimnDraft3D4
340
0
70
0
0
BLOCK_RECORD
5
114
100
AcDbSymbolTableRecord
100
AcDbBlockTableRecord
2
DimnDraft3D5
340
0
70
0
0
BLOCK_RECORD
5
11E
100
AcDbSymbolTableRecord
100
AcDbBlockTableRecord
2
DimnDraft3D6
340
0
70
0
0
BLOCK_RECORD
5
129
100
AcDbSymbolTableRecord
100
AcDbBlockTableRecord
2
DimnDraft3D7
340
0
70
0
0
ENDTAB
0
ENDSEC
0
SECTION
2
BLOCKS
0
BLOCK
5
20
100
AcDbEntity
8
0
100
AcDbBlockBegin
2
*Model_Space
70
0
10
0
20
0
30
0
3
*Model_Space
0
ENDBLK
5
21
100
AcDbEntity
8
0
100
AcDbBlockEnd
0
BLOCK
5
1C
100
AcDbEntity
8
0
100
AcDbBlockBegin
2
*Paper_Space
70
0
10
0
20
0
30
0
3
*Paper_Space
0
ENDBLK
5
1D
100
AcDbEntity
8
0
100
AcDbBlockEnd
0
BLOCK
5
24
100
AcDbEntity
8
0
100
AcDbBlockBegin
2
*Paper_Space0
70
0
10
0
20
0
30
0
3
*Paper_Space0
0
ENDBLK
5
25
100
AcDbEntity
8
0
100
AcDbBlockEnd
0
BLOCK
5
F3
100
AcDbEntity
8
0
100
AcDbBlockBegin
2
DimnDraft3D1
70
0
10
0
20
0
30
0
3
DimnDraft3D1
0
MTEXT
5
ED
100
AcDbEntity
8
SK2
62
256
6
ByLayer
370
13
48
1
60
0
100
AcDbMText
10
17.173464
20
-12.338398
30
0
210
0
220
0
230
1
1
\W0.6977;45,12
40
3.5
41
0
44
1.084337
50
0
71
7
72
5
7
iso_b_vert
0
LINE
5
EE
100
AcDbEntity
8
SK2
62
256
6
ByLayer
370
13
48
1
60
0
100
AcDbLine
10
0
20
-1.5875
30
0
11
0
21
-15.213398
31
0
39
0
210
0
220
0
230
1
0
LINE
5
EF
100
AcDbEntity
8
SK2
62
256
6
ByLayer
370
13
48
1
60
0
100
AcDbLine
10
45.1188
20
-4.5875
30
0
11
45.1188
21
-15.213398
31
0
39
0
210
0
220
0
230
1
0
LINE
5
F0
100
AcDbEntity
8
SK2
62
256
6
ByLayer
370
13
48
1
60
0
100
AcDbLine
10
0
20
-13.213398
30
0
11
45.1188
21
-13.213398
31
0
39
0
210
0
220
0
230
1
0
SOLID
5
F1
100
AcDbEntity
8
SK2
62
256
6
ByLayer
370
13
48
1
60
0
100
AcDbTrace
10
0
20
-13.213398
30
0
11
3.499998
21
-12.752615
31
0
12
3.500002
22
-13.674182
32
0
13
0
23
-13.213398
33
0
39
0
210
0
220
0
230
1
0
SOLID
5
F2
100
AcDbEntity
8
SK2
62
256
6
ByLayer
370
13
48
1
60
0
100
AcDbTrace
10
45.1188
20
-13.213398
30
0
11
41.618802
21
-13.674182
31
0
12
41.618798
22
-12.752615
32
0
13
45.1188
23
-13.213398
33
0
39
0
210
0
220
0
230
1
0
ENDBLK
5
F4
100
AcDbEntity
8
0
100
AcDbBlockEnd
0
BLOCK
5
FD
100
AcDbEntity
8
0
100
AcDbBlockBegin
2
DimnDraft3D2
70
0
10
0
20
0
30
0
3
DimnDraft3D2
0
MTEXT
5
F7
100
AcDbEntity
8
SK2
62
256
6
ByLayer
370
13
48
1
60
0
100
AcDbMText
10
1.011416
20
-30.817985
30
0
210
0
220
0
230
1
1
\W0.7317;82,00
40
3.5
41
0
44
1.084337
50
0
71
7
72
5
7
iso_b_vert
0
LINE
5
F8
100
AcDbEntity
8
SK2
62
256
6
ByLayer
370
13
48
1
60
0
100
AcDbLine
10
-36
20
-4.5875
30
0
11
-36
21
-33.692985
31
0
39
0
210
0
220
0
230
1
0
LINE
5
F9
100
AcDbEntity
8
SK2
62
256
6
ByLayer
370
13
48
1
60
0
100
AcDbLine
10
46
20
-1.5875
30
0
11
46
21
-33.692985
31
0
39
0
210
0
220
0
230
1
0
LINE
5
FA
100
AcDbEntity
8
SK2
62
256
6
ByLayer
370
13
48
1
60
0
100
AcDbLine
10
-36
20
-31.692985
30
0
11
46
21
-31.692985
31
0
39
0
210
0
220
0
230
1
0
SOLID
5
FB
100
AcDbEntity
8
SK2
62
256
6
ByLayer
370
13
48
1
60
0
100
AcDbTrace
10
-36
20
-31.692985
30
0
11
-32.500002
21
-31.232202
31
0
12
-32.499998
22
-32.153769
32
0
13
-36
23
-31.692985
33
0
39
0
210
0
220
0
230
1
0
SOLID
5
FC
100
AcDbEntity
8
SK2
62
256
6
ByLayer
370
13
48
1
60
0
100
AcDbTrace
10
46
20
-31.692985
30
0
11
42.500002
21
-32.153769
31
0
12
42.499998
22
-31.232202
32
0
13
46
23
-31.692985
33
0
39
0
210
0
220
0
230
1
0
ENDBLK
5
FE
100
AcDbEntity
8
0
100
AcDbBlockEnd
0
BLOCK
5
107
100
AcDbEntity
8
0
100
AcDbBlockBegin
2
DimnDraft3D3
70
0
10
0
20
0
30
0
3
DimnDraft3D3
0
MTEXT
5
101
100
AcDbEntity
8
SK2
62
256
6
ByLayer
370
13
48
1
60
0
100
AcDbMText
10
26.111316
20
15.484119
30
0
210
0
220
0
230
1
1
\W0.7317;30,88
40
3.5
41
0
44
1.084337
50
0
71
7
72
5
7
iso_b_vert
0
LINE
5
102
100
AcDbEntity
8
SK2
62
256
6
ByLayer
370
13
48
1
60
0
100
AcDbLine
10
15.12
20
4.5875
30
0
11
15.12
21
16.609119
31
0
39
0
210
0
220
0
230
1
0
LINE
5
103
100
AcDbEntity
8
SK2
62
256
6
ByLayer
370
13
48
1
60
0
100
AcDbLine
10
46
20
1.5875
30
0
11
46
21
16.609119
31
0
39
0
210
0
220
0
230
1
0
LINE
5
104
100
AcDbEntity
8
SK2
62
256
6
ByLayer
370
13
48
1
60
0
100
AcDbLine
10
15.12
20
14.609119
30
0
11
46
21
14.609119
31
0
39
0
210
0
220
0
230
1
0
SOLID
5
105
100
AcDbEntity
8
SK2
62
256
6
ByLayer
370
13
48
1
60
0
100
AcDbTrace
10
15.12
20
14.609119
30
0
11
18.619998
21
15.069903
31
0
12
18.620002
22
14.148335
32
0
13
15.12
23
14.609119
33
0
39
0
210
0
220
0
230
1
0
SOLID
5
106
100
AcDbEntity
8
SK2
62
256
6
ByLayer
370
13
48
1
60
0
100
AcDbTrace
10
46
20
14.609119
30
0
11
42.500002
21
14.148335
31
0
12
42.499998
22
15.069903
32
0
13
46
23
14.609119
33
0
39
0
210
0
220
0
230
1
0
ENDBLK
5
108
100
AcDbEntity
8
0
100
AcDbBlockEnd
0
BLOCK
5
111
100
AcDbEntity
8
0
100
AcDbBlockBegin
2
DimnDraft3D4
70
0
10
0
20
0
30
0
3
DimnDraft3D4
0
MTEXT
5
10B
100
AcDbEntity
8
SK2
62
256
6
ByLayer
370
13
48
1
60
0
100
AcDbMText
10
52.840636
20
-14.927503
30
0
210
0
220
0
230
1
1
\W0.7150;0,88
40
3.5
41
0
44
1.084337
50
0
71
7
72
5
7
iso_b_vert
0
LINE
5
10C
100
AcDbEntity
8
SK2
62
256
6
ByLayer
370
13
48
1
60
0
100
AcDbLine
10
46
20
-1.5875
30
0
11
46
21
-17.802503
31
0
39
0
210
0
220
0
230
1
0
LINE
5
10D
100
AcDbEntity
8
SK2
62
256
6
ByLayer
370
13
48
1
60
0
100
AcDbLine
10
45.1188
20
-4.5875
30
0
11
45.1188
21
-17.802503
31
0
39
0
210
0
220
0
230
1
0
LINE
5
10E
100
AcDbEntity
8
SK2
62
256
6
ByLayer
370
13
48
1
60
0
100
AcDbLine
10
36.3688
20
-15.802503
30
0
11
59.997215
21
-15.802503
31
0
39
0
210
0
220
0
230
1
0
SOLID
5
10F
100
AcDbEntity
8
SK2
62
256
6
ByLayer
370
13
48
1
60
0
100
AcDbTrace
10
46
20
-15.802503
30
0
11
49.499998
21
-15.341719
31
0
12
49.500002
22
-16.263287
32
0
13
46
23
-15.802503
33
0
39
0
210
0
220
0
230
1
0
SOLID
5
110
100
AcDbEntity
8
SK2
62
256
6
ByLayer
370
13
48
1
60
0
100
AcDbTrace
10
45.1188
20
-15.802503
30
0
11
41.618802
21
-16.263287
31
0
12
41.618798
22
-15.341719
32
0
13
45.1188
23
-15.802503
33
0
39
0
210
0
220
0
230
1
0
ENDBLK
5
112
100
AcDbEntity
8
0
100
AcDbBlockEnd
0
BLOCK
5
11B
100
AcDbEntity
8
0
100
AcDbBlockBegin
2
DimnDraft3D5
70
0
10
0
20
0
30
0
3
DimnDraft3D5
0
MTEXT
5
115
100
AcDbEntity
8
SK2
62
256
6
ByLayer
370
13
48
1
60
0
100
AcDbMText
10
-1.194208
20
-20.468428
30
0
210
0
220
0
230
1
1
\W0.6110;81,12
40
3.5
41
0
44
1.084337
50
0
71
7
72
5
7
iso_b_vert
0
LINE
5
116
100
AcDbEntity
8
SK2
62
256
6
ByLayer
370
13
48
1
60
0
100
AcDbLine
10
-36
20
-4.5875
30
0
11
-36
21
-23.343428
31
0
39
0
210
0
220
0
230
1
0
LINE
5
117
100
AcDbEntity
8
SK2
62
256
6
ByLayer
370
13
48
1
60
0
100
AcDbLine
10
45.1188
20
-4.5875
30
0
11
45.1188
21
-23.343428
31
0
39
0
210
0
220
0
230
1
0
LINE
5
118
100
AcDbEntity
8
SK2
62
256
6
ByLayer
370
13
48
1
60
0
100
AcDbLine
10
-36
20
-21.343428
30
0
11
45.1188
21
-21.343428
31
0
39
0
210
0
220
0
230
1
0
SOLID
5
119
100
AcDbEntity
8
SK2
62
256
6
ByLayer
370
13
48
1
60
0
100
AcDbTrace
10
-36
20
-21.343428
30
0
11
-32.500002
21
-20.882645
31
0
12
-32.499998
22
-21.804212
32
0
13
-36
23
-21.343428
33
0
39
0
210
0
220
0
230
1
0
SOLID
5
11A
100
AcDbEntity
8
SK2
62
256
6
ByLayer
370
13
48
1
60
0
100
AcDbTrace
10
45.1188
20
-21.343428
30
0
11
41.618802
21
-21.804212
31
0
12
41.618798
22
-20.882645
32
0
13
45.1188
23
-21.343428
33
0
39
0
210
0
220
0
230
1
0
ENDBLK
5
11C
100
AcDbEntity
8
0
100
AcDbBlockEnd
0
BLOCK
5
126
100
AcDbEntity
8
0
100
AcDbBlockBegin
2
DimnDraft3D6
70
0
10
0
20
0
30
0
3
DimnDraft3D6
0
MTEXT
5
11F
100
AcDbEntity
8
SK2
62
256
6
ByLayer
370
13
48
1
60
0
100
AcDbMText
10
-46.375163
20
22.34918
30
0
210
0
220
0
230
1
1
\W0.7317;6,000
40
3.5
41
0
44
1.084337
50
90
71
7
72
5
7
iso_b_vert
0
MTEXT
5
120
100
AcDbEntity
8
SK2
62
256
6
ByLayer
370
13
48
1
60
0
100
AcDbMText
10
-46.375163
20
17.126524
30
0
210
0
220
0
230
1
1
%%c
40
3.5
41
0
44
1.084337
50
90
71
7
72
5
7
iso_b_vert
0
LINE
5
121
100
AcDbEntity
8
SK2
62
256
6
ByLayer
370
13
48
1
60
0
100
AcDbLine
10
-37.5875
20
-3
30
0
11
-46.625163
21
-3
31
0
39
0
210
0
220
0
230
1
0
LINE
5
122
100
AcDbEntity
8
SK2
62
256
6
ByLayer
370
13
48
1
60
0
100
AcDbLine
10
-37.5875
20
3
30
0
11
-46.625163
21
3
31
0
39
0
210
0
220
0
230
1
0
LINE
5
123
100
AcDbEntity
8
SK2
62
256
6
ByLayer
370
13
48
1
60
0
100
AcDbLine
10
-44.625163
20
32.121549
30
0
11
-44.625163
21
-11.75
31
0
39
0
210
0
220
0
230
1
0
SOLID
5
124
100
AcDbEntity
8
SK2
62
256
6
ByLayer
370
13
48
1
60
0
100
AcDbTrace
10
-44.625163
20
-3
30
0
11
-44.164379
21
-6.499998
31
0
12
-45.085946
22
-6.500002
32
0
13
-44.625163
23
-3
33
0
39
0
210
0
220
0
230
1
0
SOLID
5
125
100
AcDbEntity
8
SK2
62
256
6
ByLayer
370
13
48
1
60
0
100
AcDbTrace
10
-44.625163
20
3
30
0
11
-45.085946
21
6.499998
31
0
12
-44.164379
22
6.500002
32
0
13
-44.625163
23
3
33
0
39
0
210
0
220
0
230
1
0
ENDBLK
5
127
100
AcDbEntity
8
0
100
AcDbBlockEnd
0
BLOCK
5
131
100
AcDbEntity
8
0
100
AcDbBlockBegin
2
DimnDraft3D7
70
0
10
0
20
0
30
0
3
DimnDraft3D7
0
MTEXT
5
12A
100
AcDbEntity
8
2
62
256
6
ByLayer
370
13
48
1
60
0
100
AcDbMText
10
56.333343
20
20.942266
30
0
210
0
220
0
230
1
1
\W0.7317;6,000
40
3.5
41
0
44
1.084337
50
90
71
7
72
5
7
iso_b_vert
0
MTEXT
5
12B
100
AcDbEntity
8
2
62
256
6
ByLayer
370
13
48
1
60
0
100
AcDbMText
10
56.333343
20
15.71961
30
0
210
0
220
0
230
1
1
%%c
40
3.5
41
0
44
1.084337
50
90
71
7
72
5
7
iso_b_vert
0
LINE
5
12C
100
AcDbEntity
8
2
62
256
6
ByLayer
370
13
48
1
60
0
100
AcDbLine
10
46.7063
20
-3
30
0
11
60.083343
21
-3
31
0
39
0
210
0
220
0
230
1
0
LINE
5
12D
100
AcDbEntity
8
2
62
256
6
ByLayer
370
13
48
1
60
0
100
AcDbLine
10
46.7063
20
3
30
0
11
60.083343
21
3
31
0
39
0
210
0
220
0
230
1
0
LINE
5
12E
100
AcDbEntity
8
2
62
256
6
ByLayer
370
13
48
1
60
0
100
AcDbLine
10
58.083343
20
30.714635
30
0
11
58.083343
21
-11.75
31
0
39
0
210
0
220
0
230
1
0
SOLID
5
12F
100
AcDbEntity
8
2
62
256
6
ByLayer
370
13
48
1
60
0
100
AcDbTrace
10
58.083343
20
-3
30
0
11
58.544126
21
-6.499998
31
0
12
57.622559
22
-6.500002
32
0
13
58.083343
23
-3
33
0
39
0
210
0
220
0
230
1
0
SOLID
5
130
100
AcDbEntity
8
2
62
256
6
ByLayer
370
13
48
1
60
0
100
AcDbTrace
10
58.083343
20
3
30
0
11
57.622559
21
6.499998
31
0
12
58.544126
22
6.500002
32
0
13
58.083343
23
3
33
0
39
0
210
0
220
0
230
1
0
ENDBLK
5
132
100
AcDbEntity
8
0
100
AcDbBlockEnd
0
ENDSEC
0
SECTION
2
ENTITIES
0
ELLIPSE
5
97
100
AcDbEntity
8
1
62
256
6
ByLayer
370
18
48
1
60
0
100
AcDbEllipse
10
3.386246
20
3.075251
30
0
11
-0.25
21
3.06151588455594E-17
31
0
210
0
220
0
230
1
40
1
41
0.433520059447393
42
1.57739386727993
0
ELLIPSE
5
98
100
AcDbEntity
8
1
62
256
6
ByLayer
370
18
48
1
60
0
100
AcDbEllipse
10
3.386246
20
-3.075251
30
0
11
-0.25
21
3.06151588455594E-17
31
0
210
0
220
0
230
1
40
1
41
-1.57514647351833
42
-0.433859583022163
0
ELLIPSE
5
99
100
AcDbEntity
8
1
62
256
6
ByLayer
370
13
48
1
60
0
100
AcDbEllipse
10
3.312396
20
0.295178
30
0
11
0.0516324179909711
21
0.085639321648444
31
0
210
0
220
0
230
1
40
0.398918
41
1.9056496632079
42
-3.07470647158447
0
ELLIPSE
5
9A
100
AcDbEntity
8
1
62
256
6
ByLayer
370
13
48
1
60
0
100
AcDbEllipse
10
3.386492
20
0.252348
30
0
11
0.048842713943751
21
0.0872604681090407
31
0
210
0
220
0
230
1
40
0.043485
41
3.09275824509566
42
-1.64498044593066
0
POINT
5
6C
100
AcDbEntity
8
81
62
256
6
ByLayer
370
18
48
1
60
0
100
AcDbPoint
10
46
20
0
30
0
39
0
210
0
220
0
230
1
50
360
0
POINT
5
6E
100
AcDbEntity
8
80
62
256
6
ByLayer
370
18
48
1
60
0
100
AcDbPoint
10
0
20
0
30
0
39
0
210
0
220
0
230
1
50
360
0
POINT
5
70
100
AcDbEntity
8
SK2
62
256
6
ByLayer
370
18
48
1
60
1
100
AcDbPoint
10
-36
20
-3
30
0
39
0
210
0
220
0
230
1
50
360
0
POINT
5
72
100
AcDbEntity
8
SK2
62
256
6
ByLayer
370
18
48
1
60
1
100
AcDbPoint
10
-36
20
3
30
0
39
0
210
0
220
0
230
1
50
360
0
POINT
5
73
100
AcDbEntity
8
2
62
256
6
ByLayer
370
18
48
1
60
1
100
AcDbPoint
10
45.1188
20
-3
30
0
39
0
210
0
220
0
230
1
50
360
0
POINT
5
75
100
AcDbEntity
8
2
62
256
6
ByLayer
370
18
48
1
60
1
100
AcDbPoint
10
45.1188
20
3
30
0
39
0
210
0
220
0
230
1
50
360
0
SPLINE
5
9B
100
AcDbEntity
8
1
62
256
6
ByLayer
370
18
48
1
60
0
100
AcDbSpline
70
4
71
2
72
6
73
3
40
0
40
0
40
0
40
1
40
1
40
1
41
1
10
4.08400618649631
20
2.82741024740085
30
0
41
1
10
3.73584104129424
20
2.82748266543075
30
0
41
1
10
3.38761675011546
20
2.82499124355738
30
0
0
SPLINE
5
9C
100
AcDbEntity
8
1
62
256
6
ByLayer
370
18
48
1
60
0
100
AcDbSpline
70
4
71
3
72
21
73
17
40
0
40
0
40
0
40
0
40
0.113671682569555
40
0.212188087399607
40
0.295223653338429
40
0.356577386843866
40
0.398255105498279
40
0.453256123468988
40
0.531010989032989
40
0.610637788425387
40
0.678555082731815
40
0.74103423702172
40
0.81274289311526
40
0.888979480473323
40
0.968617627538411
40
1
40
1
40
1
40
1
41
1
10
11.9644878632432
20
-2.82925543141926
30
0
41
1
10
12.2728452303931
20
-2.82893864771933
30
0
41
1
10
12.8491020318823
20
-2.82877239084186
30
0
41
1
10
13.6574094719421
20
-2.82858726631886
30
0
41
1
10
14.3163205499444
20
-2.83081605830449
30
0
41
1
10
14.8225544253281
20
-2.8324661149673
30
0
41
1
10
15.2541581390546
20
-2.83173953219423
30
0
41
1
10
15.7303886866456
20
-2.83209239915143
30
0
41
1
10
16.3102845377995
20
-2.83345159664268
30
0
41
1
10
16.9254742386653
20
-2.83234272981281
30
0
41
1
10
17.4989210953898
20
-2.83516196312539
30
0
41
1
10
18.0506021664009
20
-2.8324579639478
30
0
41
1
10
18.6252062746863
20
-2.83647873295971
30
0
41
1
10
19.2464786526441
20
-2.83383788508914
30
0
41
1
10
19.7567977952782
20
-2.83555800718762
30
0
41
1
10
20.0592747250501
20
-2.8355631611858
30
0
41
1
10
20.1447604860965
20
-2.83557227472261
30
0
0
SPLINE
5
9D
100
AcDbEntity
8
1
62
256
6
ByLayer
370
18
48
1
60
0
100
AcDbSpline
70
4
71
2
72
6
73
3
40
0
40
0
40
0
40
1
40
1
40
1
41
1
10
44.6397791327217
20
-2.8497825250642
30
0
41
1
10
44.8161413760029
20
-2.84892690296948
30
0
41
1
10
44.9921293462615
20
-2.84977932782968
30
0
0
SPLINE
5
9E
100
AcDbEntity
8
1
62
256
6
ByLayer
370
18
48
1
60
0
100
AcDbSpline
70
4
71
2
72
6
73
3
40
0
40
0
40
0
40
1
40
1
40
1
41
1
10
3.71772286167101
20
-0.0480330245564176
30
0
41
1
10
3.71771824593981
20
-0.0484990707111308
30
0
41
1
10
3.71771363023171
20
-0.0489650648107158
30
0
0
SPLINE
5
9F
100
AcDbEntity
8
1
62
256
6
ByLayer
370
18
48
1
60
0
100
AcDbSpline
70
4
71
3
72
24
73
20
40
0
40
0
40
0
40
0
40
0.0710657761907422
40
0.121359537885313
40
0.156904140498064
40
0.202164230922735
40
0.259769226023327
40
0.324495657770343
40
0.411425833232881
40
0.480563944222174
40
0.544144700124281
40
0.590073592316188
40
0.652474021233558
40
0.721822731726082
40
0.772731619644895
40
0.812800930452943
40
0.872311878376926
40
0.942369695262731
40
1
40
1
40
1
40
1
41
1
10
28.3168186446069
20
-2.83974492127683
30
0
41
1
10
28.5058561518784
20
-2.83993439978374
30
0
41
1
10
28.8286547459496
20
-2.84018757871345
30
0
41
1
10
29.2463392715845
20
-2.84032627039571
30
0
41
1
10
29.5947412117251
20
-2.84039766918028
30
0
41
1
10
29.9628257854182
20
-2.84100609242418
30
0
41
1
10
30.4087341231119
20
-2.84142726968656
30
0
41
1
10
30.9655923531446
20
-2.84069572818828
30
0
41
1
10
31.553102345126
20
-2.84256189921442
30
0
41
1
10
32.1375178826165
20
-2.84124059112986
30
0
41
1
10
32.6128895061343
20
-2.84299561980461
30
0
41
1
10
33.0703408633278
20
-2.84255787074227
30
0
41
1
10
33.5431402395185
20
-2.84225908478712
30
0
41
1
10
34.0291823162208
20
-2.84433947242638
30
0
41
1
10
34.4558318445021
20
-2.84341405132614
30
0
41
1
10
34.8561089082821
20
-2.84249579783736
30
0
41
1
10
35.3019415691059
20
-2.84421381184737
30
0
41
1
10
35.7820223347087
20
-2.83260250234622
30
0
41
1
10
36.1287840109381
20
-2.83576512308699
30
0
41
1
10
36.2812671031489
20
-2.83742043422563
30
0
0
SPLINE
5
A0
100
AcDbEntity
8
1
62
256
6
ByLayer
370
18
48
1
60
0
100
AcDbSpline
70
4
71
3
72
8
73
4
40
0
40
0
40
0
40
0
40
1
40
1
40
1
40
1
41
1
10
36.5371644218969
20
-2.84018275051443
30
0
41
1
10
36.5753742264785
20
-2.84058962558979
30
0
41
1
10
36.6132988110309
20
-2.84100905809066
30
0
41
1
10
36.6510800525181
20
-2.84147724964831
30
0
0
SPLINE
5
A1
100
AcDbEntity
8
1
62
256
6
ByLayer
370
18
48
1
60
0
100
AcDbSpline
70
4
71
3
72
20
73
16
40
0
40
0
40
0
40
0
40
0.0383051403733235
40
0.135605795848991
40
0.228750478322044
40
0.316363004457333
40
0.392699068140075
40
0.475679367125666
40
0.572966158190049
40
0.667965849475981
40
0.735165241947809
40
0.786086433527921
40
0.86104747551515
40
0.962499044786365
40
1
40
1
40
1
40
1
41
1
10
20.1445105859601
20
2.83557218401396
30
0
41
1
10
20.0591081036263
20
2.83556306404705
30
0
41
1
10
19.7567144886087
20
2.83555784139909
30
0
41
1
10
19.2464786462849
20
2.83383784543685
30
0
41
1
10
18.6252062762569
20
2.83647874274368
30
0
41
1
10
18.0506021660539
20
2.83245796176584
30
0
41
1
10
17.4989210954906
20
2.83516196372668
30
0
41
1
10
16.9254742386378
20
2.83234272961366
30
0
41
1
10
16.3102845378126
20
2.83345159669881
30
0
41
1
10
15.7303886866478
20
2.83209239914123
30
0
41
1
10
15.2541581390585
20
2.83173953219591
30
0
41
1
10
14.8225544253315
20
2.83246611496671
30
0
41
1
10
14.3163205499478
20
2.83081605830483
30
0
41
1
10
13.8413870490856
20
2.82920957752774
30
0
41
1
10
13.5310784773354
20
2.82886441870298
30
0
41
1
10
13.4472715781425
20
2.82880650154266
30
0
0
SPLINE
5
A2
100
AcDbEntity
8
1
62
256
6
ByLayer
370
18
48
1
60
0
100
AcDbSpline
70
4
71
2
72
6
73
3
40
0
40
0
40
0
40
1
40
1
40
1
41
1
10
3.38761675011551
20
-2.82499124355741
30
0
41
1
10
3.73324421854778
20
-2.82746899673037
30
0
41
1
10
4.07881298209361
20
-2.82740203022931
30
0
0
SPLINE
5
A3
100
AcDbEntity
8
1
62
256
6
ByLayer
370
18
48
1
60
0
100
AcDbSpline
70
4
71
3
72
21
73
17
40
0
40
0
40
0
40
0
40
0.0355326585246316
40
0.121628711455536
40
0.1914735902597
40
0.252657655830027
40
0.304321955611255
40
0.361271340716659
40
0.44374005347309
40
0.523064907674766
40
0.58045379998642
40
0.650295193629716
40
0.725384375200047
40
0.818535922007622
40
0.928516106846977
40
1
40
1
40
1
40
1
41
1
10
36.6512828243294
20
2.84147946920177
30
0
41
1
10
36.5737652159546
20
2.84051878859268
30
0
41
1
10
36.3063839679261
20
2.83796611984778
30
0
41
1
10
35.8514569072881
20
2.83161253842212
30
0
41
1
10
35.3669084156962
20
2.84311102425698
30
0
41
1
10
34.952066016922
20
2.84281776043687
30
0
41
1
10
34.5610915828614
20
2.84304040950383
30
0
41
1
10
34.1194855641881
20
2.84434151703943
30
0
41
1
10
33.6143953810128
20
2.84257265671462
30
0
41
1
10
33.1081503759746
20
2.8424388272978
30
0
41
1
10
32.6311022169506
20
2.84305009805578
30
0
41
1
10
32.1638372633276
20
2.84129735543047
30
0
41
1
10
31.6140327704353
20
2.84244007089484
30
0
41
1
10
30.9714932702201
20
2.84073909259328
30
0
41
1
10
30.3372454435146
20
2.84156615969735
30
0
41
1
10
29.9181527234249
20
2.84083375859635
30
0
41
1
10
29.7532074195129
20
2.84064405403785
30
0
0
SPLINE
5
A4
100
AcDbEntity
8
1
62
256
6
ByLayer
370
18
48
1
60
0
100
AcDbSpline
70
4
71
3
72
8
73
4
40
0
40
0
40
0
40
0
40
1
40
1
40
1
40
1
41
1
10
45.1363969512793
20
-2.88075643350101
30
0
41
1
10
45.0966876415348
20
-2.93301519246606
30
0
41
1
10
45.0562283092329
20
-2.96776552012886
30
0
41
1
10
45.0144631913225
20
-2.98570249963083
30
0
0
SPLINE
5
A5
100
AcDbEntity
8
1
62
256
6
ByLayer
370
18
48
1
60
0
100
AcDbSpline
70
4
71
3
72
43
73
39
40
0
40
0
40
0
40
0
40
0.0472933553714736
40
0.0472933553714736
40
0.116639994011092
40
0.116639994011092
40
0.185986632650711
40
0.185986632650711
40
0.324679909929949
40
0.324679909929949
40
0.394026548569567
40
0.394026548569567
40
0.463373187209186
40
0.463373187209186
40
0.532719825848804
40
0.532719825848804
40
0.567393145168614
40
0.57172731008359
40
0.57172731008359
40
0.576061474998566
40
0.576061474998566
40
0.584729804828518
40
0.584729804828518
40
0.589063969743494
40
0.589063969743494
40
0.59339813465847
40
0.59339813465847
40
0.602066464488423
40
0.602066464488423
40
0.671413103128042
40
0.671413103128042
40
0.740759741767661
40
0.740759741767661
40
0.879453019046899
40
0.879453019046899
40
0.948799657686518
40
0.948799657686518
40
1
40
1
40
1
40
1
41
1
10
7.92755886883509
20
2.48351796915804
30
0
41
1
10
7.92755886883509
20
2.42085424298486
30
0
41
1
10
7.92755886883509
20
2.35948619476946
30
0
41
1
10
7.92755886883509
20
2.21120351665587
30
0
41
1
10
7.92755886883509
20
2.12574245041122
30
0
41
1
10
7.92755886883509
20
1.96012179086998
30
0
41
1
10
7.92755886883506
20
1.87995755635163
30
0
41
1
10
7.92755886883506
20
1.65175818614824
30
0
41
1
10
7.92755886883509
20
1.51421093017066
30
0
41
1
10
7.92755886883509
20
1.32789418744687
30
0
41
1
10
7.92755886883509
20
1.26914517850284
30
0
41
1
10
7.92755886883509
20
1.15828631857636
30
0
41
1
10
7.92755886883509
20
1.10604599949585
30
0
41
1
10
7.92755886883509
20
1.00913381387608
30
0
41
1
10
7.92755886883506
20
0.964405806773385
30
0
41
1
10
7.92755886883506
20
0.902792994714872
30
0
41
1
10
7.92755886883509
20
0.880713763135276
30
0
41
1
10
7.92755886883509
20
0.859828157993633
30
0
41
1
10
7.92755886883509
20
0.855215852779565
30
0
41
1
10
7.92755886883509
20
0.852677581398666
30
0
41
1
10
7.92755886883509
20
0.848026148627838
30
0
41
1
10
7.92755886883754
20
0.848167371153124
30
0
41
1
10
7.92755886883754
20
0.853345121039837
30
0
41
1
10
7.92755886883504
20
0.855944428627453
30
0
41
1
10
7.92755886883504
20
0.860638011370355
30
0
41
1
10
7.92755886883509
20
0.863000980723086
30
0
41
1
10
7.92755886883509
20
0.870138561774752
30
0
41
1
10
7.92755886883506
20
0.874960939088936
30
0
41
1
10
7.92755886883506
20
0.918928834795452
30
0
41
1
10
7.92755886883509
20
0.962048975572969
30
0
41
1
10
7.92755886883509
20
1.05630527729431
30
0
41
1
10
7.92755886883506
20
1.10764864409302
30
0
41
1
10
7.92755886883506
20
1.27278390105974
30
0
41
1
10
7.92755886883509
20
1.39758654593331
30
0
41
1
10
7.92755886883509
20
1.60849308596144
30
0
41
1
10
7.92755886883506
20
1.68305364249426
30
0
41
1
10
7.92755886883506
20
1.8190157878372
30
0
41
1
10
7.92755886883506
20
1.87839930075722
30
0
41
1
10
7.92755886883506
20
1.93943126885645
30
0
0
SPLINE
5
A6
100
AcDbEntity
8
1
62
256
6
ByLayer
370
18
48
1
60
0
100
AcDbSpline
70
4
71
3
72
8
73
4
40
0
40
0
40
0
40
0
40
1
40
1
40
1
40
1
41
1
10
45.1363969512791
20
2.88075643350132
30
0
41
1
10
45.0966876415346
20
2.9330151924662
30
0
41
1
10
45.0562283092328
20
2.96776552012889
30
0
41
1
10
45.0144631913225
20
2.98570249963083
30
0
0
SPLINE
5
A7
100
AcDbEntity
8
1
62
256
6
ByLayer
370
18
48
1
60
0
100
AcDbSpline
70
4
71
3
72
64
73
60
40
0
40
0
40
0
40
0
40
0.0342794526088875
40
0.0342794526088875
40
0.068558905217775
40
0.068558905217775
40
0.102838357826662
40
0.102838357826662
40
0.13711781043555
40
0.13711781043555
40
0.171397263044438
40
0.171397263044438
40
0.205676715653325
40
0.205676715653325
40
0.239956168262213
40
0.239956168262213
40
0.2742356208711
40
0.2742356208711
40
0.308515073479988
40
0.308515073479988
40
0.342794526088875
40
0.342794526088875
40
0.411353431306649
40
0.411353431306649
40
0.445632883915536
40
0.445632883915536
40
0.479912336524423
40
0.479912336524423
40
0.51419178913331
40
0.51419178913331
40
0.548471241742197
40
0.548471241742197
40
0.582750694351084
40
0.582750694351084
40
0.617030146959971
40
0.617030146959971
40
0.651309599568858
40
0.651309599568858
40
0.685589052177745
40
0.685589052177745
40
0.719868504786632
40
0.719868504786632
40
0.754147957395519
40
0.754147957395519
40
0.788427410004406
40
0.788427410004406
40
0.822706862613293
40
0.822706862613293
40
0.85698631522218
40
0.85698631522218
40
0.891265767831067
40
0.891265767831067
40
0.925545220439954
40
0.925545220439954
40
0.959824673048841
40
0.959824673048841
40
0.994104125657728
40
0.994104125657728
40
1
40
1
40
1
40
1
41
1
10
7.92755886883509
20
1.95495959299959
30
0
41
1
10
8.10748466398866
20
1.88435855223759
30
0
41
1
10
8.28690678678498
20
1.81103489632793
30
0
41
1
10
8.64443823147653
20
1.65816887968748
30
0
41
1
10
8.82249637595788
20
1.57845469512986
30
0
41
1
10
9.17799486051058
20
1.41410550572019
30
0
41
1
10
9.35541984053816
20
1.32960530095835
30
0
41
1
10
9.71045274123748
20
1.15685416954972
30
0
41
1
10
9.88790760835963
20
1.06818329292608
30
0
41
1
10
10.24280657167
20
0.886966717273253
30
0
41
1
10
10.4201951569015
20
0.794299512659393
30
0
41
1
10
10.7758397187101
20
0.607018406698785
30
0
41
1
10
10.9541636657735
20
0.51229268437524
30
0
41
1
10
11.3118062430703
20
0.320150816698799
30
0
41
1
10
11.491296724779
20
0.222771637912245
30
0
41
1
10
11.8506595225439
20
0.0269350339494849
30
0
41
1
10
12.0298585162154
20
-0.0706030365583956
30
0
41
1
10
12.387182728467
20
-0.264185236779355
30
0
41
1
10
12.5652550307111
20
-0.360398343600366
30
0
41
1
10
12.9206703079963
20
-0.551407429145314
30
0
41
1
10
13.097967656987
20
-0.646296798677326
30
0
41
1
10
13.6303132197517
20
-0.926034610101851
30
0
41
1
10
13.9849095575973
20
-1.10625223257284
30
0
41
1
10
14.5182904829735
20
-1.36619193212766
30
0
41
1
10
14.6965694778669
20
-1.45073862636659
30
0
41
1
10
15.0543306180946
20
-1.61402910296218
30
0
41
1
10
15.2340474562351
20
-1.69326531154894
30
0
41
1
10
15.593343312564
20
-1.84625086975288
30
0
41
1
10
15.7723680293145
20
-1.91980345819763
30
0
41
1
10
16.1297433463284
20
-2.05876202436929
30
0
41
1
10
16.3078293174758
20
-2.12370615016471
30
0
41
1
10
16.6633316412627
20
-2.24661032066587
30
0
41
1
10
16.8406529964602
20
-2.30450733734136
30
0
41
1
10
17.1955253143063
20
-2.41259609210101
30
0
41
1
10
17.3730624487613
20
-2.46241908601928
30
0
41
1
10
17.7281888250444
20
-2.55193414288178
30
0
41
1
10
17.9058191459498
20
-2.59230201312951
30
0
41
1
10
18.2615817263346
20
-2.66499407168453
30
0
41
1
10
18.4399039064203
20
-2.69762955703388
30
0
41
1
10
18.7978686724856
20
-2.7522998731346
30
0
41
1
10
18.9778962012372
20
-2.77386830156559
30
0
41
1
10
19.3371787770268
20
-2.80767976232977
30
0
41
1
10
19.5160704596205
20
-2.81995630827134
30
0
41
1
10
19.8734967520438
20
-2.83546571613968
30
0
41
1
10
20.0517997236972
20
-2.83793531626597
30
0
41
1
10
20.4075004589525
20
-2.83170165412037
30
0
41
1
10
20.5849465258271
20
-2.82361520957133
30
0
41
1
10
20.9398981570576
20
-2.79879312138451
30
0
41
1
10
21.1175304944666
20
-2.78189368034569
30
0
41
1
10
21.4730233686045
20
-2.73713905158056
30
0
41
1
10
21.6508638522314
20
-2.70936004349181
30
0
41
1
10
22.0070578214604
20
-2.64485897446781
30
0
41
1
10
22.1854799990164
20
-2.60878735538338
30
0
41
1
10
22.5438611910055
20
-2.52679037782238
30
0
41
1
10
22.7242314734442
20
-2.48001619241344
30
0
41
1
10
23.0835155810053
20
-2.37830070391161
30
0
41
1
10
23.2623536871443
20
-2.32332556717623
30
0
41
1
10
23.4717209970114
20
-2.25521186898968
30
0
41
1
10
23.5024359995939
20
-2.24509882191867
30
0
41
1
10
23.5331403787155
20
-2.23486799590756
30
0
0
SPLINE
5
A8
100
AcDbEntity
8
1
62
256
6
ByLayer
370
18
48
1
60
0
100
AcDbSpline
70
4
71
3
72
26
73
22
40
0
40
0
40
0
40
0
40
0.0317578552454104
40
0.0317578552454104
40
0.128582069720869
40
0.128582069720869
40
0.225406284196328
40
0.225406284196328
40
0.322230498671786
40
0.322230498671786
40
0.419054713147245
40
0.419054713147245
40
0.515878927622703
40
0.515878927622703
40
0.612703142098161
40
0.612703142098161
40
0.806351571049078
40
0.806351571049078
40
0.903175785524539
40
0.903175785524539
40
1
40
1
40
1
40
1
41
1
10
36.6394650966708
20
2.84371196599204
30
0
41
1
10
36.6978817309165
20
2.8425147182775
30
0
41
1
10
36.7563323396296
20
2.84072087085471
30
0
41
1
10
36.9931263787956
20
2.83102062965921
30
0
41
1
10
37.1717291461068
20
2.8183121680637
30
0
41
1
10
37.5302389378253
20
2.78289017147017
30
0
41
1
10
37.7106918244943
20
2.76011463481504
30
0
41
1
10
38.0697027960664
20
2.70551776950725
30
0
41
1
10
38.2485814944127
20
2.67364324264534
30
0
41
1
10
38.6053506218406
20
2.60134683490651
30
0
41
1
10
38.7832975565352
20
2.56093952841124
30
0
41
1
10
39.1391250867454
20
2.4711619128789
30
0
41
1
10
39.3168515980288
20
2.42150620656287
30
0
41
1
10
39.6720708835798
20
2.31350959717878
30
0
41
1
10
39.8495073654791
20
2.25520236531392
30
0
41
1
10
40.3829563125263
20
2.06903606628231
30
0
41
1
10
40.7400934100412
20
1.92935682130189
30
0
41
1
10
41.2786391418174
20
1.69873397920432
30
0
41
1
10
41.4589480447918
20
1.61869022213412
30
0
41
1
10
41.8175242324978
20
1.45422726808346
30
0
41
1
10
41.996167414754
20
1.3694315402889
30
0
41
1
10
42.1742983559308
20
1.282367320585
30
0
0
SPLINE
5
A9
100
AcDbEntity
8
1
62
256
6
ByLayer
370
18
48
1
60
0
100
AcDbSpline
70
4
71
3
72
14
73
10
40
0
40
0
40
0
40
0
40
0.357913435296584
40
0.357913435296584
40
0.536870152944876
40
0.536870152944876
40
0.715826870593168
40
0.715826870593168
40
1
40
1
40
1
40
1
41
1
10
45.0434890564232
20
-2.8441322943147
30
0
41
1
10
44.607998221001
20
-2.85927231346966
30
0
41
1
10
44.1746238262193
20
-2.84422056847205
30
0
41
1
10
43.5239190735482
20
-2.77778315386848
30
0
41
1
10
43.3069076800416
20
-2.74834936484808
30
0
41
1
10
42.871798472535
20
-2.67511017113051
30
0
41
1
10
42.6531030334128
20
-2.63115621829419
30
0
41
1
10
42.0885878095373
20
-2.50000500360139
30
0
41
1
10
41.7446837020356
20
-2.40297886904799
30
0
41
1
10
41.401735567061
20
-2.2913622529351
30
0
0
SPLINE
5
AA
100
AcDbEntity
8
1
62
256
6
ByLayer
370
13
48
1
60
0
100
AcDbSpline
70
4
71
3
72
24
73
20
40
0
40
0
40
0
40
0
40
0.188103229166078
40
0.188103229166078
40
0.266087772650254
40
0.266087772650254
40
0.344072316134431
40
0.344072316134431
40
0.500041403102779
40
0.500041403102779
40
0.656010490071128
40
0.656010490071128
40
0.733995033555304
40
0.733995033555304
40
0.811979577039481
40
0.811979577039481
40
0.967948664007833
40
0.967948664007833
40
1
40
1
40
1
40
1
41
1
10
41.4017363340573
20
-2.29136250256326
30
0
41
1
10
40.8808041858555
20
-2.12181887160901
30
0
41
1
10
40.3620777625866
20
-1.91861051382588
30
0
41
1
10
39.6238683333784
20
-1.59326191530667
30
0
41
1
10
39.4069560021899
20
-1.49332902507334
30
0
41
1
10
38.9712501436641
20
-1.28527645460616
30
0
41
1
10
38.7521698775384
20
-1.17697828008013
30
0
41
1
10
38.0997866552202
20
-0.845640366415807
30
0
41
1
10
37.6681712162651
20
-0.615531407757288
30
0
41
1
10
36.805325999464
20
-0.148432234406471
30
0
41
1
10
36.3742300019786
20
0.0888091367427535
30
0
41
1
10
35.7237853265425
20
0.442224367545833
30
0
41
1
10
35.506278847392
20
0.559508779813342
30
0
41
1
10
35.0690578086123
20
0.791506859984764
30
0
41
1
10
34.8511184286459
20
0.90527066661457
30
0
41
1
10
34.2000925183729
20
1.2375560067056
30
0
41
1
10
33.7685890530317
20
1.44653841506167
30
0
41
1
10
33.2484296208221
20
1.67881275917773
30
0
41
1
10
33.1597336932971
20
1.71767191121054
30
0
41
1
10
33.0709911521673
20
1.75576443469433
30
0
0
SPLINE
5
AB
100
AcDbEntity
8
1
62
256
6
ByLayer
370
18
48
1
60
0
100
AcDbSpline
70
4
71
3
72
12
73
8
40
0
40
0
40
0
40
0
40
0.0436200346831021
40
0.0436200346831021
40
0.236633150034819
40
0.236633150034819
40
1
40
1
40
1
40
1
41
1
10
12.0074855009785
20
-2.82929984189528
30
0
41
1
10
11.9584005124678
20
-2.82925089063491
30
0
41
1
10
11.9092817287868
20
-2.82882590124146
30
0
41
1
10
11.6426107857224
20
-2.82447395819406
30
0
41
1
10
11.4236953937341
20
-2.81342468346475
30
0
41
1
10
10.3408388610225
20
-2.72187423400979
30
0
41
1
10
9.49180975959121
20
-2.53450345246066
30
0
41
1
10
8.63447193816492
20
-2.25257234032699
30
0
0
SPLINE
5
AC
100
AcDbEntity
8
1
62
256
6
ByLayer
370
13
48
1
60
0
100
AcDbSpline
70
4
71
3
72
20
73
16
40
0
40
0
40
0
40
0
40
0.0055935500800274
40
0.0055935500800274
40
0.129894356320024
40
0.129894356320024
40
0.254195162560021
40
0.254195162560021
40
0.502796775040013
40
0.502796775040013
40
0.751398387520005
40
0.751398387520005
40
0.875699193760003
40
0.875699193760003
40
1
40
1
40
1
40
1
41
1
10
8.63447193875939
20
-2.25257234052251
30
0
41
1
10
8.62471712252295
20
-2.24936451961332
30
0
41
1
10
8.61496123064305
20
-2.24614445696275
30
0
41
1
10
8.3883824902999
20
-2.17108401838974
30
0
41
1
10
8.17099449597796
20
-2.09323642829173
30
0
41
1
10
7.73435233960691
20
-1.92625425907212
30
0
41
1
10
7.51506429635222
20
-1.83706054807072
30
0
41
1
10
6.8617568560079
20
-1.55757011483465
30
0
41
1
10
6.42939406447721
20
-1.3544081220428
30
0
41
1
10
5.56493429954114
20
-0.924844784105488
30
0
41
1
10
5.13302656793798
20
-0.698130514394535
30
0
41
1
10
4.48075204105754
20
-0.348832567485346
30
0
41
1
10
4.26235438874636
20
-0.230726258723848
30
0
41
1
10
3.8243185266258
20
0.0066612391051422
30
0
41
1
10
3.6055349136129
20
0.125463181979484
30
0
41
1
10
3.38665632172859
20
0.243762467101845
30
0
0
SPLINE
5
AD
100
AcDbEntity
8
1
62
256
6
ByLayer
370
18
48
1
60
0
100
AcDbSpline
70
4
71
3
72
8
73
4
40
0
40
0
40
0
40
0
40
1
40
1
40
1
40
1
41
1
10
3.2621507136883
20
0.211150921066633
30
0
41
1
10
3.23767243177534
20
0.225111206654731
30
0
41
1
10
3.21618178511994
20
0.242690289317238
30
0
41
1
10
3.19767614246342
20
0.263869334243765
30
0
0
SPLINE
5
AE
100
AcDbEntity
8
1
62
256
6
ByLayer
370
18
48
1
60
0
100
AcDbSpline
70
4
71
3
72
36
73
32
40
0
40
0
40
0
40
0
40
0.125000000000014
40
0.125000000000014
40
0.187500000000027
40
0.187500000000027
40
0.25000000000004
40
0.25000000000004
40
0.312500000000053
40
0.312500000000053
40
0.343750000000054
40
0.343750000000054
40
0.375000000000056
40
0.375000000000056
40
0.406250000000057
40
0.406250000000057
40
0.437500000000059
40
0.437500000000059
40
0.46875000000006
40
0.46875000000006
40
0.500000000000061
40
0.500000000000061
40
0.562500000000054
40
0.562500000000054
40
0.625000000000046
40
0.625000000000046
40
0.750000000000031
40
0.750000000000031
40
0.875000000000015
40
0.875000000000015
40
1
40
1
40
1
40
1
41
1
10
45.1231705854947
20
-1.29488982945125
30
0
41
1
10
45.0353981869238
20
-1.26132778835256
30
0
41
1
10
44.9484580384566
20
-1.22073380586753
30
0
41
1
10
44.8215913072279
20
-1.14853894611824
30
0
41
1
10
44.7798022182604
20
-1.12252548295126
30
0
41
1
10
44.6974671948842
20
-1.06565222794467
30
0
41
1
10
44.6566582350086
20
-1.03459389515612
30
0
41
1
10
44.5786014500338
20
-0.967076583223133
30
0
41
1
10
44.5412056722981
20
-0.930706322269458
30
0
41
1
10
44.4893405502109
20
-0.86938675825283
30
0
41
1
10
44.4726687153044
20
-0.847616514495144
30
0
41
1
10
44.4426182218077
20
-0.802131683092313
30
0
41
1
10
44.429091672809
20
-0.778347676533883
30
0
41
1
10
44.4070058462437
20
-0.727327423284407
30
0
41
1
10
44.3987002835629
20
-0.700292499212082
30
0
41
1
10
44.3923429069158
20
-0.646510470441513
30
0
41
1
10
44.3946356310154
20
-0.620170558382512
30
0
41
1
10
44.4100373259651
20
-0.574539039396427
30
0
41
1
10
44.422911461961
20
-0.555235115185724
30
0
41
1
10
44.4535188332714
20
-0.524261271908273
30
0
41
1
10
44.4714433787175
20
-0.512142782390811
30
0
41
1
10
44.527716044017
20
-0.48337085505625
30
0
41
1
10
44.5696830404584
20
-0.473251006789695
30
0
41
1
10
44.6543034076047
20
-0.462236405436244
30
0
41
1
10
44.697644800098
20
-0.46139637066139
30
0
41
1
10
44.8296203644506
20
-0.467708270438408
30
0
41
1
10
44.9180378921411
20
-0.483385368710429
30
0
41
1
10
45.0941766995648
20
-0.527900491636018
30
0
41
1
10
45.1821658572621
20
-0.557080304522259
30
0
41
1
10
45.3579984053907
20
-0.628014232848557
30
0
41
1
10
45.4447602199471
20
-0.669314984271722
30
0
41
1
10
45.5297082809595
20
-0.71749679418474
30
0
0
SPLINE
5
AF
100
AcDbEntity
8
1
62
256
6
ByLayer
370
18
48
1
60
0
100
AcDbSpline
70
4
71
3
72
22
73
18
40
0
40
0
40
0
40
0
40
0.0535409451166534
40
0.0535409451166534
40
0.211944374050886
40
0.211944374050886
40
0.291146088518002
40
0.291146088518002
40
0.370347802985118
40
0.370347802985118
40
0.687154660853579
40
0.687154660853579
40
0.766356375320694
40
0.766356375320694
40
0.845558089787809
40
0.845558089787809
40
1
40
1
40
1
40
1
41
1
10
15.9399381933691
20
2.05405346888068
30
0
41
1
10
16.0864205339128
20
1.99528057799091
30
0
41
1
10
16.2326852325454
20
1.93415449853785
30
0
41
1
10
16.8113539874088
20
1.68364597337899
30
0
41
1
10
17.2429694804368
20
1.47727852773127
30
0
41
1
10
17.8938667826473
20
1.14612172865421
30
0
41
1
10
18.111436638993
20
1.03218673354641
30
0
41
1
10
18.5486232681934
20
0.798391223490285
30
0
41
1
10
18.7679830884141
20
0.678493598508538
30
0
41
1
10
19.8568977384178
20
0.0758502262617355
30
0
41
1
10
20.7151294181667
20
-0.421917125964143
30
0
41
1
10
21.8033430209019
20
-1.00671217968505
30
0
41
1
10
22.0222498371391
20
-1.12206431109473
30
0
41
1
10
22.4600748816161
20
-1.3461822318319
30
0
41
1
10
22.6784520397909
20
-1.45464404600176
30
0
41
1
10
23.3220760053462
20
-1.76240971856922
30
0
41
1
10
23.747399154242
20
-1.95013831519881
30
0
41
1
10
24.1743153122428
20
-2.11718355065025
30
0
0
SPLINE
5
B0
100
AcDbEntity
8
1
62
256
6
ByLayer
370
13
48
1
60
0
100
AcDbSpline
70
4
71
3
72
18
73
14
40
0
40
0
40
0
40
0
40
0.0061773471983891
40
0.0061773471983891
40
0.500186360748926
40
0.500186360748926
40
0.623688614136557
40
0.623688614136557
40
0.747190867524187
40
0.747190867524187
40
0.994195374299456
40
0.994195374299456
40
1
40
1
40
1
40
1
41
1
10
24.1743153122455
20
-2.11718355065125
30
0
41
1
10
24.1852659431345
20
-2.12146835149778
30
0
41
1
10
24.1962176221443
20
-2.12573954372039
30
0
41
1
10
25.0830739091544
20
-2.47047381021588
30
0
41
1
10
25.9405024512555
20
-2.71297109178778
30
0
41
1
10
27.0210350537259
20
-2.87031223395979
30
0
41
1
10
27.2376242278929
20
-2.89450381755338
30
0
41
1
10
27.672441073562
20
-2.92779601325626
30
0
41
1
10
27.8912608308701
20
-2.93690743045585
30
0
41
1
10
28.5473277171367
20
-2.9407220316717
30
0
41
1
10
28.9806279625496
20
-2.91208230486717
30
0
41
1
10
29.4229469105555
20
-2.85261833461524
30
0
41
1
10
29.4331023157135
20
-2.85123680554275
30
0
41
1
10
29.4432572979593
20
-2.84983909254839
30
0
0
SPLINE
5
B1
100
AcDbEntity
8
1
62
256
6
ByLayer
370
13
48
1
60
0
100
AcDbSpline
70
4
71
3
72
30
73
26
40
0
40
0
40
0
40
0
40
0.139264197448984
40
0.139264197448984
40
0.208896296173476
40
0.208896296173476
40
0.278528394897967
40
0.348160493622459
40
0.348160493622459
40
0.417792592346951
40
0.417792592346951
40
0.487424691071443
40
0.487424691071443
40
0.557056789795935
40
0.557056789795935
40
0.696320987244918
40
0.696320987244918
40
0.76595308596941
40
0.76595308596941
40
0.835585184693901
40
0.835585184693901
40
0.905217283418393
40
0.905217283418393
40
0.974849382142884
40
1
40
1
40
1
40
1
41
1
10
3.38665632172876
20
0.24376246710176
30
0
41
1
10
3.3867328873435
20
0.439961009511166
30
0
41
1
10
3.38679953349873
20
0.631948221184672
30
0
41
1
10
3.38689035020576
20
0.913678319707486
30
0
41
1
10
3.38691905130517
20
1.00646489435988
30
0
41
1
10
3.38697320264384
20
1.18625150015342
30
0
41
1
10
3.38702441980777
20
1.36121985069573
30
0
41
1
10
3.38707163177202
20
1.52668915667658
30
0
41
1
10
3.38711763959247
20
1.68732396916775
30
0
41
1
10
3.38714012873641
20
1.76551719159008
30
0
41
1
10
3.38718392586949
20
1.91455631882894
30
0
41
1
10
3.38720528861285
20
1.98560087223166
30
0
41
1
10
3.38724753163774
20
2.1207107209122
30
0
41
1
10
3.38726829394733
20
2.18437274831473
30
0
41
1
10
3.38732948019273
20
2.3619612771266
30
0
41
1
10
3.38736918217521
20
2.46352975385977
30
0
41
1
10
3.38742786928614
20
2.59031164546374
30
0
41
1
10
3.38744730368217
20
2.62830946289847
30
0
41
1
10
3.38748491082373
20
2.6941010921833
30
0
41
1
10
3.38750317639858
20
2.72211585178692
30
0
41
1
10
3.38753827771436
20
2.76839386727534
30
0
41
1
10
3.38755518867919
20
2.78670423631189
30
0
41
1
10
3.38758651575151
20
2.81292718371859
30
0
41
1
10
3.38760616949835
20
2.82380328078449
30
0
41
1
10
3.38762299289942
20
2.82542280779404
30
0
41
1
10
3.38762723861936
20
2.82519902991731
30
0
0
SPLINE
5
B2
100
AcDbEntity
8
1
62
256
6
ByLayer
370
18
48
1
60
0
100
AcDbSpline
70
4
71
3
72
10
73
6
40
0
40
0
40
0
40
0
40
0.5
40
0.5
40
1
40
1
40
1
40
1
41
1
10
44.8326727437868
20
0.819942112198618
30
0
41
1
10
45.0000824552833
20
0.816670069450851
30
0
41
1
10
45.1672544157725
20
0.814618497905371
30
0
41
1
10
45.5014882721084
20
0.811080360734991
30
0
41
1
10
45.6685302621407
20
0.809695979632949
30
0
41
1
10
45.8353256964779
20
0.809577267724734
30
0
0
SPLINE
5
B3
100
AcDbEntity
8
1
62
256
6
ByLayer
370
18
48
1
60
0
100
AcDbSpline
70
4
71
3
72
8
73
4
40
0
40
0
40
0
40
0
40
1
40
1
40
1
40
1
41
1
10
45.9821657890767
20
0.301582063675085
30
0
41
1
10
45.9889365068161
20
0.229369636068839
30
0
41
1
10
45.9928337480946
20
0.157247001919728
30
0
41
1
10
45.9933094314574
20
0.0852312882616104
30
0
0
SPLINE
5
B4
100
AcDbEntity
8
1
62
256
6
ByLayer
370
18
48
1
60
0
100
AcDbSpline
70
4
71
3
72
80
73
76
40
0
40
0
40
0
40
0
40
0.0189010132718388
40
0.0189010132718388
40
0.0460181860965422
40
0.0460181860965422
40
0.0731353589212455
40
0.0731353589212455
40
0.100252531745949
40
0.100252531745949
40
0.127369704570652
40
0.127369704570652
40
0.154486877395356
40
0.154486877395356
40
0.181604050220059
40
0.181604050220059
40
0.208721223044762
40
0.208721223044762
40
0.235838395869466
40
0.235838395869466
40
0.262955568694169
40
0.262955568694169
40
0.290072741518873
40
0.290072741518873
40
0.317189914343576
40
0.317189914343576
40
0.371424259992983
40
0.371424259992983
40
0.398541432817686
40
0.398541432817686
40
0.425658605642389
40
0.425658605642389
40
0.452775778467093
40
0.452775778467093
40
0.479892951291796
40
0.479892951291796
40
0.507010124116499
40
0.507010124116499
40
0.534127296941203
40
0.534127296941203
40
0.561244469765906
40
0.561244469765906
40
0.588361642590609
40
0.588361642590609
40
0.615478815415312
40
0.615478815415312
40
0.642595988240016
40
0.642595988240016
40
0.669713161064719
40
0.669713161064719
40
0.696830333889424
40
0.696830333889424
40
0.723947506714128
40
0.723947506714128
40
0.751064679538832
40
0.751064679538832
40
0.778181852363536
40
0.778181852363536
40
0.80529902518824
40
0.80529902518824
40
0.832416198012944
40
0.832416198012944
40
0.859533370837648
40
0.859533370837648
40
0.886650543662353
40
0.886650543662353
40
0.913767716487057
40
0.913767716487057
40
0.940884889311761
40
0.940884889311761
40
0.968002062136465
40
0.968002062136465
40
0.99511923496117
40
0.99511923496117
40
1
40
1
40
1
40
1
41
1
10
39.8698372642485
20
-2.24714175516229
30
0
41
1
10
39.7463982737913
20
-2.28869045171405
30
0
41
1
10
39.6230834496478
20
-2.3283428287796
30
0
41
1
10
39.3226962967573
20
-2.41981273815878
30
0
41
1
10
39.1456153524793
20
-2.46939662536087
30
0
41
1
10
38.7911690688721
20
-2.55907617440164
30
0
41
1
10
38.6139533478655
20
-2.5994443143835
30
0
41
1
10
38.2587610310548
20
-2.67173148652304
30
0
41
1
10
38.0807161971975
20
-2.7036311538653
30
0
41
1
10
37.7234682549722
20
-2.75836974636624
30
0
41
1
10
37.5443239632154
20
-2.78123802613842
30
0
41
1
10
37.1848784777607
20
-2.81725444125709
30
0
41
1
10
37.0057207777358
20
-2.83024661246407
30
0
41
1
10
36.6484493416602
20
-2.84538123107896
30
0
41
1
10
36.4702587341804
20
-2.84735053740423
30
0
41
1
10
36.1147495890594
20
-2.84033300060327
30
0
41
1
10
35.9375066109178
20
-2.83239829684402
30
0
41
1
10
35.5829584297465
20
-2.80789316151984
30
0
41
1
10
35.4056906850976
20
-2.79099135234404
30
0
41
1
10
35.0508750656625
20
-2.74644289331923
30
0
41
1
10
34.8734083405308
20
-2.71869699756249
30
0
41
1
10
34.5182784467135
20
-2.6553072565745
30
0
41
1
10
34.3403602729066
20
-2.61928511295463
30
0
41
1
10
33.9832139815611
20
-2.53734250863349
30
0
41
1
10
33.8039325320823
20
-2.49118785154357
30
0
41
1
10
33.264337137222
20
-2.33833784049054
30
0
41
1
10
32.906948080407
20
-2.22179687851045
30
0
41
1
10
32.3728369552516
20
-2.02354543021181
30
0
41
1
10
32.1953024868163
20
-1.95348805439218
30
0
41
1
10
31.8402998307656
20
-1.80797559228503
30
0
41
1
10
31.6627909995663
20
-1.73233705944105
30
0
41
1
10
31.3073934418117
20
-1.57488252286808
30
0
41
1
10
31.1295022080797
20
-1.49275939285187
30
0
41
1
10
30.7735318709554
20
-1.32325278781224
30
0
41
1
10
30.5953233175273
20
-1.23626627851419
30
0
41
1
10
30.2374265151761
20
-1.05777089564239
30
0
41
1
10
30.0574254931645
20
-0.96616227772202
30
0
41
1
10
29.6976460929156
20
-0.779067242518551
30
0
41
1
10
29.5186329142704
20
-0.684012387749988
30
0
41
1
10
29.1612043175343
20
-0.493055484957239
30
0
41
1
10
28.9828612328171
20
-0.397029419014586
30
0
41
1
10
28.6267591773962
20
-0.204202813672623
30
0
41
1
10
28.4491042787126
20
-0.107215808575631
30
0
41
1
10
28.0940916428154
20
0.087073197567463
30
0
41
1
10
27.9165557983241
20
0.184028871732267
30
0
41
1
10
27.5610087833503
20
0.376738180663523
30
0
41
1
10
27.3829988843866
20
0.472492559998898
30
0
41
1
10
27.0266036064587
20
0.662994127308679
30
0
41
1
10
26.8482325905657
20
0.757791769855316
30
0
41
1
10
26.4900053394094
20
0.944319554565396
30
0
41
1
10
26.3097070068837
20
1.03634747870731
30
0
41
1
10
25.9499038121628
20
1.21594872132081
30
0
41
1
10
25.770929386191
20
1.30359153669175
30
0
41
1
10
25.4136351500463
20
1.47409925280323
30
0
41
1
10
25.2353496927671
20
1.55661347669513
30
0
41
1
10
24.8792427692476
20
1.71478380892017
30
0
41
1
10
24.7014763643169
20
1.79037418091676
30
0
41
1
10
24.3464095201117
20
1.93648734564238
30
0
41
1
10
24.1689187625986
20
2.00678747297738
30
0
41
1
10
23.8133800125493
20
2.13948620423844
30
0
41
1
10
23.6353130999415
20
2.20175753613128
30
0
41
1
10
23.2786372608454
20
2.31824087706445
30
0
41
1
10
23.1001861052561
20
2.37329582916928
30
0
41
1
10
22.7418698077854
20
2.47528192775931
30
0
41
1
10
22.5615112739702
20
2.52239241874656
30
0
41
1
10
22.2017559313158
20
2.60539082205534
30
0
41
1
10
22.022750659069
20
2.64175570057407
30
0
41
1
10
21.6655866033834
20
2.70693414899668
30
0
41
1
10
21.4873494149183
20
2.73504172745132
30
0
41
1
10
21.1312692603393
20
2.7804355076035
30
0
41
1
10
20.9534397558404
20
2.79760769526752
30
0
41
1
10
20.5982701174133
20
2.82290455847848
30
0
41
1
10
20.4208141307213
20
2.83120330068456
30
0
41
1
10
20.2110483851681
20
2.83518081440016
30
0
41
1
10
20.1790410125946
20
2.8356088420845
30
0
41
1
10
20.1470226907795
20
2.83585916186658
30
0
0
SPLINE
5
B5
100
AcDbEntity
8
1
62
256
6
ByLayer
370
18
48
1
60
0
100
AcDbSpline
70
4
71
3
72
24
73
20
40
0
40
0
40
0
40
0
40
0.0625000000000047
40
0.0625000000000047
40
0.125000000000009
40
0.125000000000009
40
0.250000000000018
40
0.250000000000018
40
0.312500000000023
40
0.312500000000023
40
0.375000000000027
40
0.375000000000027
40
0.500000000000022
40
0.500000000000022
40
0.750000000000011
40
0.750000000000011
40
0.875000000000006
40
0.875000000000006
40
1
40
1
40
1
40
1
41
1
10
45.5297082809596
20
-0.71749679418474
30
0
41
1
10
45.5315686438065
20
-0.73520838921408
30
0
41
1
10
45.532067641314
20
-0.754250802692525
30
0
41
1
10
45.5303500979248
20
-0.795128214942935
30
0
41
1
10
45.5280701566775
20
-0.817314296876162
30
0
41
1
10
45.5172849071457
20
-0.885649336915549
30
0
41
1
10
45.5047051162962
20
-0.934466867494962
30
0
41
1
10
45.4807473466774
20
-1.00497583519962
30
0
41
1
10
45.4718073026164
20
-1.0283740465274
30
0
41
1
10
45.4528946257105
20
-1.07309868943386
30
0
41
1
10
45.4429287200089
20
-1.09447121207626
30
0
41
1
10
45.4116108174408
20
-1.15585481535419
30
0
41
1
10
45.3894973122739
20
-1.1918750657191
30
0
41
1
10
45.3214431252732
20
-1.28398575444959
30
0
41
1
10
45.275877015387
20
-1.32145549533175
30
0
41
1
10
45.2125633010164
20
-1.3403526799809
30
0
41
1
10
45.192411884306
20
-1.34031326524354
30
0
41
1
10
45.1552754037066
20
-1.3274418990953
30
0
41
1
10
45.1379152733511
20
-1.31432739979664
30
0
41
1
10
45.1231705854948
20
-1.29488982945125
30
0
0
SPLINE
5
B6
100
AcDbEntity
8
1
62
256
6
ByLayer
370
18
48
1
60
0
100
AcDbSpline
70
4
71
3
72
10
73
6
40
0
40
0
40
0
40
0
40
0.5
40
0.5
40
1
40
1
40
1
40
1
41
1
10
45.1363969512789
20
-2.88075643350209
30
0
41
1
10
45.2527267117603
20
-2.54920130350064
30
0
41
1
10
45.3714506774742
20
-2.21920275625942
30
0
41
1
10
45.6122354244957
20
-1.56121247493908
30
0
41
1
10
45.7343031551437
20
-1.23323378931903
30
0
41
1
10
45.8570944797666
20
-0.905783637681566
30
0
0
SPLINE
5
B7
100
AcDbEntity
8
1
62
256
6
ByLayer
370
18
48
1
60
0
100
AcDbSpline
70
4
71
3
72
10
73
6
40
0
40
0
40
0
40
0
40
0.478889555370626
40
0.478889555370626
40
1
40
1
40
1
40
1
41
1
10
3.15777241968888
20
-2.9737621822691
30
0
41
1
10
3.15777848214688
20
-2.97379277285651
30
0
41
1
10
3.15778399109883
20
-2.96932604841499
30
0
41
1
10
3.15779383163488
20
-2.95089045822692
30
0
41
1
10
3.15779805802526
20
-2.93613822467304
30
0
41
1
10
3.15780118038214
20
-2.91631056334833
30
0
0
SPLINE
5
B8
100
AcDbEntity
8
1
62
256
6
ByLayer
370
13
48
1
60
0
100
AcDbSpline
70
4
71
3
72
10
73
6
40
0
40
0
40
0
40
0
40
0.5
40
0.5
40
1
40
1
40
1
40
1
41
1
10
3.26316220041397
20
0.286487372279652
30
0
41
1
10
3.28217244538323
20
0.279365479803658
30
0
41
1
10
3.30255203868563
20
0.272078048101832
30
0
41
1
10
3.34396959377693
20
0.257791988054578
30
0
41
1
10
3.36510422351796
20
0.250751610154907
30
0
41
1
10
3.38665632172879
20
0.24376246710176
30
0
0
SPLINE
5
B9
100
AcDbEntity
8
1
62
256
6
ByLayer
370
18
48
1
60
0
100
AcDbSpline
70
4
71
3
72
38
73
34
40
0
40
0
40
0
40
0
40
0.0773484845389553
40
0.0773484845389553
40
0.116022726808433
40
0.116022726808433
40
0.154696969077911
40
0.154696969077911
40
0.232045453616868
40
0.232045453616868
40
0.270719695886345
40
0.270719695886345
40
0.309393938155823
40
0.309393938155823
40
0.464090907233731
40
0.464090907233731
40
0.502765149503209
40
0.502765149503209
40
0.541439391772686
40
0.541439391772686
40
0.618787876311642
40
0.618787876311642
40
0.696136360850598
40
0.696136360850598
40
0.734810603120076
40
0.734810603120076
40
0.773484845389553
40
0.773484845389553
40
0.928181814467462
40
0.928181814467462
40
0.96685605673694
40
0.96685605673694
40
1
40
1
40
1
40
1
41
1
10
45.0144631913225
20
-2.98570249963083
30
0
41
1
10
44.5776153579425
20
-3.00998849502847
30
0
41
1
10
44.1419115502945
20
-3.00245579008325
30
0
41
1
10
43.4858127869974
20
-2.94393650715327
30
0
41
1
10
43.2662708454671
20
-2.91643445319488
30
0
41
1
10
42.8299698495441
20
-2.846570970036
30
0
41
1
10
42.612716817472
20
-2.80420490393115
30
0
41
1
10
41.962441860687
20
-2.65595031782536
30
0
41
1
10
41.5309038303563
20
-2.52888793485692
30
0
41
1
10
40.8814850589948
20
-2.30071689331592
30
0
41
1
10
40.6646606445681
20
-2.21840152903772
30
0
41
1
10
40.2295310785804
20
-2.04197023888585
30
0
41
1
10
40.0108273797781
20
-1.94765406352698
30
0
41
1
10
38.9156996312379
20
-1.45087474532966
30
0
41
1
10
38.0573082829364
20
-0.98295464982894
30
0
41
1
10
36.9720939295321
20
-0.367503234395968
30
0
41
1
10
36.7544571448267
20
-0.242863518210925
30
0
41
1
10
36.3173206649475
20
0.0084161647139922
30
0
41
1
10
36.0977355328349
20
0.135048578476528
30
0
41
1
10
35.4438948737839
20
0.51005600903656
30
0
41
1
10
35.0112558372782
20
0.754915514075577
30
0
41
1
10
34.1464625295045
20
1.22436332300913
30
0
41
1
10
33.7139470523612
20
1.44835807552471
30
0
41
1
10
33.0608196048396
20
1.76122840300573
30
0
41
1
10
32.8416045629315
20
1.86172299128543
30
0
41
1
10
32.4037120833828
20
2.05185155552766
30
0
41
1
10
32.1858402273416
20
2.14127956378249
30
0
41
1
10
31.100028192669
20
2.55852890536062
30
0
41
1
10
30.240936756113
20
2.79464806667363
30
0
41
1
10
29.1470223744679
20
2.93870440390234
30
0
41
1
10
28.9275444320688
20
2.9597972569828
30
0
41
1
10
28.5228265593528
20
2.98415987159717
30
0
41
1
10
28.3366592893183
20
2.98962941220947
30
0
41
1
10
28.1508574315048
20
2.98938198719566
30
0
0
SPLINE
5
BA
100
AcDbEntity
8
1
62
256
6
ByLayer
370
18
48
1
60
0
100
AcDbSpline
70
4
71
3
72
26
73
22
40
0
40
0
40
0
40
0
40
0.100777128422451
40
0.100777128422451
40
0.165007333535133
40
0.165007333535133
40
0.229237538647816
40
0.229237538647816
40
0.486158359098546
40
0.486158359098546
40
0.550388564211228
40
0.550388564211228
40
0.614618769323911
40
0.614618769323911
40
0.743079179549274
40
0.743079179549274
40
0.871539589774637
40
0.871539589774637
40
0.935769794887318
40
0.935769794887318
40
1
40
1
40
1
40
1
41
1
10
13.4297220086348
20
-2.83650520404228
30
0
41
1
10
13.0900032126142
20
-2.89596990703143
30
0
41
1
10
12.7507356238115
20
-2.93724791692694
30
0
41
1
10
12.1931715787733
20
-2.97379153881326
30
0
41
1
10
11.9757109935587
20
-2.98033753232014
30
0
41
1
10
11.5389397566191
20
-2.97766438794335
30
0
41
1
10
11.3189096318046
20
-2.96836816634823
30
0
41
1
10
10.2253934982652
20
-2.88296618996904
30
0
41
1
10
9.36602289083191
20
-2.69078154497228
30
0
41
1
10
8.27768105938097
20
-2.32012907438332
30
0
41
1
10
8.05930541192652
20
-2.23948693647543
30
0
41
1
10
7.62026682121558
20
-2.06585953923698
30
0
41
1
10
7.40150610993612
20
-1.97361998228817
30
0
41
1
10
6.74802955047983
20
-1.68331811452217
30
0
41
1
10
6.31525452696457
20
-1.47150077717291
30
0
41
1
10
5.44894555244699
20
-1.02173833160254
30
0
41
1
10
5.01561377809472
20
-0.783439695227003
30
0
41
1
10
4.35983204864337
20
-0.414777568553859
30
0
41
1
10
4.13988417798862
20
-0.289771828133468
30
0
41
1
10
3.7009754950777
20
-0.0394974083527586
30
0
41
1
10
3.48166133630073
20
0.0859611306971715
30
0
41
1
10
3.26215071368759
20
0.211150921067059
30
0
0
SPLINE
5
BB
100
AcDbEntity
8
1
62
256
6
ByLayer
370
18
48
1
60
0
100
AcDbSpline
70
4
71
3
72
8
73
4
40
0
40
0
40
0
40
0
40
1
40
1
40
1
40
1
41
1
10
45.9933094314574
20
-0.0852312882615252
30
0
41
1
10
45.9934107840635
20
-0.0698870890971079
30
0
41
1
10
45.9958940363282
20
-0.0508108207594091
30
0
41
1
10
45.9998128644917
20
-0.030633134703578
30
0
0
SPLINE
5
BC
100
AcDbEntity
8
1
62
256
6
ByLayer
370
18
48
1
60
0
100
AcDbSpline
70
4
71
3
72
10
73
6
40
0
40
0
40
0
40
0
40
0.5
40
0.5
40
1
40
1
40
1
40
1
41
1
10
45.8570944797668
20
-0.905783637681537
30
0
41
1
10
45.8865332755651
20
-0.799985982065067
30
0
41
1
10
45.9121536447234
20
-0.697547393787971
30
0
41
1
10
45.9543260347155
20
-0.496951775185153
30
0
41
1
10
45.9708996694138
20
-0.398462010279331
30
0
41
1
10
45.9821657890776
20
-0.301582063669684
30
0
0
SPLINE
5
BD
100
AcDbEntity
8
1
62
256
6
ByLayer
370
13
48
1
60
0
100
AcDbSpline
70
4
71
3
72
10
73
6
40
0
40
0
40
0
40
0
40
0.389743870169341
40
0.389743870169341
40
1
40
1
40
1
40
1
41
1
10
3.38762724357412
20
-2.82519891456235
30
0
41
1
10
3.38763475062822
20
-2.8248021986112
30
0
41
1
10
3.38764157497468
20
-2.82236223587029
30
0
41
1
10
3.38765706168329
20
-2.81083465594318
30
0
41
1
10
3.38766459587055
20
-2.79871506417268
30
0
41
1
10
3.38766963372032
20
-2.78147396693714
30
0
0
SPLINE
5
BE
100
AcDbEntity
8
1
62
256
6
ByLayer
370
18
48
1
60
0
100
AcDbSpline
70
4
71
3
72
8
73
4
40
0
40
0
40
0
40
0
40
1
40
1
40
1
40
1
41
1
10
45.9821657890772
20
-0.301582063669684
30
0
41
1
10
45.9889286687241
20
-0.22945323247086
30
0
41
1
10
45.9928331631085
20
-0.15733556544717
30
0
41
1
10
45.9933094314574
20
-0.0852312882616104
30
0
0
SPLINE
5
BF
100
AcDbEntity
8
1
62
256
6
ByLayer
370
18
48
1
60
0
100
AcDbSpline
70
4
71
3
72
10
73
6
40
0
40
0
40
0
40
0
40
0.5
40
0.5
40
1
40
1
40
1
40
1
41
1
10
45.9998128644928
20
0.0306331346991726
30
0
41
1
10
45.9976682197119
20
0.0210203733588514
30
0
41
1
10
45.9946964056243
20
0.0108383853265366
30
0
41
1
10
45.9872777125773
20
-0.0086455596343171
30
0
41
1
10
45.982910125186
20
-0.0176784739585969
30
0
41
1
10
45.9784451853696
20
-0.0249721644360932
30
0
0
SPLINE
5
C0
100
AcDbEntity
8
1
62
256
6
ByLayer
370
18
48
1
60
0
100
AcDbSpline
70
4
71
3
72
8
73
4
40
0
40
0
40
0
40
0
40
1
40
1
40
1
40
1
41
1
10
45.9821657890767
20
0.301582063675113
30
0
41
1
10
45.9598631173802
20
0.493367852186907
30
0
41
1
10
45.9168127166641
20
0.691167200767126
30
0
41
1
10
45.8570944797669
20
0.905783637681111
30
0
0
SPLINE
5
C1
100
AcDbEntity
8
1
62
256
6
ByLayer
370
18
48
1
60
0
100
AcDbSpline
70
4
71
3
72
14
73
10
40
0
40
0
40
0
40
0
40
0.25
40
0.25
40
0.5
40
0.5
40
0.75
40
0.75
40
1
40
1
40
1
40
1
41
1
10
45.0434890564232
20
-2.8441322943147
30
0
41
1
10
45.0467314869601
20
-2.8432395886955
30
0
41
1
10
45.0493494885922
20
-2.84394616770089
30
0
41
1
10
45.0529397705271
20
-2.84963087266308
30
0
41
1
10
45.0538652489129
20
-2.85467464914393
30
0
41
1
10
45.0529362093527
20
-2.87041227852015
30
0
41
1
10
45.0510039956052
20
-2.88115986743782
30
0
41
1
10
45.0443263448992
20
-2.90613398104895
30
0
41
1
10
45.039636808283
20
-2.92016996788851
30
0
41
1
10
45.0344935989106
20
-2.93358164398313
30
0
0
SPLINE
5
C2
100
AcDbEntity
8
1
62
256
6
ByLayer
370
18
48
1
60
0
100
AcDbSpline
70
4
71
3
72
27
73
23
40
0
40
0
40
0
40
0
40
0.0710205959884292
40
0.0710205959884292
40
0.142041191976858
40
0.142041191976858
40
0.284082383953717
40
0.284082383953717
40
0.355102979942146
40
0.355102979942146
40
0.426123575930575
40
0.497144171919005
40
0.497144171919005
40
0.568164767907434
40
0.568164767907434
40
0.710205959884292
40
0.710205959884292
40
0.852247151861151
40
0.852247151861151
40
0.99428834383801
40
0.99428834383801
40
1
40
1
40
1
40
1
41
1
10
3.1573105741785
20
0.365148196235253
30
0
41
1
10
3.15732939406323
20
0.466885062800827
30
0
41
1
10
3.15734704123264
20
0.56778820255829
30
0
41
1
10
3.15738040775062
20
0.767918442141166
30
0
41
1
10
3.15739602321625
20
0.866543391033218
30
0
41
1
10
3.1574399517603
20
1.1551998263368
30
0
41
1
10
3.15746558196423
20
1.33935242052951
30
0
41
1
10
3.15750122771641
20
1.60299386597905
30
0
41
1
10
3.15751266792609
20
1.68899261504626
30
0
41
1
10
3.15753450802967
20
1.85284726640344
30
0
41
1
10
3.15755544098948
20
2.00953441786575
30
0
41
1
10
3.15757532755506
20
2.1521470989145
30
0
41
1
10
3.15759499312463
20
2.28762925602777
30
0
41
1
10
3.15760477031705
20
2.35213871322981
30
0
41
1
10
3.1576336692255
20
2.53175330232818
30
0
41
1
10
3.15765233552762
20
2.63280475186713
30
0
41
1
10
3.15768924568906
20
2.79838313769022
30
0
41
1
10
3.15770763764416
20
2.86298195597991
30
0
41
1
10
3.15774162568164
20
2.94917843247416
30
0
41
1
10
3.15775740127736
20
2.97185442379856
30
0
41
1
10
3.15777134239318
20
2.9737212939913
30
0
41
1
10
3.15777187723745
20
2.97375892709175
30
0
41
1
10
3.15777240784394
20
2.9737621167825
30
0
0
SPLINE
5
C3
100
AcDbEntity
8
1
62
256
6
ByLayer
370
18
48
1
60
0
100
AcDbSpline
70
4
71
3
72
12
73
8
40
0
40
0
40
0
40
0
40
0.250000000000072
40
0.250000000000072
40
0.500000000000144
40
0.500000000000144
40
1
40
1
40
1
40
1
41
1
10
44.7426900602446
20
0.757290429715766
30
0
41
1
10
44.7426235982573
20
0.767224467189465
30
0
41
1
10
44.7453202577896
20
0.777154873069492
30
0
41
1
10
44.7560654147165
20
0.794264612077797
30
0
41
1
10
44.7640910929828
20
0.801415106519954
30
0
41
1
10
44.7909432899161
20
0.816947565992109
30
0
41
1
10
44.8120343658791
20
0.820345491752846
30
0
41
1
10
44.8326727437868
20
0.819942112198845
30
0
0
SPLINE
5
C4
100
AcDbEntity
8
1
62
256
6
ByLayer
370
18
48
1
60
0
100
AcDbSpline
70
4
71
3
72
18
73
14
40
0
40
0
40
0
40
0
40
0.083812087902249
40
0.083812087902249
40
0.236510073251874
40
0.236510073251874
40
0.389208058601499
40
0.389208058601499
40
0.69460402930075
40
0.69460402930075
40
0.847302014650375
40
0.847302014650375
40
1
40
1
40
1
40
1
41
1
10
7.07732165881146
20
-2.26297297791587
30
0
41
1
10
6.97087888068486
20
-2.29881262645807
30
0
41
1
10
6.86463691992788
20
-2.33337314898267
30
0
41
1
10
6.5651462294864
20
-2.42703744755502
30
0
41
1
10
6.37269192858849
20
-2.4829389488861
30
0
41
1
10
5.99039344249806
20
-2.58275726704071
30
0
41
1
10
5.80032738600423
20
-2.62637794410816
30
0
41
1
10
5.23222399471283
20
-2.73951117289343
30
0
41
1
10
4.85604310023962
20
-2.79232100105463
30
0
41
1
10
4.29556234067911
20
-2.82663428370776
30
0
41
1
10
4.10892454169286
20
-2.83057601978558
30
0
41
1
10
3.74284224836427
20
-2.8204649520967
30
0
41
1
10
3.56288725939714
20
-2.80653513295036
30
0
41
1
10
3.38766963372945
20
-2.7814739669372
30
0
0
SPLINE
5
C5
100
AcDbEntity
8
1
62
256
6
ByLayer
370
18
48
1
60
0
100
AcDbSpline
70
4
71
3
72
18
73
14
40
0
40
0
40
0
40
0
40
0.107029535999034
40
0.107029535999034
40
0.404686357332689
40
0.404686357332689
40
0.553514767999517
40
0.553514767999517
40
0.702343178666345
40
0.702343178666345
40
0.851171589333172
40
0.851171589333172
40
1
40
1
40
1
40
1
41
1
10
4.08039903110998
20
2.82768481509299
30
0
41
1
10
4.21320200694254
20
2.82778279821355
30
0
41
1
10
4.34744936906517
20
2.82345002123634
30
0
41
1
10
4.85615695130755
20
2.79233534203442
30
0
41
1
10
5.23256815683465
20
2.73945616296316
30
0
41
1
10
5.80067734235894
20
2.62630148018687
30
0
41
1
10
5.99068629116789
20
2.58268411904945
30
0
41
1
10
6.37273512910073
20
2.4829243513575
30
0
41
1
10
6.56475639397542
20
2.42715434853287
30
0
41
1
10
6.95159711816626
20
2.30618176749536
30
0
41
1
10
7.14545677624614
20
2.24112535201786
30
0
41
1
10
7.53484720045304
20
2.1030542897914
30
0
41
1
10
7.73043862382519
20
2.03008608959229
30
0
41
1
10
7.92755886883509
20
1.95495959299959
30
0
0
SPLINE
5
C6
100
AcDbEntity
8
1
62
256
6
ByLayer
370
13
48
1
60
0
100
AcDbSpline
70
4
71
3
72
8
73
4
40
0
40
0
40
0
40
0
40
1
40
1
40
1
40
1
41
1
10
3.1573105741781
20
0.365148196233832
30
0
41
1
10
3.17803867481447
20
0.333009152381663
30
0
41
1
10
3.21393580903293
20
0.304929273842731
30
0
41
1
10
3.26316220041397
20
0.286487372279652
30
0
0
SPLINE
5
C7
100
AcDbEntity
8
1
62
256
6
ByLayer
370
18
48
1
60
0
100
AcDbSpline
70
4
71
3
72
8
73
4
40
0
40
0
40
0
40
0
40
1
40
1
40
1
40
1
41
1
10
3.19767614246342
20
0.263869334243765
30
0
41
1
10
3.21599045854538
20
0.24202453140424
30
0
41
1
10
3.23763251039861
20
0.223350917475329
30
0
41
1
10
3.26316220041397
20
0.208353486521503
30
0
0
SPLINE
5
C8
100
AcDbEntity
8
1
62
256
6
ByLayer
370
18
48
1
60
0
100
AcDbSpline
70
4
71
3
72
8
73
4
40
0
40
0
40
0
40
0
40
1
40
1
40
1
40
1
41
1
10
7.08730176297988
20
2.25220496673916
30
0
41
1
10
7.36928024159545
20
2.33130575479504
30
0
41
1
10
7.6490604319105
20
2.40956250734854
30
0
41
1
10
7.92755886883504
20
2.48351796915807
30
0
0
SPLINE
5
C9
100
AcDbEntity
8
1
62
256
6
ByLayer
370
18
48
1
60
0
100
AcDbSpline
70
4
71
3
72
8
73
4
40
0
40
0
40
0
40
0
40
1
40
1
40
1
40
1
41
1
10
45.8570944797669
20
0.905783637681083
30
0
41
1
10
45.8502412094056
20
0.873610523626468
30
0
41
1
10
45.8429781717749
20
0.841543128701915
30
0
41
1
10
45.8353256964779
20
0.809577267724706
30
0
0
SPLINE
5
CA
100
AcDbEntity
8
1
62
256
6
ByLayer
370
18
48
1
60
0
100
AcDbSpline
70
4
71
3
72
30
73
26
40
0
40
0
40
0
40
0
40
0.250000000000021
40
0.250000000000021
40
0.375000000000027
40
0.375000000000027
40
0.500000000000033
40
0.500000000000033
40
0.62500000000004
40
0.62500000000004
40
0.750000000000046
40
0.750000000000046
40
0.812500000000049
40
0.812500000000049
40
0.843750000000046
40
0.843750000000046
40
0.851562500000044
40
0.851562500000044
40
0.859375000000041
40
0.859375000000041
40
0.867187500000038
40
0.867187500000038
40
0.875000000000036
40
0.875000000000036
40
1
40
1
40
1
40
1
41
1
10
42.1742983559307
20
1.28236732058502
30
0
41
1
10
42.3889686386028
20
1.07292418698634
30
0
41
1
10
42.617047411423
20
0.888257545660707
30
0
41
1
10
42.9812498240687
20
0.652065335183892
30
0
41
1
10
43.1042451472081
20
0.581493447472326
30
0
41
1
10
43.3519447491772
20
0.457504773930623
30
0
41
1
10
43.476885782315
20
0.403924921645341
30
0
41
1
10
43.7292109123636
20
0.315603666940177
30
0
41
1
10
43.8566073102229
20
0.280957117061092
30
0
41
1
10
44.1143172514182
20
0.234158108297578
30
0
41
1
10
44.2424663414686
20
0.222430353217049
30
0
41
1
10
44.4312756946997
20
0.225222360702503
30
0
41
1
10
44.4938792576053
20
0.229574332098622
30
0
41
1
10
44.58645420524
20
0.241780815797142
30
0
41
1
10
44.6170806862289
20
0.246793506701351
30
0
41
1
10
44.6550050471566
20
0.254289312639884
30
0
41
1
10
44.6626180745776
20
0.255699994890819
30
0
41
1
10
44.6776633831058
20
0.259108554254965
30
0
41
1
10
44.6848964465718
20
0.261711165937868
30
0
41
1
10
44.6972420324943
20
0.271012289719522
30
0
41
1
10
44.702343436515
20
0.277686986746431
30
0
41
1
10
44.7072498733685
20
0.294446794188246
30
0
41
1
10
44.7082652934255
20
0.303738791167632
30
0
41
1
10
44.7343270733354
20
0.455991087308803
30
0
41
1
10
44.7437013105219
20
0.606139394857166
30
0
41
1
10
44.7426900602446
20
0.757290429715795
30
0
0
SPLINE
5
CB
100
AcDbEntity
8
1
62
256
6
ByLayer
370
18
48
1
60
0
100
AcDbSpline
70
4
71
3
72
16
73
12
40
0
40
0
40
0
40
0
40
0.14467594026257
40
0.14467594026257
40
0.28935188052514
40
0.28935188052514
40
0.57870376105028
40
0.57870376105028
40
0.86805564157542
40
0.86805564157542
40
1
40
1
40
1
40
1
41
1
10
3.33752258919566
20
0.165295175715244
30
0
41
1
10
3.55673375168124
20
0.0423866071186296
30
0
41
1
10
3.77583459256823
20
-0.0807814668405911
30
0
41
1
10
4.21450855758664
20
-0.326399396875502
30
0
41
1
10
4.43318242793595
20
-0.448331524888403
30
0
41
1
10
5.08614615873208
20
-0.808184275941215
30
0
41
1
10
5.51832582481384
20
-1.0407619331765
30
0
41
1
10
6.38341267973686
20
-1.47944799361576
30
0
41
1
10
6.8161032668946
20
-1.68592465348181
30
0
41
1
10
7.45100731439834
20
-1.96012844992558
30
0
41
1
10
7.65119069858187
20
-2.04244404406782
30
0
41
1
10
7.85068814123633
20
-2.11981874468484
30
0
0
SPLINE
5
CC
100
AcDbEntity
8
1
62
256
6
ByLayer
370
13
48
1
60
0
100
AcDbSpline
70
4
71
3
72
18
73
14
40
0
40
0
40
0
40
0
40
0.0108135421862164
40
0.0108135421862164
40
0.13369367148729
40
0.13369367148729
40
0.625214188691584
40
0.625214188691584
40
0.748094317992658
40
0.748094317992658
40
0.870974447293733
40
0.870974447293733
40
1
40
1
40
1
40
1
41
1
10
7.85068810576607
20
-2.11981873092771
30
0
41
1
10
7.8699380351228
20
-2.12728477917236
30
0
41
1
10
7.88918157786605
20
-2.13470482410477
30
0
41
1
10
8.12699844291288
20
-2.22585876646849
30
0
41
1
10
8.34458682995572
20
-2.30361060580006
30
0
41
1
10
9.42962159081961
20
-2.66045672913043
30
0
41
1
10
10.2883803892229
20
-2.84381288925272
30
0
41
1
10
11.3826871559558
20
-2.92041456038822
30
0
41
1
10
11.6018773720485
20
-2.92800594906288
30
0
41
1
10
12.0373162464558
20
-2.92766557639592
30
0
41
1
10
12.2542443799326
20
-2.91982802035329
30
0
41
1
10
12.69822108555
20
-2.88837488969574
30
0
41
1
10
12.9251553007332
20
-2.86394154050996
30
0
41
1
10
13.1521200175271
20
-2.83142662215712
30
0
0
SPLINE
5
CD
100
AcDbEntity
8
1
62
256
6
ByLayer
370
18
48
1
60
0
100
AcDbSpline
70
4
71
3
72
24
73
20
40
0
40
0
40
0
40
0
40
0.125164713670435
40
0.125164713670435
40
0.2798792309331
40
0.2798792309331
40
0.35723648956443
40
0.35723648956443
40
0.43459374819576
40
0.43459374819576
40
0.589308265458418
40
0.589308265458418
40
0.744022782721075
40
0.744022782721075
40
0.821380041352404
40
0.821380041352404
40
0.898737299983732
40
0.898737299983732
40
1
40
1
40
1
40
1
41
1
10
32.2667715723888
20
2.07067696963796
30
0
41
1
10
32.6181679039112
20
1.9298346981704
30
0
41
1
10
32.9678460537433
20
1.77575606314434
30
0
41
1
10
33.7489087556844
20
1.4061192868399
30
0
41
1
10
34.1807665131429
20
1.18572712024203
30
0
41
1
10
34.8326586388147
20
0.83703470464684
30
0
41
1
10
35.0511194172927
20
0.717769697436211
30
0
41
1
10
35.4887372805329
20
0.475571533652754
30
0
41
1
10
35.7064083349507
20
0.353451754876772
30
0
41
1
10
36.3572472963307
20
-0.0137469456124677
30
0
41
1
10
36.7885414808205
20
-0.259102031228821
30
0
41
1
10
37.6520463919709
20
-0.740016312109788
30
0
41
1
10
38.0840622102965
20
-0.975926818915866
30
0
41
1
10
38.7374209501305
20
-1.31411225331638
30
0
41
1
10
38.9568746926396
20
-1.42433386725344
30
0
41
1
10
39.3929105702596
20
-1.6352260465037
30
0
41
1
10
39.6099635587634
20
-1.73618373275198
30
0
41
1
10
40.1098205967568
20
-1.95787484183924
30
0
41
1
10
40.392262919743
20
-2.07501820754743
30
0
41
1
10
40.6746712865212
20
-2.18253226675003
30
0
0
SPLINE
5
CE
100
AcDbEntity
8
1
62
256
6
ByLayer
370
13
48
1
60
0
100
AcDbSpline
70
4
71
3
72
14
73
10
40
0
40
0
40
0
40
0
40
0.402179669693552
40
0.402179669693552
40
0.551634752270164
40
0.551634752270164
40
0.701089834846776
40
0.701089834846776
40
1
40
1
40
1
40
1
41
1
10
40.6746712859041
20
-2.18253226651513
30
0
41
1
10
41.2552198448336
20
-2.4035495573799
30
0
41
1
10
41.8356249073065
20
-2.58387410248699
30
0
41
1
10
42.6422573359966
20
-2.7623806481862
30
0
41
1
10
42.8610814465083
20
-2.80357598808473
30
0
41
1
10
43.2965296085375
20
-2.87068683553815
30
0
41
1
10
43.5136974265083
20
-2.89672930119775
30
0
41
1
10
44.1648796464091
20
-2.95204142710719
30
0
41
1
10
44.5985518593914
20
-2.95842513926377
30
0
41
1
10
45.03449359891
20
-2.93358164398316
30
0
0
SPLINE
5
CF
100
AcDbEntity
8
1
62
256
6
ByLayer
370
18
48
1
60
0
100
AcDbSpline
70
4
71
3
72
18
73
14
40
0
40
0
40
0
40
0
40
0.276624918970755
40
0.276624918970755
40
0.41493737845613
40
0.41493737845613
40
0.553249837941505
40
0.553249837941505
40
0.829874756912254
40
0.829874756912254
40
0.968187216397631
40
0.968187216397631
40
1
40
1
40
1
40
1
41
1
10
44.5010051970137
20
-2.12163183710419
30
0
41
1
10
44.5435686159015
20
-2.24874409346882
30
0
41
1
10
44.5876152909057
20
-2.35968460865587
30
0
41
1
10
44.6553246386903
20
-2.50282600224233
30
0
41
1
10
44.6781752538484
20
-2.54663070106076
30
0
41
1
10
44.7244214408831
20
-2.62622191171931
30
0
41
1
10
44.747748778193
20
-2.6618353387027
30
0
41
1
10
44.8170583466732
20
-2.75439848294474
30
0
41
1
10
44.8628371578836
20
-2.79806239383868
30
0
41
1
10
44.9311568295647
20
-2.83640632839041
30
0
41
1
10
44.9539587685093
20
-2.84463608918142
30
0
41
1
10
44.981720190898
20
-2.84887108594549
30
0
41
1
10
44.9868971529776
20
-2.84941167041021
30
0
41
1
10
44.992060546781
20
-2.84970063126261
30
0
0
SPLINE
5
D0
100
AcDbEntity
8
1
62
256
6
ByLayer
370
18
48
1
60
0
100
AcDbSpline
70
4
71
3
72
30
73
26
40
0
40
0
40
0
40
0
40
0.0624999999999981
40
0.0624999999999981
40
0.0937499999999974
40
0.0937499999999974
40
0.124999999999997
40
0.124999999999997
40
0.187499999999996
40
0.187499999999996
40
0.249999999999995
40
0.249999999999995
40
0.312499999999995
40
0.312499999999995
40
0.374999999999994
40
0.374999999999994
40
0.499999999999997
40
0.499999999999997
40
0.562499999999996
40
0.562499999999996
40
0.624999999999995
40
0.624999999999995
40
0.749999999999999
40
0.749999999999999
40
1
40
1
40
1
40
1
41
1
10
42.1742983559307
20
1.28236732058485
30
0
41
1
10
42.1566881479309
20
1.19813912057521
30
0
41
1
10
42.1452133876875
20
1.11106993962986
30
0
41
1
10
42.1378690467917
20
0.975896945021589
30
0
41
1
10
42.1370832515903
20
0.929854180083396
30
0
41
1
10
42.1388982269101
20
0.837848907828572
30
0
41
1
10
42.1414757680872
20
0.791774771872554
30
0
41
1
10
42.1540408506574
20
0.653345472436399
30
0
41
1
10
42.1688482462376
20
0.560783957037586
30
0
41
1
10
42.2107216812292
20
0.375136098190268
30
0
41
1
10
42.2379707749515
20
0.281824707380309
30
0
41
1
10
42.3020746311211
20
0.100424961184331
30
0
41
1
10
42.3390634636643
20
0.0115688434538299
30
0
41
1
10
42.4217685724352
20
-0.162884007250142
30
0
41
1
10
42.4676563084151
20
-0.248662822870244
30
0
41
1
10
42.6136770243097
20
-0.495955963832557
30
0
41
1
10
42.7229465062883
20
-0.649701552027182
30
0
41
1
10
42.9004515296127
20
-0.867638413701314
30
0
41
1
10
42.9621574788124
20
-0.938383416310927
30
0
41
1
10
43.0885856605136
20
-1.07469497298763
30
0
41
1
10
43.1531246192707
20
-1.14010838643333
30
0
41
1
10
43.3501894620067
20
-1.32921162681922
30
0
41
1
10
43.4861345415451
20
-1.44582400715703
30
0
41
1
10
43.9050613741236
20
-1.77270248358312
30
0
41
1
10
44.2004844712431
20
-1.96097051410476
30
0
41
1
10
44.5010051970137
20
-2.12163183710419
30
0
0
SPLINE
5
D1
100
AcDbEntity
8
1
62
256
6
ByLayer
370
18
48
1
60
0
100
AcDbSpline
70
4
71
3
72
16
73
12
40
0
40
0
40
0
40
0
40
0.382994819463356
40
0.382994819463356
40
0.574492229195034
40
0.574492229195034
40
0.765989638926712
40
0.765989638926712
40
0.95748704865839
40
0.95748704865839
40
1
40
1
40
1
40
1
41
1
10
7.92755886883509
20
-2.48351796915804
30
0
41
1
10
8.31749368658183
20
-2.60850366953383
30
0
41
1
10
8.7070739290603
20
-2.70813115123988
30
0
41
1
10
9.28606808684336
20
-2.82576180903951
30
0
41
1
10
9.4786394859174
20
-2.85914363716188
30
0
41
1
10
9.8647880042829
20
-2.9135407253342
30
0
41
1
10
10.0580519485268
20
-2.93477069467207
30
0
41
1
10
10.4443832816219
20
-2.96533831136554
30
0
41
1
10
10.6372271417339
20
-2.97461111502321
30
0
41
1
10
10.8743839870485
20
-2.97823806554536
30
0
41
1
10
10.9175126419848
20
-2.97859307708055
30
0
41
1
10
10.9606824171781
20
-2.97864271824568
30
0
0
SPLINE
5
D2
100
AcDbEntity
8
1
62
256
6
ByLayer
370
18
48
1
60
0
100
AcDbSpline
70
4
71
3
72
76
73
72
40
0
40
0
40
0
40
0
40
0.0044198624509865
40
0.0044198624509865
40
0.0333056290587088
40
0.0333056290587088
40
0.0621913956664311
40
0.0621913956664311
40
0.0910771622741533
40
0.0910771622741533
40
0.119962928881876
40
0.119962928881876
40
0.148848695489598
40
0.148848695489598
40
0.177734462097321
40
0.177734462097321
40
0.206620228705044
40
0.206620228705044
40
0.235505995312767
40
0.235505995312767
40
0.26439176192049
40
0.26439176192049
40
0.293277528528213
40
0.293277528528213
40
0.322163295135936
40
0.322163295135936
40
0.351049061743659
40
0.351049061743659
40
0.379934828351382
40
0.379934828351382
40
0.408820594959105
40
0.408820594959105
40
0.437706361566829
40
0.437706361566829
40
0.495477894782273
40
0.495477894782273
40
0.524363661389996
40
0.524363661389996
40
0.553249427997719
40
0.553249427997719
40
0.582135194605442
40
0.582135194605442
40
0.611020961213165
40
0.611020961213165
40
0.639906727820888
40
0.639906727820888
40
0.668792494428611
40
0.668792494428611
40
0.697678261036334
40
0.697678261036334
40
0.726564027644057
40
0.726564027644057
40
0.75544979425178
40
0.75544979425178
40
0.784335560859504
40
0.784335560859504
40
0.813221327467227
40
0.813221327467227
40
0.84210709407495
40
0.84210709407495
40
0.870992860682673
40
0.870992860682673
40
0.899878627290396
40
0.899878627290396
40
0.928764393898119
40
0.928764393898119
40
0.957650160505842
40
0.957650160505842
40
0.986535927113565
40
0.986535927113565
40
1
40
1
40
1
40
1
41
1
10
23.5313206455285
20
2.23157570773776
30
0
41
1
10
23.5608116155318
20
2.24286842241747
30
0
41
1
10
23.590308616167
20
2.25403815655875
30
0
41
1
10
23.8126688189095
20
2.33723024640591
30
0
41
1
10
24.0056829108744
20
2.40432667499525
30
0
41
1
10
24.3914660113169
20
2.52906242754997
30
0
41
1
10
24.5838372150504
20
2.58701492428321
30
0
41
1
10
24.9702522921109
20
2.69138325930643
30
0
41
1
10
25.1643227790174
20
2.73786482435176
30
0
41
1
10
25.5536131162254
20
2.8198305504724
30
0
41
1
10
25.7490125179061
20
2.85550073553026
30
0
41
1
10
26.1387747681005
20
2.91435279398564
30
0
41
1
10
26.3338365770688
20
2.93738443817551
30
0
41
1
10
26.7238714998135
20
2.97119197827075
30
0
41
1
10
26.9187333542936
20
2.98198514521752
30
0
41
1
10
27.3080611428414
20
2.99097580070261
30
0
41
1
10
27.5037902136247
20
2.98907144268935
30
0
41
1
10
27.8938208254587
20
2.97288940875092
30
0
41
1
10
28.0881578480831
20
2.95866948172329
30
0
41
1
10
28.4746971201356
20
2.91774544391581
30
0
41
1
10
28.6673890143203
20
2.891124753383
30
0
41
1
10
29.0533857048757
20
2.8266771039732
30
0
41
1
10
29.2463884769433
20
2.78876418985888
30
0
41
1
10
29.6318162836012
20
2.70111217699369
30
0
41
1
10
29.8240427484294
20
2.65112079354117
30
0
41
1
10
30.2105869182917
20
2.5412033252467
30
0
41
1
10
30.4045619213722
20
2.48108535090378
30
0
41
1
10
30.7933682642149
20
2.34982386461275
30
0
41
1
10
30.9884112609058
20
2.27790670287771
30
0
41
1
10
31.3780524620743
20
2.126200169968
30
0
41
1
10
31.5724802950936
20
2.04658198387395
30
0
41
1
10
31.9599984244399
20
1.87930921999984
30
0
41
1
10
32.1527959931511
20
1.79121984421963
30
0
41
1
10
32.7304711754845
20
1.51656187382304
30
0
41
1
10
33.1166278156206
20
1.32285275634769
30
0
41
1
10
33.6948400151145
20
1.01218548533782
30
0
41
1
10
33.8882641908912
20
0.906640155628338
30
0
41
1
10
34.276879349
20
0.692313999823483
30
0
41
1
10
34.4724217060738
20
0.583081484743104
30
0
41
1
10
34.8621282165551
20
0.36065284664781
30
0
41
1
10
35.0559956637209
20
0.248712507967156
30
0
41
1
10
35.443639317154
20
0.0267272661366178
30
0
41
1
10
35.63710713601
20
-0.0838887787778049
30
0
41
1
10
36.0227585197939
20
-0.30540769860221
30
0
41
1
10
36.2147292322592
20
-0.41666903858939
30
0
41
1
10
36.6000522259194
20
-0.634766407751584
30
0
41
1
10
36.7930680326764
20
-0.742208767518576
30
0
41
1
10
37.1792404602506
20
-0.954857695532183
30
0
41
1
10
37.3720013459796
20
-1.06072419693777
30
0
41
1
10
37.7596078018216
20
-1.26684893048272
30
0
41
1
10
37.9546110699399
20
-1.36716507496976
30
0
41
1
10
38.3455905329536
20
-1.56279059432509
30
0
41
1
10
38.5401961062617
20
-1.65798230586239
30
0
41
1
10
38.929059129901
20
-1.84091397770896
30
0
41
1
10
39.1238788507162
20
-1.92789558816969
30
0
41
1
10
39.5138226894084
20
-2.09371165646985
30
0
41
1
10
39.7089758041393
20
-2.17274172290374
30
0
41
1
10
40.0987254201145
20
-2.3224453646213
30
0
41
1
10
40.2930481413877
20
-2.39174404999176
30
0
41
1
10
40.6809510618557
20
-2.51942314715268
30
0
41
1
10
40.8744299933724
20
-2.57794104434231
30
0
41
1
10
41.259656597937
20
-2.68496512975514
30
0
41
1
10
41.4518896000461
20
-2.73297976004636
30
0
41
1
10
41.837378756632
20
-2.81693109840541
30
0
41
1
10
42.0303285316273
20
-2.85314393718585
30
0
41
1
10
42.4160610967031
20
-2.91422271901044
30
0
41
1
10
42.6086386025698
20
-2.93907602733967
30
0
41
1
10
42.9962944464076
20
-2.97607058225287
30
0
41
1
10
43.1910314819484
20
-2.98842960566802
30
0
41
1
10
43.477480696622
20
-2.99744890932888
30
0
41
1
10
43.5682851896761
20
-2.99894113891153
30
0
41
1
10
43.658967488674
20
-2.9990603209132
30
0
0
SPLINE
5
D3
100
AcDbEntity
8
1
62
256
6
ByLayer
370
18
48
1
60
0
100
AcDbSpline
70
4
71
3
72
8
73
4
40
0
40
0
40
0
40
0
40
1
40
1
40
1
40
1
41
1
10
45.034493598911
20
-2.93358164398319
30
0
41
1
10
45.0278258977548
20
-2.95096865697985
30
0
41
1
10
45.0211491198978
20
-2.96834229176997
30
0
41
1
10
45.0144631913225
20
-2.98570249963086
30
0
0
SPLINE
5
D4
100
AcDbEntity
8
1
62
256
6
ByLayer
370
18
48
1
60
0
100
AcDbSpline
70
4
71
3
72
10
73
6
40
0
40
0
40
0
40
0
40
0.5
40
0.5
40
1
40
1
40
1
40
1
41
1
10
45.1363969512743
20
2.8807564335155
30
0
41
1
10
45.251882896648
20
2.55160628764307
30
0
41
1
10
45.3704590020861
20
2.22193328106715
30
0
41
1
10
45.6118772711089
20
1.56217072965433
30
0
41
1
10
45.7342288893179
20
1.23343183552487
30
0
41
1
10
45.8570944797669
20
0.905783637681083
30
0
0
SPLINE
5
D5
100
AcDbEntity
8
1
62
256
6
ByLayer
370
18
48
1
60
0
100
AcDbSpline
70
4
71
3
72
8
73
4
40
0
40
0
40
0
40
0
40
1
40
1
40
1
40
1
41
1
10
3.26316220041397
20
0.208353486521503
30
0
41
1
10
3.28644098663025
20
0.194297406955911
30
0
41
1
10
3.31158030433082
20
0.179840644398098
30
0
41
1
10
3.33752258919563
20
0.165295175715272
30
0
0
SPLINE
5
D6
100
AcDbEntity
8
1
62
256
6
ByLayer
370
18
48
1
60
0
100
AcDbSpline
70
4
71
3
72
8
73
4
40
0
40
0
40
0
40
0
40
1
40
1
40
1
40
1
41
1
10
45.1231705854947
20
-1.29488982945125
30
0
41
1
10
44.919887127759
20
-1.57493267206169
30
0
41
1
10
44.7119596991897
20
-1.85009852827693
30
0
41
1
10
44.5010051970137
20
-2.12163183710419
30
0
0
SPLINE
5
D7
100
AcDbEntity
8
1
62
256
6
ByLayer
370
18
48
1
60
0
100
AcDbSpline
70
4
71
3
72
14
73
10
40
0
40
0
40
0
40
0
40
0.25
40
0.25
40
0.5
40
0.5
40
0.75
40
0.75
40
1
40
1
40
1
40
1
41
1
10
3.38766963372032
20
-2.78147396693601
30
0
41
1
10
3.36710121214892
20
-2.77853209036579
30
0
41
1
10
3.34592224612177
20
-2.77811074468701
30
0
41
1
10
3.30176398193538
20
-2.7844816188647
30
0
41
1
10
3.27921425051494
20
-2.79132086062361
30
0
41
1
10
3.23548630511556
20
-2.8146697204771
30
0
41
1
10
3.21525678268838
20
-2.83083452290145
30
0
41
1
10
3.18114265718205
20
-2.87011702258403
30
0
41
1
10
3.16754917780833
20
-2.89291136305826
30
0
41
1
10
3.15780118038555
20
-2.91631056334646
30
0
0
SPLINE
5
D8
100
AcDbEntity
8
1
62
256
6
ByLayer
370
18
48
1
60
0
100
AcDbSpline
70
4
71
3
72
8
73
4
40
0
40
0
40
0
40
0
40
1
40
1
40
1
40
1
41
1
10
45.9784451853696
20
-0.0249721644360932
30
0
41
1
10
45.8339621676914
20
-0.260992010960763
30
0
41
1
10
45.6837585317209
20
-0.491198791467667
30
0
41
1
10
45.5297082809595
20
-0.71749679418474
30
0
0
SPLINE
5
D9
100
AcDbEntity
8
1
62
256
6
ByLayer
370
18
48
1
60
0
100
AcDbSpline
70
4
71
3
72
8
73
4
40
0
40
0
40
0
40
0
40
1
40
1
40
1
40
1
41
1
10
45.0144631913225
20
2.98570249963083
30
0
41
1
10
44.8448698824442
20
2.99513082227358
30
0
41
1
10
44.675392692794
20
2.99976668508671
30
0
41
1
10
44.5058650676653
20
2.99962039393412
30
0
0
SPLINE
5
DA
100
AcDbEntity
8
1
62
256
6
ByLayer
370
18
48
1
60
0
100
AcDbSpline
70
4
71
3
72
42
73
38
40
0
40
0
40
0
40
0
40
0.0213445069179078
40
0.0213445069179078
40
0.094071850131891
40
0.094071850131891
40
0.166799193345874
40
0.166799193345874
40
0.203162864952867
40
0.203162864952867
40
0.239526536559859
40
0.239526536559859
40
0.312253879773844
40
0.312253879773844
40
0.384981222987829
40
0.384981222987829
40
0.421344894594821
40
0.421344894594821
40
0.457708566201814
40
0.457708566201814
40
0.603163252629786
40
0.603163252629786
40
0.63952692423678
40
0.63952692423678
40
0.675890595843774
40
0.675890595843774
40
0.748617939057761
40
0.748617939057761
40
0.784981610664755
40
0.784981610664755
40
0.821345282271748
40
0.821345282271748
40
0.894072625485735
40
0.894072625485735
40
0.966799968699721
40
0.966799968699721
40
1
40
1
40
1
40
1
41
1
10
29.7506252317447
20
-2.85133675892399
30
0
41
1
10
29.6226018153928
20
-2.87342314657633
30
0
41
1
10
29.494281877369
20
-2.89297725918075
30
0
41
1
10
28.9270717705231
20
-2.96765899939931
30
0
41
1
10
28.4922864385538
20
-2.99375312472662
30
0
41
1
10
27.6262375888911
20
-2.98384051670701
30
0
41
1
10
27.1943736089176
20
-2.94786013514491
30
0
41
1
10
26.5436186596308
20
-2.84835156722792
30
0
41
1
10
26.3261918579707
20
-2.80759167498295
30
0
41
1
10
25.8894092319779
20
-2.7111364152394
30
0
41
1
10
25.6694903361749
20
-2.65523850849155
30
0
41
1
10
25.0143341304693
20
-2.46803985533774
30
0
41
1
10
24.581279106785
20
-2.31694873803391
30
0
41
1
10
23.7158679121457
20
-1.97070342229571
30
0
41
1
10
23.2835152861683
20
-1.77554908210146
30
0
41
1
10
22.6305787948483
20
-1.4560959089645
30
0
41
1
10
22.4119910041802
20
-1.34511436521106
30
0
41
1
10
21.9732641428718
20
-1.11566437843067
30
0
41
1
10
21.7550461829207
20
-0.998243051810817
30
0
41
1
10
20.6673247602579
20
-0.401822375261361
30
0
41
1
10
19.8081577792396
20
0.10551113124103
30
0
41
1
10
18.7153744045411
20
0.719709559319625
30
0
41
1
10
18.4954574364323
20
0.84161797134982
30
0
41
1
10
18.0587773719314
20
1.07843545477491
30
0
41
1
10
17.8413456260868
20
1.19383307575529
30
0
41
1
10
17.1905295914344
20
1.52913510930006
30
0
41
1
10
16.758496134161
20
1.73793991157478
30
0
41
1
10
16.1083018072418
20
2.02187534692422
30
0
41
1
10
15.8912587814682
20
2.11170268230157
30
0
41
1
10
15.4556231656187
20
2.28036893946768
30
0
41
1
10
15.2365695527452
20
2.35931814356306
30
0
41
1
10
14.5786483098488
20
2.57688110386729
30
0
41
1
10
14.1445363764179
20
2.69462876252109
30
0
41
1
10
13.2780220173501
20
2.87157477979463
30
0
41
1
10
12.8459020053334
20
2.93095539809167
30
0
41
1
10
12.2130037914005
20
2.97251678007481
30
0
41
1
10
12.0142082401473
20
2.97913382605586
30
0
41
1
10
11.8145987759075
20
2.9791709027154
30
0
0
SPLINE
5
DB
100
AcDbEntity
8
1
62
256
6
ByLayer
370
18
48
1
60
0
100
AcDbSpline
70
4
71
3
72
10
73
6
40
0
40
0
40
0
40
0
40
0.5
40
0.5
40
1
40
1
40
1
40
1
41
1
10
45.9933094314574
20
0.0852312882616104
30
0
41
1
10
45.9933600003112
20
0.0775754558786446
30
0
41
1
10
45.9940230456509
20
0.0689774673253112
30
0
41
1
10
45.9962526835398
20
0.0506352289978054
30
0
41
1
10
45.9978476234724
20
0.0407519800968998
30
0
41
1
10
45.9998128644926
20
0.0306331346991158
30
0
0
SPLINE
5
DC
100
AcDbEntity
8
1
62
256
6
ByLayer
370
18
48
1
60
0
100
AcDbSpline
70
4
71
3
72
58
73
54
40
0
40
0
40
0
40
0
40
0.0625000000000042
40
0.0625000000000042
40
0.125000000000008
40
0.125000000000008
40
0.156250000000011
40
0.156250000000011
40
0.171875000000012
40
0.171875000000012
40
0.187500000000013
40
0.187500000000013
40
0.203125000000014
40
0.203125000000014
40
0.218750000000014
40
0.218750000000014
40
0.234375000000015
40
0.234375000000015
40
0.250000000000016
40
0.250000000000016
40
0.265625000000017
40
0.265625000000017
40
0.281250000000018
40
0.281250000000018
40
0.312500000000018
40
0.312500000000018
40
0.343750000000018
40
0.343750000000018
40
0.375000000000018
40
0.375000000000018
40
0.39062500000002
40
0.39062500000002
40
0.39453125000002
40
0.39453125000002
40
0.39843750000002
40
0.39843750000002
40
0.402343750000021
40
0.402343750000021
40
0.406250000000021
40
0.406250000000021
40
0.437500000000021
40
0.437500000000021
40
0.500000000000019
40
0.500000000000019
40
0.562500000000016
40
0.562500000000016
40
0.625000000000014
40
0.625000000000014
40
0.750000000000009
40
0.750000000000009
40
0.875000000000005
40
0.875000000000005
40
1
40
1
40
1
40
1
41
1
10
3.15780118038469
20
-2.91631056334848
30
0
41
1
10
3.01583770647124
20
-2.89464659911962
30
0
41
1
10
2.87742989192057
20
-2.86637730352138
30
0
41
1
10
2.61183858635169
20
-2.79199700878095
30
0
41
1
10
2.48438053225834
20
-2.7462026658369
30
0
41
1
10
2.30919123843873
20
-2.6554353615856
30
0
41
1
10
2.25356286157665
20
-2.62130832050804
30
0
41
1
10
2.17919709636703
20
-2.56390699631083
30
0
41
1
10
2.15583157398152
20
-2.54368082329319
30
0
41
1
10
2.11262253860494
20
-2.50061431682346
30
0
41
1
10
2.09273747825304
20
-2.47768369501003
30
0
41
1
10
2.05811841636674
20
-2.42964428521401
30
0
41
1
10
2.04327744454099
20
-2.40445526321986
30
0
41
1
10
2.01952871152861
20
-2.35137939981601
30
0
41
1
10
2.01058185036203
20
-2.32330180205261
30
0
41
1
10
2.00013501680951
20
-2.26483118451171
30
0
41
1
10
1.99867208035744
20
-2.23485407223143
30
0
41
1
10
2.00377849051489
20
-2.17344492974826
30
0
41
1
10
2.01044592512378
20
-2.14169596956304
30
0
41
1
10
2.03178066486549
20
-2.07842357161167
30
0
41
1
10
2.04629176336488
20
-2.04707730741563
30
0
41
1
10
2.0822839151943
20
-1.98501995228744
30
0
41
1
10
2.10398213330544
20
-1.95407105450113
30
0
41
1
10
2.17664529276541
20
-1.86456919439132
30
0
41
1
10
2.23492949062472
20
-1.80896645341824
30
0
41
1
10
2.36507317848134
20
-1.70386170653046
30
0
41
1
10
2.43600759125943
20
-1.6552069269803
30
0
41
1
10
2.58353281404837
20
-1.56510350213048
30
0
41
1
10
2.6605876492217
20
-1.52334107424355
30
0
41
1
10
2.77982611961352
20
-1.46452830340874
30
0
41
1
10
2.82037192884081
20
-1.44594191731719
30
0
41
1
10
2.87126721329602
20
-1.42248061320328
30
0
41
1
10
2.88164557257267
20
-1.41827280797503
30
0
41
1
10
2.90380185609769
20
-1.41331647189983
30
0
41
1
10
2.91548214695695
20
-1.41202439211963
30
0
41
1
10
2.93843936306061
20
-1.41124423566984
30
0
41
1
10
2.94983264942178
20
-1.41192420451546
30
0
41
1
10
2.97259104640634
20
-1.41363695405246
30
0
41
1
10
2.98397277834613
20
-1.41446135268961
30
0
41
1
10
3.08638958422577
20
-1.42211440802237
30
0
41
1
10
3.1773692535362
20
-1.42989492818484
30
0
41
1
10
3.44980272857762
20
-1.456053011123
30
0
41
1
10
3.63081377805045
20
-1.47725328154652
30
0
41
1
10
3.9916520282982
20
-1.5266204227998
30
0
41
1
10
4.17161568843153
20
-1.55482316026959
30
0
41
1
10
4.52835459561271
20
-1.61712036269464
30
0
41
1
10
4.70537147142522
20
-1.65124782507445
30
0
41
1
10
5.23255173359166
20
-1.7611062277991
30
0
41
1
10
5.57882992114349
20
-1.84435584785012
30
0
41
1
10
6.26243656616697
20
-2.0215992358012
30
0
41
1
10
6.59979016940963
20
-2.11549427418311
30
0
41
1
10
7.26786721194384
20
-2.30281032062754
30
0
41
1
10
7.59860715514353
20
-2.39616460312934
30
0
41
1
10
7.92755886883509
20
-2.48351796915804
30
0
0
SPLINE
5
DD
100
AcDbEntity
8
1
62
256
6
ByLayer
370
18
48
1
60
0
100
AcDbSpline
70
4
71
3
72
70
73
66
40
0
40
0
40
0
40
0
40
0.060004561641361
40
0.060004561641361
40
0.0900068424620415
40
0.0900068424620415
40
0.120009123282722
40
0.120009123282722
40
0.150011404103403
40
0.150011404103403
40
0.180013684924083
40
0.180013684924083
40
0.210015965744764
40
0.210015965744764
40
0.240018246565444
40
0.240018246565444
40
0.270020527386125
40
0.270020527386125
40
0.300022808206805
40
0.300022808206805
40
0.330025089027486
40
0.330025089027486
40
0.360027369848166
40
0.360027369848166
40
0.390029650668847
40
0.390029650668847
40
0.420031931489527
40
0.420031931489527
40
0.450034212310208
40
0.450034212310208
40
0.480036493130888
40
0.480036493130888
40
0.510038773951569
40
0.510038773951569
40
0.540041054772249
40
0.540041054772249
40
0.57004333559293
40
0.57004333559293
40
0.60004561641361
40
0.60004561641361
40
0.660050178054971
40
0.660050178054971
40
0.690052458875652
40
0.690052458875652
40
0.720054739696333
40
0.720054739696333
40
0.750057020517014
40
0.750057020517014
40
0.780059301337695
40
0.780059301337695
40
0.810061582158376
40
0.810061582158376
40
0.840063862979057
40
0.840063862979057
40
0.870066143799738
40
0.870066143799738
40
0.900068424620419
40
0.900068424620419
40
0.9300707054411
40
0.9300707054411
40
0.960072986261781
40
0.960072986261781
40
0.990075267082462
40
0.990075267082462
40
1
40
1
40
1
40
1
41
1
10
7.92755886883509
20
2.48351796915804
30
0
41
1
10
8.31749368658183
20
2.60850366953383
30
0
41
1
10
8.7070739290603
20
2.70813115123988
30
0
41
1
10
9.28606808684339
20
2.82576180903951
30
0
41
1
10
9.4786394859174
20
2.85914363716188
30
0
41
1
10
9.8647880042829
20
2.91354072533423
30
0
41
1
10
10.0580519485268
20
2.93477069467207
30
0
41
1
10
10.4443832816219
20
2.96533831136554
30
0
41
1
10
10.6372271417339
20
2.97461111502321
30
0
41
1
10
11.0253716783226
20
2.9805471909049
30
0
41
1
10
11.2203382901072
20
2.97734905888086
30
0
41
1
10
11.6115195670471
20
2.95835187562631
30
0
41
1
10
11.8060259062456
20
2.94242333000005
30
0
41
1
10
12.194172292555
20
2.89866076521471
30
0
41
1
10
12.3880520925326
20
2.87092575553336
30
0
41
1
10
12.7748556322922
20
2.80381179677383
30
0
41
1
10
12.9674944866561
20
2.76421616269607
30
0
41
1
10
13.3526241163194
20
2.67363721856435
30
0
41
1
10
13.5456556473866
20
2.62310312338602
30
0
41
1
10
13.9322047775653
20
2.51140935383091
30
0
41
1
10
14.1256277118229
20
2.45015604601616
30
0
41
1
10
14.5126360727018
20
2.31624630166971
30
0
41
1
10
14.7070069107922
20
2.24442967314775
30
0
41
1
10
15.0978996554863
20
2.09163264633324
30
0
41
1
10
15.2936800414093
20
2.01075149622156
30
0
41
1
10
15.6817746830159
20
1.84028636811249
30
0
41
1
10
15.875032200489
20
1.75110190513408
30
0
41
1
10
16.2618355637548
20
1.56772910022221
30
0
41
1
10
16.4550714246547
20
1.47311310069432
30
0
41
1
10
16.8406303914772
20
1.2771193259122
30
0
41
1
10
17.0327359107024
20
1.17534524509131
30
0
41
1
10
17.4186788667352
20
0.969243881241653
30
0
41
1
10
17.6121828738114
20
0.864413711927995
30
0
41
1
10
17.9996922780986
20
0.650187869727716
30
0
41
1
10
18.1933043534969
20
0.540053081374623
30
0
41
1
10
18.5829969045495
20
0.318517737149676
30
0
41
1
10
18.7791041771924
20
0.207172672094288
30
0
41
1
10
19.1683900395164
20
-0.0149751808355632
30
0
41
1
10
19.3618944404973
20
-0.126637439801442
30
0
41
1
10
19.9410644403154
20
-0.459597082242737
30
0
41
1
10
20.3274824011155
20
-0.675259900668095
30
0
41
1
10
20.9049467057219
20
-0.993895748869193
30
0
41
1
10
21.0979221813534
20
-1.09782506418355
30
0
41
1
10
21.4852726034088
20
-1.30045493698063
30
0
41
1
10
21.6795281765524
20
-1.39936309372763
30
0
41
1
10
22.0684507494258
20
-1.59346643988044
30
0
41
1
10
22.2639656406435
20
-1.68813719021344
30
0
41
1
10
22.6535474898477
20
-1.86725722932857
30
0
41
1
10
22.8477889762019
20
-1.9524989964516
30
0
41
1
10
23.2346081050652
20
-2.11523750158185
30
0
41
1
10
23.4269655548791
20
-2.19292627384331
30
0
41
1
10
23.8126688189095
20
-2.33723024640591
30
0
41
1
10
24.0056829108744
20
-2.40432667499522
30
0
41
1
10
24.3914660113169
20
-2.52906242754997
30
0
41
1
10
24.5838372150503
20
-2.58701492428321
30
0
41
1
10
24.9702522921109
20
-2.69138325930641
30
0
41
1
10
25.1643227790173
20
-2.73786482435176
30
0
41
1
10
25.5536131162254
20
-2.8198305504724
30
0
41
1
10
25.749012517906
20
-2.85550073553023
30
0
41
1
10
26.1387747681004
20
-2.91435279398564
30
0
41
1
10
26.3338365770688
20
-2.93738443817551
30
0
41
1
10
26.7238714998135
20
-2.97119197827075
30
0
41
1
10
26.9187333542936
20
-2.98198514521752
30
0
41
1
10
27.177791924789
20
-2.98796752414421
30
0
41
1
10
27.2423031613205
20
-2.98875426946481
30
0
41
1
10
27.3068665626936
20
-2.98884842022747
30
0
0
SPLINE
5
DE
100
AcDbEntity
8
1
62
256
6
ByLayer
370
18
48
1
60
0
100
AcDbSpline
70
4
71
3
72
26
73
22
40
0
40
0
40
0
40
0
40
0.0062950739278128
40
0.0062950739278128
40
0.116706732380278
40
0.116706732380278
40
0.227118390832744
40
0.227118390832744
40
0.337530049285209
40
0.337530049285209
40
0.447941707737674
40
0.447941707737674
40
0.558353366190139
40
0.558353366190139
40
0.668765024642605
40
0.668765024642605
40
0.77917668309507
40
0.77917668309507
40
0.889588341547535
40
0.889588341547535
40
1
40
1
40
1
40
1
41
1
10
39.8705158694049
20
2.23474991866343
30
0
41
1
10
39.8816282982187
20
2.23904467199219
30
0
41
1
10
39.8927399075134
20
2.24332589890923
30
0
41
1
10
40.0987254201145
20
2.3224453646213
30
0
41
1
10
40.2930481413876
20
2.39174404999179
30
0
41
1
10
40.6809510618557
20
2.51942314715265
30
0
41
1
10
40.8744299933724
20
2.57794104434228
30
0
41
1
10
41.259656597937
20
2.68496512975517
30
0
41
1
10
41.4518896000461
20
2.73297976004636
30
0
41
1
10
41.837378756632
20
2.81693109840538
30
0
41
1
10
42.0303285316272
20
2.85314393718585
30
0
41
1
10
42.4160610967031
20
2.91422271901044
30
0
41
1
10
42.6086386025698
20
2.93907602733967
30
0
41
1
10
42.9962944464074
20
2.97607058225287
30
0
41
1
10
43.1910314819484
20
2.98842960566802
30
0
41
1
10
43.5817911759098
20
3.00073328868658
30
0
41
1
10
43.7759518781616
20
3.00055531491
30
0
41
1
10
44.1646528388619
20
2.98758288882905
30
0
41
1
10
44.3591926185359
20
2.97490194871989
30
0
41
1
10
44.7480393979324
20
2.9372328968268
30
0
41
1
10
44.9420412448059
20
2.91208500789864
30
0
41
1
10
45.1363969512793
20
2.88075643350098
30
0
0
SPLINE
5
DF
100
AcDbEntity
8
1
62
256
6
ByLayer
370
18
48
1
60
0
100
AcDbSpline
70
4
71
3
72
8
73
4
40
0
40
0
40
0
40
0
40
1
40
1
40
1
40
1
41
1
10
45.8353256964779
20
0.809577267724734
30
0
41
1
10
45.908232000435
20
0.64218117703544
30
0
41
1
10
45.9559883593053
20
0.472753277505348
30
0
41
1
10
45.9821657890767
20
0.301582063675085
30
0
0
SPLINE
5
E0
100
AcDbEntity
8
1
62
256
6
ByLayer
370
18
48
1
60
0
100
AcDbSpline
70
4
71
3
72
14
73
10
40
0
40
0
40
0
40
0
40
0.06779278734787
40
0.06779278734787
40
0.262042842812908
40
0.262042842812908
40
0.456292898277946
40
0.456292898277946
40
1
40
1
40
1
40
1
41
1
10
28.3628522366178
20
-2.83977365824305
30
0
41
1
10
28.2868307339795
20
-2.83974063076536
30
0
41
1
10
28.210705191638
20
-2.83879787092781
30
0
41
1
10
27.915994932294
20
-2.83160838506208
30
0
41
1
10
27.6976425465739
20
-2.81873996252844
30
0
41
1
10
27.2633861102163
20
-2.7785908451188
30
0
41
1
10
27.047015385022
20
-2.75129239381823
30
0
41
1
10
26.2267617798989
20
-2.62118025992129
30
0
41
1
10
25.6255219899565
20
-2.47074499036492
30
0
41
1
10
25.0191807172465
20
-2.2724768711461
30
0
0
SPLINE
5
E1
100
AcDbEntity
8
1
62
256
6
ByLayer
370
13
48
1
60
0
100
AcDbSpline
70
4
71
3
72
24
73
20
40
0
40
0
40
0
40
0
40
0.0935790940119931
40
0.0935790940119931
40
0.249415187167061
40
0.249415187167061
40
0.327333233744595
40
0.327333233744595
40
0.405251280322128
40
0.405251280322128
40
0.561087373477196
40
0.561087373477196
40
0.716923466632264
40
0.716923466632264
40
0.794841513209798
40
0.794841513209798
40
0.872759559787332
40
0.872759559787332
40
1
40
1
40
1
40
1
41
1
10
25.019180717292
20
-2.27247687116099
30
0
41
1
10
24.7590126103477
20
-2.18740425023677
30
0
41
1
10
24.497905277037
20
-2.09352519486327
30
0
41
1
10
23.7977488043681
20
-1.82125779877495
30
0
41
1
10
23.3622500558514
20
-1.63097496486529
30
0
41
1
10
22.7085077482467
20
-1.32266974717902
30
0
41
1
10
22.4903977089461
20
-1.21611533664796
30
0
41
1
10
22.05309440645
20
-0.996630353477002
30
0
41
1
10
21.834581740919
20
-0.883991088965303
30
0
41
1
10
21.1825079401128
20
-0.541916277040912
30
0
41
1
10
20.7506573047892
20
-0.30753000850504
30
0
41
1
10
19.886868923908
20
0.163029043828033
30
0
41
1
10
19.4546411975176
20
0.398663341856377
30
0
41
1
10
18.8019411029794
20
0.745413309266524
30
0
41
1
10
18.5828460123035
20
0.860071786401079
30
0
41
1
10
18.1462907029411
20
1.08308582972484
30
0
41
1
10
17.9289859688554
20
1.19158401438111
30
0
41
1
10
17.3583209688992
20
1.46775287030104
30
0
41
1
10
17.0057962413698
20
1.62919736671725
30
0
41
1
10
16.6530905732899
20
1.77841891689107
30
0
0
SPLINE
5
E2
100
AcDbEntity
8
1
62
256
6
ByLayer
370
18
48
1
60
0
100
AcDbSpline
70
4
71
3
72
8
73
4
40
0
40
0
40
0
40
0
40
1
40
1
40
1
40
1
41
1
10
45.9998128644926
20
-0.0306331347010484
30
0
41
1
10
46.0000625026089
20
-0.010197226115622
30
0
41
1
10
46.0000622293146
20
0.010219598571183
30
0
41
1
10
45.9998128644926
20
0.0306331346990873
30
0
0
SPLINE
5
E3
100
AcDbEntity
8
1
62
256
6
ByLayer
370
18
48
1
60
0
100
AcDbSpline
70
4
71
3
72
8
73
4
40
0
40
0
40
0
40
0
40
1
40
1
40
1
40
1
41
1
10
3.19767614246558
20
0.263869334241178
30
0
41
1
10
3.17295704739692
20
0.292159452812427
30
0
41
1
10
3.15730363683741
20
0.327646181150783
30
0
41
1
10
3.1573105741785
20
0.365148196226585
30
0
0
SPLINE
5
E4
100
AcDbEntity
8
SK1
62
256
6
ByLayer
370
18
48
1
60
0
100
AcDbSpline
70
4
71
3
72
8
73
4
40
0
40
0
40
0
40
0
40
1
40
1
40
1
40
1
41
1
10
-35.4
20
-1.87636146476589
30
0
41
1
10
-35.603765571165
20
-1.56603624403237
30
0
41
1
10
-35.8060886479569
20
-1.25505323100066
30
0
41
1
10
-36
20
-0.940234384805649
30
0
0
SPLINE
5
E5
100
AcDbEntity
8
SK1
62
256
6
ByLayer
370
18
48
1
60
0
100
AcDbSpline
70
4
71
3
72
14
73
10
40
0
40
0
40
0
40
0
40
0.499999999999999
40
0.499999999999999
40
0.749999999999999
40
0.749999999999999
40
0.875
40
0.875
40
1
40
1
40
1
40
1
41
1
10
-35.3999999999999
20
-2.67400519614566
30
0
41
1
10
-35.3787677796885
20
-2.70634085234678
30
0
41
1
10
-35.3584290958895
20
-2.73549596778466
30
0
41
1
10
-35.3303626450498
20
-2.77144535857235
30
0
41
1
10
-35.3215171954455
20
-2.78199002035444
30
0
41
1
10
-35.3102812516991
20
-2.79284002867817
30
0
41
1
10
-35.3068890218584
20
-2.79559039905351
30
0
41
1
10
-35.3017585680987
20
-2.79772402650508
30
0
41
1
10
-35.3
20
-2.79706530795732
30
0
41
1
10
-35.3
20
-2.79337663590758
30
0
0
SPLINE
5
E6
100
AcDbEntity
8
SK1
62
256
6
ByLayer
370
18
48
1
60
0
100
AcDbSpline
70
4
71
3
72
8
73
4
40
0
40
0
40
0
40
0
40
1
40
1
40
1
40
1
41
1
10
-36
20
-1.7378781161849
30
0
41
1
10
-35.8061328140763
20
-2.05262525782732
30
0
41
1
10
-35.6037942847178
20
-2.36363624604385
30
0
41
1
10
-35.4
20
-2.67400519614515
30
0
0
SPLINE
5
E7
100
AcDbEntity
8
SK1
62
256
6
ByLayer
370
18
48
1
60
0
100
AcDbSpline
70
4
71
3
72
14
73
10
40
0
40
0
40
0
40
0
40
0.125
40
0.125
40
0.249999999999999
40
0.249999999999999
40
0.499999999999998
40
0.499999999999998
40
1
40
1
40
1
40
1
41
1
10
-35.3
20
-2.10208540204556
30
0
41
1
10
-35.3
20
-2.09431265799353
30
0
41
1
10
-35.3017593723636
20
-2.0844507749056
30
0
41
1
10
-35.3069353411979
20
-2.06422702210631
30
0
41
1
10
-35.3102739075534
20
-2.05395361228133
30
0
41
1
10
-35.3215583577555
20
-2.0228602993069
30
0
41
1
10
-35.3303095934911
20
-2.00293217559667
30
0
41
1
10
-35.358391202053
20
-1.94437981425313
30
0
41
1
10
-35.378655954467
20
-1.90886742543196
30
0
41
1
10
-35.4
20
-1.87636146476589
30
0
0
LINE
5
76
100
AcDbEntity
8
81
62
256
6
ByLayer
370
18
48
1
60
0
100
AcDbLine
10
46
20
0
30
0
11
51
21
0
31
0
39
0
210
0
220
0
230
1
0
LINE
5
77
100
AcDbEntity
8
1
62
256
6
ByLayer
370
18
48
1
60
0
100
AcDbLine
10
3.157769
20
2.973763
30
0
11
1
21
2.972415
31
0
39
0
210
0
220
0
230
1
0
LINE
5
79
100
AcDbEntity
8
1
62
256
6
ByLayer
370
18
48
1
60
0
100
AcDbLine
10
11.807024
20
2.979169
30
0
11
10.966211
21
2.978644
31
0
39
0
210
0
220
0
230
1
0
LINE
5
7A
100
AcDbEntity
8
1
62
256
6
ByLayer
370
18
48
1
60
0
100
AcDbLine
10
28.157422
20
2.989388
30
0
11
27.314775
21
2.988862
31
0
39
0
210
0
220
0
230
1
0
LINE
5
7B
100
AcDbEntity
8
1
62
256
6
ByLayer
370
18
48
1
60
0
100
AcDbLine
10
44.508225
20
2.999607
30
0
11
43.665188
21
2.999081
31
0
39
0
210
0
220
0
230
1
0
LINE
5
7C
100
AcDbEntity
8
1
62
256
6
ByLayer
370
18
48
1
60
0
100
AcDbLine
10
43.665188
20
-2.999081
30
0
11
44.507776
21
-2.999607
31
0
39
0
210
0
220
0
230
1
0
LINE
5
7D
100
AcDbEntity
8
1
62
256
6
ByLayer
370
18
48
1
60
0
100
AcDbLine
10
27.314775
20
-2.988862
30
0
11
28.157409
21
-2.989388
31
0
39
0
210
0
220
0
230
1
0
LINE
5
7E
100
AcDbEntity
8
1
62
256
6
ByLayer
370
18
48
1
60
0
100
AcDbLine
10
1
20
-2.972415
30
0
11
3.157769
21
-2.973763
31
0
39
0
210
0
220
0
230
1
0
LINE
5
7F
100
AcDbEntity
8
1
62
256
6
ByLayer
370
18
48
1
60
0
100
AcDbLine
10
0
20
-3
30
0
11
1
21
-2.972415
31
0
39
0
210
0
220
0
230
1
0
LINE
5
80
100
AcDbEntity
8
1
62
256
6
ByLayer
370
18
48
1
60
0
100
AcDbLine
10
1
20
2.972415
30
0
11
0
21
3
31
0
39
0
210
0
220
0
230
1
0
LINE
5
81
100
AcDbEntity
8
1
62
256
6
ByLayer
370
18
48
1
60
0
100
AcDbLine
10
10.966211
20
-2.978644
30
0
11
11.807114
21
-2.979169
31
0
39
0
210
0
220
0
230
1
0
LINE
5
82
100
AcDbEntity
8
SK1
62
256
6
ByLayer
370
18
48
1
60
0
100
AcDbLine
10
0
20
3
30
0
11
-35.278312
21
3
31
0
39
0
210
0
220
0
230
1
0
LINE
5
84
100
AcDbEntity
8
SK1
62
256
6
ByLayer
370
18
48
1
60
0
100
AcDbLine
10
-35.278312
20
-3
30
0
11
0
21
-3
31
0
39
0
210
0
220
0
230
1
0
LINE
5
85
100
AcDbEntity
8
SK1
62
256
6
ByLayer
370
18
48
1
60
0
100
AcDbLine
10
-35.278312
20
3
30
0
11
-36
21
1.75
31
0
39
0
210
0
220
0
230
1
0
LINE
5
86
100
AcDbEntity
8
SK1
62
256
6
ByLayer
370
18
48
1
60
0
100
AcDbLine
10
-36
20
-1.75
30
0
11
-35.278312
21
-3
31
0
39
0
210
0
220
0
230
1
0
LINE
5
87
100
AcDbEntity
8
SK4
62
256
6
ByLayer
370
18
48
0.05
60
0
100
AcDbLine
10
51
20
0
30
0
11
-41
21
0
31
0
39
0
210
0
220
0
230
1
0
LINE
5
89
100
AcDbEntity
8
4
62
256
6
ByLayer
370
18
48
0.05
60
0
100
AcDbLine
10
46
20
0
30
0
11
0
21
0
31
0
39
0
210
0
220
0
230
1
0
LINE
5
8B
100
AcDbEntity
8
80
62
256
6
ByLayer
370
18
48
1
60
0
100
AcDbLine
10
0
20
0
30
0
11
-5
21
0
31
0
39
0
210
0
220
0
230
1
0
LINE
5
8C
100
AcDbEntity
8
1
62
256
6
ByLayer
370
13
48
1
60
0
100
AcDbLine
10
44.74269
20
0.75729
30
0
11
45.978445
21
-0.024972
31
0
39
0
210
0
220
0
230
1
0
LINE
5
8D
100
AcDbEntity
8
1
62
256
6
ByLayer
370
18
48
1
60
0
100
AcDbLine
10
0
20
-3
30
0
11
0
21
3
31
0
39
0
210
0
220
0
230
1
0
LINE
5
8E
100
AcDbEntity
8
1
62
256
6
ByLayer
370
13
48
1
60
0
100
AcDbLine
10
44.832673
20
0.819942
30
0
11
45.993309
21
0.085231
31
0
39
0
210
0
220
0
230
1
0
LINE
5
8F
100
AcDbEntity
8
1
62
256
6
ByLayer
370
18
48
1
60
0
100
AcDbLine
10
1
20
2.972415
30
0
11
1
21
-2.972415
31
0
39
0
210
0
220
0
230
1
0
LINE
5
90
100
AcDbEntity
8
SK1
62
256
6
ByLayer
370
18
48
1
60
0
100
AcDbLine
10
-35.3
20
-2.793377
30
0
11
-35.3
21
-2.102085
31
0
39
0
210
0
220
0
230
1
0
LINE
5
91
100
AcDbEntity
8
SK1
62
256
6
ByLayer
370
18
48
1
60
0
100
AcDbLine
10
0
20
-3
30
0
11
0
21
3
31
0
39
0
210
0
220
0
230
1
0
LINE
5
92
100
AcDbEntity
8
SK1
62
256
6
ByLayer
370
18
48
1
60
0
100
AcDbLine
10
-36
20
-1.75
30
0
11
-36
21
-1.737878
31
0
39
0
210
0
220
0
230
1
0
LINE
5
93
100
AcDbEntity
8
SK1
62
256
6
ByLayer
370
18
48
1
60
0
100
AcDbLine
10
-35.278312
20
3
30
0
11
-35.278312
21
-3
31
0
39
0
210
0
220
0
230
1
0
LINE
5
94
100
AcDbEntity
8
SK1
62
256
6
ByLayer
370
13
48
1
60
0
100
AcDbLine
10
-35.4
20
-1.87634
30
0
11
-35.4
21
-2.674005
31
0
39
0
210
0
220
0
230
1
0
LINE
5
95
100
AcDbEntity
8
SK1
62
256
6
ByLayer
370
18
48
1
60
0
100
AcDbLine
10
-36
20
-0.940219
30
0
11
-36
21
-1.737878
31
0
39
0
210
0
220
0
230
1
0
LINE
5
96
100
AcDbEntity
8
SK1
62
256
6
ByLayer
370
18
48
1
60
0
100
AcDbLine
10
-36
20
1.75
30
0
11
-36
21
-0.940234
31
0
39
0
210
0
220
0
230
1
0
MTEXT
5
E8
100
AcDbEntity
8
SK6
62
256
6
ByLayer
370
13
48
1
60
0
100
AcDbMText
10
7.129169
20
35.382694
30
0
210
0
220
0
230
1
1
\W0.7538;460.1-0600-030A1-XM GC34
40
3.5
41
0
44
1.084337
50
0
71
8
72
5
7
iso_b_vert
0
DIMENSION
5
F5
100
AcDbEntity
8
SK2
62
256
6
ByLayer
370
13
48
1
60
0
100
AcDbDimension
2
DimnDraft3D1
10
45.1188
20
-13.213398
30
0
11
21.368859
21
-13.213398
31
0
70
32
71
5
72
1
41
1
210
0
220
0
230
1
3
Standard
100
AcDbAlignedDimension
13
0
23
-1.5875
33
0
14
45.1188
24
-4.5875
34
0
50
0
100
AcDbRotatedDimension
1001
ACAD
1000
DSTYLE
1002
{
1070
   279
1070
     0
1070
   172
1070
     1
1070
   173
1070
     1
1070
   340
1005
E9
1070
   271
1070
     2
1070
   272
1070
     2
1070
    77
1070
     1
1070
    73
1070
     0
1070
   171
1070
     3
1070
   274
1070
     4
1070
   177
1070
    35
1070
   176
1070
    35
1070
   178
1070
    35
1070
    48
1040
-0.005
1070
    41
1041
3.5
1070
   147
1041
1.75
1070
    42
1041
1.5875
1070
    44
1041
2.0
1070
   140
1041
3.5
1070
   343
1005
0
1070
   344
1005
0
1002
}
0
DIMENSION
5
FF
100
AcDbEntity
8
SK2
62
256
6
ByLayer
370
13
48
1
60
0
100
AcDbDimension
2
DimnDraft3D2
10
46
20
-31.692985
30
0
11
5.4601
21
-31.692985
31
0
70
32
71
5
72
1
41
1
210
0
220
0
230
1
3
Standard
100
AcDbAlignedDimension
13
-36
23
-4.5875
33
0
14
46
24
-1.5875
34
0
50
0
100
AcDbRotatedDimension
1001
ACAD
1000
DSTYLE
1002
{
1070
   279
1070
     0
1070
   172
1070
     1
1070
   173
1070
     1
1070
   340
1005
E9
1070
   271
1070
     2
1070
   272
1070
     2
1070
    77
1070
     1
1070
    73
1070
     0
1070
   171
1070
     3
1070
   274
1070
     4
1070
   177
1070
    35
1070
   176
1070
    35
1070
   178
1070
    35
1070
    48
1040
-0.005
1070
    41
1041
3.5
1070
   147
1041
1.75
1070
    42
1041
1.5875
1070
    44
1041
2.0
1070
   140
1041
3.5
1070
   343
1005
0
1070
   344
1005
0
1002
}
0
DIMENSION
5
109
100
AcDbEntity
8
SK2
62
256
6
ByLayer
370
13
48
1
60
0
100
AcDbDimension
2
DimnDraft3D3
10
46
20
14.609119
30
0
11
30.56
21
14.609119
31
0
70
32
71
5
72
1
41
1
210
0
220
0
230
1
3
Standard
100
AcDbAlignedDimension
13
15.12
23
4.5875
33
0
14
46
24
1.5875
34
0
50
0
100
AcDbRotatedDimension
1001
ACAD
1000
DSTYLE
1002
{
1070
   279
1070
     0
1070
   172
1070
     1
1070
   173
1070
     1
1070
   340
1005
E9
1070
   271
1070
     2
1070
   272
1070
     2
1070
    77
1070
     1
1070
    73
1070
     0
1070
   171
1070
     3
1070
   274
1070
     4
1070
   177
1070
    35
1070
   176
1070
    35
1070
   178
1070
    35
1070
    48
1040
-0.005
1070
    41
1041
3.5
1070
   147
1041
1.75
1070
    42
1041
1.5875
1070
    44
1041
2.0
1070
   140
1041
3.5
1070
   343
1005
0
1070
   344
1005
0
1002
}
0
DIMENSION
5
113
100
AcDbEntity
8
SK2
62
256
6
ByLayer
370
13
48
1
60
0
100
AcDbDimension
2
DimnDraft3D4
10
45.1188
20
-15.802503
30
0
11
55.981425
21
-15.802503
31
0
70
32
71
5
72
1
41
1
210
0
220
0
230
1
3
Standard
100
AcDbAlignedDimension
13
46
23
-1.5875
33
0
14
45.1188
24
-4.5875
34
0
50
0
100
AcDbRotatedDimension
1001
ACAD
1000
DSTYLE
1002
{
1070
   279
1070
     0
1070
   172
1070
     1
1070
   173
1070
     1
1070
   340
1005
E9
1070
   271
1070
     2
1070
   272
1070
     2
1070
    77
1070
     1
1070
    73
1070
     0
1070
   171
1070
     3
1070
   274
1070
     4
1070
   177
1070
    35
1070
   176
1070
    35
1070
   178
1070
    35
1070
    48
1040
-0.005
1070
    41
1041
3.5
1070
   147
1041
1.75
1070
    42
1041
1.5875
1070
    44
1041
2.0
1070
   140
1041
3.5
1070
   343
1005
0
1070
   344
1005
0
1002
}
0
DIMENSION
5
11D
100
AcDbEntity
8
SK2
62
256
6
ByLayer
370
13
48
1
60
0
100
AcDbDimension
2
DimnDraft3D5
10
45.1188
20
-21.343428
30
0
11
2.379476
21
-21.343428
31
0
70
32
71
5
72
1
41
1
210
0
220
0
230
1
3
Standard
100
AcDbAlignedDimension
13
-36
23
-4.5875
33
0
14
45.1188
24
-4.5875
34
0
50
0
100
AcDbRotatedDimension
1001
ACAD
1000
DSTYLE
1002
{
1070
   279
1070
     0
1070
   172
1070
     1
1070
   173
1070
     1
1070
   340
1005
E9
1070
   271
1070
     2
1070
   272
1070
     2
1070
    77
1070
     1
1070
    73
1070
     0
1070
   171
1070
     3
1070
   274
1070
     4
1070
   177
1070
    35
1070
   176
1070
    35
1070
   178
1070
    35
1070
    48
1040
-0.005
1070
    41
1041
3.5
1070
   147
1041
1.75
1070
    42
1041
1.5875
1070
    44
1041
2.0
1070
   140
1041
3.5
1070
   343
1005
0
1070
   344
1005
0
1002
}
0
DIMENSION
5
128
100
AcDbEntity
8
SK2
62
256
6
ByLayer
370
13
48
1
60
0
100
AcDbDimension
2
DimnDraft3D6
10
-46.625163
20
3
30
0
11
-47.250163
21
21.47418
31
0
70
33
71
5
72
1
41
1
210
0
220
0
230
1
3
Standard
100
AcDbAlignedDimension
13
-37.5875
23
-3
33
0
14
-37.5875
24
3
34
0
1001
ACAD
1000
DSTYLE
1002
{
1070
   279
1070
     0
1070
    74
1070
     0
1070
   173
1070
     1
1070
   340
1005
E9
1070
   271
1070
     3
1070
   272
1070
     2
1070
    77
1070
     1
1070
    73
1070
     0
1070
   171
1070
     3
1070
   274
1070
     4
1070
   177
1070
    35
1070
   176
1070
    35
1070
   178
1070
    35
1070
    48
1040
-0.005
1070
    41
1041
3.5
1070
   147
1041
1.75
1070
    42
1041
1.5875
1070
    44
1041
2.0
1070
   140
1041
3.5
1070
   343
1005
0
1070
   344
1005
0
1002
}
0
DIMENSION
5
133
100
AcDbEntity
8
2
62
256
6
ByLayer
370
13
48
1
60
0
100
AcDbDimension
2
DimnDraft3D7
10
60.083343
20
3
30
0
11
55.458343
21
20.067266
31
0
70
33
71
5
72
1
41
1
210
0
220
0
230
1
3
Standard
100
AcDbAlignedDimension
13
46.7063
23
-3
33
0
14
46.7063
24
3
34
0
1001
ACAD
1000
DSTYLE
1002
{
1070
   279
1070
     0
1070
    74
1070
     0
1070
   173
1070
     1
1070
   340
1005
E9
1070
   271
1070
     3
1070
   272
1070
     2
1070
    77
1070
     1
1070
    73
1070
     0
1070
   171
1070
     3
1070
   274
1070
     4
1070
   177
1070
    35
1070
   176
1070
    35
1070
   178
1070
    35
1070
    48
1040
-0.005
1070
    41
1041
3.5
1070
   147
1041
1.75
1070
    42
1041
1.5875
1070
    44
1041
2.0
1070
   140
1041
3.5
1070
   343
1005
0
1070
   344
1005
0
1002
}
0
ENDSEC
0
SECTION
2
OBJECTS
0
DICTIONARY
5
19e
330
0
100
AcDbDictionary
280
0
281
1
3
ACAD_GROUP
350
19f
3
ACAD_MLINESTYLE
350
1a0
0
DICTIONARY
5
19f
330
0
100
AcDbDictionary
280
0
281
1
0
DICTIONARY
5
1a0
330
0
100
AcDbDictionary
280
0
281
1
3
Standard
350
18
0
MLINESTYLE
5
18
330
1a0
100
AcDbMlineStyle
2
Standard
70
0
3

62
256
51
90
52
90
71
2
49
-0.5
62
256
6
ByLayer
49
0.5
62
256
6
ByLayer
0
RASTERVARIABLES
5
18c
330

100
AcDbRasterVariables
90
0
70
1
71
1
72
1
0
ENDSEC
0
EOF
