0
SECTION
2
HEADER
9
$ACADVER
1
AC1015
9
$DWGCODEPAGE
3
ANSI_1252
9
$HANDSEED
5
1ab
9
$ANGBASE
50
0
9
$ANGDIR
70
0
9
$ATTMODE
70
1
9
$AUNITS
70
0
9
$AUPREC
70
0
9
$CECOLOR
62
256
9
$CELTSCALE
40
1
9
$CELTYPE
6
ByLayer
9
$CELWEIGHT
370
18
9
$CLAYER
8
0
9
$CMLJUST
70
0
9
$CMLSCALE
40
1
9
$CMLSTYLE
2
Standard
9
$DIMSTYLE
2
Standard
9
$TEXTSIZE
40
0.2
9
$TEXTSTYLE
7
Standard
9
$LUNITS
70
2
9
$LUPREC
70
4
9
$EXTNAMES
290
1
9
$INSUNITS
70
4
9
$LTSCALE
40
1
9
$LWDISPLAY
290
1
9
$PDMODE
70
0
9
$PDSIZE
40
0
9
$PLINEGEN
70
0
0
ENDSEC
0
SECTION
2
CLASSES
0
CLASS
1
RASTERVARIABLES
2
AcDbRasterVariables
3
ISM
90
0
280
0
281
0
0
ENDSEC
0
SECTION
2
TABLES
0
TABLE
2
VPORT
5
1a1
100
AcDbSymbolTable
0
VPORT
5
1
100
AcDbSymbolTableRecord
100
AcDbViewportTableRecord
2
*Active
70
0
10
0
20
0
11
1
21
1
12
-1
22
1
13
0
23
0
14
0.5
24
0.5
15
10
25
10
16
0
26
0
36
1
17
0
27
0
37
0
0
ENDTAB
0
TABLE
2
LTYPE
5
1a2
100
AcDbSymbolTable
0
LTYPE
5
14
100
AcDbSymbolTableRecord
100
AcDbLinetypeTableRecord
70
0
2
ByBlock
3

72
65
73
0
40
0
0
LTYPE
5
15
100
AcDbSymbolTableRecord
100
AcDbLinetypeTableRecord
70
0
2
ByLayer
3

72
65
73
0
40
0
0
LTYPE
5
16
100
AcDbSymbolTableRecord
100
AcDbLinetypeTableRecord
70
0
2
CONTINUOUS
3
Solid line
72
65
73
0
40
0
0
LTYPE
5
6A
100
AcDbSymbolTableRecord
100
AcDbLinetypeTableRecord
70
0
2
CENTER
3
____ _ ____ _ ____ _ ____
72
65
73
4
40
47.5
49
22
74
0
49
-8.5
74
0
49
8.5
74
0
49
-8.5
74
0
0
LTYPE
5
6B
100
AcDbSymbolTableRecord
100
AcDbLinetypeTableRecord
70
0
2
DASHED
3
__ __ __ __ __ __ __ __ __
72
65
73
2
40
25.72
49
12.86
74
0
49
-12.86
74
0
0
ENDTAB
0
TABLE
2
LAYER
5
1a3
100
AcDbSymbolTable
0
LAYER
5
10
100
AcDbSymbolTableRecord
100
AcDbLayerTableRecord
2
0
70
0
62
7
6
CONTINUOUS
290
1
370
-3
390
0
0
LAYER
5
6D
100
AcDbSymbolTableRecord
100
AcDbLayerTableRecord
2
81
70
0
62
-3
6
CONTINUOUS
290
1
370
-3
390
0
0
LAYER
5
6F
100
AcDbSymbolTableRecord
100
AcDbLayerTableRecord
2
80
70
0
62
-6
6
CONTINUOUS
290
1
370
-3
390
0
0
LAYER
5
74
100
AcDbSymbolTableRecord
100
AcDbLayerTableRecord
2
2
70
0
62
7
6
CONTINUOUS
290
1
370
-3
390
0
0
LAYER
5
78
100
AcDbSymbolTableRecord
100
AcDbLayerTableRecord
2
1
70
0
62
4
6
CONTINUOUS
290
1
370
-3
390
0
0
LAYER
5
8A
100
AcDbSymbolTableRecord
100
AcDbLayerTableRecord
2
4
70
0
62
-2
6
CENTER
290
1
370
-3
390
0
0
LAYER
5
18d
100
AcDbSymbolTableRecord
100
AcDbLayerTableRecord
2
SK2
70
0
62
7
6
CONTINUOUS
290
1
370
-3
390
0
0
LAYER
5
18e
100
AcDbSymbolTableRecord
100
AcDbLayerTableRecord
2
SK1
70
0
62
4
6
CONTINUOUS
290
1
370
-3
390
0
0
LAYER
5
18f
100
AcDbSymbolTableRecord
100
AcDbLayerTableRecord
2
SK4
70
0
62
2
6
CENTER
290
1
370
-3
390
0
0
LAYER
5
190
100
AcDbSymbolTableRecord
100
AcDbLayerTableRecord
2
SK6
70
0
62
5
6
CONTINUOUS
290
1
370
-3
390
0
0
ENDTAB
0
TABLE
2
STYLE
5
1a4
100
AcDbSymbolTable
0
STYLE
5
11
100
AcDbSymbolTableRecord
100
AcDbTextStyleTableRecord
2
Standard
3
txt
70
0
71
0
40
0
41
1
42
0
50
0
0
STYLE
5
E9
100
AcDbSymbolTableRecord
100
AcDbTextStyleTableRecord
2
iso_b_vert
3
simplex.shx
70
0
71
0
40
0
41
1
42
0
50
0
0
STYLE
5
EA
100
AcDbSymbolTableRecord
100
AcDbTextStyleTableRecord
2
DWGDirectTextStyle
3
simplex
70
0
71
0
40
0
41
1
42
0
50
0
0
ENDTAB
0
TABLE
2
DIMSTYLE
5
1a5
100
AcDbSymbolTable
100
AcDbDimStyleTable
0
DIMSTYLE
105
27
100
AcDbSymbolTableRecord
100
AcDbDimStyleTableRecord
2
Standard
70
0
3
<>
41
0.18
42
0.0625
44
0.18
140
0.18
147
0.09
73
0
74
0
77
1
271
2
275
0
278
52
280
0
340
11
0
ENDTAB
0
TABLE
2
VIEW
5
1a6
100
AcDbSymbolTable
0
ENDTAB
0
TABLE
2
UCS
5
1a7
100
AcDbSymbolTable
0
ENDTAB
0
TABLE
2
APPID
5
1a8
100
AcDbSymbolTable
0
APPID
5
12
100
AcDbSymbolTableRecord
100
AcDbRegAppTableRecord
2
ACAD
70
0
0
ENDTAB
0
TABLE
2
BLOCK_RECORD
5
1a9
100
AcDbSymbolTable
0
BLOCK_RECORD
5
1F
100
AcDbSymbolTableRecord
100
AcDbBlockTableRecord
2
*Model_Space
340
0
70
0
0
BLOCK_RECORD
5
1B
100
AcDbSymbolTableRecord
100
AcDbBlockTableRecord
2
*Paper_Space
340
0
70
0
0
BLOCK_RECORD
5
23
100
AcDbSymbolTableRecord
100
AcDbBlockTableRecord
2
*Paper_Space0
340
0
70
0
0
BLOCK_RECORD
5
EC
100
AcDbSymbolTableRecord
100
AcDbBlockTableRecord
2
DimnDraft3D1
340
0
70
0
0
BLOCK_RECORD
5
F6
100
AcDbSymbolTableRecord
100
AcDbBlockTableRecord
2
DimnDraft3D2
340
0
70
0
0
BLOCK_RECORD
5
100
100
AcDbSymbolTableRecord
100
AcDbBlockTableRecord
2
DimnDraft3D3
340
0
70
0
0
BLOCK_RECORD
5
10A
100
AcDbSymbolTableRecord
100
AcDbBlockTableRecord
2
DimnDraft3D4
340
0
70
0
0
BLOCK_RECORD
5
114
100
AcDbSymbolTableRecord
100
AcDbBlockTableRecord
2
DimnDraft3D5
340
0
70
0
0
BLOCK_RECORD
5
11E
100
AcDbSymbolTableRecord
100
AcDbBlockTableRecord
2
DimnDraft3D6
340
0
70
0
0
BLOCK_RECORD
5
129
100
AcDbSymbolTableRecord
100
AcDbBlockTableRecord
2
DimnDraft3D7
340
0
70
0
0
ENDTAB
0
ENDSEC
0
SECTION
2
BLOCKS
0
BLOCK
5
20
100
AcDbEntity
8
0
100
AcDbBlockBegin
2
*Model_Space
70
0
10
0
20
0
30
0
3
*Model_Space
0
ENDBLK
5
21
100
AcDbEntity
8
0
100
AcDbBlockEnd
0
BLOCK
5
1C
100
AcDbEntity
8
0
100
AcDbBlockBegin
2
*Paper_Space
70
0
10
0
20
0
30
0
3
*Paper_Space
0
ENDBLK
5
1D
100
AcDbEntity
8
0
100
AcDbBlockEnd
0
BLOCK
5
24
100
AcDbEntity
8
0
100
AcDbBlockBegin
2
*Paper_Space0
70
0
10
0
20
0
30
0
3
*Paper_Space0
0
ENDBLK
5
25
100
AcDbEntity
8
0
100
AcDbBlockEnd
0
BLOCK
5
F3
100
AcDbEntity
8
0
100
AcDbBlockBegin
2
DimnDraft3D1
70
0
10
0
20
0
30
0
3
DimnDraft3D1
0
MTEXT
5
ED
100
AcDbEntity
8
SK2
62
256
6
ByLayer
370
13
48
1
60
0
100
AcDbMText
10
17.180964
20
-12.314898
30
0
210
0
220
0
230
1
1
\W0.6977;45,13
40
3.5
41
0
44
1.084337
50
0
71
7
72
5
7
iso_b_vert
0
LINE
5
EE
100
AcDbEntity
8
SK2
62
256
6
ByLayer
370
13
48
1
60
0
100
AcDbLine
10
0
20
-1.5875
30
0
11
0
21
-15.189898
31
0
39
0
210
0
220
0
230
1
0
LINE
5
EF
100
AcDbEntity
8
SK2
62
256
6
ByLayer
370
13
48
1
60
0
100
AcDbLine
10
45.1263
20
-4.564
30
0
11
45.1263
21
-15.189898
31
0
39
0
210
0
220
0
230
1
0
LINE
5
F0
100
AcDbEntity
8
SK2
62
256
6
ByLayer
370
13
48
1
60
0
100
AcDbLine
10
0
20
-13.189898
30
0
11
45.1263
21
-13.189898
31
0
39
0
210
0
220
0
230
1
0
SOLID
5
F1
100
AcDbEntity
8
SK2
62
256
6
ByLayer
370
13
48
1
60
0
100
AcDbTrace
10
0
20
-13.189898
30
0
11
3.499998
21
-12.729115
31
0
12
3.500002
22
-13.650682
32
0
13
0
23
-13.189898
33
0
39
0
210
0
220
0
230
1
0
SOLID
5
F2
100
AcDbEntity
8
SK2
62
256
6
ByLayer
370
13
48
1
60
0
100
AcDbTrace
10
45.1263
20
-13.189898
30
0
11
41.626302
21
-13.650682
31
0
12
41.626298
22
-12.729115
32
0
13
45.1263
23
-13.189898
33
0
39
0
210
0
220
0
230
1
0
ENDBLK
5
F4
100
AcDbEntity
8
0
100
AcDbBlockEnd
0
BLOCK
5
FD
100
AcDbEntity
8
0
100
AcDbBlockBegin
2
DimnDraft3D2
70
0
10
0
20
0
30
0
3
DimnDraft3D2
0
MTEXT
5
F7
100
AcDbEntity
8
SK2
62
256
6
ByLayer
370
13
48
1
60
0
100
AcDbMText
10
1.018916
20
-30.817985
30
0
210
0
220
0
230
1
1
\W0.7317;82,00
40
3.5
41
0
44
1.084337
50
0
71
7
72
5
7
iso_b_vert
0
LINE
5
F8
100
AcDbEntity
8
SK2
62
256
6
ByLayer
370
13
48
1
60
0
100
AcDbLine
10
-36
20
-4.5875
30
0
11
-36
21
-33.692985
31
0
39
0
210
0
220
0
230
1
0
LINE
5
F9
100
AcDbEntity
8
SK2
62
256
6
ByLayer
370
13
48
1
60
0
100
AcDbLine
10
46
20
-1.5875
30
0
11
46
21
-33.692985
31
0
39
0
210
0
220
0
230
1
0
LINE
5
FA
100
AcDbEntity
8
SK2
62
256
6
ByLayer
370
13
48
1
60
0
100
AcDbLine
10
-36
20
-31.692985
30
0
11
46
21
-31.692985
31
0
39
0
210
0
220
0
230
1
0
SOLID
5
FB
100
AcDbEntity
8
SK2
62
256
6
ByLayer
370
13
48
1
60
0
100
AcDbTrace
10
-36
20
-31.692985
30
0
11
-32.500002
21
-31.232202
31
0
12
-32.499998
22
-32.153769
32
0
13
-36
23
-31.692985
33
0
39
0
210
0
220
0
230
1
0
SOLID
5
FC
100
AcDbEntity
8
SK2
62
256
6
ByLayer
370
13
48
1
60
0
100
AcDbTrace
10
46
20
-31.692985
30
0
11
42.500002
21
-32.153769
31
0
12
42.499998
22
-31.232202
32
0
13
46
23
-31.692985
33
0
39
0
210
0
220
0
230
1
0
ENDBLK
5
FE
100
AcDbEntity
8
0
100
AcDbBlockEnd
0
BLOCK
5
107
100
AcDbEntity
8
0
100
AcDbBlockBegin
2
DimnDraft3D3
70
0
10
0
20
0
30
0
3
DimnDraft3D3
0
MTEXT
5
101
100
AcDbEntity
8
SK2
62
256
6
ByLayer
370
13
48
1
60
0
100
AcDbMText
10
26.241316
20
15.460619
30
0
210
0
220
0
230
1
1
\W0.7317;30,62
40
3.5
41
0
44
1.084337
50
0
71
7
72
5
7
iso_b_vert
0
LINE
5
102
100
AcDbEntity
8
SK2
62
256
6
ByLayer
370
13
48
1
60
0
100
AcDbLine
10
15.38
20
4.564
30
0
11
15.38
21
16.585619
31
0
39
0
210
0
220
0
230
1
0
LINE
5
103
100
AcDbEntity
8
SK2
62
256
6
ByLayer
370
13
48
1
60
0
100
AcDbLine
10
46
20
1.5875
30
0
11
46
21
16.585619
31
0
39
0
210
0
220
0
230
1
0
LINE
5
104
100
AcDbEntity
8
SK2
62
256
6
ByLayer
370
13
48
1
60
0
100
AcDbLine
10
15.38
20
14.585619
30
0
11
46
21
14.585619
31
0
39
0
210
0
220
0
230
1
0
SOLID
5
105
100
AcDbEntity
8
SK2
62
256
6
ByLayer
370
13
48
1
60
0
100
AcDbTrace
10
15.38
20
14.585619
30
0
11
18.879998
21
15.046403
31
0
12
18.880002
22
14.124835
32
0
13
15.38
23
14.585619
33
0
39
0
210
0
220
0
230
1
0
SOLID
5
106
100
AcDbEntity
8
SK2
62
256
6
ByLayer
370
13
48
1
60
0
100
AcDbTrace
10
46
20
14.585619
30
0
11
42.500002
21
14.124835
31
0
12
42.499998
22
15.046403
32
0
13
46
23
14.585619
33
0
39
0
210
0
220
0
230
1
0
ENDBLK
5
108
100
AcDbEntity
8
0
100
AcDbBlockEnd
0
BLOCK
5
111
100
AcDbEntity
8
0
100
AcDbBlockBegin
2
DimnDraft3D4
70
0
10
0
20
0
30
0
3
DimnDraft3D4
0
MTEXT
5
10B
100
AcDbEntity
8
SK2
62
256
6
ByLayer
370
13
48
1
60
0
100
AcDbMText
10
52.840636
20
-14.904003
30
0
210
0
220
0
230
1
1
\W0.7150;0,87
40
3.5
41
0
44
1.084337
50
0
71
7
72
5
7
iso_b_vert
0
LINE
5
10C
100
AcDbEntity
8
SK2
62
256
6
ByLayer
370
13
48
1
60
0
100
AcDbLine
10
46
20
-1.5875
30
0
11
46
21
-17.779003
31
0
39
0
210
0
220
0
230
1
0
LINE
5
10D
100
AcDbEntity
8
SK2
62
256
6
ByLayer
370
13
48
1
60
0
100
AcDbLine
10
45.1263
20
-4.564
30
0
11
45.1263
21
-17.779003
31
0
39
0
210
0
220
0
230
1
0
LINE
5
10E
100
AcDbEntity
8
SK2
62
256
6
ByLayer
370
13
48
1
60
0
100
AcDbLine
10
36.3763
20
-15.779003
30
0
11
59.997215
21
-15.779003
31
0
39
0
210
0
220
0
230
1
0
SOLID
5
10F
100
AcDbEntity
8
SK2
62
256
6
ByLayer
370
13
48
1
60
0
100
AcDbTrace
10
46
20
-15.779003
30
0
11
49.499998
21
-15.318219
31
0
12
49.500002
22
-16.239787
32
0
13
46
23
-15.779003
33
0
39
0
210
0
220
0
230
1
0
SOLID
5
110
100
AcDbEntity
8
SK2
62
256
6
ByLayer
370
13
48
1
60
0
100
AcDbTrace
10
45.1263
20
-15.779003
30
0
11
41.626302
21
-16.239787
31
0
12
41.626298
22
-15.318219
32
0
13
45.1263
23
-15.779003
33
0
39
0
210
0
220
0
230
1
0
ENDBLK
5
112
100
AcDbEntity
8
0
100
AcDbBlockEnd
0
BLOCK
5
11B
100
AcDbEntity
8
0
100
AcDbBlockBegin
2
DimnDraft3D5
70
0
10
0
20
0
30
0
3
DimnDraft3D5
0
MTEXT
5
115
100
AcDbEntity
8
SK2
62
256
6
ByLayer
370
13
48
1
60
0
100
AcDbMText
10
-1.186708
20
-20.468428
30
0
210
0
220
0
230
1
1
\W0.6110;81,13
40
3.5
41
0
44
1.084337
50
0
71
7
72
5
7
iso_b_vert
0
LINE
5
116
100
AcDbEntity
8
SK2
62
256
6
ByLayer
370
13
48
1
60
0
100
AcDbLine
10
-36
20
-4.5875
30
0
11
-36
21
-23.343428
31
0
39
0
210
0
220
0
230
1
0
LINE
5
117
100
AcDbEntity
8
SK2
62
256
6
ByLayer
370
13
48
1
60
0
100
AcDbLine
10
45.1263
20
-4.564
30
0
11
45.1263
21
-23.343428
31
0
39
0
210
0
220
0
230
1
0
LINE
5
118
100
AcDbEntity
8
SK2
62
256
6
ByLayer
370
13
48
1
60
0
100
AcDbLine
10
-36
20
-21.343428
30
0
11
45.1263
21
-21.343428
31
0
39
0
210
0
220
0
230
1
0
SOLID
5
119
100
AcDbEntity
8
SK2
62
256
6
ByLayer
370
13
48
1
60
0
100
AcDbTrace
10
-36
20
-21.343428
30
0
11
-32.500002
21
-20.882645
31
0
12
-32.499998
22
-21.804212
32
0
13
-36
23
-21.343428
33
0
39
0
210
0
220
0
230
1
0
SOLID
5
11A
100
AcDbEntity
8
SK2
62
256
6
ByLayer
370
13
48
1
60
0
100
AcDbTrace
10
45.1263
20
-21.343428
30
0
11
41.626302
21
-21.804212
31
0
12
41.626298
22
-20.882645
32
0
13
45.1263
23
-21.343428
33
0
39
0
210
0
220
0
230
1
0
ENDBLK
5
11C
100
AcDbEntity
8
0
100
AcDbBlockEnd
0
BLOCK
5
126
100
AcDbEntity
8
0
100
AcDbBlockBegin
2
DimnDraft3D6
70
0
10
0
20
0
30
0
3
DimnDraft3D6
0
MTEXT
5
11F
100
AcDbEntity
8
SK2
62
256
6
ByLayer
370
13
48
1
60
0
100
AcDbMText
10
-46.375163
20
22.34918
30
0
210
0
220
0
230
1
1
\W0.7317;6,000
40
3.5
41
0
44
1.084337
50
90
71
7
72
5
7
iso_b_vert
0
MTEXT
5
120
100
AcDbEntity
8
SK2
62
256
6
ByLayer
370
13
48
1
60
0
100
AcDbMText
10
-46.375163
20
17.126524
30
0
210
0
220
0
230
1
1
%%c
40
3.5
41
0
44
1.084337
50
90
71
7
72
5
7
iso_b_vert
0
LINE
5
121
100
AcDbEntity
8
SK2
62
256
6
ByLayer
370
13
48
1
60
0
100
AcDbLine
10
-37.5875
20
-3
30
0
11
-46.625163
21
-3
31
0
39
0
210
0
220
0
230
1
0
LINE
5
122
100
AcDbEntity
8
SK2
62
256
6
ByLayer
370
13
48
1
60
0
100
AcDbLine
10
-37.5875
20
3
30
0
11
-46.625163
21
3
31
0
39
0
210
0
220
0
230
1
0
LINE
5
123
100
AcDbEntity
8
SK2
62
256
6
ByLayer
370
13
48
1
60
0
100
AcDbLine
10
-44.625163
20
32.121549
30
0
11
-44.625163
21
-11.75
31
0
39
0
210
0
220
0
230
1
0
SOLID
5
124
100
AcDbEntity
8
SK2
62
256
6
ByLayer
370
13
48
1
60
0
100
AcDbTrace
10
-44.625163
20
-3
30
0
11
-44.164379
21
-6.499998
31
0
12
-45.085946
22
-6.500002
32
0
13
-44.625163
23
-3
33
0
39
0
210
0
220
0
230
1
0
SOLID
5
125
100
AcDbEntity
8
SK2
62
256
6
ByLayer
370
13
48
1
60
0
100
AcDbTrace
10
-44.625163
20
3
30
0
11
-45.085946
21
6.499998
31
0
12
-44.164379
22
6.500002
32
0
13
-44.625163
23
3
33
0
39
0
210
0
220
0
230
1
0
ENDBLK
5
127
100
AcDbEntity
8
0
100
AcDbBlockEnd
0
BLOCK
5
131
100
AcDbEntity
8
0
100
AcDbBlockBegin
2
DimnDraft3D7
70
0
10
0
20
0
30
0
3
DimnDraft3D7
0
MTEXT
5
12A
100
AcDbEntity
8
2
62
256
6
ByLayer
370
13
48
1
60
0
100
AcDbMText
10
56.333343
20
20.918766
30
0
210
0
220
0
230
1
1
\W0.7317;5,953
40
3.5
41
0
44
1.084337
50
90
71
7
72
5
7
iso_b_vert
0
MTEXT
5
12B
100
AcDbEntity
8
2
62
256
6
ByLayer
370
13
48
1
60
0
100
AcDbMText
10
56.333343
20
15.69611
30
0
210
0
220
0
230
1
1
%%c
40
3.5
41
0
44
1.084337
50
90
71
7
72
5
7
iso_b_vert
0
LINE
5
12C
100
AcDbEntity
8
2
62
256
6
ByLayer
370
13
48
1
60
0
100
AcDbLine
10
46.7138
20
-2.9765
30
0
11
60.083343
21
-2.9765
31
0
39
0
210
0
220
0
230
1
0
LINE
5
12D
100
AcDbEntity
8
2
62
256
6
ByLayer
370
13
48
1
60
0
100
AcDbLine
10
46.7138
20
2.9765
30
0
11
60.083343
21
2.9765
31
0
39
0
210
0
220
0
230
1
0
LINE
5
12E
100
AcDbEntity
8
2
62
256
6
ByLayer
370
13
48
1
60
0
100
AcDbLine
10
58.083343
20
30.691135
30
0
11
58.083343
21
-11.7265
31
0
39
0
210
0
220
0
230
1
0
SOLID
5
12F
100
AcDbEntity
8
2
62
256
6
ByLayer
370
13
48
1
60
0
100
AcDbTrace
10
58.083343
20
-2.9765
30
0
11
58.544126
21
-6.476498
31
0
12
57.622559
22
-6.476502
32
0
13
58.083343
23
-2.9765
33
0
39
0
210
0
220
0
230
1
0
SOLID
5
130
100
AcDbEntity
8
2
62
256
6
ByLayer
370
13
48
1
60
0
100
AcDbTrace
10
58.083343
20
2.9765
30
0
11
57.622559
21
6.476498
31
0
12
58.544126
22
6.476502
32
0
13
58.083343
23
2.9765
33
0
39
0
210
0
220
0
230
1
0
ENDBLK
5
132
100
AcDbEntity
8
0
100
AcDbBlockEnd
0
ENDSEC
0
SECTION
2
ENTITIES
0
ELLIPSE
5
98
100
AcDbEntity
8
1
62
256
6
ByLayer
370
18
48
1
60
0
100
AcDbEllipse
10
3.393373
20
3.05295
30
0
11
-0.25
21
3.06151588455594E-17
31
0
210
0
220
0
230
1
40
1
41
0.439636789800664
42
1.57752189664208
0
ELLIPSE
5
99
100
AcDbEntity
8
1
62
256
6
ByLayer
370
18
48
1
60
0
100
AcDbEllipse
10
3.393373
20
-3.05295
30
0
11
-0.25
21
3.06151588455594E-17
31
0
210
0
220
0
230
1
40
1
41
-1.57515145331223
42
-0.440054233713311
0
ELLIPSE
5
9A
100
AcDbEntity
8
1
62
256
6
ByLayer
370
13
48
1
60
0
100
AcDbEllipse
10
3.319952
20
0.293947
30
0
11
0.0513426164278553
21
0.0858133773857091
31
0
210
0
220
0
230
1
40
0.396895
41
1.90315834127355
42
-3.0745848599781
0
ELLIPSE
5
9B
100
AcDbEntity
8
1
62
256
6
ByLayer
370
13
48
1
60
0
100
AcDbEllipse
10
3.39362
20
0.251689
30
0
11
0.0485569624905019
21
0.0874197997806904
31
0
210
0
220
0
230
1
40
0.043455
41
3.09254074334255
42
-1.6454916716262
0
POINT
5
6C
100
AcDbEntity
8
81
62
256
6
ByLayer
370
18
48
1
60
0
100
AcDbPoint
10
46
20
0
30
0
39
0
210
0
220
0
230
1
50
360
0
POINT
5
6E
100
AcDbEntity
8
80
62
256
6
ByLayer
370
18
48
1
60
0
100
AcDbPoint
10
0
20
0
30
0
39
0
210
0
220
0
230
1
50
360
0
POINT
5
70
100
AcDbEntity
8
SK2
62
256
6
ByLayer
370
18
48
1
60
1
100
AcDbPoint
10
-36
20
-3
30
0
39
0
210
0
220
0
230
1
50
360
0
POINT
5
72
100
AcDbEntity
8
SK2
62
256
6
ByLayer
370
18
48
1
60
1
100
AcDbPoint
10
-36
20
3
30
0
39
0
210
0
220
0
230
1
50
360
0
POINT
5
73
100
AcDbEntity
8
2
62
256
6
ByLayer
370
18
48
1
60
1
100
AcDbPoint
10
45.1263
20
-2.9765
30
0
39
0
210
0
220
0
230
1
50
360
0
POINT
5
75
100
AcDbEntity
8
2
62
256
6
ByLayer
370
18
48
1
60
1
100
AcDbPoint
10
45.1263
20
2.9765
30
0
39
0
210
0
220
0
230
1
50
360
0
SPLINE
5
9C
100
AcDbEntity
8
1
62
256
6
ByLayer
370
18
48
1
60
0
100
AcDbSpline
70
4
71
3
72
21
73
17
40
0
40
0
40
0
40
0
40
0.0354972154928458
40
0.121006035951625
40
0.190982431614216
40
0.252623141924988
40
0.305045152266957
40
0.362764037158283
40
0.445431773077211
40
0.524473684751752
40
0.581319905552671
40
0.650777388407536
40
0.726029435375847
40
0.819536329806019
40
0.929869178650525
40
1
40
1
40
1
40
1
41
1
10
36.6525306656113
20
2.81904406480416
30
0
41
1
10
36.5754632196909
20
2.81803845320502
30
0
41
1
10
36.3105933723178
20
2.81537068707226
30
0
41
1
10
35.8573473269092
20
2.80902177225923
30
0
41
1
10
35.3739184033973
20
2.82065544090025
30
0
41
1
10
34.9567055885155
20
2.82041461236872
30
0
41
1
10
34.5619751378771
20
2.82070584884355
30
0
41
1
10
34.1172467935705
20
2.82198571616598
30
0
41
1
10
33.6115551361682
20
2.82015446951374
30
0
41
1
10
33.1077367956817
20
2.8201065553566
30
0
41
1
10
32.6344016076643
20
2.82067412913526
30
0
41
1
10
32.1698035562324
20
2.81894774792909
30
0
41
1
10
31.620757424526
20
2.82008840661695
30
0
41
1
10
30.9774559226599
20
2.81838443454652
30
0
41
1
10
30.3459249883452
20
2.81921225596489
30
0
41
1
10
29.9299526584836
20
2.81849528334126
30
0
41
1
10
29.76843596132
20
2.81830760034774
30
0
0
SPLINE
5
9D
100
AcDbEntity
8
1
62
256
6
ByLayer
370
18
48
1
60
0
100
AcDbSpline
70
4
71
2
72
6
73
3
40
0
40
0
40
0
40
1
40
1
40
1
41
1
10
4.07982685201637
20
2.80511305296867
30
0
41
1
10
3.73732467219588
20
2.80516918167117
30
0
41
1
10
3.39477135091124
20
2.8026978180003
30
0
0
SPLINE
5
9E
100
AcDbEntity
8
1
62
256
6
ByLayer
370
18
48
1
60
0
100
AcDbSpline
70
4
71
3
72
21
73
17
40
0
40
0
40
0
40
0
40
0.11337034771412
40
0.211820138134139
40
0.294976596675909
40
0.356442142055652
40
0.398217033971899
40
0.453399513987095
40
0.531388468781672
40
0.611106885707786
40
0.679067625733805
40
0.741473586870302
40
0.812550706198213
40
0.888537207996316
40
0.968696938819329
40
1
40
1
40
1
40
1
41
1
10
11.9739081233882
20
-2.80693659109005
30
0
41
1
10
12.2811974916891
20
-2.80662474425054
30
0
41
1
10
12.8559839254657
20
-2.80646292735531
30
0
41
1
10
13.6628809550721
20
-2.80628989356194
30
0
41
1
10
14.3217379226848
20
-2.80850580258635
30
0
41
1
10
14.8284571878832
20
-2.81014288251467
30
0
41
1
10
15.2607519796147
20
-2.80942914703923
30
0
41
1
10
15.7379665403636
20
-2.80978828613402
30
0
41
1
10
16.3187420558465
20
-2.81112263260582
30
0
41
1
10
16.9344014420668
20
-2.81005289046462
30
0
41
1
10
17.50751768889
20
-2.81282276925722
30
0
41
1
10
18.0569190857602
20
-2.81016677968174
30
0
41
1
10
18.6284274997405
20
-2.81410675864314
30
0
41
1
10
19.2481297181095
20
-2.81155265780816
30
0
41
1
10
19.758523093069
20
-2.81316066776805
30
0
41
1
10
20.0618653271688
20
-2.81318406900752
30
0
41
1
10
20.147036881861
20
-2.81319987536367
30
0
0
SPLINE
5
9F
100
AcDbEntity
8
1
62
256
6
ByLayer
370
18
48
1
60
0
100
AcDbSpline
70
4
71
2
72
6
73
3
40
0
40
0
40
0
40
1
40
1
40
1
41
1
10
44.6487296800655
20
-2.82745496345314
30
0
41
1
10
44.824600881605
20
-2.82660184250591
30
0
41
1
10
45.0001044281365
20
-2.82745140106917
30
0
0
SPLINE
5
A0
100
AcDbEntity
8
1
62
256
6
ByLayer
370
18
48
1
60
0
100
AcDbSpline
70
4
71
3
72
24
73
20
40
0
40
0
40
0
40
0
40
0.0713494355021991
40
0.12186228154438
40
0.157537034599974
40
0.203018588462723
40
0.26099459913677
40
0.326268452368907
40
0.413968882781579
40
0.483624032522519
40
0.547184547806601
40
0.592895374787163
40
0.655353514332343
40
0.725128682802407
40
0.776818663836113
40
0.817778847165146
40
0.878129183040223
40
0.948700181027963
40
1
40
1
40
1
40
1
41
1
10
28.326318039382
20
-2.81740782893274
30
0
41
1
10
28.5148008246568
20
-2.81759552556923
30
0
41
1
10
28.836701119207
20
-2.81784632423901
30
0
41
1
10
29.2531696908231
20
-2.81798504051909
30
0
41
1
10
29.600682294439
20
-2.81805472530704
30
0
41
1
10
29.9681338292096
20
-2.81865342695892
30
0
41
1
10
30.4139742905528
20
-2.81907816519907
30
0
41
1
10
30.9714487381359
20
-2.81834616642052
30
0
41
1
10
31.559750425938
20
-2.82020829382645
30
0
41
1
10
32.1434759743033
20
-2.81889236680613
30
0
41
1
10
32.6163007797605
20
-2.82062030246959
30
0
41
1
10
33.0701154919336
20
-2.82021979034661
30
0
41
1
10
33.540353532323
20
-2.81986471952399
30
0
41
1
10
34.0263788429951
20
-2.82196719235245
30
0
41
1
10
34.4556363448041
20
-2.82107930065484
30
0
41
1
10
34.8597244427205
20
-2.82011632300421
30
0
41
1
10
35.3084566940186
20
-2.82177446603944
30
0
41
1
10
35.772380488176
20
-2.81040684772836
30
0
41
1
10
36.1003772648642
20
-2.81289521606053
30
0
41
1
10
36.2358303868675
20
-2.81431837935858
30
0
0
SPLINE
5
A1
100
AcDbEntity
8
1
62
256
6
ByLayer
370
18
48
1
60
0
100
AcDbSpline
70
4
71
3
72
8
73
4
40
0
40
0
40
0
40
0
40
1
40
1
40
1
40
1
41
1
10
36.4963703608509
20
-2.817216446966
30
0
41
1
10
36.5488573969474
20
-2.8177909884875
30
0
41
1
10
36.6006798807798
20
-2.81836806900859
30
0
41
1
10
36.6522156572888
20
-2.81904045303546
30
0
0
SPLINE
5
A2
100
AcDbEntity
8
1
62
256
6
ByLayer
370
18
48
1
60
0
100
AcDbSpline
70
4
71
3
72
19
73
15
40
0
40
0
40
0
40
0
40
0.0542677010720418
40
0.165577161299628
40
0.271829983906222
40
0.365297321603435
40
0.457892047349693
40
0.569892339429014
40
0.66497465321671
40
0.732251845149963
40
0.783182818543442
40
0.858120177151773
40
0.959502590922702
40
1
40
1
40
1
40
1
41
1
10
20.1372897742946
20
2.81299452654952
30
0
41
1
10
20.0160604416666
20
2.81286970237625
30
0
41
1
10
19.6461424455887
20
2.81249995290176
30
0
41
1
10
19.0398001207802
20
2.81327088907261
30
0
41
1
10
18.3432622720827
20
2.81127929828889
30
0
41
1
10
17.6893858553764
20
2.81190276422586
30
0
41
1
10
17.0224798199032
20
2.81087973102277
30
0
41
1
10
16.3518783065781
20
2.81094091214425
30
0
41
1
10
15.7379668338814
20
2.80983235790231
30
0
41
1
10
15.2607519314755
20
2.8094219182357
30
0
41
1
10
14.8284572052805
20
2.81014549418089
30
0
41
1
10
14.3217379152152
20
2.80850468047078
30
0
41
1
10
13.8396973108067
20
2.80688456999945
30
0
41
1
10
13.5224037322355
20
2.8065473662256
30
0
41
1
10
13.4317753568215
20
2.80649046077815
30
0
0
SPLINE
5
A3
100
AcDbEntity
8
1
62
256
6
ByLayer
370
18
48
1
60
0
100
AcDbSpline
70
4
71
2
72
6
73
3
40
0
40
0
40
0
40
1
40
1
40
1
41
1
10
3.39477135091124
20
-2.8026978180003
30
0
41
1
10
3.73564987654956
20
-2.80516025164005
30
0
41
1
10
4.07647751077167
20
-2.80510755067445
30
0
0
SPLINE
5
A4
100
AcDbEntity
8
1
62
256
6
ByLayer
370
18
48
1
60
0
100
AcDbSpline
70
4
71
3
72
8
73
4
40
0
40
0
40
0
40
0
40
1
40
1
40
1
40
1
41
1
10
45.9784423856248
20
-0.0248862991035992
30
0
41
1
10
45.8339550027005
20
-0.26090466522362
30
0
41
1
10
45.683749018392
20
-0.491107222476955
30
0
41
1
10
45.5296980393036
20
-0.717399425916369
30
0
0
SPLINE
5
A5
100
AcDbEntity
8
1
62
256
6
ByLayer
370
18
48
1
60
0
100
AcDbSpline
70
4
71
3
72
8
73
4
40
0
40
0
40
0
40
0
40
1
40
1
40
1
40
1
41
1
10
3.27001756206252
20
0.209678632282959
30
0
41
1
10
3.24599299306493
20
0.223271905558221
30
0
41
1
10
3.22482656154881
20
0.240351299535831
30
0
41
1
10
3.20650604218614
20
0.260887134090524
30
0
0
SPLINE
5
A6
100
AcDbEntity
8
1
62
256
6
ByLayer
370
13
48
1
60
0
100
AcDbSpline
70
4
71
3
72
8
73
4
40
0
40
0
40
0
40
0
40
1
40
1
40
1
40
1
41
1
10
3.16495663311929
20
0.363354031116216
30
0
41
1
10
3.18579184273438
20
0.331494437450317
30
0
41
1
10
3.22178398417188
20
0.303509270974501
30
0
41
1
10
3.27100536222702
20
0.285210586583872
30
0
0
SPLINE
5
A7
100
AcDbEntity
8
1
62
256
6
ByLayer
370
13
48
1
60
0
100
AcDbSpline
70
4
71
3
72
10
73
6
40
0
40
0
40
0
40
0
40
0.5
40
0.5
40
1
40
1
40
1
40
1
41
1
10
3.27100536222702
20
0.285210586583872
30
0
41
1
10
3.28992682136814
20
0.278176289237933
30
0
41
1
10
3.3101913904901
20
0.270985376056643
30
0
41
1
10
3.35136075337397
20
0.256894245283178
30
0
41
1
10
3.37236605194059
20
0.249951417298291
30
0
41
1
10
3.39378414134544
20
0.243060851506271
30
0
0
SPLINE
5
A8
100
AcDbEntity
8
1
62
256
6
ByLayer
370
18
48
1
60
0
100
AcDbSpline
70
4
71
3
72
8
73
4
40
0
40
0
40
0
40
0
40
1
40
1
40
1
40
1
41
1
10
45.1231232467038
20
-1.29482740637243
30
0
41
1
10
44.9239042635353
20
-1.56926257382
30
0
41
1
10
44.7202149510774
20
-1.83902328209854
30
0
41
1
10
44.5135975235536
20
-2.10526849276709
30
0
0
SPLINE
5
A9
100
AcDbEntity
8
1
62
256
6
ByLayer
370
18
48
1
60
0
100
AcDbSpline
70
4
71
3
72
10
73
6
40
0
40
0
40
0
40
0
40
0.5
40
0.5
40
1
40
1
40
1
40
1
41
1
10
45.8594767460098
20
-0.897199291949818
30
0
41
1
10
45.8883281268276
20
-0.79295479300535
30
0
41
1
10
45.913429815071
20
-0.691992637938426
30
0
41
1
10
45.9547778005327
20
-0.494265573685595
30
0
41
1
10
45.971038237428
20
-0.397270432144808
30
0
41
1
10
45.9821657890767
20
-0.301582063674488
30
0
0
SPLINE
5
AA
100
AcDbEntity
8
1
62
256
6
ByLayer
370
18
48
1
60
0
100
AcDbSpline
70
4
71
3
72
8
73
4
40
0
40
0
40
0
40
0
40
1
40
1
40
1
40
1
41
1
10
45.9933088720899
20
-0.0853157353816414
30
0
41
1
10
45.99341079319
20
-0.0699719191217127
30
0
41
1
10
45.9958938076687
20
-0.0509006216969112
30
0
41
1
10
45.9998117140338
20
-0.0307271695643863
30
0
0
SPLINE
5
AB
100
AcDbEntity
8
1
62
256
6
ByLayer
370
18
48
1
60
0
100
AcDbSpline
70
4
71
3
72
18
73
14
40
0
40
0
40
0
40
0
40
0.0835846301426704
40
0.0835846301426704
40
0.236320525118893
40
0.236320525118893
40
0.389056420095116
40
0.389056420095116
40
0.694528210047558
40
0.694528210047558
40
0.847264105023779
40
0.847264105023779
40
1
40
1
40
1
40
1
41
1
10
7.08220858661977
20
-2.24257561133268
30
0
41
1
10
6.97613602281038
20
-2.27799095656869
30
0
41
1
10
6.87026147279153
20
-2.31215900612102
30
0
41
1
10
6.57123569045885
20
-2.4049874181899
30
0
41
1
10
6.37891347515259
20
-2.46048978373196
30
0
41
1
10
5.99679769083798
20
-2.55972266756226
30
0
41
1
10
5.80680644356772
20
-2.60314610065871
30
0
41
1
10
5.23889819163037
20
-2.71595658957369
30
0
41
1
10
4.86281455562113
20
-2.76891699531771
30
0
41
1
10
4.30239696472739
20
-2.80392921694846
30
0
41
1
10
4.11586959429354
20
-2.80818288967251
30
0
41
1
10
3.74999523952891
20
-2.79889405184028
30
0
41
1
10
3.57008402799028
20
-2.78547083881165
30
0
41
1
10
3.39481030372067
20
-2.76102578653772
30
0
0
SPLINE
5
AC
100
AcDbEntity
8
1
62
256
6
ByLayer
370
18
48
1
60
0
100
AcDbSpline
70
4
71
3
72
8
73
4
40
0
40
0
40
0
40
0
40
1
40
1
40
1
40
1
41
1
10
45.0224343996295
20
2.9623278752652
30
0
41
1
10
44.8528316365801
20
2.97167757469416
30
0
41
1
10
44.6833409698983
20
2.97627176704563
30
0
41
1
10
44.5137978147309
20
2.9761204609068
30
0
0
SPLINE
5
AD
100
AcDbEntity
8
1
62
256
6
ByLayer
370
18
48
1
60
0
100
AcDbSpline
70
4
71
3
72
44
73
40
40
0
40
0
40
0
40
0
40
0.0213097662311298
40
0.0213097662311298
40
0.0576760805586031
40
0.0576760805586031
40
0.0940423948860764
40
0.0940423948860764
40
0.166775023541021
40
0.166775023541021
40
0.203141337868494
40
0.203141337868494
40
0.239507652195966
40
0.239507652195966
40
0.312240280850911
40
0.312240280850911
40
0.384972909505856
40
0.384972909505856
40
0.421339223833329
40
0.421339223833329
40
0.457705538160802
40
0.457705538160802
40
0.603170795470696
40
0.603170795470696
40
0.639537109798169
40
0.639537109798169
40
0.675903424125642
40
0.675903424125642
40
0.748636052780587
40
0.748636052780587
40
0.821368681435533
40
0.821368681435533
40
0.857734995763007
40
0.857734995763007
40
0.89410131009048
40
0.89410131009048
40
0.966833938745426
40
0.966833938745426
40
1
40
1
40
1
40
1
41
1
10
29.7575318968809
20
-2.8291518188835
30
0
41
1
10
29.6298382263208
20
-2.85099149530498
30
0
41
1
10
29.5018677716677
20
-2.87032804282819
30
0
41
1
10
29.1545439060457
20
-2.91568755153824
30
0
41
1
10
28.9354140843322
20
-2.93655975946308
30
0
41
1
10
28.4998081150117
20
-2.96256380529689
30
0
41
1
10
28.2827907663326
20
-2.96777851745986
30
0
41
1
10
27.6329510554134
20
-2.96030341914687
30
0
41
1
10
27.2010985903177
20
-2.9245122314079
30
0
41
1
10
26.5507342841208
20
-2.82575872004352
30
0
41
1
10
26.3335014136121
20
-2.78532903188957
30
0
41
1
10
25.8972492416099
20
-2.68971778066481
30
0
41
1
10
25.6774771740514
20
-2.63430125711719
30
0
41
1
10
25.0213790577447
20
-2.44827257249636
30
0
41
1
10
24.5879613828358
20
-2.29814478106036
30
0
41
1
10
23.7223182143974
20
-1.95445467292188
30
0
41
1
10
23.2901443694569
20
-1.76083347612425
30
0
41
1
10
22.6379454035529
20
-1.44421024970461
30
0
41
1
10
22.4198622498165
20
-1.33434991466427
30
0
41
1
10
21.9815916922123
20
-1.10693799659754
30
0
41
1
10
21.7624690878225
20
-0.989960559320679
30
0
41
1
10
20.6732580706044
20
-0.397389275399576
30
0
41
1
10
19.8141114676584
20
0.105956219952731
30
0
41
1
10
18.7232914698349
20
0.714202452730007
30
0
41
1
10
18.5034661826406
20
0.835105350188599
30
0
41
1
10
18.0659184003565
20
1.07051290870157
30
0
41
1
10
17.8481438231411
20
1.18516888568132
30
0
41
1
10
17.1965777085447
20
1.5181596274515
30
0
41
1
10
16.7644139722502
20
1.72530287928379
30
0
41
1
10
15.898036172293
20
2.10053540577238
30
0
41
1
10
15.463974810225
20
2.26881190131075
30
0
41
1
10
14.8062196928181
20
2.48460194715372
30
0
41
1
10
14.587052037765
20
2.55011082360085
30
0
41
1
10
14.1512625230718
20
2.66659300167225
30
0
41
1
10
13.9341055519716
20
2.71772786504607
30
0
41
1
10
13.2837007120726
20
2.84934773549347
30
0
41
1
10
12.8516640707682
20
2.90809002555952
30
0
41
1
10
12.2197977451149
20
2.94912365387464
30
0
41
1
10
12.0215742985915
20
2.95563949038302
30
0
41
1
10
11.8226464353704
20
2.95567162747625
30
0
0
SPLINE
5
AE
100
AcDbEntity
8
1
62
256
6
ByLayer
370
18
48
1
60
0
100
AcDbSpline
70
4
71
3
72
24
73
20
40
0
40
0
40
0
40
0
40
0.0624999999999999
40
0.0624999999999999
40
0.125
40
0.125
40
0.1875
40
0.1875
40
0.25
40
0.25
40
0.375
40
0.375
40
0.5
40
0.5
40
0.75
40
0.75
40
0.875
40
0.875
40
1
40
1
40
1
40
1
41
1
10
45.5296980393036
20
-0.717399425916341
30
0
41
1
10
45.5315683245279
20
-0.735152548753632
30
0
41
1
10
45.5320674550628
20
-0.754274790661782
30
0
41
1
10
45.5303486764891
20
-0.795142618975916
30
0
41
1
10
45.528082087616
20
-0.817233447866442
30
0
41
1
10
45.520875616858
20
-0.862904011310889
30
0
41
1
10
45.5160152785886
20
-0.886219571568546
30
0
41
1
10
45.5039346889686
20
-0.933818315543704
30
0
41
1
10
45.4967103185883
20
-0.95799834622909
30
0
41
1
10
45.4727497186517
20
-1.02850859312946
30
0
41
1
10
45.4533316361083
20
-1.07408267984329
30
0
41
1
10
45.4116359564588
20
-1.15580422972235
30
0
41
1
10
45.3894731713738
20
-1.19190696388122
30
0
41
1
10
45.321504613122
20
-1.28390414455339
30
0
41
1
10
45.2757830206344
20
-1.32149266398585
30
0
41
1
10
45.2125744656951
20
-1.34034481593344
30
0
41
1
10
45.192349619622
20
-1.34030326501417
30
0
41
1
10
45.1552446001178
20
-1.32741964973744
30
0
41
1
10
45.1378750106733
20
-1.31429483081337
30
0
41
1
10
45.1231232466979
20
-1.29482740637243
30
0
0
SPLINE
5
AF
100
AcDbEntity
8
1
62
256
6
ByLayer
370
18
48
1
60
0
100
AcDbSpline
70
4
71
3
72
56
73
52
40
0
40
0
40
0
40
0
40
0.0625000000000035
40
0.0625000000000035
40
0.0937500000000043
40
0.0937500000000043
40
0.125000000000005
40
0.125000000000005
40
0.156250000000006
40
0.156250000000006
40
0.187500000000007
40
0.187500000000007
40
0.218750000000008
40
0.218750000000008
40
0.234375000000008
40
0.234375000000008
40
0.250000000000009
40
0.250000000000009
40
0.265625000000009
40
0.265625000000009
40
0.28125000000001
40
0.28125000000001
40
0.29687500000001
40
0.29687500000001
40
0.312500000000011
40
0.312500000000011
40
0.343750000000012
40
0.343750000000012
40
0.375000000000013
40
0.375000000000013
40
0.390625000000015
40
0.390625000000015
40
0.394531250000015
40
0.394531250000015
40
0.398437500000015
40
0.398437500000015
40
0.406250000000015
40
0.406250000000015
40
0.437500000000013
40
0.437500000000013
40
0.500000000000011
40
0.500000000000011
40
0.62500000000001
40
0.62500000000001
40
0.687500000000009
40
0.687500000000009
40
0.750000000000008
40
0.750000000000008
40
0.875000000000004
40
0.875000000000004
40
1
40
1
40
1
40
1
41
1
10
3.1654624534591
20
-2.89513208980813
30
0
41
1
10
3.02410626108926
20
-2.87410410916601
30
0
41
1
10
2.88602831322333
20
-2.84657834647092
30
0
41
1
10
2.68675468995579
20
-2.79201833637492
30
0
41
1
10
2.62165551410325
20
-2.77159719315409
30
0
41
1
10
2.4950558923839
20
-2.72512971186683
30
0
41
1
10
2.43344173081098
20
-2.69899492525852
30
0
41
1
10
2.31799917871911
20
-2.64064110115186
30
0
41
1
10
2.2638266767004
20
-2.60834854708895
30
0
41
1
10
2.16555665714372
20
-2.5354826049911
30
0
41
1
10
2.12140676017577
20
-2.49495936005994
30
0
41
1
10
2.04899892340688
20
-2.40163286269333
30
0
41
1
10
2.02196188837172
20
-2.35006073795503
30
0
41
1
10
2.00220912606056
20
-2.26486914946662
30
0
41
1
10
1.99920006097005
20
-2.23519734241185
30
0
41
1
10
2.00114022841643
20
-2.1752312305976
30
0
41
1
10
2.00603505981073
20
-2.14468249717692
30
0
41
1
10
2.02387258475994
20
-2.08252314286227
30
0
41
1
10
2.03695222137316
20
-2.05087056835788
30
0
41
1
10
2.06981483599694
20
-1.98921335182925
30
0
41
1
10
2.08966457690562
20
-1.95887057131486
30
0
41
1
10
2.13542468493202
20
-1.89914079842947
30
0
41
1
10
2.16123098347254
20
-1.86994223936543
30
0
41
1
10
2.2165267421621
20
-1.81395082939349
30
0
41
1
10
2.24617656755424
20
-1.7869442268215
30
0
41
1
10
2.34006518105056
20
-1.70845205406195
30
0
41
1
10
2.40961018314599
20
-1.65929384412033
30
0
41
1
10
2.555205215066
20
-1.56809253400763
30
0
41
1
10
2.63167581815242
20
-1.52572863119778
30
0
41
1
10
2.7497664870308
20
-1.46628659379516
30
0
41
1
10
2.7896981127841
20
-1.4471631169217
30
0
41
1
10
2.84016424186015
20
-1.42406169825372
30
0
41
1
10
2.85031845490971
20
-1.41955177990019
30
0
41
1
10
2.87050985488736
20
-1.4102935793903
30
0
41
1
10
2.880836140729
20
-1.40610049516894
30
0
41
1
10
2.91447007740104
20
-1.39863421452273
30
0
41
1
10
2.93774217122529
20
-1.39894114939543
30
0
41
1
10
3.05192878480392
20
-1.40755564386734
30
0
41
1
10
3.14321695336503
20
-1.41469923080407
30
0
41
1
10
3.41666455731394
20
-1.43997800329964
30
0
41
1
10
3.59853215317577
20
-1.46062117223047
30
0
41
1
10
4.14118423729639
20
-1.53286448429455
30
0
41
1
10
4.49956620863298
20
-1.59487615259985
30
0
41
1
10
5.0324830461916
20
-1.70401028968632
30
0
41
1
10
5.20957487322553
20
-1.74308490033209
30
0
41
1
10
5.56085525098885
20
-1.82514844730537
30
0
41
1
10
5.73510507122791
20
-1.86814362996623
30
0
41
1
10
6.25402972942584
20
-2.00108971080044
30
0
41
1
10
6.59487474889062
20
-2.09497939849572
30
0
41
1
10
7.2688217862032
20
-2.28213913208634
30
0
41
1
10
7.60194613434098
20
-2.37533363042309
30
0
41
1
10
7.93289171334857
20
-2.46243360723506
30
0
0
SPLINE
5
B0
100
AcDbEntity
8
1
62
256
6
ByLayer
370
18
48
1
60
0
100
AcDbSpline
70
4
71
3
72
8
73
4
40
0
40
0
40
0
40
0
40
1
40
1
40
1
40
1
41
1
10
45.9821657890766
20
0.30158206367517
30
0
41
1
10
45.9601495321085
20
0.490904906255338
30
0
41
1
10
45.918032016042
20
0.685630049436639
30
0
41
1
10
45.8594767460098
20
0.897199291949732
30
0
0
SPLINE
5
B1
100
AcDbEntity
8
1
62
256
6
ByLayer
370
18
48
1
60
0
100
AcDbSpline
70
4
71
3
72
10
73
6
40
0
40
0
40
0
40
0
40
0.5
40
0.5
40
1
40
1
40
1
40
1
41
1
10
45.1434971822105
20
-2.85866001113388
30
0
41
1
10
45.2590607337651
20
-2.52933701719775
30
0
41
1
10
45.3769952814017
20
-2.20157753830884
30
0
41
1
10
45.6161992831998
20
-1.54809124746245
30
0
41
1
10
45.7374664842878
20
-1.22237166308926
30
0
41
1
10
45.8594767460098
20
-0.897199291949846
30
0
0
SPLINE
5
B2
100
AcDbEntity
8
1
62
256
6
ByLayer
370
18
48
1
60
0
100
AcDbSpline
70
4
71
3
72
18
73
14
40
0
40
0
40
0
40
0
40
0.109759666516426
40
0.109759666516426
40
0.406506444344284
40
0.406506444344284
40
0.554879833258213
40
0.554879833258213
40
0.703253222172142
40
0.703253222172142
40
0.851626611086071
40
0.851626611086071
40
1
40
1
40
1
40
1
41
1
10
4.07614112635181
20
2.8053831577725
30
0
41
1
10
4.21262176424986
20
2.80547429434583
30
0
41
1
10
4.35064256481738
20
2.80091030916381
30
0
41
1
10
4.86291424325555
20
2.76892360073145
30
0
41
1
10
5.23914519068549
20
2.71591663754901
30
0
41
1
10
5.80704036102304
20
2.60309507430767
30
0
41
1
10
5.996986524622
20
2.55967551266241
30
0
41
1
10
6.37891857821859
20
2.46048657358713
30
0
41
1
10
6.5708968636709
20
2.40508876266469
30
0
41
1
10
6.95758612766051
20
2.28505411113144
30
0
41
1
10
7.15128416509248
20
2.22057980983737
30
0
41
1
10
7.54043982011598
20
2.08379912622809
30
0
41
1
10
7.73590570923034
20
2.01154793118548
30
0
41
1
10
7.93289171334857
20
1.93721609855317
30
0
0
SPLINE
5
B3
100
AcDbEntity
8
1
62
256
6
ByLayer
370
18
48
1
60
0
100
AcDbSpline
70
4
71
3
72
14
73
10
40
0
40
0
40
0
40
0
40
0.25
40
0.25
40
0.5
40
0.5
40
0.75
40
0.75
40
1
40
1
40
1
40
1
41
1
10
45.0509537963993
20
-2.82191945331593
30
0
41
1
10
45.0541994096791
20
-2.82103318277737
30
0
41
1
10
45.0568186570148
20
-2.82175065430502
30
0
41
1
10
45.060408570503
20
-2.82746278338874
30
0
41
1
10
45.0613320598753
20
-2.83252386193601
30
0
41
1
10
45.0603997316992
20
-2.84828651914134
30
0
41
1
10
45.0584672977413
20
-2.8590369046334
30
0
41
1
10
45.0518029587845
20
-2.88398459800959
30
0
41
1
10
45.047124969261
20
-2.89799952768553
30
0
41
1
10
45.0419908787844
20
-2.91139795823085
30
0
0
SPLINE
5
B4
100
AcDbEntity
8
1
62
256
6
ByLayer
370
18
48
1
60
0
100
AcDbSpline
70
4
71
3
72
10
73
6
40
0
40
0
40
0
40
0
40
0.5
40
0.5
40
1
40
1
40
1
40
1
41
1
10
45.1434971822059
20
2.85866001114684
30
0
41
1
10
45.2582323634995
20
2.5316976349902
30
0
41
1
10
45.3760183127984
20
2.20426719812551
30
0
41
1
10
45.6158416165629
20
1.54904781950995
30
0
41
1
10
45.7373932802196
20
1.22256676094489
30
0
41
1
10
45.8594767460098
20
0.897199291949704
30
0
0
SPLINE
5
B5
100
AcDbEntity
8
1
62
256
6
ByLayer
370
18
48
1
60
0
100
AcDbSpline
70
4
71
3
72
10
73
6
40
0
40
0
40
0
40
0
40
0.5
40
0.5
40
1
40
1
40
1
40
1
41
1
10
45.9998117140327
20
0.0307271695697295
30
0
41
1
10
45.9976504506815
20
0.0210373933507242
30
0
41
1
10
45.9946473872524
20
0.0107944188858085
30
0
41
1
10
45.9872823950582
20
-0.0085324617433287
30
0
41
1
10
45.9829148390796
20
-0.0175806012941564
30
0
41
1
10
45.9784423856248
20
-0.0248862991036276
30
0
0
SPLINE
5
B6
100
AcDbEntity
8
1
62
256
6
ByLayer
370
13
48
1
60
0
100
AcDbSpline
70
4
71
3
72
10
73
6
40
0
40
0
40
0
40
0
40
0.420483647999762
40
0.420483647999762
40
1
40
1
40
1
40
1
41
1
10
3.39476642353497
20
-2.80290515958677
30
0
41
1
10
3.39477504157253
20
-2.80327287499873
30
0
41
1
10
3.39478278841668
20
-2.80098409030919
30
0
41
1
10
3.39479855041714
20
-2.78930241137883
30
0
41
1
10
3.39480564236285
20
-2.77759377268902
30
0
41
1
10
3.39481030363751
20
-2.76102578653723
30
0
0
SPLINE
5
B7
100
AcDbEntity
8
1
62
256
6
ByLayer
370
18
48
1
60
0
100
AcDbSpline
70
4
71
3
72
14
73
10
40
0
40
0
40
0
40
0
40
0.349531715153019
40
0.349531715153019
40
0.524297572729528
40
0.524297572729528
40
0.699063430306037
40
0.699063430306037
40
1
40
1
40
1
40
1
41
1
10
45.0509537963993
20
-2.82191945331593
30
0
41
1
10
44.6154911364661
20
-2.83684998408219
30
0
41
1
10
44.1821620625767
20
-2.82182341504515
30
0
41
1
10
43.5315962923764
20
-2.7557987859359
30
0
41
1
10
43.3146432036689
20
-2.72656478622437
30
0
41
1
10
42.8796838135671
20
-2.65385564459854
30
0
41
1
10
42.6611609932233
20
-2.61025445159058
30
0
41
1
10
42.0671549577319
20
-2.47325237267486
30
0
41
1
10
41.6943432189894
20
-2.36726651764539
30
0
41
1
10
41.3225785787349
20
-2.24447722263923
30
0
0
SPLINE
5
B8
100
AcDbEntity
8
1
62
256
6
ByLayer
370
13
48
1
60
0
100
AcDbSpline
70
4
71
3
72
24
73
20
40
0
40
0
40
0
40
0
40
0.181706011405692
40
0.181706011405692
40
0.261469539452191
40
0.261469539452191
40
0.34123306749869
40
0.34123306749869
40
0.500760123591688
40
0.500760123591688
40
0.660287179684686
40
0.660287179684686
40
0.740050707731185
40
0.740050707731185
40
0.819814235777684
40
0.819814235777684
40
0.979341291870686
40
0.979341291870686
40
1
40
1
40
1
40
1
41
1
10
41.3225787598315
20
-2.2444772824532
30
0
41
1
10
40.8307491773942
20
-2.08203201893869
30
0
41
1
10
40.3407522502875
20
-1.89017700477859
30
0
41
1
10
39.6319065259587
20
-1.58015606089512
30
0
41
1
10
39.4151443200627
20
-1.48105901936296
30
0
41
1
10
38.9798239833833
20
-1.27479722329701
30
0
41
1
10
38.7607095356484
20
-1.16732553970644
30
0
41
1
10
38.1078357004224
20
-0.838314239959601
30
0
41
1
10
37.6760397029574
20
-0.60989505167413
30
0
41
1
10
36.8131922541124
20
-0.146440573530668
30
0
41
1
10
36.3822730105853
20
0.0888449547173877
30
0
41
1
10
35.7324168947408
20
0.439157371337672
30
0
41
1
10
35.51516213593
20
0.555382140268421
30
0
41
1
10
35.0785720095157
20
0.785225387098848
30
0
41
1
10
34.8599751059671
20
0.898438802783176
30
0
41
1
10
34.2083265188828
20
1.22840803476169
30
0
41
1
10
33.7766252399198
20
1.43581033044174
30
0
41
1
10
33.2893008685478
20
1.65167166529139
30
0
41
1
10
33.2334219503919
20
1.67612873028116
30
0
41
1
10
33.1775318208798
20
1.70028641177328
30
0
0
SPLINE
5
B9
100
AcDbEntity
8
1
62
256
6
ByLayer
370
18
48
1
60
0
100
AcDbSpline
70
4
71
3
72
12
73
8
40
0
40
0
40
0
40
0
40
0.0458157536582296
40
0.0458157536582296
40
0.245019063778751
40
0.245019063778751
40
1
40
1
40
1
40
1
41
1
10
12.0162330695933
20
-2.80698069693705
30
0
41
1
10
11.9663102960608
20
-2.80692750535536
30
0
41
1
10
11.9163547409418
20
-2.8064884070549
30
0
41
1
10
11.6489960404254
20
-2.80207031171665
30
0
41
1
10
11.4304920085308
20
-2.79107223837147
30
0
41
1
10
10.3827535389405
20
-2.7028846733036
30
0
41
1
10
9.56825866746325
20
-2.52882934695603
30
0
41
1
10
8.74774445255605
20
-2.26822791308723
30
0
0
SPLINE
5
BA
100
AcDbEntity
8
1
62
256
6
ByLayer
370
13
48
1
60
0
100
AcDbSpline
70
4
71
3
72
18
73
14
40
0
40
0
40
0
40
0
40
0.0255783300837302
40
0.0255783300837302
40
0.147381038823264
40
0.147381038823264
40
0.269183747562797
40
0.269183747562797
40
0.512789165041865
40
0.512789165041865
40
0.756394582520932
40
0.756394582520932
40
1
40
1
40
1
40
1
41
1
10
8.74774445384756
20
-2.26822791349744
30
0
41
1
10
8.7022810534273
20
-2.25378839847286
30
0
41
1
10
8.65679917305948
20
-2.23908317879986
30
0
41
1
10
8.39460828668314
20
-2.1528388538257
30
0
41
1
10
8.17740656869262
20
-2.07561688867162
30
0
41
1
10
7.74125199569775
20
-1.91004869846293
30
0
41
1
10
7.52182587225565
20
-1.82147133952947
30
0
41
1
10
6.86785430598917
20
-1.54378524269143
30
0
41
1
10
6.43524098439531
20
-1.34201872548996
30
0
41
1
10
5.57072251258813
20
-0.915687321463139
30
0
41
1
10
5.13900130609733
20
-0.690814079694462
30
0
41
1
10
4.27020770750715
20
-0.229200753799375
30
0
41
1
10
3.83158413192362
20
0.0083185318325718
30
0
41
1
10
3.39378414134541
20
0.243060851506271
30
0
0
SPLINE
5
BB
100
AcDbEntity
8
1
62
256
6
ByLayer
370
13
48
1
60
0
100
AcDbSpline
70
4
71
3
72
29
73
25
40
0
40
0
40
0
40
0
40
0.140107994940235
40
0.140107994940235
40
0.210161992410353
40
0.210161992410353
40
0.28021598988047
40
0.350269987350588
40
0.350269987350588
40
0.420323984820706
40
0.420323984820706
40
0.490377982290823
40
0.490377982290823
40
0.560431979760941
40
0.560431979760941
40
0.700539974701176
40
0.700539974701176
40
0.770593972171294
40
0.770593972171294
40
0.840647969641411
40
0.840647969641411
40
0.980755964581646
40
0.980755964581646
40
1
40
1
40
1
40
1
41
1
10
3.39378414134544
20
0.243060851506271
30
0
41
1
10
3.39386202931038
20
0.437359306860657
30
0
41
1
10
3.39393014047153
20
0.627486497051251
30
0
41
1
10
3.39402321408414
20
0.906486472141239
30
0
41
1
10
3.39405268034852
20
0.99838393017825
30
0
41
1
10
3.39410832758074
20
1.17645330028606
30
0
41
1
10
3.39416101387184
20
1.34975544651371
30
0
41
1
10
3.39420959677358
20
1.51366053159816
30
0
41
1
10
3.39425690500408
20
1.6727842832903
30
0
41
1
10
3.39428001259864
20
1.75025074861506
30
0
41
1
10
3.39432494686017
20
1.89794306245557
30
0
41
1
10
3.39434682597906
20
1.96835200179064
30
0
41
1
10
3.39438998455628
20
2.10226899034572
30
0
41
1
10
3.39441115312556
20
2.16540777501723
30
0
41
1
10
3.39447334656614
20
2.34153898267317
30
0
41
1
10
3.39451345643661
20
2.44231718864827
30
0
41
1
10
3.39457236512604
20
2.56821442239902
30
0
41
1
10
3.39459180234272
20
2.60597096908123
30
0
41
1
10
3.39462949866191
20
2.67170682816604
30
0
41
1
10
3.39464770272866
20
2.69961708887004
30
0
41
1
10
3.39469958719209
20
2.76840780223748
30
0
41
1
10
3.39473081102216
20
2.79478050346114
30
0
41
1
10
3.39475978355671
20
2.80224792705562
30
0
41
1
10
3.3947631709737
20
2.80276714240961
30
0
41
1
10
3.39476643350236
20
2.80290558370476
30
0
0
SPLINE
5
BC
100
AcDbEntity
8
1
62
256
6
ByLayer
370
18
48
1
60
0
100
AcDbSpline
70
4
71
3
72
8
73
4
40
0
40
0
40
0
40
0
40
1
40
1
40
1
40
1
41
1
10
7.09041203170608
20
2.23262019745101
30
0
41
1
10
7.37345330042987
20
2.31127531105372
30
0
41
1
10
7.65394644467224
20
2.38901934224813
30
0
41
1
10
7.93289171334857
20
2.46243360723506
30
0
0
SPLINE
5
BD
100
AcDbEntity
8
1
62
256
6
ByLayer
370
18
48
1
60
0
100
AcDbSpline
70
4
71
3
72
18
73
14
40
0
40
0
40
0
40
0
40
0.276534275835341
40
0.276534275835341
40
0.414801413753012
40
0.414801413753012
40
0.553068551670682
40
0.553068551670682
40
0.829602827506029
40
0.829602827506029
40
0.967869965423704
40
0.967869965423704
40
1
40
1
40
1
40
1
41
1
10
44.5135975235536
20
-2.10526849276707
30
0
41
1
10
44.5556111576301
20
-2.23130398426736
30
0
41
1
10
44.5991361522428
20
-2.34130366266646
30
0
41
1
10
44.6661012095823
20
-2.48323563287795
30
0
41
1
10
44.6887101258453
20
-2.52667110059409
30
0
41
1
10
44.7344853387243
20
-2.60559473284903
30
0
41
1
10
44.7575848949487
20
-2.64091242190904
30
0
41
1
10
44.8262437059271
20
-2.73271545671352
30
0
41
1
10
44.871627191098
20
-2.77603408913964
30
0
41
1
10
44.9394059768856
20
-2.81411166435282
30
0
41
1
10
44.9620354105673
20
-2.82229500518619
30
0
41
1
10
44.9896520647554
20
-2.82653651085835
30
0
41
1
10
44.9948454155598
20
-2.8270821276366
30
0
41
1
10
45.0000254970881
20
-2.82737330626139
30
0
0
SPLINE
5
BE
100
AcDbEntity
8
1
62
256
6
ByLayer
370
18
48
1
60
0
100
AcDbSpline
70
4
71
3
72
8
73
4
40
0
40
0
40
0
40
0
40
1
40
1
40
1
40
1
41
1
10
45.1434971822106
20
2.85866001113303
30
0
41
1
10
45.1040605281025
20
2.91022926971155
30
0
41
1
10
45.0638899162628
20
2.94457866530803
30
0
41
1
10
45.0224343996296
20
2.9623278752652
30
0
0
SPLINE
5
BF
100
AcDbEntity
8
1
62
256
6
ByLayer
370
18
48
1
60
0
100
AcDbSpline
70
4
71
3
72
14
73
10
40
0
40
0
40
0
40
0
40
0.25
40
0.25
40
0.5
40
0.5
40
0.75
40
0.75
40
1
40
1
40
1
40
1
41
1
10
3.39481030363749
20
-2.76102578652615
30
0
41
1
10
3.3742888024679
20
-2.75816369655232
30
0
41
1
10
3.35316261583688
20
-2.75781135068212
30
0
41
1
10
3.30913429454449
20
-2.76426722659835
30
0
41
1
10
3.28667840263353
20
-2.7711143749294
30
0
41
1
10
3.24310821725209
20
-2.79435854311956
30
0
41
1
10
3.22296716737429
20
-2.81038813772091
30
0
41
1
10
3.18889621800471
20
-2.8493391424332
30
0
41
1
10
3.17527911827031
20
-2.87192428078362
30
0
41
1
10
3.16546245345396
20
-2.89513208982044
30
0
0
SPLINE
5
C0
100
AcDbEntity
8
1
62
256
6
ByLayer
370
18
48
1
60
0
100
AcDbSpline
70
4
71
3
72
10
73
6
40
0
40
0
40
0
40
0
40
0.5
40
0.5
40
1
40
1
40
1
40
1
41
1
10
44.8415249061821
20
0.814422574394257
30
0
41
1
10
45.0078464608456
20
0.811145633258803
30
0
41
1
10
45.1739806513856
20
0.808994578918117
30
0
41
1
10
45.5061684552861
20
0.805176665292919
30
0
41
1
10
45.6721997982752
20
0.803643630545963
30
0
41
1
10
45.8380242237015
20
0.803353980856258
30
0
0
SPLINE
5
C1
100
AcDbEntity
8
1
62
256
6
ByLayer
370
18
48
1
60
0
100
AcDbSpline
70
4
71
3
72
38
73
34
40
0
40
0
40
0
40
0
40
0.0773514800363321
40
0.0773514800363321
40
0.116027220054498
40
0.116027220054498
40
0.154702960072664
40
0.154702960072664
40
0.232054440108996
40
0.232054440108996
40
0.270730180127162
40
0.270730180127162
40
0.309405920145328
40
0.309405920145328
40
0.464108880217993
40
0.464108880217993
40
0.502784620236159
40
0.502784620236159
40
0.541460360254325
40
0.541460360254325
40
0.618811840290659
40
0.618811840290659
40
0.696163320326993
40
0.696163320326993
40
0.734839060345159
40
0.734839060345159
40
0.773514800363325
40
0.773514800363325
40
0.928217760435992
40
0.928217760435992
40
0.966893500454159
40
0.966893500454159
40
1
40
1
40
1
40
1
41
1
10
45.0224343996296
20
-2.9623278752652
30
0
41
1
10
44.5855618144925
20
-2.98641137064189
30
0
41
1
10
44.1498089276953
20
-2.97892133530397
30
0
41
1
10
43.4936504755486
20
-2.92082581963675
30
0
41
1
10
43.2741047708398
20
-2.89352785656331
30
0
41
1
10
42.8377899686596
20
-2.82418960575248
30
0
41
1
10
42.6205227740455
20
-2.78214369742071
30
0
41
1
10
41.9702029351753
20
-2.63501132218062
30
0
41
1
10
41.5386315344291
20
-2.50891081298758
30
0
41
1
10
40.8892106597349
20
-2.28249894866775
30
0
41
1
10
40.6723943924057
20
-2.20082218003827
30
0
41
1
10
40.2373083649088
20
-2.02577413353708
30
0
41
1
10
40.0187310804445
20
-1.93224604056633
30
0
41
1
10
38.9232494864821
20
-1.43917268620476
30
0
41
1
10
38.0646548226943
20
-0.974764582483914
30
0
41
1
10
36.9796819832466
20
-0.364264820217386
30
0
41
1
10
36.7621189891873
20
-0.240642442253545
30
0
41
1
10
36.3251897792055
20
0.0085490031160305
30
0
41
1
10
36.1055015206589
20
0.134248287535087
30
0
41
1
10
35.4512937513876
20
0.506515315203501
30
0
41
1
10
35.0185018285425
20
0.749531763388802
30
0
41
1
10
34.1536375792481
20
1.21529469893846
30
0
41
1
10
33.7212128123886
20
1.43745769484593
30
0
41
1
10
33.0684633982752
20
1.74766027252346
30
0
41
1
10
32.8496518122608
20
1.84718077241081
30
0
41
1
10
32.4113364536043
20
2.03598512885858
30
0
41
1
10
32.1932881622931
20
2.12477101358948
30
0
41
1
10
31.1067724204562
20
2.53892412849743
30
0
41
1
10
30.2477134422788
20
2.77292271913731
30
0
41
1
10
29.1549977915582
20
2.91562827564365
30
0
41
1
10
28.9352204649078
20
2.93658467298607
30
0
41
1
10
28.5302923125031
20
2.96073254874725
30
0
41
1
10
28.3441810769479
20
2.96614031319061
30
0
41
1
10
28.1584730023098
20
2.96588186637857
30
0
0
SPLINE
5
C2
100
AcDbEntity
8
1
62
256
6
ByLayer
370
18
48
1
60
0
100
AcDbSpline
70
4
71
3
72
26
73
22
40
0
40
0
40
0
40
0
40
0.0996784756904674
40
0.0996784756904674
40
0.163987155998291
40
0.163987155998291
40
0.228295836306115
40
0.228295836306115
40
0.485530557537408
40
0.485530557537408
40
0.549839237845232
40
0.549839237845232
40
0.614147918153056
40
0.614147918153056
40
0.742765278768703
40
0.742765278768703
40
0.871382639384351
40
0.871382639384351
40
0.935691319692175
40
0.935691319692175
40
1
40
1
40
1
40
1
41
1
10
13.4231665448969
20
-2.81669182289701
30
0
41
1
10
13.0873752930069
20
-2.87448832010833
30
0
41
1
10
12.7522687433921
20
-2.91459833023856
30
0
41
1
10
12.1994076770214
20
-2.95041305931554
30
0
41
1
10
11.982292378911
20
-2.95684737240887
30
0
41
1
10
11.546468711934
20
-2.95414386148761
30
0
41
1
10
11.3272647040946
20
-2.94497370778117
30
0
41
1
10
10.2306834971681
20
-2.85994703105274
30
0
41
1
10
9.37075055104953
20
-2.66851418482915
30
0
41
1
10
8.28437514197705
20
-2.30126674549555
30
0
41
1
10
8.0665298720761
20
-2.22142740470042
30
0
41
1
10
7.62884829502909
20
-2.04969096216635
30
0
41
1
10
7.4088498488054
20
-1.95767797169944
30
0
41
1
10
6.7537483843837
20
-1.6688872811751
30
0
41
1
10
6.32042934896435
20
-1.45837654333374
30
0
41
1
10
5.45414278515617
20
-1.01205436312077
30
0
41
1
10
5.02137259232927
20
-0.775897336635381
30
0
41
1
10
4.36737115479818
20
-0.411124056600642
30
0
41
1
10
4.1482895930821
20
-0.287595141088303
30
0
41
1
10
3.7089965346587
20
-0.0390784147378156
30
0
41
1
10
3.48956592914516
20
0.0854565931199431
30
0
41
1
10
3.27001756206312
20
0.209678632282589
30
0
0
SPLINE
5
C3
100
AcDbEntity
8
1
62
256
6
ByLayer
370
18
48
1
60
0
100
AcDbSpline
70
4
71
3
72
30
73
26
40
0
40
0
40
0
40
0
40
0.0625000000000022
40
0.0625000000000022
40
0.0937500000000032
40
0.0937500000000032
40
0.125000000000004
40
0.125000000000004
40
0.187500000000005
40
0.187500000000005
40
0.250000000000006
40
0.250000000000006
40
0.375000000000008
40
0.375000000000008
40
0.500000000000011
40
0.500000000000011
40
0.562500000000012
40
0.562500000000012
40
0.625000000000013
40
0.625000000000013
40
0.750000000000008
40
0.750000000000008
40
0.875000000000004
40
0.875000000000004
40
1
40
1
40
1
40
1
41
1
10
42.2018248007207
20
1.25856630105577
30
0
41
1
10
42.1850490831081
20
1.17482627013294
30
0
41
1
10
42.1743731355878
20
1.08833853554867
30
0
41
1
10
42.1681345164961
20
0.954203549083957
30
0
41
1
10
42.1677023660891
20
0.90852801943592
30
0
41
1
10
42.1701796316718
20
0.817247671401702
30
0
41
1
10
42.1730666453561
20
0.771558418076239
30
0
41
1
10
42.1864884078448
20
0.63434891118024
30
0
41
1
10
42.2017713610014
20
0.542687283376466
30
0
41
1
10
42.2443690066978
20
0.359005791727412
30
0
41
1
10
42.2718964866546
20
0.266680366591999
30
0
41
1
10
42.3682698317671
20
-0.0017350297860901
30
0
41
1
10
42.4515316441242
20
-0.173034848849767
30
0
41
1
10
42.6464765565385
20
-0.500993855370609
30
0
41
1
10
42.7551568384565
20
-0.652847520394914
30
0
41
1
10
42.9305575127582
20
-0.867233722733346
30
0
41
1
10
42.9911268012382
20
-0.936421189632966
30
0
41
1
10
43.116051368352
20
-1.07070002974226
30
0
41
1
10
43.1806103811853
20
-1.13597111534699
30
0
41
1
10
43.3769048920307
20
-1.32378170632279
30
0
41
1
10
43.5118075038587
20
-1.4391157439203
30
0
41
1
10
43.7880235431448
20
-1.65411542163554
30
0
41
1
10
43.9293530647824
20
-1.7537417266644
30
0
41
1
10
44.2175513392118
20
-1.93945614119846
30
0
41
1
10
44.3647767394972
20
-2.02572049231694
30
0
41
1
10
44.5135975235535
20
-2.10526849276709
30
0
0
SPLINE
5
C4
100
AcDbEntity
8
1
62
256
6
ByLayer
370
18
48
1
60
0
100
AcDbSpline
70
4
71
3
72
29
73
25
40
0
40
0
40
0
40
0
40
0.0708480399009316
40
0.0708480399009316
40
0.141696079801863
40
0.141696079801863
40
0.283392159603726
40
0.283392159603726
40
0.354240199504658
40
0.354240199504658
40
0.42508823940559
40
0.495936279306521
40
0.495936279306521
40
0.566784319207453
40
0.566784319207453
40
0.708480399009316
40
0.708480399009316
40
0.779328438910247
40
0.779328438910247
40
0.850176478811178
40
0.850176478811178
40
0.991872558613041
40
0.991872558613041
40
1
40
1
40
1
40
1
41
1
10
3.16495663312645
20
0.363354031139039
30
0
41
1
10
3.16497607456472
20
0.46405417747502
30
0
41
1
10
3.16499434797467
20
0.563925179785628
30
0
41
1
10
3.16502897042827
20
0.762000817379771
30
0
41
1
10
3.16504522237236
20
0.859672577114537
30
0
41
1
10
3.16509101192295
20
1.14546158010819
30
0
41
1
10
3.16511784263196
20
1.32776689791973
30
0
41
1
10
3.16515519502724
20
1.58875167375245
30
0
41
1
10
3.16516719625136
20
1.67392780699836
30
0
41
1
10
3.16519010282585
20
1.83626485278748
30
0
41
1
10
3.1652120456904
20
1.99150282644925
30
0
41
1
10
3.16523282673677
20
2.13281195640033
30
0
41
1
10
3.16525332455518
20
2.26707055170306
30
0
41
1
10
3.16526348653343
20
2.33099287117776
30
0
41
1
10
3.16529346563547
20
2.50923651788847
30
0
41
1
10
3.16531269902924
20
2.60956058692327
30
0
41
1
10
3.1653410166353
20
2.732983459579
30
0
41
1
10
3.16535035433907
20
2.76957873388574
30
0
41
1
10
3.16536877062811
20
2.83335539329212
30
0
41
1
10
3.16537771495004
20
2.86006096630507
30
0
41
1
10
3.1654034470144
20
2.92476856935335
30
0
41
1
10
3.16541924674934
20
2.94771241352933
30
0
41
1
10
3.16543332984463
20
2.95019960689015
30
0
41
1
10
3.16543408529984
20
2.95026518104217
30
0
41
1
10
3.16543483176415
20
2.95026164234349
30
0
0
SPLINE
5
C5
100
AcDbEntity
8
1
62
256
6
ByLayer
370
18
48
1
60
0
100
AcDbSpline
70
4
71
3
72
14
73
10
40
0
40
0
40
0
40
0
40
0.0721450982255328
40
0.0721450982255328
40
0.277103908697809
40
0.277103908697809
40
0.482062719170085
40
0.482062719170085
40
1
40
1
40
1
40
1
41
1
10
28.3740787306572
20
-2.81743671059564
30
0
41
1
10
28.2975301187337
20
-2.81741796698569
30
0
41
1
10
28.2208865042692
20
-2.81648406037118
30
0
41
1
10
27.9260829533765
20
-2.80935537149597
30
0
41
1
10
27.7070507812993
20
-2.79657397460008
30
0
41
1
10
27.2719790339082
20
-2.75664613298082
30
0
41
1
10
27.0552348512804
20
-2.72949124265563
30
0
41
1
10
26.2925119560065
20
-2.60933765885716
30
0
41
1
10
25.7488116280922
20
-2.47901591617719
30
0
41
1
10
25.2018733579473
20
-2.3095465321743
30
0
0
SPLINE
5
C6
100
AcDbEntity
8
1
62
256
6
ByLayer
370
13
48
1
60
0
100
AcDbSpline
70
4
71
3
72
24
73
20
40
0
40
0
40
0
40
0
40
0.115982017929469
40
0.115982017929469
40
0.273462620606189
40
0.273462620606189
40
0.352202921944548
40
0.352202921944548
40
0.430943223282907
40
0.430943223282907
40
0.588423825959625
40
0.588423825959625
40
0.745904428636343
40
0.745904428636343
40
0.824644729974701
40
0.824644729974701
40
0.903385031313058
40
0.903385031313058
40
1
40
1
40
1
40
1
41
1
10
25.2018733580987
20
-2.30954653222122
30
0
41
1
10
24.8830711503423
20
-2.21076534115429
30
0
41
1
10
24.5631688351222
20
-2.09868353835799
30
0
41
1
10
23.8035025222594
20
-1.80543194831421
30
0
41
1
10
23.3680224994082
20
-1.6165332564982
30
0
41
1
10
22.7142761090164
20
-1.31052611738823
30
0
41
1
10
22.4961671603632
20
-1.20477322575744
30
0
41
1
10
22.0588801048688
20
-0.986956368931374
30
0
41
1
10
21.8403692587787
20
-0.875176868035254
30
0
41
1
10
21.1882878339747
20
-0.535725148993521
30
0
41
1
10
20.7564242845422
20
-0.303149632918974
30
0
41
1
10
19.8926604901705
20
0.163699163858723
30
0
41
1
10
19.4604752838162
20
0.397438531194553
30
0
41
1
10
18.8079336029061
20
0.741320453156362
30
0
41
1
10
18.5889280284708
20
0.855008357745277
30
0
41
1
10
18.1522538517285
20
1.07627201379
30
0
41
1
10
17.9348968705775
20
1.18390945522341
30
0
41
1
10
17.4521357809284
20
1.41561570051354
30
0
41
1
10
17.1869619481978
20
1.53774969333935
30
0
41
1
10
16.9219352400465
20
1.65335176945484
30
0
0
SPLINE
5
C7
100
AcDbEntity
8
1
62
256
6
ByLayer
370
18
48
1
60
0
100
AcDbSpline
70
4
71
3
72
8
73
4
40
0
40
0
40
0
40
0
40
1
40
1
40
1
40
1
41
1
10
3.20650604218611
20
0.260887134090041
30
0
41
1
10
3.18111910454999
20
0.289343857442191
30
0
41
1
10
3.16494928271055
20
0.325281321714897
30
0
41
1
10
3.16495663312645
20
0.363354031129887
30
0
0
SPLINE
5
C8
100
AcDbEntity
8
1
62
256
6
ByLayer
370
18
48
1
60
0
100
AcDbSpline
70
4
71
3
72
10
73
6
40
0
40
0
40
0
40
0
40
0.5
40
0.5
40
1
40
1
40
1
40
1
41
1
10
45.9933088720887
20
0.0853157353836593
30
0
41
1
10
45.9933593554574
20
0.0777156650137272
30
0
41
1
10
45.9940244182644
20
0.0690269710241296
30
0
41
1
10
45.9962759321489
20
0.0505551417360266
30
0
41
1
10
45.9978466408478
20
0.0408454077670228
30
0
41
1
10
45.9998117140328
20
0.0307271695698148
30
0
0
SPLINE
5
C9
100
AcDbEntity
8
1
62
256
6
ByLayer
370
18
48
1
60
0
100
AcDbSpline
70
4
71
3
72
8
73
4
40
0
40
0
40
0
40
0
40
1
40
1
40
1
40
1
41
1
10
45.0419908787848
20
-2.91139795823091
30
0
41
1
10
45.0354808097618
20
-2.92838727854911
30
0
41
1
10
45.0289620054858
20
-2.94536393226278
30
0
41
1
10
45.0224343996296
20
-2.96232787526523
30
0
0
SPLINE
5
CA
100
AcDbEntity
8
1
62
256
6
ByLayer
370
18
48
1
60
0
100
AcDbSpline
70
4
71
3
72
80
73
76
40
0
40
0
40
0
40
0
40
0.018268745267414
40
0.018268745267414
40
0.045373429130297
40
0.045373429130297
40
0.0995827968560612
40
0.0995827968560612
40
0.126687480718943
40
0.126687480718943
40
0.153792164581824
40
0.153792164581824
40
0.180896848444705
40
0.180896848444705
40
0.208001532307587
40
0.208001532307587
40
0.235106216170468
40
0.235106216170468
40
0.262210900033349
40
0.262210900033349
40
0.289315583896231
40
0.289315583896231
40
0.316420267759112
40
0.316420267759112
40
0.343524951621993
40
0.343524951621993
40
0.370629635484874
40
0.370629635484874
40
0.397734319347756
40
0.397734319347756
40
0.424839003210637
40
0.424839003210637
40
0.451943687073518
40
0.451943687073518
40
0.4790483709364
40
0.4790483709364
40
0.506153054799281
40
0.506153054799281
40
0.533257738662162
40
0.533257738662162
40
0.560362422525044
40
0.560362422525044
40
0.587467106387925
40
0.587467106387925
40
0.614571790250806
40
0.614571790250806
40
0.641676474113688
40
0.641676474113688
40
0.668781157976569
40
0.668781157976569
40
0.69588584183945
40
0.69588584183945
40
0.722990525702332
40
0.722990525702332
40
0.750095209565213
40
0.750095209565213
40
0.777199893428094
40
0.777199893428094
40
0.804304577290976
40
0.804304577290976
40
0.831409261153857
40
0.831409261153857
40
0.858513945016738
40
0.858513945016738
40
0.88561862887962
40
0.88561862887962
40
0.912723312742501
40
0.912723312742501
40
0.939827996605383
40
0.939827996605383
40
0.966932680468264
40
0.966932680468264
40
0.994037364331145
40
0.994037364331145
40
1
40
1
40
1
40
1
41
1
10
39.885117015652
20
-2.22412612236624
30
0
41
1
10
39.7657413130252
20
-2.26414731279192
30
0
41
1
10
39.6464982316415
20
-2.30241925479007
30
0
41
1
10
39.3502224818879
20
-2.39269018036671
30
0
41
1
10
39.1731937684986
20
-2.4423563011114
30
0
41
1
10
38.6416956205389
20
-2.57718079883196
30
0
41
1
10
38.287336377541
20
-2.64979250250732
30
0
41
1
10
37.7520318285502
20
-2.73269403708866
30
0
41
1
10
37.5730782361469
20
-2.75586967892178
30
0
41
1
10
37.2141089972258
20
-2.79264669968316
30
0
41
1
10
37.0344653425602
20
-2.80615099103162
30
0
41
1
10
36.6768900323855
20
-2.82233459313022
30
0
41
1
10
36.4985776805717
20
-2.82489577017378
30
0
41
1
10
36.1428567468007
20
-2.81902484011564
30
0
41
1
10
35.9655415919433
20
-2.81154921185248
30
0
41
1
10
35.6109647320229
20
-2.78822861013202
30
0
41
1
10
35.4337190912617
20
-2.77198767840335
30
0
41
1
10
35.0790027585926
20
-2.72892013220544
30
0
41
1
10
34.9015869652468
20
-2.70191913149125
30
0
41
1
10
34.5466998934163
20
-2.64002618779554
30
0
41
1
10
34.3689733479958
20
-2.60480787063469
30
0
41
1
10
34.0122821170004
20
-2.52463115041129
30
0
41
1
10
33.833273127379
20
-2.47947250450642
30
0
41
1
10
33.4741212955241
20
-2.37952916263583
30
0
41
1
10
33.2943890412614
20
-2.32538847174735
30
0
41
1
10
32.9364861599335
20
-2.21035277088393
30
0
41
1
10
32.7579733139228
20
-2.14920319787734
30
0
41
1
10
32.4017625298683
20
-2.01893300680604
30
0
41
1
10
32.224184116113
20
-1.9498048588033
30
0
41
1
10
31.8692708973413
20
-1.80611133030467
30
0
41
1
10
31.6918500733337
20
-1.73142220234459
30
0
41
1
10
31.3367198425914
20
-1.57598394928198
30
0
41
1
10
31.1589986254899
20
-1.49496530647346
30
0
41
1
10
30.8034462592269
20
-1.32755839545149
30
0
41
1
10
30.6255436228531
20
-1.24159819310228
30
0
41
1
10
30.2683532247166
20
-1.06528706749566
30
0
41
1
10
30.089134176473
20
-0.975017386231883
30
0
41
1
10
29.7293037475965
20
-0.789832705885686
30
0
41
1
10
29.5497150646724
20
-0.695373246348396
30
0
41
1
10
29.19181361115
20
-0.505848373678191
30
0
41
1
10
29.0132859638652
20
-0.41053695460613
30
0
41
1
10
28.6568876233714
20
-0.219216263367855
30
0
41
1
10
28.4791075874952
20
-0.123052217650184
30
0
41
1
10
28.1240245256318
20
0.069761654752881
30
0
41
1
10
27.9465198883071
20
0.166014523404243
30
0
41
1
10
27.591135147985
20
0.357280541544753
30
0
41
1
10
27.4132507431683
20
0.452285337797434
30
0
41
1
10
27.057196562266
20
0.6412322147022
30
0
41
1
10
26.8790795363364
20
0.735314308857141
30
0
41
1
10
26.5214976839148
20
0.92045501334286
30
0
41
1
10
26.3420649864817
20
1.0115678099792
30
0
41
1
10
25.9817245587724
20
1.19047736632783
30
0
41
1
10
25.8022394605694
20
1.2778519491394
30
0
41
1
10
25.444373329318
20
1.44789194992464
30
0
41
1
10
25.2658537584923
20
1.5302344685831
30
0
41
1
10
24.9093813678088
20
1.68792192735685
30
0
41
1
10
24.7314717536582
20
1.76344169047067
30
0
41
1
10
24.3762462453502
20
1.90914088224019
30
0
41
1
10
24.1987571148382
20
1.97920481698853
30
0
41
1
10
23.8433307410747
20
2.11168639929602
30
0
41
1
10
23.6653894403833
20
2.17395659013624
30
0
41
1
10
23.3090486362174
20
2.29029174138631
30
0
41
1
10
23.1308256478989
20
2.3452320859584
30
0
41
1
10
22.7731390079508
20
2.44723820974477
30
0
41
1
10
22.5937213517838
20
2.49429804635975
30
0
41
1
10
22.2331034653811
20
2.57810073004842
30
0
41
1
10
22.0534060578725
20
2.61472212048457
30
0
41
1
10
21.6953436391436
20
2.68058144468446
30
0
41
1
10
21.5167127548173
20
2.70908124409147
30
0
41
1
10
21.159972034078
20
2.75535283603833
30
0
41
1
10
20.9818618091896
20
2.7729611353858
30
0
41
1
10
20.6262442277003
20
2.79909198782013
30
0
41
1
10
20.4486540112881
20
2.80780697328001
30
0
41
1
10
20.2316850545448
20
2.81253919238415
30
0
41
1
10
20.192549206966
20
2.81313258044784
30
0
41
1
10
20.1534006100645
20
2.81346543033465
30
0
0
SPLINE
5
CB
100
AcDbEntity
8
1
62
256
6
ByLayer
370
18
48
1
60
0
100
AcDbSpline
70
4
71
3
72
36
73
32
40
0
40
0
40
0
40
0
40
0.125
40
0.125
40
0.1875
40
0.1875
40
0.25
40
0.25
40
0.3125
40
0.3125
40
0.34375
40
0.34375
40
0.375
40
0.375
40
0.40625
40
0.40625
40
0.4375
40
0.4375
40
0.46875
40
0.46875
40
0.5
40
0.5
40
0.5625
40
0.5625
40
0.625
40
0.625
40
0.75
40
0.75
40
0.875
40
0.875
40
1
40
1
40
1
40
1
41
1
10
45.1231232467037
20
-1.29482740637241
30
0
41
1
10
45.0353727392964
20
-1.26125886172628
30
0
41
1
10
44.9484621084432
20
-1.22066517047929
30
0
41
1
10
44.8216333153761
20
-1.14847227005745
30
0
41
1
10
44.7798566404443
20
-1.12246000665857
30
0
41
1
10
44.6975460375291
20
-1.06558985007175
30
0
41
1
10
44.6567494091771
20
-1.03453352566566
30
0
41
1
10
44.5787195670943
20
-0.967023310238062
30
0
41
1
10
44.541337135988
20
-0.930657173494581
30
0
41
1
10
44.4894923585406
20
-0.869344251165188
30
0
41
1
10
44.4728274034491
20
-0.847576221917819
30
0
41
1
10
44.4427917563413
20
-0.802097492893523
30
0
41
1
10
44.4292730357425
20
-0.778317145464541
30
0
41
1
10
44.4072037701019
20
-0.727306530188912
30
0
41
1
10
44.3989064059583
20
-0.700276423171687
30
0
41
1
10
44.3925646584748
20
-0.646505378768325
30
0
41
1
10
44.3948644672834
20
-0.620175203706253
30
0
41
1
10
44.4102728618013
20
-0.574560472087967
30
0
41
1
10
44.4231468695764
20
-0.555264183780849
30
0
41
1
10
44.4537493379002
20
-0.524301744687932
30
0
41
1
10
44.4716704993188
20
-0.512186381745096
30
0
41
1
10
44.5279301786942
20
-0.483421507183067
30
0
41
1
10
44.569886736676
20
-0.473301924685188
30
0
41
1
10
44.6544868432553
20
-0.462285053294949
30
0
41
1
10
44.6978166522472
20
-0.461442406176246
30
0
41
1
10
44.8297545096479
20
-0.467742737776177
30
0
41
1
10
44.9181597662049
20
-0.483410160665869
30
0
41
1
10
45.0942562990731
20
-0.527899358263312
30
0
41
1
10
45.1822225702535
20
-0.557063258317783
30
0
41
1
10
45.3580062149679
20
-0.627956025639008
30
0
41
1
10
45.4447627823717
20
-0.66924154324812
30
0
41
1
10
45.5296980393036
20
-0.717399425916341
30
0
0
SPLINE
5
CC
100
AcDbEntity
8
1
62
256
6
ByLayer
370
18
48
1
60
0
100
AcDbSpline
70
4
71
3
72
8
73
4
40
0
40
0
40
0
40
0
40
1
40
1
40
1
40
1
41
1
10
3.20650604218614
20
0.260887134090524
30
0
41
1
10
3.22464574889557
20
0.239695555631869
30
0
41
1
10
3.24596706457376
20
0.221558126145368
30
0
41
1
10
3.27100536222702
20
0.206961815814651
30
0
0
SPLINE
5
CD
100
AcDbEntity
8
1
62
256
6
ByLayer
370
18
48
1
60
0
100
AcDbSpline
70
4
71
3
72
16
73
12
40
0
40
0
40
0
40
0
40
0.382408884575425
40
0.382408884575425
40
0.57361332686314
40
0.57361332686314
40
0.764817769150855
40
0.764817769150855
40
0.956022211438569
40
0.956022211438569
40
1
40
1
40
1
40
1
41
1
10
7.9328917133486
20
-2.46243360723506
30
0
41
1
10
8.32314198808987
20
-2.5867090368306
30
0
41
1
10
8.71302781251143
20
-2.68578064469682
30
0
41
1
10
9.29249338684284
20
-2.80281180308592
30
0
41
1
10
9.48522825999268
20
-2.83602754538475
30
0
41
1
10
9.87167961784539
20
-2.89017231202712
30
0
41
1
10
10.0650874817421
20
-2.91131505677282
30
0
41
1
10
10.4516904931907
20
-2.94178787442837
30
0
41
1
10
10.6446744031904
20
-2.95105081147079
30
0
41
1
10
10.8835387117785
20
-2.95474059943473
30
0
41
1
10
10.92825145115
20
-2.95510658142007
30
0
41
1
10
10.9730073465787
20
-2.95514695759408
30
0
0
SPLINE
5
CE
100
AcDbEntity
8
1
62
256
6
ByLayer
370
18
48
1
60
0
100
AcDbSpline
70
4
71
3
72
78
73
74
40
0
40
0
40
0
40
0
40
0.0046779058766682
40
0.0046779058766682
40
0.0335513014691874
40
0.0335513014691874
40
0.0624246970617067
40
0.0624246970617067
40
0.0912980926542259
40
0.0912980926542259
40
0.105734790450486
40
0.105734790450486
40
0.120171488246745
40
0.120171488246745
40
0.149044883839264
40
0.149044883839264
40
0.177918279431785
40
0.177918279431785
40
0.206791675024306
40
0.206791675024306
40
0.235665070616826
40
0.235665070616826
40
0.264538466209347
40
0.264538466209347
40
0.293411861801868
40
0.293411861801868
40
0.322285257394388
40
0.322285257394388
40
0.351158652986909
40
0.351158652986909
40
0.38003204857943
40
0.38003204857943
40
0.40890544417195
40
0.40890544417195
40
0.437778839764471
40
0.437778839764471
40
0.466652235356992
40
0.466652235356992
40
0.495525630949512
40
0.495525630949512
40
0.553272422134554
40
0.553272422134554
40
0.582145817727074
40
0.582145817727074
40
0.611019213319593
40
0.611019213319593
40
0.639892608912113
40
0.639892608912113
40
0.668766004504633
40
0.668766004504633
40
0.697639400097153
40
0.697639400097153
40
0.726512795689673
40
0.726512795689673
40
0.755386191282193
40
0.755386191282193
40
0.784259586874712
40
0.784259586874712
40
0.813132982467232
40
0.813132982467232
40
0.842006378059752
40
0.842006378059752
40
0.870879773652272
40
0.870879773652272
40
0.899753169244792
40
0.899753169244792
40
0.928626564837312
40
0.928626564837312
40
0.957499960429832
40
0.957499960429832
40
0.986373356022351
40
0.986373356022351
40
1
40
1
40
1
40
1
41
1
10
23.5438845078427
20
2.21495614213367
30
0
41
1
10
23.5751473981458
20
2.22682404353159
30
0
41
1
10
23.6064157886285
20
2.23855439545406
30
0
41
1
10
23.8307666424192
20
2.32164701617637
30
0
41
1
10
24.0239330110794
20
2.38813569889595
30
0
41
1
10
24.4099031537098
20
2.51171071905071
30
0
41
1
10
24.6023119347676
20
2.56910425635152
30
0
41
1
10
24.9888251020434
20
2.67229823635509
30
0
41
1
10
25.1828763916146
20
2.71823733879594
30
0
41
1
10
25.4747054518525
20
2.77896859772142
30
0
41
1
10
25.5721226632854
20
2.79783411934014
30
0
41
1
10
25.7670935336858
20
2.83282747562163
30
0
41
1
10
25.8647646236732
20
2.84897535490947
30
0
41
1
10
26.1572581413964
20
2.89250617855052
30
0
41
1
10
26.3519003927922
20
2.91510680369473
30
0
41
1
10
26.7400383544905
20
2.94819987957348
30
0
41
1
10
26.9334077443994
20
2.95870419369877
30
0
41
1
10
27.3188438044672
20
2.9674200567799
30
0
41
1
10
27.5116860400144
20
2.96557638400549
30
0
41
1
10
27.8978092959895
20
2.94986184730749
30
0
41
1
10
28.0910015230081
20
2.93601099752155
30
0
41
1
10
28.4768851970462
20
2.89578489628687
30
0
41
1
10
28.6701066358452
20
2.86950324712228
30
0
41
1
10
29.058736732814
20
2.80538418559533
30
0
41
1
10
29.2540567431512
20
2.76742498194903
30
0
41
1
10
29.6449057774923
20
2.67918263506954
30
0
41
1
10
29.8389059455847
20
2.62902589289663
30
0
41
1
10
30.2270198899639
20
2.51938205482671
30
0
41
1
10
30.4207807964007
20
2.45966294729951
30
0
41
1
10
30.8071731484413
20
2.33002978270906
30
0
41
1
10
30.9994067287499
20
2.25960760028639
30
0
41
1
10
31.3848512702352
20
2.11081595709183
30
0
41
1
10
31.577988434618
20
2.03244262979416
30
0
41
1
10
31.9644936742808
20
1.86704375979656
30
0
41
1
10
32.157556294825
20
1.77954988362166
30
0
41
1
10
32.5449297168095
20
1.59698655636825
30
0
41
1
10
32.7396900337628
20
1.50264817555691
30
0
41
1
10
33.1308789665121
20
1.30710019740073
30
0
41
1
10
33.3259900779676
20
1.20624651641907
30
0
41
1
10
33.907373912493
20
0.896147924332752
30
0
41
1
10
34.294493841937
20
0.685103094789667
30
0
41
1
10
34.8719668852588
20
0.357845722999286
30
0
41
1
10
35.0643770269002
20
0.247755712297391
30
0
41
1
10
35.4505981741488
20
0.0283776189489799
30
0
41
1
10
35.6441276702013
20
-0.081405029154439
30
0
41
1
10
36.0314376739544
20
-0.302256848192485
30
0
41
1
10
36.2250861636396
20
-0.413583689508499
30
0
41
1
10
36.615343665525
20
-0.632609061960466
30
0
41
1
10
36.8112850039824
20
-0.740784459606431
30
0
41
1
10
37.2001117686916
20
-0.953208389527475
30
0
41
1
10
37.3931765640664
20
-1.058420167957
30
0
41
1
10
37.7795151980697
20
-1.26191209132159
30
0
41
1
10
37.9727090101287
20
-1.36038751388153
30
0
41
1
10
38.3585550008888
20
-1.55187112474508
30
0
41
1
10
38.5508941516018
20
-1.64532795685918
30
0
41
1
10
38.9360623093925
20
-1.82503310041784
30
0
41
1
10
39.1293347523341
20
-1.91067395641298
30
0
41
1
10
39.5167615532547
20
-2.07430413887647
30
0
41
1
10
39.7107942567268
20
-2.15244826554232
30
0
41
1
10
40.0996294067884
20
-2.30090941311698
30
0
41
1
10
40.2954936410988
20
-2.37033046493826
30
0
41
1
10
40.6849771982588
20
-2.49775873942326
30
0
41
1
10
40.8790729827337
20
-2.55612589081704
30
0
41
1
10
41.2652269354403
20
-2.66280936093278
30
0
41
1
10
41.4578443264984
20
-2.71056772758112
30
0
41
1
10
41.8437071702268
20
-2.79408052216428
30
0
41
1
10
42.0366761178149
20
-2.83008857981355
30
0
41
1
10
42.4220856878385
20
-2.89083603456314
30
0
41
1
10
42.6143905873486
20
-2.91552978837058
30
0
41
1
10
43.0011683662918
20
-2.95234120075781
30
0
41
1
10
43.1952815914472
20
-2.96467939966041
30
0
41
1
10
43.4816805143927
20
-2.97384134347624
30
0
41
1
10
43.5736205697786
20
-2.97539340493987
30
0
41
1
10
43.6656155617247
20
-2.97554825212788
30
0
0
SPLINE
5
CF
100
AcDbEntity
8
1
62
256
6
ByLayer
370
18
48
1
60
0
100
AcDbSpline
70
4
71
3
72
30
73
26
40
0
40
0
40
0
40
0
40
0.250000000000022
40
0.250000000000022
40
0.375000000000029
40
0.375000000000029
40
0.500000000000036
40
0.500000000000036
40
0.625000000000043
40
0.625000000000043
40
0.75000000000005
40
0.75000000000005
40
0.812500000000054
40
0.812500000000054
40
0.843750000000051
40
0.843750000000051
40
0.851562500000048
40
0.851562500000048
40
0.859375000000046
40
0.859375000000046
40
0.867187500000043
40
0.867187500000043
40
0.87500000000004
40
0.87500000000004
40
1
40
1
40
1
40
1
41
1
10
42.2018248007207
20
1.25856630105591
30
0
41
1
10
42.4158256601224
20
1.05207674589229
30
0
41
1
10
42.6429806421913
20
0.87023729602771
30
0
41
1
10
43.0051959580697
20
0.637735791767511
30
0
41
1
10
43.1273923520077
20
0.568367429043775
30
0
41
1
10
43.3734795471884
20
0.446519982017634
30
0
41
1
10
43.4975663757361
20
0.393913163841717
30
0
41
1
10
43.7480870681597
20
0.30741069639376
30
0
41
1
10
43.8745300531891
20
0.27358776330064
30
0
41
1
10
44.1301942563773
20
0.228090685721099
30
0
41
1
10
44.2574390599472
20
0.216842754845544
30
0
41
1
10
44.4447537910966
20
0.220057673658687
30
0
41
1
10
44.5068426292399
20
0.224501771036501
30
0
41
1
10
44.5986977943338
20
0.23677344456695
30
0
41
1
10
44.6290886415918
20
0.24179562982934
30
0
41
1
10
44.6667204721626
20
0.249287717953905
30
0
41
1
10
44.6743056083221
20
0.250628090460367
30
0
41
1
10
44.6891334511216
20
0.254251083535365
30
0
41
1
10
44.6963108599705
20
0.257202705606289
30
0
41
1
10
44.7081326892096
20
0.267127639252976
30
0
41
1
10
44.7127453806067
20
0.274272956667858
30
0
41
1
10
44.716926533989
20
0.291555343454036
30
0
41
1
10
44.7180467442698
20
0.300652717868303
30
0
41
1
10
44.7436585828194
20
0.452220262428824
30
0
41
1
10
44.7527514598198
20
0.601703310721462
30
0
41
1
10
44.7515820825196
20
0.751745659653409
30
0
0
SPLINE
5
D0
100
AcDbEntity
8
1
62
256
6
ByLayer
370
18
48
1
60
0
100
AcDbSpline
70
4
71
3
72
8
73
4
40
0
40
0
40
0
40
0
40
1
40
1
40
1
40
1
41
1
10
3.27100536222702
20
0.206961815814651
30
0
41
1
10
3.29417198065798
20
0.193079889809894
30
0
41
1
10
3.31914678463033
20
0.178826023064289
30
0
41
1
10
3.34493469778744
20
0.164477597706963
30
0
0
SPLINE
5
D1
100
AcDbEntity
8
1
62
256
6
ByLayer
370
18
48
1
60
0
100
AcDbSpline
70
4
71
3
72
8
73
4
40
0
40
0
40
0
40
0
40
1
40
1
40
1
40
1
41
1
10
45.8594767460113
20
0.897199291949448
30
0
41
1
10
45.8527116625292
20
0.865834342076511
30
0
41
1
10
45.8455552083559
20
0.83455374040139
30
0
41
1
10
45.8380242237019
20
0.803353980856144
30
0
0
SPLINE
5
D2
100
AcDbEntity
8
1
62
256
6
ByLayer
370
18
48
1
60
0
100
AcDbSpline
70
4
71
3
72
10
73
6
40
0
40
0
40
0
40
0
40
0.471498162906714
40
0.471498162906714
40
1
40
1
40
1
40
1
41
1
10
3.16543469780106
20
-2.95026153599466
30
0
41
1
10
3.16544051133849
20
-2.95029828207024
30
0
41
1
10
3.16544578285101
20
-2.94615420171212
30
0
41
1
10
3.16545533105438
20
-2.92873253464543
30
0
41
1
10
3.16545945291728
20
-2.91443774811466
30
0
41
1
10
3.16546245345484
20
-2.8951320898091
30
0
0
SPLINE
5
D3
100
AcDbEntity
8
1
62
256
6
ByLayer
370
18
48
1
60
0
100
AcDbSpline
70
4
71
3
72
12
73
8
40
0
40
0
40
0
40
0
40
0.249999999999928
40
0.249999999999928
40
0.499999999999855
40
0.499999999999855
40
1
40
1
40
1
40
1
41
1
10
44.7515820825187
20
0.751745659653295
30
0
41
1
10
44.7515046372033
20
0.761682638111751
30
0
41
1
10
44.7541891555081
20
0.771618943695444
30
0
41
1
10
44.7649200697377
20
0.788741015584009
30
0
41
1
10
44.7729436434749
20
0.795896884016514
30
0
41
1
10
44.7997928072894
20
0.811435353956284
30
0
41
1
10
44.8208857102057
20
0.814829216999613
30
0
41
1
10
44.8415249061821
20
0.814422574394371
30
0
0
SPLINE
5
D4
100
AcDbEntity
8
1
62
256
6
ByLayer
370
18
48
1
60
0
100
AcDbSpline
70
4
71
3
72
8
73
4
40
0
40
0
40
0
40
0
40
1
40
1
40
1
40
1
41
1
10
45.8380242237018
20
0.803353980856286
30
0
41
1
10
45.9094439806446
20
0.637917515927427
30
0
41
1
10
45.9563223798204
20
0.470569155628823
30
0
41
1
10
45.9821657890766
20
0.30158206367517
30
0
0
SPLINE
5
D5
100
AcDbEntity
8
1
62
256
6
ByLayer
370
18
48
1
60
0
100
AcDbSpline
70
4
71
3
72
64
73
60
40
0
40
0
40
0
40
0
40
0.0343088531821912
40
0.0343088531821912
40
0.0686177063643825
40
0.0686177063643825
40
0.102926559546574
40
0.102926559546574
40
0.137235412728765
40
0.137235412728765
40
0.171544265910956
40
0.171544265910956
40
0.205853119093147
40
0.205853119093147
40
0.240161972275339
40
0.240161972275339
40
0.27447082545753
40
0.27447082545753
40
0.308779678639721
40
0.308779678639721
40
0.343088531821912
40
0.343088531821912
40
0.411706238186296
40
0.411706238186296
40
0.446015091368488
40
0.446015091368488
40
0.48032394455068
40
0.48032394455068
40
0.514632797732873
40
0.514632797732873
40
0.548941650915065
40
0.548941650915065
40
0.583250504097257
40
0.583250504097257
40
0.61755935727945
40
0.61755935727945
40
0.651868210461642
40
0.651868210461642
40
0.686177063643834
40
0.686177063643834
40
0.720485916826027
40
0.720485916826027
40
0.754794770008219
40
0.754794770008219
40
0.789103623190411
40
0.789103623190411
40
0.823412476372604
40
0.823412476372604
40
0.857721329554796
40
0.857721329554796
40
0.892030182736988
40
0.892030182736988
40
0.926339035919181
40
0.926339035919181
40
0.960647889101373
40
0.960647889101373
40
0.994956742283565
40
0.994956742283565
40
1
40
1
40
1
40
1
41
1
10
7.9328917133486
20
1.93721609855317
30
0
41
1
10
8.11291448868494
20
1.8670564726595
30
0
41
1
10
8.29243649216042
20
1.79419800516047
30
0
41
1
10
8.65017377585926
20
1.64230706861039
30
0
41
1
10
8.82833900355709
20
1.56310492589421
30
0
41
1
10
9.18404967469738
20
1.39982078624607
30
0
41
1
10
9.36158143407724
20
1.31587321259968
30
0
41
1
10
9.71681973248553
20
1.14427166361628
30
0
41
1
10
9.89437463968824
20
1.0562046569377
30
0
41
1
10
10.24946442638
20
0.876228158989903
30
0
41
1
10
10.4269438180219
20
0.784198561947591
30
0
41
1
10
10.782760910017
20
0.598238573679254
30
0
41
1
10
10.9611623675875
20
0.504190942375345
30
0
41
1
10
11.3189372389649
20
0.313452044152342
30
0
41
1
10
11.498407719007
20
0.216833257069368
30
0
41
1
10
11.858050375595
20
0.0223699406193418
30
0
41
1
10
12.0373888620286
20
-0.0744657448550186
30
0
41
1
10
12.3949693387383
20
-0.266638776134812
30
0
41
1
10
12.5731629278556
20
-0.362142689164642
30
0
41
1
10
12.9288043772914
20
-0.55172448136608
30
0
41
1
10
13.1062112384389
20
-0.645890912345919
30
0
41
1
10
13.6388521740259
20
-0.923435159286498
30
0
41
1
10
13.9935786432095
20
-1.10219836887254
30
0
41
1
10
14.5271039386223
20
-1.35991626436118
30
0
41
1
10
14.7054179719432
20
-1.44371572904592
30
0
41
1
10
15.0631976721197
20
-1.6055332167393
30
0
41
1
10
15.2427519935505
20
-1.68397864461679
30
0
41
1
10
15.6024122752788
20
-1.83570666778516
30
0
41
1
10
15.7816192508803
20
-1.90862962061627
30
0
41
1
10
16.1393075968913
20
-2.04633696830965
30
0
41
1
10
16.3175275051238
20
-2.11067462755563
30
0
41
1
10
16.6732681490852
20
-2.23240559687974
30
0
41
1
10
16.8506921171469
20
-2.28973040046458
30
0
41
1
10
17.2057511731558
20
-2.39669121417228
30
0
41
1
10
17.3833554935686
20
-2.44594858554393
30
0
41
1
10
17.7385612433453
20
-2.53442022146018
30
0
41
1
10
17.9162046745163
20
-2.57429929058191
30
0
41
1
10
18.2719631579927
20
-2.64605115234002
30
0
41
1
10
18.4502724640788
20
-2.67824134625494
30
0
41
1
10
18.808132875542
20
-2.73204399935432
30
0
41
1
10
18.9878867548317
20
-2.75321716569764
30
0
41
1
10
19.347624852092
20
-2.78641701771946
30
0
41
1
10
19.5267336327557
20
-2.79841276206406
30
0
41
1
10
19.8845454615205
20
-2.81340215167703
30
0
41
1
10
20.0630037187897
20
-2.81561092549381
30
0
41
1
10
20.4189636671666
20
-2.80896819725987
30
0
41
1
10
20.596510260271
20
-2.80072401544814
30
0
41
1
10
20.9516429521847
20
-2.77564829617748
30
0
41
1
10
21.1293393357133
20
-2.75865077626275
30
0
41
1
10
21.4848734293995
20
-2.71377739982913
30
0
41
1
10
21.6626991728618
20
-2.68599137950585
30
0
41
1
10
22.0188007000638
20
-2.62157943296182
30
0
41
1
10
22.1971692711748
20
-2.58562582682046
30
0
41
1
10
22.5553444886375
20
-2.50388659094494
30
0
41
1
10
22.7354174880139
20
-2.45735977312847
30
0
41
1
10
23.09525865365
20
-2.35589380108803
30
0
41
1
10
23.274351887565
20
-2.30108741054684
30
0
41
1
10
23.4795218826528
20
-2.23466183245571
30
0
41
1
10
23.5058072257005
20
-2.22606305255295
30
0
41
1
10
23.5320838091161
20
-2.21737831725903
30
0
0
SPLINE
5
D6
100
AcDbEntity
8
1
62
256
6
ByLayer
370
18
48
1
60
0
100
AcDbSpline
70
4
71
3
72
26
73
22
40
0
40
0
40
0
40
0
40
0.0357721365631181
40
0.0357721365631181
40
0.132194922906807
40
0.132194922906807
40
0.228617709250495
40
0.228617709250495
40
0.325040495594184
40
0.325040495594184
40
0.421463281937873
40
0.421463281937873
40
0.517886068281562
40
0.517886068281562
40
0.614308854625251
40
0.614308854625251
40
0.807154427312629
40
0.807154427312629
40
0.903577213656314
40
0.903577213656314
40
1
40
1
40
1
40
1
41
1
10
36.6386045317052
20
2.82135577906632
30
0
41
1
10
36.7046942120453
20
2.82001867737773
30
0
41
1
10
36.7708172006932
20
2.8179245008597
30
0
41
1
10
37.0152978605667
20
2.80737438480816
30
0
41
1
10
37.1938359055948
20
2.7943287071686
30
0
41
1
10
37.5521776074356
20
2.75836309600459
30
0
41
1
10
37.7325916222712
20
2.73538237508151
30
0
41
1
10
38.0926783682562
20
2.68023070961149
30
0
41
1
10
38.2720293128035
20
2.64810756642231
30
0
41
1
10
38.6296313902523
20
2.57537756988771
30
0
41
1
10
38.807990370811
20
2.53481993863696
30
0
41
1
10
39.1644514323458
20
2.44474154045727
30
0
41
1
10
39.342402465694
20
2.39495792717548
30
0
41
1
10
39.6979502201453
20
2.28685302326502
30
0
41
1
10
39.8754895277457
20
2.22855440969772
30
0
41
1
10
40.4091650917033
20
2.04272637074726
30
0
41
1
10
40.7660663196793
20
1.90339696545561
30
0
41
1
10
41.3039538405288
20
1.67398283412547
30
0
41
1
10
41.4845100653608
20
1.59426889588806
30
0
41
1
10
41.8442878896825
20
1.43001064266215
30
0
41
1
10
42.0233762286877
20
1.34537311497624
30
0
41
1
10
42.2018248007206
20
1.25856630105588
30
0
0
SPLINE
5
D7
100
AcDbEntity
8
1
62
256
6
ByLayer
370
18
48
1
60
0
100
AcDbSpline
70
4
71
3
72
8
73
4
40
0
40
0
40
0
40
0
40
1
40
1
40
1
40
1
41
1
10
45.1434971822109
20
-2.85866001113269
30
0
41
1
10
45.1040605281027
20
-2.91022926971138
30
0
41
1
10
45.0638899162629
20
-2.94457866530797
30
0
41
1
10
45.0224343996296
20
-2.9623278752652
30
0
0
SPLINE
5
D8
100
AcDbEntity
8
1
62
256
6
ByLayer
370
18
48
1
60
0
100
AcDbSpline
70
4
71
3
72
8
73
4
40
0
40
0
40
0
40
0
40
1
40
1
40
1
40
1
41
1
10
45.9998117140328
20
-0.0307271695655231
30
0
41
1
10
46.0000628993361
20
-0.0102274877548041
30
0
41
1
10
46.0000625991472
20
0.0102519867072886
30
0
41
1
10
45.9998117140328
20
0.0307271695697011
30
0
0
SPLINE
5
D9
100
AcDbEntity
8
1
62
256
6
ByLayer
370
18
48
1
60
0
100
AcDbSpline
70
4
71
3
72
8
73
4
40
0
40
0
40
0
40
0
40
1
40
1
40
1
40
1
41
1
10
45.9821657890767
20
-0.301582063674488
30
0
41
1
10
45.9889261960149
20
-0.229479604910466
30
0
41
1
10
45.9928301198743
20
-0.157389977307218
30
0
41
1
10
45.9933088720898
20
-0.0853157353816982
30
0
0
SPLINE
5
DA
100
AcDbEntity
8
1
62
256
6
ByLayer
370
18
48
1
60
0
100
AcDbSpline
70
4
71
3
72
72
73
68
40
0
40
0
40
0
40
0
40
0.0599899114184711
40
0.0599899114184711
40
0.0899848671277063
40
0.0899848671277063
40
0.119979822836941
40
0.119979822836941
40
0.149974778546177
40
0.149974778546177
40
0.179969734255412
40
0.179969734255412
40
0.209964689964647
40
0.209964689964647
40
0.239959645673882
40
0.239959645673882
40
0.269954601383117
40
0.269954601383117
40
0.299949557092352
40
0.299949557092352
40
0.329944512801587
40
0.329944512801587
40
0.359939468510822
40
0.359939468510822
40
0.389934424220058
40
0.389934424220058
40
0.419929379929293
40
0.419929379929293
40
0.449924335638528
40
0.449924335638528
40
0.479919291347763
40
0.479919291347763
40
0.509914247056998
40
0.509914247056998
40
0.539909202766233
40
0.539909202766233
40
0.569904158475468
40
0.569904158475468
40
0.599899114184704
40
0.599899114184704
40
0.659889025603173
40
0.659889025603173
40
0.689883981312408
40
0.689883981312408
40
0.719878937021643
40
0.719878937021643
40
0.749873892730877
40
0.749873892730877
40
0.779868848440112
40
0.779868848440112
40
0.809863804149347
40
0.809863804149347
40
0.839858759858581
40
0.839858759858581
40
0.869853715567816
40
0.869853715567816
40
0.899848671277051
40
0.899848671277051
40
0.914846149131668
40
0.914846149131668
40
0.929843626986286
40
0.929843626986286
40
0.95983858269552
40
0.95983858269552
40
0.989833538404754
40
0.989833538404754
40
1
40
1
40
1
40
1
41
1
10
7.9328917133486
20
2.46243360723506
30
0
41
1
10
8.32314198808987
20
2.5867090368306
30
0
41
1
10
8.71302781251143
20
2.68578064469679
30
0
41
1
10
9.29249338684281
20
2.80281180308595
30
0
41
1
10
9.48522825999268
20
2.83602754538478
30
0
41
1
10
9.87167961784536
20
2.89017231202712
30
0
41
1
10
10.0650874817421
20
2.91131505677282
30
0
41
1
10
10.4516904931907
20
2.94178787442837
30
0
41
1
10
10.6446744031904
20
2.95105081147079
30
0
41
1
10
11.033070386519
20
2.95705044713421
30
0
41
1
10
11.2281458985742
20
2.9539259389114
30
0
41
1
10
11.6195150653937
20
2.93516237410799
30
0
41
1
10
11.8143049762395
20
2.91937674127101
30
0
41
1
10
12.20285857825
20
2.87598700390842
30
0
41
1
10
12.3969271013281
20
2.84847412727049
30
0
41
1
10
12.7840777898228
20
2.78186974977089
30
0
41
1
10
12.9768668870556
20
2.74255284253641
30
0
41
1
10
13.3623286272825
20
2.65264720937611
30
0
41
1
10
13.5555090274851
20
2.60248993928886
30
0
41
1
10
13.9423037657646
20
2.49161188249991
30
0
41
1
10
14.1358147800231
20
2.43078576101607
30
0
41
1
10
14.5230090116608
20
2.29785685125668
30
0
41
1
10
14.7174720236358
20
2.22659908057133
30
0
41
1
10
15.1084613990255
20
2.0749673063948
30
0
41
1
10
15.3045629774176
20
1.99457452279677
30
0
41
1
10
15.6931148540963
20
1.82516659042179
30
0
41
1
10
15.8866293041292
20
1.73660225841584
30
0
41
1
10
16.2738539768624
20
1.55446731341402
30
0
41
1
10
16.4672718709334
20
1.46048883408719
30
0
41
1
10
16.8531245631234
20
1.2657757366139
30
0
41
1
10
17.0453866969068
20
1.16471477495324
30
0
41
1
10
17.4315895823145
20
0.960118681851441
30
0
41
1
10
17.6251828637737
20
0.856051029126292
30
0
41
1
10
18.0127988541179
20
0.643378856384686
30
0
41
1
10
18.2064311946253
20
0.534035557831373
30
0
41
1
10
18.5961665819806
20
0.314283847603662
30
0
41
1
10
18.7925414419981
20
0.203679718205223
30
0
41
1
10
19.182397102314
20
-0.0170755932242344
30
0
41
1
10
19.3761258245829
20
-0.128094070089873
30
0
41
1
10
19.9560767762017
20
-0.458714457761062
30
0
41
1
10
20.3427923904163
20
-0.672912427795353
30
0
41
1
10
20.9206013993484
20
-0.989131370684476
30
0
41
1
10
21.1136984807937
20
-1.09216876617057
30
0
41
1
10
21.5011359350307
20
-1.29313114331873
30
0
41
1
10
21.6953772262442
20
-1.39123007583109
30
0
41
1
10
22.0841686408043
20
-1.58374104258704
30
0
41
1
10
22.2798217298067
20
-1.6775639846829
30
0
41
1
10
22.6701348742737
20
-1.85540711010287
30
0
41
1
10
22.8646894763466
20
-1.94002836130557
30
0
41
1
10
23.2520055177408
20
-2.10159600407496
30
0
41
1
10
23.4446253799727
20
-2.17863222963302
30
0
41
1
10
23.8307666424192
20
-2.32164701617637
30
0
41
1
10
24.0239330110794
20
-2.38813569889595
30
0
41
1
10
24.4099031537098
20
-2.51171071905071
30
0
41
1
10
24.6023119347676
20
-2.56910425635155
30
0
41
1
10
24.9888251020434
20
-2.67229823635509
30
0
41
1
10
25.1828763916146
20
-2.71823733879597
30
0
41
1
10
25.4747054518525
20
-2.77896859772142
30
0
41
1
10
25.5721226632855
20
-2.79783411934014
30
0
41
1
10
25.7670935336858
20
-2.83282747562163
30
0
41
1
10
25.8647646236732
20
-2.8489753549095
30
0
41
1
10
26.1572581413964
20
-2.89250617855055
30
0
41
1
10
26.3519003927922
20
-2.91510680369473
30
0
41
1
10
26.7400383544905
20
-2.94819987957348
30
0
41
1
10
26.9334077443994
20
-2.95870419369877
30
0
41
1
10
27.1914454391811
20
-2.96453919838694
30
0
41
1
10
27.2567793726178
20
-2.96530383324543
30
0
41
1
10
27.3221312810568
20
-2.96536335035009
30
0
0
SPLINE
5
DB
100
AcDbEntity
8
1
62
256
6
ByLayer
370
18
48
1
60
0
100
AcDbSpline
70
4
71
3
72
26
73
22
40
0
40
0
40
0
40
0
40
0.0044245750271357
40
0.0044245750271357
40
0.115044066690787
40
0.115044066690787
40
0.225663558354439
40
0.225663558354439
40
0.336283050018091
40
0.336283050018091
40
0.446902541681742
40
0.446902541681742
40
0.557522033345394
40
0.557522033345394
40
0.668141525009045
40
0.668141525009045
40
0.778761016672697
40
0.778761016672697
40
0.889380508336348
40
0.889380508336348
40
1
40
1
40
1
40
1
41
1
10
39.8818846447531
20
2.21775281464875
30
0
41
1
10
39.8896597608143
20
2.22073440696548
30
0
41
1
10
39.8974354884172
20
2.22370975370029
30
0
41
1
10
40.0996294067884
20
2.30090941311701
30
0
41
1
10
40.2954936410988
20
2.37033046493826
30
0
41
1
10
40.6849771982587
20
2.49775873942329
30
0
41
1
10
40.8790729827337
20
2.55612589081707
30
0
41
1
10
41.2652269354403
20
2.66280936093276
30
0
41
1
10
41.4578443264984
20
2.71056772758115
30
0
41
1
10
41.8437071702269
20
2.79408052216431
30
0
41
1
10
42.0366761178149
20
2.83008857981355
30
0
41
1
10
42.4220856878386
20
2.89083603456314
30
0
41
1
10
42.6143905873486
20
2.91552978837061
30
0
41
1
10
43.0011683662918
20
2.95234120075781
30
0
41
1
10
43.1952815914472
20
2.96467939966041
30
0
41
1
10
43.5844252008703
20
2.97712816116118
30
0
41
1
10
43.7795040601909
20
2.97713204704638
30
0
41
1
10
44.1695723450118
20
2.9644759789528
30
0
41
1
10
44.3646904486107
20
2.95196524652022
30
0
41
1
10
44.75447796264
20
2.91467426318849
30
0
41
1
10
44.9488109185305
20
2.88971500635702
30
0
41
1
10
45.143497182211
20
2.85866001113263
30
0
0
SPLINE
5
DC
100
AcDbEntity
8
1
62
256
6
ByLayer
370
18
48
1
60
0
100
AcDbSpline
70
4
71
3
72
34
73
30
40
0
40
0
40
0
40
0
40
0.0358399451673951
40
0.0358399451673951
40
0.175267710615882
40
0.175267710615882
40
0.314695476064369
40
0.314695476064369
40
0.454123241512856
40
0.454123241512856
40
0.5238371242371
40
0.5238371242371
40
0.558694065599222
40
0.558694065599222
40
0.576122536280282
40
0.576122536280282
40
0.580479653950548
40
0.580479653950548
40
0.584836771620813
40
0.584836771620813
40
0.589193889291078
40
0.589193889291078
40
0.593551006961343
40
0.593551006961343
40
0.73297877240983
40
0.73297877240983
40
0.872406537858317
40
0.872406537858317
40
1
40
1
40
1
40
1
41
1
10
7.9328917133486
20
2.46243360723164
30
0
41
1
10
7.93289171334857
20
2.41542459536328
30
0
41
1
10
7.93289171334857
20
2.36899395478054
30
0
41
1
10
7.93289171334857
20
2.14549716604418
30
0
41
1
10
7.93289171334854
20
1.98162664143459
30
0
41
1
10
7.93289171334854
20
1.67860215223479
30
0
41
1
10
7.93289171334857
20
1.53925573356477
30
0
41
1
10
7.93289171334857
20
1.28565799149692
30
0
41
1
10
7.93289171334857
20
1.17375259292882
30
0
41
1
10
7.93289171334857
20
1.02669638724686
30
0
41
1
10
7.93289171334857
20
0.981138962346279
30
0
41
1
10
7.93289171334857
20
0.918098239627909
30
0
41
1
10
7.93289171334857
20
0.898007186622351
30
0
41
1
10
7.93289171334857
20
0.869240859064575
30
0
41
1
10
7.9328917133486
20
0.859877684945587
30
0
41
1
10
7.9328917133486
20
0.848468461478092
30
0
41
1
10
7.93289171334504
20
0.845936189995001
30
0
41
1
10
7.93289171334504
20
0.84256384579831
30
0
41
1
10
7.93289171334857
20
0.841667986369345
30
0
41
1
10
7.93289171334857
20
0.841627106726349
30
0
41
1
10
7.93289171334857
20
0.842486414120089
30
0
41
1
10
7.93289171334857
20
0.845867076621971
30
0
41
1
10
7.93289171334857
20
0.848508800473098
30
0
41
1
10
7.93289171334857
20
0.92724108548191
30
0
41
1
10
7.93289171334857
20
1.02042436867157
30
0
41
1
10
7.93289171334857
20
1.23928059474196
30
0
41
1
10
7.9328917133486
20
1.3637886646747
30
0
41
1
10
7.9328917133486
20
1.63300052086132
30
0
41
1
10
7.93289171334857
20
1.77646305638319
30
0
41
1
10
7.93289171334857
20
1.92987177336528
30
0
0
SPLINE
5
DD
100
AcDbEntity
8
1
62
256
6
ByLayer
370
18
48
1
60
0
100
AcDbSpline
70
4
71
3
72
22
73
18
40
0
40
0
40
0
40
0
40
0.0639252076912427
40
0.0639252076912427
40
0.220603789522536
40
0.220603789522536
40
0.298943080438183
40
0.298943080438183
40
0.377282371353831
40
0.377282371353831
40
0.690639535016423
40
0.690639535016423
40
0.768978825932072
40
0.768978825932072
40
0.847318116847722
40
0.847318116847722
40
1
40
1
40
1
40
1
41
1
10
15.8548765694614
20
2.07520893819614
30
0
41
1
10
16.0317541044263
20
2.0060360163591
30
0
41
1
10
16.2082914148028
20
1.93339562596933
30
0
41
1
10
16.817150071779
20
1.67192692818196
30
0
41
1
10
17.2487946378647
20
1.4671838622798
30
0
41
1
10
17.8998127395761
20
1.13855911319536
30
0
41
1
10
18.1174356909506
20
1.02548470287965
30
0
41
1
10
18.5547447882479
20
0.793437801941906
30
0
41
1
10
18.7740015483826
20
0.674521491863857
30
0
41
1
10
19.8626364017461
20
0.076674182232864
30
0
41
1
10
20.7209059286422
20
-0.417339765799255
30
0
41
1
10
21.80912027898
20
-0.997768085947087
30
0
41
1
10
22.0280218451367
20
-1.11226061140638
30
0
41
1
10
22.4658300617943
20
-1.33471623640773
30
0
41
1
10
22.6842051737388
20
-1.44238020651912
30
0
41
1
10
23.3276119924097
20
-1.74779307396736
30
0
41
1
10
23.7526865544936
20
-1.93408493151401
30
0
41
1
10
24.1793981706631
20
-2.09986475883878
30
0
0
SPLINE
5
DE
100
AcDbEntity
8
1
62
256
6
ByLayer
370
13
48
1
60
0
100
AcDbSpline
70
4
71
3
72
18
73
14
40
0
40
0
40
0
40
0
40
0.0062684741931457
40
0.0062684741931457
40
0.497728253725877
40
0.497728253725877
40
0.620593198609055
40
0.620593198609055
40
0.743458143492234
40
0.743458143492234
40
0.989188033258584
40
0.989188033258584
40
1
40
1
40
1
40
1
41
1
10
24.1793972384679
20
-2.09986439667574
30
0
41
1
10
24.1905674254674
20
-2.1042040770262
30
0
41
1
10
24.2017387342648
20
-2.10852970141599
30
0
41
1
10
25.0888525965449
20
-2.45086901802622
30
0
41
1
10
25.9470661233449
20
-2.69206360562194
30
0
41
1
10
27.0293842107094
20
-2.84849586908862
30
0
41
1
10
27.2463679664643
20
-2.87254243246443
30
0
41
1
10
27.6820476494225
20
-2.90560457031688
30
0
41
1
10
27.9014774862544
20
-2.91461262875006
30
0
41
1
10
28.5562467661804
20
-2.91828408233525
30
0
41
1
10
28.9890538699334
20
-2.88990720192444
30
0
41
1
10
29.4400490368213
20
-2.8297391699335
30
0
41
1
10
29.4590552306032
20
-2.82714696402084
30
0
41
1
10
29.4780606623564
20
-2.82449847235014
30
0
0
SPLINE
5
DF
100
AcDbEntity
8
1
62
256
6
ByLayer
370
18
48
1
60
0
100
AcDbSpline
70
4
71
3
72
14
73
10
40
0
40
0
40
0
40
0
40
0.29286673000116
40
0.29286673000116
40
0.58573346000232
40
0.58573346000232
40
0.87860019000348
40
0.87860019000348
40
1
40
1
40
1
40
1
41
1
10
3.34493469778744
20
0.164477597706963
30
0
41
1
10
3.78338466910185
20
-0.0794764845024929
30
0
41
1
10
4.22265032119779
20
-0.325266331687828
30
0
41
1
10
5.09230404669984
20
-0.800903704425679
30
0
41
1
10
5.524281611692
20
-1.0316304202006
30
0
41
1
10
6.38941910437833
20
-1.46708378303592
30
0
41
1
10
6.82236816312735
20
-1.67217235845962
30
0
41
1
10
7.43984149037394
20
-1.93687541876136
30
0
41
1
10
7.62182964725872
20
-2.01148677424106
30
0
41
1
10
7.80316858786406
20
-2.08206310034217
30
0
0
SPLINE
5
E0
100
AcDbEntity
8
1
62
256
6
ByLayer
370
13
48
1
60
0
100
AcDbSpline
70
4
71
3
72
18
73
14
40
0
40
0
40
0
40
0
40
0.0208227794855603
40
0.0208227794855603
40
0.142625941426369
40
0.142625941426369
40
0.629838589189596
40
0.629838589189596
40
0.751641751130402
40
0.751641751130402
40
0.873444913071207
40
0.873444913071207
40
1
40
1
40
1
40
1
41
1
10
7.80316919436944
20
-2.0820633363914
30
0
41
1
10
7.84056244700056
20
-2.0966166257594
30
0
41
1
10
7.87792809417053
20
-2.11099834124605
30
0
41
1
10
8.1335741775824
20
-2.20826631077875
30
0
41
1
10
8.35096444613311
20
-2.28538837523007
30
0
41
1
10
9.4352781892247
20
-2.63946418457107
30
0
41
1
10
10.2942994455515
20
-2.82181562426484
30
0
41
1
10
11.3896343256999
20
-2.89808038130323
30
0
41
1
10
11.6083756328825
20
-2.90562591750896
30
0
41
1
10
12.0435012757385
20
-2.90537836162747
30
0
41
1
10
12.260316691328
20
-2.89765648444111
30
0
41
1
10
12.7017568427564
20
-2.86672771644666
30
0
41
1
10
12.926281061784
20
-2.84288181963839
30
0
41
1
10
13.1508651298182
20
-2.81117527875395
30
0
0
SPLINE
5
E1
100
AcDbEntity
8
1
62
256
6
ByLayer
370
18
48
1
60
0
100
AcDbSpline
70
4
71
3
72
24
73
20
40
0
40
0
40
0
40
0
40
0.106275207011579
40
0.106275207011579
40
0.264540220359182
40
0.264540220359182
40
0.343672727032986
40
0.343672727032986
40
0.42280523370679
40
0.42280523370679
40
0.581070247054392
40
0.581070247054392
40
0.739335260401995
40
0.739335260401995
40
0.818467767075797
40
0.818467767075797
40
0.897600273749598
40
0.897600273749598
40
1
40
1
40
1
40
1
41
1
10
32.4543414367084
20
1.98241160492427
30
0
41
1
10
32.7452935208952
20
1.86284073890175
30
0
41
1
10
33.0353473012262
20
1.73441836024719
30
0
41
1
10
33.7569893433997
20
1.39550487646434
30
0
41
1
10
34.1890635288968
20
1.17668425743787
30
0
41
1
10
34.8416253196232
20
0.830276820018838
30
0
41
1
10
35.0606882536934
20
0.711581070791425
30
0
41
1
10
35.4976585251052
20
0.471567286351956
30
0
41
1
10
35.7150719031355
20
0.350518029653102
30
0
41
1
10
36.3653115638238
20
-0.0135562392318604
30
0
41
1
10
36.7964313298145
20
-0.256954812092658
30
0
41
1
10
37.6599599072927
20
-0.734237559271975
30
0
41
1
10
38.092175538124
20
-0.968472826417525
30
0
41
1
10
38.746068280498
20
-1.3043597817466
30
0
41
1
10
38.9654923483598
20
-1.41372406982367
30
0
41
1
10
39.4011347313813
20
-1.62282414130266
30
0
41
1
10
39.6180351903653
20
-1.72294733793771
30
0
41
1
10
40.1143818029174
20
-1.94142043356797
30
0
41
1
10
40.3935107179349
20
-2.05641533915551
30
0
41
1
10
40.6726475394386
20
-2.16210685499956
30
0
0
SPLINE
5
E2
100
AcDbEntity
8
1
62
256
6
ByLayer
370
13
48
1
60
0
100
AcDbSpline
70
4
71
3
72
14
73
10
40
0
40
0
40
0
40
0
40
0.403516693247032
40
0.403516693247032
40
0.552637519935274
40
0.552637519935274
40
0.701758346623517
40
0.701758346623517
40
1
40
1
40
1
40
1
41
1
10
40.6726475394369
20
-2.16210685499894
30
0
41
1
10
41.2563566336163
20
-2.38312068844263
30
0
41
1
10
41.8401003012024
20
-2.5634527484759
30
0
41
1
10
42.6503979542828
20
-2.74142708346315
30
0
41
1
10
42.869004960376
20
-2.78226946402938
30
0
41
1
10
43.304300276337
20
-2.84886619880308
30
0
41
1
10
43.521408697503
20
-2.87471727115417
30
0
41
1
10
44.172449661909
20
-2.9296422708303
30
0
41
1
10
44.606076567812
20
-2.9360184676209
30
0
41
1
10
45.0419908787838
20
-2.91139795823088
30
0
0
SPLINE
5
E3
100
AcDbEntity
8
1
62
256
6
ByLayer
370
18
48
1
60
0
100
AcDbSpline
70
4
71
3
72
8
73
4
40
0
40
0
40
0
40
0
40
1
40
1
40
1
40
1
41
1
10
45.9821657890766
20
0.30158206367517
30
0
41
1
10
45.988934362909
20
0.229392501700659
30
0
41
1
10
45.9928307326956
20
0.157297719500519
30
0
41
1
10
45.9933088720898
20
0.0853157353816698
30
0
0
SPLINE
5
E4
100
AcDbEntity
8
SK1
62
256
6
ByLayer
370
18
48
1
60
0
100
AcDbSpline
70
4
71
3
72
8
73
4
40
0
40
0
40
0
40
0
40
1
40
1
40
1
40
1
41
1
10
-36
20
-1.73787812012608
30
0
41
1
10
-35.8061328140697
20
-2.05262526556726
30
0
41
1
10
-35.6037942847135
20
-2.36363625752267
30
0
41
1
10
-35.4
20
-2.67400521135275
30
0
0
SPLINE
5
E5
100
AcDbEntity
8
SK1
62
256
6
ByLayer
370
18
48
1
60
0
100
AcDbSpline
70
4
71
3
72
14
73
10
40
0
40
0
40
0
40
0
40
0.125
40
0.125
40
0.249999999999999
40
0.249999999999999
40
0.499999999999999
40
0.499999999999999
40
1
40
1
40
1
40
1
41
1
10
-35.3
20
-2.10208544205557
30
0
41
1
10
-35.3
20
-2.09431269815357
30
0
41
1
10
-35.3017593723636
20
-2.08445081517138
30
0
41
1
10
-35.3069353411979
20
-2.06422706251286
30
0
41
1
10
-35.3102739075534
20
-2.05395365272511
30
0
41
1
10
-35.3215583577555
20
-2.02286033980621
30
0
41
1
10
-35.3303095934911
20
-2.00293221605807
30
0
41
1
10
-35.358391202053
20
-1.94437985449065
30
0
41
1
10
-35.378655954467
20
-1.90886746537984
30
0
41
1
10
-35.4
20
-1.87636150432255
30
0
0
SPLINE
5
E6
100
AcDbEntity
8
SK1
62
256
6
ByLayer
370
18
48
1
60
0
100
AcDbSpline
70
4
71
3
72
8
73
4
40
0
40
0
40
0
40
0
40
1
40
1
40
1
40
1
41
1
10
-35.4
20
-1.87636150432255
30
0
41
1
10
-35.6037655711656
20
-1.56603627985328
30
0
41
1
10
-35.8060886479579
20
-1.25505326307825
30
0
41
1
10
-36
20
-0.94023441309588
30
0
0
SPLINE
5
E7
100
AcDbEntity
8
SK1
62
256
6
ByLayer
370
18
48
1
60
0
100
AcDbSpline
70
4
71
3
72
14
73
10
40
0
40
0
40
0
40
0
40
0.500000000000001
40
0.500000000000001
40
0.75
40
0.75
40
0.875
40
0.875
40
1
40
1
40
1
40
1
41
1
10
-35.3999999999999
20
-2.67400521135326
30
0
41
1
10
-35.3787677796885
20
-2.70634086794354
30
0
41
1
10
-35.3584290958895
20
-2.73549598386981
30
0
41
1
10
-35.3303626450498
20
-2.7714453755701
30
0
41
1
10
-35.3215171954455
20
-2.78199003768359
30
0
41
1
10
-35.3102812516991
20
-2.79284004656597
30
0
41
1
10
-35.3068890218584
20
-2.79559041713839
30
0
41
1
10
-35.3017585680987
20
-2.79772404499755
30
0
41
1
10
-35.3
20
-2.79706532666464
30
0
41
1
10
-35.3
20
-2.79337665481509
30
0
0
LINE
5
76
100
AcDbEntity
8
81
62
256
6
ByLayer
370
18
48
1
60
0
100
AcDbLine
10
46
20
0
30
0
11
51
21
0
31
0
39
0
210
0
220
0
230
1
0
LINE
5
77
100
AcDbEntity
8
1
62
256
6
ByLayer
370
18
48
1
60
0
100
AcDbLine
10
3.165431
20
2.950264
30
0
11
0.0235
21
2.9483
31
0
39
0
210
0
220
0
230
1
0
LINE
5
79
100
AcDbEntity
8
1
62
256
6
ByLayer
370
18
48
1
60
0
100
AcDbLine
10
44.516429
20
2.976108
30
0
11
43.675108
21
2.975582
31
0
39
0
210
0
220
0
230
1
0
LINE
5
7A
100
AcDbEntity
8
1
62
256
6
ByLayer
370
18
48
1
60
0
100
AcDbLine
10
43.675108
20
-2.975582
30
0
11
44.515992
21
-2.976108
31
0
39
0
210
0
220
0
230
1
0
LINE
5
7B
100
AcDbEntity
8
1
62
256
6
ByLayer
370
18
48
1
60
0
100
AcDbLine
10
0.0235
20
-2.9483
30
0
11
3.165431
21
-2.950264
31
0
39
0
210
0
220
0
230
1
0
LINE
5
7C
100
AcDbEntity
8
1
62
256
6
ByLayer
370
18
48
1
60
0
100
AcDbLine
10
0
20
-3
30
0
11
0.0235
21
-2.9483
31
0
39
0
210
0
220
0
230
1
0
LINE
5
7D
100
AcDbEntity
8
1
62
256
6
ByLayer
370
18
48
1
60
0
100
AcDbLine
10
0.0235
20
2.9483
30
0
11
0
21
3
31
0
39
0
210
0
220
0
230
1
0
LINE
5
7E
100
AcDbEntity
8
1
62
256
6
ByLayer
370
18
48
1
60
0
100
AcDbLine
10
11.815365
20
2.95567
30
0
11
10.976182
21
2.955146
31
0
39
0
210
0
220
0
230
1
0
LINE
5
7F
100
AcDbEntity
8
1
62
256
6
ByLayer
370
18
48
1
60
0
100
AcDbLine
10
28.165572
20
2.965889
30
0
11
27.325469
21
2.965364
31
0
39
0
210
0
220
0
230
1
0
LINE
5
80
100
AcDbEntity
8
1
62
256
6
ByLayer
370
18
48
1
60
0
100
AcDbLine
10
27.325469
20
-2.965364
30
0
11
28.165651
21
-2.965889
31
0
39
0
210
0
220
0
230
1
0
LINE
5
81
100
AcDbEntity
8
1
62
256
6
ByLayer
370
18
48
1
60
0
100
AcDbLine
10
10.976182
20
-2.955146
30
0
11
11.815503
21
-2.95567
31
0
39
0
210
0
220
0
230
1
0
LINE
5
82
100
AcDbEntity
8
SK1
62
256
6
ByLayer
370
18
48
1
60
0
100
AcDbLine
10
0
20
3
30
0
11
-35.278312
21
3
31
0
39
0
210
0
220
0
230
1
0
LINE
5
84
100
AcDbEntity
8
SK1
62
256
6
ByLayer
370
18
48
1
60
0
100
AcDbLine
10
-35.278312
20
-3
30
0
11
0
21
-3
31
0
39
0
210
0
220
0
230
1
0
LINE
5
85
100
AcDbEntity
8
SK1
62
256
6
ByLayer
370
18
48
1
60
0
100
AcDbLine
10
-35.278312
20
3
30
0
11
-36
21
1.75
31
0
39
0
210
0
220
0
230
1
0
LINE
5
86
100
AcDbEntity
8
SK1
62
256
6
ByLayer
370
18
48
1
60
0
100
AcDbLine
10
-36
20
-1.75
30
0
11
-35.278312
21
-3
31
0
39
0
210
0
220
0
230
1
0
LINE
5
87
100
AcDbEntity
8
SK4
62
256
6
ByLayer
370
18
48
0.05
60
0
100
AcDbLine
10
51
20
0
30
0
11
-41
21
0
31
0
39
0
210
0
220
0
230
1
0
LINE
5
89
100
AcDbEntity
8
4
62
256
6
ByLayer
370
18
48
0.05
60
0
100
AcDbLine
10
46
20
0
30
0
11
0
21
0
31
0
39
0
210
0
220
0
230
1
0
LINE
5
8B
100
AcDbEntity
8
80
62
256
6
ByLayer
370
18
48
1
60
0
100
AcDbLine
10
0
20
0
30
0
11
-5
21
0
31
0
39
0
210
0
220
0
230
1
0
LINE
5
8C
100
AcDbEntity
8
1
62
256
6
ByLayer
370
18
48
1
60
0
100
AcDbLine
10
3.725088
20
-0.047196
30
0
11
3.72508
21
-0.048003
31
0
39
0
210
0
220
0
230
1
0
LINE
5
8D
100
AcDbEntity
8
1
62
256
6
ByLayer
370
13
48
1
60
0
100
AcDbLine
10
44.751582
20
0.751746
30
0
11
45.978442
21
-0.024886
31
0
39
0
210
0
220
0
230
1
0
LINE
5
8E
100
AcDbEntity
8
1
62
256
6
ByLayer
370
18
48
1
60
0
100
AcDbLine
10
0
20
-3
30
0
11
0
21
3
31
0
39
0
210
0
220
0
230
1
0
LINE
5
8F
100
AcDbEntity
8
1
62
256
6
ByLayer
370
13
48
1
60
0
100
AcDbLine
10
44.841525
20
0.814423
30
0
11
45.993309
21
0.085316
31
0
39
0
210
0
220
0
230
1
0
LINE
5
90
100
AcDbEntity
8
1
62
256
6
ByLayer
370
18
48
1
60
0
100
AcDbLine
10
0.0235
20
2.9483
30
0
11
0.0235
21
-2.9483
31
0
39
0
210
0
220
0
230
1
0
LINE
5
91
100
AcDbEntity
8
SK1
62
256
6
ByLayer
370
18
48
1
60
0
100
AcDbLine
10
-36
20
-1.75
30
0
11
-36
21
-1.737878
31
0
39
0
210
0
220
0
230
1
0
LINE
5
92
100
AcDbEntity
8
SK1
62
256
6
ByLayer
370
18
48
1
60
0
100
AcDbLine
10
-36
20
-0.940219
30
0
11
-36
21
-1.737878
31
0
39
0
210
0
220
0
230
1
0
LINE
5
93
100
AcDbEntity
8
SK1
62
256
6
ByLayer
370
18
48
1
60
0
100
AcDbLine
10
0
20
-3
30
0
11
0
21
3
31
0
39
0
210
0
220
0
230
1
0
LINE
5
94
100
AcDbEntity
8
SK1
62
256
6
ByLayer
370
13
48
1
60
0
100
AcDbLine
10
-35.4
20
-1.87634
30
0
11
-35.4
21
-2.674005
31
0
39
0
210
0
220
0
230
1
0
LINE
5
95
100
AcDbEntity
8
SK1
62
256
6
ByLayer
370
18
48
1
60
0
100
AcDbLine
10
-35.278312
20
3
30
0
11
-35.278312
21
-3
31
0
39
0
210
0
220
0
230
1
0
LINE
5
96
100
AcDbEntity
8
SK1
62
256
6
ByLayer
370
18
48
1
60
0
100
AcDbLine
10
-36
20
1.75
30
0
11
-36
21
-0.940234
31
0
39
0
210
0
220
0
230
1
0
LINE
5
97
100
AcDbEntity
8
SK1
62
256
6
ByLayer
370
18
48
1
60
0
100
AcDbLine
10
-35.3
20
-2.793377
30
0
11
-35.3
21
-2.102085
31
0
39
0
210
0
220
0
230
1
0
MTEXT
5
E8
100
AcDbEntity
8
SK6
62
256
6
ByLayer
370
13
48
1
60
0
100
AcDbMText
10
7.129169
20
35.359194
30
0
210
0
220
0
230
1
1
\W0.7538;460.1-0595-030A1-XM GC34
40
3.5
41
0
44
1.084337
50
0
71
8
72
5
7
iso_b_vert
0
DIMENSION
5
F5
100
AcDbEntity
8
SK2
62
256
6
ByLayer
370
13
48
1
60
0
100
AcDbDimension
2
DimnDraft3D1
10
45.1263
20
-13.189898
30
0
11
21.376359
21
-13.189898
31
0
70
32
71
5
72
1
41
1
210
0
220
0
230
1
3
Standard
100
AcDbAlignedDimension
13
0
23
-1.5875
33
0
14
45.1263
24
-4.564
34
0
50
0
100
AcDbRotatedDimension
1001
ACAD
1000
DSTYLE
1002
{
1070
   279
1070
     0
1070
   172
1070
     1
1070
   173
1070
     1
1070
   340
1005
E9
1070
   271
1070
     2
1070
   272
1070
     2
1070
    77
1070
     1
1070
    73
1070
     0
1070
   171
1070
     3
1070
   274
1070
     4
1070
   177
1070
    35
1070
   176
1070
    35
1070
   178
1070
    35
1070
    48
1040
-0.005
1070
    41
1041
3.5
1070
   147
1041
1.75
1070
    42
1041
1.5875
1070
    44
1041
2.0
1070
   140
1041
3.5
1070
   343
1005
0
1070
   344
1005
0
1002
}
0
DIMENSION
5
FF
100
AcDbEntity
8
SK2
62
256
6
ByLayer
370
13
48
1
60
0
100
AcDbDimension
2
DimnDraft3D2
10
46
20
-31.692985
30
0
11
5.4676
21
-31.692985
31
0
70
32
71
5
72
1
41
1
210
0
220
0
230
1
3
Standard
100
AcDbAlignedDimension
13
-36
23
-4.5875
33
0
14
46
24
-1.5875
34
0
50
0
100
AcDbRotatedDimension
1001
ACAD
1000
DSTYLE
1002
{
1070
   279
1070
     0
1070
   172
1070
     1
1070
   173
1070
     1
1070
   340
1005
E9
1070
   271
1070
     2
1070
   272
1070
     2
1070
    77
1070
     1
1070
    73
1070
     0
1070
   171
1070
     3
1070
   274
1070
     4
1070
   177
1070
    35
1070
   176
1070
    35
1070
   178
1070
    35
1070
    48
1040
-0.005
1070
    41
1041
3.5
1070
   147
1041
1.75
1070
    42
1041
1.5875
1070
    44
1041
2.0
1070
   140
1041
3.5
1070
   343
1005
0
1070
   344
1005
0
1002
}
0
DIMENSION
5
109
100
AcDbEntity
8
SK2
62
256
6
ByLayer
370
13
48
1
60
0
100
AcDbDimension
2
DimnDraft3D3
10
46
20
14.585619
30
0
11
30.69
21
14.585619
31
0
70
32
71
5
72
1
41
1
210
0
220
0
230
1
3
Standard
100
AcDbAlignedDimension
13
15.38
23
4.564
33
0
14
46
24
1.5875
34
0
50
0
100
AcDbRotatedDimension
1001
ACAD
1000
DSTYLE
1002
{
1070
   279
1070
     0
1070
   172
1070
     1
1070
   173
1070
     1
1070
   340
1005
E9
1070
   271
1070
     2
1070
   272
1070
     2
1070
    77
1070
     1
1070
    73
1070
     0
1070
   171
1070
     3
1070
   274
1070
     4
1070
   177
1070
    35
1070
   176
1070
    35
1070
   178
1070
    35
1070
    48
1040
-0.005
1070
    41
1041
3.5
1070
   147
1041
1.75
1070
    42
1041
1.5875
1070
    44
1041
2.0
1070
   140
1041
3.5
1070
   343
1005
0
1070
   344
1005
0
1002
}
0
DIMENSION
5
113
100
AcDbEntity
8
SK2
62
256
6
ByLayer
370
13
48
1
60
0
100
AcDbDimension
2
DimnDraft3D4
10
45.1263
20
-15.779003
30
0
11
55.981425
21
-15.779003
31
0
70
32
71
5
72
1
41
1
210
0
220
0
230
1
3
Standard
100
AcDbAlignedDimension
13
46
23
-1.5875
33
0
14
45.1263
24
-4.564
34
0
50
0
100
AcDbRotatedDimension
1001
ACAD
1000
DSTYLE
1002
{
1070
   279
1070
     0
1070
   172
1070
     1
1070
   173
1070
     1
1070
   340
1005
E9
1070
   271
1070
     2
1070
   272
1070
     2
1070
    77
1070
     1
1070
    73
1070
     0
1070
   171
1070
     3
1070
   274
1070
     4
1070
   177
1070
    35
1070
   176
1070
    35
1070
   178
1070
    35
1070
    48
1040
-0.005
1070
    41
1041
3.5
1070
   147
1041
1.75
1070
    42
1041
1.5875
1070
    44
1041
2.0
1070
   140
1041
3.5
1070
   343
1005
0
1070
   344
1005
0
1002
}
0
DIMENSION
5
11D
100
AcDbEntity
8
SK2
62
256
6
ByLayer
370
13
48
1
60
0
100
AcDbDimension
2
DimnDraft3D5
10
45.1263
20
-21.343428
30
0
11
2.386976
21
-21.343428
31
0
70
32
71
5
72
1
41
1
210
0
220
0
230
1
3
Standard
100
AcDbAlignedDimension
13
-36
23
-4.5875
33
0
14
45.1263
24
-4.564
34
0
50
0
100
AcDbRotatedDimension
1001
ACAD
1000
DSTYLE
1002
{
1070
   279
1070
     0
1070
   172
1070
     1
1070
   173
1070
     1
1070
   340
1005
E9
1070
   271
1070
     2
1070
   272
1070
     2
1070
    77
1070
     1
1070
    73
1070
     0
1070
   171
1070
     3
1070
   274
1070
     4
1070
   177
1070
    35
1070
   176
1070
    35
1070
   178
1070
    35
1070
    48
1040
-0.005
1070
    41
1041
3.5
1070
   147
1041
1.75
1070
    42
1041
1.5875
1070
    44
1041
2.0
1070
   140
1041
3.5
1070
   343
1005
0
1070
   344
1005
0
1002
}
0
DIMENSION
5
128
100
AcDbEntity
8
SK2
62
256
6
ByLayer
370
13
48
1
60
0
100
AcDbDimension
2
DimnDraft3D6
10
-46.625163
20
3
30
0
11
-47.250163
21
21.47418
31
0
70
33
71
5
72
1
41
1
210
0
220
0
230
1
3
Standard
100
AcDbAlignedDimension
13
-37.5875
23
-3
33
0
14
-37.5875
24
3
34
0
1001
ACAD
1000
DSTYLE
1002
{
1070
   279
1070
     0
1070
    74
1070
     0
1070
   173
1070
     1
1070
   340
1005
E9
1070
   271
1070
     3
1070
   272
1070
     2
1070
    77
1070
     1
1070
    73
1070
     0
1070
   171
1070
     3
1070
   274
1070
     4
1070
   177
1070
    35
1070
   176
1070
    35
1070
   178
1070
    35
1070
    48
1040
-0.005
1070
    41
1041
3.5
1070
   147
1041
1.75
1070
    42
1041
1.5875
1070
    44
1041
2.0
1070
   140
1041
3.5
1070
   343
1005
0
1070
   344
1005
0
1002
}
0
DIMENSION
5
133
100
AcDbEntity
8
2
62
256
6
ByLayer
370
13
48
1
60
0
100
AcDbDimension
2
DimnDraft3D7
10
60.083343
20
2.9765
30
0
11
55.458343
21
20.043766
31
0
70
33
71
5
72
1
41
1
210
0
220
0
230
1
3
Standard
100
AcDbAlignedDimension
13
46.7138
23
-2.9765
33
0
14
46.7138
24
2.9765
34
0
1001
ACAD
1000
DSTYLE
1002
{
1070
   279
1070
     0
1070
    74
1070
     0
1070
   173
1070
     1
1070
   340
1005
E9
1070
   271
1070
     3
1070
   272
1070
     2
1070
    77
1070
     1
1070
    73
1070
     0
1070
   171
1070
     3
1070
   274
1070
     4
1070
   177
1070
    35
1070
   176
1070
    35
1070
   178
1070
    35
1070
    48
1040
-0.005
1070
    41
1041
3.5
1070
   147
1041
1.75
1070
    42
1041
1.5875
1070
    44
1041
2.0
1070
   140
1041
3.5
1070
   343
1005
0
1070
   344
1005
0
1002
}
0
ENDSEC
0
SECTION
2
OBJECTS
0
DICTIONARY
5
19e
330
0
100
AcDbDictionary
280
0
281
1
3
ACAD_GROUP
350
19f
3
ACAD_MLINESTYLE
350
1a0
0
DICTIONARY
5
19f
330
0
100
AcDbDictionary
280
0
281
1
0
DICTIONARY
5
1a0
330
0
100
AcDbDictionary
280
0
281
1
3
Standard
350
18
0
MLINESTYLE
5
18
330
1a0
100
AcDbMlineStyle
2
Standard
70
0
3

62
256
51
90
52
90
71
2
49
-0.5
62
256
6
ByLayer
49
0.5
62
256
6
ByLayer
0
RASTERVARIABLES
5
18c
330

100
AcDbRasterVariables
90
0
70
1
71
1
72
1
0
ENDSEC
0
EOF
