0
SECTION
2
HEADER
9
$ACADVER
1
AC1015
9
$DWGCODEPAGE
3
ANSI_1252
9
$HANDSEED
5
19f
9
$ANGBASE
50
0
9
$ANGDIR
70
0
9
$ATTMODE
70
1
9
$AUNITS
70
0
9
$AUPREC
70
0
9
$CECOLOR
62
256
9
$CELTSCALE
40
1
9
$CELTYPE
6
ByLayer
9
$CELWEIGHT
370
18
9
$CLAYER
8
0
9
$CMLJUST
70
0
9
$CMLSCALE
40
1
9
$CMLSTYLE
2
Standard
9
$DIMSTYLE
2
Standard
9
$TEXTSIZE
40
0.2
9
$TEXTSTYLE
7
Standard
9
$LUNITS
70
2
9
$LUPREC
70
4
9
$EXTNAMES
290
1
9
$INSUNITS
70
4
9
$LTSCALE
40
1
9
$LWDISPLAY
290
1
9
$PDMODE
70
0
9
$PDSIZE
40
0
9
$PLINEGEN
70
0
0
ENDSEC
0
SECTION
2
CLASSES
0
CLASS
1
RASTERVARIABLES
2
AcDbRasterVariables
3
ISM
90
0
280
0
281
0
0
ENDSEC
0
SECTION
2
TABLES
0
TABLE
2
VPORT
5
195
100
AcDbSymbolTable
0
VPORT
5
1
100
AcDbSymbolTableRecord
100
AcDbViewportTableRecord
2
*Active
70
0
10
0
20
0
11
1
21
1
12
-1
22
1
13
0
23
0
14
0.5
24
0.5
15
10
25
10
16
0
26
0
36
1
17
0
27
0
37
0
0
ENDTAB
0
TABLE
2
LTYPE
5
196
100
AcDbSymbolTable
0
LTYPE
5
14
100
AcDbSymbolTableRecord
100
AcDbLinetypeTableRecord
70
0
2
ByBlock
3

72
65
73
0
40
0
0
LTYPE
5
15
100
AcDbSymbolTableRecord
100
AcDbLinetypeTableRecord
70
0
2
ByLayer
3

72
65
73
0
40
0
0
LTYPE
5
16
100
AcDbSymbolTableRecord
100
AcDbLinetypeTableRecord
70
0
2
CONTINUOUS
3
Solid line
72
65
73
0
40
0
0
LTYPE
5
6A
100
AcDbSymbolTableRecord
100
AcDbLinetypeTableRecord
70
0
2
CENTER
3
____ _ ____ _ ____ _ ____
72
65
73
4
40
47.5
49
22
74
0
49
-8.5
74
0
49
8.5
74
0
49
-8.5
74
0
0
LTYPE
5
6B
100
AcDbSymbolTableRecord
100
AcDbLinetypeTableRecord
70
0
2
DASHED
3
__ __ __ __ __ __ __ __ __
72
65
73
2
40
25.72
49
12.86
74
0
49
-12.86
74
0
0
ENDTAB
0
TABLE
2
LAYER
5
197
100
AcDbSymbolTable
0
LAYER
5
10
100
AcDbSymbolTableRecord
100
AcDbLayerTableRecord
2
0
70
0
62
7
6
CONTINUOUS
290
1
370
-3
390
0
0
LAYER
5
6D
100
AcDbSymbolTableRecord
100
AcDbLayerTableRecord
2
81
70
0
62
-3
6
CONTINUOUS
290
1
370
-3
390
0
0
LAYER
5
6F
100
AcDbSymbolTableRecord
100
AcDbLayerTableRecord
2
80
70
0
62
-6
6
CONTINUOUS
290
1
370
-3
390
0
0
LAYER
5
74
100
AcDbSymbolTableRecord
100
AcDbLayerTableRecord
2
2
70
0
62
7
6
CONTINUOUS
290
1
370
-3
390
0
0
LAYER
5
78
100
AcDbSymbolTableRecord
100
AcDbLayerTableRecord
2
1
70
0
62
4
6
CONTINUOUS
290
1
370
-3
390
0
0
LAYER
5
88
100
AcDbSymbolTableRecord
100
AcDbLayerTableRecord
2
4
70
0
62
-2
6
CENTER
290
1
370
-3
390
0
0
LAYER
5
181
100
AcDbSymbolTableRecord
100
AcDbLayerTableRecord
2
SK2
70
0
62
7
6
CONTINUOUS
290
1
370
-3
390
0
0
LAYER
5
182
100
AcDbSymbolTableRecord
100
AcDbLayerTableRecord
2
SK1
70
0
62
4
6
CONTINUOUS
290
1
370
-3
390
0
0
LAYER
5
183
100
AcDbSymbolTableRecord
100
AcDbLayerTableRecord
2
SK4
70
0
62
2
6
CENTER
290
1
370
-3
390
0
0
LAYER
5
184
100
AcDbSymbolTableRecord
100
AcDbLayerTableRecord
2
SK6
70
0
62
5
6
CONTINUOUS
290
1
370
-3
390
0
0
ENDTAB
0
TABLE
2
STYLE
5
198
100
AcDbSymbolTable
0
STYLE
5
11
100
AcDbSymbolTableRecord
100
AcDbTextStyleTableRecord
2
Standard
3
txt
70
0
71
0
40
0
41
1
42
0
50
0
0
STYLE
5
DD
100
AcDbSymbolTableRecord
100
AcDbTextStyleTableRecord
2
iso_b_vert
3
simplex.shx
70
0
71
0
40
0
41
1
42
0
50
0
0
STYLE
5
DE
100
AcDbSymbolTableRecord
100
AcDbTextStyleTableRecord
2
DWGDirectTextStyle
3
simplex
70
0
71
0
40
0
41
1
42
0
50
0
0
ENDTAB
0
TABLE
2
DIMSTYLE
5
199
100
AcDbSymbolTable
100
AcDbDimStyleTable
0
DIMSTYLE
105
27
100
AcDbSymbolTableRecord
100
AcDbDimStyleTableRecord
2
Standard
70
0
3
<>
41
0.18
42
0.0625
44
0.18
140
0.18
147
0.09
73
0
74
0
77
1
271
2
275
0
278
52
280
0
340
11
0
ENDTAB
0
TABLE
2
VIEW
5
19a
100
AcDbSymbolTable
0
ENDTAB
0
TABLE
2
UCS
5
19b
100
AcDbSymbolTable
0
ENDTAB
0
TABLE
2
APPID
5
19c
100
AcDbSymbolTable
0
APPID
5
12
100
AcDbSymbolTableRecord
100
AcDbRegAppTableRecord
2
ACAD
70
0
0
ENDTAB
0
TABLE
2
BLOCK_RECORD
5
19d
100
AcDbSymbolTable
0
BLOCK_RECORD
5
1F
100
AcDbSymbolTableRecord
100
AcDbBlockTableRecord
2
*Model_Space
340
0
70
0
0
BLOCK_RECORD
5
1B
100
AcDbSymbolTableRecord
100
AcDbBlockTableRecord
2
*Paper_Space
340
0
70
0
0
BLOCK_RECORD
5
23
100
AcDbSymbolTableRecord
100
AcDbBlockTableRecord
2
*Paper_Space0
340
0
70
0
0
BLOCK_RECORD
5
E0
100
AcDbSymbolTableRecord
100
AcDbBlockTableRecord
2
DimnDraft3D1
340
0
70
0
0
BLOCK_RECORD
5
EA
100
AcDbSymbolTableRecord
100
AcDbBlockTableRecord
2
DimnDraft3D2
340
0
70
0
0
BLOCK_RECORD
5
F4
100
AcDbSymbolTableRecord
100
AcDbBlockTableRecord
2
DimnDraft3D3
340
0
70
0
0
BLOCK_RECORD
5
FE
100
AcDbSymbolTableRecord
100
AcDbBlockTableRecord
2
DimnDraft3D4
340
0
70
0
0
BLOCK_RECORD
5
108
100
AcDbSymbolTableRecord
100
AcDbBlockTableRecord
2
DimnDraft3D5
340
0
70
0
0
BLOCK_RECORD
5
112
100
AcDbSymbolTableRecord
100
AcDbBlockTableRecord
2
DimnDraft3D6
340
0
70
0
0
BLOCK_RECORD
5
11D
100
AcDbSymbolTableRecord
100
AcDbBlockTableRecord
2
DimnDraft3D7
340
0
70
0
0
ENDTAB
0
ENDSEC
0
SECTION
2
BLOCKS
0
BLOCK
5
20
100
AcDbEntity
8
0
100
AcDbBlockBegin
2
*Model_Space
70
0
10
0
20
0
30
0
3
*Model_Space
0
ENDBLK
5
21
100
AcDbEntity
8
0
100
AcDbBlockEnd
0
BLOCK
5
1C
100
AcDbEntity
8
0
100
AcDbBlockBegin
2
*Paper_Space
70
0
10
0
20
0
30
0
3
*Paper_Space
0
ENDBLK
5
1D
100
AcDbEntity
8
0
100
AcDbBlockEnd
0
BLOCK
5
24
100
AcDbEntity
8
0
100
AcDbBlockBegin
2
*Paper_Space0
70
0
10
0
20
0
30
0
3
*Paper_Space0
0
ENDBLK
5
25
100
AcDbEntity
8
0
100
AcDbBlockEnd
0
BLOCK
5
E7
100
AcDbEntity
8
0
100
AcDbBlockBegin
2
DimnDraft3D1
70
0
10
0
20
0
30
0
3
DimnDraft3D1
0
MTEXT
5
E1
100
AcDbEntity
8
SK2
62
256
6
ByLayer
370
13
48
1
60
0
100
AcDbMText
10
9.365175
20
-12.314898
30
0
210
0
220
0
230
1
1
\W0.6713;29,13
40
3.5
41
0
44
1.084337
50
0
71
7
72
5
7
iso_b_vert
0
LINE
5
E2
100
AcDbEntity
8
SK2
62
256
6
ByLayer
370
13
48
1
60
0
100
AcDbLine
10
0
20
-1.5875
30
0
11
0
21
-15.189898
31
0
39
0
210
0
220
0
230
1
0
LINE
5
E3
100
AcDbEntity
8
SK2
62
256
6
ByLayer
370
13
48
1
60
0
100
AcDbLine
10
29.1263
20
-4.564
30
0
11
29.1263
21
-15.189898
31
0
39
0
210
0
220
0
230
1
0
LINE
5
E4
100
AcDbEntity
8
SK2
62
256
6
ByLayer
370
13
48
1
60
0
100
AcDbLine
10
0
20
-13.189898
30
0
11
29.1263
21
-13.189898
31
0
39
0
210
0
220
0
230
1
0
SOLID
5
E5
100
AcDbEntity
8
SK2
62
256
6
ByLayer
370
13
48
1
60
0
100
AcDbTrace
10
0
20
-13.189898
30
0
11
3.499998
21
-12.729115
31
0
12
3.500002
22
-13.650682
32
0
13
0
23
-13.189898
33
0
39
0
210
0
220
0
230
1
0
SOLID
5
E6
100
AcDbEntity
8
SK2
62
256
6
ByLayer
370
13
48
1
60
0
100
AcDbTrace
10
29.1263
20
-13.189898
30
0
11
25.626302
21
-13.650682
31
0
12
25.626298
22
-12.729115
32
0
13
29.1263
23
-13.189898
33
0
39
0
210
0
220
0
230
1
0
ENDBLK
5
E8
100
AcDbEntity
8
0
100
AcDbBlockEnd
0
BLOCK
5
F1
100
AcDbEntity
8
0
100
AcDbBlockBegin
2
DimnDraft3D2
70
0
10
0
20
0
30
0
3
DimnDraft3D2
0
MTEXT
5
EB
100
AcDbEntity
8
SK2
62
256
6
ByLayer
370
13
48
1
60
0
100
AcDbMText
10
-6.981084
20
-30.817985
30
0
210
0
220
0
230
1
1
\W0.7317;66,00
40
3.5
41
0
44
1.084337
50
0
71
7
72
5
7
iso_b_vert
0
LINE
5
EC
100
AcDbEntity
8
SK2
62
256
6
ByLayer
370
13
48
1
60
0
100
AcDbLine
10
-36
20
-4.5875
30
0
11
-36
21
-33.692985
31
0
39
0
210
0
220
0
230
1
0
LINE
5
ED
100
AcDbEntity
8
SK2
62
256
6
ByLayer
370
13
48
1
60
0
100
AcDbLine
10
30
20
-1.5875
30
0
11
30
21
-33.692985
31
0
39
0
210
0
220
0
230
1
0
LINE
5
EE
100
AcDbEntity
8
SK2
62
256
6
ByLayer
370
13
48
1
60
0
100
AcDbLine
10
-36
20
-31.692985
30
0
11
30
21
-31.692985
31
0
39
0
210
0
220
0
230
1
0
SOLID
5
EF
100
AcDbEntity
8
SK2
62
256
6
ByLayer
370
13
48
1
60
0
100
AcDbTrace
10
-36
20
-31.692985
30
0
11
-32.500002
21
-31.232202
31
0
12
-32.499998
22
-32.153769
32
0
13
-36
23
-31.692985
33
0
39
0
210
0
220
0
230
1
0
SOLID
5
F0
100
AcDbEntity
8
SK2
62
256
6
ByLayer
370
13
48
1
60
0
100
AcDbTrace
10
30
20
-31.692985
30
0
11
26.500002
21
-32.153769
31
0
12
26.499998
22
-31.232202
32
0
13
30
23
-31.692985
33
0
39
0
210
0
220
0
230
1
0
ENDBLK
5
F2
100
AcDbEntity
8
0
100
AcDbBlockEnd
0
BLOCK
5
FB
100
AcDbEntity
8
0
100
AcDbBlockBegin
2
DimnDraft3D3
70
0
10
0
20
0
30
0
3
DimnDraft3D3
0
MTEXT
5
F5
100
AcDbEntity
8
SK2
62
256
6
ByLayer
370
13
48
1
60
0
100
AcDbMText
10
17.343816
20
15.460619
30
0
210
0
220
0
230
1
1
\W0.6791;17,29
40
3.5
41
0
44
1.084337
50
0
71
7
72
5
7
iso_b_vert
0
LINE
5
F6
100
AcDbEntity
8
SK2
62
256
6
ByLayer
370
13
48
1
60
0
100
AcDbLine
10
12.71
20
4.564
30
0
11
12.71
21
16.585619
31
0
39
0
210
0
220
0
230
1
0
LINE
5
F7
100
AcDbEntity
8
SK2
62
256
6
ByLayer
370
13
48
1
60
0
100
AcDbLine
10
30
20
1.5875
30
0
11
30
21
16.585619
31
0
39
0
210
0
220
0
230
1
0
LINE
5
F8
100
AcDbEntity
8
SK2
62
256
6
ByLayer
370
13
48
1
60
0
100
AcDbLine
10
12.71
20
14.585619
30
0
11
30
21
14.585619
31
0
39
0
210
0
220
0
230
1
0
SOLID
5
F9
100
AcDbEntity
8
SK2
62
256
6
ByLayer
370
13
48
1
60
0
100
AcDbTrace
10
12.71
20
14.585619
30
0
11
16.209998
21
15.046403
31
0
12
16.210002
22
14.124835
32
0
13
12.71
23
14.585619
33
0
39
0
210
0
220
0
230
1
0
SOLID
5
FA
100
AcDbEntity
8
SK2
62
256
6
ByLayer
370
13
48
1
60
0
100
AcDbTrace
10
30
20
14.585619
30
0
11
26.500002
21
14.124835
31
0
12
26.499998
22
15.046403
32
0
13
30
23
14.585619
33
0
39
0
210
0
220
0
230
1
0
ENDBLK
5
FC
100
AcDbEntity
8
0
100
AcDbBlockEnd
0
BLOCK
5
105
100
AcDbEntity
8
0
100
AcDbBlockBegin
2
DimnDraft3D4
70
0
10
0
20
0
30
0
3
DimnDraft3D4
0
MTEXT
5
FF
100
AcDbEntity
8
SK2
62
256
6
ByLayer
370
13
48
1
60
0
100
AcDbMText
10
36.840636
20
-14.904003
30
0
210
0
220
0
230
1
1
\W0.7150;0,87
40
3.5
41
0
44
1.084337
50
0
71
7
72
5
7
iso_b_vert
0
LINE
5
100
100
AcDbEntity
8
SK2
62
256
6
ByLayer
370
13
48
1
60
0
100
AcDbLine
10
30
20
-1.5875
30
0
11
30
21
-17.779003
31
0
39
0
210
0
220
0
230
1
0
LINE
5
101
100
AcDbEntity
8
SK2
62
256
6
ByLayer
370
13
48
1
60
0
100
AcDbLine
10
29.1263
20
-4.564
30
0
11
29.1263
21
-17.779003
31
0
39
0
210
0
220
0
230
1
0
LINE
5
102
100
AcDbEntity
8
SK2
62
256
6
ByLayer
370
13
48
1
60
0
100
AcDbLine
10
20.3763
20
-15.779003
30
0
11
43.997215
21
-15.779003
31
0
39
0
210
0
220
0
230
1
0
SOLID
5
103
100
AcDbEntity
8
SK2
62
256
6
ByLayer
370
13
48
1
60
0
100
AcDbTrace
10
30
20
-15.779003
30
0
11
33.499998
21
-15.318219
31
0
12
33.500002
22
-16.239787
32
0
13
30
23
-15.779003
33
0
39
0
210
0
220
0
230
1
0
SOLID
5
104
100
AcDbEntity
8
SK2
62
256
6
ByLayer
370
13
48
1
60
0
100
AcDbTrace
10
29.1263
20
-15.779003
30
0
11
25.626302
21
-16.239787
31
0
12
25.626298
22
-15.318219
32
0
13
29.1263
23
-15.779003
33
0
39
0
210
0
220
0
230
1
0
ENDBLK
5
106
100
AcDbEntity
8
0
100
AcDbBlockEnd
0
BLOCK
5
10F
100
AcDbEntity
8
0
100
AcDbBlockBegin
2
DimnDraft3D5
70
0
10
0
20
0
30
0
3
DimnDraft3D5
0
MTEXT
5
109
100
AcDbEntity
8
SK2
62
256
6
ByLayer
370
13
48
1
60
0
100
AcDbMText
10
-9.624208
20
-20.468428
30
0
210
0
220
0
230
1
1
\W0.6713;65,13
40
3.5
41
0
44
1.084337
50
0
71
7
72
5
7
iso_b_vert
0
LINE
5
10A
100
AcDbEntity
8
SK2
62
256
6
ByLayer
370
13
48
1
60
0
100
AcDbLine
10
-36
20
-4.5875
30
0
11
-36
21
-23.343428
31
0
39
0
210
0
220
0
230
1
0
LINE
5
10B
100
AcDbEntity
8
SK2
62
256
6
ByLayer
370
13
48
1
60
0
100
AcDbLine
10
29.1263
20
-4.564
30
0
11
29.1263
21
-23.343428
31
0
39
0
210
0
220
0
230
1
0
LINE
5
10C
100
AcDbEntity
8
SK2
62
256
6
ByLayer
370
13
48
1
60
0
100
AcDbLine
10
-36
20
-21.343428
30
0
11
29.1263
21
-21.343428
31
0
39
0
210
0
220
0
230
1
0
SOLID
5
10D
100
AcDbEntity
8
SK2
62
256
6
ByLayer
370
13
48
1
60
0
100
AcDbTrace
10
-36
20
-21.343428
30
0
11
-32.500002
21
-20.882645
31
0
12
-32.499998
22
-21.804212
32
0
13
-36
23
-21.343428
33
0
39
0
210
0
220
0
230
1
0
SOLID
5
10E
100
AcDbEntity
8
SK2
62
256
6
ByLayer
370
13
48
1
60
0
100
AcDbTrace
10
29.1263
20
-21.343428
30
0
11
25.626302
21
-21.804212
31
0
12
25.626298
22
-20.882645
32
0
13
29.1263
23
-21.343428
33
0
39
0
210
0
220
0
230
1
0
ENDBLK
5
110
100
AcDbEntity
8
0
100
AcDbBlockEnd
0
BLOCK
5
11A
100
AcDbEntity
8
0
100
AcDbBlockBegin
2
DimnDraft3D6
70
0
10
0
20
0
30
0
3
DimnDraft3D6
0
MTEXT
5
113
100
AcDbEntity
8
SK2
62
256
6
ByLayer
370
13
48
1
60
0
100
AcDbMText
10
-46.375163
20
22.34918
30
0
210
0
220
0
230
1
1
\W0.7317;6,000
40
3.5
41
0
44
1.084337
50
90
71
7
72
5
7
iso_b_vert
0
MTEXT
5
114
100
AcDbEntity
8
SK2
62
256
6
ByLayer
370
13
48
1
60
0
100
AcDbMText
10
-46.375163
20
17.126524
30
0
210
0
220
0
230
1
1
%%c
40
3.5
41
0
44
1.084337
50
90
71
7
72
5
7
iso_b_vert
0
LINE
5
115
100
AcDbEntity
8
SK2
62
256
6
ByLayer
370
13
48
1
60
0
100
AcDbLine
10
-37.5875
20
-3
30
0
11
-46.625163
21
-3
31
0
39
0
210
0
220
0
230
1
0
LINE
5
116
100
AcDbEntity
8
SK2
62
256
6
ByLayer
370
13
48
1
60
0
100
AcDbLine
10
-37.5875
20
3
30
0
11
-46.625163
21
3
31
0
39
0
210
0
220
0
230
1
0
LINE
5
117
100
AcDbEntity
8
SK2
62
256
6
ByLayer
370
13
48
1
60
0
100
AcDbLine
10
-44.625163
20
32.121549
30
0
11
-44.625163
21
-11.75
31
0
39
0
210
0
220
0
230
1
0
SOLID
5
118
100
AcDbEntity
8
SK2
62
256
6
ByLayer
370
13
48
1
60
0
100
AcDbTrace
10
-44.625163
20
-3
30
0
11
-44.164379
21
-6.499998
31
0
12
-45.085946
22
-6.500002
32
0
13
-44.625163
23
-3
33
0
39
0
210
0
220
0
230
1
0
SOLID
5
119
100
AcDbEntity
8
SK2
62
256
6
ByLayer
370
13
48
1
60
0
100
AcDbTrace
10
-44.625163
20
3
30
0
11
-45.085946
21
6.499998
31
0
12
-44.164379
22
6.500002
32
0
13
-44.625163
23
3
33
0
39
0
210
0
220
0
230
1
0
ENDBLK
5
11B
100
AcDbEntity
8
0
100
AcDbBlockEnd
0
BLOCK
5
125
100
AcDbEntity
8
0
100
AcDbBlockBegin
2
DimnDraft3D7
70
0
10
0
20
0
30
0
3
DimnDraft3D7
0
MTEXT
5
11E
100
AcDbEntity
8
2
62
256
6
ByLayer
370
13
48
1
60
0
100
AcDbMText
10
40.333343
20
20.918766
30
0
210
0
220
0
230
1
1
\W0.7317;5,953
40
3.5
41
0
44
1.084337
50
90
71
7
72
5
7
iso_b_vert
0
MTEXT
5
11F
100
AcDbEntity
8
2
62
256
6
ByLayer
370
13
48
1
60
0
100
AcDbMText
10
40.333343
20
15.69611
30
0
210
0
220
0
230
1
1
%%c
40
3.5
41
0
44
1.084337
50
90
71
7
72
5
7
iso_b_vert
0
LINE
5
120
100
AcDbEntity
8
2
62
256
6
ByLayer
370
13
48
1
60
0
100
AcDbLine
10
30.7138
20
-2.9765
30
0
11
44.083343
21
-2.9765
31
0
39
0
210
0
220
0
230
1
0
LINE
5
121
100
AcDbEntity
8
2
62
256
6
ByLayer
370
13
48
1
60
0
100
AcDbLine
10
30.7138
20
2.9765
30
0
11
44.083343
21
2.9765
31
0
39
0
210
0
220
0
230
1
0
LINE
5
122
100
AcDbEntity
8
2
62
256
6
ByLayer
370
13
48
1
60
0
100
AcDbLine
10
42.083343
20
30.691135
30
0
11
42.083343
21
-11.7265
31
0
39
0
210
0
220
0
230
1
0
SOLID
5
123
100
AcDbEntity
8
2
62
256
6
ByLayer
370
13
48
1
60
0
100
AcDbTrace
10
42.083343
20
-2.9765
30
0
11
42.544126
21
-6.476498
31
0
12
41.622559
22
-6.476502
32
0
13
42.083343
23
-2.9765
33
0
39
0
210
0
220
0
230
1
0
SOLID
5
124
100
AcDbEntity
8
2
62
256
6
ByLayer
370
13
48
1
60
0
100
AcDbTrace
10
42.083343
20
2.9765
30
0
11
41.622559
21
6.476498
31
0
12
42.544126
22
6.476502
32
0
13
42.083343
23
2.9765
33
0
39
0
210
0
220
0
230
1
0
ENDBLK
5
126
100
AcDbEntity
8
0
100
AcDbBlockEnd
0
ENDSEC
0
SECTION
2
ENTITIES
0
ELLIPSE
5
95
100
AcDbEntity
8
1
62
256
6
ByLayer
370
18
48
1
60
0
100
AcDbEllipse
10
3.393373
20
3.062724
30
0
11
0.25
21
0
31
0
210
0
220
0
230
1
40
1
41
-2.68373068923219
42
-1.55997535158169
0
ELLIPSE
5
96
100
AcDbEntity
8
1
62
256
6
ByLayer
370
18
48
1
60
0
100
AcDbEllipse
10
3.393373
20
-3.062724
30
0
11
0.25
21
0
31
0
210
0
220
0
230
1
40
1
41
1.57312822191781
42
2.6824816163217
0
ELLIPSE
5
97
100
AcDbEntity
8
1
62
256
6
ByLayer
370
13
48
1
60
0
100
AcDbEllipse
10
3.319821
20
0.490122
30
0
11
-0.0534449518875475
21
-0.0845200397405121
31
0
210
0
220
0
230
1
40
0.364851
41
-1.17563636904838
42
0.0776728140751014
0
ELLIPSE
5
98
100
AcDbEntity
8
1
62
256
6
ByLayer
370
13
48
1
60
0
100
AcDbEllipse
10
3.393609
20
0.446754
30
0
11
0.0483393190580593
21
0.087540334891998
31
0
210
0
220
0
230
1
40
0.076033
41
3.03361107709116
42
-1.70439571881748
0
POINT
5
6C
100
AcDbEntity
8
81
62
256
6
ByLayer
370
18
48
1
60
0
100
AcDbPoint
10
30
20
0
30
0
39
0
210
0
220
0
230
1
50
360
0
POINT
5
6E
100
AcDbEntity
8
80
62
256
6
ByLayer
370
18
48
1
60
0
100
AcDbPoint
10
0
20
0
30
0
39
0
210
0
220
0
230
1
50
360
0
POINT
5
70
100
AcDbEntity
8
SK2
62
256
6
ByLayer
370
18
48
1
60
1
100
AcDbPoint
10
-36
20
-3
30
0
39
0
210
0
220
0
230
1
50
360
0
POINT
5
72
100
AcDbEntity
8
SK2
62
256
6
ByLayer
370
18
48
1
60
1
100
AcDbPoint
10
-36
20
3
30
0
39
0
210
0
220
0
230
1
50
360
0
POINT
5
73
100
AcDbEntity
8
2
62
256
6
ByLayer
370
18
48
1
60
1
100
AcDbPoint
10
29.1263
20
-2.9765
30
0
39
0
210
0
220
0
230
1
50
360
0
POINT
5
75
100
AcDbEntity
8
2
62
256
6
ByLayer
370
18
48
1
60
1
100
AcDbPoint
10
29.1263
20
2.9765
30
0
39
0
210
0
220
0
230
1
50
360
0
SPLINE
5
99
100
AcDbEntity
8
1
62
256
6
ByLayer
370
18
48
1
60
0
100
AcDbSpline
70
4
71
1
72
4
73
2
40
0
40
0
40
1
40
1
41
1
10
3.98259903092349
20
0.0048063057435002
30
0
41
1
10
3.982588001225
20
0.0048125081290777
30
0
0
SPLINE
5
9A
100
AcDbEntity
8
1
62
256
6
ByLayer
370
18
48
1
60
0
100
AcDbSpline
70
4
71
3
72
20
73
16
40
0
40
0
40
0
40
0
40
0.0183699849743265
40
0.104065658386489
40
0.161270181580963
40
0.209423638938193
40
0.257296089366701
40
0.307289623366534
40
0.443807124252183
40
0.588252322327069
40
0.701816084562466
40
0.800735560192023
40
0.897284701284259
40
0.954263178515652
40
1
40
1
40
1
40
1
41
1
10
20.4035734398221
20
2.82073372625413
30
0
41
1
10
20.3630548043903
20
2.82063741507082
30
0
41
1
10
20.1335135935583
20
2.8201599718557
30
0
41
1
10
19.777636059209
20
2.81993814230609
30
0
41
1
10
19.3562269253683
20
2.82080736620901
30
0
41
1
10
19.0182137477187
20
2.82146995614465
30
0
41
1
10
18.6960572727984
20
2.82059075271661
30
0
41
1
10
18.1789502032994
20
2.81991391258748
30
0
41
1
10
17.448778575143
20
2.81861821213917
30
0
41
1
10
16.5783600463638
20
2.82002735395878
30
0
41
1
10
15.7908886540686
20
2.81900971244977
30
0
41
1
10
15.1090830907631
20
2.81894127816432
30
0
41
1
10
14.5521290968228
20
2.81809623802224
30
0
41
1
10
14.112490109864
20
2.81849647808949
30
0
41
1
10
13.8859531824374
20
2.81849111650462
30
0
41
1
10
13.7850710885522
20
2.81842961522133
30
0
0
SPLINE
5
9B
100
AcDbEntity
8
1
62
256
6
ByLayer
370
18
48
1
60
0
100
AcDbSpline
70
4
71
2
72
6
73
3
40
0
40
0
40
0
40
1
40
1
40
1
41
1
10
28.5931586054486
20
-2.82659670004992
30
0
41
1
10
28.7914112026285
20
-2.82634002056793
30
0
41
1
10
28.9894322314487
20
-2.82647574161763
30
0
0
SPLINE
5
9C
100
AcDbEntity
8
1
62
256
6
ByLayer
370
18
48
1
60
0
100
AcDbSpline
70
4
71
3
72
22
73
18
40
0
40
0
40
0
40
0
40
0.0802970775038854
40
0.146118592499513
40
0.192393003511101
40
0.232348801870419
40
0.272084815606842
40
0.311796103472063
40
0.406542110015129
40
0.515274553464968
40
0.616164676087838
40
0.714812264649901
40
0.799094389604424
40
0.845664648237104
40
0.894676587099655
40
0.97026243910219
40
1
40
1
40
1
40
1
41
1
10
12.3697367175609
20
-2.81729330607575
30
0
41
1
10
12.58469041707
20
-2.81724247987611
30
0
41
1
10
12.9759093578459
20
-2.8173129380304
30
0
41
1
10
13.4913902745527
20
-2.81812139106577
30
0
41
1
10
13.8985825583233
20
-2.81855926743813
30
0
41
1
10
14.2359559895573
20
-2.81839773329651
30
0
41
1
10
14.5558202556116
20
-2.81820416793471
30
0
41
1
10
15.0224373379815
20
-2.81851793936684
30
0
41
1
10
15.673889593931
20
-2.81931138479965
30
0
41
1
10
16.4892203335452
20
-2.81979400578052
30
0
41
1
10
17.3150002479381
20
-2.81925425105922
30
0
41
1
10
18.0752856486634
20
-2.81951798026364
30
0
41
1
10
18.6900622330023
20
-2.8208258195543
30
0
41
1
10
19.1718739956816
20
-2.82136734470538
30
0
41
1
10
19.6302489999112
20
-2.82013523702022
30
0
41
1
10
20.0437438979055
20
-2.81987298139313
30
0
41
1
10
20.3258224915121
20
-2.82048641951252
30
0
41
1
10
20.4054649976702
20
-2.82071270423981
30
0
0
SPLINE
5
9D
100
AcDbEntity
8
1
62
256
6
ByLayer
370
18
48
1
60
0
100
AcDbSpline
70
4
71
2
72
6
73
3
40
0
40
0
40
0
40
1
40
1
40
1
41
1
10
3.3944191170273
20
-2.81223944661386
30
0
41
1
10
3.87063215863188
20
-2.81480548816487
30
0
41
1
10
4.34665288992059
20
-2.81390592887516
30
0
0
SPLINE
5
9E
100
AcDbEntity
8
1
62
256
6
ByLayer
370
18
48
1
60
0
100
AcDbSpline
70
4
71
2
72
6
73
3
40
0
40
0
40
0
40
1
40
1
40
1
41
1
10
4.34668626151637
20
2.81390591460376
30
0
41
1
10
3.87064884780003
20
2.81480554176343
30
0
41
1
10
3.39441911702744
20
2.81223944661389
30
0
0
SPLINE
5
9F
100
AcDbEntity
8
1
62
256
6
ByLayer
370
13
48
1
60
0
100
AcDbSpline
70
4
71
3
72
10
73
6
40
0
40
0
40
0
40
0
40
0.179448288297536
40
0.179448288297536
40
1
40
1
40
1
40
1
41
1
10
3.39443650460413
20
-2.81252368545853
30
0
41
1
10
3.39444438357214
20
-2.81303570480912
30
0
41
1
10
3.39445217353315
20
-2.81259030409464
30
0
41
1
10
3.3944949074482
20
-2.80484133760891
30
0
41
1
10
3.39452755878483
20
-2.77888012665204
30
0
41
1
10
3.39455345733279
20
-2.73255953590532
30
0
0
SPLINE
5
A0
100
AcDbEntity
8
1
62
256
6
ByLayer
370
18
48
1
60
0
100
AcDbSpline
70
4
71
3
72
26
73
22
40
0
40
0
40
0
40
0
40
0.0169576643665739
40
0.0169576643665739
40
0.213566131493259
40
0.213566131493259
40
0.311870365056602
40
0.311870365056602
40
0.410174598619944
40
0.410174598619944
40
0.508478832183287
40
0.508478832183287
40
0.60678306574663
40
0.60678306574663
40
0.705087299309972
40
0.705087299309972
40
0.803391532873315
40
0.803391532873315
40
0.901695766436657
40
0.901695766436657
40
1
40
1
40
1
40
1
41
1
10
20.404384502625
20
2.82106460740863
30
0
41
1
10
20.4368914602577
20
2.82129247083429
30
0
41
1
10
20.4693963889711
20
2.82137539151438
30
0
41
1
10
20.8787585519942
20
2.82061967733731
30
0
41
1
10
21.2548130556638
20
2.79263998296591
30
0
41
1
10
21.822165958978
20
2.72223133825386
30
0
41
1
10
22.0116191771911
20
2.69441734877398
30
0
41
1
10
22.3917198229087
20
2.62638781006964
30
0
41
1
10
22.5829123098837
20
2.58593664784186
30
0
41
1
10
22.9644025688664
20
2.49549475409307
30
0
41
1
10
23.1547953008395
20
2.44522543861339
30
0
41
1
10
23.5353257217826
20
2.33577222909813
30
0
41
1
10
23.7259257374105
20
2.27724215302692
30
0
41
1
10
24.1070907674501
20
2.14907440987889
30
0
41
1
10
24.2980194411886
20
2.07975438781327
30
0
41
1
10
24.6796630972977
20
1.93378437664933
30
0
41
1
10
24.8703066227471
20
1.85720775735592
30
0
41
1
10
25.2512824248106
20
1.69754346359772
30
0
41
1
10
25.44143108151
20
1.61393404710236
30
0
41
1
10
25.8225545357543
20
1.43988668325397
30
0
41
1
10
26.0134659339247
20
1.34951612832964
30
0
41
1
10
26.2043984692451
20
1.25661145888677
30
0
0
SPLINE
5
A1
100
AcDbEntity
8
1
62
256
6
ByLayer
370
18
48
1
60
0
100
AcDbSpline
70
4
71
3
72
12
73
8
40
0
40
0
40
0
40
0
40
0.25
40
0.25
40
0.5
40
0.5
40
1
40
1
40
1
40
1
41
1
10
28.7505760516548
20
0.752382501290327
30
0
41
1
10
28.7505017633984
20
0.762309907041868
30
0
41
1
10
28.753174704781
20
0.772239381141901
30
0
41
1
10
28.7638598586602
20
0.789369938362086
30
0
41
1
10
28.7718533765262
20
0.796543621536813
30
0
41
1
10
28.7986455556821
20
0.812143640209484
30
0
41
1
10
28.8197170795449
20
0.815567488142023
30
0
41
1
10
28.8403378805309
20
0.815173990067024
30
0
0
SPLINE
5
A2
100
AcDbEntity
8
1
62
256
6
ByLayer
370
18
48
1
60
0
100
AcDbSpline
70
4
71
3
72
8
73
4
40
0
40
0
40
0
40
0
40
1
40
1
40
1
40
1
41
1
10
3.26980241474521
20
0.408548505175048
30
0
41
1
10
3.24585442213805
20
0.422032851781211
30
0
41
1
10
3.22475342635673
20
0.438952439950498
30
0
41
1
10
3.20648605728653
20
0.459264452850732
30
0
0
SPLINE
5
A3
100
AcDbEntity
8
1
62
256
6
ByLayer
370
13
48
1
60
0
100
AcDbSpline
70
4
71
3
72
10
73
6
40
0
40
0
40
0
40
0
40
0.5
40
0.5
40
1
40
1
40
1
40
1
41
1
10
3.39376695249146
20
0.431450817677472
30
0
41
1
10
3.37231075123603
20
0.43831314841205
30
0
41
1
10
3.35126876120807
20
0.445408800754734
30
0
41
1
10
3.31002917385473
20
0.460159631565063
30
0
41
1
10
3.28973212050198
20
0.46786453037538
30
0
41
1
10
3.27078578359877
20
0.475582015405962
30
0
0
SPLINE
5
A4
100
AcDbEntity
8
1
62
256
6
ByLayer
370
18
48
1
60
0
100
AcDbSpline
70
4
71
3
72
8
73
4
40
0
40
0
40
0
40
0
40
1
40
1
40
1
40
1
41
1
10
29.1432700941963
20
2.85895675996792
30
0
41
1
10
29.1039097412604
20
2.91035610716367
30
0
41
1
10
29.0638172386647
20
2.94460682365064
30
0
41
1
10
29.0224450635493
20
2.96232330911889
30
0
0
SPLINE
5
A5
100
AcDbEntity
8
1
62
256
6
ByLayer
370
18
48
1
60
0
100
AcDbSpline
70
4
71
3
72
8
73
4
40
0
40
0
40
0
40
0
40
1
40
1
40
1
40
1
41
1
10
29.9933088720892
20
-0.0853157353847962
30
0
41
1
10
29.9934107931894
20
-0.0699719191260613
30
0
41
1
10
29.9958938076676
20
-0.0509006217030503
30
0
41
1
10
29.9998117140323
20
-0.0307271695722875
30
0
0
SPLINE
5
A6
100
AcDbEntity
8
1
62
256
6
ByLayer
370
18
48
1
60
0
100
AcDbSpline
70
4
71
3
72
12
73
8
40
0
40
0
40
0
40
0
40
0.499999999999979
40
0.499999999999979
40
0.74999999999999
40
0.74999999999999
40
1
40
1
40
1
40
1
41
1
10
28.840337880531
20
0.81517399006691
30
0
41
1
10
29.0067556072676
20
0.811998310559432
30
0
41
1
10
29.173157686458
20
0.808937942353651
30
0
41
1
10
29.4226154131973
20
0.805418826165948
30
0
41
1
10
29.5057486787313
20
0.804388088760192
30
0
41
1
10
29.6718139468187
20
0.803809779174202
30
0
41
1
10
29.7548109172777
20
0.803783439671776
30
0
41
1
10
29.8377885347371
20
0.803899718030834
30
0
0
SPLINE
5
A7
100
AcDbEntity
8
1
62
256
6
ByLayer
370
18
48
1
60
0
100
AcDbSpline
70
4
71
3
72
10
73
6
40
0
40
0
40
0
40
0
40
0.5
40
0.5
40
1
40
1
40
1
40
1
41
1
10
29.9998117140327
20
0.0307271695704685
30
0
41
1
10
29.9976501360036
20
0.0210359825294688
30
0
41
1
10
29.9946470363306
20
0.0107935251178048
30
0
41
1
10
29.9872828765287
20
-0.0085312253920051
30
0
41
1
10
29.9829151220273
20
-0.0175801391006587
30
0
41
1
10
29.9784423856253
20
-0.0248862991011265
30
0
0
SPLINE
5
A8
100
AcDbEntity
8
1
62
256
6
ByLayer
370
18
48
1
60
0
100
AcDbSpline
70
4
71
3
72
58
73
54
40
0
40
0
40
0
40
0
40
0.0336608439762002
40
0.0336608439762002
40
0.0694511830881929
40
0.0694511830881929
40
0.105241522200186
40
0.105241522200186
40
0.141031861312178
40
0.141031861312178
40
0.212612539536165
40
0.212612539536165
40
0.248402878648158
40
0.248402878648158
40
0.284193217760151
40
0.284193217760151
40
0.319983556872145
40
0.319983556872145
40
0.355773895984138
40
0.355773895984138
40
0.391564235096131
40
0.391564235096131
40
0.427354574208124
40
0.427354574208124
40
0.49893525243211
40
0.49893525243211
40
0.534725591544102
40
0.534725591544102
40
0.570515930656094
40
0.570515930656094
40
0.606306269768086
40
0.606306269768086
40
0.642096608880078
40
0.642096608880078
40
0.677886947992071
40
0.677886947992071
40
0.713677287104063
40
0.713677287104063
40
0.749467626216055
40
0.749467626216055
40
0.785257965328047
40
0.785257965328047
40
0.821048304440039
40
0.821048304440039
40
0.856838643552031
40
0.856838643552031
40
0.892628982664024
40
0.892628982664024
40
0.928419321776016
40
0.928419321776016
40
0.964209660888008
40
0.964209660888008
40
1
40
1
40
1
40
1
41
1
10
23.8912707527308
20
-2.22161023053289
30
0
41
1
10
23.7137873073343
20
-2.2808256687936
30
0
41
1
10
23.5361965132513
20
-2.33534855389416
30
0
41
1
10
23.1701416711597
20
-2.44098206005682
30
0
41
1
10
22.9813386931425
20
-2.49114292029657
30
0
41
1
10
22.6027597962651
20
-2.58153678949137
30
0
41
1
10
22.4131858686811
20
-2.62205409549119
30
0
41
1
10
22.0325349897032
20
-2.69111370642912
30
0
41
1
10
21.8409658821851
20
-2.71959892167169
30
0
41
1
10
21.2676923888594
20
-2.79160243272875
30
0
41
1
10
20.887302231824
20
-2.82045384058515
30
0
41
1
10
20.3144738194305
20
-2.82173539264244
30
0
41
1
10
20.1232166837561
20
-2.81709464284057
30
0
41
1
10
19.7409167238858
20
-2.797455050004
30
0
41
1
10
19.5500135142338
20
-2.78233016699065
30
0
41
1
10
19.1685508213553
20
-2.74084355081703
30
0
41
1
10
18.9782079377958
20
-2.71415642985508
30
0
41
1
10
18.5964651374567
20
-2.64918145019007
30
0
41
1
10
18.4052387582811
20
-2.61147342229208
30
0
41
1
10
18.0228352972559
20
-2.52530602809395
30
0
41
1
10
17.8324400404043
20
-2.47689993673077
30
0
41
1
10
17.4524399798639
20
-2.37221739927506
30
0
41
1
10
17.2629555848247
20
-2.3155673200541
30
0
41
1
10
16.696071169068
20
-2.13094009020807
30
0
41
1
10
16.3186379550969
20
-1.98936528430042
30
0
41
1
10
15.7519202022234
20
-1.75623732931274
30
0
41
1
10
15.562742562923
20
-1.67514439844052
30
0
41
1
10
15.1833370870714
20
-1.50562267931213
30
0
41
1
10
14.9933214664886
20
-1.41678262835256
30
0
41
1
10
14.6115310587643
20
-1.2341100758909
30
0
41
1
10
14.4197808840774
20
-1.14010272721242
30
0
41
1
10
14.037871664321
20
-0.948091415581189
30
0
41
1
10
13.8472833576871
20
-0.849952105857483
30
0
41
1
10
13.4657936397265
20
-0.650914303874544
30
0
41
1
10
13.2746787464834
20
-0.5500100293591
30
0
41
1
10
12.8928112235469
20
-0.345466882692591
30
0
41
1
10
12.7012823048393
20
-0.242041493826605
30
0
41
1
10
12.3197540397133
20
-0.0359125929792299
30
0
41
1
10
12.1297926532372
20
0.0672382765929171
30
0
41
1
10
11.7508954252597
20
0.272170516930316
30
0
41
1
10
11.5618025291549
20
0.373803048764728
30
0
41
1
10
11.1838610874571
20
0.574905695124272
30
0
41
1
10
10.9951858466569
20
0.674503904240055
30
0
41
1
10
10.617758937834
20
0.871134850145836
30
0
41
1
10
10.4288501733487
20
0.96783936089372
30
0
41
1
10
10.0506773392565
20
1.15777300300817
30
0
41
1
10
9.8614436516801
20
1.25106571620657
30
0
41
1
10
9.48133923930325
20
1.4314169417076
30
0
41
1
10
9.29037400373579
20
1.51854352925577
30
0
41
1
10
8.90757614713527
20
1.68825767741194
30
0
41
1
10
8.71680911153345
20
1.77089760244547
30
0
41
1
10
8.33466613928061
20
1.92748528069993
30
0
41
1
10
8.14337010508211
20
2.00139658761932
30
0
41
1
10
7.95190016207658
20
2.07092794548851
30
0
0
SPLINE
5
A9
100
AcDbEntity
8
1
62
256
6
ByLayer
370
18
48
1
60
0
100
AcDbSpline
70
4
71
3
72
10
73
6
40
0
40
0
40
0
40
0
40
0.5
40
0.5
40
1
40
1
40
1
40
1
41
1
10
29.1432700941961
20
-2.85895675996883
30
0
41
1
10
29.2587697392356
20
-2.52965903740611
30
0
41
1
10
29.3766674358864
20
-2.2019578730058
30
0
41
1
10
29.6158850248544
20
-1.54865814098616
30
0
41
1
10
29.7372363458357
20
-1.22308937338505
30
0
41
1
10
29.8592483432092
20
-0.898024331802475
30
0
0
SPLINE
5
AA
100
AcDbEntity
8
1
62
256
6
ByLayer
370
18
48
1
60
0
100
AcDbSpline
70
4
71
3
72
8
73
4
40
0
40
0
40
0
40
0
40
1
40
1
40
1
40
1
41
1
10
29.9821657890743
20
-0.301582063694298
30
0
41
1
10
29.9889261144336
20
-0.229480475007307
30
0
41
1
10
29.9928301137366
20
-0.157390901207179
30
0
41
1
10
29.9933088720892
20
-0.0853157353848815
30
0
0
SPLINE
5
AB
100
AcDbEntity
8
1
62
256
6
ByLayer
370
18
48
1
60
0
100
AcDbSpline
70
4
71
3
72
8
73
4
40
0
40
0
40
0
40
0
40
1
40
1
40
1
40
1
41
1
10
3.27078578359877
20
0.403795721921256
30
0
41
1
10
3.29398310092489
20
0.389085887741487
30
0
41
1
10
3.3190036540538
20
0.374437181448656
30
0
41
1
10
3.34483410724016
20
0.36011966547963
30
0
0
SPLINE
5
AC
100
AcDbEntity
8
1
62
256
6
ByLayer
370
18
48
1
60
0
100
AcDbSpline
70
4
71
3
72
16
73
12
40
0
40
0
40
0
40
0
40
0.319472251702888
40
0.319472251702888
40
0.638944503405775
40
0.638944503405775
40
0.798680629257217
40
0.798680629257217
40
0.958416755108658
40
0.958416755108658
40
1
40
1
40
1
40
1
41
1
10
7.95190016207729
20
2.07092794548794
30
0
41
1
10
7.55630818160276
20
2.2099381831423
30
0
41
1
10
7.1667576615821
20
2.33899779890732
30
0
41
1
10
6.39057055646424
20
2.55728495108892
30
0
41
1
10
6.00720239914131
20
2.64494213212075
30
0
41
1
10
5.43703474008129
20
2.73679402555075
30
0
41
1
10
5.24769863675135
20
2.76088264125235
30
0
41
1
10
4.8700888070401
20
2.79701873946209
30
0
41
1
10
4.68183999196356
20
2.80865258198523
30
0
41
1
10
4.44542680448711
20
2.81365204128036
30
0
41
1
10
4.39661471888093
20
2.81416622337815
30
0
41
1
10
4.3478785417812
20
2.81413732880887
30
0
0
SPLINE
5
AD
100
AcDbEntity
8
1
62
256
6
ByLayer
370
18
48
1
60
0
100
AcDbSpline
70
4
71
3
72
8
73
4
40
0
40
0
40
0
40
0
40
1
40
1
40
1
40
1
41
1
10
29.0419935447155
20
-2.91141800319687
30
0
41
1
10
29.0354862340824
20
-2.92839928306708
30
0
41
1
10
29.0289700939646
20
-2.94536773014471
30
0
41
1
10
29.0224450635493
20
-2.96232330911891
30
0
0
SPLINE
5
AE
100
AcDbEntity
8
1
62
256
6
ByLayer
370
18
48
1
60
0
100
AcDbSpline
70
4
71
3
72
30
73
26
40
0
40
0
40
0
40
0
40
0.0624999999999991
40
0.0624999999999991
40
0.0937499999999988
40
0.0937499999999988
40
0.124999999999998
40
0.124999999999998
40
0.187499999999998
40
0.187499999999998
40
0.249999999999997
40
0.249999999999997
40
0.374999999999996
40
0.374999999999996
40
0.499999999999997
40
0.499999999999997
40
0.562499999999997
40
0.562499999999997
40
0.624999999999998
40
0.624999999999998
40
0.749999999999998
40
0.749999999999998
40
0.874999999999999
40
0.874999999999999
40
1
40
1
40
1
40
1
41
1
10
26.204398469258
20
1.2566114588804
30
0
41
1
10
26.1876482237438
20
1.17294669910038
30
0
41
1
10
26.1769924859537
20
1.08652589490308
30
0
41
1
10
26.1707928269354
20
0.952470214052596
30
0
41
1
10
26.1703758377666
20
0.90682327447405
30
0
41
1
10
26.1728833310493
20
0.815637294042546
30
0
41
1
10
26.1757855849634
20
0.769993484864074
30
0
41
1
10
26.1892539398342
20
0.632915270458483
30
0
41
1
10
26.2045694141449
20
0.541334455063009
30
0
41
1
10
26.2472294304575
20
0.357802001072429
30
0
41
1
10
26.274778557659
20
0.265575063285496
30
0
41
1
10
26.3711652839178
20
-0.0025478147761362
30
0
41
1
10
26.4544000058539
20
-0.17369555291836
30
0
41
1
10
26.6489569809536
20
-0.501472444198811
30
0
41
1
10
26.7572713204328
20
-0.653452962499273
30
0
41
1
10
26.9321415879483
20
-0.868045206616358
30
0
41
1
10
26.9925443544696
20
-0.937296329255219
30
0
41
1
10
27.1172506010815
20
-1.0715896186633
30
0
41
1
10
27.1817795121784
20
-1.13681907781631
30
0
41
1
10
27.3780672749243
20
-1.32437603309947
30
0
41
1
10
27.5130164063201
20
-1.43937175879577
30
0
41
1
10
27.7892528762734
20
-1.65380327530474
30
0
41
1
10
27.9305741358661
20
-1.75315579192227
30
0
41
1
10
28.2186746407053
20
-1.93846178356046
30
0
41
1
10
28.3657984668294
20
-2.02459362604907
30
0
41
1
10
28.5144869243923
20
-2.10412237368956
30
0
0
SPLINE
5
AF
100
AcDbEntity
8
1
62
256
6
ByLayer
370
18
48
1
60
0
100
AcDbSpline
70
4
71
3
72
74
73
70
40
0
40
0
40
0
40
0
40
0.0335762013251037
40
0.0335762013251037
40
0.0503643019876559
40
0.0503643019876559
40
0.0671524026502082
40
0.0671524026502082
40
0.100728603975313
40
0.100728603975313
40
0.134304805300417
40
0.134304805300417
40
0.151092905962969
40
0.151092905962969
40
0.167881006625521
40
0.167881006625521
40
0.201457207950624
40
0.201457207950624
40
0.235033409275727
40
0.235033409275727
40
0.251821509938278
40
0.251821509938278
40
0.268609610600829
40
0.268609610600829
40
0.302185811925931
40
0.302185811925931
40
0.335762013251033
40
0.335762013251033
40
0.352550113913584
40
0.352550113913584
40
0.369338214576135
40
0.369338214576135
40
0.402914415901237
40
0.402914415901237
40
0.436490617226339
40
0.436490617226339
40
0.470066818551441
40
0.470066818551441
40
0.503643019876543
40
0.503643019876543
40
0.537219221201645
40
0.537219221201645
40
0.570795422526747
40
0.570795422526747
40
0.604371623851849
40
0.604371623851849
40
0.637947825176951
40
0.637947825176951
40
0.671524026502053
40
0.671524026502053
40
0.705100227827155
40
0.705100227827155
40
0.738676429152257
40
0.738676429152257
40
0.772252630477359
40
0.772252630477359
40
0.805828831802461
40
0.805828831802461
40
0.839405033127564
40
0.839405033127564
40
0.872981234452666
40
0.872981234452666
40
0.906557435777768
40
0.906557435777768
40
0.94013363710287
40
0.94013363710287
40
0.973709838427972
40
0.973709838427972
40
1
40
1
40
1
40
1
41
1
10
7.95190016207729
20
2.36163242336934
30
0
41
1
10
8.17438119367426
20
2.43904384561068
30
0
41
1
10
8.39632667300529
20
2.50873237097051
30
0
41
1
10
8.72834162462851
20
2.60250016197418
30
0
41
1
10
8.83882191849614
20
2.63199505122924
30
0
41
1
10
9.05913623547502
20
2.68765051355425
30
0
41
1
10
9.16903880484409
20
2.71373751766066
30
0
41
1
10
9.49913167205554
20
2.78599144994666
30
0
41
1
10
9.71930107781958
20
2.82654465049558
30
0
41
1
10
10.1588669875613
20
2.8929442605868
30
0
41
1
10
10.3787566702356
20
2.9184654563459
30
0
41
1
10
10.7099337144265
20
2.94484161678841
30
0
41
1
10
10.8204873215356
20
2.95167748401897
30
0
41
1
10
11.0417328775294
20
2.96140168369621
30
0
41
1
10
11.1523214954433
20
2.96428246014267
30
0
41
1
10
11.4854184006533
20
2.9667706553349
30
0
41
1
10
11.709171133262
20
2.9602996750817
30
0
41
1
10
12.1523167266003
20
2.93128929582335
30
0
41
1
10
12.3728210840417
20
2.90872812459978
30
0
41
1
10
12.7034977949715
20
2.86362109662957
30
0
41
1
10
12.8136600629582
20
2.84670173111863
30
0
41
1
10
13.0336650648624
20
2.80900285044058
30
0
41
1
10
13.1433812305937
20
2.78813802991658
30
0
41
1
10
13.4727959058366
20
2.7201154646126
30
0
41
1
10
13.6929986165514
20
2.66780307396385
30
0
41
1
10
14.1333387221116
20
2.54835131844084
30
0
41
1
10
14.3535763994941
20
2.48116872191244
30
0
41
1
10
14.6858282819696
20
2.37080362021567
30
0
41
1
10
14.7968638939612
20
2.33240280939705
30
0
41
1
10
15.0193359556839
20
2.25213860745001
30
0
41
1
10
15.1308665158134
20
2.21012201511604
30
0
41
1
10
15.4639908537632
20
2.07970238402487
30
0
41
1
10
15.6856416007732
20
1.98806144477285
30
0
41
1
10
16.127150823802
20
1.79446209825937
30
0
41
1
10
16.3468090811027
20
1.6921535657591
30
0
41
1
10
16.7865823607781
20
1.48045600469945
30
0
41
1
10
17.006684558343
20
1.37112389402148
30
0
41
1
10
17.4458065528607
20
1.14299840528452
30
0
41
1
10
17.666013426316
20
1.02610250926594
30
0
41
1
10
18.1078209142792
20
0.786874113809546
30
0
41
1
10
18.3288595322048
20
0.663518985689194
30
0
41
1
10
18.7738383355259
20
0.413790552198293
30
0
41
1
10
18.9969045063604
20
0.288176372004699
30
0
41
1
10
19.4390751485391
20
0.0355129116334467
30
0
41
1
10
19.6593066154867
20
-0.0908768457286158
30
0
41
1
10
20.099783546163
20
-0.340738838651646
30
0
41
1
10
20.3191828002448
20
-0.465724888046736
30
0
41
1
10
20.7584704074828
20
-0.711943676925955
30
0
41
1
10
20.9786234979116
20
-0.832733249044196
30
0
41
1
10
21.4191062137473
20
-1.07111654335995
30
0
41
1
10
21.6394367212587
20
-1.18868305010469
30
0
41
1
10
22.0831172708821
20
-1.41573431673302
30
0
41
1
10
22.3063003131829
20
-1.52704700738252
30
0
41
1
10
22.7498610369784
20
-1.73936977977058
30
0
41
1
10
22.9710803478402
20
-1.83996615192032
30
0
41
1
10
23.4119584428519
20
-2.03103475127176
30
0
41
1
10
23.6312845991492
20
-2.12185238050216
30
0
41
1
10
24.0709858475936
20
-2.28999824442875
30
0
41
1
10
24.2906251393335
20
-2.36828418385693
30
0
41
1
10
24.7300828484988
20
-2.51241604260363
30
0
41
1
10
24.9504651355311
20
-2.57769966024623
30
0
41
1
10
25.392619456574
20
-2.69460263274493
30
0
41
1
10
25.6139367201669
20
-2.74664646548251
30
0
41
1
10
26.0595933834057
20
-2.83487044250171
30
0
41
1
10
26.2813431798766
20
-2.87106854957676
30
0
41
1
10
26.7226060594701
20
-2.9279250166181
30
0
41
1
10
26.9427165107731
20
-2.94831055140236
30
0
41
1
10
27.3348218805026
20
-2.9705632558495
30
0
41
1
10
27.5064414669894
20
-2.97551226834972
30
0
41
1
10
27.6782161754016
20
-2.97557665892944
30
0
0
SPLINE
5
B0
100
AcDbEntity
8
1
62
256
6
ByLayer
370
18
48
1
60
0
100
AcDbSpline
70
4
71
3
72
18
73
14
40
0
40
0
40
0
40
0
40
0.282895735894515
40
0.282895735894515
40
0.424343603841776
40
0.424343603841776
40
0.565791471789036
40
0.565791471789036
40
0.848687207683556
40
0.848687207683556
40
0.990135075630816
40
0.990135075630816
40
1
40
1
40
1
40
1
41
1
10
28.5144869243923
20
-2.10412237368956
30
0
41
1
10
28.5564099553982
20
-2.23021520151579
30
0
41
1
10
28.5998466720165
20
-2.34029435765746
30
0
41
1
10
28.6666818307622
20
-2.48237258514391
30
0
41
1
10
28.6892479192773
20
-2.52586127967922
30
0
41
1
10
28.734939059504
20
-2.60489831137284
30
0
41
1
10
28.7579961421563
20
-2.64027384915647
30
0
41
1
10
28.8265343676894
20
-2.73225387136449
30
0
41
1
10
28.8718444345536
20
-2.77569483630805
30
0
41
1
10
28.9395332500374
20
-2.81393045657791
30
0
41
1
10
28.9621364745989
20
-2.82216222302677
30
0
41
1
10
28.9860843845091
20
-2.82588637962715
30
0
41
1
10
28.9876444369482
20
-2.82610624288441
30
0
41
1
10
28.9892032652306
20
-2.82630316233448
30
0
0
SPLINE
5
B1
100
AcDbEntity
8
1
62
256
6
ByLayer
370
13
48
1
60
0
100
AcDbSpline
70
4
71
3
72
8
73
4
40
0
40
0
40
0
40
0
40
1
40
1
40
1
40
1
41
1
10
3.16494606201329
20
0.560764131221845
30
0
41
1
10
3.18581833783122
20
0.525997282468012
30
0
41
1
10
3.2217170531685
20
0.495569372039256
30
0
41
1
10
3.27078578359877
20
0.475582015405934
30
0
0
SPLINE
5
B2
100
AcDbEntity
8
1
62
256
6
ByLayer
370
18
48
1
60
0
100
AcDbSpline
70
4
71
3
72
10
73
6
40
0
40
0
40
0
40
0
40
0.448416611788684
40
0.448416611788684
40
1
40
1
40
1
40
1
41
1
10
7.95190016207729
20
2.36163242336497
30
0
41
1
10
7.95190016207729
20
2.31379701572726
30
0
41
1
10
7.95190016207729
20
2.26668731862853
30
0
41
1
10
7.95190016207729
20
2.16362870248653
30
0
41
1
10
7.95190016207732
20
2.10844771809985
30
0
41
1
10
7.95190016207732
20
2.05486842336472
30
0
0
SPLINE
5
B3
100
AcDbEntity
8
1
62
256
6
ByLayer
370
18
48
1
60
0
100
AcDbSpline
70
4
71
3
72
54
73
50
40
0
40
0
40
0
40
0
40
0.0624999999999922
40
0.0624999999999922
40
0.0937499999999884
40
0.0937499999999884
40
0.124999999999984
40
0.124999999999984
40
0.156249999999981
40
0.156249999999981
40
0.187499999999977
40
0.187499999999977
40
0.203124999999974
40
0.203124999999974
40
0.218749999999972
40
0.218749999999972
40
0.23437499999997
40
0.23437499999997
40
0.249999999999967
40
0.249999999999967
40
0.265624999999965
40
0.265624999999965
40
0.281249999999962
40
0.281249999999962
40
0.312499999999956
40
0.312499999999956
40
0.34374999999995
40
0.34374999999995
40
0.374999999999944
40
0.374999999999944
40
0.390624999999941
40
0.390624999999941
40
0.398437499999939
40
0.398437499999939
40
0.40234374999994
40
0.40234374999994
40
0.40624999999994
40
0.40624999999994
40
0.437499999999943
40
0.437499999999943
40
0.49999999999995
40
0.49999999999995
40
0.624999999999962
40
0.624999999999962
40
0.749999999999975
40
0.749999999999975
40
0.874999999999987
40
0.874999999999987
40
1
40
1
40
1
40
1
41
1
10
3.16539505347546
20
-2.86097537073619
30
0
41
1
10
3.02310895445711
20
-2.832733699877
30
0
41
1
10
2.88413937816688
20
-2.79776705877913
30
0
41
1
10
2.68365691759342
20
-2.73144151120258
30
0
41
1
10
2.61817668795194
20
-2.70699614567329
30
0
41
1
10
2.49088682751977
20
-2.65218334662165
30
0
41
1
10
2.42901092830493
20
-2.62174607141756
30
0
41
1
10
2.31296091959132
20
-2.55440511116865
30
0
41
1
10
2.25845955720871
20
-2.51742232432508
30
0
41
1
10
2.15968411768273
20
-2.43442710964919
30
0
41
1
10
2.11501699647442
20
-2.38783094075839
30
0
41
1
10
2.06226421080532
20
-2.31063499407256
30
0
41
1
10
2.04702064571353
20
-2.28368376417356
30
0
41
1
10
2.02223428913459
20
-2.22691111876461
30
0
41
1
10
2.01270036321824
20
-2.1968797959172
30
0
41
1
10
2.00103735820426
20
-2.13560409645063
30
0
41
1
10
1.99878382963806
20
-2.10417330527244
30
0
41
1
10
2.00214424155496
20
-2.03969461859296
30
0
41
1
10
2.00789751442215
20
-2.00627683957748
30
0
41
1
10
2.02736783796976
20
-1.93970643524813
30
0
41
1
10
2.04093319189926
20
-1.90677484505062
30
0
41
1
10
2.07504957761651
20
-1.84165810191004
30
0
41
1
10
2.09581149548592
20
-1.80921400361757
30
0
41
1
10
2.16601206486436
20
-1.71526347581042
30
0
41
1
10
2.22282288553876
20
-1.65713958802613
30
0
41
1
10
2.35013391342861
20
-1.54749249505997
30
0
41
1
10
2.41990341743451
20
-1.49679669015291
30
0
41
1
10
2.56507889204917
20
-1.40315264470712
30
0
41
1
10
2.6410064316093
20
-1.35983891407315
30
0
41
1
10
2.75859819899296
20
-1.29891419261816
30
0
41
1
10
2.79844390309756
20
-1.27927754117624
30
0
41
1
10
2.85897150170243
20
-1.25078281234772
30
0
41
1
10
2.87863774097855
20
-1.24007438255265
30
0
41
1
10
2.91240345857207
20
-1.23388232350783
30
0
41
1
10
2.92420470283389
20
-1.23295468895935
30
0
41
1
10
2.94726724950661
20
-1.23291031694001
30
0
41
1
10
2.95870335187499
20
-1.23388890467859
30
0
41
1
10
3.06169879913264
20
-1.24195213164324
30
0
41
1
10
3.15322804159442
20
-1.24934213680265
30
0
41
1
10
3.42741639872997
20
-1.27564028713294
30
0
41
1
10
3.60962774099914
20
-1.29710608084437
30
0
41
1
10
4.15361314311704
20
-1.37235427795392
30
0
41
1
10
4.51313533181155
20
-1.4370811018224
30
0
41
1
10
5.22642821290526
20
-1.58979797018705
30
0
41
1
10
5.57793754680017
20
-1.67722229790317
30
0
41
1
10
6.27033680682979
20
-1.86444712842984
30
0
41
1
10
6.61156171159743
20
-1.96420605709159
30
0
41
1
10
7.28650053436158
20
-2.16498420831687
30
0
41
1
10
7.62023881806601
20
-2.26592186330535
30
0
41
1
10
7.95190016207729
20
-2.36163242336934
30
0
0
SPLINE
5
B4
100
AcDbEntity
8
1
62
256
6
ByLayer
370
18
48
1
60
0
100
AcDbSpline
70
4
71
3
72
8
73
4
40
0
40
0
40
0
40
0
40
1
40
1
40
1
40
1
41
1
10
7.48083455522999
20
2.22325842086286
30
0
41
1
10
7.63843474909172
20
2.27014240733243
30
0
41
1
10
7.7953986839268
20
2.31646935448873
30
0
41
1
10
7.95190016207727
20
2.36163242336934
30
0
0
SPLINE
5
B5
100
AcDbEntity
8
1
62
256
6
ByLayer
370
18
48
1
60
0
100
AcDbSpline
70
4
71
3
72
8
73
4
40
0
40
0
40
0
40
0
40
1
40
1
40
1
40
1
41
1
10
29.1432700941966
20
-2.85895675996758
30
0
41
1
10
29.1039097412606
20
-2.91035610716349
30
0
41
1
10
29.0638172386648
20
-2.94460682365062
30
0
41
1
10
29.0224450635493
20
-2.96232330911889
30
0
0
SPLINE
5
B6
100
AcDbEntity
8
1
62
256
6
ByLayer
370
13
48
1
60
0
100
AcDbSpline
70
4
71
3
72
27
73
23
40
0
40
0
40
0
40
0
40
0.153941557680523
40
0.153941557680523
40
0.230912336520785
40
0.230912336520785
40
0.307883115361047
40
0.384853894201308
40
0.384853894201308
40
0.46182467304157
40
0.46182467304157
40
0.538795451881831
40
0.538795451881831
40
0.615766230722093
40
0.615766230722093
40
0.769707788402616
40
0.769707788402616
40
0.846678567242878
40
0.846678567242878
40
0.923649346083139
40
0.923649346083139
40
1
40
1
40
1
40
1
41
1
10
3.39376695249143
20
0.431450817677472
30
0
41
1
10
3.393826288859
20
0.624692385725581
30
0
41
1
10
3.3938731875412
20
0.812427222618197
30
0
41
1
10
3.39393215934979
20
1.08585720627306
30
0
41
1
10
3.39394988062776
20
1.17556497639711
30
0
41
1
10
3.39398205946515
20
1.34868223280148
30
0
41
1
10
3.39401118408503
20
1.51644188004858
30
0
41
1
10
3.39403664236656
20
1.67364160831252
30
0
41
1
10
3.39406135898696
20
1.82546909215961
30
0
41
1
10
3.39407339548342
20
1.89897512139262
30
0
41
1
10
3.39409736836481
20
2.03827289120622
30
0
41
1
10
3.39410933034259
20
2.10423705094945
30
0
41
1
10
3.39413405124148
20
2.22876895421706
30
0
41
1
10
3.39414675560187
20
2.28700261598948
30
0
41
1
10
3.39418635828514
20
2.44791551509755
30
0
41
1
10
3.3942150124291
20
2.53783562246573
30
0
41
1
10
3.39426302768132
20
2.64637725066706
30
0
41
1
10
3.39427990563732
20
2.67816994174618
30
0
41
1
10
3.39431455363894
20
2.73152289010784
30
0
41
1
10
3.39433239115058
20
2.75327373510771
30
0
41
1
10
3.39436858252248
20
2.78682494651804
30
0
41
1
10
3.39438701312287
20
2.79872765494105
30
0
41
1
10
3.39440528211213
20
2.8056026804353
30
0
0
SPLINE
5
B7
100
AcDbEntity
8
1
62
256
6
ByLayer
370
18
48
1
60
0
100
AcDbSpline
70
4
71
3
72
14
73
10
40
0
40
0
40
0
40
0
40
0.25
40
0.25
40
0.500000000000001
40
0.500000000000001
40
0.75
40
0.75
40
1
40
1
40
1
40
1
41
1
10
29.0509771739517
20
-2.82191659592647
30
0
41
1
10
29.0542210842698
20
-2.8210331328554
30
0
41
1
10
29.0568383830709
20
-2.82175379505094
30
0
41
1
10
29.0604237212297
20
-2.82747344014186
30
0
41
1
10
29.0613445285662
20
-2.83253914551474
30
0
41
1
10
29.0604065600247
20
-2.848309997505
30
0
41
1
10
29.0584713712861
20
-2.85906329620892
30
0
41
1
10
29.0518044837937
20
-2.88401062154455
30
0
41
1
10
29.0471267952953
20
-2.89802242864027
30
0
41
1
10
29.0419935447151
20
-2.91141800319679
30
0
0
SPLINE
5
B8
100
AcDbEntity
8
1
62
256
6
ByLayer
370
18
48
1
60
0
100
AcDbSpline
70
4
71
3
72
8
73
4
40
0
40
0
40
0
40
0
40
1
40
1
40
1
40
1
41
1
10
29.0224450635493
20
2.96232330911889
30
0
41
1
10
28.8526575877761
20
2.97168042297469
30
0
41
1
10
28.6830591560215
20
2.97627514623576
30
0
41
1
10
28.5134715576832
20
2.9761224102208
30
0
0
SPLINE
5
B9
100
AcDbEntity
8
1
62
256
6
ByLayer
370
18
48
1
60
0
100
AcDbSpline
70
4
71
3
72
32
73
28
40
0
40
0
40
0
40
0
40
0.0030675064173645
40
0.0030675064173645
40
0.041411063862852
40
0.041411063862852
40
0.0797546213083396
40
0.0797546213083396
40
0.233128851090286
40
0.233128851090286
40
0.386503080872233
40
0.386503080872233
40
0.424846638317718
40
0.424846638317718
40
0.463190195763204
40
0.463190195763204
40
0.539877310654173
40
0.539877310654173
40
0.693251540436112
40
0.693251540436112
40
0.731595097881598
40
0.731595097881598
40
0.769938655327083
40
0.769938655327083
40
0.846625770218055
40
0.846625770218055
40
1
40
1
40
1
40
1
41
1
10
13.7724571549876
20
-2.82658840476486
30
0
41
1
10
13.7617195725345
20
-2.82843991322264
30
0
41
1
10
13.7509801535109
20
-2.8302736626639
30
0
41
1
10
13.6059734943205
20
-2.85478881749344
30
0
41
1
10
13.4714361292497
20
-2.87472088970719
30
0
41
1
10
13.2016934176903
20
-2.90889061146177
30
0
41
1
10
13.0662119715667
20
-2.92312360423858
30
0
41
1
10
12.3915850665179
20
-2.97910875802259
30
0
41
1
10
11.8577898053934
20
-2.97599459534095
30
0
41
1
10
10.7905300343351
20
-2.87740125968475
30
0
41
1
10
10.2567089311337
20
-2.78198622203689
30
0
41
1
10
9.58176333171701
20
-2.60732561265007
30
0
41
1
10
9.44624423393915
20
-2.56955882176715
30
0
41
1
10
9.17647187366612
20
-2.48929140506718
30
0
41
1
10
9.04195300689105
20
-2.44673293209723
30
0
41
1
10
8.63922784118216
20
-2.31215535349037
30
0
41
1
10
8.3718544608281
20
-2.21322841103185
30
0
41
1
10
7.57061350569882
20
-1.89210909456304
30
0
41
1
10
7.03806180423993
20
-1.64496281597727
30
0
41
1
10
6.36602739176692
20
-1.30607223850868
30
0
41
1
10
6.23131908205295
20
-1.23677515347757
30
0
41
1
10
5.96111441040344
20
-1.09538947451495
30
0
41
1
10
5.82560895125513
20
-1.02328507989762
30
0
41
1
10
5.42068395149104
20
-0.804997582901649
30
0
41
1
10
5.15185584178366
20
-0.656233405091314
30
0
41
1
10
4.34656011269237
20
-0.204064708600981
30
0
41
1
10
3.81061264918566
20
0.104035606370417
30
0
41
1
10
3.26980241474661
20
0.408548505174252
30
0
0
SPLINE
5
BA
100
AcDbEntity
8
1
62
256
6
ByLayer
370
18
48
1
60
0
100
AcDbSpline
70
4
71
3
72
8
73
4
40
0
40
0
40
0
40
0
40
1
40
1
40
1
40
1
41
1
10
3.20648605728653
20
0.459264452849538
30
0
41
1
10
3.18110420570247
20
0.487487263417194
30
0
41
1
10
3.16493973034824
20
0.523096651652452
30
0
41
1
10
3.16494606201377
20
0.560764131214512
30
0
0
SPLINE
5
BB
100
AcDbEntity
8
1
62
256
6
ByLayer
370
18
48
1
60
0
100
AcDbSpline
70
4
71
3
72
8
73
4
40
0
40
0
40
0
40
0
40
1
40
1
40
1
40
1
41
1
10
29.8592483432095
20
0.898024331801849
30
0
41
1
10
29.8524780989061
20
0.866548561656117
30
0
41
1
10
29.8453186925738
20
0.835174949610632
30
0
41
1
10
29.8377885347372
20
0.803899718030834
30
0
0
SPLINE
5
BC
100
AcDbEntity
8
1
62
256
6
ByLayer
370
18
48
1
60
0
100
AcDbSpline
70
4
71
3
72
18
73
14
40
0
40
0
40
0
40
0
40
0.168605628787047
40
0.168605628787047
40
0.337211257574094
40
0.337211257574094
40
0.674422515148187
40
0.674422515148187
40
0.758725329541713
40
0.758725329541713
40
0.843028143935239
40
0.843028143935239
40
1
40
1
40
1
40
1
41
1
10
3.34483410724019
20
0.36011966547963
30
0
41
1
10
3.61483958149196
20
0.210458811237601
30
0
41
1
10
3.88387095380506
20
0.0599878676516425
30
0
41
1
10
4.41895574825713
20
-0.239101090434417
30
0
41
1
10
4.68538510794454
20
-0.387889472397319
30
0
41
1
10
5.48381209798441
20
-0.827619493435179
30
0
41
1
10
6.01524425005675
20
-1.11136280889343
30
0
41
1
10
6.68543652565128
20
-1.44190681222059
30
0
41
1
10
6.81977180337728
20
-1.50680714766116
30
0
41
1
10
7.0892079866108
20
-1.63388311187882
30
0
41
1
10
7.22422131514446
20
-1.69601219108429
30
0
41
1
10
7.60875365108043
20
-1.86805065357299
30
0
41
1
10
7.85778383410667
20
-1.97328122590017
30
0
41
1
10
8.10619062681545
20
-2.07113336031421
30
0
0
SPLINE
5
BD
100
AcDbEntity
8
1
62
256
6
ByLayer
370
13
48
1
60
0
100
AcDbSpline
70
4
71
3
72
20
73
16
40
0
40
0
40
0
40
0
40
0.0103000194948562
40
0.0103000194948562
40
0.308853239188317
40
0.308853239188317
40
0.458129849035047
40
0.458129849035047
40
0.532768153958412
40
0.532768153958412
40
0.607406458881777
40
0.607406458881777
40
0.905959678575238
40
0.905959678575238
40
1
40
1
40
1
40
1
41
1
10
8.10619090949083
20
-2.07113347166538
30
0
41
1
10
8.12460117388665
20
-2.07838562265121
30
0
41
1
10
8.14300801413049
20
-2.08559724541422
30
0
41
1
10
8.69485358717773
20
-2.30061917357608
30
0
41
1
10
9.22547807738724
20
-2.47481751018279
30
0
41
1
10
10.026373146897
20
-2.67517073150981
30
0
41
1
10
10.2941721544126
20
-2.73186042655305
30
0
41
1
10
10.6981490910687
20
-2.80069658026298
30
0
41
1
10
10.8331858735283
20
-2.82092290385106
30
0
41
1
10
11.1020029646047
20
-2.85549151969204
30
0
41
1
10
11.2360533964615
20
-2.86987804293699
30
0
41
1
10
11.9048267462072
20
-2.92732928237209
30
0
41
1
10
12.4359315143339
20
-2.92728072274878
30
0
41
1
10
13.1362391755633
20
-2.86735593652088
30
0
41
1
10
13.3041605473463
20
-2.84852861908212
30
0
41
1
10
13.4724692255252
20
-2.82522907345472
30
0
0
SPLINE
5
BE
100
AcDbEntity
8
1
62
256
6
ByLayer
370
18
48
1
60
0
100
AcDbSpline
70
4
71
3
72
10
73
6
40
0
40
0
40
0
40
0
40
0.5
40
0.5
40
1
40
1
40
1
40
1
41
1
10
29.1432700941915
20
2.85895675998216
30
0
41
1
10
29.2579193068489
20
2.53208368077216
30
0
41
1
10
29.3756622700163
20
2.20472507858526
30
0
41
1
10
29.6155221092914
20
1.54962727151354
30
0
41
1
10
29.7371602411083
20
1.22329213202298
30
0
41
1
10
29.8592483432095
20
0.898024331801849
30
0
0
SPLINE
5
BF
100
AcDbEntity
8
1
62
256
6
ByLayer
370
18
48
1
60
0
100
AcDbSpline
70
4
71
3
72
22
73
18
40
0
40
0
40
0
40
0
40
0.196328831759941
40
0.196328831759941
40
0.294493247639914
40
0.294493247639914
40
0.392657663519886
40
0.392657663519886
40
0.588986495279836
40
0.588986495279836
40
0.785315327039787
40
0.785315327039787
40
0.883479742919764
40
0.883479742919764
40
0.981644158799741
40
0.981644158799741
40
1
40
1
40
1
40
1
41
1
10
7.95190016207729
20
-2.36163242336934
30
0
41
1
10
8.17438119367426
20
-2.43904384561068
30
0
41
1
10
8.39632667300529
20
-2.50873237097053
30
0
41
1
10
8.72834162462857
20
-2.60250016197421
30
0
41
1
10
8.83882191849614
20
-2.63199505122924
30
0
41
1
10
9.05913623547502
20
-2.68765051355425
30
0
41
1
10
9.16903880484409
20
-2.71373751766069
30
0
41
1
10
9.49913167205554
20
-2.78599144994666
30
0
41
1
10
9.71930107781958
20
-2.82654465049558
30
0
41
1
10
10.1588669875612
20
-2.8929442605868
30
0
41
1
10
10.3787566702356
20
-2.9184654563459
30
0
41
1
10
10.7099337144265
20
-2.94484161678841
30
0
41
1
10
10.8204873215356
20
-2.95167748401897
30
0
41
1
10
11.0417328775294
20
-2.96140168369621
30
0
41
1
10
11.1523214954433
20
-2.96428246014267
30
0
41
1
10
11.2841158144599
20
-2.96526694839761
30
0
41
1
10
11.3048925883324
20
-2.9653509727161
30
0
41
1
10
11.3256809575069
20
-2.96536400960102
30
0
0
SPLINE
5
C0
100
AcDbEntity
8
1
62
256
6
ByLayer
370
18
48
1
60
0
100
AcDbSpline
70
4
71
3
72
22
73
18
40
0
40
0
40
0
40
0
40
0.118942521147028
40
0.118942521147028
40
0.24480787526888
40
0.24480787526888
40
0.370673229390731
40
0.370673229390731
40
0.496538583512583
40
0.496538583512583
40
0.622403937634437
40
0.622403937634437
40
0.748269291756291
40
0.748269291756291
40
0.874134645878145
40
0.874134645878145
40
1
40
1
40
1
40
1
41
1
10
23.8874099582235
20
2.21974523153383
30
0
41
1
10
24.0951472730058
20
2.29859117762189
30
0
41
1
10
24.3027106426925
20
2.37224794652786
30
0
41
1
10
24.7300828484989
20
2.51241604260363
30
0
41
1
10
24.9504651355311
20
2.57769966024625
30
0
41
1
10
25.392619456574
20
2.69460263274493
30
0
41
1
10
25.6139367201669
20
2.74664646548251
30
0
41
1
10
26.0595933834057
20
2.83487044250171
30
0
41
1
10
26.2813431798766
20
2.87106854957676
30
0
41
1
10
26.7226060594701
20
2.9279250166181
30
0
41
1
10
26.9427165107731
20
2.94831055140236
30
0
41
1
10
27.3825430910955
20
2.97327152275213
30
0
41
1
10
27.6015225963436
20
2.97788494872805
30
0
41
1
10
28.0406454601347
20
2.97112180858176
30
0
41
1
10
28.2606331339541
20
2.95988022240303
30
0
41
1
10
28.7007205606397
20
2.92128770677036
30
0
41
1
10
28.9213704892051
20
2.89401168987513
30
0
41
1
10
29.1432700941966
20
2.85895675996753
30
0
0
SPLINE
5
C1
100
AcDbEntity
8
1
62
256
6
ByLayer
370
18
48
1
60
0
100
AcDbSpline
70
4
71
3
72
30
73
26
40
0
40
0
40
0
40
0
40
0.25000000000002
40
0.25000000000002
40
0.37500000000003
40
0.37500000000003
40
0.50000000000004
40
0.50000000000004
40
0.62500000000005
40
0.62500000000005
40
0.75000000000006
40
0.75000000000006
40
0.812500000000061
40
0.812500000000061
40
0.843750000000057
40
0.843750000000057
40
0.851562500000054
40
0.851562500000054
40
0.859375000000051
40
0.859375000000051
40
0.867187500000048
40
0.867187500000048
40
0.875000000000044
40
0.875000000000044
40
1
40
1
40
1
40
1
41
1
10
26.2043984692579
20
1.25661145888051
30
0
41
1
10
26.4180843381268
20
1.05082084208456
30
0
41
1
10
26.6449071627231
20
0.869642647736157
30
0
41
1
10
27.0063685475949
20
0.637644960695013
30
0
41
1
10
27.1282287438072
20
0.568433044518343
30
0
41
1
10
27.3737048663265
20
0.446685203701776
30
0
41
1
10
27.4974865644787
20
0.394105856444725
30
0
41
1
10
27.7475064133217
20
0.308470451517138
30
0
41
1
10
27.8736635008495
20
0.274770123468272
30
0
41
1
10
28.1286792740091
20
0.228841114511766
30
0
41
1
10
28.2556297965406
20
0.2170530159392
30
0
41
1
10
28.4424581645648
20
0.22000576185124
30
0
41
1
10
28.5043778782547
20
0.224434207475838
30
0
41
1
10
28.5959823738567
20
0.236754962747796
30
0
41
1
10
28.6262857125161
20
0.241803575391117
30
0
41
1
10
28.6638078205104
20
0.249330755577915
30
0
41
1
10
28.6713441980344
20
0.250764707920325
30
0
41
1
10
28.6862086925859
20
0.254157740316089
30
0
41
1
10
28.6934436743819
20
0.256738118654511
30
0
41
1
10
28.7057037188896
20
0.266020439765129
30
0
41
1
10
28.710683273777
20
0.272628330515829
30
0
41
1
10
28.7156339932405
20
0.289415297209729
30
0
41
1
10
28.7165894829315
20
0.29875412806004
30
0
41
1
10
28.7424764869894
20
0.451144103598153
30
0
41
1
10
28.7517054075888
20
0.601462623337767
30
0
41
1
10
28.7505760516553
20
0.752382501290413
30
0
0
SPLINE
5
C2
100
AcDbEntity
8
1
62
256
6
ByLayer
370
18
48
1
60
0
100
AcDbSpline
70
4
71
3
72
26
73
22
40
0
40
0
40
0
40
0
40
0.0624999999999989
40
0.0624999999999989
40
0.124999999999998
40
0.124999999999998
40
0.187499999999997
40
0.187499999999997
40
0.249999999999996
40
0.249999999999996
40
0.312499999999995
40
0.312499999999995
40
0.374999999999994
40
0.374999999999994
40
0.499999999999992
40
0.499999999999992
40
0.749999999999989
40
0.749999999999989
40
0.874999999999994
40
0.874999999999994
40
1
40
1
40
1
40
1
41
1
10
29.5296981331881
20
-0.717399288003179
30
0
41
1
10
29.5315677175406
20
-0.735152895172803
30
0
41
1
10
29.5320662002147
20
-0.754219724163477
30
0
41
1
10
29.5303513196145
20
-0.795086565718407
30
0
41
1
10
29.5280804179673
20
-0.817220102810381
30
0
41
1
10
29.5208840123174
20
-0.862840029291931
30
0
41
1
10
29.5160278596126
20
-0.88615101813869
30
0
41
1
10
29.5039402759637
20
-0.933786734981567
30
0
41
1
10
29.4967252746717
20
-0.957936744308597
30
0
41
1
10
29.4807543313638
20
-1.00494294964133
30
0
41
1
10
29.4718258323703
20
-1.02831432697607
30
0
41
1
10
29.45289698945
20
-1.07307930594646
30
0
41
1
10
29.4429307700359
20
-1.09444963231121
30
0
41
1
10
29.4116407023103
20
-1.15577974552795
30
0
41
1
10
29.3895051161694
20
-1.19183962345502
30
0
41
1
10
29.3214767127221
20
-1.28391421275612
30
0
41
1
10
29.2758339831875
20
-1.32142783347558
30
0
41
1
10
29.212583048964
20
-1.34029018490585
30
0
41
1
10
29.1923878636887
20
-1.34024657282743
30
0
41
1
10
29.1552715128188
20
-1.32736290810843
30
0
41
1
10
29.1379042205966
20
-1.31423776527606
30
0
41
1
10
29.1231569594687
20
-1.29478096504528
30
0
0
SPLINE
5
C3
100
AcDbEntity
8
1
62
256
6
ByLayer
370
18
48
1
60
0
100
AcDbSpline
70
4
71
3
72
16
73
12
40
0
40
0
40
0
40
0
40
0.300275154241876
40
0.300275154241876
40
0.426441393154135
40
0.426441393154135
40
0.552607632066394
40
0.552607632066394
40
0.804940109890906
40
0.804940109890906
40
1
40
1
40
1
40
1
41
1
10
12.3508671626783
20
-2.81725690789207
30
0
41
1
10
12.0344546185218
20
-2.81643635328123
30
0
41
1
10
11.717776405734
20
-2.79999151103576
30
0
41
1
10
11.2661206605152
20
-2.75438939985631
30
0
41
1
10
11.1322084095584
20
-2.73811044564579
30
0
41
1
10
10.8637004480355
20
-2.70002144957951
30
0
41
1
10
10.7288567173534
20
-2.67816645326567
30
0
41
1
10
10.3255975116991
20
-2.60488781516563
30
0
41
1
10
10.058189715169
20
-2.54577676876761
30
0
41
1
10
9.58542230856335
20
-2.42395364701787
30
0
41
1
10
9.37975498564597
20
-2.36509172090925
30
0
41
1
10
9.17421062309197
20
-2.30088779535021
30
0
0
SPLINE
5
C4
100
AcDbEntity
8
1
62
256
6
ByLayer
370
13
48
1
60
0
100
AcDbSpline
70
4
71
3
72
18
73
14
40
0
40
0
40
0
40
0
40
0.169776857337214
40
0.169776857337214
40
0.308147381114343
40
0.308147381114343
40
0.377332643002907
40
0.377332643002907
40
0.446517904891472
40
0.446517904891472
40
0.723258952445736
40
0.723258952445736
40
1
40
1
40
1
40
1
41
1
10
9.17421062323689
20
-2.30088779539548
30
0
41
1
10
8.84796428005609
20
-2.19898134721856
30
0
41
1
10
8.52202771111749
20
-2.0836167911981
30
0
41
1
10
7.92859409563886
20
-1.85274784317031
30
0
41
1
10
7.66144070035179
20
-1.74108090630261
30
0
41
1
10
7.2588567691169
20
-1.56287446483361
30
0
41
1
10
7.12402676216823
20
-1.50159567954807
30
0
41
1
10
6.85511290637385
20
-1.37655913891058
30
0
41
1
10
6.72105217656525
20
-1.31281590355974
30
0
41
1
10
6.05231695242216
20
-0.988743464405729
30
0
41
1
10
5.52228297250861
20
-0.712443026609776
30
0
41
1
10
4.46179791506864
20
-0.145124092637786
30
0
41
1
10
3.93091403821654
20
0.145073875283117
30
0
41
1
10
3.39376695249149
20
0.431450817677472
30
0
0
SPLINE
5
C5
100
AcDbEntity
8
1
62
256
6
ByLayer
370
18
48
1
60
0
100
AcDbSpline
70
4
71
3
72
8
73
4
40
0
40
0
40
0
40
0
40
1
40
1
40
1
40
1
41
1
10
29.9821657890743
20
0.301582063694724
30
0
41
1
10
29.9889343223098
20
0.229392934706908
30
0
41
1
10
29.992830729656
20
0.157298176990878
30
0
41
1
10
29.9933088720892
20
0.085315735384853
30
0
0
SPLINE
5
C6
100
AcDbEntity
8
1
62
256
6
ByLayer
370
18
48
1
60
0
100
AcDbSpline
70
4
71
3
72
10
73
6
40
0
40
0
40
0
40
0
40
0.5
40
0.5
40
1
40
1
40
1
40
1
41
1
10
29.9933088720884
20
0.0853157353860183
30
0
41
1
10
29.9933595198156
20
0.0776909215148009
30
0
41
1
10
29.9940130477627
20
0.0691355913036489
30
0
41
1
10
29.9962715057059
20
0.0505762292335987
30
0
41
1
10
29.9978532418659
20
0.0408114188670936
30
0
41
1
10
29.9998117140325
20
0.030727169570639
30
0
0
SPLINE
5
C7
100
AcDbEntity
8
1
62
256
6
ByLayer
370
18
48
1
60
0
100
AcDbSpline
70
4
71
3
72
14
73
10
40
0
40
0
40
0
40
0
40
0.25
40
0.25
40
0.5
40
0.5
40
0.75
40
0.75
40
1
40
1
40
1
40
1
41
1
10
3.16539505347151
20
-2.86097537074761
30
0
41
1
10
3.1751978510602
20
-2.83746607277729
30
0
41
1
10
3.18881656921437
20
-2.81474757657028
30
0
41
1
10
3.22266857291046
20
-2.77617637633799
30
0
41
1
10
3.24299337631015
20
-2.76030601040699
30
0
41
1
10
3.28642892509134
20
-2.73823846663652
30
0
41
1
10
3.30910207885717
20
-2.73208882903518
30
0
41
1
10
3.35296067638222
20
-2.72739786254527
30
0
41
1
10
3.37404661524994
20
-2.72869178863061
30
0
41
1
10
3.3945534573412
20
-2.7325595355403
30
0
0
SPLINE
5
C8
100
AcDbEntity
8
1
62
256
6
ByLayer
370
18
48
1
60
0
100
AcDbSpline
70
4
71
3
72
27
73
23
40
0
40
0
40
0
40
0
40
0.0740415617224041
40
0.0740415617224041
40
0.148083123444808
40
0.148083123444808
40
0.296166246889617
40
0.296166246889617
40
0.370207808612021
40
0.370207808612021
40
0.444249370334424
40
0.518290932056828
40
0.518290932056828
40
0.592332493779232
40
0.592332493779232
40
0.74041561722404
40
0.74041561722404
40
0.814457178946444
40
0.814457178946444
40
0.888498740668848
40
0.888498740668848
40
1
40
1
40
1
40
1
41
1
10
3.16494606201377
20
0.560764131223436
30
0
41
1
10
3.1649628568523
20
0.660677647761531
30
0
41
1
10
3.16497821884485
20
0.759416401689265
30
0
41
1
10
3.16500659584372
20
0.954532824114182
30
0
41
1
10
3.16501952745716
20
1.05036878664262
30
0
41
1
10
3.1650550768878
20
1.32973757945086
30
0
41
1
10
3.16507466266396
20
1.50651311710331
30
0
41
1
10
3.16510127142939
20
1.7573046387337
30
0
41
1
10
3.16510969985043
20
1.83874261513307
30
0
41
1
10
3.1651257848674
20
1.99312271434834
30
0
41
1
10
3.16514119410496
20
2.13989693473616
30
0
41
1
10
3.1651562251723
20
2.27174658096448
30
0
41
1
10
3.16517146940478
20
2.3960418281583
30
0
41
1
10
3.16517924162321
20
2.4547000085935
30
0
41
1
10
3.1652030389821
20
2.61659722861592
30
0
41
1
10
3.16521948341969
20
2.70537726481953
30
0
41
1
10
3.16524585447357
20
2.81053969945012
30
0
41
1
10
3.1652549158689
20
2.84088957657059
30
0
41
1
10
3.16527356366157
20
2.89184777642683
30
0
41
1
10
3.16528301669825
20
2.912075498002
30
0
41
1
10
3.16530671198271
20
2.94978913483769
30
0
41
1
10
3.16532102412032
20
2.96089160533333
30
0
41
1
10
3.16533485415565
20
2.96026347440576
30
0
0
SPLINE
5
C9
100
AcDbEntity
8
1
62
256
6
ByLayer
370
18
48
1
60
0
100
AcDbSpline
70
4
71
3
72
8
73
4
40
0
40
0
40
0
40
0
40
1
40
1
40
1
40
1
41
1
10
29.9784423856253
20
-0.0248862991011265
30
0
41
1
10
29.8339552303565
20
-0.260904293348489
30
0
41
1
10
29.6837492648933
20
-0.491106856408322
30
0
41
1
10
29.5296981331882
20
-0.717399288003179
30
0
0
SPLINE
5
CA
100
AcDbEntity
8
1
62
256
6
ByLayer
370
18
48
1
60
0
100
AcDbSpline
70
4
71
3
72
8
73
4
40
0
40
0
40
0
40
0
40
1
40
1
40
1
40
1
41
1
10
29.8377885347372
20
0.803899718030834
30
0
41
1
10
29.9093316392754
20
0.638306121626073
30
0
41
1
10
29.9562909047099
20
0.470774967764726
30
0
41
1
10
29.9821657890743
20
0.301582063694724
30
0
0
SPLINE
5
CB
100
AcDbEntity
8
1
62
256
6
ByLayer
370
18
48
1
60
0
100
AcDbSpline
70
4
71
3
72
26
73
22
40
0
40
0
40
0
40
0
40
0.0487216531208696
40
0.0487216531208696
40
0.139875171338481
40
0.139875171338481
40
0.231028689556092
40
0.231028689556092
40
0.413335725991315
40
0.413335725991315
40
0.504489244208928
40
0.504489244208928
40
0.550066003317733
40
0.550066003317733
40
0.595642762426539
40
0.595642762426539
40
0.777949798861761
40
0.777949798861761
40
0.960256835296984
40
0.960256835296984
40
1
40
1
40
1
40
1
41
1
10
15.7580886308826
20
2.25009318182958
30
0
41
1
10
15.9017407532296
20
2.19886968212288
30
0
41
1
10
16.0455066056422
20
2.14502526794078
30
0
41
1
10
16.4588970501036
20
1.983247923204
30
0
41
1
10
16.7287392721898
20
1.86936515150998
30
0
41
1
10
17.2679969071973
20
1.62753652597397
30
0
41
1
10
17.5376696857148
20
1.49944547898863
30
0
41
1
10
18.3409120837415
20
1.10130916829732
30
0
41
1
10
18.8718141723967
20
0.816588582216866
30
0
41
1
10
19.670094354231
20
0.376063666294215
30
0
41
1
10
19.9364552770579
20
0.226895300115387
30
0
41
1
10
20.3376004764638
20
0.0017562032586795
30
0
41
1
10
20.4716018234233
20
-0.073482226257255
30
0
41
1
10
20.740325223874
20
-0.224083818698006
30
0
41
1
10
20.8753209496705
20
-0.299624426011008
30
0
41
1
10
21.5482033877101
20
-0.674257121361507
30
0
41
1
10
22.080302722354
20
-0.964461093861416
30
0
41
1
10
23.1440539109729
20
-1.50616975849729
30
0
41
1
10
23.6757384806168
20
-1.75757662650787
30
0
41
1
10
24.3303068404975
20
-2.02841120944507
30
0
41
1
10
24.4479029444562
20
-2.07555508990063
30
0
41
1
10
24.565385191655
20
-2.12103183421297
30
0
0
SPLINE
5
CC
100
AcDbEntity
8
1
62
256
6
ByLayer
370
13
48
1
60
0
100
AcDbSpline
70
4
71
3
72
18
73
14
40
0
40
0
40
0
40
0
40
0.0115022714060008
40
0.0115022714060008
40
0.101365701278181
40
0.101365701278181
40
0.281092561022541
40
0.281092561022541
40
0.460819420766902
40
0.460819420766902
40
0.640546280511266
40
0.640546280511266
40
1
40
1
40
1
40
1
41
1
10
24.5653842589613
20
-2.12103147317225
30
0
41
1
10
24.5826288881886
20
-2.12770677740727
30
0
41
1
10
24.599871064309
20
-2.13434616182963
30
0
41
1
10
24.7517835965558
20
-2.19253093165713
30
0
41
1
10
24.8862668320795
20
-2.24189008211636
30
0
41
1
10
25.2894263205848
20
-2.38298351327919
30
0
41
1
10
25.5577938738441
20
-2.46777926923681
30
0
41
1
10
26.0953024786035
20
-2.61734030457973
30
0
41
1
10
26.3652462964839
20
-2.68221421932691
30
0
41
1
10
26.9028635363152
20
-2.78938982452578
30
0
41
1
10
27.1704678620264
20
-2.83176324913978
30
0
41
1
10
27.9721616980783
20
-2.92495348485537
30
0
41
1
10
28.5050899011238
20
-2.94185261626623
30
0
41
1
10
29.041993544715
20
-2.91141800319679
30
0
0
SPLINE
5
CD
100
AcDbEntity
8
1
62
256
6
ByLayer
370
18
48
1
60
0
100
AcDbSpline
70
4
71
3
72
12
73
8
40
0
40
0
40
0
40
0
40
0.198060128191475
40
0.198060128191475
40
0.599030064095737
40
0.599030064095737
40
1
40
1
40
1
40
1
41
1
10
3.16533485744685
20
-2.96026332470532
30
0
41
1
10
3.16533939374852
20
-2.96005668390975
30
0
41
1
10
3.16534387817728
20
-2.95858797480631
30
0
41
1
10
3.16535722518111
20
-2.95031071756648
30
0
41
1
10
3.16536584575866
20
-2.93944877194878
30
0
41
1
10
3.16538160457202
20
-2.90770670665992
30
0
41
1
10
3.16538879769968
20
-2.88681383494537
30
0
41
1
10
3.16539505347163
20
-2.86097537073752
30
0
0
SPLINE
5
CE
100
AcDbEntity
8
1
62
256
6
ByLayer
370
18
48
1
60
0
100
AcDbSpline
70
4
71
3
72
10
73
6
40
0
40
0
40
0
40
0
40
0.5
40
0.5
40
1
40
1
40
1
40
1
41
1
10
29.8592483432093
20
-0.898024331802276
30
0
41
1
10
29.8881576068997
20
-0.793625034773015
30
0
41
1
10
29.9133090189117
20
-0.692519760587146
30
0
41
1
10
29.9547349403371
20
-0.494520860389429
30
0
41
1
10
29.9710235605312
20
-0.397396642139796
30
0
41
1
10
29.9821657890744
20
-0.301582063694298
30
0
0
SPLINE
5
CF
100
AcDbEntity
8
1
62
256
6
ByLayer
370
18
48
1
60
0
100
AcDbSpline
70
4
71
3
72
40
73
36
40
0
40
0
40
0
40
0
40
0.0954560389809471
40
0.0954560389809471
40
0.143184058471421
40
0.143184058471421
40
0.190912077961894
40
0.190912077961894
40
0.286368116942841
40
0.286368116942841
40
0.334096136433315
40
0.334096136433315
40
0.381824155923788
40
0.381824155923788
40
0.477280194904735
40
0.477280194904735
40
0.525008214395209
40
0.525008214395209
40
0.572736233885683
40
0.572736233885683
40
0.66819227286663
40
0.66819227286663
40
0.715920292357103
40
0.715920292357103
40
0.763648311847577
40
0.763648311847577
40
0.859104350828524
40
0.859104350828524
40
0.906832370318998
40
0.906832370318998
40
0.930696380064235
40
0.930696380064235
40
0.954560389809473
40
0.954560389809473
40
1
40
1
40
1
40
1
41
1
10
29.0224450635493
20
-2.96232330911889
30
0
41
1
10
28.4831494740667
20
-2.99204428947817
30
0
41
1
10
27.946135092301
20
-2.97369778295069
30
0
41
1
10
27.1354892573565
20
-2.87509336786408
30
0
41
1
10
26.865889419234
20
-2.83047589232373
30
0
41
1
10
26.3297898688178
20
-2.71976211781433
30
0
41
1
10
26.0627459911181
20
-2.65360030995873
30
0
41
1
10
25.262446455321
20
-2.4248207940438
30
0
41
1
10
24.7298718713697
20
-2.2320356886234
30
0
41
1
10
23.9233280961917
20
-1.89138432331921
30
0
41
1
10
23.6521983318469
20
-1.76874346650826
30
0
41
1
10
23.1140417536929
20
-1.51221639622861
30
0
41
1
10
22.846312411412
20
-1.37807440134603
30
0
41
1
10
22.0449465068667
20
-0.961792303775127
30
0
41
1
10
21.5129631705566
20
-0.66606925527347
30
0
41
1
10
20.7093119270037
20
-0.210623237994298
30
0
41
1
10
20.4403648169362
20
-0.0568281224923339
30
0
41
1
10
19.8994116765492
20
0.251901324418441
30
0
41
1
10
19.6306542568055
20
0.404837893120884
30
0
41
1
10
18.8270324905299
20
0.855176121918959
30
0
41
1
10
18.2950462104491
20
1.14451082711943
30
0
41
1
10
17.493429823197
20
1.54670434412742
30
0
41
1
10
17.2255635895408
20
1.67538405450048
30
0
41
1
10
16.6870200356666
20
1.91952011103206
30
0
41
1
10
16.4157779093527
20
2.0352035541556
30
0
41
1
10
15.6091876516009
20
2.35356704851708
30
0
41
1
10
15.07647465637
20
2.529282762267
30
0
41
1
10
14.2759095095597
20
2.73021325289471
30
0
41
1
10
14.0087348075719
20
2.78669044757638
30
0
41
1
10
13.6063447741462
20
2.8547293579206
30
0
41
1
10
13.4719659497778
20
2.87464351873638
30
0
41
1
10
13.2025889676538
20
2.90878736916392
30
0
41
1
10
13.0672964595979
20
2.92302032153776
30
0
41
1
10
12.6749269109475
20
2.95562028101736
30
0
41
1
10
12.4190911247464
20
2.96610391483421
30
0
41
1
10
12.1640585604467
20
2.96590335280666
30
0
0
SPLINE
5
D0
100
AcDbEntity
8
1
62
256
6
ByLayer
370
18
48
1
60
0
100
AcDbSpline
70
4
71
3
72
8
73
4
40
0
40
0
40
0
40
0
40
1
40
1
40
1
40
1
41
1
10
29.9998117140327
20
-0.0307271695718327
30
0
41
1
10
30.000062899336
20
-0.0102274877587547
30
0
41
1
10
30.0000625991472
20
0.0102519867056685
30
0
41
1
10
29.9998117140327
20
0.0307271695704401
30
0
0
SPLINE
5
D1
100
AcDbEntity
8
1
62
256
6
ByLayer
370
18
48
1
60
0
100
AcDbSpline
70
4
71
3
72
14
73
10
40
0
40
0
40
0
40
0
40
0.439416028230988
40
0.439416028230988
40
0.659124042346486
40
0.659124042346486
40
0.87883205646198
40
0.87883205646198
40
1
40
1
40
1
40
1
41
1
10
29.0509771739693
20
-2.82191659592584
30
0
41
1
10
28.5146620112741
20
-2.84029799387048
30
0
41
1
10
27.9821438286421
20
-2.81318169781451
30
0
41
1
10
27.1811260342631
20
-2.70742771499087
30
0
41
1
10
26.9137196661477
20
-2.66134014163839
30
0
41
1
10
26.3766071710412
20
-2.54784249905799
30
0
41
1
10
26.1072144718016
20
-2.48042288408266
30
0
41
1
10
25.6909045350505
20
-2.36130913522328
30
0
41
1
10
25.5430156690428
20
-2.31610188546983
30
0
41
1
10
25.3950995768945
20
-2.26815322959692
30
0
0
SPLINE
5
D2
100
AcDbEntity
8
1
62
256
6
ByLayer
370
13
48
1
60
0
100
AcDbSpline
70
4
71
3
72
26
73
22
40
0
40
0
40
0
40
0
40
0.0428718761597147
40
0.0428718761597147
40
0.138460415627123
40
0.138460415627123
40
0.329637494561936
40
0.329637494561936
40
0.52081457349675
40
0.52081457349675
40
0.568608843230455
40
0.568608843230455
40
0.616403112964159
40
0.616403112964159
40
0.711991652431566
40
0.711991652431566
40
0.903168731366378
40
0.903168731366378
40
0.998757270833783
40
0.998757270833783
40
1
40
1
40
1
40
1
41
1
10
25.3950993219975
20
-2.26815314696927
30
0
41
1
10
25.274806351413
20
-2.22915883239298
30
0
41
1
10
25.1544953740163
20
-2.1883514125613
30
0
41
1
10
24.7656683096216
20
-2.05092096555268
30
0
41
1
10
24.4960345737611
20
-1.9469606407641
30
0
41
1
10
23.6914333815963
20
-1.6146703359253
30
0
41
1
10
23.1602611341072
20
-1.36641104485756
30
0
41
1
10
22.0974696909663
20
-0.834906483788671
30
0
41
1
10
21.5656751794282
20
-0.552036297520857
30
0
41
1
10
20.8935502055599
20
-0.188920896893933
30
0
41
1
10
20.7588475132571
20
-0.115890297204345
30
0
41
1
10
20.4905885041729
20
0.0295047953331391
30
0
41
1
10
20.3567861725041
20
0.102044120946573
30
0
41
1
10
19.9561986703794
20
0.318908652274501
30
0
41
1
10
19.6901387976503
20
0.462279750075027
30
0
41
1
10
18.8926494980105
20
0.884557061657972
30
0
41
1
10
18.3620705786796
20
1.15589233815905
30
0
41
1
10
17.5595473861734
20
1.53281673018657
30
0
41
1
10
17.2902160881858
20
1.65365953228328
30
0
41
1
10
17.0175320210215
20
1.76865659512458
30
0
41
1
10
17.0140323561994
20
1.7701312572174
30
0
41
1
10
17.0105326462256
20
1.77160471032613
30
0
0
SPLINE
5
D3
100
AcDbEntity
8
1
62
256
6
ByLayer
370
18
48
1
60
0
100
AcDbSpline
70
4
71
3
72
8
73
4
40
0
40
0
40
0
40
0
40
1
40
1
40
1
40
1
41
1
10
3.20648605728653
20
0.459264452850732
30
0
41
1
10
3.22457351420925
20
0.437485544548679
30
0
41
1
10
3.24582888038179
20
0.418828331884754
30
0
41
1
10
3.27078578359877
20
0.403795721921256
30
0
0
SPLINE
5
D4
100
AcDbEntity
8
1
62
256
6
ByLayer
370
18
48
1
60
0
100
AcDbSpline
70
4
71
3
72
8
73
4
40
0
40
0
40
0
40
0
40
1
40
1
40
1
40
1
41
1
10
29.9821657890743
20
0.301582063694724
30
0
41
1
10
29.960120916715
20
0.491150976574147
30
0
41
1
10
29.9179223838905
20
0.686136244073964
30
0
41
1
10
29.8592483432095
20
0.898024331801849
30
0
0
SPLINE
5
D5
100
AcDbEntity
8
1
62
256
6
ByLayer
370
18
48
1
60
0
100
AcDbSpline
70
4
71
3
72
36
73
32
40
0
40
0
40
0
40
0
40
0.125
40
0.125
40
0.187500000000006
40
0.187500000000006
40
0.250000000000012
40
0.250000000000012
40
0.312500000000018
40
0.312500000000018
40
0.375000000000024
40
0.375000000000024
40
0.406250000000027
40
0.406250000000027
40
0.43750000000003
40
0.43750000000003
40
0.468750000000033
40
0.468750000000033
40
0.500000000000036
40
0.500000000000036
40
0.531250000000039
40
0.531250000000039
40
0.562500000000042
40
0.562500000000042
40
0.625000000000036
40
0.625000000000036
40
0.750000000000024
40
0.750000000000024
40
0.875000000000012
40
0.875000000000012
40
1
40
1
40
1
40
1
41
1
10
29.1231569594672
20
-1.29478096504536
30
0
41
1
10
29.0349843894144
20
-1.26106916911277
30
0
41
1
10
28.9484135687425
20
-1.22063176972119
30
0
41
1
10
28.8213335817039
20
-1.14831846866068
30
0
41
1
10
28.7794430772163
20
-1.12224268313719
30
0
41
1
10
28.6968375870941
20
-1.0651552127799
30
0
41
1
10
28.6558194562792
20
-1.03392321279435
30
0
41
1
10
28.5771439464678
20
-0.96571680679213
30
0
41
1
10
28.5394886597748
20
-0.928963106565362
30
0
41
1
10
28.4700299939456
20
-0.846236830755572
30
0
41
1
10
28.4376270625954
20
-0.799686395822619
30
0
41
1
10
28.4056063840632
20
-0.72307560411673
30
0
41
1
10
28.3977113877828
20
-0.695803912845747
30
0
41
1
10
28.392513873032
20
-0.642276643348453
30
0
41
1
10
28.3954185868427
20
-0.6161419671609
30
0
41
1
10
28.4122897752601
20
-0.570604372119817
30
0
41
1
10
28.4256761603774
20
-0.551899022414403
30
0
41
1
10
28.4570060286126
20
-0.521757746924408
30
0
41
1
10
28.4750287498181
20
-0.510063281443621
30
0
41
1
10
28.5133365889063
20
-0.491289149011124
30
0
41
1
10
28.5335887866119
20
-0.484265151283552
30
0
41
1
10
28.5744472206624
20
-0.473573714560615
30
0
41
1
10
28.5952553701032
20
-0.469844459345694
30
0
41
1
10
28.6584860172749
20
-0.462095804938372
30
0
41
1
10
28.7017011798323
20
-0.461457783076838
30
0
41
1
10
28.8333912759392
20
-0.46826567963717
30
0
41
1
10
28.9211889310483
20
-0.484019127200469
30
0
41
1
10
29.0967378210805
20
-0.528664098256996
30
0
41
1
10
29.1847417831672
20
-0.557964170319281
30
0
41
1
10
29.3596895151582
20
-0.628730735794619
30
0
41
1
10
29.4456165673695
20
-0.669720497763763
30
0
41
1
10
29.5296981331882
20
-0.717399288003179
30
0
0
SPLINE
5
D6
100
AcDbEntity
8
1
62
256
6
ByLayer
370
18
48
1
60
0
100
AcDbSpline
70
4
71
3
72
18
73
14
40
0
40
0
40
0
40
0
40
0.138464034372948
40
0.138464034372948
40
0.276928068745895
40
0.276928068745895
40
0.415392103118843
40
0.415392103118843
40
0.553856137491791
40
0.553856137491791
40
0.830784206237682
40
0.830784206237682
40
1
40
1
40
1
40
1
41
1
10
3.39455346044542
20
-2.73255953612579
30
0
41
1
10
3.57129386942773
20
-2.76589412584008
30
0
41
1
10
3.75254202302997
20
-2.78753420022545
30
0
41
1
10
4.12068246354272
20
-2.81295661378269
30
0
41
1
10
4.30813251894457
20
-2.81661889698938
30
0
41
1
10
4.68506992739952
20
-2.80852000791901
30
0
41
1
10
4.87388218573545
20
-2.79674615072563
30
0
41
1
10
5.25207142997596
20
-2.76037177802931
30
0
41
1
10
5.44144111034964
20
-2.73617929443358
30
0
41
1
10
6.01085619448327
20
-2.64416012404558
30
0
41
1
10
6.39207094250869
20
-2.55683872244484
30
0
41
1
10
7.01373151658473
20
-2.38204814875007
30
0
41
1
10
7.25171315737029
20
-2.30785337413391
30
0
41
1
10
7.49159265327023
20
-2.2283918299668
30
0
0
SPLINE
5
D7
100
AcDbEntity
8
1
62
256
6
ByLayer
370
18
48
1
60
0
100
AcDbSpline
70
4
71
3
72
8
73
4
40
0
40
0
40
0
40
0
40
1
40
1
40
1
40
1
41
1
10
29.1231569594771
20
-1.29478096505545
30
0
41
1
10
28.9242127235864
20
-1.56883889000156
30
0
41
1
10
28.7208106902095
20
-1.83823432527009
30
0
41
1
10
28.5144869243923
20
-2.10412237368956
30
0
0
SPLINE
5
D8
100
AcDbEntity
8
SK1
62
256
6
ByLayer
370
18
48
1
60
0
100
AcDbSpline
70
4
71
3
72
8
73
4
40
0
40
0
40
0
40
0
40
1
40
1
40
1
40
1
41
1
10
-35.4
20
-1.73342869260341
30
0
41
1
10
-35.6037632619736
20
-1.43690310486571
30
0
41
1
10
-35.8060850946294
20
-1.13974776015232
30
0
41
1
10
-36
20
-0.838919449282116
30
0
0
SPLINE
5
D9
100
AcDbEntity
8
SK1
62
256
6
ByLayer
370
18
48
1
60
0
100
AcDbSpline
70
4
71
3
72
14
73
10
40
0
40
0
40
0
40
0
40
0.499999999999999
40
0.499999999999999
40
0.749999999999999
40
0.749999999999999
40
0.874999999999999
40
0.874999999999999
40
1
40
1
40
1
40
1
41
1
10
-35.4
20
-2.61464020297788
30
0
41
1
10
-35.3787677796885
20
-2.64553829788397
30
0
41
1
10
-35.3584290958895
20
-2.6729151408509
30
0
41
1
10
-35.3303626450498
20
-2.70558364211084
30
0
41
1
10
-35.3215171954455
20
-2.71494245858236
30
0
41
1
10
-35.3102812516991
20
-2.723809263704
30
0
41
1
10
-35.3068890218585
20
-2.7258624747312
30
0
41
1
10
-35.3017585680987
20
-2.72656212595351
30
0
41
1
10
-35.3
20
-2.7251517260994
30
0
41
1
10
-35.3
20
-2.72076942469701
30
0
0
SPLINE
5
DA
100
AcDbEntity
8
SK1
62
256
6
ByLayer
370
18
48
1
60
0
100
AcDbSpline
70
4
71
3
72
14
73
10
40
0
40
0
40
0
40
0
40
0.125
40
0.125
40
0.250000000000001
40
0.250000000000001
40
0.500000000000001
40
0.500000000000001
40
1
40
1
40
1
40
1
41
1
10
-35.3
20
-1.95705278237293
30
0
41
1
10
-35.3
20
-1.94877158286573
30
0
41
1
10
-35.3017593723636
20
-1.93856140205244
30
0
41
1
10
-35.306935341198
20
-1.91788966214128
30
0
41
1
10
-35.3102739075535
20
-1.90750900352208
30
0
41
1
10
-35.3215583577555
20
-1.87629129468482
30
0
41
1
10
-35.3303095934912
20
-1.85654105603112
30
0
41
1
10
-35.358391202053
20
-1.79890609753747
30
0
41
1
10
-35.378655954467
20
-1.76448952066968
30
0
41
1
10
-35.4
20
-1.73342869260341
30
0
0
SPLINE
5
DB
100
AcDbEntity
8
SK1
62
256
6
ByLayer
370
18
48
1
60
0
100
AcDbSpline
70
4
71
3
72
8
73
4
40
0
40
0
40
0
40
0
40
1
40
1
40
1
40
1
41
1
10
-36
20
-1.72013095965605
30
0
41
1
10
-35.8061805573349
20
-2.0208111752346
30
0
41
1
10
-35.6038214120673
20
-2.31802999257243
30
0
41
1
10
-35.4
20
-2.61464020297734
30
0
0
LINE
5
76
100
AcDbEntity
8
81
62
256
6
ByLayer
370
18
48
1
60
0
100
AcDbLine
10
30
20
0
30
0
11
35
21
0
31
0
39
0
210
0
220
0
230
1
0
LINE
5
77
100
AcDbEntity
8
1
62
256
6
ByLayer
370
18
48
1
60
0
100
AcDbLine
10
3.165327
20
2.960264
30
0
11
0.0235
21
2.9583
31
0
39
0
210
0
220
0
230
1
0
LINE
5
79
100
AcDbEntity
8
1
62
256
6
ByLayer
370
18
48
1
60
0
100
AcDbLine
10
12.165298
20
2.965889
30
0
11
11.326168
21
2.965364
31
0
39
0
210
0
220
0
230
1
0
LINE
5
7A
100
AcDbEntity
8
1
62
256
6
ByLayer
370
18
48
1
60
0
100
AcDbLine
10
28.51595
20
2.976108
30
0
11
27.676136
21
2.975583
31
0
39
0
210
0
220
0
230
1
0
LINE
5
7B
100
AcDbEntity
8
1
62
256
6
ByLayer
370
18
48
1
60
0
100
AcDbLine
10
27.676136
20
-2.975583
30
0
11
28.515922
21
-2.976108
31
0
39
0
210
0
220
0
230
1
0
LINE
5
7C
100
AcDbEntity
8
1
62
256
6
ByLayer
370
18
48
1
60
0
100
AcDbLine
10
11.326168
20
-2.965364
30
0
11
12.165553
21
-2.965889
31
0
39
0
210
0
220
0
230
1
0
LINE
5
7D
100
AcDbEntity
8
1
62
256
6
ByLayer
370
18
48
1
60
0
100
AcDbLine
10
0.0235
20
-2.9583
30
0
11
3.165327
21
-2.960264
31
0
39
0
210
0
220
0
230
1
0
LINE
5
7E
100
AcDbEntity
8
1
62
256
6
ByLayer
370
18
48
1
60
0
100
AcDbLine
10
0
20
-3
30
0
11
0.0235
21
-2.9583
31
0
39
0
210
0
220
0
230
1
0
LINE
5
7F
100
AcDbEntity
8
1
62
256
6
ByLayer
370
18
48
1
60
0
100
AcDbLine
10
0.0235
20
2.9583
30
0
11
0
21
3
31
0
39
0
210
0
220
0
230
1
0
LINE
5
80
100
AcDbEntity
8
SK1
62
256
6
ByLayer
370
18
48
1
60
0
100
AcDbLine
10
0
20
3
30
0
11
-35.278312
21
3
31
0
39
0
210
0
220
0
230
1
0
LINE
5
82
100
AcDbEntity
8
SK1
62
256
6
ByLayer
370
18
48
1
60
0
100
AcDbLine
10
-35.278312
20
-3
30
0
11
0
21
-3
31
0
39
0
210
0
220
0
230
1
0
LINE
5
83
100
AcDbEntity
8
SK1
62
256
6
ByLayer
370
18
48
1
60
0
100
AcDbLine
10
-35.278312
20
3
30
0
11
-36
21
1.75
31
0
39
0
210
0
220
0
230
1
0
LINE
5
84
100
AcDbEntity
8
SK1
62
256
6
ByLayer
370
18
48
1
60
0
100
AcDbLine
10
-36
20
-1.75
30
0
11
-35.278312
21
-3
31
0
39
0
210
0
220
0
230
1
0
LINE
5
85
100
AcDbEntity
8
SK4
62
256
6
ByLayer
370
18
48
0.05
60
0
100
AcDbLine
10
35
20
0
30
0
11
-41
21
0
31
0
39
0
210
0
220
0
230
1
0
LINE
5
87
100
AcDbEntity
8
4
62
256
6
ByLayer
370
18
48
0.05
60
0
100
AcDbLine
10
30
20
0
30
0
11
0
21
0
31
0
39
0
210
0
220
0
230
1
0
LINE
5
89
100
AcDbEntity
8
80
62
256
6
ByLayer
370
18
48
1
60
0
100
AcDbLine
10
0
20
0
30
0
11
-5
21
0
31
0
39
0
210
0
220
0
230
1
0
LINE
5
8A
100
AcDbEntity
8
1
62
256
6
ByLayer
370
18
48
1
60
0
100
AcDbLine
10
0
20
-3
30
0
11
0
21
3
31
0
39
0
210
0
220
0
230
1
0
LINE
5
8B
100
AcDbEntity
8
1
62
256
6
ByLayer
370
13
48
1
60
0
100
AcDbLine
10
28.840338
20
0.815174
30
0
11
29.993309
21
0.085316
31
0
39
0
210
0
220
0
230
1
0
LINE
5
8C
100
AcDbEntity
8
1
62
256
6
ByLayer
370
13
48
1
60
0
100
AcDbLine
10
28.750576
20
0.752383
30
0
11
29.978442
21
-0.024886
31
0
39
0
210
0
220
0
230
1
0
LINE
5
8D
100
AcDbEntity
8
1
62
256
6
ByLayer
370
18
48
1
60
0
100
AcDbLine
10
0.0235
20
2.9583
30
0
11
0.0235
21
-2.9583
31
0
39
0
210
0
220
0
230
1
0
LINE
5
8E
100
AcDbEntity
8
SK1
62
256
6
ByLayer
370
18
48
1
60
0
100
AcDbLine
10
0
20
-3
30
0
11
0
21
3
31
0
39
0
210
0
220
0
230
1
0
LINE
5
8F
100
AcDbEntity
8
SK1
62
256
6
ByLayer
370
18
48
1
60
0
100
AcDbLine
10
-36
20
1.75
30
0
11
-36
21
-0.838919
31
0
39
0
210
0
220
0
230
1
0
LINE
5
90
100
AcDbEntity
8
SK1
62
256
6
ByLayer
370
18
48
1
60
0
100
AcDbLine
10
-35.278312
20
3
30
0
11
-35.278312
21
-3
31
0
39
0
210
0
220
0
230
1
0
LINE
5
91
100
AcDbEntity
8
SK1
62
256
6
ByLayer
370
18
48
1
60
0
100
AcDbLine
10
-36
20
-1.75
30
0
11
-36
21
-1.720131
31
0
39
0
210
0
220
0
230
1
0
LINE
5
92
100
AcDbEntity
8
SK1
62
256
6
ByLayer
370
18
48
1
60
0
100
AcDbLine
10
-36
20
-0.838898
30
0
11
-36
21
-1.720131
31
0
39
0
210
0
220
0
230
1
0
LINE
5
93
100
AcDbEntity
8
SK1
62
256
6
ByLayer
370
13
48
1
60
0
100
AcDbLine
10
-35.4
20
-1.733409
30
0
11
-35.4
21
-2.61464
31
0
39
0
210
0
220
0
230
1
0
LINE
5
94
100
AcDbEntity
8
SK1
62
256
6
ByLayer
370
18
48
1
60
0
100
AcDbLine
10
-35.3
20
-2.720769
30
0
11
-35.3
21
-1.957053
31
0
39
0
210
0
220
0
230
1
0
MTEXT
5
DC
100
AcDbEntity
8
SK6
62
256
6
ByLayer
370
13
48
1
60
0
100
AcDbMText
10
-0.870831
20
35.359194
30
0
210
0
220
0
230
1
1
\W0.7431;460.1-0595-018A1-XM GC34
40
3.5
41
0
44
1.084337
50
0
71
8
72
5
7
iso_b_vert
0
DIMENSION
5
E9
100
AcDbEntity
8
SK2
62
256
6
ByLayer
370
13
48
1
60
0
100
AcDbDimension
2
DimnDraft3D1
10
29.1263
20
-13.189898
30
0
11
13.376359
21
-13.189898
31
0
70
32
71
5
72
1
41
1
210
0
220
0
230
1
3
Standard
100
AcDbAlignedDimension
13
0
23
-1.5875
33
0
14
29.1263
24
-4.564
34
0
50
0
100
AcDbRotatedDimension
1001
ACAD
1000
DSTYLE
1002
{
1070
   279
1070
     0
1070
   172
1070
     1
1070
   173
1070
     1
1070
   340
1005
DD
1070
   271
1070
     2
1070
   272
1070
     2
1070
    77
1070
     1
1070
    73
1070
     0
1070
   171
1070
     3
1070
   274
1070
     4
1070
   177
1070
    35
1070
   176
1070
    35
1070
   178
1070
    35
1070
    48
1040
-0.005
1070
    41
1041
3.5
1070
   147
1041
1.75
1070
    42
1041
1.5875
1070
    44
1041
2.0
1070
   140
1041
3.5
1070
   343
1005
0
1070
   344
1005
0
1002
}
0
DIMENSION
5
F3
100
AcDbEntity
8
SK2
62
256
6
ByLayer
370
13
48
1
60
0
100
AcDbDimension
2
DimnDraft3D2
10
30
20
-31.692985
30
0
11
-2.5324
21
-31.692985
31
0
70
32
71
5
72
1
41
1
210
0
220
0
230
1
3
Standard
100
AcDbAlignedDimension
13
-36
23
-4.5875
33
0
14
30
24
-1.5875
34
0
50
0
100
AcDbRotatedDimension
1001
ACAD
1000
DSTYLE
1002
{
1070
   279
1070
     0
1070
   172
1070
     1
1070
   173
1070
     1
1070
   340
1005
DD
1070
   271
1070
     2
1070
   272
1070
     2
1070
    77
1070
     1
1070
    73
1070
     0
1070
   171
1070
     3
1070
   274
1070
     4
1070
   177
1070
    35
1070
   176
1070
    35
1070
   178
1070
    35
1070
    48
1040
-0.005
1070
    41
1041
3.5
1070
   147
1041
1.75
1070
    42
1041
1.5875
1070
    44
1041
2.0
1070
   140
1041
3.5
1070
   343
1005
0
1070
   344
1005
0
1002
}
0
DIMENSION
5
FD
100
AcDbEntity
8
SK2
62
256
6
ByLayer
370
13
48
1
60
0
100
AcDbDimension
2
DimnDraft3D3
10
30
20
14.585619
30
0
11
21.355
21
14.585619
31
0
70
32
71
5
72
1
41
1
210
0
220
0
230
1
3
Standard
100
AcDbAlignedDimension
13
12.71
23
4.564
33
0
14
30
24
1.5875
34
0
50
0
100
AcDbRotatedDimension
1001
ACAD
1000
DSTYLE
1002
{
1070
   279
1070
     0
1070
   172
1070
     1
1070
   173
1070
     1
1070
   340
1005
DD
1070
   271
1070
     2
1070
   272
1070
     2
1070
    77
1070
     1
1070
    73
1070
     0
1070
   171
1070
     3
1070
   274
1070
     4
1070
   177
1070
    35
1070
   176
1070
    35
1070
   178
1070
    35
1070
    48
1040
-0.005
1070
    41
1041
3.5
1070
   147
1041
1.75
1070
    42
1041
1.5875
1070
    44
1041
2.0
1070
   140
1041
3.5
1070
   343
1005
0
1070
   344
1005
0
1002
}
0
DIMENSION
5
107
100
AcDbEntity
8
SK2
62
256
6
ByLayer
370
13
48
1
60
0
100
AcDbDimension
2
DimnDraft3D4
10
29.1263
20
-15.779003
30
0
11
39.981425
21
-15.779003
31
0
70
32
71
5
72
1
41
1
210
0
220
0
230
1
3
Standard
100
AcDbAlignedDimension
13
30
23
-1.5875
33
0
14
29.1263
24
-4.564
34
0
50
0
100
AcDbRotatedDimension
1001
ACAD
1000
DSTYLE
1002
{
1070
   279
1070
     0
1070
   172
1070
     1
1070
   173
1070
     1
1070
   340
1005
DD
1070
   271
1070
     2
1070
   272
1070
     2
1070
    77
1070
     1
1070
    73
1070
     0
1070
   171
1070
     3
1070
   274
1070
     4
1070
   177
1070
    35
1070
   176
1070
    35
1070
   178
1070
    35
1070
    48
1040
-0.005
1070
    41
1041
3.5
1070
   147
1041
1.75
1070
    42
1041
1.5875
1070
    44
1041
2.0
1070
   140
1041
3.5
1070
   343
1005
0
1070
   344
1005
0
1002
}
0
DIMENSION
5
111
100
AcDbEntity
8
SK2
62
256
6
ByLayer
370
13
48
1
60
0
100
AcDbDimension
2
DimnDraft3D5
10
29.1263
20
-21.343428
30
0
11
-5.613024
21
-21.343428
31
0
70
32
71
5
72
1
41
1
210
0
220
0
230
1
3
Standard
100
AcDbAlignedDimension
13
-36
23
-4.5875
33
0
14
29.1263
24
-4.564
34
0
50
0
100
AcDbRotatedDimension
1001
ACAD
1000
DSTYLE
1002
{
1070
   279
1070
     0
1070
   172
1070
     1
1070
   173
1070
     1
1070
   340
1005
DD
1070
   271
1070
     2
1070
   272
1070
     2
1070
    77
1070
     1
1070
    73
1070
     0
1070
   171
1070
     3
1070
   274
1070
     4
1070
   177
1070
    35
1070
   176
1070
    35
1070
   178
1070
    35
1070
    48
1040
-0.005
1070
    41
1041
3.5
1070
   147
1041
1.75
1070
    42
1041
1.5875
1070
    44
1041
2.0
1070
   140
1041
3.5
1070
   343
1005
0
1070
   344
1005
0
1002
}
0
DIMENSION
5
11C
100
AcDbEntity
8
SK2
62
256
6
ByLayer
370
13
48
1
60
0
100
AcDbDimension
2
DimnDraft3D6
10
-46.625163
20
3
30
0
11
-47.250163
21
21.47418
31
0
70
33
71
5
72
1
41
1
210
0
220
0
230
1
3
Standard
100
AcDbAlignedDimension
13
-37.5875
23
-3
33
0
14
-37.5875
24
3
34
0
1001
ACAD
1000
DSTYLE
1002
{
1070
   279
1070
     0
1070
    74
1070
     0
1070
   173
1070
     1
1070
   340
1005
DD
1070
   271
1070
     3
1070
   272
1070
     2
1070
    77
1070
     1
1070
    73
1070
     0
1070
   171
1070
     3
1070
   274
1070
     4
1070
   177
1070
    35
1070
   176
1070
    35
1070
   178
1070
    35
1070
    48
1040
-0.005
1070
    41
1041
3.5
1070
   147
1041
1.75
1070
    42
1041
1.5875
1070
    44
1041
2.0
1070
   140
1041
3.5
1070
   343
1005
0
1070
   344
1005
0
1002
}
0
DIMENSION
5
127
100
AcDbEntity
8
2
62
256
6
ByLayer
370
13
48
1
60
0
100
AcDbDimension
2
DimnDraft3D7
10
44.083343
20
2.9765
30
0
11
39.458343
21
20.043766
31
0
70
33
71
5
72
1
41
1
210
0
220
0
230
1
3
Standard
100
AcDbAlignedDimension
13
30.7138
23
-2.9765
33
0
14
30.7138
24
2.9765
34
0
1001
ACAD
1000
DSTYLE
1002
{
1070
   279
1070
     0
1070
    74
1070
     0
1070
   173
1070
     1
1070
   340
1005
DD
1070
   271
1070
     3
1070
   272
1070
     2
1070
    77
1070
     1
1070
    73
1070
     0
1070
   171
1070
     3
1070
   274
1070
     4
1070
   177
1070
    35
1070
   176
1070
    35
1070
   178
1070
    35
1070
    48
1040
-0.005
1070
    41
1041
3.5
1070
   147
1041
1.75
1070
    42
1041
1.5875
1070
    44
1041
2.0
1070
   140
1041
3.5
1070
   343
1005
0
1070
   344
1005
0
1002
}
0
ENDSEC
0
SECTION
2
OBJECTS
0
DICTIONARY
5
192
330
0
100
AcDbDictionary
280
0
281
1
3
ACAD_GROUP
350
193
3
ACAD_MLINESTYLE
350
194
0
DICTIONARY
5
193
330
0
100
AcDbDictionary
280
0
281
1
0
DICTIONARY
5
194
330
0
100
AcDbDictionary
280
0
281
1
3
Standard
350
18
0
MLINESTYLE
5
18
330
194
100
AcDbMlineStyle
2
Standard
70
0
3

62
256
51
90
52
90
71
2
49
-0.5
62
256
6
ByLayer
49
0.5
62
256
6
ByLayer
0
RASTERVARIABLES
5
180
330

100
AcDbRasterVariables
90
0
70
1
71
1
72
1
0
ENDSEC
0
EOF
