0
SECTION
2
HEADER
9
$ACADVER
1
AC1015
9
$DWGCODEPAGE
3
ANSI_1252
9
$HANDSEED
5
19d
9
$ANGBASE
50
0
9
$ANGDIR
70
0
9
$ATTMODE
70
1
9
$AUNITS
70
0
9
$AUPREC
70
0
9
$CECOLOR
62
256
9
$CELTSCALE
40
1
9
$CELTYPE
6
ByLayer
9
$CELWEIGHT
370
18
9
$CLAYER
8
0
9
$CMLJUST
70
0
9
$CMLSCALE
40
1
9
$CMLSTYLE
2
Standard
9
$DIMSTYLE
2
Standard
9
$TEXTSIZE
40
0.2
9
$TEXTSTYLE
7
Standard
9
$LUNITS
70
2
9
$LUPREC
70
4
9
$EXTNAMES
290
1
9
$INSUNITS
70
4
9
$LTSCALE
40
1
9
$LWDISPLAY
290
1
9
$PDMODE
70
0
9
$PDSIZE
40
0
9
$PLINEGEN
70
0
0
ENDSEC
0
SECTION
2
CLASSES
0
CLASS
1
RASTERVARIABLES
2
AcDbRasterVariables
3
ISM
90
0
280
0
281
0
0
ENDSEC
0
SECTION
2
TABLES
0
TABLE
2
VPORT
5
193
100
AcDbSymbolTable
0
VPORT
5
1
100
AcDbSymbolTableRecord
100
AcDbViewportTableRecord
2
*Active
70
0
10
0
20
0
11
1
21
1
12
-1
22
1
13
0
23
0
14
0.5
24
0.5
15
10
25
10
16
0
26
0
36
1
17
0
27
0
37
0
0
ENDTAB
0
TABLE
2
LTYPE
5
194
100
AcDbSymbolTable
0
LTYPE
5
14
100
AcDbSymbolTableRecord
100
AcDbLinetypeTableRecord
70
0
2
ByBlock
3

72
65
73
0
40
0
0
LTYPE
5
15
100
AcDbSymbolTableRecord
100
AcDbLinetypeTableRecord
70
0
2
ByLayer
3

72
65
73
0
40
0
0
LTYPE
5
16
100
AcDbSymbolTableRecord
100
AcDbLinetypeTableRecord
70
0
2
CONTINUOUS
3
Solid line
72
65
73
0
40
0
0
LTYPE
5
6A
100
AcDbSymbolTableRecord
100
AcDbLinetypeTableRecord
70
0
2
CENTER
3
____ _ ____ _ ____ _ ____
72
65
73
4
40
47.5
49
22
74
0
49
-8.5
74
0
49
8.5
74
0
49
-8.5
74
0
0
LTYPE
5
6B
100
AcDbSymbolTableRecord
100
AcDbLinetypeTableRecord
70
0
2
DASHED
3
__ __ __ __ __ __ __ __ __
72
65
73
2
40
25.72
49
12.86
74
0
49
-12.86
74
0
0
ENDTAB
0
TABLE
2
LAYER
5
195
100
AcDbSymbolTable
0
LAYER
5
10
100
AcDbSymbolTableRecord
100
AcDbLayerTableRecord
2
0
70
0
62
7
6
CONTINUOUS
290
1
370
-3
390
0
0
LAYER
5
6D
100
AcDbSymbolTableRecord
100
AcDbLayerTableRecord
2
81
70
0
62
-3
6
CONTINUOUS
290
1
370
-3
390
0
0
LAYER
5
6F
100
AcDbSymbolTableRecord
100
AcDbLayerTableRecord
2
80
70
0
62
-6
6
CONTINUOUS
290
1
370
-3
390
0
0
LAYER
5
74
100
AcDbSymbolTableRecord
100
AcDbLayerTableRecord
2
2
70
0
62
7
6
CONTINUOUS
290
1
370
-3
390
0
0
LAYER
5
78
100
AcDbSymbolTableRecord
100
AcDbLayerTableRecord
2
1
70
0
62
4
6
CONTINUOUS
290
1
370
-3
390
0
0
LAYER
5
8A
100
AcDbSymbolTableRecord
100
AcDbLayerTableRecord
2
4
70
0
62
-2
6
CENTER
290
1
370
-3
390
0
0
LAYER
5
17f
100
AcDbSymbolTableRecord
100
AcDbLayerTableRecord
2
SK2
70
0
62
7
6
CONTINUOUS
290
1
370
-3
390
0
0
LAYER
5
180
100
AcDbSymbolTableRecord
100
AcDbLayerTableRecord
2
SK1
70
0
62
4
6
CONTINUOUS
290
1
370
-3
390
0
0
LAYER
5
181
100
AcDbSymbolTableRecord
100
AcDbLayerTableRecord
2
SK4
70
0
62
2
6
CENTER
290
1
370
-3
390
0
0
LAYER
5
182
100
AcDbSymbolTableRecord
100
AcDbLayerTableRecord
2
SK6
70
0
62
5
6
CONTINUOUS
290
1
370
-3
390
0
0
ENDTAB
0
TABLE
2
STYLE
5
196
100
AcDbSymbolTable
0
STYLE
5
11
100
AcDbSymbolTableRecord
100
AcDbTextStyleTableRecord
2
Standard
3
txt
70
0
71
0
40
0
41
1
42
0
50
0
0
STYLE
5
DB
100
AcDbSymbolTableRecord
100
AcDbTextStyleTableRecord
2
iso_b_vert
3
simplex.shx
70
0
71
0
40
0
41
1
42
0
50
0
0
STYLE
5
DC
100
AcDbSymbolTableRecord
100
AcDbTextStyleTableRecord
2
DWGDirectTextStyle
3
simplex
70
0
71
0
40
0
41
1
42
0
50
0
0
ENDTAB
0
TABLE
2
DIMSTYLE
5
197
100
AcDbSymbolTable
100
AcDbDimStyleTable
0
DIMSTYLE
105
27
100
AcDbSymbolTableRecord
100
AcDbDimStyleTableRecord
2
Standard
70
0
3
<>
41
0.18
42
0.0625
44
0.18
140
0.18
147
0.09
73
0
74
0
77
1
271
2
275
0
278
52
280
0
340
11
0
ENDTAB
0
TABLE
2
VIEW
5
198
100
AcDbSymbolTable
0
ENDTAB
0
TABLE
2
UCS
5
199
100
AcDbSymbolTable
0
ENDTAB
0
TABLE
2
APPID
5
19a
100
AcDbSymbolTable
0
APPID
5
12
100
AcDbSymbolTableRecord
100
AcDbRegAppTableRecord
2
ACAD
70
0
0
ENDTAB
0
TABLE
2
BLOCK_RECORD
5
19b
100
AcDbSymbolTable
0
BLOCK_RECORD
5
1F
100
AcDbSymbolTableRecord
100
AcDbBlockTableRecord
2
*Model_Space
340
0
70
0
0
BLOCK_RECORD
5
1B
100
AcDbSymbolTableRecord
100
AcDbBlockTableRecord
2
*Paper_Space
340
0
70
0
0
BLOCK_RECORD
5
23
100
AcDbSymbolTableRecord
100
AcDbBlockTableRecord
2
*Paper_Space0
340
0
70
0
0
BLOCK_RECORD
5
DE
100
AcDbSymbolTableRecord
100
AcDbBlockTableRecord
2
DimnDraft3D1
340
0
70
0
0
BLOCK_RECORD
5
E8
100
AcDbSymbolTableRecord
100
AcDbBlockTableRecord
2
DimnDraft3D2
340
0
70
0
0
BLOCK_RECORD
5
F2
100
AcDbSymbolTableRecord
100
AcDbBlockTableRecord
2
DimnDraft3D3
340
0
70
0
0
BLOCK_RECORD
5
FC
100
AcDbSymbolTableRecord
100
AcDbBlockTableRecord
2
DimnDraft3D4
340
0
70
0
0
BLOCK_RECORD
5
106
100
AcDbSymbolTableRecord
100
AcDbBlockTableRecord
2
DimnDraft3D5
340
0
70
0
0
BLOCK_RECORD
5
110
100
AcDbSymbolTableRecord
100
AcDbBlockTableRecord
2
DimnDraft3D6
340
0
70
0
0
BLOCK_RECORD
5
11B
100
AcDbSymbolTableRecord
100
AcDbBlockTableRecord
2
DimnDraft3D7
340
0
70
0
0
ENDTAB
0
ENDSEC
0
SECTION
2
BLOCKS
0
BLOCK
5
20
100
AcDbEntity
8
0
100
AcDbBlockBegin
2
*Model_Space
70
0
10
0
20
0
30
0
3
*Model_Space
0
ENDBLK
5
21
100
AcDbEntity
8
0
100
AcDbBlockEnd
0
BLOCK
5
1C
100
AcDbEntity
8
0
100
AcDbBlockBegin
2
*Paper_Space
70
0
10
0
20
0
30
0
3
*Paper_Space
0
ENDBLK
5
1D
100
AcDbEntity
8
0
100
AcDbBlockEnd
0
BLOCK
5
24
100
AcDbEntity
8
0
100
AcDbBlockBegin
2
*Paper_Space0
70
0
10
0
20
0
30
0
3
*Paper_Space0
0
ENDBLK
5
25
100
AcDbEntity
8
0
100
AcDbBlockEnd
0
BLOCK
5
E5
100
AcDbEntity
8
0
100
AcDbBlockBegin
2
DimnDraft3D1
70
0
10
0
20
0
30
0
3
DimnDraft3D1
0
MTEXT
5
DF
100
AcDbEntity
8
SK2
62
256
6
ByLayer
370
13
48
1
60
0
100
AcDbMText
10
17.233764
20
-12.138398
30
0
210
0
220
0
230
1
1
\W0.6977;45,18
40
3.5
41
0
44
1.084337
50
0
71
7
72
5
7
iso_b_vert
0
LINE
5
E0
100
AcDbEntity
8
SK2
62
256
6
ByLayer
370
13
48
1
60
0
100
AcDbLine
10
0
20
-1.5875
30
0
11
0
21
-15.013398
31
0
39
0
210
0
220
0
230
1
0
LINE
5
E1
100
AcDbEntity
8
SK2
62
256
6
ByLayer
370
13
48
1
60
0
100
AcDbLine
10
45.1791
20
-4.3875
30
0
11
45.1791
21
-15.013398
31
0
39
0
210
0
220
0
230
1
0
LINE
5
E2
100
AcDbEntity
8
SK2
62
256
6
ByLayer
370
13
48
1
60
0
100
AcDbLine
10
0
20
-13.013398
30
0
11
45.1791
21
-13.013398
31
0
39
0
210
0
220
0
230
1
0
SOLID
5
E3
100
AcDbEntity
8
SK2
62
256
6
ByLayer
370
13
48
1
60
0
100
AcDbTrace
10
0
20
-13.013398
30
0
11
3.499998
21
-12.552615
31
0
12
3.500002
22
-13.474182
32
0
13
0
23
-13.013398
33
0
39
0
210
0
220
0
230
1
0
SOLID
5
E4
100
AcDbEntity
8
SK2
62
256
6
ByLayer
370
13
48
1
60
0
100
AcDbTrace
10
45.1791
20
-13.013398
30
0
11
41.679102
21
-13.474182
31
0
12
41.679098
22
-12.552615
32
0
13
45.1791
23
-13.013398
33
0
39
0
210
0
220
0
230
1
0
ENDBLK
5
E6
100
AcDbEntity
8
0
100
AcDbBlockEnd
0
BLOCK
5
EF
100
AcDbEntity
8
0
100
AcDbBlockBegin
2
DimnDraft3D2
70
0
10
0
20
0
30
0
3
DimnDraft3D2
0
MTEXT
5
E9
100
AcDbEntity
8
SK2
62
256
6
ByLayer
370
13
48
1
60
0
100
AcDbMText
10
1.071716
20
-30.817985
30
0
210
0
220
0
230
1
1
\W0.7317;82,00
40
3.5
41
0
44
1.084337
50
0
71
7
72
5
7
iso_b_vert
0
LINE
5
EA
100
AcDbEntity
8
SK2
62
256
6
ByLayer
370
13
48
1
60
0
100
AcDbLine
10
-36
20
-4.5875
30
0
11
-36
21
-33.692985
31
0
39
0
210
0
220
0
230
1
0
LINE
5
EB
100
AcDbEntity
8
SK2
62
256
6
ByLayer
370
13
48
1
60
0
100
AcDbLine
10
46
20
-1.5875
30
0
11
46
21
-33.692985
31
0
39
0
210
0
220
0
230
1
0
LINE
5
EC
100
AcDbEntity
8
SK2
62
256
6
ByLayer
370
13
48
1
60
0
100
AcDbLine
10
-36
20
-31.692985
30
0
11
46
21
-31.692985
31
0
39
0
210
0
220
0
230
1
0
SOLID
5
ED
100
AcDbEntity
8
SK2
62
256
6
ByLayer
370
13
48
1
60
0
100
AcDbTrace
10
-36
20
-31.692985
30
0
11
-32.500002
21
-31.232202
31
0
12
-32.499998
22
-32.153769
32
0
13
-36
23
-31.692985
33
0
39
0
210
0
220
0
230
1
0
SOLID
5
EE
100
AcDbEntity
8
SK2
62
256
6
ByLayer
370
13
48
1
60
0
100
AcDbTrace
10
46
20
-31.692985
30
0
11
42.500002
21
-32.153769
31
0
12
42.499998
22
-31.232202
32
0
13
46
23
-31.692985
33
0
39
0
210
0
220
0
230
1
0
ENDBLK
5
F0
100
AcDbEntity
8
0
100
AcDbBlockEnd
0
BLOCK
5
F9
100
AcDbEntity
8
0
100
AcDbBlockBegin
2
DimnDraft3D3
70
0
10
0
20
0
30
0
3
DimnDraft3D3
0
MTEXT
5
F3
100
AcDbEntity
8
SK2
62
256
6
ByLayer
370
13
48
1
60
0
100
AcDbMText
10
27.141316
20
15.284119
30
0
210
0
220
0
230
1
1
\W0.7317;28,82
40
3.5
41
0
44
1.084337
50
0
71
7
72
5
7
iso_b_vert
0
LINE
5
F4
100
AcDbEntity
8
SK2
62
256
6
ByLayer
370
13
48
1
60
0
100
AcDbLine
10
17.18
20
4.3875
30
0
11
17.18
21
16.409119
31
0
39
0
210
0
220
0
230
1
0
LINE
5
F5
100
AcDbEntity
8
SK2
62
256
6
ByLayer
370
13
48
1
60
0
100
AcDbLine
10
46
20
1.5875
30
0
11
46
21
16.409119
31
0
39
0
210
0
220
0
230
1
0
LINE
5
F6
100
AcDbEntity
8
SK2
62
256
6
ByLayer
370
13
48
1
60
0
100
AcDbLine
10
17.18
20
14.409119
30
0
11
46
21
14.409119
31
0
39
0
210
0
220
0
230
1
0
SOLID
5
F7
100
AcDbEntity
8
SK2
62
256
6
ByLayer
370
13
48
1
60
0
100
AcDbTrace
10
17.18
20
14.409119
30
0
11
20.679998
21
14.869903
31
0
12
20.680002
22
13.948335
32
0
13
17.18
23
14.409119
33
0
39
0
210
0
220
0
230
1
0
SOLID
5
F8
100
AcDbEntity
8
SK2
62
256
6
ByLayer
370
13
48
1
60
0
100
AcDbTrace
10
46
20
14.409119
30
0
11
42.500002
21
13.948335
31
0
12
42.499998
22
14.869903
32
0
13
46
23
14.409119
33
0
39
0
210
0
220
0
230
1
0
ENDBLK
5
FA
100
AcDbEntity
8
0
100
AcDbBlockEnd
0
BLOCK
5
103
100
AcDbEntity
8
0
100
AcDbBlockBegin
2
DimnDraft3D4
70
0
10
0
20
0
30
0
3
DimnDraft3D4
0
MTEXT
5
FD
100
AcDbEntity
8
SK2
62
256
6
ByLayer
370
13
48
1
60
0
100
AcDbMText
10
52.840636
20
-14.727503
30
0
210
0
220
0
230
1
1
\W0.7150;0,82
40
3.5
41
0
44
1.084337
50
0
71
7
72
5
7
iso_b_vert
0
LINE
5
FE
100
AcDbEntity
8
SK2
62
256
6
ByLayer
370
13
48
1
60
0
100
AcDbLine
10
46
20
-1.5875
30
0
11
46
21
-17.602503
31
0
39
0
210
0
220
0
230
1
0
LINE
5
FF
100
AcDbEntity
8
SK2
62
256
6
ByLayer
370
13
48
1
60
0
100
AcDbLine
10
45.1791
20
-4.3875
30
0
11
45.1791
21
-17.602503
31
0
39
0
210
0
220
0
230
1
0
LINE
5
100
100
AcDbEntity
8
SK2
62
256
6
ByLayer
370
13
48
1
60
0
100
AcDbLine
10
36.4291
20
-15.602503
30
0
11
59.997215
21
-15.602503
31
0
39
0
210
0
220
0
230
1
0
SOLID
5
101
100
AcDbEntity
8
SK2
62
256
6
ByLayer
370
13
48
1
60
0
100
AcDbTrace
10
46
20
-15.602503
30
0
11
49.499998
21
-15.141719
31
0
12
49.500002
22
-16.063287
32
0
13
46
23
-15.602503
33
0
39
0
210
0
220
0
230
1
0
SOLID
5
102
100
AcDbEntity
8
SK2
62
256
6
ByLayer
370
13
48
1
60
0
100
AcDbTrace
10
45.1791
20
-15.602503
30
0
11
41.679102
21
-16.063287
31
0
12
41.679098
22
-15.141719
32
0
13
45.1791
23
-15.602503
33
0
39
0
210
0
220
0
230
1
0
ENDBLK
5
104
100
AcDbEntity
8
0
100
AcDbBlockEnd
0
BLOCK
5
10D
100
AcDbEntity
8
0
100
AcDbBlockBegin
2
DimnDraft3D5
70
0
10
0
20
0
30
0
3
DimnDraft3D5
0
MTEXT
5
107
100
AcDbEntity
8
SK2
62
256
6
ByLayer
370
13
48
1
60
0
100
AcDbMText
10
-1.133908
20
-20.468428
30
0
210
0
220
0
230
1
1
\W0.6110;81,18
40
3.5
41
0
44
1.084337
50
0
71
7
72
5
7
iso_b_vert
0
LINE
5
108
100
AcDbEntity
8
SK2
62
256
6
ByLayer
370
13
48
1
60
0
100
AcDbLine
10
-36
20
-4.5875
30
0
11
-36
21
-23.343428
31
0
39
0
210
0
220
0
230
1
0
LINE
5
109
100
AcDbEntity
8
SK2
62
256
6
ByLayer
370
13
48
1
60
0
100
AcDbLine
10
45.1791
20
-4.3875
30
0
11
45.1791
21
-23.343428
31
0
39
0
210
0
220
0
230
1
0
LINE
5
10A
100
AcDbEntity
8
SK2
62
256
6
ByLayer
370
13
48
1
60
0
100
AcDbLine
10
-36
20
-21.343428
30
0
11
45.1791
21
-21.343428
31
0
39
0
210
0
220
0
230
1
0
SOLID
5
10B
100
AcDbEntity
8
SK2
62
256
6
ByLayer
370
13
48
1
60
0
100
AcDbTrace
10
-36
20
-21.343428
30
0
11
-32.500002
21
-20.882645
31
0
12
-32.499998
22
-21.804212
32
0
13
-36
23
-21.343428
33
0
39
0
210
0
220
0
230
1
0
SOLID
5
10C
100
AcDbEntity
8
SK2
62
256
6
ByLayer
370
13
48
1
60
0
100
AcDbTrace
10
45.1791
20
-21.343428
30
0
11
41.679102
21
-21.804212
31
0
12
41.679098
22
-20.882645
32
0
13
45.1791
23
-21.343428
33
0
39
0
210
0
220
0
230
1
0
ENDBLK
5
10E
100
AcDbEntity
8
0
100
AcDbBlockEnd
0
BLOCK
5
118
100
AcDbEntity
8
0
100
AcDbBlockBegin
2
DimnDraft3D6
70
0
10
0
20
0
30
0
3
DimnDraft3D6
0
MTEXT
5
111
100
AcDbEntity
8
SK2
62
256
6
ByLayer
370
13
48
1
60
0
100
AcDbMText
10
-46.375163
20
22.34918
30
0
210
0
220
0
230
1
1
\W0.7317;6,000
40
3.5
41
0
44
1.084337
50
90
71
7
72
5
7
iso_b_vert
0
MTEXT
5
112
100
AcDbEntity
8
SK2
62
256
6
ByLayer
370
13
48
1
60
0
100
AcDbMText
10
-46.375163
20
17.126524
30
0
210
0
220
0
230
1
1
%%c
40
3.5
41
0
44
1.084337
50
90
71
7
72
5
7
iso_b_vert
0
LINE
5
113
100
AcDbEntity
8
SK2
62
256
6
ByLayer
370
13
48
1
60
0
100
AcDbLine
10
-37.5875
20
-3
30
0
11
-46.625163
21
-3
31
0
39
0
210
0
220
0
230
1
0
LINE
5
114
100
AcDbEntity
8
SK2
62
256
6
ByLayer
370
13
48
1
60
0
100
AcDbLine
10
-37.5875
20
3
30
0
11
-46.625163
21
3
31
0
39
0
210
0
220
0
230
1
0
LINE
5
115
100
AcDbEntity
8
SK2
62
256
6
ByLayer
370
13
48
1
60
0
100
AcDbLine
10
-44.625163
20
32.121549
30
0
11
-44.625163
21
-11.75
31
0
39
0
210
0
220
0
230
1
0
SOLID
5
116
100
AcDbEntity
8
SK2
62
256
6
ByLayer
370
13
48
1
60
0
100
AcDbTrace
10
-44.625163
20
-3
30
0
11
-44.164379
21
-6.499998
31
0
12
-45.085946
22
-6.500002
32
0
13
-44.625163
23
-3
33
0
39
0
210
0
220
0
230
1
0
SOLID
5
117
100
AcDbEntity
8
SK2
62
256
6
ByLayer
370
13
48
1
60
0
100
AcDbTrace
10
-44.625163
20
3
30
0
11
-45.085946
21
6.499998
31
0
12
-44.164379
22
6.500002
32
0
13
-44.625163
23
3
33
0
39
0
210
0
220
0
230
1
0
ENDBLK
5
119
100
AcDbEntity
8
0
100
AcDbBlockEnd
0
BLOCK
5
123
100
AcDbEntity
8
0
100
AcDbBlockBegin
2
DimnDraft3D7
70
0
10
0
20
0
30
0
3
DimnDraft3D7
0
MTEXT
5
11C
100
AcDbEntity
8
2
62
256
6
ByLayer
370
13
48
1
60
0
100
AcDbMText
10
56.333343
20
20.742266
30
0
210
0
220
0
230
1
1
\W0.7317;5,600
40
3.5
41
0
44
1.084337
50
90
71
7
72
5
7
iso_b_vert
0
MTEXT
5
11D
100
AcDbEntity
8
2
62
256
6
ByLayer
370
13
48
1
60
0
100
AcDbMText
10
56.333343
20
15.51961
30
0
210
0
220
0
230
1
1
%%c
40
3.5
41
0
44
1.084337
50
90
71
7
72
5
7
iso_b_vert
0
LINE
5
11E
100
AcDbEntity
8
2
62
256
6
ByLayer
370
13
48
1
60
0
100
AcDbLine
10
46.7666
20
-2.8
30
0
11
60.083343
21
-2.8
31
0
39
0
210
0
220
0
230
1
0
LINE
5
11F
100
AcDbEntity
8
2
62
256
6
ByLayer
370
13
48
1
60
0
100
AcDbLine
10
46.7666
20
2.8
30
0
11
60.083343
21
2.8
31
0
39
0
210
0
220
0
230
1
0
LINE
5
120
100
AcDbEntity
8
2
62
256
6
ByLayer
370
13
48
1
60
0
100
AcDbLine
10
58.083343
20
30.514635
30
0
11
58.083343
21
-11.55
31
0
39
0
210
0
220
0
230
1
0
SOLID
5
121
100
AcDbEntity
8
2
62
256
6
ByLayer
370
13
48
1
60
0
100
AcDbTrace
10
58.083343
20
-2.8
30
0
11
58.544126
21
-6.299998
31
0
12
57.622559
22
-6.300002
32
0
13
58.083343
23
-2.8
33
0
39
0
210
0
220
0
230
1
0
SOLID
5
122
100
AcDbEntity
8
2
62
256
6
ByLayer
370
13
48
1
60
0
100
AcDbTrace
10
58.083343
20
2.8
30
0
11
57.622559
21
6.299998
31
0
12
58.544126
22
6.300002
32
0
13
58.083343
23
2.8
33
0
39
0
210
0
220
0
230
1
0
ENDBLK
5
124
100
AcDbEntity
8
0
100
AcDbBlockEnd
0
ENDSEC
0
SECTION
2
ENTITIES
0
ELLIPSE
5
93
100
AcDbEntity
8
1
62
256
6
ByLayer
370
18
48
1
60
0
100
AcDbEllipse
10
3.446601
20
2.885423
30
0
11
-0.25
21
3.06151588455594E-17
31
0
210
0
220
0
230
1
40
1
41
0.48565011469411
42
1.57759798090068
0
ELLIPSE
5
94
100
AcDbEntity
8
1
62
256
6
ByLayer
370
18
48
1
60
0
100
AcDbEllipse
10
3.446601
20
-2.885423
30
0
11
-0.25
21
3.06151588455594E-17
31
0
210
0
220
0
230
1
40
1
41
-1.57590760906702
42
-0.486668787597414
0
ELLIPSE
5
95
100
AcDbEntity
8
1
62
256
6
ByLayer
370
13
48
1
60
0
100
AcDbEllipse
10
3.376488
20
0.285453
30
0
11
0.0491180828234152
21
0.0871057629537342
31
0
210
0
220
0
230
1
40
0.380988
41
1.88500637452459
42
-3.07338773579281
0
ELLIPSE
5
96
100
AcDbEntity
8
1
62
256
6
ByLayer
370
13
48
1
60
0
100
AcDbEllipse
10
3.446853
20
0.247408
30
0
11
0.0463594559676073
21
0.0886047450331385
31
0
210
0
220
0
230
1
40
0.043319
41
3.09060331019883
42
-1.64979795902991
0
POINT
5
6C
100
AcDbEntity
8
81
62
256
6
ByLayer
370
18
48
1
60
0
100
AcDbPoint
10
46
20
0
30
0
39
0
210
0
220
0
230
1
50
360
0
POINT
5
6E
100
AcDbEntity
8
80
62
256
6
ByLayer
370
18
48
1
60
0
100
AcDbPoint
10
0
20
0
30
0
39
0
210
0
220
0
230
1
50
360
0
POINT
5
70
100
AcDbEntity
8
SK2
62
256
6
ByLayer
370
18
48
1
60
1
100
AcDbPoint
10
-36
20
-3
30
0
39
0
210
0
220
0
230
1
50
360
0
POINT
5
72
100
AcDbEntity
8
SK2
62
256
6
ByLayer
370
18
48
1
60
1
100
AcDbPoint
10
-36
20
3
30
0
39
0
210
0
220
0
230
1
50
360
0
POINT
5
73
100
AcDbEntity
8
2
62
256
6
ByLayer
370
18
48
1
60
1
100
AcDbPoint
10
45.1791
20
-2.8
30
0
39
0
210
0
220
0
230
1
50
360
0
POINT
5
75
100
AcDbEntity
8
2
62
256
6
ByLayer
370
18
48
1
60
1
100
AcDbPoint
10
45.1791
20
2.8
30
0
39
0
210
0
220
0
230
1
50
360
0
SPLINE
5
97
100
AcDbEntity
8
1
62
256
6
ByLayer
370
18
48
1
60
0
100
AcDbSpline
70
4
71
3
72
20
73
16
40
0
40
0
40
0
40
0
40
0.0915528129890273
40
0.173609342867208
40
0.247398567113986
40
0.308548773237629
40
0.367954850533492
40
0.440029235488267
40
0.520979393842333
40
0.60093599828746
40
0.664630245791243
40
0.737818312691779
40
0.827688412515427
40
0.934855121331555
40
1
40
1
40
1
40
1
41
1
10
28.3996669883709
20
-2.64965646085599
30
0
41
1
10
28.6393018693005
20
-2.64711773257417
30
0
41
1
10
29.09689504421
20
-2.64437828898946
30
0
41
1
10
29.7765490831875
20
-2.64642614290122
30
0
41
1
10
30.3478308723109
20
-2.65206129000879
30
0
41
1
10
30.8762683433586
20
-2.65032523039182
30
0
41
1
10
31.3983728840565
20
-2.65214009028239
30
0
41
1
10
31.9746600192389
20
-2.65133445727488
30
0
41
1
10
32.6064959124601
20
-2.65242684551217
30
0
41
1
10
33.2156441658363
20
-2.65219199901915
30
0
41
1
10
33.8004491566902
20
-2.65153039739005
30
0
41
1
10
34.4178101716562
20
-2.65358573096142
30
0
41
1
10
35.1380853924769
20
-2.6525054876503
30
0
41
1
10
35.8535485898459
20
-2.65112947417754
30
0
41
1
10
36.3188236468746
20
-2.65305828802388
30
0
41
1
10
36.4948157335424
20
-2.65402684560934
30
0
0
SPLINE
5
98
100
AcDbEntity
8
1
62
256
6
ByLayer
370
18
48
1
60
0
100
AcDbSpline
70
4
71
3
72
23
73
19
40
0
40
0
40
0
40
0
40
0.102625410710293
40
0.194295633773304
40
0.275253671139925
40
0.339430066914508
40
0.384553857607579
40
0.425768339161485
40
0.486355665612424
40
0.576250767686912
40
0.656876592937985
40
0.72452767949155
40
0.757425275302138
40
0.790972415883524
40
0.82732610693511
40
0.884457833889462
40
0.966307142993842
40
1
40
1
40
1
40
1
41
1
10
12.0468546639292
20
-2.63921312372051
30
0
41
1
10
12.3193595630219
20
-2.63905137749944
30
0
41
1
10
12.8359834054927
20
-2.6389894053637
30
0
41
1
10
13.5722648792951
20
-2.63850898457647
30
0
41
1
10
14.2030809399989
20
-2.64029387485311
30
0
41
1
10
14.7089426152697
20
-2.64215992433935
30
0
41
1
10
15.1108298228585
20
-2.6420950815239
30
0
41
1
10
15.5034620283891
20
-2.64160241679434
30
0
41
1
10
16.0156225630098
20
-2.64353632484139
30
0
41
1
10
16.6331362646699
20
-2.64166039228823
30
0
41
1
10
17.2695237988514
20
-2.64515321422058
30
0
41
1
10
17.7535464175123
20
-2.64371875036298
30
0
41
1
10
18.1118011960726
20
-2.64334270250043
30
0
41
1
10
18.3864609978893
20
-2.64388203953089
30
0
41
1
10
18.7258823395136
20
-2.64594321042222
30
0
41
1
10
19.1943298978347
20
-2.64433418085082
30
0
41
1
10
19.6557258070008
20
-2.64544073280015
30
0
41
1
10
19.9644266192764
20
-2.64543137110118
30
0
41
1
10
20.054445174236
20
-2.64544410670141
30
0
0
SPLINE
5
99
100
AcDbEntity
8
1
62
256
6
ByLayer
370
18
48
1
60
0
100
AcDbSpline
70
4
71
2
72
6
73
3
40
0
40
0
40
0
40
1
40
1
40
1
41
1
10
44.716945758156
20
-2.65975895683567
30
0
41
1
10
44.8885445445597
20
-2.65893186657493
30
0
41
1
10
45.0598246296247
20
-2.65974766560356
30
0
0
SPLINE
5
9A
100
AcDbEntity
8
1
62
256
6
ByLayer
370
18
48
1
60
0
100
AcDbSpline
70
4
71
3
72
20
73
16
40
0
40
0
40
0
40
0
40
0.0276607985450632
40
0.0977481054194804
40
0.17480679833409
40
0.253155403047173
40
0.332940541674188
40
0.518476633204013
40
0.584573546662783
40
0.646585549683219
40
0.704689623301085
40
0.769766282094937
40
0.847786959380573
40
0.941026002300946
40
1
40
1
40
1
40
1
41
1
10
36.6680704652052
20
2.65075333352641
30
0
41
1
10
36.6102157390778
20
2.64977030127818
30
0
41
1
10
36.4029455026989
20
2.64681448356143
30
0
41
1
10
35.9904369362034
20
2.63710289835427
30
0
41
1
10
35.4886829193107
20
2.65178433417418
30
0
41
1
10
34.9557052262557
20
2.65179817383185
30
0
41
1
10
34.1690886754036
20
2.65453390059955
30
0
41
1
10
33.4078025070437
20
2.6517542168111
30
0
41
1
10
32.6882277530441
20
2.65279677428222
30
0
41
1
10
32.2609379132623
20
2.65090623555903
30
0
41
1
10
31.8360290777906
20
2.65196977877008
30
0
41
1
10
31.3742497888589
20
2.65190986404801
30
0
41
1
10
30.8325152481463
20
2.6505682703058
30
0
41
1
10
30.3049201533772
20
2.65063739585793
30
0
41
1
10
29.9556888438849
20
2.65043560367903
30
0
41
1
10
29.8203648185222
20
2.65034682747481
30
0
0
SPLINE
5
9B
100
AcDbEntity
8
1
62
256
6
ByLayer
370
18
48
1
60
0
100
AcDbSpline
70
4
71
3
72
22
73
18
40
0
40
0
40
0
40
0
40
0.0654730730472751
40
0.143202957929985
40
0.194986882571787
40
0.261240295241207
40
0.336750745930331
40
0.405673144930189
40
0.466957119933873
40
0.520796657593794
40
0.572783844286358
40
0.694633494359061
40
0.803213321974976
40
0.836420824042911
40
0.88369785292482
40
0.946295347680923
40
1
40
1
40
1
40
1
41
1
10
20.0391154220799
20
2.64600605273586
30
0
41
1
10
19.8968382974734
20
2.64539398879794
30
0
41
1
10
19.5856594629585
20
2.64450135707614
30
0
41
1
10
19.1618869976503
20
2.64465721328241
30
0
41
1
10
18.7366103830639
20
2.64594837841207
30
0
41
1
10
18.3159571167017
20
2.6433722281144
30
0
41
1
10
17.8581057295272
20
2.64324369352281
30
0
41
1
10
17.4110411899861
20
2.64544911212315
30
0
41
1
10
17.0110800976813
20
2.64274772849075
30
0
41
1
10
16.6479155109557
20
2.64255931316543
30
0
41
1
10
16.1531305420693
20
2.64372550726253
30
0
41
1
10
15.5394355616021
20
2.64109030962649
30
0
41
1
10
14.9664897773747
20
2.64250391501562
30
0
41
1
10
14.5556126517411
20
2.6414755573002
30
0
41
1
10
14.2447069607174
20
2.64090596359802
30
0
41
1
10
13.8892894281447
20
2.64095200478303
30
0
41
1
10
13.6365393008112
20
2.64072031012412
30
0
41
1
10
13.5198260088696
20
2.64059061813654
30
0
0
SPLINE
5
9C
100
AcDbEntity
8
1
62
256
6
ByLayer
370
18
48
1
60
0
100
AcDbSpline
70
4
71
2
72
6
73
3
40
0
40
0
40
0
40
1
40
1
40
1
41
1
10
3.44809991041427
20
-2.63521077131702
30
0
41
1
10
3.74924169746737
20
-2.63750599158149
30
0
41
1
10
4.05038097413285
20
-2.63757400050207
30
0
0
SPLINE
5
9D
100
AcDbEntity
8
1
62
256
6
ByLayer
370
18
48
1
60
0
100
AcDbSpline
70
4
71
2
72
6
73
3
40
0
40
0
40
0
40
1
40
1
40
1
41
1
10
4.05631747778386
20
2.63758660576426
30
0
41
1
10
3.75220996166513
20
2.63752327071217
30
0
41
1
10
3.44809991041436
20
2.63521077131665
30
0
0
SPLINE
5
9E
100
AcDbEntity
8
1
62
256
6
ByLayer
370
18
48
1
60
0
100
AcDbSpline
70
4
71
3
72
8
73
4
40
0
40
0
40
0
40
0
40
1
40
1
40
1
40
1
41
1
10
45.8562122744603
20
0.759885959404585
30
0
41
1
10
45.9176338630643
20
0.608306733316397
30
0
41
1
10
45.9586302379584
20
0.455478335707909
30
0
41
1
10
45.9821657890792
20
0.3015820636532
30
0
0
SPLINE
5
9F
100
AcDbEntity
8
1
62
256
6
ByLayer
370
18
48
1
60
0
100
AcDbSpline
70
4
71
3
72
14
73
10
40
0
40
0
40
0
40
0
40
0.25
40
0.25
40
0.5
40
0.5
40
0.75
40
0.75
40
1
40
1
40
1
40
1
41
1
10
45.1067494378583
20
-2.65511678740478
30
0
41
1
10
45.1100200731795
20
-2.65428460041994
30
0
41
1
10
45.1126494929333
20
-2.65508972445687
30
0
41
1
10
45.116238539792
20
-2.66101714085627
30
0
41
1
10
45.1171483155821
20
-2.66621107678708
30
0
41
1
10
45.1161949180799
20
-2.682164175693
30
0
41
1
10
45.114263570977
20
-2.69293344446908
30
0
41
1
10
45.1076999411282
20
-2.71768893371927
30
0
41
1
10
45.1031084941276
20
-2.73154680317904
30
0
41
1
10
45.0980425419112
20
-2.7448459612292
30
0
0
SPLINE
5
A0
100
AcDbEntity
8
1
62
256
6
ByLayer
370
13
48
1
60
0
100
AcDbSpline
70
4
71
3
72
10
73
6
40
0
40
0
40
0
40
0
40
0.330547250652021
40
0.330547250652021
40
1
40
1
40
1
40
1
41
1
10
3.44810144881521
20
-2.63541426549958
30
0
41
1
10
3.44810591862864
20
-2.63543608819822
30
0
41
1
10
3.4481099313858
20
-2.63433967630547
30
0
41
1
10
3.44812049227406
20
-2.62763308543129
30
0
41
1
10
3.44812547806322
20
-2.6186109863975
30
0
41
1
10
3.44812809569319
20
-2.60515404040393
30
0
0
SPLINE
5
A1
100
AcDbEntity
8
1
62
256
6
ByLayer
370
18
48
1
60
0
100
AcDbSpline
70
4
71
3
72
52
73
48
40
0
40
0
40
0
40
0
40
0.0624999999999944
40
0.0624999999999944
40
0.124999999999989
40
0.124999999999989
40
0.156249999999987
40
0.156249999999987
40
0.187499999999985
40
0.187499999999985
40
0.203124999999983
40
0.203124999999983
40
0.218749999999982
40
0.218749999999982
40
0.23437499999998
40
0.23437499999998
40
0.249999999999979
40
0.249999999999979
40
0.265624999999977
40
0.265624999999977
40
0.281249999999976
40
0.281249999999976
40
0.312499999999973
40
0.312499999999973
40
0.34374999999997
40
0.34374999999997
40
0.374999999999967
40
0.374999999999967
40
0.382812499999965
40
0.386718749999966
40
0.386718749999966
40
0.390624999999966
40
0.390624999999966
40
0.398437499999966
40
0.398437499999966
40
0.406249999999966
40
0.437499999999968
40
0.437499999999968
40
0.49999999999997
40
0.49999999999997
40
0.624999999999978
40
0.624999999999978
40
0.749999999999985
40
0.749999999999985
40
0.874999999999993
40
0.874999999999993
40
1
40
1
40
1
40
1
41
1
10
3.22294171655784
20
-2.73327939646933
30
0
41
1
10
3.07556969078689
20
-2.71513841317653
30
0
41
1
10
2.93141164557864
20
-2.69050728828364
30
0
41
1
10
2.65331779811282
20
-2.62348494273499
30
0
41
1
10
2.51830779717912
20
-2.58095025273289
30
0
41
1
10
2.33502789086995
20
-2.49697140382261
30
0
41
1
10
2.27680887992111
20
-2.4653671485529
30
0
41
1
10
2.17173634379691
20
-2.39352365239591
30
0
41
1
10
2.12499342972615
20
-2.35353872790142
30
0
41
1
10
2.06819975124213
20
-2.28480118797316
30
0
41
1
10
2.0514175683677
20
-2.26020371560241
30
0
41
1
10
2.02431347908544
20
-2.20830529024516
30
0
41
1
10
2.01402482934168
20
-2.18116850905088
30
0
41
1
10
2.00116350645311
20
-2.12422452400764
30
0
41
1
10
1.99867579154699
20
-2.0940581912254
30
0
41
1
10
2.00267892685707
20
-2.03312560349292
30
0
41
1
10
2.00901986579402
20
-2.00226872973755
30
0
41
1
10
2.0303771257189
20
-1.93990877264309
30
0
41
1
10
2.04558458656527
20
-1.90821615534838
30
0
41
1
10
2.08290899614107
20
-1.84681001994196
30
0
41
1
10
2.10507670861745
20
-1.81679047055414
30
0
41
1
10
2.18054803802403
20
-1.72861957405004
30
0
41
1
10
2.24104264879992
20
-1.67419999618846
30
0
41
1
10
2.37328559020949
20
-1.57300493381874
30
0
41
1
10
2.44581419267934
20
-1.52576056641408
30
0
41
1
10
2.59642754950775
20
-1.43831324442581
30
0
41
1
10
2.67495048139369
20
-1.39780931676873
30
0
41
1
10
2.77570012474178
20
-1.35042600380683
30
0
41
1
10
2.8061061896833
20
-1.33646501587904
30
0
41
1
10
2.83676563498617
20
-1.32286283868535
30
0
41
1
10
2.85725960871412
20
-1.3138720035096
30
0
41
1
10
2.86747375860008
20
-1.30920967473241
30
0
41
1
10
2.89998176288671
20
-1.30114523211248
30
0
41
1
10
2.9232518872036
20
-1.30092451308008
30
0
41
1
10
2.96834517052355
20
-1.30386745617633
30
0
41
1
10
3.08105831154794
20
-1.31150275661028
30
0
41
1
10
3.19366820280788
20
-1.3205196364903
30
0
41
1
10
3.46352223675768
20
-1.34471760303751
30
0
41
1
10
3.64295146415313
20
-1.36427117589807
30
0
41
1
10
4.17986763016904
20
-1.43242601857904
30
0
41
1
10
4.53412953543625
20
-1.49038498517524
30
0
41
1
10
5.23475711010065
20
-1.62517805126296
30
0
41
1
10
5.58132534775029
20
-1.70197999669725
30
0
41
1
10
6.26806014660949
20
-1.86625067567417
30
0
41
1
10
6.60843342442939
20
-1.95367792377257
30
0
41
1
10
7.28376046134574
20
-2.12886398363833
30
0
41
1
10
7.61730262398305
20
-2.2161819702159
30
0
41
1
10
7.94822207791194
20
-2.29807152372675
30
0
0
SPLINE
5
A2
100
AcDbEntity
8
1
62
256
6
ByLayer
370
18
48
1
60
0
100
AcDbSpline
70
4
71
3
72
8
73
4
40
0
40
0
40
0
40
0
40
1
40
1
40
1
40
1
41
1
10
45.9933048793374
20
-0.0859053005177088
30
0
41
1
10
45.9934102543689
20
-0.0706384910907332
30
0
41
1
10
45.9958944340726
20
-0.0515156383328303
30
0
41
1
10
45.9998035835511
20
-0.0313837039150258
30
0
0
SPLINE
5
A3
100
AcDbEntity
8
1
62
256
6
ByLayer
370
18
48
1
60
0
100
AcDbSpline
70
4
71
3
72
10
73
6
40
0
40
0
40
0
40
0
40
0.5
40
0.5
40
1
40
1
40
1
40
1
41
1
10
45.978422752483
20
-0.0242868332266255
30
0
41
1
10
45.767506975587
20
-0.368727418493989
30
0
41
1
10
45.5446671111874
20
-0.700867001700118
30
0
41
1
10
45.0854151216561
20
-1.35114489487549
30
0
41
1
10
44.8487535616639
20
-1.66919660814259
30
0
41
1
10
44.6078193949792
20
-1.98232983087072
30
0
0
SPLINE
5
A4
100
AcDbEntity
8
1
62
256
6
ByLayer
370
13
48
1
60
0
100
AcDbSpline
70
4
71
3
72
8
73
4
40
0
40
0
40
0
40
0
40
1
40
1
40
1
40
1
41
1
10
3.222322146708
20
0.350598265783845
30
0
41
1
10
3.24447020771461
20
0.319984164251082
30
0
41
1
10
3.28100133145415
20
0.293405461748222
30
0
41
1
10
3.3297457805603
20
0.276328343353669
30
0
0
SPLINE
5
A5
100
AcDbEntity
8
1
62
256
6
ByLayer
370
18
48
1
60
0
100
AcDbSpline
70
4
71
3
72
18
73
14
40
0
40
0
40
0
40
0
40
0.275776343466042
40
0.275776343466042
40
0.413664515199063
40
0.413664515199063
40
0.551552686932084
40
0.551552686932084
40
0.827329030398126
40
0.827329030398126
40
0.965217202131147
40
0.965217202131147
40
1
40
1
40
1
40
1
41
1
10
44.6078193949792
20
-1.9823298308707
30
0
41
1
10
44.6457703481602
20
-2.10023983169063
30
0
41
1
10
44.6854253423888
20
-2.20314887949689
30
0
41
1
10
44.7468509180252
20
-2.33597642220792
30
0
41
1
10
44.7676577225317
20
-2.37663443427908
30
0
41
1
10
44.8099149537188
20
-2.45054061482213
30
0
41
1
10
44.8313105714531
20
-2.48363931565109
30
0
41
1
10
44.8950915688803
20
-2.56974579734938
30
0
41
1
10
44.9374989232691
20
-2.61048799954699
30
0
41
1
10
45.0011842289025
20
-2.64660340125198
30
0
41
1
10
45.0225036523
20
-2.65445312619042
30
0
41
1
10
45.0490319718305
20
-2.65877239532085
30
0
41
1
10
45.0543642036977
20
-2.65936424218668
30
0
41
1
10
45.0596857093481
20
-2.65967760888586
30
0
0
SPLINE
5
A6
100
AcDbEntity
8
1
62
256
6
ByLayer
370
13
48
1
60
0
100
AcDbSpline
70
4
71
3
72
8
73
4
40
0
40
0
40
0
40
0
40
1
40
1
40
1
40
1
41
1
10
3.3297457805603
20
0.276328343353669
30
0
41
1
10
3.36625978346527
20
0.263536036495651
30
0
41
1
10
3.40616695609822
20
0.25076623195082
30
0
41
1
10
3.44702018805916
20
0.238413074948966
30
0
0
SPLINE
5
A7
100
AcDbEntity
8
1
62
256
6
ByLayer
370
18
48
1
60
0
100
AcDbSpline
70
4
71
3
72
20
73
16
40
0
40
0
40
0
40
0
40
0.083584838760515
40
0.083584838760515
40
0.236320698967096
40
0.236320698967096
40
0.389056559173677
40
0.389056559173677
40
0.694528279586838
40
0.694528279586838
40
0.847264139793417
40
0.847264139793417
40
0.923632069896709
40
0.923632069896709
40
1
40
1
40
1
40
1
41
1
10
7.10363639645118
20
-2.09483205274071
30
0
41
1
10
6.9982766775862
20
-2.1277351772537
30
0
41
1
10
6.89310969316637
20
-2.15956090017917
30
0
41
1
10
6.59611823591751
20
-2.24627834310903
30
0
41
1
10
6.4050186504594
20
-2.29846583162723
30
0
41
1
10
6.02589215433986
20
-2.39223059827506
30
0
41
1
10
5.83761762746201
20
-2.43350986144401
30
0
41
1
10
5.27550543328204
20
-2.54199828675931
30
0
41
1
10
4.90417794414373
20
-2.59452948025611
30
0
41
1
10
4.35244339769838
20
-2.63312223105544
30
0
41
1
10
4.1694292765695
20
-2.63936387038808
30
0
41
1
10
3.89685072427653
20
-2.63655425281598
30
0
41
1
10
3.80632112934558
20
-2.63357301599007
30
0
41
1
10
3.62611743790677
20
-2.62298357530608
30
0
41
1
10
3.53642324002286
20
-2.61536612381005
30
0
41
1
10
3.44812809740648
20
-2.60515404041425
30
0
0
SPLINE
5
A8
100
AcDbEntity
8
1
62
256
6
ByLayer
370
18
48
1
60
0
100
AcDbSpline
70
4
71
3
72
14
73
10
40
0
40
0
40
0
40
0
40
0.464379157047894
40
0.464379157047894
40
0.660649609252224
40
0.660649609252224
40
0.856920061456554
40
0.856920061456554
40
1
40
1
40
1
40
1
41
1
10
28.4449665201201
20
-2.64959746663442
30
0
41
1
10
27.9339073424092
20
-2.64935970497441
30
0
41
1
10
27.4238536156738
20
-2.61086160844729
30
0
41
1
10
26.6934356573549
20
-2.50247930805887
30
0
41
1
10
26.4757957256489
20
-2.46356714351006
30
0
41
1
10
26.0384958615964
20
-2.37259469241056
30
0
41
1
10
25.8198176397063
20
-2.32072118841097
30
0
41
1
10
25.4425675139839
20
-2.22084409460837
30
0
41
1
10
25.2836135612997
20
-2.17559344658838
30
0
41
1
10
25.1246278507318
20
-2.1273617926127
30
0
0
SPLINE
5
A9
100
AcDbEntity
8
1
62
256
6
ByLayer
370
13
48
1
60
0
100
AcDbSpline
70
4
71
3
72
24
73
20
40
0
40
0
40
0
40
0
40
0.0996632499071951
40
0.0996632499071951
40
0.256488996670406
40
0.256488996670406
40
0.334901870052013
40
0.334901870052013
40
0.41331474343362
40
0.41331474343362
40
0.570140490196833
40
0.570140490196833
40
0.726966236960047
40
0.726966236960047
40
0.805379110341654
40
0.805379110341654
40
0.88379198372326
40
0.88379198372326
40
1
40
1
40
1
40
1
41
1
10
25.124627850621
20
-2.12736179257914
30
0
41
1
10
24.8474350497608
20
-2.04326953543063
30
0
41
1
10
24.5701457106858
20
-1.95011556007555
30
0
41
1
10
23.8544038444527
20
-1.6892205677938
30
0
41
1
10
23.4186933915626
20
-1.51091063207434
30
0
41
1
10
22.7646196351511
20
-1.22225442196751
30
0
41
1
10
22.5464315624144
20
-1.12253743733047
30
0
41
1
10
22.1090721945091
20
-0.917289760701777
30
0
41
1
10
21.8904422619707
20
-0.811991887931754
30
0
41
1
10
21.237959124224
20
-0.492237204805207
30
0
41
1
10
20.8057856722838
20
-0.273192170150679
30
0
41
1
10
19.9417650203861
20
0.16598043758475
30
0
41
1
10
19.5096773173343
20
0.385625038641678
30
0
41
1
10
18.8579761881728
20
0.708228524725286
30
0
41
1
10
18.6400343243108
20
0.814485390008315
30
0
41
1
10
18.2021916092518
20
1.02278396416207
30
0
41
1
10
17.9843095922476
20
1.12407519250448
30
0
41
1
10
17.445091985693
20
1.3667013636871
30
0
41
1
10
17.1245655905357
20
1.5039343461228
30
0
41
1
10
16.8043356675479
20
1.63169627873415
30
0
0
SPLINE
5
AA
100
AcDbEntity
8
1
62
256
6
ByLayer
370
18
48
1
60
0
100
AcDbSpline
70
4
71
3
72
14
73
10
40
0
40
0
40
0
40
0
40
0.25
40
0.25
40
0.5
40
0.5
40
0.75
40
0.75
40
1
40
1
40
1
40
1
41
1
10
3.44812809569322
20
-2.60515404021609
30
0
41
1
10
3.42799163362236
20
-2.60282508729085
30
0
41
1
10
3.40729897957337
20
-2.60291632220915
30
0
41
1
10
3.36432973318014
20
-2.60983702663512
30
0
41
1
10
3.34258137627822
20
-2.61665906172843
30
0
41
1
10
3.30026081211901
20
-2.63895344694168
30
0
41
1
10
3.28076188501186
20
-2.65394360052076
30
0
41
1
10
3.24700730941868
20
-2.69043770408638
30
0
41
1
10
3.23325589653317
20
-2.71145359833724
30
0
41
1
10
3.22294171655142
20
-2.73327939648294
30
0
0
SPLINE
5
AB
100
AcDbEntity
8
1
62
256
6
ByLayer
370
18
48
1
60
0
100
AcDbSpline
70
4
71
3
72
12
73
8
40
0
40
0
40
0
40
0
40
0.250000000000072
40
0.250000000000072
40
0.500000000000144
40
0.500000000000144
40
1
40
1
40
1
40
1
41
1
10
44.8137618280838
20
0.712971428951846
30
0
41
1
10
44.8136130436495
20
0.72292714201572
30
0
41
1
10
44.8162146541856
20
0.732902371574966
30
0
41
1
10
44.8268374534265
20
0.750115211037865
30
0
41
1
10
44.8348388238369
20
0.757315755265438
30
0
41
1
10
44.8616600963023
20
0.772914069055219
30
0
41
1
10
44.8827672988216
20
0.776275401632262
30
0
41
1
10
44.9034133541512
20
0.775832742048465
30
0
0
SPLINE
5
AC
100
AcDbEntity
8
1
62
256
6
ByLayer
370
18
48
1
60
0
100
AcDbSpline
70
4
71
3
72
8
73
4
40
0
40
0
40
0
40
0
40
1
40
1
40
1
40
1
41
1
10
45.8754186089146
20
0.838474043925459
30
0
41
1
10
45.8692782832518
20
0.812210832571765
30
0
41
1
10
45.8628728305867
20
0.786015525292328
30
0
41
1
10
45.8562122744605
20
0.759885959404471
30
0
0
SPLINE
5
AD
100
AcDbEntity
8
1
62
256
6
ByLayer
370
18
48
1
60
0
100
AcDbSpline
70
4
71
3
72
28
73
24
40
0
40
0
40
0
40
0
40
0.0625000000000033
40
0.0625000000000033
40
0.125000000000007
40
0.125000000000007
40
0.18750000000001
40
0.18750000000001
40
0.250000000000013
40
0.250000000000013
40
0.37500000000002
40
0.37500000000002
40
0.437500000000023
40
0.437500000000023
40
0.500000000000026
40
0.500000000000026
40
0.625000000000027
40
0.625000000000027
40
0.687500000000024
40
0.687500000000024
40
0.75000000000002
40
0.75000000000002
40
1
40
1
40
1
40
1
41
1
10
42.4120994210726
20
1.0823493501583
30
0
41
1
10
42.4015167037055
20
1.00333773955978
30
0
41
1
10
42.3965910513422
20
0.922335248365528
30
0
41
1
10
42.3984677589789
20
0.756202847921486
30
0
41
1
10
42.4054434149592
20
0.670653754653046
30
0
41
1
10
42.4304579949893
20
0.501922041862883
30
0
41
1
10
42.4484454935797
20
0.417961181700889
30
0
41
1
10
42.4945493522396
20
0.250788000540581
30
0
41
1
10
42.5229473602371
20
0.16695546543599
30
0
41
1
10
42.6200068575295
20
-0.0773015021202355
30
0
41
1
10
42.7002300799592
20
-0.231455982265402
30
0
41
1
10
42.8386321309739
20
-0.452577001120659
30
0
41
1
10
42.8878908370895
20
-0.524614896354535
30
0
41
1
10
42.9897606853738
20
-0.662845763366846
30
0
41
1
10
43.0426195518034
20
-0.729454523060838
30
0
41
1
10
43.2061462375627
20
-0.922831413195325
30
0
41
1
10
43.3217284138022
20
-1.04319670616479
30
0
41
1
10
43.503061248528
20
-1.21337424795962
30
0
41
1
10
43.5649899280522
20
-1.26846526154998
30
0
41
1
10
43.6899110010118
20
-1.37425369008929
30
0
41
1
10
43.7530449303459
20
-1.42509580444337
30
0
41
1
10
44.0717365645933
20
-1.67009715991128
30
0
41
1
10
44.3361359189505
20
-1.83731232527265
30
0
41
1
10
44.6078193949791
20
-1.9823298308707
30
0
0
SPLINE
5
AE
100
AcDbEntity
8
1
62
256
6
ByLayer
370
18
48
1
60
0
100
AcDbSpline
70
4
71
3
72
8
73
4
40
0
40
0
40
0
40
0
40
1
40
1
40
1
40
1
41
1
10
45.9998035835514
20
-0.0313837039145994
30
0
41
1
10
46.0000656703988
20
-0.0104414586346309
30
0
41
1
10
46.0000652461182
20
0.0104753610974626
30
0
41
1
10
45.9998035835514
20
0.0313837039137468
30
0
0
SPLINE
5
AF
100
AcDbEntity
8
1
62
256
6
ByLayer
370
18
48
1
60
0
100
AcDbSpline
70
4
71
3
72
10
73
6
40
0
40
0
40
0
40
0
40
0.5
40
0.5
40
1
40
1
40
1
40
1
41
1
10
45.9933048793376
20
0.085905300517453
30
0
41
1
10
45.9933573296001
20
0.0783062692205476
30
0
41
1
10
45.9940268056287
20
0.0696142903671841
30
0
41
1
10
45.9962545921036
20
0.0513205634408962
30
0
41
1
10
45.9978324861379
20
0.0415347621119793
30
0
41
1
10
45.9998035835514
20
0.0313837039137752
30
0
0
SPLINE
5
B0
100
AcDbEntity
8
1
62
256
6
ByLayer
370
18
48
1
60
0
100
AcDbSpline
70
4
71
3
72
8
73
4
40
0
40
0
40
0
40
0
40
1
40
1
40
1
40
1
41
1
10
45.9821657890792
20
0.301582063653257
30
0
41
1
10
45.9621697094618
20
0.47353293792554
30
0
41
1
10
45.9256385578415
20
0.649671070175174
30
0
41
1
10
45.8754186089149
20
0.838474043925601
30
0
0
SPLINE
5
B1
100
AcDbEntity
8
1
62
256
6
ByLayer
370
18
48
1
60
0
100
AcDbSpline
70
4
71
3
72
8
73
4
40
0
40
0
40
0
40
0
40
1
40
1
40
1
40
1
41
1
10
3.27377078307507
20
0.239210664819751
30
0
41
1
10
3.290155484313
20
0.222928484669012
30
0
41
1
10
3.30869688493243
20
0.208836148728608
30
0
41
1
10
3.3297457805603
20
0.197273912062258
30
0
0
SPLINE
5
B2
100
AcDbEntity
8
1
62
256
6
ByLayer
370
18
48
1
60
0
100
AcDbSpline
70
4
71
3
72
34
73
30
40
0
40
0
40
0
40
0
40
0.0122598722911997
40
0.0122598722911997
40
0.159302329390051
40
0.159302329390051
40
0.232823557939476
40
0.232823557939476
40
0.306344786488901
40
0.306344786488901
40
0.453387243587752
40
0.453387243587752
40
0.526908472137178
40
0.526908472137178
40
0.56366908641189
40
0.56366908641189
40
0.582049393549246
40
0.582049393549246
40
0.591239547117924
40
0.591239547117924
40
0.595834623902263
40
0.595834623902263
40
0.600429700686603
40
0.600429700686603
40
0.747472157785453
40
0.747472157785453
40
0.894514614884304
40
0.894514614884304
40
1
40
1
40
1
40
1
41
1
10
7.94822207791194
20
2.2980715237774
30
0
41
1
10
7.94822207791194
20
2.28334984668115
30
0
41
1
10
7.94822207791194
20
2.26871047621776
30
0
41
1
10
7.94822207791194
20
2.0795476626034
30
0
41
1
10
7.94822207791196
20
1.91659331302202
30
0
41
1
10
7.94822207791196
20
1.68881521173128
30
0
41
1
10
7.94822207791196
20
1.61542113222697
30
0
41
1
10
7.94822207791196
20
1.47662650449672
30
0
41
1
10
7.94822207791194
20
1.41096058744398
30
0
41
1
10
7.94822207791194
20
1.22460202834478
30
0
41
1
10
7.94822207791191
20
1.11447734608166
30
0
41
1
10
7.94822207791191
20
0.96973756075144
30
0
41
1
10
7.94822207791191
20
0.924836741716064
30
0
41
1
10
7.94822207791191
20
0.863201543614082
30
0
41
1
10
7.94822207791194
20
0.843590478612725
30
0
41
1
10
7.94822207791194
20
0.815565105488616
30
0
41
1
10
7.94822207791196
20
0.806457250362087
30
0
41
1
10
7.94822207791196
20
0.793151803012478
30
0
41
1
10
7.94822207791194
20
0.791720522738558
30
0
41
1
10
7.94822207791194
20
0.795652753870115
30
0
41
1
10
7.94822207791196
20
0.798162794174601
30
0
41
1
10
7.94822207791196
20
0.803074710790952
30
0
41
1
10
7.94822207791194
20
0.805546887846617
30
0
41
1
10
7.94822207791194
20
0.887664851304606
30
0
41
1
10
7.94822207791194
20
0.984111519221841
30
0
41
1
10
7.94822207791194
20
1.20910130243919
30
0
41
1
10
7.94822207791194
20
1.33641775798145
30
0
41
1
10
7.94822207791191
20
1.58195325503075
30
0
41
1
10
7.94822207791199
20
1.69345304363003
30
0
41
1
10
7.94822207791202
20
1.81144613995693
30
0
0
SPLINE
5
B3
100
AcDbEntity
8
1
62
256
6
ByLayer
370
18
48
1
60
0
100
AcDbSpline
70
4
71
3
72
8
73
4
40
0
40
0
40
0
40
0
40
1
40
1
40
1
40
1
41
1
10
45.0820123520594
20
2.78685446458781
30
0
41
1
10
44.9136712190281
20
2.79551595716487
30
0
41
1
10
44.7454301872442
20
2.79976822333543
30
0
41
1
10
44.577140312902
20
2.79962288135499
30
0
0
SPLINE
5
B4
100
AcDbEntity
8
1
62
256
6
ByLayer
370
18
48
1
60
0
100
AcDbSpline
70
4
71
3
72
42
73
38
40
0
40
0
40
0
40
0
40
0.0230205027987216
40
0.0230205027987216
40
0.0593300360598046
40
0.0593300360598046
40
0.0956395693208876
40
0.0956395693208876
40
0.168258635843054
40
0.168258635843054
40
0.24087770236522
40
0.24087770236522
40
0.277187235626303
40
0.277187235626303
40
0.313496768887387
40
0.313496768887387
40
0.458734901931724
40
0.458734901931724
40
0.495044435192808
40
0.495044435192808
40
0.531353968453892
40
0.531353968453892
40
0.603973034976061
40
0.603973034976061
40
0.67659210149823
40
0.67659210149823
40
0.712901634759314
40
0.712901634759314
40
0.749211168020399
40
0.749211168020399
40
0.89444930106474
40
0.89444930106474
40
0.930758834325825
40
0.930758834325825
40
0.96706836758691
40
0.96706836758691
40
1
40
1
40
1
40
1
41
1
10
29.848325375607
20
-2.65635566620776
30
0
41
1
10
29.7109688479829
20
-2.67883168606829
30
0
41
1
10
29.5734622339246
20
-2.69855499891918
30
0
41
1
10
29.2184426479657
20
-2.74209664420496
30
0
41
1
10
29.0005490133829
20
-2.76170819352245
30
0
41
1
10
28.5627352459342
20
-2.7863160076335
30
0
41
1
10
28.343319456743
20
-2.79123499570119
30
0
41
1
10
27.6894840177862
20
-2.78387524911977
30
0
41
1
10
27.2566689018744
20
-2.74967444881403
30
0
41
1
10
26.3915808705277
20
-2.62548205890519
30
0
41
1
10
25.9590600877308
20
-2.5356166347535
30
0
41
1
10
25.3061325121778
20
-2.36160975213949
30
0
41
1
10
25.0877960808304
20
-2.29705732102164
30
0
41
1
10
24.6489654724519
20
-2.15540453394976
30
0
41
1
10
24.4306217523206
20
-2.07902017925781
30
0
41
1
10
23.3423940615526
20
-1.67225819537427
30
0
41
1
10
22.4830037016442
20
-1.2671403595175
30
0
41
1
10
21.3928422507789
20
-0.709568411833999
30
0
41
1
10
21.1733560064081
20
-0.595145955659916
30
0
41
1
10
20.7354163440898
20
-0.36422423216527
30
0
41
1
10
20.5174464199361
20
-0.248018342527359
30
0
41
1
10
19.8653570742509
20
0.100590736550998
30
0
41
1
10
19.4329048404675
20
0.332694193612696
30
0
41
1
10
18.567340502396
20
0.786458063318946
30
0
41
1
10
18.1339346251947
20
1.00756135708281
30
0
41
1
10
17.4785448237945
20
1.32240309887814
30
0
41
1
10
17.2586169511569
20
1.42485889606934
30
0
41
1
10
16.8214913227349
20
1.62038788610235
30
0
41
1
10
16.6037981454567
20
1.71364630512375
30
0
41
1
10
15.5179040231765
20
2.15524529796548
30
0
41
1
10
14.657821350273
20
2.42971079099016
30
0
41
1
10
13.5631618380547
20
2.63813901660669
30
0
41
1
10
13.3434204029115
20
2.67306240389516
30
0
41
1
10
12.9069908431406
20
2.72812051106047
30
0
41
1
10
12.6895602879087
20
2.7484029518435
30
0
41
1
10
12.2757521393444
20
2.77330604721232
30
0
41
1
10
12.0793243350398
20
2.77920188788025
30
0
41
1
10
11.8829832644635
20
2.77916778985283
30
0
0
SPLINE
5
B5
100
AcDbEntity
8
1
62
256
6
ByLayer
370
18
48
1
60
0
100
AcDbSpline
70
4
71
3
72
16
73
12
40
0
40
0
40
0
40
0
40
0.37565692439386
40
0.37565692439386
40
0.563485386590787
40
0.563485386590787
40
0.751313848787715
40
0.751313848787715
40
0.939142310984642
40
0.939142310984642
40
1
40
1
40
1
40
1
41
1
10
7.94822207791194
20
-2.29807152372675
30
0
41
1
10
8.33618353001711
20
-2.41621143498503
30
0
41
1
10
8.72553812399491
20
-2.51144600057225
30
0
41
1
10
9.30684703612417
20
-2.62518825066354
30
0
41
1
10
9.50063217812968
20
-2.65772150863495
30
0
41
1
10
9.8899063590124
20
-2.71117728527406
30
0
41
1
10
10.0847142207845
20
-2.7322511746589
30
0
41
1
10
10.472801350443
20
-2.76312194991223
30
0
41
1
10
10.6661186289198
20
-2.77287127103443
30
0
41
1
10
10.9229868900908
20
-2.77797696022495
30
0
41
1
10
10.9858843163362
20
-2.77862253431516
30
0
41
1
10
11.0488100072865
20
-2.77866295686391
30
0
0
SPLINE
5
B6
100
AcDbEntity
8
1
62
256
6
ByLayer
370
18
48
1
60
0
100
AcDbSpline
70
4
71
3
72
78
73
74
40
0
40
0
40
0
40
0
40
0.0045579457007367
40
0.0045579457007367
40
0.0334030881620497
40
0.0334030881620497
40
0.0622482306233628
40
0.0622482306233628
40
0.091093373084676
40
0.091093373084676
40
0.119938515545989
40
0.119938515545989
40
0.148783658007302
40
0.148783658007302
40
0.177628800468615
40
0.177628800468615
40
0.206473942929928
40
0.206473942929928
40
0.235319085391242
40
0.235319085391242
40
0.264164227852555
40
0.264164227852555
40
0.293009370313868
40
0.293009370313868
40
0.321854512775181
40
0.321854512775181
40
0.350699655236494
40
0.350699655236494
40
0.379544797697807
40
0.379544797697807
40
0.40838994015912
40
0.40838994015912
40
0.437235082620433
40
0.437235082620433
40
0.466080225081746
40
0.466080225081746
40
0.494925367543059
40
0.494925367543059
40
0.523770510004373
40
0.523770510004373
40
0.552615652465686
40
0.552615652465686
40
0.581460794926999
40
0.581460794926999
40
0.610305937388312
40
0.610305937388312
40
0.639151079849625
40
0.639151079849625
40
0.667996222310938
40
0.667996222310938
40
0.696841364772251
40
0.696841364772251
40
0.725686507233565
40
0.725686507233565
40
0.754531649694878
40
0.754531649694878
40
0.783376792156191
40
0.783376792156191
40
0.812221934617504
40
0.812221934617504
40
0.841067077078817
40
0.841067077078817
40
0.86991221954013
40
0.86991221954013
40
0.898757362001443
40
0.898757362001443
40
0.927602504462756
40
0.927602504462756
40
0.956447646924069
40
0.956447646924069
40
0.985292789385382
40
0.985292789385382
40
1
40
1
40
1
40
1
41
1
10
23.5779599138509
20
2.06892038789533
30
0
41
1
10
23.6085798998794
20
2.07992374913854
30
0
41
1
10
23.6392107656226
20
2.09080648047038
30
0
41
1
10
23.8638008812832
20
2.16963879407336
30
0
41
1
10
24.0580124421357
20
2.23315846024514
30
0
41
1
10
24.4464376139084
20
2.35159636377168
30
0
41
1
10
24.6404235337914
20
2.40669353200337
30
0
41
1
10
25.0285171944779
20
2.50513889373289
30
0
41
1
10
25.2226336889721
20
2.548936667285
30
0
41
1
10
25.6104405671073
20
2.62622022932027
30
0
41
1
10
25.8037603800334
20
2.65986651198574
30
0
41
1
10
26.191703338388
20
2.71549501916869
30
0
41
1
10
26.3866026099261
20
2.73755303502836
30
0
41
1
10
26.7751430413539
20
2.77027676829741
30
0
41
1
10
26.9687398946575
20
2.78099795329192
30
0
41
1
10
27.3557642323055
20
2.79070995648283
30
0
41
1
10
27.5497248950155
20
2.78971162068362
30
0
41
1
10
27.9381239151044
20
2.77624881495058
30
0
41
1
10
28.1327504458408
20
2.7637291590446
30
0
41
1
10
28.5204366124839
20
2.72686536492472
30
0
41
1
10
28.7142526584547
20
2.70277597176931
30
0
41
1
10
29.1021861332453
20
2.64381740247092
30
0
41
1
10
29.2961945180479
20
2.60892584253344
30
0
41
1
10
29.6835412064933
20
2.52755370942609
30
0
41
1
10
29.8775668491665
20
2.48126388363144
30
0
41
1
10
30.266384986601
20
2.37939103320846
30
0
41
1
10
30.4606032789486
20
2.32369678243822
30
0
41
1
10
30.848082867974
20
2.20217676176827
30
0
41
1
10
31.0411921482146
20
2.13609024094677
30
0
41
1
10
31.4289795771482
20
1.99664632605038
30
0
41
1
10
31.6233877644659
20
1.92292804971763
30
0
41
1
10
32.0122863825575
20
1.7668733786717
30
0
41
1
10
32.2056947470366
20
1.68422639618672
30
0
41
1
10
32.5931413238341
20
1.51370826889197
30
0
41
1
10
32.7871175110906
20
1.42580255359491
30
0
41
1
10
33.174982870813
20
1.24383028638178
30
0
41
1
10
33.3685691399623
20
1.1492243035286
30
0
41
1
10
33.7567055586007
20
0.955412571401837
30
0
41
1
10
33.9511216503091
20
0.857170799995288
30
0
41
1
10
34.3391834707337
20
0.65772991825429
30
0
41
1
10
34.5328459872378
20
0.556198718550462
30
0
41
1
10
34.919661935991
20
0.349869683410276
30
0
41
1
10
35.113538441594
20
0.246411412012378
30
0
41
1
10
35.502269156681
20
0.0390326102638312
30
0
41
1
10
35.6969012333134
20
-0.0649705206697888
30
0
41
1
10
36.0840847694616
20
-0.273811161853814
30
0
41
1
10
36.277503720501
20
-0.377656180906911
30
0
41
1
10
36.6652196328886
20
-0.581967498462461
30
0
41
1
10
36.8592812499146
20
-0.682877473671681
30
0
41
1
10
37.2471871281852
20
-0.883312815535334
30
0
41
1
10
37.4411405036294
20
-0.982862553200505
30
0
41
1
10
37.8291778186158
20
-1.17479649167561
30
0
41
1
10
38.0231791680444
20
-1.26799113701887
30
0
41
1
10
38.4106261177184
20
-1.44972498656068
30
0
41
1
10
38.6037202039145
20
-1.53878167079225
30
0
41
1
10
38.9915317374439
20
-1.70865386705859
30
0
41
1
10
39.1863300705149
20
-1.7898820704234
30
0
41
1
10
39.5746109658856
20
-1.94480360925982
30
0
41
1
10
39.7679120989957
20
-2.01898970099961
30
0
41
1
10
40.1548660180065
20
-2.15801627611924
30
0
41
1
10
40.3487589436841
20
-2.22262568721465
30
0
41
1
10
40.7368378272352
20
-2.34280920039331
30
0
41
1
10
40.931124413903
20
-2.39862305094903
30
0
41
1
10
41.3186603656101
20
-2.50016859706011
30
0
41
1
10
41.5125183585079
20
-2.5453139497312
30
0
41
1
10
41.9002355020833
20
-2.62486592140039
30
0
41
1
10
42.0940207980269
20
-2.6593352041821
30
0
41
1
10
42.4809429913836
20
-2.71764550066905
30
0
41
1
10
42.6749468858196
20
-2.74109923886479
30
0
41
1
10
43.0637027956876
20
-2.77632882825304
30
0
41
1
10
43.2579335085339
20
-2.78819555578767
30
0
41
1
10
43.5504419753232
20
-2.7974250665084
30
0
41
1
10
43.649135706245
20
-2.79901399655836
30
0
41
1
10
43.7478975895477
20
-2.79908298624375
30
0
0
SPLINE
5
B7
100
AcDbEntity
8
1
62
256
6
ByLayer
370
18
48
1
60
0
100
AcDbSpline
70
4
71
3
72
80
73
76
40
0
40
0
40
0
40
0
40
0.0099389463706656
40
0.0099389463706656
40
0.0370216281529767
40
0.0370216281529767
40
0.0641043099352879
40
0.0641043099352879
40
0.0911869917175991
40
0.0911869917175991
40
0.11826967349991
40
0.11826967349991
40
0.145352355282221
40
0.145352355282221
40
0.172435037064533
40
0.172435037064533
40
0.199517718846844
40
0.199517718846844
40
0.226600400629155
40
0.226600400629155
40
0.253683082411466
40
0.253683082411466
40
0.280765764193777
40
0.280765764193777
40
0.307848445976089
40
0.307848445976089
40
0.362013809540711
40
0.362013809540711
40
0.389096491323023
40
0.389096491323023
40
0.416179173105335
40
0.416179173105335
40
0.443261854887647
40
0.443261854887647
40
0.470344536669959
40
0.470344536669959
40
0.497427218452271
40
0.497427218452271
40
0.524509900234582
40
0.524509900234582
40
0.551592582016894
40
0.551592582016894
40
0.578675263799206
40
0.578675263799206
40
0.605757945581518
40
0.605757945581518
40
0.63284062736383
40
0.63284062736383
40
0.659923309146142
40
0.659923309146142
40
0.687005990928454
40
0.687005990928454
40
0.714088672710766
40
0.714088672710766
40
0.741171354493078
40
0.741171354493078
40
0.76825403627539
40
0.76825403627539
40
0.795336718057702
40
0.795336718057702
40
0.822419399840014
40
0.822419399840014
40
0.849502081622326
40
0.849502081622326
40
0.876584763404638
40
0.876584763404638
40
0.90366744518695
40
0.90366744518695
40
0.930750126969262
40
0.930750126969262
40
0.957832808751574
40
0.957832808751574
40
0.984915490533886
40
0.984915490533886
40
1
40
1
40
1
40
1
41
1
10
39.9181527988404
20
-2.07853297651309
30
0
41
1
10
39.8523043928976
20
-2.09947549356423
30
0
41
1
10
39.7864463831881
20
-2.11995018533131
30
0
41
1
10
39.5410713292601
20
-2.19446184036829
30
0
41
1
10
39.361105277135
20
-2.24518450202839
30
0
41
1
10
39.0018728554878
20
-2.33725155492033
30
0
41
1
10
38.8223886932031
20
-2.37858111762853
30
0
41
1
10
38.4638341559014
20
-2.4533775879747
30
0
41
1
10
38.2847312915017
20
-2.48689877055926
30
0
41
1
10
37.9258873325255
20
-2.54536689536971
30
0
41
1
10
37.7461115800005
20
-2.57032790361785
30
0
41
1
10
37.3864248219458
20
-2.61113131721064
30
0
41
1
10
37.2071542404329
20
-2.62694164220741
30
0
41
1
10
36.8487292759887
20
-2.64859054576038
30
0
41
1
10
36.6695323490015
20
-2.65449328496288
30
0
41
1
10
36.3107977936538
20
-2.65543528822192
30
0
41
1
10
36.1313302163453
20
-2.65081512241437
30
0
41
1
10
35.7724179594668
20
-2.63424154009212
30
0
41
1
10
35.5925876826348
20
-2.62166100860512
30
0
41
1
10
35.2335376607416
20
-2.58662014549643
30
0
41
1
10
35.0541193533655
20
-2.56383337905899
30
0
41
1
10
34.6957037020034
20
-2.51026412070624
30
0
41
1
10
34.5167556698989
20
-2.47936915480562
30
0
41
1
10
34.1581578507242
20
-2.40857722098932
30
0
41
1
10
33.9784295520408
20
-2.36854389507576
30
0
41
1
10
33.4387750614416
20
-2.23461627796345
30
0
41
1
10
33.0808813844259
20
-2.13022001762286
30
0
41
1
10
32.5426384481871
20
-1.95126209062667
30
0
41
1
10
32.3630586556366
20
-1.88753029184048
30
0
41
1
10
32.0039531014058
20
-1.75432393102162
30
0
41
1
10
31.8241619965008
20
-1.68453685692475
30
0
41
1
10
31.4651394188031
20
-1.5395207164195
30
0
41
1
10
31.2857168327948
20
-1.46408997551035
30
0
41
1
10
30.9271438635712
20
-1.3079927985894
30
0
41
1
10
30.7481363918369
20
-1.2275231305324
30
0
41
1
10
30.3894510527315
20
-1.06269939880028
30
0
41
1
10
30.2096237508673
20
-0.978243327358626
30
0
41
1
10
29.8499062877328
20
-0.805919319576304
30
0
41
1
10
29.6704624873289
20
-0.718110599779465
30
0
41
1
10
29.3120017269351
20
-0.540264874258639
30
0
41
1
10
29.1327814488863
20
-0.450494014234721
30
0
41
1
10
28.7739823549058
20
-0.269843998690561
30
0
41
1
10
28.5943799678874
20
-0.178953270041887
30
0
41
1
10
28.2351122465058
20
0.0041552345599314
30
0
41
1
10
28.0553939428314
20
0.0962369220350183
30
0
41
1
10
27.6964313131102
20
0.278499262065964
30
0
41
1
10
27.5170267484646
20
0.368881811670207
30
0
41
1
10
27.1583862791984
20
0.548186982810989
30
0
41
1
10
26.9793040382365
20
0.637531739139149
30
0
41
1
10
26.620578446707
20
0.813541852290626
30
0
41
1
10
26.4406982433945
20
0.900222098704091
30
0
41
1
10
26.0810824363638
20
1.06950417415723
30
0
41
1
10
25.9016313425175
20
1.15206051054596
30
0
41
1
10
25.5432442196025
20
1.31412685915541
30
0
41
1
10
25.3640970122071
20
1.39302039024759
30
0
41
1
10
25.0053534885676
20
1.54457475753873
30
0
41
1
10
24.82574794922
20
1.61724856447432
30
0
41
1
10
24.4663652463712
20
1.7578033671164
30
0
41
1
10
24.2866947500452
20
1.82579825583619
30
0
41
1
10
23.9277870192698
20
1.9541470711755
30
0
41
1
10
23.7484054610192
20
2.01447843738069
30
0
41
1
10
23.3896859676153
20
2.12699083509236
30
0
41
1
10
23.210527633671
20
2.18004933328643
30
0
41
1
10
22.8517747269186
20
2.27897583401582
30
0
41
1
10
22.6718602171307
20
2.32459954379669
30
0
41
1
10
22.3122903927684
20
2.40587700637511
30
0
41
1
10
22.1327967882636
20
2.44185996648542
30
0
41
1
10
21.7743628383916
20
2.50657063358273
30
0
41
1
10
21.5952430131516
20
2.53506628919394
30
0
41
1
10
21.2364959936806
20
2.58183759685698
30
0
41
1
10
21.0568570158074
20
2.600008091767
30
0
41
1
10
20.6973123487461
20
2.627617405786
30
0
41
1
10
20.5176677335875
20
2.63725879099007
30
0
41
1
10
20.2382635057558
20
2.64509361665245
30
0
41
1
10
20.1383305573087
20
2.64632227565573
30
0
41
1
10
20.0384002315918
20
2.64594327478377
30
0
0
SPLINE
5
B8
100
AcDbEntity
8
1
62
256
6
ByLayer
370
18
48
1
60
0
100
AcDbSpline
70
4
71
3
72
8
73
4
40
0
40
0
40
0
40
0
40
1
40
1
40
1
40
1
41
1
10
3.27377078307455
20
0.239210664820377
30
0
41
1
10
3.24303591031239
20
0.268509611124557
30
0
41
1
10
3.22231124127157
20
0.308243238998642
30
0
41
1
10
3.22232214671561
20
0.35059826580661
30
0
0
SPLINE
5
B9
100
AcDbEntity
8
1
62
256
6
ByLayer
370
18
48
1
60
0
100
AcDbSpline
70
4
71
3
72
18
73
14
40
0
40
0
40
0
40
0
40
0.230946770662361
40
0.230946770662361
40
0.461893541324723
40
0.461893541324723
40
0.577366926655903
40
0.577366926655903
40
0.692840311987084
40
0.692840311987084
40
0.923787082649443
40
0.923787082649443
40
1
40
1
40
1
40
1
41
1
10
3.40035776725335
20
0.159020441867568
30
0
41
1
10
3.83787611546336
20
-0.0703312337143416
30
0
41
1
10
4.27175456703552
20
-0.299114469249361
30
0
41
1
10
5.1376689484737
20
-0.745574477788381
30
0
41
1
10
5.56970097828875
20
-0.963252344841209
30
0
41
1
10
6.22102684741344
20
-1.27260521028029
30
0
41
1
10
6.43865401786712
20
-1.37291523993278
30
0
41
1
10
6.87564038309577
20
-1.56663143649737
30
0
41
1
10
7.09538667721131
20
-1.66016763236348
30
0
41
1
10
7.75015304808011
20
-1.9249916145279
30
0
41
1
10
8.18322476646156
20
-2.08173343720779
30
0
41
1
10
8.75850668379033
20
-2.25943608931343
30
0
41
1
10
8.90118878671325
20
-2.30101271968633
30
0
41
1
10
9.04391495176947
20
-2.33996565483673
30
0
0
SPLINE
5
BA
100
AcDbEntity
8
1
62
256
6
ByLayer
370
13
48
1
60
0
100
AcDbSpline
70
4
71
3
72
14
73
10
40
0
40
0
40
0
40
0
40
0.210062742419931
40
0.210062742419931
40
0.366826524262645
40
0.366826524262645
40
0.52359030610536
40
0.52359030610536
40
1
40
1
40
1
40
1
41
1
10
9.04391523937653
20
-2.33996573333064
30
0
41
1
10
9.33368976786863
20
-2.41905121416104
30
0
41
1
10
9.62364592294506
20
-2.48732169263778
30
0
41
1
10
10.1317923736816
20
-2.58606916573404
30
0
41
1
10
10.3495299520981
20
-2.62174519840403
30
0
41
1
10
10.786898098266
20
-2.67931239006614
30
0
41
1
10
11.0063678239742
20
-2.70113432977573
30
0
41
1
10
11.8868217221735
20
-2.75974454265128
30
0
41
1
10
12.5417432318668
20
-2.73711217711386
30
0
41
1
10
13.1994345706568
20
-2.65068126902932
30
0
0
SPLINE
5
BB
100
AcDbEntity
8
1
62
256
6
ByLayer
370
18
48
1
60
0
100
AcDbSpline
70
4
71
3
72
22
73
18
40
0
40
0
40
0
40
0
40
0.153682618703978
40
0.153682618703978
40
0.235515700861511
40
0.235515700861511
40
0.317348783019043
40
0.317348783019043
40
0.644681111649178
40
0.644681111649178
40
0.726514193806713
40
0.726514193806713
40
0.808347275964248
40
0.808347275964248
40
0.972013440279318
40
0.972013440279318
40
1
40
1
40
1
40
1
41
1
10
32.1704540027173
20
1.99866154761074
30
0
41
1
10
32.5761957572838
20
1.85151559695572
30
0
41
1
10
32.9826388309643
20
1.68601610972016
30
0
41
1
10
33.6098675129449
20
1.40829714443848
30
0
41
1
10
33.829424003792
20
1.3073396302658
30
0
41
1
10
34.2656557556409
20
1.1001615253976
30
0
41
1
10
34.4827388710696
20
0.993781669089884
30
0
41
1
10
35.5650556951586
20
0.451903127006403
30
0
41
1
10
36.4209955719314
20
-0.0136420781865922
30
0
41
1
10
37.5074065334628
20
-0.579913550132062
30
0
41
1
10
37.7259258312502
20
-0.692622754245804
30
0
41
1
10
38.1634201609072
20
-0.91418558919068
30
0
41
1
10
38.3810249305683
20
-1.02233752188303
30
0
41
1
10
39.0316067923575
20
-1.33691179769266
30
0
41
1
10
39.4625071950257
20
-1.53316637308379
30
0
41
1
10
39.966858777406
20
-1.74255402105027
30
0
41
1
10
40.0405056331313
20
-1.77261758099027
30
0
41
1
10
40.1141644901003
20
-1.80214658321501
30
0
0
SPLINE
5
BC
100
AcDbEntity
8
1
62
256
6
ByLayer
370
13
48
1
60
0
100
AcDbSpline
70
4
71
3
72
14
73
10
40
0
40
0
40
0
40
0
40
0.216506058092435
40
0.216506058092435
40
0.347088381743696
40
0.347088381743696
40
0.477670705394958
40
0.477670705394958
40
1
40
1
40
1
40
1
41
1
10
40.1141644901327
20
-1.80214658322797
30
0
41
1
10
40.4712646370555
20
-1.94530399113239
30
0
41
1
10
40.8286468536279
20
-2.07589749214216
30
0
41
1
10
41.4046474479874
20
-2.26113774122956
30
0
41
1
10
41.6220380634155
20
-2.32536931997103
30
0
41
1
10
42.0589129351396
20
-2.44186641226122
30
0
41
1
10
42.2778652017714
20
-2.49393332645255
30
0
41
1
10
43.3660574157636
20
-2.7192734103308
30
0
41
1
10
44.2263700850975
20
-2.79062251894396
30
0
41
1
10
45.098042541902
20
-2.74484596122969
30
0
0
SPLINE
5
BD
100
AcDbEntity
8
1
62
256
6
ByLayer
370
18
48
1
60
0
100
AcDbSpline
70
4
71
3
72
28
73
24
40
0
40
0
40
0
40
0
40
0.0699195623012166
40
0.0699195623012166
40
0.139839124602433
40
0.139839124602433
40
0.279678249204866
40
0.279678249204866
40
0.349597811506082
40
0.349597811506082
40
0.419517373807299
40
0.419517373807299
40
0.559356498409731
40
0.559356498409731
40
0.699195623012164
40
0.699195623012164
40
0.76911518531338
40
0.76911518531338
40
0.839034747614596
40
0.839034747614596
40
0.978873872217029
40
0.978873872217029
40
1
40
1
40
1
40
1
41
1
10
3.22232214671555
20
0.35059826580661
30
0
41
1
10
3.22234612098563
20
0.443710554444408
30
0
41
1
10
3.22236896582484
20
0.536024546302684
30
0
41
1
10
3.22241276430955
20
0.719051626388591
30
0
41
1
10
3.22243369032168
20
0.809677132732105
30
0
41
1
10
3.22249316415423
20
1.07445585235087
30
0
41
1
10
3.22252883054841
20
1.24320486235371
30
0
41
1
10
3.22257875777419
20
1.48465694282825
30
0
41
1
10
3.22259488494379
20
1.56360886391414
30
0
41
1
10
3.22262572406464
20
1.71472206062808
30
0
41
1
10
3.22264045636015
20
1.78697166567017
30
0
41
1
10
3.22268314159763
20
1.99404520348585
30
0
41
1
10
3.22270962578051
20
2.11931905193492
30
0
41
1
10
3.22276050473664
20
2.34307681719318
30
0
41
1
10
3.22278405350758
20
2.43777621958139
30
0
41
1
10
3.22281725337365
20
2.55508787237255
30
0
41
1
10
3.22282795235287
20
2.59003664423034
30
0
41
1
10
3.22284857145314
20
2.65140950532114
30
0
41
1
10
3.22285848565599
20
2.67776913467927
30
0
41
1
10
3.22288621630864
20
2.74221981101124
30
0
41
1
10
3.22290232478778
20
2.76660500391515
30
0
41
1
10
3.22291709577246
20
2.77329781749339
30
0
41
1
10
3.22291896045354
20
2.77374426165178
30
0
41
1
10
3.22292074291772
20
2.77375815894325
30
0
0
SPLINE
5
BE
100
AcDbEntity
8
1
62
256
6
ByLayer
370
18
48
1
60
0
100
AcDbSpline
70
4
71
3
72
30
73
26
40
0
40
0
40
0
40
0
40
0.250000000000024
40
0.250000000000024
40
0.37500000000004
40
0.37500000000004
40
0.500000000000057
40
0.500000000000057
40
0.625000000000073
40
0.625000000000073
40
0.750000000000089
40
0.750000000000089
40
0.812500000000097
40
0.812500000000097
40
0.828125000000095
40
0.828125000000095
40
0.843750000000093
40
0.843750000000093
40
0.851562500000087
40
0.851562500000087
40
0.859375000000082
40
0.859375000000082
40
0.875000000000073
40
0.875000000000073
40
1
40
1
40
1
40
1
41
1
10
42.4120994210725
20
1.08234935015847
30
0
41
1
10
42.6202711802724
20
0.8984793143091
30
0
41
1
10
42.8391428221017
20
0.738110129088028
30
0
41
1
10
43.1842227482675
20
0.53439480745223
30
0
41
1
10
43.3015628783087
20
0.473080641174022
30
0
41
1
10
43.5365221595395
20
0.366843108351901
30
0
41
1
10
43.6547775503426
20
0.321617985270706
30
0
41
1
10
43.8930056149198
20
0.248641945989533
30
0
41
1
10
44.0134523366366
20
0.220710551597421
30
0
41
1
10
44.2541616291562
20
0.185360580486673
30
0
41
1
10
44.3731711371452
20
0.177996472969539
30
0
41
1
10
44.5493151553523
20
0.18511892307751
30
0
41
1
10
44.6076472227758
20
0.190560849750199
30
0
41
1
10
44.6793638582872
20
0.20156818637588
30
0
41
1
10
44.6936573798465
20
0.203981223888974
30
0
41
1
10
44.7221235401872
20
0.209239446946555
30
0
41
1
10
44.7364275471236
20
0.211630764449325
30
0
41
1
10
44.7573330656432
20
0.21706335821446
30
0
41
1
10
44.7639544026326
20
0.219937124229745
30
0
41
1
10
44.7747087401902
20
0.229917785521764
30
0
41
1
10
44.7786472353518
20
0.236890141686615
30
0
41
1
10
44.7835925784341
20
0.261623265312465
30
0
41
1
10
44.7860045251989
20
0.27863298547112
30
0
41
1
10
44.808818236309
20
0.430666627676601
30
0
41
1
10
44.815877446422
20
0.571407634091798
30
0
41
1
10
44.8137618280838
20
0.712971428951846
30
0
0
SPLINE
5
BF
100
AcDbEntity
8
1
62
256
6
ByLayer
370
13
48
1
60
0
100
AcDbSpline
70
4
71
3
72
27
73
23
40
0
40
0
40
0
40
0
40
0.137800709897756
40
0.137800709897756
40
0.206701064846634
40
0.206701064846634
40
0.275601419795512
40
0.34450177474439
40
0.34450177474439
40
0.413402129693268
40
0.413402129693268
40
0.482302484642146
40
0.482302484642146
40
0.551202839591024
40
0.551202839591024
40
0.689003549488781
40
0.689003549488781
40
0.826804259386537
40
0.826804259386537
40
0.964604969284293
40
0.964604969284293
40
1
40
1
40
1
40
1
41
1
10
3.44702018805918
20
0.238413074948966
30
0
41
1
10
3.44710603846627
20
0.418240940013305
30
0
41
1
10
3.4471831899308
20
0.594203389776226
30
0
41
1
10
3.44729034566774
20
0.852413715742415
30
0
41
1
10
3.44732462365457
20
0.937540995690597
30
0
41
1
10
3.44738971623031
20
1.10254400411409
30
0
41
1
10
3.4474517126626
20
1.26317001169068
30
0
41
1
10
3.44750902227372
20
1.4151790088018
30
0
41
1
10
3.44756461273101
20
1.56281340739949
30
0
41
1
10
3.44759166048371
20
1.63473710777271
30
0
41
1
10
3.44764388172089
20
1.7722103965973
30
0
41
1
10
3.4476690691194
20
1.8377987434807
30
0
41
1
10
3.44771808424855
20
1.96267386154091
30
0
41
1
10
3.4477418702694
20
2.0218356040323
30
0
41
1
10
3.44781053587869
20
2.18696810768574
30
0
41
1
10
3.44785323910071
20
2.28179789042736
30
0
41
1
10
3.44793359491985
20
2.44082774089568
30
0
41
1
10
3.44797134453012
20
2.50484648756753
30
0
41
1
10
3.44803668061678
20
2.59513754150427
30
0
41
1
10
3.44806470321711
20
2.6224559299807
30
0
41
1
10
3.44809188345678
20
2.63422900484318
30
0
41
1
10
3.44809701532887
20
2.6354269901507
30
0
41
1
10
3.44810165139106
20
2.6354144880622
30
0
0
SPLINE
5
C0
100
AcDbEntity
8
1
62
256
6
ByLayer
370
18
48
1
60
0
100
AcDbSpline
70
4
71
3
72
8
73
4
40
0
40
0
40
0
40
0
40
1
40
1
40
1
40
1
41
1
10
45.8754186089146
20
-0.838474043925515
30
0
41
1
10
45.9252926541902
20
-0.650971502360903
30
0
41
1
10
45.9620407327134
20
-0.474642038563303
30
0
41
1
10
45.9821657890792
20
-0.301582063653314
30
0
0
SPLINE
5
C1
100
AcDbEntity
8
1
62
256
6
ByLayer
370
18
48
1
60
0
100
AcDbSpline
70
4
71
3
72
24
73
20
40
0
40
0
40
0
40
0
40
0.0790964660602021
40
0.0790964660602021
40
0.23223582240232
40
0.23223582240232
40
0.308805500573378
40
0.308805500573378
40
0.385375178744436
40
0.385375178744436
40
0.69165389142867
40
0.69165389142867
40
0.768223569599729
40
0.768223569599729
40
0.844793247770787
40
0.844793247770787
40
0.997932604112905
40
0.997932604112905
40
1
40
1
40
1
40
1
41
1
10
15.7640982147369
20
2.01126932045946
30
0
41
1
10
15.9878245645005
20
1.93135547598683
30
0
41
1
10
16.211123907118
20
1.84600591894775
30
0
41
1
10
16.8667758741021
20
1.58134020883648
30
0
41
1
10
17.298897372522
20
1.38837613560713
30
0
41
1
10
17.9513863427129
20
1.07854385585529
30
0
41
1
10
18.169603555196
20
0.971761611878065
30
0
41
1
10
18.608033268748
20
0.752673992820348
30
0
41
1
10
18.8261374561384
20
0.641259468429723
30
0
41
1
10
19.9132351826542
20
0.0789614101594793
30
0
41
1
10
20.7722049467686
20
-0.387081292872153
30
0
41
1
10
21.8610422541788
20
-0.934647735369765
30
0
41
1
10
22.0800497511096
20
-1.04264602114307
30
0
41
1
10
22.5179308421605
20
-1.25251443040452
30
0
41
1
10
22.7363703812752
20
-1.3541602959908
30
0
41
1
10
23.3912153979241
20
-1.64750949951298
30
0
41
1
10
23.8275495892127
20
-1.82762985141181
30
0
41
1
10
24.2716558083337
20
-1.98947501676488
30
0
41
1
10
24.2775710275658
20
-1.99162685958382
30
0
41
1
10
24.2834858588368
20
-1.99377471567996
30
0
0
SPLINE
5
C2
100
AcDbEntity
8
1
62
256
6
ByLayer
370
13
48
1
60
0
100
AcDbSpline
70
4
71
3
72
16
73
12
40
0
40
0
40
0
40
0
40
0.242623748596084
40
0.242623748596084
40
0.365595756700473
40
0.365595756700473
40
0.488567764804863
40
0.488567764804863
40
0.980455797222434
40
0.980455797222434
40
1
40
1
40
1
40
1
41
1
10
24.2834858587504
20
-1.99377471564867
30
0
41
1
10
24.7157035880728
20
-2.15072618937171
30
0
41
1
10
25.145849704379
20
-2.28638958417505
30
0
41
1
10
25.7954020191197
20
-2.45391526397816
30
0
41
1
10
26.0144726590112
20
-2.50403455051961
30
0
41
1
10
26.452215953576
20
-2.59069989025346
30
0
41
1
10
26.6700362504401
20
-2.62709989638799
30
0
41
1
10
27.7557916432883
20
-2.7739563151091
30
0
41
1
10
28.6143484188721
20
-2.77862757441068
30
0
41
1
10
29.5200007655747
20
-2.66479724246611
30
0
41
1
10
29.5546486698715
20
-2.66026483813604
30
0
41
1
10
29.5893259964478
20
-2.65555190828653
30
0
0
SPLINE
5
C3
100
AcDbEntity
8
1
62
256
6
ByLayer
370
18
48
1
60
0
100
AcDbSpline
70
4
71
3
72
8
73
4
40
0
40
0
40
0
40
0
40
1
40
1
40
1
40
1
41
1
10
45.196930139994
20
-2.6921593873526
30
0
41
1
10
45.1592742996058
20
-2.73914945913438
30
0
41
1
10
45.1211356580022
20
-2.77055144351792
30
0
41
1
10
45.0820123520592
20
-2.78685446458781
30
0
0
SPLINE
5
C4
100
AcDbEntity
8
1
62
256
6
ByLayer
370
18
48
1
60
0
100
AcDbSpline
70
4
71
3
72
10
73
6
40
0
40
0
40
0
40
0
40
0.5
40
0.5
40
1
40
1
40
1
40
1
41
1
10
44.9034133541512
20
0.775832742047754
30
0
41
1
10
45.0622984953747
20
0.772426181842377
30
0
41
1
10
45.2211465380177
20
0.769361519406345
30
0
41
1
10
45.5387908617433
20
0.763709225238358
30
0
41
1
10
45.6976052576654
20
0.761243442810439
30
0
41
1
10
45.8562122744603
20
0.759885959404585
30
0
0
SPLINE
5
C5
100
AcDbEntity
8
1
62
256
6
ByLayer
370
18
48
1
60
0
100
AcDbSpline
70
4
71
3
72
10
73
6
40
0
40
0
40
0
40
0
40
0.5
40
0.5
40
1
40
1
40
1
40
1
41
1
10
45.1969301399882
20
2.69215938736897
30
0
41
1
10
45.3057525427437
20
2.38272749189085
30
0
41
1
10
45.4173221249754
20
2.07317347101412
30
0
41
1
10
45.6444784839365
20
1.45408965884746
30
0
41
1
10
45.7596395214682
20
1.14569656792003
30
0
41
1
10
45.8754186089146
20
0.838474043925459
30
0
0
SPLINE
5
C6
100
AcDbEntity
8
1
62
256
6
ByLayer
370
18
48
1
60
0
100
AcDbSpline
70
4
71
3
72
18
73
14
40
0
40
0
40
0
40
0
40
0.127357101341292
40
0.127357101341292
40
0.418238067560862
40
0.418238067560862
40
0.563678550670646
40
0.563678550670646
40
0.709119033780431
40
0.709119033780431
40
0.854559516890215
40
0.854559516890215
40
1
40
1
40
1
40
1
41
1
10
4.053427082778
20
2.63781454880365
30
0
41
1
10
4.21364377288756
20
2.63775130038053
30
0
41
1
10
4.37612436340405
20
2.63152021292839
30
0
41
1
10
4.91080173570745
20
2.59394043771633
30
0
41
1
10
5.28389383083049
20
2.54065685577601
30
0
41
1
10
5.84599362024647
20
2.431749807708
30
0
41
1
10
6.03380672044523
20
2.39039007042649
30
0
41
1
10
6.41093289258566
20
2.29688187905509
30
0
41
1
10
6.60023742736871
20
2.24510795175399
30
0
41
1
10
6.98097145880661
20
2.13387367589232
30
0
41
1
10
7.17240523200982
20
2.07427276994338
30
0
41
1
10
7.55833138216735
20
1.94785763184291
30
0
41
1
10
7.7528451474501
20
1.88109755371084
30
0
41
1
10
7.94822207791196
20
1.81278334273134
30
0
0
SPLINE
5
C7
100
AcDbEntity
8
1
62
256
6
ByLayer
370
18
48
1
60
0
100
AcDbSpline
70
4
71
3
72
8
73
4
40
0
40
0
40
0
40
0
40
1
40
1
40
1
40
1
41
1
10
45.9821657890792
20
0.301582063653314
30
0
41
1
10
45.9889209227817
20
0.22953584606222
30
0
41
1
10
45.9928097865687
20
0.157634692604205
30
0
41
1
10
45.9933048793376
20
0.0859053005173394
30
0
0
SPLINE
5
C8
100
AcDbEntity
8
1
62
256
6
ByLayer
370
18
48
1
60
0
100
AcDbSpline
70
4
71
3
72
8
73
4
40
0
40
0
40
0
40
0
40
1
40
1
40
1
40
1
41
1
10
3.32894695922403
20
0.199389387890648
30
0
41
1
10
3.30863422452288
20
0.210194763711257
30
0
41
1
10
3.29025884152139
20
0.223492924817634
30
0
41
1
10
3.2737707830747
20
0.239210664820234
30
0
0
SPLINE
5
C9
100
AcDbEntity
8
1
62
256
6
ByLayer
370
18
48
1
60
0
100
AcDbSpline
70
4
71
3
72
8
73
4
40
0
40
0
40
0
40
0
40
1
40
1
40
1
40
1
41
1
10
45.9821657890791
20
-0.301582063653399
30
0
41
1
10
45.9889090132347
20
-0.229662866171793
30
0
41
1
10
45.9928088598884
20
-0.157768950705446
30
0
41
1
10
45.9933048793376
20
-0.0859053005173394
30
0
0
SPLINE
5
CA
100
AcDbEntity
8
1
62
256
6
ByLayer
370
18
48
1
60
0
100
AcDbSpline
70
4
71
3
72
10
73
6
40
0
40
0
40
0
40
0
40
0.408287883613331
40
0.408287883613331
40
1
40
1
40
1
40
1
41
1
10
3.22292088150181
20
-2.77375836707236
30
0
41
1
10
3.22292494231939
20
-2.77373884177274
30
0
41
1
10
3.22292857324331
20
-2.77146342602876
30
0
41
1
10
3.22293617249392
20
-2.76034812002524
30
0
41
1
10
3.22293957099569
20
-2.7490927026407
30
0
41
1
10
3.22294171655773
20
-2.73327939647032
30
0
0
SPLINE
5
CB
100
AcDbEntity
8
1
62
256
6
ByLayer
370
18
48
1
60
0
100
AcDbSpline
70
4
71
3
72
62
73
58
40
0
40
0
40
0
40
0
40
0.0344946533403955
40
0.0344946533403955
40
0.068989306680791
40
0.068989306680791
40
0.103483960021187
40
0.103483960021187
40
0.137978613361582
40
0.137978613361582
40
0.172473266701978
40
0.172473266701978
40
0.206967920042373
40
0.206967920042373
40
0.241462573382769
40
0.241462573382769
40
0.275957226723164
40
0.275957226723164
40
0.31045188006356
40
0.31045188006356
40
0.344946533403955
40
0.344946533403955
40
0.379441186744351
40
0.379441186744351
40
0.413935840084746
40
0.413935840084746
40
0.448430493425142
40
0.448430493425142
40
0.482925146765537
40
0.482925146765537
40
0.517419800105933
40
0.517419800105933
40
0.551914453446328
40
0.551914453446328
40
0.586409106786724
40
0.586409106786724
40
0.620903760127119
40
0.620903760127119
40
0.655398413467515
40
0.655398413467515
40
0.68989306680791
40
0.68989306680791
40
0.724387720148306
40
0.724387720148306
40
0.758882373488701
40
0.758882373488701
40
0.827871680169492
40
0.827871680169492
40
0.862366333509888
40
0.862366333509888
40
0.896860986850283
40
0.896860986850283
40
0.931355640190679
40
0.931355640190679
40
0.965850293531074
40
0.965850293531074
40
1
40
1
40
1
40
1
41
1
10
7.94822207791196
20
1.81278334273134
30
0
41
1
10
8.12820346947893
20
1.74650674658082
30
0
41
1
10
8.30804200884052
20
1.67760592017206
30
0
41
1
10
8.6671761960952
20
1.53370707970896
30
0
41
1
10
8.84644181739301
20
1.45854717698506
30
0
41
1
10
9.20501636399959
20
1.30311703067966
30
0
41
1
10
9.38430291646299
20
1.22290913722966
30
0
41
1
10
9.74374864520394
20
1.05912568286794
30
0
41
1
10
9.92398384648922
20
0.975092835628914
30
0
41
1
10
10.2833560033681
20
0.803433445423678
30
0
41
1
10
10.462587167761
20
0.715745895223989
30
0
41
1
10
10.8212873128743
20
0.539128679174752
30
0
41
1
10
11.0007318409197
20
0.450040586946812
30
0
41
1
10
11.3596813340791
20
0.269845903921151
30
0
41
1
10
11.5391932106642
20
0.178827940105236
30
0
41
1
10
11.8986958940389
20
-0.0040576650094408
30
0
41
1
10
12.0785815080905
20
-0.0952965663643397
30
0
41
1
10
12.4377285557789
20
-0.276651848209951
30
0
41
1
10
12.617069680106
20
-0.366956063215781
30
0
41
1
10
12.9756004592169
20
-0.546450060368812
30
0
41
1
10
13.1547899215554
20
-0.635652846874336
30
0
41
1
10
13.514014965252
20
-0.811019088788527
30
0
41
1
10
13.6941706605233
20
-0.897344129514437
30
0
41
1
10
14.0536241751905
20
-1.06653784676442
30
0
41
1
10
14.2329159148798
20
-1.1495502048528
30
0
41
1
10
14.5916086989218
20
-1.3112264891007
30
0
41
1
10
14.7710741236715
20
-1.38979275267138
30
0
41
1
10
15.1300394464724
20
-1.54103707456824
30
0
41
1
10
15.3095702697998
20
-1.61407157425631
30
0
41
1
10
15.6690253548259
20
-1.75513653151231
30
0
41
1
10
15.8489115353735
20
-1.82298790367827
30
0
41
1
10
16.2081459071088
20
-1.95103451470067
30
0
41
1
10
16.3875004733579
20
-2.01092801566634
30
0
41
1
10
16.746082812098
20
-2.12419904008172
30
0
41
1
10
16.9252578612931
20
-2.17749505379905
30
0
41
1
10
17.2844358397339
20
-2.27693697399522
30
0
41
1
10
17.4645897446733
20
-2.32245858336694
30
0
41
1
10
17.8240809727823
20
-2.40352526017364
30
0
41
1
10
18.0034215346043
20
-2.43998528113463
30
0
41
1
10
18.3620790775569
20
-2.50497892377717
30
0
41
1
10
18.5415515396354
20
-2.53389122393946
30
0
41
1
10
18.900556208488
20
-2.58094627645968
30
0
41
1
10
19.0800881423638
20
-2.59910057681253
30
0
41
1
10
19.4395511432733
20
-2.62693659302155
30
0
41
1
10
19.6194118697116
20
-2.63661292771505
30
0
41
1
10
20.158458218929
20
-2.65261073002873
30
0
41
1
10
20.5165041050738
20
-2.64145547403066
30
0
41
1
10
21.0552443743927
20
-2.60015485735477
30
0
41
1
10
21.2354222031404
20
-2.58196561234936
30
0
41
1
10
21.5950384000955
20
-2.5351049018694
30
0
41
1
10
21.7743844043754
20
-2.5065678878228
30
0
41
1
10
22.1329441578904
20
-2.44183221253977
30
0
41
1
10
22.3123415559657
20
-2.40586118034111
30
0
41
1
10
22.6713130366267
20
-2.32472748411195
30
0
41
1
10
22.8508335168624
20
-2.27922636175182
30
0
41
1
10
23.2084531246028
20
-2.18063027287954
30
0
41
1
10
23.3864815176761
20
-2.12794254276426
30
0
41
1
10
23.5643378246319
20
-2.07221059819517
30
0
0
SPLINE
5
CC
100
AcDbEntity
8
1
62
256
6
ByLayer
370
18
48
1
60
0
100
AcDbSpline
70
4
71
3
72
26
73
22
40
0
40
0
40
0
40
0
40
0.0631438509481328
40
0.0631438509481328
40
0.156829465853319
40
0.156829465853319
40
0.250515080758503
40
0.250515080758503
40
0.344200695663689
40
0.344200695663689
40
0.437886310568875
40
0.437886310568875
40
0.53157192547406
40
0.53157192547406
40
0.625257540379246
40
0.625257540379246
40
0.812628770189623
40
0.812628770189623
40
0.906314385094811
40
0.906314385094811
40
1
40
1
40
1
40
1
41
1
10
36.6691408889468
20
2.65271013497045
30
0
41
1
10
36.7900966429587
20
2.64999222483809
30
0
41
1
10
36.9108912355109
20
2.64488076800839
30
0
41
1
10
37.2106678888107
20
2.62666122466632
30
0
41
1
10
37.3895778568045
20
2.61081664853074
30
0
41
1
10
37.7480993335874
20
2.57005877214036
30
0
41
1
10
37.9275713794875
20
2.5451230698815
30
0
41
1
10
38.2868781886646
20
2.48651807476495
30
0
41
1
10
38.4663370775203
20
2.4528923032419
30
0
41
1
10
38.8249579229685
20
2.37800779865501
30
0
41
1
10
39.004283295468
20
2.33666777886776
30
0
41
1
10
39.3627492055933
20
2.24472880437162
30
0
41
1
10
39.5418961168912
20
2.19421986315712
30
0
41
1
10
39.9004696443582
20
2.08531687608442
30
0
41
1
10
40.0803347130853
20
2.02715259152075
30
0
41
1
10
40.6190840708316
20
1.84260167979139
30
0
41
1
10
40.9766760681699
20
1.70464896722026
30
0
41
1
10
41.514591255191
20
1.48300846539436
30
0
41
1
10
41.6941393163657
20
1.40653118251512
30
0
41
1
10
42.0536360778679
20
1.247816226205
30
0
41
1
10
42.2329055484447
20
1.16585690908525
30
0
41
1
10
42.4120994210718
20
1.08234935015881
30
0
0
SPLINE
5
CD
100
AcDbEntity
8
1
62
256
6
ByLayer
370
18
48
1
60
0
100
AcDbSpline
70
4
71
3
72
8
73
4
40
0
40
0
40
0
40
0
40
1
40
1
40
1
40
1
41
1
10
45.1969301399936
20
2.69215938735309
30
0
41
1
10
45.1592742996056
20
2.73914945913461
30
0
41
1
10
45.1211356580021
20
2.77055144351797
30
0
41
1
10
45.0820123520592
20
2.78685446458781
30
0
0
SPLINE
5
CE
100
AcDbEntity
8
1
62
256
6
ByLayer
370
18
48
1
60
0
100
AcDbSpline
70
4
71
3
72
36
73
32
40
0
40
0
40
0
40
0
40
0.0773693097829614
40
0.0773693097829614
40
0.116053964674442
40
0.116053964674442
40
0.154738619565923
40
0.154738619565923
40
0.309477239131844
40
0.309477239131844
40
0.348161894023323
40
0.348161894023323
40
0.386846548914803
40
0.386846548914803
40
0.46421585869776
40
0.46421585869776
40
0.541585168480718
40
0.541585168480718
40
0.618954478263675
40
0.618954478263675
40
0.696323788046633
40
0.696323788046633
40
0.735008442938112
40
0.735008442938112
40
0.773693097829591
40
0.773693097829591
40
0.928431717395509
40
0.928431717395509
40
0.967116372286989
40
0.967116372286989
40
1
40
1
40
1
40
1
41
1
10
45.0820123520592
20
-2.78685446458781
30
0
41
1
10
44.6450310640847
20
-2.8093380377583
30
0
41
1
10
44.2091093787099
20
-2.80209170952753
30
0
41
1
10
43.5529175976736
20
-2.7471661473507
30
0
41
1
10
43.3333749981823
20
-2.72140513535632
30
0
41
1
10
42.8968507976693
20
-2.65601441771236
30
0
41
1
10
42.6794638973801
20
-2.61637832152849
30
0
41
1
10
41.5953253736094
20
-2.38506737615984
30
0
41
1
10
40.7358957969198
20
-2.09456142277622
30
0
41
1
10
39.6418122821291
20
-1.63118025771391
30
0
41
1
10
39.4226046832517
20
-1.53380583108975
30
0
41
1
10
38.987000811144
20
-1.33279175730729
30
0
41
1
10
38.7699926796954
20
-1.22886925038151
30
0
41
1
10
38.1202613977813
20
-0.908820196237542
30
0
41
1
10
37.6886363980564
20
-0.684750940788831
30
0
41
1
10
36.8225485032433
20
-0.226048241909496
30
0
41
1
10
36.3879047695281
20
0.0089580695519373
30
0
41
1
10
35.511159962538
20
0.478189469985466
30
0
41
1
10
35.0769158504518
20
0.707509349428221
30
0
41
1
10
34.2110893448182
20
1.14588245391266
30
0
41
1
10
33.7792196296768
20
1.3544294683615
30
0
41
1
10
33.1292177986893
20
1.64479905579961
30
0
41
1
10
32.9120562629287
20
1.73763760839392
30
0
41
1
10
32.4761051686086
20
1.91433620038344
30
0
41
1
10
32.2566299168035
20
1.99846898171029
30
0
41
1
10
31.1628680223737
20
2.39017329556742
30
0
41
1
10
30.3031889936895
20
2.60909398885877
30
0
41
1
10
29.2183134309565
20
2.74210326097668
30
0
41
1
10
29.0008085178775
20
2.76167688107853
30
0
41
1
10
28.596721907414
20
2.78441991482884
30
0
41
1
10
28.4100288244215
20
2.7895794078872
30
0
41
1
10
28.2240938155228
20
2.78938764049519
30
0
0
SPLINE
5
CF
100
AcDbEntity
8
1
62
256
6
ByLayer
370
18
48
1
60
0
100
AcDbSpline
70
4
71
3
72
26
73
22
40
0
40
0
40
0
40
0
40
0.0389634033304998
40
0.0389634033304998
40
0.103032509775134
40
0.103032509775134
40
0.2311707226644
40
0.2311707226644
40
0.359308935553666
40
0.359308935553666
40
0.423378041998299
40
0.423378041998299
40
0.487447148442933
40
0.487447148442933
40
0.743723574221467
40
0.743723574221467
40
0.8077926806661
40
0.8077926806661
40
0.871861787110734
40
0.871861787110734
40
1
40
1
40
1
40
1
41
1
10
13.5261291899732
20
-2.64203196454264
30
0
41
1
10
13.3928284629469
20
-2.66412002695748
30
0
41
1
10
13.2593832754054
20
-2.68364796700223
30
0
41
1
10
12.9077776078646
20
-2.72804770891665
30
0
41
1
10
12.690018239286
20
-2.74837046306132
30
0
41
1
10
12.038318779857
20
-2.78760470690281
30
0
41
1
10
11.6060849448764
20
-2.78475161463231
30
0
41
1
10
10.7397308571439
20
-2.72171538205896
30
0
41
1
10
10.3058614315432
20
-2.66147191294488
30
0
41
1
10
9.64921549852289
20
-2.52898714202504
30
0
41
1
10
9.42936997782314
20
-2.47774937230071
30
0
41
1
10
8.99275777689206
20
-2.36322963360044
30
0
41
1
10
8.77526780322654
20
-2.29981523084223
30
0
41
1
10
7.69010563686962
20
-1.95434819705028
30
0
41
1
10
6.82916316898977
20
-1.58700751221451
30
0
41
1
10
5.73216985379395
20
-1.05563639466422
30
0
41
1
10
5.51287077138974
20
-0.946242015568458
30
0
41
1
10
5.07585087034562
20
-0.723805542062053
30
0
41
1
10
4.85776136478211
20
-0.610641589532236
30
0
41
1
10
4.20359395186165
20
-0.267487105195954
30
0
41
1
10
3.76756699017511
20
-0.0339348959440713
30
0
41
1
10
3.32894695922283
20
0.199389387891301
30
0
0
SPLINE
5
D0
100
AcDbEntity
8
1
62
256
6
ByLayer
370
18
48
1
60
0
100
AcDbSpline
70
4
71
3
72
70
73
66
40
0
40
0
40
0
40
0
40
0.0598731072214376
40
0.0598731072214376
40
0.089809660832156
40
0.089809660832156
40
0.119746214442874
40
0.119746214442874
40
0.149682768053593
40
0.149682768053593
40
0.179619321664311
40
0.179619321664311
40
0.20955587527503
40
0.20955587527503
40
0.239492428885748
40
0.239492428885748
40
0.269428982496466
40
0.269428982496466
40
0.299365536107185
40
0.299365536107185
40
0.329302089717903
40
0.329302089717903
40
0.359238643328621
40
0.359238643328621
40
0.38917519693934
40
0.38917519693934
40
0.419111750550058
40
0.419111750550058
40
0.449048304160777
40
0.449048304160777
40
0.478984857771495
40
0.478984857771495
40
0.508921411382213
40
0.508921411382213
40
0.538857964992932
40
0.538857964992932
40
0.56879451860365
40
0.56879451860365
40
0.598731072214368
40
0.598731072214368
40
0.628667625825087
40
0.628667625825087
40
0.658604179435805
40
0.658604179435805
40
0.718477286657241
40
0.718477286657241
40
0.748413840267959
40
0.748413840267959
40
0.778350393878676
40
0.778350393878676
40
0.808286947489394
40
0.808286947489394
40
0.838223501100111
40
0.838223501100111
40
0.868160054710829
40
0.868160054710829
40
0.898096608321546
40
0.898096608321546
40
0.928033161932264
40
0.928033161932264
40
0.957969715542981
40
0.957969715542981
40
0.987906269153698
40
0.987906269153698
40
1
40
1
40
1
40
1
41
1
10
7.94822207791194
20
2.29807152372675
30
0
41
1
10
8.33618353001708
20
2.41621143498503
30
0
41
1
10
8.72553812399497
20
2.51144600057225
30
0
41
1
10
9.3068470361242
20
2.62518825066357
30
0
41
1
10
9.50063217812968
20
2.65772150863495
30
0
41
1
10
9.88990635901243
20
2.71117728527406
30
0
41
1
10
10.0847142207845
20
2.73225117465893
30
0
41
1
10
10.472801350443
20
2.76312194991223
30
0
41
1
10
10.6661186289198
20
2.77287127103443
30
0
41
1
10
11.0541351730479
20
2.78058375316851
30
0
41
1
10
11.2485000559491
20
2.77868773768077
30
0
41
1
10
11.6374037161289
20
2.76331607775481
30
0
41
1
10
11.8315174183767
20
2.74965389893839
30
0
41
1
10
12.2196223599549
20
2.71113462091469
30
0
41
1
10
12.4138349380063
20
2.68636261233107
30
0
41
1
10
12.801989318619
20
2.62569664752434
30
0
41
1
10
12.9956262301897
20
2.58955824478244
30
0
41
1
10
13.3836795830395
20
2.50646654705426
30
0
41
1
10
13.5786384770111
20
2.45981596830987
30
0
41
1
10
13.9674131664381
20
2.35672635870898
30
0
41
1
10
14.1613360940715
20
2.30008600232662
30
0
41
1
10
14.5485028183214
20
2.17664709927536
30
0
41
1
10
14.742465479687
20
2.11065880515031
30
0
41
1
10
15.1311701572141
20
1.9703956285162
30
0
41
1
10
15.3261048895574
20
1.89591586707522
30
0
41
1
10
15.7140523344403
20
1.73806660150632
30
0
41
1
10
15.9077738146025
20
1.65551606259521
30
0
41
1
10
16.2958901139565
20
1.48511466210726
30
0
41
1
10
16.4900574615511
20
1.39694561067156
30
0
41
1
10
16.877969655858
20
1.21352818183084
30
0
41
1
10
17.0720032212923
20
1.11812713732059
30
0
41
1
10
17.4608793073559
20
0.925276971829732
30
0
41
1
10
17.6552018899898
20
0.827326813409627
30
0
41
1
10
18.0430958495595
20
0.627454260284253
30
0
41
1
10
18.2363235392237
20
0.524880068343549
30
0
41
1
10
18.6242324132162
20
0.319765506320749
30
0
41
1
10
18.8188668321089
20
0.216830707013514
30
0
41
1
10
19.2080238616226
20
0.009567164199467
30
0
41
1
10
19.4016571175922
20
-0.0951300974297737
30
0
41
1
10
19.7891402574011
20
-0.302663843148167
30
0
41
1
10
19.9831982615286
20
-0.40512158036816
30
0
41
1
10
20.3714008949961
20
-0.60846287571988
30
0
41
1
10
20.5653486521296
20
-0.709705172617561
30
0
41
1
10
21.1478246030521
20
-1.01006223943392
30
0
41
1
10
21.5366964671163
20
-1.19939644852386
30
0
41
1
10
22.1173446977354
20
-1.47140506428025
30
0
41
1
10
22.3111959241976
20
-1.55888926265226
30
0
41
1
10
22.7002161346092
20
-1.72646044530217
30
0
41
1
10
22.8949676871166
20
-1.80670292468983
30
0
41
1
10
23.2825727502683
20
-1.96037260211557
30
0
41
1
10
23.4759125608857
20
-2.03348795045068
30
0
41
1
10
23.8638008812832
20
-2.16963879407336
30
0
41
1
10
24.0580124421357
20
-2.23315846024514
30
0
41
1
10
24.4464376139084
20
-2.35159636377168
30
0
41
1
10
24.6404235337914
20
-2.40669353200337
30
0
41
1
10
25.0285171944779
20
-2.50513889373289
30
0
41
1
10
25.2226336889721
20
-2.548936667285
30
0
41
1
10
25.6104405671072
20
-2.62622022932027
30
0
41
1
10
25.8037603800333
20
-2.65986651198574
30
0
41
1
10
26.1917033383879
20
-2.71549501916869
30
0
41
1
10
26.3866026099261
20
-2.73755303502836
30
0
41
1
10
26.7751430413539
20
-2.77027676829741
30
0
41
1
10
26.9687398946575
20
-2.78099795329192
30
0
41
1
10
27.2404268632822
20
-2.78781567623474
30
0
41
1
10
27.3186748567526
20
-2.78882197667059
30
0
41
1
10
27.3969822221368
20
-2.78888085140804
30
0
0
SPLINE
5
D1
100
AcDbEntity
8
1
62
256
6
ByLayer
370
18
48
1
60
0
100
AcDbSpline
70
4
71
3
72
26
73
22
40
0
40
0
40
0
40
0
40
0.007060654356084
40
0.007060654356084
40
0.11738724831652
40
0.11738724831652
40
0.227713842276954
40
0.227713842276954
40
0.33804043623739
40
0.33804043623739
40
0.448367030197825
40
0.448367030197825
40
0.55869362415826
40
0.55869362415826
40
0.669020218118695
40
0.669020218118695
40
0.77934681207913
40
0.77934681207913
40
0.889673406039565
40
0.889673406039565
40
1
40
1
40
1
40
1
41
1
10
39.9242446795257
20
2.07509985655309
30
0
41
1
10
39.9366255964399
20
2.07958646137058
30
0
41
1
10
39.9490069674033
20
2.08405429419665
30
0
41
1
10
40.1548660180065
20
2.15801627611927
30
0
41
1
10
40.3487589436841
20
2.22262568721465
30
0
41
1
10
40.7368378272352
20
2.34280920039331
30
0
41
1
10
40.9311244139029
20
2.39862305094903
30
0
41
1
10
41.3186603656101
20
2.50016859706008
30
0
41
1
10
41.5125183585079
20
2.5453139497312
30
0
41
1
10
41.9002355020832
20
2.62486592140039
30
0
41
1
10
42.0940207980269
20
2.65933520418207
30
0
41
1
10
42.4809429913835
20
2.71764550066905
30
0
41
1
10
42.6749468858196
20
2.74109923886479
30
0
41
1
10
43.0637027956875
20
2.77632882825304
30
0
41
1
10
43.2579335085339
20
2.78819555578767
30
0
41
1
10
43.6453958521168
20
2.80042114328339
30
0
41
1
10
43.8388055806158
20
2.80065704731172
30
0
41
1
10
44.2272713830733
20
2.78949347173813
30
0
41
1
10
44.4218931390413
20
2.7781427965019
30
0
41
1
10
44.8098011284968
20
2.74385828317378
30
0
41
1
10
45.003004701917
20
2.72071122808811
30
0
41
1
10
45.196930139994
20
2.69215938735258
30
0
0
SPLINE
5
D2
100
AcDbEntity
8
1
62
256
6
ByLayer
370
18
48
1
60
0
100
AcDbSpline
70
4
71
3
72
10
73
6
40
0
40
0
40
0
40
0
40
0.5
40
0.5
40
1
40
1
40
1
40
1
41
1
10
45.9998035835515
20
0.0313837039138036
30
0
41
1
10
45.9976472951116
20
0.021698578639473
30
0
41
1
10
45.9946453640122
20
0.0114419729969768
30
0
41
1
10
45.9872681543667
20
-0.0079270357066434
30
0
41
1
10
45.982898095256
20
-0.0169782776188185
30
0
41
1
10
45.978422752483
20
-0.0242868332266255
30
0
0
SPLINE
5
D3
100
AcDbEntity
8
1
62
256
6
ByLayer
370
18
48
1
60
0
100
AcDbSpline
70
4
71
3
72
10
73
6
40
0
40
0
40
0
40
0
40
0.5
40
0.5
40
1
40
1
40
1
40
1
41
1
10
45.1969301399937
20
-2.69215938735351
30
0
41
1
10
45.306457814857
20
-2.38072208049309
30
0
41
1
10
45.4181647787747
20
-2.07085897238809
30
0
41
1
10
45.6447850641596
20
-1.4532721675148
30
0
41
1
10
45.7596938481096
20
-1.14555241090295
30
0
41
1
10
45.8754186089146
20
-0.838474043925515
30
0
0
SPLINE
5
D4
100
AcDbEntity
8
1
62
256
6
ByLayer
370
18
48
1
60
0
100
AcDbSpline
70
4
71
3
72
12
73
8
40
0
40
0
40
0
40
0
40
0.764087890731302
40
0.764087890731302
40
0.955109863414135
40
0.955109863414135
40
1
40
1
40
1
40
1
41
1
10
45.1067494378582
20
-2.65511678740478
30
0
41
1
10
44.2358945824721
20
-2.68172379984159
30
0
41
1
10
43.375752888694
20
-2.59540546745734
30
0
41
1
10
42.2882321000694
20
-2.3584715305947
30
0
41
1
10
42.0694355200167
20
-2.30442963847952
30
0
41
1
10
41.8001385019581
20
-2.23061090456613
30
0
41
1
10
41.7489489220956
20
-2.2162545556161
30
0
41
1
10
41.6978082064581
20
-2.20159500830283
30
0
0
SPLINE
5
D5
100
AcDbEntity
8
1
62
256
6
ByLayer
370
13
48
1
60
0
100
AcDbSpline
70
4
71
3
72
24
73
20
40
0
40
0
40
0
40
0
40
0.0591418773328122
40
0.0591418773328122
40
0.213761102017259
40
0.213761102017259
40
0.368380326701706
40
0.368380326701706
40
0.44568993904393
40
0.44568993904393
40
0.522999551386153
40
0.522999551386153
40
0.832238000755043
40
0.832238000755043
40
0.909547613097264
40
0.909547613097264
40
0.986857225439484
40
0.986857225439484
40
1
40
1
40
1
40
1
41
1
10
41.6978083159516
20
-2.20159503968927
30
0
41
1
10
41.5313287974561
20
-2.15387348803949
30
0
41
1
10
41.3653670992478
20
-2.10293890566652
30
0
41
1
10
40.766856306261
20
-1.90806157349712
30
0
41
1
10
40.3365135701232
20
-1.74665758923476
30
0
41
1
10
39.4754954051994
20
-1.39171065355978
30
0
41
1
10
39.0447347837712
20
-1.19817991823024
30
0
41
1
10
38.3944586971696
20
-0.890053518579123
30
0
41
1
10
38.1769910581437
20
-0.784419061770166
30
0
41
1
10
37.7398827276479
20
-0.568622555891494
30
0
41
1
10
37.521910271887
20
-0.459298004605984
30
0
41
1
10
36.4369778248088
20
0.0892395562800061
30
0
41
1
10
35.5811154324507
20
0.536219062907207
30
0
41
1
10
34.4993779938115
20
1.0513591074947
30
0
41
1
10
34.2824371037495
20
1.15222317202924
30
0
41
1
10
33.8465543364691
20
1.34799389860066
30
0
41
1
10
33.6273672229573
20
1.44297577715528
30
0
41
1
10
33.3727410597636
20
1.54892051347326
30
0
41
1
10
33.3357653024378
20
1.56418502644266
30
0
41
1
10
33.2988096002649
20
1.57931842310904
30
0
0
SPLINE
5
D6
100
AcDbEntity
8
1
62
256
6
ByLayer
370
18
48
1
60
0
100
AcDbSpline
70
4
71
3
72
16
73
12
40
0
40
0
40
0
40
0
40
0.210889797343506
40
0.210889797343506
40
0.382211882361741
40
0.382211882361741
40
0.553533967379975
40
0.553533967379975
40
0.896178137416444
40
0.896178137416444
40
1
40
1
40
1
40
1
41
1
10
12.0641982858189
20
-2.63916822831158
30
0
41
1
10
11.7978311972529
20
-2.63827043400607
30
0
41
1
10
11.5309389997272
20
-2.62700645382387
30
0
41
1
10
11.0451167278285
20
-2.58753396494413
30
0
41
1
10
10.8259329193565
20
-2.56281883264416
30
0
41
1
10
10.3891428702826
20
-2.50020256476233
30
0
41
1
10
10.1716455080942
20
-2.46234206506418
30
0
41
1
10
9.52077485483252
20
-2.3301534377039
30
0
41
1
10
9.0890055834804
20
-2.21726694548511
30
0
41
1
10
8.52575750307682
20
-2.04188306396455
30
0
41
1
10
8.39473057926875
20
-1.99910629329864
30
0
41
1
10
8.26358005446954
20
-1.95443090336462
30
0
0
SPLINE
5
D7
100
AcDbEntity
8
1
62
256
6
ByLayer
370
13
48
1
60
0
100
AcDbSpline
70
4
71
3
72
14
73
10
40
0
40
0
40
0
40
0
40
0.188530646632713
40
0.188530646632713
40
0.323775538860593
40
0.323775538860593
40
0.459020431088472
40
0.459020431088472
40
1
40
1
40
1
40
1
41
1
10
8.26357910842529
20
-1.95443058110209
30
0
41
1
10
7.96189276242154
20
-1.85166349069559
30
0
41
1
10
7.6595523922015
20
-1.73885003251542
30
0
41
1
10
7.13762895854092
20
-1.52982272342209
30
0
41
1
10
6.91820497550344
20
-1.43765846256025
30
0
41
1
10
6.48178271248386
20
-1.24731719568121
30
0
41
1
10
6.26440451846449
20
-1.14900089098748
30
0
41
1
10
5.17996806660437
20
-0.644980973256651
30
0
41
1
10
4.32048773001895
20
-0.20175297156527
30
0
41
1
10
3.4470201880591
20
0.238413074949023
30
0
0
SPLINE
5
D8
100
AcDbEntity
8
1
62
256
6
ByLayer
370
18
48
1
60
0
100
AcDbSpline
70
4
71
3
72
8
73
4
40
0
40
0
40
0
40
0
40
1
40
1
40
1
40
1
41
1
10
7.12136257009214
20
2.08677919833991
30
0
41
1
10
7.39933884286853
20
2.15897870461876
30
0
41
1
10
7.67467651568768
20
2.23037975254354
30
0
41
1
10
7.94822207791191
20
2.29807152372675
30
0
0
SPLINE
5
D9
100
AcDbEntity
8
1
62
256
6
ByLayer
370
18
48
1
60
0
100
AcDbSpline
70
4
71
3
72
8
73
4
40
0
40
0
40
0
40
0
40
1
40
1
40
1
40
1
41
1
10
45.0980425419102
20
-2.74484596123301
30
0
41
1
10
45.0927054668171
20
-2.75885687214546
30
0
41
1
10
45.0873620786942
20
-2.77285971300344
30
0
41
1
10
45.0820123520591
20
-2.78685446458783
30
0
0
LINE
5
76
100
AcDbEntity
8
81
62
256
6
ByLayer
370
18
48
1
60
0
100
AcDbLine
10
46
20
0
30
0
11
51
21
0
31
0
39
0
210
0
220
0
230
1
0
LINE
5
77
100
AcDbEntity
8
1
62
256
6
ByLayer
370
18
48
1
60
0
100
AcDbLine
10
3.222915
20
2.773766
30
0
11
0.2
21
2.771877
31
0
39
0
210
0
220
0
230
1
0
LINE
5
79
100
AcDbEntity
8
1
62
256
6
ByLayer
370
18
48
1
60
0
100
AcDbLine
10
11.878389
20
2.779176
30
0
11
11.048861
21
2.778658
31
0
39
0
210
0
220
0
230
1
0
LINE
5
7A
100
AcDbEntity
8
1
62
256
6
ByLayer
370
18
48
1
60
0
100
AcDbLine
10
28.228816
20
2.789395
30
0
11
27.398498
21
2.788876
31
0
39
0
210
0
220
0
230
1
0
LINE
5
7B
100
AcDbEntity
8
1
62
256
6
ByLayer
370
18
48
1
60
0
100
AcDbLine
10
44.579572
20
2.799614
30
0
11
43.749047
21
2.799095
31
0
39
0
210
0
220
0
230
1
0
LINE
5
7C
100
AcDbEntity
8
1
62
256
6
ByLayer
370
18
48
1
60
0
100
AcDbLine
10
43.749047
20
-2.799095
30
0
11
44.579157
21
-2.799614
31
0
39
0
210
0
220
0
230
1
0
LINE
5
7D
100
AcDbEntity
8
1
62
256
6
ByLayer
370
18
48
1
60
0
100
AcDbLine
10
27.398498
20
-2.788876
30
0
11
28.228697
21
-2.789395
31
0
39
0
210
0
220
0
230
1
0
LINE
5
7E
100
AcDbEntity
8
1
62
256
6
ByLayer
370
18
48
1
60
0
100
AcDbLine
10
0.2
20
-2.771877
30
0
11
3.222915
21
-2.773766
31
0
39
0
210
0
220
0
230
1
0
LINE
5
7F
100
AcDbEntity
8
1
62
256
6
ByLayer
370
18
48
1
60
0
100
AcDbLine
10
0
20
-3
30
0
11
0.2
21
-2.771877
31
0
39
0
210
0
220
0
230
1
0
LINE
5
80
100
AcDbEntity
8
1
62
256
6
ByLayer
370
18
48
1
60
0
100
AcDbLine
10
0.2
20
2.771877
30
0
11
0
21
3
31
0
39
0
210
0
220
0
230
1
0
LINE
5
81
100
AcDbEntity
8
1
62
256
6
ByLayer
370
18
48
1
60
0
100
AcDbLine
10
11.048861
20
-2.778658
30
0
11
11.878394
21
-2.779176
31
0
39
0
210
0
220
0
230
1
0
LINE
5
82
100
AcDbEntity
8
SK1
62
256
6
ByLayer
370
18
48
1
60
0
100
AcDbLine
10
0
20
3
30
0
11
-35.278312
21
3
31
0
39
0
210
0
220
0
230
1
0
LINE
5
84
100
AcDbEntity
8
SK1
62
256
6
ByLayer
370
18
48
1
60
0
100
AcDbLine
10
-35.278312
20
-3
30
0
11
0
21
-3
31
0
39
0
210
0
220
0
230
1
0
LINE
5
85
100
AcDbEntity
8
SK1
62
256
6
ByLayer
370
18
48
1
60
0
100
AcDbLine
10
-35.278312
20
3
30
0
11
-36
21
1.75
31
0
39
0
210
0
220
0
230
1
0
LINE
5
86
100
AcDbEntity
8
SK1
62
256
6
ByLayer
370
18
48
1
60
0
100
AcDbLine
10
-36
20
-1.75
30
0
11
-35.278312
21
-3
31
0
39
0
210
0
220
0
230
1
0
LINE
5
87
100
AcDbEntity
8
SK4
62
256
6
ByLayer
370
18
48
0.05
60
0
100
AcDbLine
10
51
20
0
30
0
11
-41
21
0
31
0
39
0
210
0
220
0
230
1
0
LINE
5
89
100
AcDbEntity
8
4
62
256
6
ByLayer
370
18
48
0.05
60
0
100
AcDbLine
10
46
20
0
30
0
11
0
21
0
31
0
39
0
210
0
220
0
230
1
0
LINE
5
8B
100
AcDbEntity
8
80
62
256
6
ByLayer
370
18
48
1
60
0
100
AcDbLine
10
0
20
0
30
0
11
-5
21
0
31
0
39
0
210
0
220
0
230
1
0
LINE
5
8C
100
AcDbEntity
8
1
62
256
6
ByLayer
370
13
48
1
60
0
100
AcDbLine
10
44.903413
20
0.775833
30
0
11
45.993305
21
0.085905
31
0
39
0
210
0
220
0
230
1
0
LINE
5
8D
100
AcDbEntity
8
1
62
256
6
ByLayer
370
18
48
1
60
0
100
AcDbLine
10
0.2
20
2.771877
30
0
11
0.2
21
-2.771877
31
0
39
0
210
0
220
0
230
1
0
LINE
5
8E
100
AcDbEntity
8
1
62
256
6
ByLayer
370
18
48
1
60
0
100
AcDbLine
10
0
20
-3
30
0
11
0
21
3
31
0
39
0
210
0
220
0
230
1
0
LINE
5
8F
100
AcDbEntity
8
1
62
256
6
ByLayer
370
13
48
1
60
0
100
AcDbLine
10
44.813762
20
0.712971
30
0
11
45.978423
21
-0.024287
31
0
39
0
210
0
220
0
230
1
0
LINE
5
90
100
AcDbEntity
8
SK1
62
256
6
ByLayer
370
18
48
1
60
0
100
AcDbLine
10
-35.278312
20
3
30
0
11
-35.278312
21
-3
31
0
39
0
210
0
220
0
230
1
0
LINE
5
91
100
AcDbEntity
8
SK1
62
256
6
ByLayer
370
18
48
1
60
0
100
AcDbLine
10
-36
20
1.75
30
0
11
-36
21
-1.75
31
0
39
0
210
0
220
0
230
1
0
LINE
5
92
100
AcDbEntity
8
SK1
62
256
6
ByLayer
370
18
48
1
60
0
100
AcDbLine
10
0
20
-3
30
0
11
0
21
3
31
0
39
0
210
0
220
0
230
1
0
MTEXT
5
DA
100
AcDbEntity
8
SK6
62
256
6
ByLayer
370
13
48
1
60
0
100
AcDbMText
10
7.129169
20
35.182694
30
0
210
0
220
0
230
1
1
\W0.7645;460.1-0560-028A0-XM GC34
40
3.5
41
0
44
1.084337
50
0
71
8
72
5
7
iso_b_vert
0
DIMENSION
5
E7
100
AcDbEntity
8
SK2
62
256
6
ByLayer
370
13
48
1
60
0
100
AcDbDimension
2
DimnDraft3D1
10
45.1791
20
-13.013398
30
0
11
21.429159
21
-13.013398
31
0
70
32
71
5
72
1
41
1
210
0
220
0
230
1
3
Standard
100
AcDbAlignedDimension
13
0
23
-1.5875
33
0
14
45.1791
24
-4.3875
34
0
50
0
100
AcDbRotatedDimension
1001
ACAD
1000
DSTYLE
1002
{
1070
   279
1070
     0
1070
   172
1070
     1
1070
   173
1070
     1
1070
   340
1005
DB
1070
   271
1070
     2
1070
   272
1070
     2
1070
    77
1070
     1
1070
    73
1070
     0
1070
   171
1070
     3
1070
   274
1070
     4
1070
   177
1070
    35
1070
   176
1070
    35
1070
   178
1070
    35
1070
    48
1040
-0.005
1070
    41
1041
3.5
1070
   147
1041
1.75
1070
    42
1041
1.5875
1070
    44
1041
2.0
1070
   140
1041
3.5
1070
   343
1005
0
1070
   344
1005
0
1002
}
0
DIMENSION
5
F1
100
AcDbEntity
8
SK2
62
256
6
ByLayer
370
13
48
1
60
0
100
AcDbDimension
2
DimnDraft3D2
10
46
20
-31.692985
30
0
11
5.5204
21
-31.692985
31
0
70
32
71
5
72
1
41
1
210
0
220
0
230
1
3
Standard
100
AcDbAlignedDimension
13
-36
23
-4.5875
33
0
14
46
24
-1.5875
34
0
50
0
100
AcDbRotatedDimension
1001
ACAD
1000
DSTYLE
1002
{
1070
   279
1070
     0
1070
   172
1070
     1
1070
   173
1070
     1
1070
   340
1005
DB
1070
   271
1070
     2
1070
   272
1070
     2
1070
    77
1070
     1
1070
    73
1070
     0
1070
   171
1070
     3
1070
   274
1070
     4
1070
   177
1070
    35
1070
   176
1070
    35
1070
   178
1070
    35
1070
    48
1040
-0.005
1070
    41
1041
3.5
1070
   147
1041
1.75
1070
    42
1041
1.5875
1070
    44
1041
2.0
1070
   140
1041
3.5
1070
   343
1005
0
1070
   344
1005
0
1002
}
0
DIMENSION
5
FB
100
AcDbEntity
8
SK2
62
256
6
ByLayer
370
13
48
1
60
0
100
AcDbDimension
2
DimnDraft3D3
10
46
20
14.409119
30
0
11
31.59
21
14.409119
31
0
70
32
71
5
72
1
41
1
210
0
220
0
230
1
3
Standard
100
AcDbAlignedDimension
13
17.18
23
4.3875
33
0
14
46
24
1.5875
34
0
50
0
100
AcDbRotatedDimension
1001
ACAD
1000
DSTYLE
1002
{
1070
   279
1070
     0
1070
   172
1070
     1
1070
   173
1070
     1
1070
   340
1005
DB
1070
   271
1070
     2
1070
   272
1070
     2
1070
    77
1070
     1
1070
    73
1070
     0
1070
   171
1070
     3
1070
   274
1070
     4
1070
   177
1070
    35
1070
   176
1070
    35
1070
   178
1070
    35
1070
    48
1040
-0.005
1070
    41
1041
3.5
1070
   147
1041
1.75
1070
    42
1041
1.5875
1070
    44
1041
2.0
1070
   140
1041
3.5
1070
   343
1005
0
1070
   344
1005
0
1002
}
0
DIMENSION
5
105
100
AcDbEntity
8
SK2
62
256
6
ByLayer
370
13
48
1
60
0
100
AcDbDimension
2
DimnDraft3D4
10
45.1791
20
-15.602503
30
0
11
55.981425
21
-15.602503
31
0
70
32
71
5
72
1
41
1
210
0
220
0
230
1
3
Standard
100
AcDbAlignedDimension
13
46
23
-1.5875
33
0
14
45.1791
24
-4.3875
34
0
50
0
100
AcDbRotatedDimension
1001
ACAD
1000
DSTYLE
1002
{
1070
   279
1070
     0
1070
   172
1070
     1
1070
   173
1070
     1
1070
   340
1005
DB
1070
   271
1070
     2
1070
   272
1070
     2
1070
    77
1070
     1
1070
    73
1070
     0
1070
   171
1070
     3
1070
   274
1070
     4
1070
   177
1070
    35
1070
   176
1070
    35
1070
   178
1070
    35
1070
    48
1040
-0.005
1070
    41
1041
3.5
1070
   147
1041
1.75
1070
    42
1041
1.5875
1070
    44
1041
2.0
1070
   140
1041
3.5
1070
   343
1005
0
1070
   344
1005
0
1002
}
0
DIMENSION
5
10F
100
AcDbEntity
8
SK2
62
256
6
ByLayer
370
13
48
1
60
0
100
AcDbDimension
2
DimnDraft3D5
10
45.1791
20
-21.343428
30
0
11
2.439776
21
-21.343428
31
0
70
32
71
5
72
1
41
1
210
0
220
0
230
1
3
Standard
100
AcDbAlignedDimension
13
-36
23
-4.5875
33
0
14
45.1791
24
-4.3875
34
0
50
0
100
AcDbRotatedDimension
1001
ACAD
1000
DSTYLE
1002
{
1070
   279
1070
     0
1070
   172
1070
     1
1070
   173
1070
     1
1070
   340
1005
DB
1070
   271
1070
     2
1070
   272
1070
     2
1070
    77
1070
     1
1070
    73
1070
     0
1070
   171
1070
     3
1070
   274
1070
     4
1070
   177
1070
    35
1070
   176
1070
    35
1070
   178
1070
    35
1070
    48
1040
-0.005
1070
    41
1041
3.5
1070
   147
1041
1.75
1070
    42
1041
1.5875
1070
    44
1041
2.0
1070
   140
1041
3.5
1070
   343
1005
0
1070
   344
1005
0
1002
}
0
DIMENSION
5
11A
100
AcDbEntity
8
SK2
62
256
6
ByLayer
370
13
48
1
60
0
100
AcDbDimension
2
DimnDraft3D6
10
-46.625163
20
3
30
0
11
-47.250163
21
21.47418
31
0
70
33
71
5
72
1
41
1
210
0
220
0
230
1
3
Standard
100
AcDbAlignedDimension
13
-37.5875
23
-3
33
0
14
-37.5875
24
3
34
0
1001
ACAD
1000
DSTYLE
1002
{
1070
   279
1070
     0
1070
    74
1070
     0
1070
   173
1070
     1
1070
   340
1005
DB
1070
   271
1070
     3
1070
   272
1070
     2
1070
    77
1070
     1
1070
    73
1070
     0
1070
   171
1070
     3
1070
   274
1070
     4
1070
   177
1070
    35
1070
   176
1070
    35
1070
   178
1070
    35
1070
    48
1040
-0.005
1070
    41
1041
3.5
1070
   147
1041
1.75
1070
    42
1041
1.5875
1070
    44
1041
2.0
1070
   140
1041
3.5
1070
   343
1005
0
1070
   344
1005
0
1002
}
0
DIMENSION
5
125
100
AcDbEntity
8
2
62
256
6
ByLayer
370
13
48
1
60
0
100
AcDbDimension
2
DimnDraft3D7
10
60.083343
20
2.8
30
0
11
55.458343
21
19.867266
31
0
70
33
71
5
72
1
41
1
210
0
220
0
230
1
3
Standard
100
AcDbAlignedDimension
13
46.7666
23
-2.8
33
0
14
46.7666
24
2.8
34
0
1001
ACAD
1000
DSTYLE
1002
{
1070
   279
1070
     0
1070
    74
1070
     0
1070
   173
1070
     1
1070
   340
1005
DB
1070
   271
1070
     3
1070
   272
1070
     2
1070
    77
1070
     1
1070
    73
1070
     0
1070
   171
1070
     3
1070
   274
1070
     4
1070
   177
1070
    35
1070
   176
1070
    35
1070
   178
1070
    35
1070
    48
1040
-0.005
1070
    41
1041
3.5
1070
   147
1041
1.75
1070
    42
1041
1.5875
1070
    44
1041
2.0
1070
   140
1041
3.5
1070
   343
1005
0
1070
   344
1005
0
1002
}
0
ENDSEC
0
SECTION
2
OBJECTS
0
DICTIONARY
5
190
330
0
100
AcDbDictionary
280
0
281
1
3
ACAD_GROUP
350
191
3
ACAD_MLINESTYLE
350
192
0
DICTIONARY
5
191
330
0
100
AcDbDictionary
280
0
281
1
0
DICTIONARY
5
192
330
0
100
AcDbDictionary
280
0
281
1
3
Standard
350
18
0
MLINESTYLE
5
18
330
192
100
AcDbMlineStyle
2
Standard
70
0
3

62
256
51
90
52
90
71
2
49
-0.5
62
256
6
ByLayer
49
0.5
62
256
6
ByLayer
0
RASTERVARIABLES
5
17e
330

100
AcDbRasterVariables
90
0
70
1
71
1
72
1
0
ENDSEC
0
EOF
