0
SECTION
2
HEADER
9
$ACADVER
1
AC1015
9
$DWGCODEPAGE
3
ANSI_1252
9
$HANDSEED
5
193
9
$ANGBASE
50
0
9
$ANGDIR
70
0
9
$ATTMODE
70
1
9
$AUNITS
70
0
9
$AUPREC
70
0
9
$CECOLOR
62
256
9
$CELTSCALE
40
1
9
$CELTYPE
6
ByLayer
9
$CELWEIGHT
370
18
9
$CLAYER
8
0
9
$CMLJUST
70
0
9
$CMLSCALE
40
1
9
$CMLSTYLE
2
Standard
9
$DIMSTYLE
2
Standard
9
$TEXTSIZE
40
0.2
9
$TEXTSTYLE
7
Standard
9
$LUNITS
70
2
9
$LUPREC
70
4
9
$EXTNAMES
290
1
9
$INSUNITS
70
4
9
$LTSCALE
40
1
9
$LWDISPLAY
290
1
9
$PDMODE
70
0
9
$PDSIZE
40
0
9
$PLINEGEN
70
0
0
ENDSEC
0
SECTION
2
CLASSES
0
CLASS
1
RASTERVARIABLES
2
AcDbRasterVariables
3
ISM
90
0
280
0
281
0
0
ENDSEC
0
SECTION
2
TABLES
0
TABLE
2
VPORT
5
189
100
AcDbSymbolTable
0
VPORT
5
1
100
AcDbSymbolTableRecord
100
AcDbViewportTableRecord
2
*Active
70
0
10
0
20
0
11
1
21
1
12
-1
22
1
13
0
23
0
14
0.5
24
0.5
15
10
25
10
16
0
26
0
36
1
17
0
27
0
37
0
0
ENDTAB
0
TABLE
2
LTYPE
5
18a
100
AcDbSymbolTable
0
LTYPE
5
14
100
AcDbSymbolTableRecord
100
AcDbLinetypeTableRecord
70
0
2
ByBlock
3

72
65
73
0
40
0
0
LTYPE
5
15
100
AcDbSymbolTableRecord
100
AcDbLinetypeTableRecord
70
0
2
ByLayer
3

72
65
73
0
40
0
0
LTYPE
5
16
100
AcDbSymbolTableRecord
100
AcDbLinetypeTableRecord
70
0
2
CONTINUOUS
3
Solid line
72
65
73
0
40
0
0
LTYPE
5
6A
100
AcDbSymbolTableRecord
100
AcDbLinetypeTableRecord
70
0
2
CENTER
3
____ _ ____ _ ____ _ ____
72
65
73
4
40
47.5
49
22
74
0
49
-8.5
74
0
49
8.5
74
0
49
-8.5
74
0
0
LTYPE
5
6B
100
AcDbSymbolTableRecord
100
AcDbLinetypeTableRecord
70
0
2
DASHED
3
__ __ __ __ __ __ __ __ __
72
65
73
2
40
25.72
49
12.86
74
0
49
-12.86
74
0
0
ENDTAB
0
TABLE
2
LAYER
5
18b
100
AcDbSymbolTable
0
LAYER
5
10
100
AcDbSymbolTableRecord
100
AcDbLayerTableRecord
2
0
70
0
62
7
6
CONTINUOUS
290
1
370
-3
390
0
0
LAYER
5
6D
100
AcDbSymbolTableRecord
100
AcDbLayerTableRecord
2
81
70
0
62
-3
6
CONTINUOUS
290
1
370
-3
390
0
0
LAYER
5
6F
100
AcDbSymbolTableRecord
100
AcDbLayerTableRecord
2
80
70
0
62
-6
6
CONTINUOUS
290
1
370
-3
390
0
0
LAYER
5
74
100
AcDbSymbolTableRecord
100
AcDbLayerTableRecord
2
2
70
0
62
7
6
CONTINUOUS
290
1
370
-3
390
0
0
LAYER
5
78
100
AcDbSymbolTableRecord
100
AcDbLayerTableRecord
2
1
70
0
62
4
6
CONTINUOUS
290
1
370
-3
390
0
0
LAYER
5
88
100
AcDbSymbolTableRecord
100
AcDbLayerTableRecord
2
4
70
0
62
-2
6
CENTER
290
1
370
-3
390
0
0
LAYER
5
175
100
AcDbSymbolTableRecord
100
AcDbLayerTableRecord
2
SK2
70
0
62
7
6
CONTINUOUS
290
1
370
-3
390
0
0
LAYER
5
176
100
AcDbSymbolTableRecord
100
AcDbLayerTableRecord
2
SK1
70
0
62
4
6
CONTINUOUS
290
1
370
-3
390
0
0
LAYER
5
177
100
AcDbSymbolTableRecord
100
AcDbLayerTableRecord
2
SK4
70
0
62
2
6
CENTER
290
1
370
-3
390
0
0
LAYER
5
178
100
AcDbSymbolTableRecord
100
AcDbLayerTableRecord
2
SK6
70
0
62
5
6
CONTINUOUS
290
1
370
-3
390
0
0
ENDTAB
0
TABLE
2
STYLE
5
18c
100
AcDbSymbolTable
0
STYLE
5
11
100
AcDbSymbolTableRecord
100
AcDbTextStyleTableRecord
2
Standard
3
txt
70
0
71
0
40
0
41
1
42
0
50
0
0
STYLE
5
D1
100
AcDbSymbolTableRecord
100
AcDbTextStyleTableRecord
2
iso_b_vert
3
simplex.shx
70
0
71
0
40
0
41
1
42
0
50
0
0
STYLE
5
D2
100
AcDbSymbolTableRecord
100
AcDbTextStyleTableRecord
2
DWGDirectTextStyle
3
simplex
70
0
71
0
40
0
41
1
42
0
50
0
0
ENDTAB
0
TABLE
2
DIMSTYLE
5
18d
100
AcDbSymbolTable
100
AcDbDimStyleTable
0
DIMSTYLE
105
27
100
AcDbSymbolTableRecord
100
AcDbDimStyleTableRecord
2
Standard
70
0
3
<>
41
0.18
42
0.0625
44
0.18
140
0.18
147
0.09
73
0
74
0
77
1
271
2
275
0
278
52
280
0
340
11
0
ENDTAB
0
TABLE
2
VIEW
5
18e
100
AcDbSymbolTable
0
ENDTAB
0
TABLE
2
UCS
5
18f
100
AcDbSymbolTable
0
ENDTAB
0
TABLE
2
APPID
5
190
100
AcDbSymbolTable
0
APPID
5
12
100
AcDbSymbolTableRecord
100
AcDbRegAppTableRecord
2
ACAD
70
0
0
ENDTAB
0
TABLE
2
BLOCK_RECORD
5
191
100
AcDbSymbolTable
0
BLOCK_RECORD
5
1F
100
AcDbSymbolTableRecord
100
AcDbBlockTableRecord
2
*Model_Space
340
0
70
0
0
BLOCK_RECORD
5
1B
100
AcDbSymbolTableRecord
100
AcDbBlockTableRecord
2
*Paper_Space
340
0
70
0
0
BLOCK_RECORD
5
23
100
AcDbSymbolTableRecord
100
AcDbBlockTableRecord
2
*Paper_Space0
340
0
70
0
0
BLOCK_RECORD
5
D4
100
AcDbSymbolTableRecord
100
AcDbBlockTableRecord
2
DimnDraft3D1
340
0
70
0
0
BLOCK_RECORD
5
DE
100
AcDbSymbolTableRecord
100
AcDbBlockTableRecord
2
DimnDraft3D2
340
0
70
0
0
BLOCK_RECORD
5
E8
100
AcDbSymbolTableRecord
100
AcDbBlockTableRecord
2
DimnDraft3D3
340
0
70
0
0
BLOCK_RECORD
5
F2
100
AcDbSymbolTableRecord
100
AcDbBlockTableRecord
2
DimnDraft3D4
340
0
70
0
0
BLOCK_RECORD
5
FC
100
AcDbSymbolTableRecord
100
AcDbBlockTableRecord
2
DimnDraft3D5
340
0
70
0
0
BLOCK_RECORD
5
106
100
AcDbSymbolTableRecord
100
AcDbBlockTableRecord
2
DimnDraft3D6
340
0
70
0
0
BLOCK_RECORD
5
111
100
AcDbSymbolTableRecord
100
AcDbBlockTableRecord
2
DimnDraft3D7
340
0
70
0
0
ENDTAB
0
ENDSEC
0
SECTION
2
BLOCKS
0
BLOCK
5
20
100
AcDbEntity
8
0
100
AcDbBlockBegin
2
*Model_Space
70
0
10
0
20
0
30
0
3
*Model_Space
0
ENDBLK
5
21
100
AcDbEntity
8
0
100
AcDbBlockEnd
0
BLOCK
5
1C
100
AcDbEntity
8
0
100
AcDbBlockBegin
2
*Paper_Space
70
0
10
0
20
0
30
0
3
*Paper_Space
0
ENDBLK
5
1D
100
AcDbEntity
8
0
100
AcDbBlockEnd
0
BLOCK
5
24
100
AcDbEntity
8
0
100
AcDbBlockBegin
2
*Paper_Space0
70
0
10
0
20
0
30
0
3
*Paper_Space0
0
ENDBLK
5
25
100
AcDbEntity
8
0
100
AcDbBlockEnd
0
BLOCK
5
DB
100
AcDbEntity
8
0
100
AcDbBlockBegin
2
DimnDraft3D1
70
0
10
0
20
0
30
0
3
DimnDraft3D1
0
MTEXT
5
D5
100
AcDbEntity
8
SK2
62
256
6
ByLayer
370
13
48
1
60
0
100
AcDbMText
10
9.423975
20
-12.116398
30
0
210
0
220
0
230
1
1
\W0.6791;29,19
40
3.5
41
0
44
1.084337
50
0
71
7
72
5
7
iso_b_vert
0
LINE
5
D6
100
AcDbEntity
8
SK2
62
256
6
ByLayer
370
13
48
1
60
0
100
AcDbLine
10
0
20
-1.5875
30
0
11
0
21
-14.991398
31
0
39
0
210
0
220
0
230
1
0
LINE
5
D7
100
AcDbEntity
8
SK2
62
256
6
ByLayer
370
13
48
1
60
0
100
AcDbLine
10
29.1851
20
-4.3655
30
0
11
29.1851
21
-14.991398
31
0
39
0
210
0
220
0
230
1
0
LINE
5
D8
100
AcDbEntity
8
SK2
62
256
6
ByLayer
370
13
48
1
60
0
100
AcDbLine
10
0
20
-12.991398
30
0
11
29.1851
21
-12.991398
31
0
39
0
210
0
220
0
230
1
0
SOLID
5
D9
100
AcDbEntity
8
SK2
62
256
6
ByLayer
370
13
48
1
60
0
100
AcDbTrace
10
0
20
-12.991398
30
0
11
3.499998
21
-12.530615
31
0
12
3.500002
22
-13.452182
32
0
13
0
23
-12.991398
33
0
39
0
210
0
220
0
230
1
0
SOLID
5
DA
100
AcDbEntity
8
SK2
62
256
6
ByLayer
370
13
48
1
60
0
100
AcDbTrace
10
29.1851
20
-12.991398
30
0
11
25.685102
21
-13.452182
31
0
12
25.685098
22
-12.530615
32
0
13
29.1851
23
-12.991398
33
0
39
0
210
0
220
0
230
1
0
ENDBLK
5
DC
100
AcDbEntity
8
0
100
AcDbBlockEnd
0
BLOCK
5
E5
100
AcDbEntity
8
0
100
AcDbBlockBegin
2
DimnDraft3D2
70
0
10
0
20
0
30
0
3
DimnDraft3D2
0
MTEXT
5
DF
100
AcDbEntity
8
SK2
62
256
6
ByLayer
370
13
48
1
60
0
100
AcDbMText
10
-6.922284
20
-30.817985
30
0
210
0
220
0
230
1
1
\W0.7317;66,00
40
3.5
41
0
44
1.084337
50
0
71
7
72
5
7
iso_b_vert
0
LINE
5
E0
100
AcDbEntity
8
SK2
62
256
6
ByLayer
370
13
48
1
60
0
100
AcDbLine
10
-36
20
-4.5875
30
0
11
-36
21
-33.692985
31
0
39
0
210
0
220
0
230
1
0
LINE
5
E1
100
AcDbEntity
8
SK2
62
256
6
ByLayer
370
13
48
1
60
0
100
AcDbLine
10
30
20
-1.5875
30
0
11
30
21
-33.692985
31
0
39
0
210
0
220
0
230
1
0
LINE
5
E2
100
AcDbEntity
8
SK2
62
256
6
ByLayer
370
13
48
1
60
0
100
AcDbLine
10
-36
20
-31.692985
30
0
11
30
21
-31.692985
31
0
39
0
210
0
220
0
230
1
0
SOLID
5
E3
100
AcDbEntity
8
SK2
62
256
6
ByLayer
370
13
48
1
60
0
100
AcDbTrace
10
-36
20
-31.692985
30
0
11
-32.500002
21
-31.232202
31
0
12
-32.499998
22
-32.153769
32
0
13
-36
23
-31.692985
33
0
39
0
210
0
220
0
230
1
0
SOLID
5
E4
100
AcDbEntity
8
SK2
62
256
6
ByLayer
370
13
48
1
60
0
100
AcDbTrace
10
30
20
-31.692985
30
0
11
26.500002
21
-32.153769
31
0
12
26.499998
22
-31.232202
32
0
13
30
23
-31.692985
33
0
39
0
210
0
220
0
230
1
0
ENDBLK
5
E6
100
AcDbEntity
8
0
100
AcDbBlockEnd
0
BLOCK
5
EF
100
AcDbEntity
8
0
100
AcDbBlockBegin
2
DimnDraft3D3
70
0
10
0
20
0
30
0
3
DimnDraft3D3
0
MTEXT
5
E9
100
AcDbEntity
8
SK2
62
256
6
ByLayer
370
13
48
1
60
0
100
AcDbMText
10
17.059605
20
15.262119
30
0
210
0
220
0
230
1
1
\W0.7059;17,49
40
3.5
41
0
44
1.084337
50
0
71
7
72
5
7
iso_b_vert
0
LINE
5
EA
100
AcDbEntity
8
SK2
62
256
6
ByLayer
370
13
48
1
60
0
100
AcDbLine
10
12.51
20
4.3655
30
0
11
12.51
21
16.387119
31
0
39
0
210
0
220
0
230
1
0
LINE
5
EB
100
AcDbEntity
8
SK2
62
256
6
ByLayer
370
13
48
1
60
0
100
AcDbLine
10
30
20
1.5875
30
0
11
30
21
16.387119
31
0
39
0
210
0
220
0
230
1
0
LINE
5
EC
100
AcDbEntity
8
SK2
62
256
6
ByLayer
370
13
48
1
60
0
100
AcDbLine
10
12.51
20
14.387119
30
0
11
30
21
14.387119
31
0
39
0
210
0
220
0
230
1
0
SOLID
5
ED
100
AcDbEntity
8
SK2
62
256
6
ByLayer
370
13
48
1
60
0
100
AcDbTrace
10
12.51
20
14.387119
30
0
11
16.009998
21
14.847903
31
0
12
16.010002
22
13.926335
32
0
13
12.51
23
14.387119
33
0
39
0
210
0
220
0
230
1
0
SOLID
5
EE
100
AcDbEntity
8
SK2
62
256
6
ByLayer
370
13
48
1
60
0
100
AcDbTrace
10
30
20
14.387119
30
0
11
26.500002
21
13.926335
31
0
12
26.499998
22
14.847903
32
0
13
30
23
14.387119
33
0
39
0
210
0
220
0
230
1
0
ENDBLK
5
F0
100
AcDbEntity
8
0
100
AcDbBlockEnd
0
BLOCK
5
F9
100
AcDbEntity
8
0
100
AcDbBlockBegin
2
DimnDraft3D4
70
0
10
0
20
0
30
0
3
DimnDraft3D4
0
MTEXT
5
F3
100
AcDbEntity
8
SK2
62
256
6
ByLayer
370
13
48
1
60
0
100
AcDbMText
10
37.278136
20
-14.705503
30
0
210
0
220
0
230
1
1
\W0.6993;0,81
40
3.5
41
0
44
1.084337
50
0
71
7
72
5
7
iso_b_vert
0
LINE
5
F4
100
AcDbEntity
8
SK2
62
256
6
ByLayer
370
13
48
1
60
0
100
AcDbLine
10
30
20
-1.5875
30
0
11
30
21
-17.580503
31
0
39
0
210
0
220
0
230
1
0
LINE
5
F5
100
AcDbEntity
8
SK2
62
256
6
ByLayer
370
13
48
1
60
0
100
AcDbLine
10
29.1851
20
-4.3655
30
0
11
29.1851
21
-17.580503
31
0
39
0
210
0
220
0
230
1
0
LINE
5
F6
100
AcDbEntity
8
SK2
62
256
6
ByLayer
370
13
48
1
60
0
100
AcDbLine
10
20.4351
20
-15.580503
30
0
11
43.559715
21
-15.580503
31
0
39
0
210
0
220
0
230
1
0
SOLID
5
F7
100
AcDbEntity
8
SK2
62
256
6
ByLayer
370
13
48
1
60
0
100
AcDbTrace
10
30
20
-15.580503
30
0
11
33.499998
21
-15.119719
31
0
12
33.500002
22
-16.041287
32
0
13
30
23
-15.580503
33
0
39
0
210
0
220
0
230
1
0
SOLID
5
F8
100
AcDbEntity
8
SK2
62
256
6
ByLayer
370
13
48
1
60
0
100
AcDbTrace
10
29.1851
20
-15.580503
30
0
11
25.685102
21
-16.041287
31
0
12
25.685098
22
-15.119719
32
0
13
29.1851
23
-15.580503
33
0
39
0
210
0
220
0
230
1
0
ENDBLK
5
FA
100
AcDbEntity
8
0
100
AcDbBlockEnd
0
BLOCK
5
103
100
AcDbEntity
8
0
100
AcDbBlockBegin
2
DimnDraft3D5
70
0
10
0
20
0
30
0
3
DimnDraft3D5
0
MTEXT
5
FD
100
AcDbEntity
8
SK2
62
256
6
ByLayer
370
13
48
1
60
0
100
AcDbMText
10
-9.565408
20
-20.468428
30
0
210
0
220
0
230
1
1
\W0.6791;65,19
40
3.5
41
0
44
1.084337
50
0
71
7
72
5
7
iso_b_vert
0
LINE
5
FE
100
AcDbEntity
8
SK2
62
256
6
ByLayer
370
13
48
1
60
0
100
AcDbLine
10
-36
20
-4.5875
30
0
11
-36
21
-23.343428
31
0
39
0
210
0
220
0
230
1
0
LINE
5
FF
100
AcDbEntity
8
SK2
62
256
6
ByLayer
370
13
48
1
60
0
100
AcDbLine
10
29.1851
20
-4.3655
30
0
11
29.1851
21
-23.343428
31
0
39
0
210
0
220
0
230
1
0
LINE
5
100
100
AcDbEntity
8
SK2
62
256
6
ByLayer
370
13
48
1
60
0
100
AcDbLine
10
-36
20
-21.343428
30
0
11
29.1851
21
-21.343428
31
0
39
0
210
0
220
0
230
1
0
SOLID
5
101
100
AcDbEntity
8
SK2
62
256
6
ByLayer
370
13
48
1
60
0
100
AcDbTrace
10
-36
20
-21.343428
30
0
11
-32.500002
21
-20.882645
31
0
12
-32.499998
22
-21.804212
32
0
13
-36
23
-21.343428
33
0
39
0
210
0
220
0
230
1
0
SOLID
5
102
100
AcDbEntity
8
SK2
62
256
6
ByLayer
370
13
48
1
60
0
100
AcDbTrace
10
29.1851
20
-21.343428
30
0
11
25.685102
21
-21.804212
31
0
12
25.685098
22
-20.882645
32
0
13
29.1851
23
-21.343428
33
0
39
0
210
0
220
0
230
1
0
ENDBLK
5
104
100
AcDbEntity
8
0
100
AcDbBlockEnd
0
BLOCK
5
10E
100
AcDbEntity
8
0
100
AcDbBlockBegin
2
DimnDraft3D6
70
0
10
0
20
0
30
0
3
DimnDraft3D6
0
MTEXT
5
107
100
AcDbEntity
8
SK2
62
256
6
ByLayer
370
13
48
1
60
0
100
AcDbMText
10
-46.375163
20
22.34918
30
0
210
0
220
0
230
1
1
\W0.7317;6,000
40
3.5
41
0
44
1.084337
50
90
71
7
72
5
7
iso_b_vert
0
MTEXT
5
108
100
AcDbEntity
8
SK2
62
256
6
ByLayer
370
13
48
1
60
0
100
AcDbMText
10
-46.375163
20
17.126524
30
0
210
0
220
0
230
1
1
%%c
40
3.5
41
0
44
1.084337
50
90
71
7
72
5
7
iso_b_vert
0
LINE
5
109
100
AcDbEntity
8
SK2
62
256
6
ByLayer
370
13
48
1
60
0
100
AcDbLine
10
-37.5875
20
-3
30
0
11
-46.625163
21
-3
31
0
39
0
210
0
220
0
230
1
0
LINE
5
10A
100
AcDbEntity
8
SK2
62
256
6
ByLayer
370
13
48
1
60
0
100
AcDbLine
10
-37.5875
20
3
30
0
11
-46.625163
21
3
31
0
39
0
210
0
220
0
230
1
0
LINE
5
10B
100
AcDbEntity
8
SK2
62
256
6
ByLayer
370
13
48
1
60
0
100
AcDbLine
10
-44.625163
20
32.121549
30
0
11
-44.625163
21
-11.75
31
0
39
0
210
0
220
0
230
1
0
SOLID
5
10C
100
AcDbEntity
8
SK2
62
256
6
ByLayer
370
13
48
1
60
0
100
AcDbTrace
10
-44.625163
20
-3
30
0
11
-44.164379
21
-6.499998
31
0
12
-45.085946
22
-6.500002
32
0
13
-44.625163
23
-3
33
0
39
0
210
0
220
0
230
1
0
SOLID
5
10D
100
AcDbEntity
8
SK2
62
256
6
ByLayer
370
13
48
1
60
0
100
AcDbTrace
10
-44.625163
20
3
30
0
11
-45.085946
21
6.499998
31
0
12
-44.164379
22
6.500002
32
0
13
-44.625163
23
3
33
0
39
0
210
0
220
0
230
1
0
ENDBLK
5
10F
100
AcDbEntity
8
0
100
AcDbBlockEnd
0
BLOCK
5
119
100
AcDbEntity
8
0
100
AcDbBlockBegin
2
DimnDraft3D7
70
0
10
0
20
0
30
0
3
DimnDraft3D7
0
MTEXT
5
112
100
AcDbEntity
8
2
62
256
6
ByLayer
370
13
48
1
60
0
100
AcDbMText
10
40.333343
20
20.720266
30
0
210
0
220
0
230
1
1
\W0.7317;5,556
40
3.5
41
0
44
1.084337
50
90
71
7
72
5
7
iso_b_vert
0
MTEXT
5
113
100
AcDbEntity
8
2
62
256
6
ByLayer
370
13
48
1
60
0
100
AcDbMText
10
40.333343
20
15.49761
30
0
210
0
220
0
230
1
1
%%c
40
3.5
41
0
44
1.084337
50
90
71
7
72
5
7
iso_b_vert
0
LINE
5
114
100
AcDbEntity
8
2
62
256
6
ByLayer
370
13
48
1
60
0
100
AcDbLine
10
30.7726
20
-2.778
30
0
11
44.083343
21
-2.778
31
0
39
0
210
0
220
0
230
1
0
LINE
5
115
100
AcDbEntity
8
2
62
256
6
ByLayer
370
13
48
1
60
0
100
AcDbLine
10
30.7726
20
2.778
30
0
11
44.083343
21
2.778
31
0
39
0
210
0
220
0
230
1
0
LINE
5
116
100
AcDbEntity
8
2
62
256
6
ByLayer
370
13
48
1
60
0
100
AcDbLine
10
42.083343
20
30.492635
30
0
11
42.083343
21
-11.528
31
0
39
0
210
0
220
0
230
1
0
SOLID
5
117
100
AcDbEntity
8
2
62
256
6
ByLayer
370
13
48
1
60
0
100
AcDbTrace
10
42.083343
20
-2.778
30
0
11
42.544126
21
-6.277998
31
0
12
41.622559
22
-6.278002
32
0
13
42.083343
23
-2.778
33
0
39
0
210
0
220
0
230
1
0
SOLID
5
118
100
AcDbEntity
8
2
62
256
6
ByLayer
370
13
48
1
60
0
100
AcDbTrace
10
42.083343
20
2.778
30
0
11
41.622559
21
6.277998
31
0
12
42.544126
22
6.278002
32
0
13
42.083343
23
2.778
33
0
39
0
210
0
220
0
230
1
0
ENDBLK
5
11A
100
AcDbEntity
8
0
100
AcDbBlockEnd
0
ENDSEC
0
SECTION
2
ENTITIES
0
ELLIPSE
5
91
100
AcDbEntity
8
1
62
256
6
ByLayer
370
18
48
1
60
0
100
AcDbEllipse
10
3.453198
20
2.874264
30
0
11
-0.25
21
3.06151588455594E-17
31
0
210
0
220
0
230
1
40
1
41
0.498003603332038
42
1.58198132331611
0
ELLIPSE
5
92
100
AcDbEntity
8
1
62
256
6
ByLayer
370
18
48
1
60
0
100
AcDbEllipse
10
3.453198
20
-2.874264
30
0
11
-0.25
21
3.06151588455594E-17
31
0
210
0
220
0
230
1
40
1
41
-1.56881768005028
42
-0.499429739485729
0
ELLIPSE
5
93
100
AcDbEntity
8
1
62
256
6
ByLayer
370
13
48
1
60
0
100
AcDbEllipse
10
3.383363
20
0.467879
30
0
11
-0.0509088940717223
21
-0.0860713919045938
31
0
210
0
220
0
230
1
40
0.348268
41
-1.19531620864533
42
0.131006754269085
0
ELLIPSE
5
94
100
AcDbEntity
8
1
62
256
6
ByLayer
370
13
48
1
60
0
100
AcDbEllipse
10
3.453435
20
0.429346
30
0
11
0.0458650678466721
21
0.088861665252347
31
0
210
0
220
0
230
1
40
0.074222
41
3.03047697131915
42
-1.71020695368886
0
POINT
5
6C
100
AcDbEntity
8
81
62
256
6
ByLayer
370
18
48
1
60
0
100
AcDbPoint
10
30
20
0
30
0
39
0
210
0
220
0
230
1
50
360
0
POINT
5
6E
100
AcDbEntity
8
80
62
256
6
ByLayer
370
18
48
1
60
0
100
AcDbPoint
10
0
20
0
30
0
39
0
210
0
220
0
230
1
50
360
0
POINT
5
70
100
AcDbEntity
8
SK2
62
256
6
ByLayer
370
18
48
1
60
1
100
AcDbPoint
10
-36
20
-3
30
0
39
0
210
0
220
0
230
1
50
360
0
POINT
5
72
100
AcDbEntity
8
SK2
62
256
6
ByLayer
370
18
48
1
60
1
100
AcDbPoint
10
-36
20
3
30
0
39
0
210
0
220
0
230
1
50
360
0
POINT
5
73
100
AcDbEntity
8
2
62
256
6
ByLayer
370
18
48
1
60
1
100
AcDbPoint
10
29.1851
20
-2.778
30
0
39
0
210
0
220
0
230
1
50
360
0
POINT
5
75
100
AcDbEntity
8
2
62
256
6
ByLayer
370
18
48
1
60
1
100
AcDbPoint
10
29.1851
20
2.778
30
0
39
0
210
0
220
0
230
1
50
360
0
SPLINE
5
95
100
AcDbEntity
8
1
62
256
6
ByLayer
370
18
48
1
60
0
100
AcDbSpline
70
4
71
2
72
6
73
3
40
0
40
0
40
0
40
1
40
1
40
1
41
1
10
4.05110674800594
20
0.0058735153872647
30
0
41
1
10
4.05110339276627
20
0.0058855952856334
30
0
41
1
10
4.05110003753052
20
0.005897697144718
30
0
0
SPLINE
5
96
100
AcDbEntity
8
1
62
256
6
ByLayer
370
18
48
1
60
0
100
AcDbSpline
70
4
71
3
72
22
73
18
40
0
40
0
40
0
40
0
40
0.0792046248173233
40
0.144641341179896
40
0.191155580664702
40
0.231480937493079
40
0.271613120344988
40
0.311405708991897
40
0.403977854987486
40
0.51842856546594
40
0.630389031976534
40
0.734121164162442
40
0.815786475956134
40
0.860049048233355
40
0.904806034108594
40
0.973065576800676
40
1
40
1
40
1
40
1
41
1
10
12.4522544480098
20
-2.6287665103024
30
0
41
1
10
12.6622993689591
20
-2.62873373576707
30
0
41
1
10
13.0459291136972
20
-2.62882343222205
30
0
41
1
10
13.5532278911249
20
-2.62959346778362
30
0
41
1
10
13.9571833375143
20
-2.63003341654644
30
0
41
1
10
14.2940420127465
20
-2.62991319330874
30
0
41
1
10
14.6131237931265
20
-2.62975116743715
30
0
41
1
10
15.070823368002
20
-2.63002997518345
30
0
41
1
10
15.7257281404676
20
-2.63043890533757
30
0
41
1
10
16.5721200021258
20
-2.63111398295757
30
0
41
1
10
17.4481188462443
20
-2.63057931272346
30
0
41
1
10
18.2371285351912
20
-2.631227828504
30
0
41
1
10
18.8465092754761
20
-2.63264182596058
30
0
41
1
10
19.2994059581077
20
-2.63263059845241
30
0
41
1
10
19.7167325669096
20
-2.63175815531855
30
0
41
1
10
20.0880713184409
20
-2.6313699594696
30
0
41
1
10
20.3406541778441
20
-2.63203634610804
30
0
41
1
10
20.4121204422425
20
-2.63227571037979
30
0
0
SPLINE
5
97
100
AcDbEntity
8
1
62
256
6
ByLayer
370
18
48
1
60
0
100
AcDbSpline
70
4
71
2
72
6
73
3
40
0
40
0
40
0
40
1
40
1
40
1
41
1
10
28.6666688074529
20
-2.63795355216988
30
0
41
1
10
28.8619620461446
20
-2.63772762760542
30
0
41
1
10
29.057085636289
20
-2.63790864287964
30
0
0
SPLINE
5
98
100
AcDbEntity
8
1
62
256
6
ByLayer
370
18
48
1
60
0
100
AcDbSpline
70
4
71
2
72
6
73
3
40
0
40
0
40
0
40
1
40
1
40
1
41
1
10
3.45432839674248
20
-2.62382492343653
30
0
41
1
10
3.88591412936404
20
-2.62636497522422
30
0
41
1
10
4.31737359635648
20
-2.62560601558727
30
0
0
SPLINE
5
99
100
AcDbEntity
8
1
62
256
6
ByLayer
370
18
48
1
60
0
100
AcDbSpline
70
4
71
3
72
21
73
17
40
0
40
0
40
0
40
0
40
0.016609260117115
40
0.0936013578172645
40
0.145200266858993
40
0.189748318748579
40
0.235661508507758
40
0.283373400738687
40
0.37138250852197
40
0.475708286259136
40
0.581881183506687
40
0.701851045742118
40
0.798167229022199
40
0.894095553789232
40
0.951377239042079
40
1
40
1
40
1
40
1
41
1
10
20.4102002962834
20
2.63220484023486
30
0
41
1
10
20.3737460873057
20
2.63209330989156
30
0
41
1
10
20.168308158454
20
2.63153901613725
30
0
41
1
10
19.8496101382558
20
2.6316204192822
30
0
41
1
10
19.4695930309766
20
2.63219848920704
30
0
41
1
10
19.1577862872032
20
2.63283474862811
30
0
41
1
10
18.8545115972181
20
2.63239071091445
30
0
41
1
10
18.4558455710452
20
2.6315750050438
30
0
41
1
10
17.9289707073794
20
2.63044429369154
30
0
41
1
10
17.2737821440148
20
2.63128322025565
30
0
41
1
10
16.5484445127265
20
2.63095510916941
30
0
41
1
10
15.8406844158979
20
2.63021000060127
30
0
41
1
10
15.1554061198666
20
2.6303524154462
30
0
41
1
10
14.6077298627197
20
2.62966495061545
30
0
41
1
10
14.1647193797768
20
2.62999847307108
30
0
41
1
10
13.9323383264859
20
2.6299662257172
30
0
41
1
10
13.8256367520374
20
2.62988953791154
30
0
0
SPLINE
5
9A
100
AcDbEntity
8
1
62
256
6
ByLayer
370
18
48
1
60
0
100
AcDbSpline
70
4
71
2
72
6
73
3
40
0
40
0
40
0
40
1
40
1
40
1
41
1
10
4.31206172560383
20
2.62560698768496
30
0
41
1
10
3.8832578053844
20
2.62635530802194
30
0
41
1
10
3.45432839674251
20
2.62382492343673
30
0
0
SPLINE
5
9B
100
AcDbEntity
8
1
62
256
6
ByLayer
370
18
48
1
60
0
100
AcDbSpline
70
4
71
3
72
18
73
14
40
0
40
0
40
0
40
0
40
0.300468033368821
40
0.300468033368821
40
0.450702050053231
40
0.450702050053231
40
0.600936066737641
40
0.600936066737641
40
0.751170083422051
40
0.751170083422051
40
0.901404100106461
40
0.901404100106461
40
1
40
1
40
1
40
1
41
1
10
7.96669946019912
20
1.9238612337378
30
0
41
1
10
7.57577380728645
20
2.04984923704748
30
0
41
1
10
7.19006541529859
20
2.16827152170242
30
0
41
1
10
6.61391995889997
20
2.31992867490763
30
0
41
1
10
6.42271576098003
20
2.36592706101086
30
0
41
1
10
6.04296868450439
20
2.4472443536595
30
0
41
1
10
5.85414686172294
20
2.48283535075632
30
0
41
1
10
5.4781848724565
20
2.54193199637342
30
0
41
1
10
5.29100973103488
20
2.56576196142035
30
0
41
1
10
4.91786377500912
20
2.60313995101521
30
0
41
1
10
4.73194231729238
20
2.616102022848
30
0
41
1
10
4.42524312563336
20
2.62600356358419
30
0
41
1
10
4.30390421364771
20
2.62697014233848
30
0
41
1
10
4.18311429267814
20
2.62457390136774
30
0
0
SPLINE
5
9C
100
AcDbEntity
8
1
62
256
6
ByLayer
370
18
48
1
60
0
100
AcDbSpline
70
4
71
3
72
8
73
4
40
0
40
0
40
0
40
0
40
1
40
1
40
1
40
1
41
1
10
29.2031524343884
20
2.6718994824208
30
0
41
1
10
29.1658768495425
20
2.71802337614864
30
0
41
1
10
29.1281272494961
20
2.74891561326922
30
0
41
1
10
29.089411626895
20
2.76498862704486
30
0
0
SPLINE
5
9D
100
AcDbEntity
8
1
62
256
6
ByLayer
370
18
48
1
60
0
100
AcDbSpline
70
4
71
3
72
8
73
4
40
0
40
0
40
0
40
0
40
1
40
1
40
1
40
1
41
1
10
29.9821657890763
20
-0.301582063677358
30
0
41
1
10
29.9889069854314
20
-0.229684493508188
30
0
41
1
10
29.9928063925636
20
-0.157813269004606
30
0
41
1
10
29.9933044070424
20
-0.0859735781393169
30
0
0
SPLINE
5
9E
100
AcDbEntity
8
1
62
256
6
ByLayer
370
18
48
1
60
0
100
AcDbSpline
70
4
71
3
72
8
73
4
40
0
40
0
40
0
40
0
40
1
40
1
40
1
40
1
41
1
10
29.9998026308154
20
-0.0314597409461612
30
0
41
1
10
30.000066007043
20
-0.0104652941357131
30
0
41
1
10
30.000065544079
20
0.0105021982791129
30
0
41
1
10
29.9998026308154
20
0.0314597409461044
30
0
0
SPLINE
5
9F
100
AcDbEntity
8
1
62
256
6
ByLayer
370
18
48
1
60
0
100
AcDbSpline
70
4
71
3
72
8
73
4
40
0
40
0
40
0
40
0
40
1
40
1
40
1
40
1
41
1
10
29.8769278788277
20
-0.832788185111923
30
0
41
1
10
29.9260631566939
20
-0.647296800792731
30
0
41
1
10
29.9622547947682
20
-0.472801269849811
30
0
41
1
10
29.9821657890763
20
-0.301582063677273
30
0
0
SPLINE
5
A0
100
AcDbEntity
8
1
62
256
6
ByLayer
370
18
48
1
60
0
100
AcDbSpline
70
4
71
3
72
66
73
62
40
0
40
0
40
0
40
0
40
0.0335295233540313
40
0.0335295233540313
40
0.0670590467080626
40
0.0670590467080626
40
0.100588570062094
40
0.100588570062094
40
0.134118093416125
40
0.134118093416125
40
0.150882855093141
40
0.150882855093141
40
0.167647616770156
40
0.167647616770156
40
0.201177140124189
40
0.201177140124189
40
0.234706663478221
40
0.234706663478221
40
0.251471425155237
40
0.251471425155237
40
0.268236186832253
40
0.268236186832253
40
0.301765710186285
40
0.301765710186285
40
0.335295233540317
40
0.335295233540317
40
0.368824756894349
40
0.368824756894349
40
0.402354280248381
40
0.402354280248381
40
0.536472373664511
40
0.536472373664511
40
0.570001897018543
40
0.570001897018543
40
0.603531420372575
40
0.603531420372575
40
0.637060943726607
40
0.637060943726607
40
0.670590467080639
40
0.670590467080639
40
0.704119990434671
40
0.704119990434671
40
0.737649513788703
40
0.737649513788703
40
0.771179037142735
40
0.771179037142735
40
0.787943798819751
40
0.787943798819751
40
0.804708560496767
40
0.804708560496767
40
0.838238083850799
40
0.838238083850799
40
0.871767607204831
40
0.871767607204831
40
0.905297130558863
40
0.905297130558863
40
0.938826653912895
40
0.938826653912895
40
0.972356177266927
40
0.972356177266927
40
1
40
1
40
1
40
1
41
1
10
7.9666994601991
20
2.18124635833564
30
0
41
1
10
8.18954899792379
20
2.25485793402729
30
0
41
1
10
8.41186045672114
20
2.3212767565372
30
0
41
1
10
8.85531898352644
20
2.44074208969656
30
0
41
1
10
9.07576116124244
20
2.49437943429888
30
0
41
1
10
9.51668655943729
20
2.58718048769339
30
0
41
1
10
9.73719154010323
20
2.6264660984651
30
0
41
1
10
10.1773850690302
20
2.6913544585598
30
0
41
1
10
10.3975380639982
20
2.71662211476885
30
0
41
1
10
10.7288948228627
20
2.74340447415764
30
0
41
1
10
10.8394751230121
20
2.75050846137216
30
0
41
1
10
11.0607084598486
20
2.76104521351149
30
0
41
1
10
11.1712848531164
20
2.76446935755175
30
0
41
1
10
11.5042139828474
20
2.768996186555
30
0
41
1
10
11.7282078812188
20
2.76445270592183
30
0
41
1
10
12.173131055899
20
2.74015664993542
30
0
41
1
10
12.3945027559632
20
2.72042516761593
30
0
41
1
10
12.7262452096439
20
2.68023774771294
30
0
41
1
10
12.8367210468995
20
2.66506815008677
30
0
41
1
10
13.0572741824772
20
2.63108390502492
30
0
41
1
10
13.1672338541573
20
2.61218381002118
30
0
41
1
10
13.4974024903581
20
2.55050697610497
30
0
41
1
10
13.7178732959137
20
2.50286203892327
30
0
41
1
10
14.1583322841939
20
2.39363061618624
30
0
41
1
10
14.3785282094981
20
2.33211041960084
30
0
41
1
10
14.8208822824273
20
2.1972691651776
30
0
41
1
10
15.0426397515698
20
2.12357059215805
30
0
41
1
10
15.4874928893143
20
1.96328993714022
30
0
41
1
10
15.7112851326621
20
1.87801071852854
30
0
41
1
10
16.8206343340794
20
1.42770742554527
30
0
41
1
10
17.694273024058
20
0.993817060704828
30
0
41
1
10
18.8013732822107
20
0.415792877106497
30
0
41
1
10
19.0239287285472
20
0.299132732083393
30
0
41
1
10
19.4697626484991
20
0.0607928587386652
30
0
41
1
10
19.6919655877578
20
-0.0574451698665257
30
0
41
1
10
20.1349507569017
20
-0.292253481560238
30
0
41
1
10
20.3552474083973
20
-0.409748052928876
30
0
41
1
10
20.7958560466892
20
-0.640299846686986
30
0
41
1
10
21.0162589461834
20
-0.753228552673704
30
0
41
1
10
21.456013798265
20
-0.976691338534607
30
0
41
1
10
21.6759912037723
20
-1.08605511062638
30
0
41
1
10
22.1174303217252
20
-1.2977928431915
30
0
41
1
10
22.3381460394049
20
-1.4014635749472
30
0
41
1
10
22.7816946429156
20
-1.60063426451504
30
0
41
1
10
23.0054739564415
20
-1.69613657723554
30
0
41
1
10
23.3391371251351
20
-1.83247773179647
30
0
41
1
10
23.4499111594492
20
-1.87688862783855
30
0
41
1
10
23.6714377361933
20
-1.96237860487463
30
0
41
1
10
23.7821025315253
20
-2.00360049727686
30
0
41
1
10
24.1137316804242
20
-2.12290059620798
30
0
41
1
10
24.3338596949933
20
-2.19719138981347
30
0
41
1
10
24.7738673865608
20
-2.33322079731485
30
0
41
1
10
24.9940863762994
20
-2.39466476983938
30
0
41
1
10
25.4342769387679
20
-2.50516805735688
30
0
41
1
10
25.6541044407866
20
-2.55423538899561
30
0
41
1
10
26.0960556075125
20
-2.63769705801167
30
0
41
1
10
26.3173862414361
20
-2.67270366709548
30
0
41
1
10
26.7618171221585
20
-2.72817843539656
30
0
41
1
10
26.9855326231018
20
-2.74844187725685
30
0
41
1
10
27.3911600544937
20
-2.77158206297622
30
0
41
1
10
27.5736905293482
20
-2.77690935770343
30
0
41
1
10
27.7563247997036
20
-2.77708932212948
30
0
0
SPLINE
5
A1
100
AcDbEntity
8
1
62
256
6
ByLayer
370
18
48
1
60
0
100
AcDbSpline
70
4
71
3
72
10
73
6
40
0
40
0
40
0
40
0
40
0.5
40
0.5
40
1
40
1
40
1
40
1
41
1
10
28.9099163043702
20
0.771784197442884
30
0
41
1
10
29.0680574590929
20
0.767982118013379
30
0
41
1
10
29.2262084081473
20
0.764101035255493
30
0
41
1
10
29.5422774897681
20
0.758216821000531
30
0
41
1
10
29.7001101869918
20
0.756902830599273
30
0
41
1
10
29.857940637224
20
0.755606964947305
30
0
0
SPLINE
5
A2
100
AcDbEntity
8
1
62
256
6
ByLayer
370
18
48
1
60
0
100
AcDbSpline
70
4
71
3
72
8
73
4
40
0
40
0
40
0
40
0
40
1
40
1
40
1
40
1
41
1
10
3.28225533754238
20
0.421795456506516
30
0
41
1
10
3.29830300462098
20
0.405701821884946
30
0
41
1
10
3.31637771937281
20
0.391736056570693
30
0
41
1
10
3.3368061285326
20
0.380228571676383
30
0
0
SPLINE
5
A3
100
AcDbEntity
8
1
62
256
6
ByLayer
370
18
48
1
60
0
100
AcDbSpline
70
4
71
3
72
8
73
4
40
0
40
0
40
0
40
0
40
1
40
1
40
1
40
1
41
1
10
3.33603664494313
20
0.383787490388784
30
0
41
1
10
3.31630647842172
20
0.394151305114235
30
0
41
1
10
3.29839650425288
20
0.406847459106501
30
0
41
1
10
3.28225533754261
20
0.421795456506658
30
0
0
SPLINE
5
A4
100
AcDbEntity
8
1
62
256
6
ByLayer
370
18
48
1
60
0
100
AcDbSpline
70
4
71
3
72
26
73
22
40
0
40
0
40
0
40
0
40
0.073003477586674
40
0.073003477586674
40
0.146006955173348
40
0.146006955173348
40
0.292013910346696
40
0.292013910346696
40
0.36501738793337
40
0.36501738793337
40
0.438020865520044
40
0.438020865520044
40
0.584027820693392
40
0.584027820693392
40
0.73003477586674
40
0.73003477586674
40
0.803038253453414
40
0.803038253453414
40
0.876041731040088
40
0.876041731040088
40
1
40
1
40
1
40
1
41
1
10
3.22944846972655
20
0.533226783146375
30
0
41
1
10
3.22946914923116
20
0.624706903429257
30
0
41
1
10
3.22948847326387
20
0.715081569509209
30
0
41
1
10
3.22952486985474
20
0.893614494960019
30
0
41
1
10
3.22954192256307
20
0.981715111165499
30
0
41
1
10
3.22958959349398
20
1.23813153484861
30
0
41
1
10
3.22961708502686
20
1.40023456795032
30
0
41
1
10
3.2296549421136
20
1.63012222895318
30
0
41
1
10
3.22966705616074
20
1.70492691731633
30
0
41
1
10
3.22969020106905
20
1.84744838511216
30
0
41
1
10
3.22970124033665
20
1.91520322772348
30
0
41
1
10
3.22973344549524
20
2.10821708756646
30
0
41
1
10
3.22975373337013
20
2.22333067419439
30
0
41
1
10
3.22979457433354
20
2.425327680023
30
0
41
1
10
3.22981447889259
20
2.50888031648839
30
0
41
1
10
3.22984441248525
20
2.60879890046246
30
0
41
1
10
3.22985439327908
20
2.63785613855634
30
0
41
1
10
3.22987435503316
20
2.68726321351429
30
0
41
1
10
3.22988434791836
20
2.70757297976454
30
0
41
1
10
3.22991054905077
20
2.74931771022742
30
0
41
1
10
3.22992643295598
20
2.7622129701825
30
0
41
1
10
3.22994107879504
20
2.76176612036934
30
0
0
SPLINE
5
A5
100
AcDbEntity
8
1
62
256
6
ByLayer
370
18
48
1
60
0
100
AcDbSpline
70
4
71
3
72
8
73
4
40
0
40
0
40
0
40
0
40
1
40
1
40
1
40
1
41
1
10
29.9821657890782
20
0.301582063661442
30
0
41
1
10
29.9623564669074
20
0.471926967817524
30
0
41
1
10
29.9263340805119
20
0.64627403189391
30
0
41
1
10
29.8769278788278
20
0.832788185111866
30
0
0
SPLINE
5
A6
100
AcDbEntity
8
1
62
256
6
ByLayer
370
18
48
1
60
0
100
AcDbSpline
70
4
71
3
72
28
73
24
40
0
40
0
40
0
40
0
40
0.0624999999999988
40
0.0624999999999988
40
0.124999999999998
40
0.124999999999998
40
0.187499999999996
40
0.187499999999996
40
0.249999999999995
40
0.249999999999995
40
0.374999999999996
40
0.374999999999996
40
0.437499999999997
40
0.437499999999997
40
0.499999999999998
40
0.499999999999998
40
0.625000000000005
40
0.625000000000005
40
0.687500000000006
40
0.687500000000006
40
0.750000000000006
40
0.750000000000006
40
1
40
1
40
1
40
1
41
1
10
26.4418495019081
20
1.059320098711
30
0
41
1
10
26.4320340731553
20
0.981019460055421
30
0
41
1
10
26.4278119231278
20
0.900813535526424
30
0
41
1
10
26.4309355915778
20
0.736461191445329
30
0
41
1
10
26.438456631075
20
0.651865847948159
30
0
41
1
10
26.4643465046682
20
0.48512928283111
30
0
41
1
10
26.4826679214819
20
0.402231584481598
30
0
41
1
10
26.5292003453655
20
0.237301788508773
30
0
41
1
10
26.5576879780083
20
0.15465863381246
30
0
41
1
10
26.6547354599326
20
-0.0863246958120385
30
0
41
1
10
26.7344274136732
20
-0.238321467448742
30
0
41
1
10
26.8710832076185
20
-0.456431105977174
30
0
41
1
10
26.9197233983423
20
-0.527656781878648
30
0
41
1
10
27.0203631405266
20
-0.664416277031307
30
0
41
1
10
27.0725585877073
20
-0.730296025416351
30
0
41
1
10
27.2341027991004
20
-0.921326810006804
30
0
41
1
10
27.3483717796575
20
-1.03991957488523
30
0
41
1
10
27.5275487132381
20
-1.20744729208343
30
0
41
1
10
27.5887614798913
20
-1.26169559551866
30
0
41
1
10
27.712428510291
20
-1.36603350501744
30
0
41
1
10
27.7749182873946
20
-1.41617245890276
30
0
41
1
10
28.0903022639011
20
-1.65778817435736
30
0
41
1
10
28.3517767725924
20
-1.82272364932845
30
0
41
1
10
28.620228263674
20
-1.96607737438978
30
0
0
SPLINE
5
A7
100
AcDbEntity
8
1
62
256
6
ByLayer
370
18
48
1
60
0
100
AcDbSpline
70
4
71
3
72
28
73
24
40
0
40
0
40
0
40
0
40
0.0430194240250339
40
0.0430194240250339
40
0.138717481622531
40
0.138717481622531
40
0.234415539220027
40
0.234415539220027
40
0.330113596817524
40
0.330113596817524
40
0.42581165441502
40
0.42581165441502
40
0.521509712012517
40
0.521509712012517
40
0.617207769610014
40
0.617207769610014
40
0.71290582720751
40
0.71290582720751
40
0.808603884805007
40
0.808603884805007
40
0.904301942402503
40
0.904301942402503
40
1
40
1
40
1
40
1
41
1
10
20.3993097369205
20
2.63241410368926
30
0
41
1
10
20.4858748700318
20
2.6329211309581
30
0
41
1
10
20.5724496292231
20
2.63239181905575
30
0
41
1
10
20.8516905367843
20
2.62697020344251
30
0
41
1
10
21.0443206192942
20
2.61645954601335
30
0
41
1
10
21.4301579600312
20
2.58490535106549
30
0
41
1
10
21.6235325938661
20
2.56383992119848
30
0
41
1
10
22.0091972422442
20
2.51275580333558
30
0
41
1
10
22.2017318748464
20
2.48281394178554
30
0
41
1
10
22.5868773357188
20
2.41076343185355
30
0
41
1
10
22.7795918878659
20
2.36929539961926
30
0
41
1
10
23.1653929719008
20
2.27696332629605
30
0
41
1
10
23.3586059821552
20
2.22586735470071
30
0
41
1
10
23.7446637227621
20
2.11644624174215
30
0
41
1
10
23.9373781432174
20
2.05735256235928
30
0
41
1
10
24.3224158598183
20
1.92943005273062
30
0
41
1
10
24.5149056729103
20
1.86122988512517
30
0
41
1
10
24.9005064288789
20
1.71809684619771
30
0
41
1
10
25.0937352658471
20
1.64307650500328
30
0
41
1
10
25.4795855105446
20
1.48618551895308
30
0
41
1
10
25.6723547367091
20
1.40475540476243
30
0
41
1
10
26.0572724827903
20
1.23577939959097
30
0
41
1
10
26.2494782049004
20
1.14849362489244
30
0
41
1
10
26.4418495019078
20
1.059320098711
30
0
0
SPLINE
5
A8
100
AcDbEntity
8
1
62
256
6
ByLayer
370
18
48
1
60
0
100
AcDbSpline
70
4
71
3
72
8
73
4
40
0
40
0
40
0
40
0
40
1
40
1
40
1
40
1
41
1
10
29.857940637224
20
0.755606964947305
30
0
41
1
10
29.9184144148261
20
0.605408385552465
30
0
41
1
10
29.9588549870407
20
0.454008727212141
30
0
41
1
10
29.9821657890786
20
0.301582063662039
30
0
0
SPLINE
5
A9
100
AcDbEntity
8
1
62
256
6
ByLayer
370
18
48
1
60
0
100
AcDbSpline
70
4
71
3
72
8
73
4
40
0
40
0
40
0
40
0
40
1
40
1
40
1
40
1
41
1
10
7.51684845979102
20
2.05846400608405
30
0
41
1
10
7.6671994626933
20
2.09994463263351
30
0
41
1
10
7.81711204161658
20
2.14102955664217
30
0
41
1
10
7.96669946019907
20
2.18124635833564
30
0
0
SPLINE
5
AA
100
AcDbEntity
8
1
62
256
6
ByLayer
370
18
48
1
60
0
100
AcDbSpline
70
4
71
3
72
10
73
6
40
0
40
0
40
0
40
0
40
0.5
40
0.5
40
1
40
1
40
1
40
1
41
1
10
29.2031524343884
20
-2.6718994824212
30
0
41
1
10
29.3118986261801
20
-2.36283560308735
30
0
41
1
10
29.422824383916
20
-2.05538197866088
30
0
41
1
10
29.6479291133562
20
-1.44269715959993
30
0
41
1
10
29.7620445606797
20
-1.1374300357937
30
0
41
1
10
29.8769278788276
20
-0.832788185111866
30
0
0
SPLINE
5
AB
100
AcDbEntity
8
1
62
256
6
ByLayer
370
13
48
1
60
0
100
AcDbSpline
70
4
71
3
72
8
73
4
40
0
40
0
40
0
40
0
40
1
40
1
40
1
40
1
41
1
10
3.45359343810162
20
0.413626403298849
30
0
41
1
10
3.41292114944628
20
0.425754903266466
30
0
41
1
10
3.37319307526266
20
0.43894642024884
30
0
41
1
10
3.33680612853257
20
0.452809208196243
30
0
0
SPLINE
5
AC
100
AcDbEntity
8
1
62
256
6
ByLayer
370
18
48
1
60
0
100
AcDbSpline
70
4
71
3
72
8
73
4
40
0
40
0
40
0
40
0
40
1
40
1
40
1
40
1
41
1
10
29.089411626895
20
2.76498862704486
30
0
41
1
10
28.9209199448717
20
2.77357437524756
30
0
41
1
10
28.7526009786422
20
2.77778053397336
30
0
41
1
10
28.5842982510649
20
2.77762364859205
30
0
0
SPLINE
5
AD
100
AcDbEntity
8
1
62
256
6
ByLayer
370
18
48
1
60
0
100
AcDbSpline
70
4
71
3
72
28
73
24
40
0
40
0
40
0
40
0
40
0.0786567957336214
40
0.0786567957336214
40
0.117046095911387
40
0.117046095911387
40
0.155435396089153
40
0.155435396089153
40
0.232213996444686
40
0.232213996444686
40
0.38577119715575
40
0.38577119715575
40
0.462549797511281
40
0.462549797511281
40
0.539328397866812
40
0.539328397866812
40
0.692885598577875
40
0.692885598577875
40
0.846442799288938
40
0.846442799288938
40
0.923221399644469
40
0.923221399644469
40
1
40
1
40
1
40
1
41
1
10
13.8260562796604
20
-2.64034031000838
30
0
41
1
10
13.5524966333466
20
-2.68390191917283
30
0
41
1
10
13.2785408835119
20
-2.71658113638637
30
0
41
1
10
12.8692790695876
20
-2.74829743761609
30
0
41
1
10
12.7347586781848
20
-2.75597992353249
30
0
41
1
10
12.4649700563579
20
-2.76580678804149
30
0
41
1
10
12.3294534038751
20
-2.76794380978779
30
0
41
1
10
11.924443502329
20
-2.76594899736946
30
0
41
1
10
11.6560179330956
20
-2.75345722348277
30
0
41
1
10
10.8530007799397
20
-2.68363609563878
30
0
41
1
10
10.3205903312685
20
-2.5940489480389
30
0
41
1
10
9.51851142637437
20
-2.40020775145848
30
0
41
1
10
9.25058339736131
20
-2.32566738020972
30
0
41
1
10
8.71206845013728
20
-2.15785413150354
30
0
41
1
10
8.44074500273632
20
-2.06419658652135
30
0
41
1
10
7.63308445682992
20
-1.76189934030614
30
0
41
1
10
7.09992817011363
20
-1.53048742151955
30
0
41
1
10
6.03215592144602
20
-1.02784618092008
30
0
41
1
10
5.49791035138463
20
-0.756031396892894
30
0
41
1
10
4.68763014735461
20
-0.331837048490883
30
0
41
1
10
4.41684925439444
20
-0.188149892986957
30
0
41
1
10
3.87666552151867
20
0.0984481491432234
30
0
41
1
10
3.60660349342004
20
0.241664782736137
30
0
41
1
10
3.33603664494237
20
0.383787490389182
30
0
0
SPLINE
5
AE
100
AcDbEntity
8
1
62
256
6
ByLayer
370
18
48
1
60
0
100
AcDbSpline
70
4
71
3
72
16
73
12
40
0
40
0
40
0
40
0
40
0.155942703375988
40
0.155942703375988
40
0.311885406751975
40
0.311885406751975
40
0.623770813503953
40
0.623770813503953
40
0.935656220255931
40
0.935656220255931
40
1
40
1
40
1
40
1
41
1
10
3.40712176715323
20
0.341409561314237
30
0
41
1
10
3.67646952573676
20
0.201807892461318
30
0
41
1
10
3.9453642887992
20
0.0611547626782851
30
0
41
1
10
4.48336022020334
20
-0.22011611674634
30
0
41
1
10
4.75323836224749
20
-0.361070013404429
30
0
41
1
10
5.55896326869131
20
-0.775827631541745
30
0
41
1
10
6.09072384130161
20
-1.04133539027754
30
0
41
1
10
7.15408429904585
20
-1.53180863074667
30
0
41
1
10
7.68536489239443
20
-1.75735927009544
30
0
41
1
10
8.33277666312236
20
-1.99379278890956
30
0
41
1
10
8.44379561658144
20
-2.03300737103601
30
0
41
1
10
8.55483457008594
20
-2.07083393293701
30
0
0
SPLINE
5
AF
100
AcDbEntity
8
1
62
256
6
ByLayer
370
13
48
1
60
0
100
AcDbSpline
70
4
71
3
72
18
73
14
40
0
40
0
40
0
40
0
40
0.0940218064546527
40
0.0940218064546527
40
0.254089415525955
40
0.254089415525955
40
0.574224633668555
40
0.574224633668555
40
0.734292242739857
40
0.734292242739857
40
0.894359851811159
40
0.894359851811159
40
1
40
1
40
1
40
1
41
1
10
8.55483476493703
20
-2.07083399931503
30
0
41
1
10
8.71290823350967
20
-2.12468335035098
30
0
41
1
10
8.87102223377224
20
-2.17571974453378
30
0
41
1
10
9.29626944660731
20
-2.30473865418136
30
0
41
1
10
9.56292096334332
20
-2.37682206401394
30
0
41
1
10
10.3613408078482
20
-2.56376829278327
30
0
41
1
10
10.8915334808367
20
-2.6498304645163
30
0
41
1
10
11.691302633471
20
-2.71542705100296
30
0
41
1
10
11.9586818473304
20
-2.72676548994622
30
0
41
1
10
12.4965274442317
20
-2.72759527992005
30
0
41
1
10
12.7661076832592
20
-2.71703510632733
30
0
41
1
10
13.2119486527598
20
-2.6815974096877
30
0
41
1
10
13.3891010966977
20
-2.66286100757469
30
0
41
1
10
13.5663692712967
20
-2.63952617897254
30
0
0
SPLINE
5
B0
100
AcDbEntity
8
1
62
256
6
ByLayer
370
18
48
1
60
0
100
AcDbSpline
70
4
71
3
72
14
73
10
40
0
40
0
40
0
40
0
40
0.207512154285666
40
0.207512154285666
40
0.415024308571332
40
0.415024308571332
40
0.830048617142664
40
0.830048617142664
40
1
40
1
40
1
40
1
41
1
10
29.1136913788138
20
-2.63432347475231
30
0
41
1
10
28.8453978426386
20
-2.64238037678092
30
0
41
1
10
28.5774591105312
20
-2.6398309994172
30
0
41
1
10
28.0410551503478
20
-2.61375303794185
30
0
41
1
10
27.7718771671621
20
-2.59012015509109
30
0
41
1
10
26.968297558135
20
-2.48910231953926
30
0
41
1
10
26.4375951609744
20
-2.38182872359013
30
0
41
1
10
25.6897842067913
20
-2.18125365724336
30
0
41
1
10
25.4725153099261
20
-2.11716066477527
30
0
41
1
10
25.2549064972314
20
-2.04761372050965
30
0
0
SPLINE
5
B1
100
AcDbEntity
8
1
62
256
6
ByLayer
370
13
48
1
60
0
100
AcDbSpline
70
4
71
3
72
24
73
20
40
0
40
0
40
0
40
0
40
0.116063360221664
40
0.116063360221664
40
0.214338446353667
40
0.214338446353667
40
0.31261353248567
40
0.31261353248567
40
0.410888618617673
40
0.410888618617673
40
0.509163704749676
40
0.509163704749676
40
0.705713877013683
40
0.705713877013683
40
0.803988963145687
40
0.803988963145687
40
0.902264049277691
40
0.902264049277691
40
1
40
1
40
1
40
1
41
1
10
25.2549063029728
20
-2.04761365842532
30
0
41
1
10
24.9411105777698
20
-1.94732574021336
30
0
41
1
10
24.6266080264281
20
-1.83569679530021
30
0
41
1
10
24.0426692894321
20
-1.61063325790843
30
0
41
1
10
23.7734079068747
20
-1.50004814771918
30
0
41
1
10
23.2370352533703
20
-1.26880603179944
30
0
41
1
10
22.9692247958424
20
-1.1478269018192
30
0
41
1
10
22.4330743527703
20
-0.897390788211396
30
0
41
1
10
22.163962960686
20
-0.767661916947219
30
0
41
1
10
21.6276827472212
20
-0.504222030294045
30
0
41
1
10
21.3608875060683
20
-0.370601832236247
30
0
41
1
10
20.5625878734721
20
0.031995109117247
30
0
41
1
10
20.0330711788691
20
0.302514869695869
30
0
41
1
10
19.2354140476485
20
0.696580891901249
30
0
41
1
10
18.9689425296705
20
0.825937393697188
30
0
41
1
10
18.4336369322689
20
1.07826482699807
30
0
41
1
10
18.164291520703
20
1.20141001822799
30
0
41
1
10
17.6293463597466
20
1.43550903915124
30
0
41
1
10
17.3630560680506
20
1.54673725414577
30
0
41
1
10
17.0966074013309
20
1.65151933049836
30
0
0
SPLINE
5
B2
100
AcDbEntity
8
1
62
256
6
ByLayer
370
18
48
1
60
0
100
AcDbSpline
70
4
71
3
72
14
73
10
40
0
40
0
40
0
40
0
40
0.25
40
0.25
40
0.5
40
0.5
40
0.75
40
0.75
40
1
40
1
40
1
40
1
41
1
10
3.2299907899766
20
-2.68599381426986
30
0
41
1
10
3.24031729341738
20
-2.66409717975043
30
0
41
1
10
3.25411565587621
20
-2.64306966754378
30
0
41
1
10
3.28748395180412
20
-2.60727082716542
30
0
41
1
10
3.30715459616135
20
-2.59244012758524
30
0
41
1
10
3.3490158173411
20
-2.57131647714297
30
0
41
1
10
3.37090189569031
20
-2.56504618525509
30
0
41
1
10
3.41372873004761
20
-2.55960367921696
30
0
41
1
10
3.43435822246551
20
-2.56031890514257
30
0
41
1
10
3.45443600272935
20
-2.56350485846249
30
0
0
SPLINE
5
B3
100
AcDbEntity
8
1
62
256
6
ByLayer
370
18
48
1
60
0
100
AcDbSpline
70
4
71
3
72
32
73
28
40
0
40
0
40
0
40
0
40
0.250000000000008
40
0.250000000000008
40
0.375000000000012
40
0.375000000000012
40
0.500000000000016
40
0.500000000000016
40
0.62500000000002
40
0.62500000000002
40
0.750000000000024
40
0.750000000000024
40
0.812500000000026
40
0.812500000000026
40
0.828125000000025
40
0.828125000000025
40
0.835937500000024
40
0.835937500000024
40
0.843750000000023
40
0.843750000000023
40
0.851562500000022
40
0.851562500000022
40
0.859375000000021
40
0.859375000000021
40
0.87500000000002
40
0.87500000000002
40
1
40
1
40
1
40
1
41
1
10
26.441849501908
20
1.0593200987112
30
0
41
1
10
26.6494129744117
20
0.878414447121344
30
0
41
1
10
26.8673275535474
20
0.720762256702756
30
0
41
1
10
27.2103949232819
20
0.520666694946868
30
0
41
1
10
27.327038084235
20
0.460204801559939
30
0
41
1
10
27.560587449798
20
0.35676002263429
30
0
41
1
10
27.6780910945946
20
0.312968045147699
30
0
41
1
10
27.9146255183933
20
0.241997854876075
30
0
41
1
10
28.0341075164618
20
0.214729360510773
30
0
41
1
10
28.2729107256652
20
0.180585468702873
30
0
41
1
10
28.3908994530269
20
0.173938579490112
30
0
41
1
10
28.5653953311681
20
0.182320395994992
30
0
41
1
10
28.623169551517
20
0.188203387329167
30
0
41
1
10
28.6941852322516
20
0.199667870878699
30
0
41
1
10
28.7083373306122
20
0.202167040668826
30
0
41
1
10
28.7294800155894
20
0.20623009512849
30
0
41
1
10
28.736512241001
20
0.207636615568845
30
0
41
1
10
28.7505457410248
20
0.210554941060991
30
0
41
1
10
28.757692232335
20
0.211830103164914
30
0
41
1
10
28.7707154905864
20
0.217112265054482
30
0
41
1
10
28.7766598061878
20
0.221479482034141
30
0
41
1
10
28.7851094019254
20
0.23393599650143
30
0
41
1
10
28.7869639657695
20
0.242296110683157
30
0
41
1
10
28.7907357960801
20
0.267111986066624
30
0
41
1
10
28.7934294718918
20
0.28357553518498
30
0
41
1
10
28.8152700762132
20
0.432785540432974
30
0
41
1
10
28.8220467676731
20
0.570747448312574
30
0
41
1
10
28.8199707641114
20
0.709109002372543
30
0
0
SPLINE
5
B4
100
AcDbEntity
8
1
62
256
6
ByLayer
370
13
48
1
60
0
100
AcDbSpline
70
4
71
3
72
12
73
8
40
0
40
0
40
0
40
0
40
0.0085022463770613
40
0.0085022463770613
40
0.504251123188531
40
0.504251123188531
40
1
40
1
40
1
40
1
41
1
10
3.45436300914321
20
-2.62412877161151
30
0
41
1
10
3.45436325277419
20
-2.62411302184398
30
0
41
1
10
3.45436349620783
20
-2.6240959535013
30
0
41
1
10
3.45437792199024
20
-2.62300545893839
30
0
41
1
10
3.45439146624221
20
-2.61733320818195
30
0
41
1
10
3.45441586677578
20
-2.59702104277761
30
0
41
1
10
3.45442677212537
20
-2.58243036930494
30
0
41
1
10
3.45443600272932
20
-2.56350485846656
30
0
0
SPLINE
5
B5
100
AcDbEntity
8
1
62
256
6
ByLayer
370
18
48
1
60
0
100
AcDbSpline
70
4
71
3
72
8
73
4
40
0
40
0
40
0
40
0
40
1
40
1
40
1
40
1
41
1
10
29.8769278788278
20
0.832788185111866
30
0
41
1
10
29.8708494163151
20
0.806995512371685
30
0
41
1
10
29.8645170159871
20
0.781269166621826
30
0
41
1
10
29.8579406372244
20
0.755606964947191
30
0
0
SPLINE
5
B6
100
AcDbEntity
8
1
62
256
6
ByLayer
370
18
48
1
60
0
100
AcDbSpline
70
4
71
3
72
43
73
39
40
0
40
0
40
0
40
0
40
0.0240912743900514
40
0.0240912743900514
40
0.098197734742331
40
0.098197734742331
40
0.172304195094611
40
0.172304195094611
40
0.32051711579917
40
0.32051711579917
40
0.394623576151449
40
0.394623576151449
40
0.468730036503729
40
0.468730036503729
40
0.542836496856008
40
0.542836496856008
40
0.561363111944078
40
0.561363111944078
40
0.570626419488113
40
0.570626419488113
40
0.579889727032148
40
0.579889727032148
40
0.584521380804165
40
0.584521380804165
40
0.589153034576183
40
0.589153034576183
40
0.598416342120218
40
0.616942957208288
40
0.616942957208288
40
0.691049417560566
40
0.691049417560566
40
0.765155877912845
40
0.765155877912845
40
0.913368798617403
40
0.913368798617403
40
0.987475258969682
40
0.987475258969682
40
1
40
1
40
1
40
1
41
1
10
7.9666994601991
20
2.18124635833126
30
0
41
1
10
7.9666994601991
20
2.15355418886895
30
0
41
1
10
7.9666994601991
20
2.12617340534081
30
0
41
1
10
7.9666994601991
20
2.01581654570069
30
0
41
1
10
7.96669946019912
20
1.9354560762643
30
0
41
1
10
7.96669946019912
20
1.78052851895262
30
0
41
1
10
7.9666994601991
20
1.7057111643694
30
0
41
1
10
7.9666994601991
20
1.4942638547391
30
0
41
1
10
7.96669946019912
20
1.36909528059306
30
0
41
1
10
7.96669946019912
20
1.20305247894663
30
0
41
1
10
7.9666994601991
20
1.1513480634471
30
0
41
1
10
7.9666994601991
20
1.05515901099656
30
0
41
1
10
7.96669946019912
20
1.0105632745599
30
0
41
1
10
7.96669946019912
20
0.929312450058944
30
0
41
1
10
7.9666994601991
20
0.892658991292507
30
0
41
1
10
7.9666994601991
20
0.851720347464749
30
0
41
1
10
7.96669946019912
20
0.843776335557806
30
0
41
1
10
7.96669946019912
20
0.832235684120462
30
0
41
1
10
7.9666994601991
20
0.828450948778965
30
0
41
1
10
7.9666994601991
20
0.821005537222788
30
0
41
1
10
7.9666994601991
20
0.816201514338189
30
0
41
1
10
7.9666994601991
20
0.815303860532623
30
0
41
1
10
7.96669946019912
20
0.815937828041257
30
0
41
1
10
7.96669946019912
20
0.819015043224852
30
0
41
1
10
7.9666994601991
20
0.821678077839437
30
0
41
1
10
7.9666994601991
20
0.830067475915257
30
0
41
1
10
7.96669946019912
20
0.847028293354668
30
0
41
1
10
7.96669946019912
20
0.864537091563903
30
0
41
1
10
7.96669946019912
20
0.924127806688148
30
0
41
1
10
7.9666994601991
20
0.975642531585009
30
0
41
1
10
7.9666994601991
20
1.0862436488255
30
0
41
1
10
7.96669946019912
20
1.14553688041428
30
0
41
1
10
7.96669946019912
20
1.33325092744585
30
0
41
1
10
7.9666994601991
20
1.4718349481515
30
0
41
1
10
7.9666994601991
20
1.70125186360892
30
0
41
1
10
7.96669946019912
20
1.78171860175212
30
0
41
1
10
7.96669946019912
20
1.87924822071904
30
0
41
1
10
7.96669946019912
20
1.89342013269291
30
0
41
1
10
7.96669946019912
20
1.90766364997052
30
0
0
SPLINE
5
B7
100
AcDbEntity
8
1
62
256
6
ByLayer
370
18
48
1
60
0
100
AcDbSpline
70
4
71
3
72
12
73
8
40
0
40
0
40
0
40
0
40
0.131512429225706
40
0.131512429225706
40
0.565756214612853
40
0.565756214612853
40
1
40
1
40
1
40
1
41
1
10
3.22994105727787
20
-2.76176676723998
30
0
41
1
10
3.22994366974865
20
-2.76168939712201
30
0
41
1
10
3.22994624284286
20
-2.76118757603331
30
0
41
1
10
3.22995712726583
20
-2.75720367435318
30
0
41
1
10
3.22996503793388
20
-2.74940454282677
30
0
41
1
10
3.22997924076722
20
-2.7244881792823
30
0
41
1
10
3.22998552475048
20
-2.70746275551281
30
0
41
1
10
3.22999078997651
20
-2.68599381426984
30
0
0
SPLINE
5
B8
100
AcDbEntity
8
1
62
256
6
ByLayer
370
18
48
1
60
0
100
AcDbSpline
70
4
71
3
72
10
73
6
40
0
40
0
40
0
40
0
40
0.5
40
0.5
40
1
40
1
40
1
40
1
41
1
10
29.9998026308154
20
0.0314597409461044
30
0
41
1
10
29.9976307099115
20
0.0217023360068822
30
0
41
1
10
29.994634691685
20
0.0114922047746973
30
0
41
1
10
29.9872895192569
20
-0.0077990806512673
30
0
41
1
10
29.9829117883727
20
-0.0168829787975255
30
0
41
1
10
29.9784204689537
20
-0.0242174090501237
30
0
0
SPLINE
5
B9
100
AcDbEntity
8
1
62
256
6
ByLayer
370
18
48
1
60
0
100
AcDbSpline
70
4
71
3
72
8
73
4
40
0
40
0
40
0
40
0
40
1
40
1
40
1
40
1
41
1
10
29.9821657890777
20
0.301582063662238
30
0
41
1
10
29.9889188876622
20
0.229557551426438
30
0
41
1
10
29.9928073226321
20
0.157679104564068
30
0
41
1
10
29.9933044070424
20
0.0859735781392885
30
0
0
SPLINE
5
BA
100
AcDbEntity
8
1
62
256
6
ByLayer
370
18
48
1
60
0
100
AcDbSpline
70
4
71
3
72
26
73
22
40
0
40
0
40
0
40
0
40
0.172471030198686
40
0.172471030198686
40
0.267235185785672
40
0.267235185785672
40
0.361999341372658
40
0.361999341372658
40
0.551527652546629
40
0.551527652546629
40
0.646291808133614
40
0.646291808133614
40
0.693673885927107
40
0.693673885927107
40
0.741055963720599
40
0.741055963720599
40
0.835820119307583
40
0.835820119307583
40
0.930584274894566
40
0.930584274894566
40
1
40
1
40
1
40
1
41
1
10
16.4055612012392
20
1.90001801129054
30
0
41
1
10
16.895195752043
20
1.71574997733006
30
0
41
1
10
17.3825674871735
20
1.50730197440336
30
0
41
1
10
18.1402248449586
20
1.15624193134522
30
0
41
1
10
18.410066322197
20
1.02605512607704
30
0
41
1
10
18.9460301451256
20
0.76034482433505
30
0
41
1
10
19.2127856176936
20
0.624599341893031
30
0
41
1
10
20.0112683053898
20
0.212377222193283
30
0
41
1
10
20.5412023281572
20
-0.0691050691561657
30
0
41
1
10
21.3406417762811
20
-0.485541326094904
30
0
41
1
10
21.6078793257064
20
-0.62338490061677
30
0
41
1
10
22.010880938337
20
-0.826731856393792
30
0
41
1
10
22.1456996718623
20
-0.894004257236077
30
0
41
1
10
22.4146651536929
20
-1.0263471394224
30
0
41
1
10
22.5489832671254
20
-1.09150266868241
30
0
41
1
10
22.9517458800994
20
-1.28337816015039
30
0
41
1
10
23.2199958752635
20
-1.40653019082959
30
0
41
1
10
23.7573072910452
20
-1.64105260489782
30
0
41
1
10
24.027084733363
20
-1.75271580886991
30
0
41
1
10
24.4915169355296
20
-1.93215314497985
30
0
41
1
10
24.6871916366263
20
-2.00376720996638
30
0
41
1
10
24.8824358932113
20
-2.07087026953806
30
0
0
SPLINE
5
BB
100
AcDbEntity
8
1
62
256
6
ByLayer
370
13
48
1
60
0
100
AcDbSpline
70
4
71
3
72
14
73
10
40
0
40
0
40
0
40
0
40
0.240624990605535
40
0.240624990605535
40
0.620312495302764
40
0.620312495302764
40
0.810156247651382
40
0.810156247651382
40
1
40
1
40
1
40
1
41
1
10
24.8824358930196
20
-2.07087026947218
30
0
41
1
10
25.2202742220481
20
-2.18698116520804
30
0
41
1
10
25.5568237719869
20
-2.28958581497605
30
0
41
1
10
26.4245473218437
20
-2.51582283175125
30
0
41
1
10
26.9558610773557
20
-2.61711066398837
30
0
41
1
10
27.7611367403973
20
-2.7059946244608
30
0
41
1
10
28.030780457235
20
-2.72504676983044
30
0
41
1
10
28.5679906618899
20
-2.74106215278201
30
0
41
1
10
28.8363087044593
20
-2.73812258827573
30
0
41
1
10
29.1049998003543
20
-2.72410900541584
30
0
0
SPLINE
5
BC
100
AcDbEntity
8
1
62
256
6
ByLayer
370
18
48
1
60
0
100
AcDbSpline
70
4
71
3
72
10
73
6
40
0
40
0
40
0
40
0
40
0.5
40
0.5
40
1
40
1
40
1
40
1
41
1
10
29.9784204689537
20
-0.0242174090501805
30
0
41
1
10
29.7693186142774
20
-0.365685656067313
30
0
41
1
10
29.5484893982041
20
-0.695063493925176
30
0
41
1
10
29.0934223994913
20
-1.33999550969423
30
0
41
1
10
28.8589420487742
20
-1.65546807447163
30
0
41
1
10
28.620228263674
20
-1.96607737438984
30
0
0
SPLINE
5
BD
100
AcDbEntity
8
1
62
256
6
ByLayer
370
18
48
1
60
0
100
AcDbSpline
70
4
71
3
72
8
73
4
40
0
40
0
40
0
40
0
40
1
40
1
40
1
40
1
41
1
10
29.1049998003545
20
-2.72410900541587
30
0
41
1
10
29.0998098317464
20
-2.73774323639665
30
0
41
1
10
29.094613780293
20
-2.75136978132153
30
0
41
1
10
29.0894116268949
20
-2.76498862704489
30
0
0
SPLINE
5
BE
100
AcDbEntity
8
1
62
256
6
ByLayer
370
18
48
1
60
0
100
AcDbSpline
70
4
71
3
72
10
73
6
40
0
40
0
40
0
40
0
40
0.5
40
0.5
40
1
40
1
40
1
40
1
41
1
10
29.9933044070423
20
0.0859735781394591
30
0
41
1
10
29.9933570484427
20
0.0783799396170082
30
0
41
1
10
29.9940271973545
20
0.0696774133201359
30
0
41
1
10
29.9962560243811
20
0.0513809341560432
30
0
41
1
10
29.9978290532054
20
0.0416237810484006
30
0
41
1
10
29.9998026308154
20
0.0314597409461044
30
0
0
SPLINE
5
BF
100
AcDbEntity
8
1
62
256
6
ByLayer
370
18
48
1
60
0
100
AcDbSpline
70
4
71
3
72
62
73
58
40
0
40
0
40
0
40
0
40
0.0227830599396323
40
0.0227830599396323
40
0.0589762799418681
40
0.0589762799418681
40
0.0951694999441039
40
0.0951694999441039
40
0.13136271994634
40
0.13136271994634
40
0.167555939948575
40
0.167555939948575
40
0.203749159950811
40
0.203749159950811
40
0.239942379953047
40
0.239942379953047
40
0.276135599955283
40
0.276135599955283
40
0.312328819957518
40
0.312328819957518
40
0.348522039959754
40
0.348522039959754
40
0.38471525996199
40
0.38471525996199
40
0.420908479964226
40
0.420908479964226
40
0.457101699966462
40
0.457101699966462
40
0.493294919968697
40
0.493294919968697
40
0.529488139970933
40
0.529488139970933
40
0.565681359973169
40
0.565681359973169
40
0.601874579975405
40
0.601874579975405
40
0.638067799977641
40
0.638067799977641
40
0.674261019979877
40
0.674261019979877
40
0.710454239982113
40
0.710454239982113
40
0.746647459984349
40
0.746647459984349
40
0.782840679986585
40
0.782840679986585
40
0.81903389998882
40
0.81903389998882
40
0.855227119991056
40
0.855227119991056
40
0.891420339993292
40
0.891420339993292
40
0.927613559995528
40
0.927613559995528
40
0.963806779997764
40
0.963806779997764
40
1
40
1
40
1
40
1
41
1
10
23.9156894843262
20
-2.06254698131678
30
0
41
1
10
23.7943586239428
20
-2.10059254820388
30
0
41
1
10
23.6729019482349
20
-2.13678890705825
30
0
41
1
10
23.3581034655935
20
-2.22600487523505
30
0
41
1
10
23.165148127897
20
-2.27702332264698
30
0
41
1
10
22.7796674296857
20
-2.3692759209994
30
0
41
1
10
22.5870337704156
20
-2.41073132797376
30
0
41
1
10
22.2018688712148
20
-2.48279115032639
30
0
41
1
10
22.0092247733524
20
-2.51275450200862
30
0
41
1
10
21.6232028574861
20
-2.5638812499985
30
0
41
1
10
21.4296681875131
20
-2.58495025906058
30
0
41
1
10
21.0442720236024
20
-2.61645865956777
30
0
41
1
10
20.8517678352562
20
-2.62696671339799
30
0
41
1
10
20.4664974049586
20
-2.63445092807586
30
0
41
1
10
20.273880864935
20
-2.63249291419777
30
0
41
1
10
19.8884097257365
20
-2.61969953332817
30
0
41
1
10
19.6951357976432
20
-2.60825255105968
30
0
41
1
10
19.3091183981858
20
-2.57470407739279
30
0
41
1
10
19.1166624554882
20
-2.5525017481348
30
0
41
1
10
18.7316198954849
20
-2.49655381137799
30
0
41
1
10
18.5390206523294
20
-2.46349397319523
30
0
41
1
10
18.1537424460885
20
-2.38752017468303
30
0
41
1
10
17.9609315860359
20
-2.3440049754355
30
0
41
1
10
17.574609759611
20
-2.24878653767976
30
0
41
1
10
17.3816875156687
20
-2.19713105817846
30
0
41
1
10
16.9965822379845
20
-2.08415047360387
30
0
41
1
10
16.8042677894073
20
-2.02287561228221
30
0
41
1
10
16.4189778553309
20
-1.89225039424059
30
0
41
1
10
16.2262333241994
20
-1.82277817019272
30
0
41
1
10
15.8403483953475
20
-1.67710197368965
30
0
41
1
10
15.6473085513499
20
-1.60089743233527
30
0
41
1
10
15.2630729980915
20
-1.44274840756503
30
0
41
1
10
15.0717204260717
20
-1.36035194450133
30
0
41
1
10
14.6896063004274
20
-1.19108331011691
30
0
41
1
10
14.4987300552965
20
-1.10446342490957
30
0
41
1
10
14.1174797845175
20
-0.926990386867828
30
0
41
1
10
13.9271228224169
20
-0.836052572356351
30
0
41
1
10
13.5459732312607
20
-0.651290998361134
30
0
41
1
10
13.3550175353494
20
-0.557297528574736
30
0
41
1
10
12.9728276821312
20
-0.367458166474506
30
0
41
1
10
12.7817355728771
20
-0.270994133083349
30
0
41
1
10
12.3979609233253
20
-0.0777167645366035
30
0
41
1
10
12.2053151656779
20
0.0197373084502033
30
0
41
1
10
11.8192523192246
20
0.214759443219435
30
0
41
1
10
11.6265838311009
20
0.311670087939177
30
0
41
1
10
11.2413480751121
20
0.503402306140259
30
0
41
1
10
11.0489031522387
20
0.598290314841279
30
0
41
1
10
10.6641006644985
20
0.786116063704867
30
0
41
1
10
10.4714607999402
20
0.878465160938646
30
0
41
1
10
10.0857321157752
20
1.05980593722995
30
0
41
1
10
9.89257286152443
20
1.14895286863197
30
0
41
1
10
9.50722960016006
20
1.32016104300811
30
0
41
1
10
9.31468804519514
20
1.40251156612919
30
0
41
1
10
8.92982226908356
20
1.5625127606958
30
0
41
1
10
8.73781123782771
20
1.64053393414167
30
0
41
1
10
8.35284816805657
20
1.78834377494076
30
0
41
1
10
8.15994342769596
20
1.85809605166614
30
0
41
1
10
7.96669946019915
20
1.9238612337378
30
0
0
SPLINE
5
C0
100
AcDbEntity
8
1
62
256
6
ByLayer
370
13
48
1
60
0
100
AcDbSpline
70
4
71
3
72
27
73
23
40
0
40
0
40
0
40
0
40
0.137188349367488
40
0.137188349367488
40
0.205782524051231
40
0.205782524051231
40
0.274376698734975
40
0.342970873418719
40
0.342970873418719
40
0.411565048102463
40
0.411565048102463
40
0.480159222786206
40
0.480159222786206
40
0.54875339746995
40
0.54875339746995
40
0.685941746837437
40
0.685941746837437
40
0.823130096204925
40
0.823130096204925
40
0.960318445572412
40
0.960318445572412
40
1
40
1
40
1
40
1
41
1
10
3.45359343810162
20
0.413626403298878
30
0
41
1
10
3.45365943089658
20
0.590782037994103
30
0
41
1
10
3.45371488241869
20
0.762900492123578
30
0
41
1
10
3.45378792591242
20
1.01360763825812
30
0
41
1
10
3.45381056853549
20
1.09594595463932
30
0
41
1
10
3.45385255182643
20
1.25490720027309
30
0
41
1
10
3.45389148770383
20
1.40900153050686
30
0
41
1
10
3.45392627626842
20
1.5535161099684
30
0
41
1
10
3.45395984844447
20
1.6931689752507
30
0
41
1
10
3.45397609345929
20
1.7608380970654
30
0
41
1
10
3.45400773795552
20
1.88945582518539
30
0
41
1
10
3.45402314117473
20
1.95042497410682
30
0
41
1
10
3.45405379749263
20
2.06568158223601
30
0
41
1
10
3.45406903643155
20
2.1198744901167
30
0
41
1
10
3.45411454295026
20
2.26978126971909
30
0
41
1
10
3.45414494944237
20
2.35397044078584
30
0
41
1
10
3.45420793364593
20
2.49077494552253
30
0
41
1
10
3.45424072295276
20
2.54317753299935
30
0
41
1
10
3.45430430879273
20
2.61043352140044
30
0
41
1
10
3.4543353743482
20
2.62622178167723
30
0
41
1
10
3.45437194401018
20
2.62345735504303
30
0
41
1
10
3.45437993496603
20
2.62129766292065
30
0
41
1
10
3.45438757568917
20
2.61762100796182
30
0
0
SPLINE
5
C1
100
AcDbEntity
8
1
62
256
6
ByLayer
370
18
48
1
60
0
100
AcDbSpline
70
4
71
3
72
8
73
4
40
0
40
0
40
0
40
0
40
1
40
1
40
1
40
1
41
1
10
29.2031524343888
20
-2.67189948242023
30
0
41
1
10
29.1658768495428
20
-2.71802337614838
30
0
41
1
10
29.1281272494962
20
-2.74891561326916
30
0
41
1
10
29.0894116268949
20
-2.76498862704486
30
0
0
SPLINE
5
C2
100
AcDbEntity
8
1
62
256
6
ByLayer
370
18
48
1
60
0
100
AcDbSpline
70
4
71
3
72
14
73
10
40
0
40
0
40
0
40
0
40
0.0574170668426116
40
0.0574170668426116
40
0.322448391809946
40
0.322448391809946
40
0.852511041744609
40
0.852511041744609
40
1
40
1
40
1
40
1
41
1
10
12.4361387716484
20
-2.62875940379058
30
0
41
1
10
12.377941715601
20
-2.62863862204855
30
0
41
1
10
12.3197606382853
20
-2.62802366344221
30
0
41
1
10
11.9932057980684
20
-2.62178478159254
30
0
41
1
10
11.7262127815003
20
-2.60617825323357
30
0
41
1
10
10.9274774077741
20
-2.52922477021332
30
0
41
1
10
10.3977870280231
20
-2.43757157792697
30
0
41
1
10
9.71814805076173
20
-2.27370857408894
30
0
41
1
10
9.57004174955065
20
-2.23517504960549
30
0
41
1
10
9.42166716866342
20
-2.19388970772485
30
0
0
SPLINE
5
C3
100
AcDbEntity
8
1
62
256
6
ByLayer
370
13
48
1
60
0
100
AcDbSpline
70
4
71
3
72
18
73
14
40
0
40
0
40
0
40
0
40
0.0595826501430752
40
0.0595826501430752
40
0.193927985836922
40
0.193927985836922
40
0.462618657224614
40
0.462618657224614
40
0.731309328612305
40
0.731309328612305
40
0.865654664306153
40
0.865654664306153
40
1
40
1
40
1
40
1
41
1
10
9.42166716862567
20
-2.1938897077143
30
0
41
1
10
9.30341899871638
20
-2.16098706298686
30
0
41
1
10
9.18500043350417
20
-2.12633662742488
30
0
41
1
10
8.79884681239363
20
-2.00805339558426
30
0
41
1
10
8.5293020438767
20
-1.91715370931212
30
0
41
1
10
7.72563700819128
20
-1.62456408152079
30
0
41
1
10
7.19490163683537
20
-1.40208794620048
30
0
41
1
10
6.13271778266881
20
-0.921595296537362
30
0
41
1
10
5.60147330278687
20
-0.663146697219702
30
0
41
1
10
4.79707893568727
20
-0.261765920722041
30
0
41
1
10
4.52774330069155
20
-0.125750576667684
30
0
41
1
10
3.99076591714476
20
0.144984591859867
30
0
41
1
10
3.72239220438553
20
0.280014035576443
30
0
41
1
10
3.45359343810156
20
0.413626403298906
30
0
0
SPLINE
5
C4
100
AcDbEntity
8
1
62
256
6
ByLayer
370
18
48
1
60
0
100
AcDbSpline
70
4
71
3
72
14
73
10
40
0
40
0
40
0
40
0
40
0.25
40
0.25
40
0.5
40
0.5
40
0.75
40
0.75
40
1
40
1
40
1
40
1
41
1
10
29.11369137881
20
-2.63432347475242
30
0
41
1
10
29.1169638154028
20
-2.63350128585222
30
0
41
1
10
29.1195928950815
20
-2.63432100588844
30
0
41
1
10
29.1231780412457
20
-2.64028326449747
30
0
41
1
10
29.1240838934087
20
-2.64549825207854
30
0
41
1
10
29.1231234587617
20
-2.66148254310167
30
0
41
1
10
29.1211902877774
20
-2.67225629576157
30
0
41
1
10
29.114637166185
20
-2.69698838542254
30
0
41
1
10
29.1100566835743
20
-2.71082439445362
30
0
41
1
10
29.1049998003551
20
-2.72410900541385
30
0
0
SPLINE
5
C5
100
AcDbEntity
8
1
62
256
6
ByLayer
370
18
48
1
60
0
100
AcDbSpline
70
4
71
3
72
12
73
8
40
0
40
0
40
0
40
0
40
0.25
40
0.25
40
0.500000000000001
40
0.500000000000001
40
1
40
1
40
1
40
1
41
1
10
28.8199707641106
20
0.709109002372429
30
0
41
1
10
28.8198211330891
20
0.719081615644456
30
0
41
1
10
28.8224376237843
20
0.729071868998432
30
0
41
1
10
28.8331203628676
20
0.746288212371184
30
0
41
1
10
28.8411632105349
20
0.753472672610741
30
0
41
1
10
28.8680795035231
20
0.768991211554265
30
0
41
1
10
28.8892323040296
20
0.772281488691107
30
0
41
1
10
28.9099163043702
20
0.771784197442969
30
0
0
SPLINE
5
C6
100
AcDbEntity
8
1
62
256
6
ByLayer
370
18
48
1
60
0
100
AcDbSpline
70
4
71
3
72
8
73
4
40
0
40
0
40
0
40
0
40
1
40
1
40
1
40
1
41
1
10
3.28225533754232
20
0.421795456506885
30
0
41
1
10
3.25079888165999
20
0.450926623366627
30
0
41
1
10
3.22943887161358
20
0.490767520013094
30
0
41
1
10
3.22944846972655
20
0.533226783146375
30
0
0
SPLINE
5
C7
100
AcDbEntity
8
1
62
256
6
ByLayer
370
18
48
1
60
0
100
AcDbSpline
70
4
71
3
72
18
73
14
40
0
40
0
40
0
40
0
40
0.282067661350415
40
0.282067661350415
40
0.423101492025622
40
0.423101492025622
40
0.56413532270083
40
0.56413532270083
40
0.846202984051239
40
0.846202984051239
40
0.987236814726447
40
0.987236814726447
40
1
40
1
40
1
40
1
41
1
10
28.6202282636741
20
-1.96607737438981
30
0
41
1
10
28.6576095178551
20
-2.08301552916521
30
0
41
1
10
28.6967182423721
20
-2.1851012080418
30
0
41
1
10
28.7573566989736
20
-2.31690813775103
30
0
41
1
10
28.7779065586193
20
-2.35726193100444
30
0
41
1
10
28.8196609758234
20
-2.43063286881977
30
0
41
1
10
28.840811337382
20
-2.46350152636944
30
0
41
1
10
28.9038896297416
20
-2.54904108049564
30
0
41
1
10
28.9458665623386
20
-2.58956225138687
30
0
41
1
10
29.0089654823631
20
-2.62556526991409
30
0
41
1
10
29.0300985112377
20
-2.63341447201017
30
0
41
1
10
29.0530116213422
20
-2.63721451248455
30
0
41
1
10
29.0549117243338
20
-2.63749434648355
30
0
41
1
10
29.0568104769953
20
-2.63773864630718
30
0
0
SPLINE
5
C8
100
AcDbEntity
8
1
62
256
6
ByLayer
370
18
48
1
60
0
100
AcDbSpline
70
4
71
3
72
8
73
4
40
0
40
0
40
0
40
0
40
1
40
1
40
1
40
1
41
1
10
29.9933044070422
20
-0.0859735781396864
30
0
41
1
10
29.9934102226504
20
-0.0707094424442687
30
0
41
1
10
29.9958941150261
20
-0.0515888258221651
30
0
41
1
10
29.9998026308152
20
-0.0314597409463317
30
0
0
SPLINE
5
C9
100
AcDbEntity
8
1
62
256
6
ByLayer
370
18
48
1
60
0
100
AcDbSpline
70
4
71
3
72
38
73
34
40
0
40
0
40
0
40
0
40
0.0954882925097645
40
0.0954882925097645
40
0.143232438764647
40
0.143232438764647
40
0.190976585019528
40
0.190976585019528
40
0.286464877529291
40
0.286464877529291
40
0.310336950656731
40
0.310336950656731
40
0.334209023784171
40
0.334209023784171
40
0.381953170039052
40
0.381953170039052
40
0.477441462548814
40
0.477441462548814
40
0.525185608803694
40
0.525185608803694
40
0.572929755058575
40
0.572929755058575
40
0.763906340078097
40
0.763906340078097
40
0.787778413205536
40
0.787778413205536
40
0.811650486332976
40
0.811650486332976
40
0.859394632587855
40
0.859394632587855
40
0.954882925097613
40
0.954882925097613
40
1
40
1
40
1
40
1
41
1
10
29.0894116268949
20
-2.76498862704486
30
0
41
1
10
28.549951910349
20
-2.79247761187864
30
0
41
1
10
28.0125988349387
20
-2.77505514593247
30
0
41
1
10
27.2020409626633
20
-2.68261876432859
30
0
41
1
10
26.9322480330601
20
-2.64081664609464
30
0
41
1
10
26.3958438856857
20
-2.53715744960454
30
0
41
1
10
26.128649940638
20
-2.47523345608198
30
0
41
1
10
25.3281269041347
20
-2.261231601741
30
0
41
1
10
24.7956740203113
20
-2.08108010775953
30
0
41
1
10
24.1249181519428
20
-1.81645588976829
30
0
41
1
10
23.9905064733988
20
-1.76156078940102
30
0
41
1
10
23.7209641408919
20
-1.64806689517894
30
0
41
1
10
23.5855660921873
20
-1.58934655025342
30
0
41
1
10
23.180724100546
20
-1.40916705920901
30
0
41
1
10
22.9123215955369
20
-1.28358977868643
30
0
41
1
10
22.1095669858991
20
-0.894208637678958
30
0
41
1
10
21.5774835487215
20
-0.618076044959878
30
0
41
1
10
20.7759102375297
20
-0.194075618189743
30
0
41
1
10
20.5081187458035
20
-0.0511598459952154
30
0
41
1
10
19.9700258129543
20
0.235390396144027
30
0
41
1
10
19.6988599699742
20
0.379390644709019
30
0
41
1
10
18.353345489624
20
1.08290515129758
30
0
41
1
10
17.2973971512088
20
1.60082330428551
30
0
41
1
10
16.0827235627818
20
2.04813724513338
30
0
41
1
10
15.9472709520499
20
2.09596306906491
30
0
41
1
10
15.6775910362835
20
2.18683519128339
30
0
41
1
10
15.5430998707783
20
2.22998259497945
30
0
41
1
10
15.1404193474635
20
2.35237301790065
30
0
41
1
10
14.8730708275716
20
2.42461262490741
30
0
41
1
10
14.0721646050174
20
2.61156971189053
30
0
41
1
10
13.5395013580504
20
2.69638142776066
30
0
41
1
10
12.74961764697
20
2.75755951308454
30
0
41
1
10
12.4947001185953
20
2.76748339315574
30
0
41
1
10
12.239266933766
20
2.76739681895438
30
0
0
SPLINE
5
CA
100
AcDbEntity
8
1
62
256
6
ByLayer
370
18
48
1
60
0
100
AcDbSpline
70
4
71
3
72
53
73
49
40
0
40
0
40
0
40
0
40
0.0624999999999748
40
0.0624999999999748
40
0.124999999999949
40
0.124999999999949
40
0.156249999999938
40
0.156249999999938
40
0.187499999999926
40
0.187499999999926
40
0.218749999999914
40
0.218749999999914
40
0.234374999999908
40
0.234374999999908
40
0.249999999999902
40
0.249999999999902
40
0.265624999999897
40
0.265624999999897
40
0.281249999999891
40
0.281249999999891
40
0.296874999999885
40
0.296874999999885
40
0.312499999999879
40
0.312499999999879
40
0.343749999999869
40
0.343749999999869
40
0.374999999999859
40
0.374999999999859
40
0.382812499999857
40
0.386718749999857
40
0.386718749999857
40
0.390624999999858
40
0.390624999999858
40
0.398437499999858
40
0.398437499999858
40
0.406249999999859
40
0.406249999999859
40
0.437499999999867
40
0.437499999999867
40
0.499999999999881
40
0.499999999999881
40
0.624999999999911
40
0.624999999999911
40
0.749999999999941
40
0.749999999999941
40
0.87499999999997
40
0.87499999999997
40
1
40
1
40
1
40
1
41
1
10
3.22999078997657
20
-2.68599381426984
30
0
41
1
10
3.08243982058593
20
-2.66138665521612
30
0
41
1
10
2.9380754201747
20
-2.63018420223361
30
0
41
1
10
2.65945531292607
20
-2.54962543833895
30
0
41
1
10
2.52415457975124
20
-2.50009115481683
30
0
41
1
10
2.34017188299907
20
-2.4052699271428
30
0
41
1
10
2.28169215632227
20
-2.36997657288993
30
0
41
1
10
2.1757494893404
20
-2.29054065136955
30
0
41
1
10
2.12854095728631
20
-2.2467487683731
30
0
41
1
10
2.05179341920922
20
-2.14744952801669
30
0
41
1
10
2.02217781572981
20
-2.09092060349005
30
0
41
1
10
2.00175426814548
20
-1.99937008428259
30
0
41
1
10
1.99883970902772
20
-1.96723835510286
30
0
41
1
10
2.00201631293817
20
-1.90191468076281
30
0
41
1
10
2.00800783425422
20
-1.86901257066614
30
0
41
1
10
2.02865988852506
20
-1.80285864775675
30
0
41
1
10
2.04354261534883
20
-1.76929090792021
30
0
41
1
10
2.08043481735018
20
-1.70421130267735
30
0
41
1
10
2.10240233644288
20
-1.67253416396423
30
0
41
1
10
2.15227096622891
20
-1.61071687431601
30
0
41
1
10
2.18012394626015
20
-1.58068466893386
30
0
41
1
10
2.23923829169513
20
-1.52346806952068
30
0
41
1
10
2.27068004454233
20
-1.49605373032531
30
0
41
1
10
2.36954012742257
20
-1.4167590957916
30
0
41
1
10
2.44185562532843
20
-1.36759129990492
30
0
41
1
10
2.59227718579098
20
-1.27670273434018
30
0
41
1
10
2.67056153193721
20
-1.23480960632935
30
0
41
1
10
2.77120217950315
20
-1.18578532958446
30
0
41
1
10
2.80156987377387
20
-1.17135049455024
30
0
41
1
10
2.83218218400111
20
-1.15729869849645
30
0
41
1
10
2.85264298501491
20
-1.14801347275136
30
0
41
1
10
2.86269346477997
20
-1.14303944798684
30
0
41
1
10
2.89531885906251
20
-1.13256867295024
30
0
41
1
10
2.91792503767715
20
-1.13198411095402
30
0
41
1
10
2.96338662625499
20
-1.13413596321908
30
0
41
1
10
2.98602757696199
20
-1.13620456615101
30
0
41
1
10
3.09943800623949
20
-1.14427006150217
30
0
41
1
10
3.19009917638755
20
-1.15164288401399
30
0
41
1
10
3.46168046964382
20
-1.17642691052549
30
0
41
1
10
3.64219953221706
20
-1.19650860183
30
0
41
1
10
4.18220208941455
20
-1.26671790710367
30
0
41
1
10
4.54013463835372
20
-1.32694201028053
30
0
41
1
10
5.24542880742433
20
-1.46727585656632
30
0
41
1
10
5.59367825885485
20
-1.54744445536633
30
0
41
1
10
6.28250916831786
20
-1.71974113870974
30
0
41
1
10
6.62311587791481
20
-1.81176864181896
30
0
41
1
10
7.298580742692
20
-1.99774690369824
30
0
41
1
10
7.6334470096711
20
-2.0916509375192
30
0
41
1
10
7.96669946019907
20
-2.18124635833567
30
0
0
SPLINE
5
CB
100
AcDbEntity
8
1
62
256
6
ByLayer
370
18
48
1
60
0
100
AcDbSpline
70
4
71
3
72
20
73
16
40
0
40
0
40
0
40
0
40
0.192793138307185
40
0.192793138307185
40
0.385586276614371
40
0.385586276614371
40
0.578379414921556
40
0.578379414921556
40
0.771172553228741
40
0.771172553228741
40
0.867569122382334
40
0.867569122382334
40
0.963965691535927
40
0.963965691535927
40
1
40
1
40
1
40
1
41
1
10
7.9666994601991
20
-2.18124635833564
30
0
41
1
10
8.18954899792379
20
-2.25485793402731
30
0
41
1
10
8.41186045672117
20
-2.3212767565372
30
0
41
1
10
8.85531898352644
20
-2.44074208969656
30
0
41
1
10
9.07576116124241
20
-2.49437943429888
30
0
41
1
10
9.51668655943729
20
-2.58718048769342
30
0
41
1
10
9.7371915401032
20
-2.62646609846513
30
0
41
1
10
10.1773850690302
20
-2.6913544585598
30
0
41
1
10
10.3975380639982
20
-2.71662211476885
30
0
41
1
10
10.7288948228627
20
-2.74340447415764
30
0
41
1
10
10.8394751230121
20
-2.75050846137216
30
0
41
1
10
11.0607084598486
20
-2.76104521351149
30
0
41
1
10
11.1712848531164
20
-2.76446935755175
30
0
41
1
10
11.3237456623959
20
-2.76654236334088
30
0
41
1
10
11.3653014006168
20
-2.76684227678601
30
0
41
1
10
11.4069051117996
20
-2.76687775894362
30
0
0
SPLINE
5
CC
100
AcDbEntity
8
1
62
256
6
ByLayer
370
18
48
1
60
0
100
AcDbSpline
70
4
71
3
72
22
73
18
40
0
40
0
40
0
40
0
40
0.120823792859944
40
0.120823792859944
40
0.246420393879954
40
0.246420393879954
40
0.372016994899963
40
0.372016994899963
40
0.497613595919973
40
0.497613595919973
40
0.62321019693998
40
0.62321019693998
40
0.748806797959986
40
0.748806797959986
40
0.874403398979993
40
0.874403398979993
40
1
40
1
40
1
40
1
41
1
10
23.9178460167503
20
2.0524114963244
30
0
41
1
10
24.1304617115762
20
2.1285377957787
30
0
41
1
10
24.3422200816747
20
2.19977602291999
30
0
41
1
10
24.7738673865608
20
2.33322079731485
30
0
41
1
10
24.9940863762994
20
2.39466476983938
30
0
41
1
10
25.4342769387679
20
2.50516805735688
30
0
41
1
10
25.6541044407866
20
2.55423538899561
30
0
41
1
10
26.0960556075125
20
2.63769705801167
30
0
41
1
10
26.3173862414361
20
2.67270366709548
30
0
41
1
10
26.7618171221585
20
2.72817843539656
30
0
41
1
10
26.9855326231017
20
2.74844187725682
30
0
41
1
10
27.4301868819852
20
2.77380846081397
30
0
41
1
10
27.6513814761111
20
2.77894531482971
30
0
41
1
10
28.0946233466551
20
2.77406286926731
30
0
41
1
10
28.3159965029944
20
2.76412095694471
30
0
41
1
10
28.7587466206209
20
2.72909626207365
30
0
41
1
10
28.9806685860294
20
2.70418697457626
30
0
41
1
10
29.2031524343888
20
2.67189948242017
30
0
0
SPLINE
5
CD
100
AcDbEntity
8
1
62
256
6
ByLayer
370
18
48
1
60
0
100
AcDbSpline
70
4
71
3
72
10
73
6
40
0
40
0
40
0
40
0
40
0.5
40
0.5
40
1
40
1
40
1
40
1
41
1
10
29.2031524343826
20
2.67189948243768
30
0
41
1
10
29.3112002191648
20
2.36482052208007
30
0
41
1
10
29.4219857858761
20
2.05768239011417
30
0
41
1
10
29.6476254508488
20
1.44350581689224
30
0
41
1
10
29.7619883751553
20
1.13757902576427
30
0
41
1
10
29.8769278788278
20
0.832788185111866
30
0
0
SPLINE
5
CE
100
AcDbEntity
8
1
62
256
6
ByLayer
370
13
48
1
60
0
100
AcDbSpline
70
4
71
3
72
8
73
4
40
0
40
0
40
0
40
0
40
1
40
1
40
1
40
1
41
1
10
3.22944846971825
20
0.533226783122643
30
0
41
1
10
3.25171374220068
20
0.500113977922638
30
0
41
1
10
3.2882273591197
20
0.471316866565587
30
0
41
1
10
3.33680612853257
20
0.452809208196243
30
0
0
SPLINE
5
CF
100
AcDbEntity
8
1
62
256
6
ByLayer
370
18
48
1
60
0
100
AcDbSpline
70
4
71
3
72
18
73
14
40
0
40
0
40
0
40
0
40
0.138236856448032
40
0.138236856448032
40
0.276473712896064
40
0.276473712896064
40
0.414710569344096
40
0.414710569344096
40
0.552947425792129
40
0.552947425792129
40
0.829421138688189
40
0.829421138688189
40
1
40
1
40
1
40
1
41
1
10
3.45443600302122
20
-2.56350485850879
30
0
41
1
10
3.63108977640533
20
-2.59153637733908
30
0
41
1
10
3.81161488209415
20
-2.60886006915567
30
0
41
1
10
4.17764221982944
20
-2.62718644363596
30
0
41
1
10
4.36361433465066
20
-2.62808848867974
30
0
41
1
10
4.73761075726378
20
-2.61582175411769
30
0
41
1
10
4.92481041267035
20
-2.60259522908737
30
0
41
1
10
5.2996077123708
20
-2.56474317487314
30
0
41
1
10
5.48720138291245
20
-2.5406963393373
30
0
41
1
10
6.05100658558843
20
-2.45151482894556
30
0
41
1
10
6.42816545866867
20
-2.3689153421094
30
0
41
1
10
7.04414487421636
20
-2.206625002789
30
0
41
1
10
7.28065499867594
20
-2.13797199139285
30
0
41
1
10
7.51937585544485
20
-2.06480752925828
30
0
0
LINE
5
76
100
AcDbEntity
8
81
62
256
6
ByLayer
370
18
48
1
60
0
100
AcDbLine
10
30
20
0
30
0
11
35
21
0
31
0
39
0
210
0
220
0
230
1
0
LINE
5
77
100
AcDbEntity
8
1
62
256
6
ByLayer
370
18
48
1
60
0
100
AcDbLine
10
3.229933
20
2.761767
30
0
11
0.222
21
2.759887
31
0
39
0
210
0
220
0
230
1
0
LINE
5
79
100
AcDbEntity
8
1
62
256
6
ByLayer
370
18
48
1
60
0
100
AcDbLine
10
12.236734
20
2.767396
30
0
11
11.410188
21
2.766879
31
0
39
0
210
0
220
0
230
1
0
LINE
5
7A
100
AcDbEntity
8
1
62
256
6
ByLayer
370
18
48
1
60
0
100
AcDbLine
10
28.587171
20
2.777615
30
0
11
27.759912
21
2.777098
31
0
39
0
210
0
220
0
230
1
0
LINE
5
7B
100
AcDbEntity
8
1
62
256
6
ByLayer
370
18
48
1
60
0
100
AcDbLine
10
27.759912
20
-2.777098
30
0
11
28.587146
21
-2.777615
31
0
39
0
210
0
220
0
230
1
0
LINE
5
7C
100
AcDbEntity
8
1
62
256
6
ByLayer
370
18
48
1
60
0
100
AcDbLine
10
11.410188
20
-2.766879
30
0
11
12.236911
21
-2.767396
31
0
39
0
210
0
220
0
230
1
0
LINE
5
7D
100
AcDbEntity
8
1
62
256
6
ByLayer
370
18
48
1
60
0
100
AcDbLine
10
0.222
20
-2.759887
30
0
11
3.229933
21
-2.761767
31
0
39
0
210
0
220
0
230
1
0
LINE
5
7E
100
AcDbEntity
8
1
62
256
6
ByLayer
370
18
48
1
60
0
100
AcDbLine
10
0
20
-3
30
0
11
0.222
21
-2.759887
31
0
39
0
210
0
220
0
230
1
0
LINE
5
7F
100
AcDbEntity
8
1
62
256
6
ByLayer
370
18
48
1
60
0
100
AcDbLine
10
0.222
20
2.759887
30
0
11
0
21
3
31
0
39
0
210
0
220
0
230
1
0
LINE
5
80
100
AcDbEntity
8
SK1
62
256
6
ByLayer
370
18
48
1
60
0
100
AcDbLine
10
-35.278312
20
3
30
0
11
-36
21
1.75
31
0
39
0
210
0
220
0
230
1
0
LINE
5
82
100
AcDbEntity
8
SK1
62
256
6
ByLayer
370
18
48
1
60
0
100
AcDbLine
10
-36
20
-1.75
30
0
11
-35.278312
21
-3
31
0
39
0
210
0
220
0
230
1
0
LINE
5
83
100
AcDbEntity
8
SK1
62
256
6
ByLayer
370
18
48
1
60
0
100
AcDbLine
10
0
20
3
30
0
11
-35.278312
21
3
31
0
39
0
210
0
220
0
230
1
0
LINE
5
84
100
AcDbEntity
8
SK1
62
256
6
ByLayer
370
18
48
1
60
0
100
AcDbLine
10
-35.278312
20
-3
30
0
11
0
21
-3
31
0
39
0
210
0
220
0
230
1
0
LINE
5
85
100
AcDbEntity
8
SK4
62
256
6
ByLayer
370
18
48
0.05
60
0
100
AcDbLine
10
35
20
0
30
0
11
-41
21
0
31
0
39
0
210
0
220
0
230
1
0
LINE
5
87
100
AcDbEntity
8
4
62
256
6
ByLayer
370
18
48
0.05
60
0
100
AcDbLine
10
30
20
0
30
0
11
0
21
0
31
0
39
0
210
0
220
0
230
1
0
LINE
5
89
100
AcDbEntity
8
80
62
256
6
ByLayer
370
18
48
1
60
0
100
AcDbLine
10
0
20
0
30
0
11
-5
21
0
31
0
39
0
210
0
220
0
230
1
0
LINE
5
8A
100
AcDbEntity
8
1
62
256
6
ByLayer
370
18
48
1
60
0
100
AcDbLine
10
0.222
20
2.759887
30
0
11
0.222
21
-2.759887
31
0
39
0
210
0
220
0
230
1
0
LINE
5
8B
100
AcDbEntity
8
1
62
256
6
ByLayer
370
13
48
1
60
0
100
AcDbLine
10
28.909916
20
0.771784
30
0
11
29.993304
21
0.085974
31
0
39
0
210
0
220
0
230
1
0
LINE
5
8C
100
AcDbEntity
8
1
62
256
6
ByLayer
370
13
48
1
60
0
100
AcDbLine
10
28.819971
20
0.709109
30
0
11
29.97842
21
-0.024217
31
0
39
0
210
0
220
0
230
1
0
LINE
5
8D
100
AcDbEntity
8
1
62
256
6
ByLayer
370
18
48
1
60
0
100
AcDbLine
10
0
20
-3
30
0
11
0
21
3
31
0
39
0
210
0
220
0
230
1
0
LINE
5
8E
100
AcDbEntity
8
SK1
62
256
6
ByLayer
370
18
48
1
60
0
100
AcDbLine
10
0
20
-3
30
0
11
0
21
3
31
0
39
0
210
0
220
0
230
1
0
LINE
5
8F
100
AcDbEntity
8
SK1
62
256
6
ByLayer
370
18
48
1
60
0
100
AcDbLine
10
-35.278312
20
3
30
0
11
-35.278312
21
-3
31
0
39
0
210
0
220
0
230
1
0
LINE
5
90
100
AcDbEntity
8
SK1
62
256
6
ByLayer
370
18
48
1
60
0
100
AcDbLine
10
-36
20
1.75
30
0
11
-36
21
-1.75
31
0
39
0
210
0
220
0
230
1
0
MTEXT
5
D0
100
AcDbEntity
8
SK6
62
256
6
ByLayer
370
13
48
1
60
0
100
AcDbMText
10
-0.870831
20
35.160694
30
0
210
0
220
0
230
1
1
\W0.7538;460.1-0556-017A0-XM GC34
40
3.5
41
0
44
1.084337
50
0
71
8
72
5
7
iso_b_vert
0
DIMENSION
5
DD
100
AcDbEntity
8
SK2
62
256
6
ByLayer
370
13
48
1
60
0
100
AcDbDimension
2
DimnDraft3D1
10
29.1851
20
-12.991398
30
0
11
13.435159
21
-12.991398
31
0
70
32
71
5
72
1
41
1
210
0
220
0
230
1
3
Standard
100
AcDbAlignedDimension
13
0
23
-1.5875
33
0
14
29.1851
24
-4.3655
34
0
50
0
100
AcDbRotatedDimension
1001
ACAD
1000
DSTYLE
1002
{
1070
   279
1070
     0
1070
   172
1070
     1
1070
   173
1070
     1
1070
   340
1005
D1
1070
   271
1070
     2
1070
   272
1070
     2
1070
    77
1070
     1
1070
    73
1070
     0
1070
   171
1070
     3
1070
   274
1070
     4
1070
   177
1070
    35
1070
   176
1070
    35
1070
   178
1070
    35
1070
    48
1040
-0.005
1070
    41
1041
3.5
1070
   147
1041
1.75
1070
    42
1041
1.5875
1070
    44
1041
2.0
1070
   140
1041
3.5
1070
   343
1005
0
1070
   344
1005
0
1002
}
0
DIMENSION
5
E7
100
AcDbEntity
8
SK2
62
256
6
ByLayer
370
13
48
1
60
0
100
AcDbDimension
2
DimnDraft3D2
10
30
20
-31.692985
30
0
11
-2.4736
21
-31.692985
31
0
70
32
71
5
72
1
41
1
210
0
220
0
230
1
3
Standard
100
AcDbAlignedDimension
13
-36
23
-4.5875
33
0
14
30
24
-1.5875
34
0
50
0
100
AcDbRotatedDimension
1001
ACAD
1000
DSTYLE
1002
{
1070
   279
1070
     0
1070
   172
1070
     1
1070
   173
1070
     1
1070
   340
1005
D1
1070
   271
1070
     2
1070
   272
1070
     2
1070
    77
1070
     1
1070
    73
1070
     0
1070
   171
1070
     3
1070
   274
1070
     4
1070
   177
1070
    35
1070
   176
1070
    35
1070
   178
1070
    35
1070
    48
1040
-0.005
1070
    41
1041
3.5
1070
   147
1041
1.75
1070
    42
1041
1.5875
1070
    44
1041
2.0
1070
   140
1041
3.5
1070
   343
1005
0
1070
   344
1005
0
1002
}
0
DIMENSION
5
F1
100
AcDbEntity
8
SK2
62
256
6
ByLayer
370
13
48
1
60
0
100
AcDbDimension
2
DimnDraft3D3
10
30
20
14.387119
30
0
11
21.255
21
14.387119
31
0
70
32
71
5
72
1
41
1
210
0
220
0
230
1
3
Standard
100
AcDbAlignedDimension
13
12.51
23
4.3655
33
0
14
30
24
1.5875
34
0
50
0
100
AcDbRotatedDimension
1001
ACAD
1000
DSTYLE
1002
{
1070
   279
1070
     0
1070
   172
1070
     1
1070
   173
1070
     1
1070
   340
1005
D1
1070
   271
1070
     2
1070
   272
1070
     2
1070
    77
1070
     1
1070
    73
1070
     0
1070
   171
1070
     3
1070
   274
1070
     4
1070
   177
1070
    35
1070
   176
1070
    35
1070
   178
1070
    35
1070
    48
1040
-0.005
1070
    41
1041
3.5
1070
   147
1041
1.75
1070
    42
1041
1.5875
1070
    44
1041
2.0
1070
   140
1041
3.5
1070
   343
1005
0
1070
   344
1005
0
1002
}
0
DIMENSION
5
FB
100
AcDbEntity
8
SK2
62
256
6
ByLayer
370
13
48
1
60
0
100
AcDbDimension
2
DimnDraft3D4
10
29.1851
20
-15.580503
30
0
11
39.981425
21
-15.580503
31
0
70
32
71
5
72
1
41
1
210
0
220
0
230
1
3
Standard
100
AcDbAlignedDimension
13
30
23
-1.5875
33
0
14
29.1851
24
-4.3655
34
0
50
0
100
AcDbRotatedDimension
1001
ACAD
1000
DSTYLE
1002
{
1070
   279
1070
     0
1070
   172
1070
     1
1070
   173
1070
     1
1070
   340
1005
D1
1070
   271
1070
     2
1070
   272
1070
     2
1070
    77
1070
     1
1070
    73
1070
     0
1070
   171
1070
     3
1070
   274
1070
     4
1070
   177
1070
    35
1070
   176
1070
    35
1070
   178
1070
    35
1070
    48
1040
-0.005
1070
    41
1041
3.5
1070
   147
1041
1.75
1070
    42
1041
1.5875
1070
    44
1041
2.0
1070
   140
1041
3.5
1070
   343
1005
0
1070
   344
1005
0
1002
}
0
DIMENSION
5
105
100
AcDbEntity
8
SK2
62
256
6
ByLayer
370
13
48
1
60
0
100
AcDbDimension
2
DimnDraft3D5
10
29.1851
20
-21.343428
30
0
11
-5.554224
21
-21.343428
31
0
70
32
71
5
72
1
41
1
210
0
220
0
230
1
3
Standard
100
AcDbAlignedDimension
13
-36
23
-4.5875
33
0
14
29.1851
24
-4.3655
34
0
50
0
100
AcDbRotatedDimension
1001
ACAD
1000
DSTYLE
1002
{
1070
   279
1070
     0
1070
   172
1070
     1
1070
   173
1070
     1
1070
   340
1005
D1
1070
   271
1070
     2
1070
   272
1070
     2
1070
    77
1070
     1
1070
    73
1070
     0
1070
   171
1070
     3
1070
   274
1070
     4
1070
   177
1070
    35
1070
   176
1070
    35
1070
   178
1070
    35
1070
    48
1040
-0.005
1070
    41
1041
3.5
1070
   147
1041
1.75
1070
    42
1041
1.5875
1070
    44
1041
2.0
1070
   140
1041
3.5
1070
   343
1005
0
1070
   344
1005
0
1002
}
0
DIMENSION
5
110
100
AcDbEntity
8
SK2
62
256
6
ByLayer
370
13
48
1
60
0
100
AcDbDimension
2
DimnDraft3D6
10
-46.625163
20
3
30
0
11
-47.250163
21
21.47418
31
0
70
33
71
5
72
1
41
1
210
0
220
0
230
1
3
Standard
100
AcDbAlignedDimension
13
-37.5875
23
-3
33
0
14
-37.5875
24
3
34
0
1001
ACAD
1000
DSTYLE
1002
{
1070
   279
1070
     0
1070
    74
1070
     0
1070
   173
1070
     1
1070
   340
1005
D1
1070
   271
1070
     3
1070
   272
1070
     2
1070
    77
1070
     1
1070
    73
1070
     0
1070
   171
1070
     3
1070
   274
1070
     4
1070
   177
1070
    35
1070
   176
1070
    35
1070
   178
1070
    35
1070
    48
1040
-0.005
1070
    41
1041
3.5
1070
   147
1041
1.75
1070
    42
1041
1.5875
1070
    44
1041
2.0
1070
   140
1041
3.5
1070
   343
1005
0
1070
   344
1005
0
1002
}
0
DIMENSION
5
11B
100
AcDbEntity
8
2
62
256
6
ByLayer
370
13
48
1
60
0
100
AcDbDimension
2
DimnDraft3D7
10
44.083343
20
2.778
30
0
11
39.458343
21
19.845266
31
0
70
33
71
5
72
1
41
1
210
0
220
0
230
1
3
Standard
100
AcDbAlignedDimension
13
30.7726
23
-2.778
33
0
14
30.7726
24
2.778
34
0
1001
ACAD
1000
DSTYLE
1002
{
1070
   279
1070
     0
1070
    74
1070
     0
1070
   173
1070
     1
1070
   340
1005
D1
1070
   271
1070
     3
1070
   272
1070
     2
1070
    77
1070
     1
1070
    73
1070
     0
1070
   171
1070
     3
1070
   274
1070
     4
1070
   177
1070
    35
1070
   176
1070
    35
1070
   178
1070
    35
1070
    48
1040
-0.005
1070
    41
1041
3.5
1070
   147
1041
1.75
1070
    42
1041
1.5875
1070
    44
1041
2.0
1070
   140
1041
3.5
1070
   343
1005
0
1070
   344
1005
0
1002
}
0
ENDSEC
0
SECTION
2
OBJECTS
0
DICTIONARY
5
186
330
0
100
AcDbDictionary
280
0
281
1
3
ACAD_GROUP
350
187
3
ACAD_MLINESTYLE
350
188
0
DICTIONARY
5
187
330
0
100
AcDbDictionary
280
0
281
1
0
DICTIONARY
5
188
330
0
100
AcDbDictionary
280
0
281
1
3
Standard
350
18
0
MLINESTYLE
5
18
330
188
100
AcDbMlineStyle
2
Standard
70
0
3

62
256
51
90
52
90
71
2
49
-0.5
62
256
6
ByLayer
49
0.5
62
256
6
ByLayer
0
RASTERVARIABLES
5
174
330

100
AcDbRasterVariables
90
0
70
1
71
1
72
1
0
ENDSEC
0
EOF
