0
SECTION
2
HEADER
9
$ACADVER
1
AC1015
9
$DWGCODEPAGE
3
ANSI_1252
9
$HANDSEED
5
194
9
$ANGBASE
50
0
9
$ANGDIR
70
0
9
$ATTMODE
70
1
9
$AUNITS
70
0
9
$AUPREC
70
0
9
$CECOLOR
62
256
9
$CELTSCALE
40
1
9
$CELTYPE
6
ByLayer
9
$CELWEIGHT
370
18
9
$CLAYER
8
0
9
$CMLJUST
70
0
9
$CMLSCALE
40
1
9
$CMLSTYLE
2
Standard
9
$DIMSTYLE
2
Standard
9
$TEXTSIZE
40
0.2
9
$TEXTSTYLE
7
Standard
9
$LUNITS
70
2
9
$LUPREC
70
4
9
$EXTNAMES
290
1
9
$INSUNITS
70
4
9
$LTSCALE
40
1
9
$LWDISPLAY
290
1
9
$PDMODE
70
0
9
$PDSIZE
40
0
9
$PLINEGEN
70
0
0
ENDSEC
0
SECTION
2
CLASSES
0
CLASS
1
RASTERVARIABLES
2
AcDbRasterVariables
3
ISM
90
0
280
0
281
0
0
ENDSEC
0
SECTION
2
TABLES
0
TABLE
2
VPORT
5
18a
100
AcDbSymbolTable
0
VPORT
5
1
100
AcDbSymbolTableRecord
100
AcDbViewportTableRecord
2
*Active
70
0
10
0
20
0
11
1
21
1
12
-1
22
1
13
0
23
0
14
0.5
24
0.5
15
10
25
10
16
0
26
0
36
1
17
0
27
0
37
0
0
ENDTAB
0
TABLE
2
LTYPE
5
18b
100
AcDbSymbolTable
0
LTYPE
5
14
100
AcDbSymbolTableRecord
100
AcDbLinetypeTableRecord
70
0
2
ByBlock
3

72
65
73
0
40
0
0
LTYPE
5
15
100
AcDbSymbolTableRecord
100
AcDbLinetypeTableRecord
70
0
2
ByLayer
3

72
65
73
0
40
0
0
LTYPE
5
16
100
AcDbSymbolTableRecord
100
AcDbLinetypeTableRecord
70
0
2
CONTINUOUS
3
Solid line
72
65
73
0
40
0
0
LTYPE
5
6A
100
AcDbSymbolTableRecord
100
AcDbLinetypeTableRecord
70
0
2
CENTER
3
____ _ ____ _ ____ _ ____
72
65
73
4
40
47.5
49
22
74
0
49
-8.5
74
0
49
8.5
74
0
49
-8.5
74
0
0
LTYPE
5
6B
100
AcDbSymbolTableRecord
100
AcDbLinetypeTableRecord
70
0
2
DASHED
3
__ __ __ __ __ __ __ __ __
72
65
73
2
40
25.72
49
12.86
74
0
49
-12.86
74
0
0
ENDTAB
0
TABLE
2
LAYER
5
18c
100
AcDbSymbolTable
0
LAYER
5
10
100
AcDbSymbolTableRecord
100
AcDbLayerTableRecord
2
0
70
0
62
7
6
CONTINUOUS
290
1
370
-3
390
0
0
LAYER
5
6D
100
AcDbSymbolTableRecord
100
AcDbLayerTableRecord
2
81
70
0
62
-3
6
CONTINUOUS
290
1
370
-3
390
0
0
LAYER
5
6F
100
AcDbSymbolTableRecord
100
AcDbLayerTableRecord
2
80
70
0
62
-6
6
CONTINUOUS
290
1
370
-3
390
0
0
LAYER
5
74
100
AcDbSymbolTableRecord
100
AcDbLayerTableRecord
2
2
70
0
62
7
6
CONTINUOUS
290
1
370
-3
390
0
0
LAYER
5
78
100
AcDbSymbolTableRecord
100
AcDbLayerTableRecord
2
1
70
0
62
4
6
CONTINUOUS
290
1
370
-3
390
0
0
LAYER
5
88
100
AcDbSymbolTableRecord
100
AcDbLayerTableRecord
2
4
70
0
62
-2
6
CENTER
290
1
370
-3
390
0
0
LAYER
5
176
100
AcDbSymbolTableRecord
100
AcDbLayerTableRecord
2
SK2
70
0
62
7
6
CONTINUOUS
290
1
370
-3
390
0
0
LAYER
5
177
100
AcDbSymbolTableRecord
100
AcDbLayerTableRecord
2
SK1
70
0
62
4
6
CONTINUOUS
290
1
370
-3
390
0
0
LAYER
5
178
100
AcDbSymbolTableRecord
100
AcDbLayerTableRecord
2
SK4
70
0
62
2
6
CENTER
290
1
370
-3
390
0
0
LAYER
5
179
100
AcDbSymbolTableRecord
100
AcDbLayerTableRecord
2
SK6
70
0
62
5
6
CONTINUOUS
290
1
370
-3
390
0
0
ENDTAB
0
TABLE
2
STYLE
5
18d
100
AcDbSymbolTable
0
STYLE
5
11
100
AcDbSymbolTableRecord
100
AcDbTextStyleTableRecord
2
Standard
3
txt
70
0
71
0
40
0
41
1
42
0
50
0
0
STYLE
5
D2
100
AcDbSymbolTableRecord
100
AcDbTextStyleTableRecord
2
iso_b_vert
3
simplex.shx
70
0
71
0
40
0
41
1
42
0
50
0
0
STYLE
5
D3
100
AcDbSymbolTableRecord
100
AcDbTextStyleTableRecord
2
DWGDirectTextStyle
3
simplex
70
0
71
0
40
0
41
1
42
0
50
0
0
ENDTAB
0
TABLE
2
DIMSTYLE
5
18e
100
AcDbSymbolTable
100
AcDbDimStyleTable
0
DIMSTYLE
105
27
100
AcDbSymbolTableRecord
100
AcDbDimStyleTableRecord
2
Standard
70
0
3
<>
41
0.18
42
0.0625
44
0.18
140
0.18
147
0.09
73
0
74
0
77
1
271
2
275
0
278
52
280
0
340
11
0
ENDTAB
0
TABLE
2
VIEW
5
18f
100
AcDbSymbolTable
0
ENDTAB
0
TABLE
2
UCS
5
190
100
AcDbSymbolTable
0
ENDTAB
0
TABLE
2
APPID
5
191
100
AcDbSymbolTable
0
APPID
5
12
100
AcDbSymbolTableRecord
100
AcDbRegAppTableRecord
2
ACAD
70
0
0
ENDTAB
0
TABLE
2
BLOCK_RECORD
5
192
100
AcDbSymbolTable
0
BLOCK_RECORD
5
1F
100
AcDbSymbolTableRecord
100
AcDbBlockTableRecord
2
*Model_Space
340
0
70
0
0
BLOCK_RECORD
5
1B
100
AcDbSymbolTableRecord
100
AcDbBlockTableRecord
2
*Paper_Space
340
0
70
0
0
BLOCK_RECORD
5
23
100
AcDbSymbolTableRecord
100
AcDbBlockTableRecord
2
*Paper_Space0
340
0
70
0
0
BLOCK_RECORD
5
D5
100
AcDbSymbolTableRecord
100
AcDbBlockTableRecord
2
DimnDraft3D1
340
0
70
0
0
BLOCK_RECORD
5
DF
100
AcDbSymbolTableRecord
100
AcDbBlockTableRecord
2
DimnDraft3D2
340
0
70
0
0
BLOCK_RECORD
5
E9
100
AcDbSymbolTableRecord
100
AcDbBlockTableRecord
2
DimnDraft3D3
340
0
70
0
0
BLOCK_RECORD
5
F3
100
AcDbSymbolTableRecord
100
AcDbBlockTableRecord
2
DimnDraft3D4
340
0
70
0
0
BLOCK_RECORD
5
FD
100
AcDbSymbolTableRecord
100
AcDbBlockTableRecord
2
DimnDraft3D5
340
0
70
0
0
BLOCK_RECORD
5
107
100
AcDbSymbolTableRecord
100
AcDbBlockTableRecord
2
DimnDraft3D6
340
0
70
0
0
BLOCK_RECORD
5
112
100
AcDbSymbolTableRecord
100
AcDbBlockTableRecord
2
DimnDraft3D7
340
0
70
0
0
ENDTAB
0
ENDSEC
0
SECTION
2
BLOCKS
0
BLOCK
5
20
100
AcDbEntity
8
0
100
AcDbBlockBegin
2
*Model_Space
70
0
10
0
20
0
30
0
3
*Model_Space
0
ENDBLK
5
21
100
AcDbEntity
8
0
100
AcDbBlockEnd
0
BLOCK
5
1C
100
AcDbEntity
8
0
100
AcDbBlockBegin
2
*Paper_Space
70
0
10
0
20
0
30
0
3
*Paper_Space
0
ENDBLK
5
1D
100
AcDbEntity
8
0
100
AcDbBlockEnd
0
BLOCK
5
24
100
AcDbEntity
8
0
100
AcDbBlockBegin
2
*Paper_Space0
70
0
10
0
20
0
30
0
3
*Paper_Space0
0
ENDBLK
5
25
100
AcDbEntity
8
0
100
AcDbBlockEnd
0
BLOCK
5
DC
100
AcDbEntity
8
0
100
AcDbBlockBegin
2
DimnDraft3D1
70
0
10
0
20
0
30
0
3
DimnDraft3D1
0
MTEXT
5
D6
100
AcDbEntity
8
SK2
62
256
6
ByLayer
370
13
48
1
60
0
100
AcDbMText
10
8.856564
20
-11.938398
30
0
210
0
220
0
230
1
1
\W0.7495;29,24
40
3.5
41
0
44
1.084337
50
0
71
7
72
5
7
iso_b_vert
0
LINE
5
D7
100
AcDbEntity
8
SK2
62
256
6
ByLayer
370
13
48
1
60
0
100
AcDbLine
10
0
20
-1.5875
30
0
11
0
21
-14.813398
31
0
39
0
210
0
220
0
230
1
0
LINE
5
D8
100
AcDbEntity
8
SK2
62
256
6
ByLayer
370
13
48
1
60
0
100
AcDbLine
10
29.2394
20
-4.1875
30
0
11
29.2394
21
-14.813398
31
0
39
0
210
0
220
0
230
1
0
LINE
5
D9
100
AcDbEntity
8
SK2
62
256
6
ByLayer
370
13
48
1
60
0
100
AcDbLine
10
0
20
-12.813398
30
0
11
29.2394
21
-12.813398
31
0
39
0
210
0
220
0
230
1
0
SOLID
5
DA
100
AcDbEntity
8
SK2
62
256
6
ByLayer
370
13
48
1
60
0
100
AcDbTrace
10
0
20
-12.813398
30
0
11
3.499998
21
-12.352615
31
0
12
3.500002
22
-13.274182
32
0
13
0
23
-12.813398
33
0
39
0
210
0
220
0
230
1
0
SOLID
5
DB
100
AcDbEntity
8
SK2
62
256
6
ByLayer
370
13
48
1
60
0
100
AcDbTrace
10
29.2394
20
-12.813398
30
0
11
25.739402
21
-13.274182
31
0
12
25.739398
22
-12.352615
32
0
13
29.2394
23
-12.813398
33
0
39
0
210
0
220
0
230
1
0
ENDBLK
5
DD
100
AcDbEntity
8
0
100
AcDbBlockEnd
0
BLOCK
5
E6
100
AcDbEntity
8
0
100
AcDbBlockBegin
2
DimnDraft3D2
70
0
10
0
20
0
30
0
3
DimnDraft3D2
0
MTEXT
5
E0
100
AcDbEntity
8
SK2
62
256
6
ByLayer
370
13
48
1
60
0
100
AcDbMText
10
-6.867984
20
-30.817985
30
0
210
0
220
0
230
1
1
\W0.7317;66,00
40
3.5
41
0
44
1.084337
50
0
71
7
72
5
7
iso_b_vert
0
LINE
5
E1
100
AcDbEntity
8
SK2
62
256
6
ByLayer
370
13
48
1
60
0
100
AcDbLine
10
-36
20
-4.5875
30
0
11
-36
21
-33.692985
31
0
39
0
210
0
220
0
230
1
0
LINE
5
E2
100
AcDbEntity
8
SK2
62
256
6
ByLayer
370
13
48
1
60
0
100
AcDbLine
10
30
20
-1.5875
30
0
11
30
21
-33.692985
31
0
39
0
210
0
220
0
230
1
0
LINE
5
E3
100
AcDbEntity
8
SK2
62
256
6
ByLayer
370
13
48
1
60
0
100
AcDbLine
10
-36
20
-31.692985
30
0
11
30
21
-31.692985
31
0
39
0
210
0
220
0
230
1
0
SOLID
5
E4
100
AcDbEntity
8
SK2
62
256
6
ByLayer
370
13
48
1
60
0
100
AcDbTrace
10
-36
20
-31.692985
30
0
11
-32.500002
21
-31.232202
31
0
12
-32.499998
22
-32.153769
32
0
13
-36
23
-31.692985
33
0
39
0
210
0
220
0
230
1
0
SOLID
5
E5
100
AcDbEntity
8
SK2
62
256
6
ByLayer
370
13
48
1
60
0
100
AcDbTrace
10
30
20
-31.692985
30
0
11
26.500002
21
-32.153769
31
0
12
26.499998
22
-31.232202
32
0
13
30
23
-31.692985
33
0
39
0
210
0
220
0
230
1
0
ENDBLK
5
E7
100
AcDbEntity
8
0
100
AcDbBlockEnd
0
BLOCK
5
F0
100
AcDbEntity
8
0
100
AcDbBlockBegin
2
DimnDraft3D3
70
0
10
0
20
0
30
0
3
DimnDraft3D3
0
MTEXT
5
EA
100
AcDbEntity
8
SK2
62
256
6
ByLayer
370
13
48
1
60
0
100
AcDbMText
10
17.808816
20
15.084119
30
0
210
0
220
0
230
1
1
\W0.6713;16,36
40
3.5
41
0
44
1.084337
50
0
71
7
72
5
7
iso_b_vert
0
LINE
5
EB
100
AcDbEntity
8
SK2
62
256
6
ByLayer
370
13
48
1
60
0
100
AcDbLine
10
13.64
20
4.1875
30
0
11
13.64
21
16.209119
31
0
39
0
210
0
220
0
230
1
0
LINE
5
EC
100
AcDbEntity
8
SK2
62
256
6
ByLayer
370
13
48
1
60
0
100
AcDbLine
10
30
20
1.5875
30
0
11
30
21
16.209119
31
0
39
0
210
0
220
0
230
1
0
LINE
5
ED
100
AcDbEntity
8
SK2
62
256
6
ByLayer
370
13
48
1
60
0
100
AcDbLine
10
13.64
20
14.209119
30
0
11
30
21
14.209119
31
0
39
0
210
0
220
0
230
1
0
SOLID
5
EE
100
AcDbEntity
8
SK2
62
256
6
ByLayer
370
13
48
1
60
0
100
AcDbTrace
10
13.64
20
14.209119
30
0
11
17.139998
21
14.669903
31
0
12
17.140002
22
13.748335
32
0
13
13.64
23
14.209119
33
0
39
0
210
0
220
0
230
1
0
SOLID
5
EF
100
AcDbEntity
8
SK2
62
256
6
ByLayer
370
13
48
1
60
0
100
AcDbTrace
10
30
20
14.209119
30
0
11
26.500002
21
13.748335
31
0
12
26.499998
22
14.669903
32
0
13
30
23
14.209119
33
0
39
0
210
0
220
0
230
1
0
ENDBLK
5
F1
100
AcDbEntity
8
0
100
AcDbBlockEnd
0
BLOCK
5
FA
100
AcDbEntity
8
0
100
AcDbBlockBegin
2
DimnDraft3D4
70
0
10
0
20
0
30
0
3
DimnDraft3D4
0
MTEXT
5
F4
100
AcDbEntity
8
SK2
62
256
6
ByLayer
370
13
48
1
60
0
100
AcDbMText
10
36.840636
20
-14.527503
30
0
210
0
220
0
230
1
1
\W0.7150;0,76
40
3.5
41
0
44
1.084337
50
0
71
7
72
5
7
iso_b_vert
0
LINE
5
F5
100
AcDbEntity
8
SK2
62
256
6
ByLayer
370
13
48
1
60
0
100
AcDbLine
10
30
20
-1.5875
30
0
11
30
21
-17.402503
31
0
39
0
210
0
220
0
230
1
0
LINE
5
F6
100
AcDbEntity
8
SK2
62
256
6
ByLayer
370
13
48
1
60
0
100
AcDbLine
10
29.2394
20
-4.1875
30
0
11
29.2394
21
-17.402503
31
0
39
0
210
0
220
0
230
1
0
LINE
5
F7
100
AcDbEntity
8
SK2
62
256
6
ByLayer
370
13
48
1
60
0
100
AcDbLine
10
20.4894
20
-15.402503
30
0
11
43.997215
21
-15.402503
31
0
39
0
210
0
220
0
230
1
0
SOLID
5
F8
100
AcDbEntity
8
SK2
62
256
6
ByLayer
370
13
48
1
60
0
100
AcDbTrace
10
30
20
-15.402503
30
0
11
33.499998
21
-14.941719
31
0
12
33.500002
22
-15.863287
32
0
13
30
23
-15.402503
33
0
39
0
210
0
220
0
230
1
0
SOLID
5
F9
100
AcDbEntity
8
SK2
62
256
6
ByLayer
370
13
48
1
60
0
100
AcDbTrace
10
29.2394
20
-15.402503
30
0
11
25.739402
21
-15.863287
31
0
12
25.739398
22
-14.941719
32
0
13
29.2394
23
-15.402503
33
0
39
0
210
0
220
0
230
1
0
ENDBLK
5
FB
100
AcDbEntity
8
0
100
AcDbBlockEnd
0
BLOCK
5
104
100
AcDbEntity
8
0
100
AcDbBlockBegin
2
DimnDraft3D5
70
0
10
0
20
0
30
0
3
DimnDraft3D5
0
MTEXT
5
FE
100
AcDbEntity
8
SK2
62
256
6
ByLayer
370
13
48
1
60
0
100
AcDbMText
10
-10.132818
20
-20.468428
30
0
210
0
220
0
230
1
1
\W0.7495;65,24
40
3.5
41
0
44
1.084337
50
0
71
7
72
5
7
iso_b_vert
0
LINE
5
FF
100
AcDbEntity
8
SK2
62
256
6
ByLayer
370
13
48
1
60
0
100
AcDbLine
10
-36
20
-4.5875
30
0
11
-36
21
-23.343428
31
0
39
0
210
0
220
0
230
1
0
LINE
5
100
100
AcDbEntity
8
SK2
62
256
6
ByLayer
370
13
48
1
60
0
100
AcDbLine
10
29.2394
20
-4.1875
30
0
11
29.2394
21
-23.343428
31
0
39
0
210
0
220
0
230
1
0
LINE
5
101
100
AcDbEntity
8
SK2
62
256
6
ByLayer
370
13
48
1
60
0
100
AcDbLine
10
-36
20
-21.343428
30
0
11
29.2394
21
-21.343428
31
0
39
0
210
0
220
0
230
1
0
SOLID
5
102
100
AcDbEntity
8
SK2
62
256
6
ByLayer
370
13
48
1
60
0
100
AcDbTrace
10
-36
20
-21.343428
30
0
11
-32.500002
21
-20.882645
31
0
12
-32.499998
22
-21.804212
32
0
13
-36
23
-21.343428
33
0
39
0
210
0
220
0
230
1
0
SOLID
5
103
100
AcDbEntity
8
SK2
62
256
6
ByLayer
370
13
48
1
60
0
100
AcDbTrace
10
29.2394
20
-21.343428
30
0
11
25.739402
21
-21.804212
31
0
12
25.739398
22
-20.882645
32
0
13
29.2394
23
-21.343428
33
0
39
0
210
0
220
0
230
1
0
ENDBLK
5
105
100
AcDbEntity
8
0
100
AcDbBlockEnd
0
BLOCK
5
10F
100
AcDbEntity
8
0
100
AcDbBlockBegin
2
DimnDraft3D6
70
0
10
0
20
0
30
0
3
DimnDraft3D6
0
MTEXT
5
108
100
AcDbEntity
8
SK2
62
256
6
ByLayer
370
13
48
1
60
0
100
AcDbMText
10
-46.375163
20
22.34918
30
0
210
0
220
0
230
1
1
\W0.7317;6,000
40
3.5
41
0
44
1.084337
50
90
71
7
72
5
7
iso_b_vert
0
MTEXT
5
109
100
AcDbEntity
8
SK2
62
256
6
ByLayer
370
13
48
1
60
0
100
AcDbMText
10
-46.375163
20
17.126524
30
0
210
0
220
0
230
1
1
%%c
40
3.5
41
0
44
1.084337
50
90
71
7
72
5
7
iso_b_vert
0
LINE
5
10A
100
AcDbEntity
8
SK2
62
256
6
ByLayer
370
13
48
1
60
0
100
AcDbLine
10
-37.5875
20
-3
30
0
11
-46.625163
21
-3
31
0
39
0
210
0
220
0
230
1
0
LINE
5
10B
100
AcDbEntity
8
SK2
62
256
6
ByLayer
370
13
48
1
60
0
100
AcDbLine
10
-37.5875
20
3
30
0
11
-46.625163
21
3
31
0
39
0
210
0
220
0
230
1
0
LINE
5
10C
100
AcDbEntity
8
SK2
62
256
6
ByLayer
370
13
48
1
60
0
100
AcDbLine
10
-44.625163
20
32.121549
30
0
11
-44.625163
21
-11.75
31
0
39
0
210
0
220
0
230
1
0
SOLID
5
10D
100
AcDbEntity
8
SK2
62
256
6
ByLayer
370
13
48
1
60
0
100
AcDbTrace
10
-44.625163
20
-3
30
0
11
-44.164379
21
-6.499998
31
0
12
-45.085946
22
-6.500002
32
0
13
-44.625163
23
-3
33
0
39
0
210
0
220
0
230
1
0
SOLID
5
10E
100
AcDbEntity
8
SK2
62
256
6
ByLayer
370
13
48
1
60
0
100
AcDbTrace
10
-44.625163
20
3
30
0
11
-45.085946
21
6.499998
31
0
12
-44.164379
22
6.500002
32
0
13
-44.625163
23
3
33
0
39
0
210
0
220
0
230
1
0
ENDBLK
5
110
100
AcDbEntity
8
0
100
AcDbBlockEnd
0
BLOCK
5
11A
100
AcDbEntity
8
0
100
AcDbBlockBegin
2
DimnDraft3D7
70
0
10
0
20
0
30
0
3
DimnDraft3D7
0
MTEXT
5
113
100
AcDbEntity
8
2
62
256
6
ByLayer
370
13
48
1
60
0
100
AcDbMText
10
40.333343
20
20.542266
30
0
210
0
220
0
230
1
1
\W0.7317;5,200
40
3.5
41
0
44
1.084337
50
90
71
7
72
5
7
iso_b_vert
0
MTEXT
5
114
100
AcDbEntity
8
2
62
256
6
ByLayer
370
13
48
1
60
0
100
AcDbMText
10
40.333343
20
15.31961
30
0
210
0
220
0
230
1
1
%%c
40
3.5
41
0
44
1.084337
50
90
71
7
72
5
7
iso_b_vert
0
LINE
5
115
100
AcDbEntity
8
2
62
256
6
ByLayer
370
13
48
1
60
0
100
AcDbLine
10
30.8269
20
-2.6
30
0
11
44.083343
21
-2.6
31
0
39
0
210
0
220
0
230
1
0
LINE
5
116
100
AcDbEntity
8
2
62
256
6
ByLayer
370
13
48
1
60
0
100
AcDbLine
10
30.8269
20
2.6
30
0
11
44.083343
21
2.6
31
0
39
0
210
0
220
0
230
1
0
LINE
5
117
100
AcDbEntity
8
2
62
256
6
ByLayer
370
13
48
1
60
0
100
AcDbLine
10
42.083343
20
30.314635
30
0
11
42.083343
21
-11.35
31
0
39
0
210
0
220
0
230
1
0
SOLID
5
118
100
AcDbEntity
8
2
62
256
6
ByLayer
370
13
48
1
60
0
100
AcDbTrace
10
42.083343
20
-2.6
30
0
11
42.544126
21
-6.099998
31
0
12
41.622559
22
-6.100002
32
0
13
42.083343
23
-2.6
33
0
39
0
210
0
220
0
230
1
0
SOLID
5
119
100
AcDbEntity
8
2
62
256
6
ByLayer
370
13
48
1
60
0
100
AcDbTrace
10
42.083343
20
2.6
30
0
11
41.622559
21
6.099998
31
0
12
42.544126
22
6.100002
32
0
13
42.083343
23
2.6
33
0
39
0
210
0
220
0
230
1
0
ENDBLK
5
11B
100
AcDbEntity
8
0
100
AcDbBlockEnd
0
ENDSEC
0
SECTION
2
ENTITIES
0
ELLIPSE
5
91
100
AcDbEntity
8
1
62
256
6
ByLayer
370
18
48
1
60
0
100
AcDbEllipse
10
3.506251
20
2.705433
30
0
11
-0.25
21
3.06151588455594E-17
31
0
210
0
220
0
230
1
40
1
41
0.53314332915619
42
1.58225925075727
0
ELLIPSE
5
92
100
AcDbEntity
8
1
62
256
6
ByLayer
370
18
48
1
60
0
100
AcDbEllipse
10
3.506251
20
-2.705433
30
0
11
-0.25
21
3.06151588455594E-17
31
0
210
0
220
0
230
1
40
1
41
-1.57027490823671
42
-0.53451785064135
0
ELLIPSE
5
93
100
AcDbEntity
8
1
62
256
6
ByLayer
370
13
48
1
60
0
100
AcDbEllipse
10
3.439888
20
0.449321
30
0
11
-0.0485345630577353
21
-0.0874322376975147
31
0
210
0
220
0
230
1
40
0.332147
41
-1.2117770173794
42
0.133374440936057
0
ELLIPSE
5
94
100
AcDbEntity
8
1
62
256
6
ByLayer
370
13
48
1
60
0
100
AcDbEllipse
10
3.506488
20
0.414951
30
0
11
0.0435526893120674
21
0.0900175719161905
31
0
210
0
220
0
230
1
40
0.072681
41
3.02707090680416
42
-1.71630765494161
0
POINT
5
6C
100
AcDbEntity
8
81
62
256
6
ByLayer
370
18
48
1
60
0
100
AcDbPoint
10
30
20
0
30
0
39
0
210
0
220
0
230
1
50
360
0
POINT
5
6E
100
AcDbEntity
8
80
62
256
6
ByLayer
370
18
48
1
60
0
100
AcDbPoint
10
0
20
0
30
0
39
0
210
0
220
0
230
1
50
360
0
POINT
5
70
100
AcDbEntity
8
SK2
62
256
6
ByLayer
370
18
48
1
60
1
100
AcDbPoint
10
-36
20
-3
30
0
39
0
210
0
220
0
230
1
50
360
0
POINT
5
72
100
AcDbEntity
8
SK2
62
256
6
ByLayer
370
18
48
1
60
1
100
AcDbPoint
10
-36
20
3
30
0
39
0
210
0
220
0
230
1
50
360
0
POINT
5
73
100
AcDbEntity
8
2
62
256
6
ByLayer
370
18
48
1
60
1
100
AcDbPoint
10
29.2394
20
-2.6
30
0
39
0
210
0
220
0
230
1
50
360
0
POINT
5
75
100
AcDbEntity
8
2
62
256
6
ByLayer
370
18
48
1
60
1
100
AcDbPoint
10
29.2394
20
2.6
30
0
39
0
210
0
220
0
230
1
50
360
0
SPLINE
5
95
100
AcDbEntity
8
1
62
256
6
ByLayer
370
18
48
1
60
0
100
AcDbSpline
70
4
71
2
72
6
73
3
40
0
40
0
40
0
40
1
40
1
40
1
41
1
10
4.11387458706969
20
0.0075541251108575
30
0
41
1
10
4.11387267052206
20
0.0075747876509524
30
0
41
1
10
4.11387075397533
20
0.0075954589804326
30
0
0
SPLINE
5
96
100
AcDbEntity
8
1
62
256
6
ByLayer
370
18
48
1
60
0
100
AcDbSpline
70
4
71
2
72
6
73
3
40
0
40
0
40
0
40
1
40
1
40
1
41
1
10
28.7350091626309
20
-2.46876534371768
30
0
41
1
10
28.9262395853315
20
-2.4685791411257
30
0
41
1
10
29.1173550896781
20
-2.4687936418855
30
0
0
SPLINE
5
97
100
AcDbEntity
8
1
62
256
6
ByLayer
370
18
48
1
60
0
100
AcDbSpline
70
4
71
3
72
22
73
18
40
0
40
0
40
0
40
0
40
0.0923604930720895
40
0.163559955606988
40
0.21393956261087
40
0.26262434278826
40
0.310599545670588
40
0.370918996883631
40
0.434415564358074
40
0.513171500696913
40
0.624236458935795
40
0.729635748119186
40
0.818182888638983
40
0.864999106313295
40
0.910222299932457
40
0.974284142639397
40
1
40
1
40
1
40
1
41
1
10
12.53086234803
20
-2.45961197666111
30
0
41
1
10
12.7735630682833
20
-2.45956925902286
30
0
41
1
10
13.2033915663599
20
-2.4596285178917
30
0
41
1
10
13.7658466004846
20
-2.46077616346778
30
0
41
1
10
14.21331184959
20
-2.46084476078335
30
0
41
1
10
14.5998500811483
20
-2.46064895523955
30
0
41
1
10
15.0125025297717
20
-2.46072036252446
30
0
41
1
10
15.464095995435
20
-2.46159754116115
30
0
41
1
10
15.9966030261918
20
-2.46092481576295
30
0
41
1
10
16.6625048778753
20
-2.46193111753075
30
0
41
1
10
17.4385566226658
20
-2.46171211728984
30
0
41
1
10
18.2403428157825
20
-2.46199951843289
30
0
41
1
10
18.8732512566451
20
-2.46326310142027
30
0
41
1
10
19.3479468735278
20
-2.46365519420834
30
0
41
1
10
19.7581920712014
20
-2.46294409364049
30
0
41
1
10
20.113101020507
20
-2.46231738500751
30
0
41
1
10
20.3490869526873
20
-2.46294606924536
30
0
41
1
10
20.4166831400981
20
-2.46317598789116
30
0
0
SPLINE
5
98
100
AcDbEntity
8
1
62
256
6
ByLayer
370
18
48
1
60
0
100
AcDbSpline
70
4
71
3
72
19
73
15
40
0
40
0
40
0
40
0
40
0.0328089424918615
40
0.11078207905691
40
0.166131538954463
40
0.223984773764373
40
0.286348828437528
40
0.429835568301803
40
0.588163722402962
40
0.705980961885559
40
0.79931963856361
40
0.89501653595824
40
0.952795924011618
40
1
40
1
40
1
40
1
41
1
10
20.4171601717866
20
2.46318923042767
30
0
41
1
10
20.3457689848364
20
2.46294522034521
30
0
41
1
10
20.1047129332216
20
2.4623061008819
30
0
41
1
10
19.7431626740023
20
2.46297484818072
30
0
41
1
10
19.3272564825106
20
2.46367986347357
30
0
41
1
10
18.9452153677833
20
2.46330414717903
30
0
41
1
10
18.3713682582419
20
2.46210156314626
30
0
41
1
10
17.5788850556376
20
2.46134133268726
30
0
41
1
10
16.6657289592387
20
2.46187368698139
30
0
41
1
10
15.8616977377738
20
2.46121760875795
30
0
41
1
10
15.1939555630823
20
2.46116427380707
30
0
41
1
10
14.6568671365241
20
2.46055707177726
30
0
41
1
10
14.2201603401379
20
2.46084715463829
30
0
41
1
10
13.991757274411
20
2.46080763318832
30
0
41
1
10
13.8890521918418
20
2.46073658700684
30
0
0
SPLINE
5
99
100
AcDbEntity
8
1
62
256
6
ByLayer
370
18
48
1
60
0
100
AcDbSpline
70
4
71
2
72
6
73
3
40
0
40
0
40
0
40
1
40
1
40
1
41
1
10
3.50759679135621
20
-2.45505280968476
30
0
41
1
10
3.88741009937416
20
-2.45764726055421
30
0
41
1
10
4.26720712024033
20
-2.45696341953598
30
0
0
SPLINE
5
9A
100
AcDbEntity
8
1
62
256
6
ByLayer
370
18
48
1
60
0
100
AcDbSpline
70
4
71
2
72
6
73
3
40
0
40
0
40
0
40
1
40
1
40
1
41
1
10
4.25816198636932
20
2.45696283001763
30
0
41
1
10
3.88288743546707
20
2.4576274472677
30
0
41
1
10
3.50759679135626
20
2.45505280968484
30
0
0
SPLINE
5
9B
100
AcDbEntity
8
1
62
256
6
ByLayer
370
13
48
1
60
0
100
AcDbSpline
70
4
71
3
72
10
73
6
40
0
40
0
40
0
40
0
40
0.499485841807981
40
0.499485841807981
40
1
40
1
40
1
40
1
41
1
10
3.50762877781293
20
-2.45536572672592
30
0
41
1
10
3.50763842158938
20
-2.45599175344361
30
0
41
1
10
3.50764696330876
20
-2.45252097244813
30
0
41
1
10
3.50766108463219
20
-2.43737712789636
30
0
41
1
10
3.50766665918684
20
-2.42575967203501
30
0
41
1
10
3.50767054369862
20
-2.41021343870645
30
0
0
SPLINE
5
9C
100
AcDbEntity
8
1
62
256
6
ByLayer
370
18
48
1
60
0
100
AcDbSpline
70
4
71
3
72
32
73
28
40
0
40
0
40
0
40
0
40
0.250000000000019
40
0.250000000000019
40
0.375000000000034
40
0.375000000000034
40
0.500000000000048
40
0.500000000000048
40
0.625000000000063
40
0.625000000000063
40
0.750000000000077
40
0.750000000000077
40
0.812500000000079
40
0.812500000000079
40
0.82812500000008
40
0.82812500000008
40
0.835937500000076
40
0.835937500000076
40
0.843750000000071
40
0.843750000000071
40
0.851562500000067
40
0.851562500000067
40
0.859375000000063
40
0.859375000000063
40
0.875000000000055
40
0.875000000000055
40
1
40
1
40
1
40
1
41
1
10
26.6609622553593
20
0.890428650999326
30
0
41
1
10
26.8606825844856
20
0.732048326567252
30
0
41
1
10
27.0682935769981
20
0.594652564592053
30
0
41
1
10
27.3922990409509
20
0.422038253224599
30
0
41
1
10
27.502907620983
20
0.370635642762295
30
0
41
1
10
27.7234282286268
20
0.28253129352791
30
0
41
1
10
27.8339884433358
20
0.245539273151479
30
0
41
1
10
28.055752376502
20
0.18670385124642
30
0
41
1
10
28.166956994639
20
0.164881628935717
30
0
41
1
10
28.390141907911
20
0.139497272504514
30
0
41
1
10
28.5008043642189
20
0.136199395246393
30
0
41
1
10
28.6633570350125
20
0.147289730572652
30
0
41
1
10
28.7171221277333
20
0.153669660271333
30
0
41
1
10
28.7834814737045
20
0.165256653829999
30
0
41
1
10
28.7967022190319
20
0.167753046709123
30
0
41
1
10
28.8164553069676
20
0.171770833765294
30
0
41
1
10
28.8231216818099
20
0.172930518625293
30
0
41
1
10
28.8357451885055
20
0.177051834343871
30
0
41
1
10
28.8416839310155
20
0.180428318928705
30
0
41
1
10
28.850690641831
20
0.191054478989571
30
0
41
1
10
28.8528208390189
20
0.198630523210596
30
0
41
1
10
28.8554810103859
20
0.214307872250515
30
0
41
1
10
28.8567829089184
20
0.222159358000539
30
0
41
1
10
28.8605200790088
20
0.24579041111005
30
0
41
1
10
28.8628234923103
20
0.261631439388338
30
0
41
1
10
28.8819052391274
20
0.404768651234349
30
0
41
1
10
28.8872371643736
20
0.536648873495295
30
0
41
1
10
28.8843872392018
20
0.668842071242125
30
0
0
SPLINE
5
9D
100
AcDbEntity
8
1
62
256
6
ByLayer
370
18
48
1
60
0
100
AcDbSpline
70
4
71
3
72
8
73
4
40
0
40
0
40
0
40
0
40
1
40
1
40
1
40
1
41
1
10
3.39508973801944
20
0.363007256172722
30
0
41
1
10
3.3798987161606
20
0.37047222003801
30
0
41
1
10
3.36572753578525
20
0.379319476312787
30
0
41
1
10
3.35253519611482
20
0.389486869367488
30
0
0
SPLINE
5
9E
100
AcDbEntity
8
1
62
256
6
ByLayer
370
18
48
1
60
0
100
AcDbSpline
70
4
71
3
72
8
73
4
40
0
40
0
40
0
40
0
40
1
40
1
40
1
40
1
41
1
10
29.8919164888614
20
0.774940270318524
30
0
41
1
10
29.8865160277567
20
0.75364830812714
30
0
41
1
10
29.8809492442451
20
0.732407617375372
30
0
41
1
10
29.8752215722595
20
0.711216965923057
30
0
0
SPLINE
5
9F
100
AcDbEntity
8
1
62
256
6
ByLayer
370
18
48
1
60
0
100
AcDbSpline
70
4
71
3
72
10
73
6
40
0
40
0
40
0
40
0
40
0.5
40
0.5
40
1
40
1
40
1
40
1
41
1
10
28.9746002613847
20
0.731347943848192
30
0
41
1
10
29.1248052415621
20
0.727023695582773
30
0
41
1
10
29.2750248537213
20
0.722559647783555
30
0
41
1
10
29.575168133316
20
0.716459120932882
30
0
41
1
10
29.725208780803
20
0.713704969859492
30
0
41
1
10
29.8752215722595
20
0.711216965923057
30
0
0
SPLINE
5
A0
100
AcDbEntity
8
1
62
256
6
ByLayer
370
18
48
1
60
0
100
AcDbSpline
70
4
71
3
72
28
73
24
40
0
40
0
40
0
40
0
40
0.0658575606866794
40
0.0658575606866794
40
0.159271804618011
40
0.159271804618011
40
0.252686048549344
40
0.252686048549344
40
0.346100292480676
40
0.346100292480676
40
0.439514536412008
40
0.439514536412008
40
0.53292878034334
40
0.53292878034334
40
0.626343024274672
40
0.626343024274672
40
0.719757268206004
40
0.719757268206004
40
0.813171512137336
40
0.813171512137336
40
0.906585756068668
40
0.906585756068668
40
1
40
1
40
1
40
1
41
1
10
20.4175221952168
20
2.4631354335842
30
0
41
1
10
20.5546417300221
20
2.46345740491177
30
0
41
1
10
20.6917109337448
20
2.46140917479985
30
0
41
1
10
21.0230129748431
20
2.44902465511331
30
0
41
1
10
21.2170784794833
20
2.4359795957362
30
0
41
1
10
21.6061621701355
20
2.40018717086312
30
0
41
1
10
21.8011608659763
20
2.37723345822215
30
0
41
1
10
22.190676910135
20
2.32287950801358
30
0
41
1
10
22.3850829643886
20
2.29112900705056
30
0
41
1
10
22.7737297838528
20
2.21615391422324
30
0
41
1
10
22.9679767254672
20
2.17335219005173
30
0
41
1
10
23.3563866882948
20
2.07933554901658
30
0
41
1
10
23.5510122676025
20
2.02890676126455
30
0
41
1
10
23.9406463550448
20
1.92057369744313
30
0
41
1
10
24.1352411717724
20
1.86166472995919
30
0
41
1
10
24.5236639569405
20
1.73544459620044
30
0
41
1
10
24.717769287803
20
1.6684486826141
30
0
41
1
10
25.1059691217517
20
1.52770065008309
30
0
41
1
10
25.2999289589112
20
1.45374253988078
30
0
41
1
10
25.6888460793548
20
1.30124263518337
30
0
41
1
10
25.8837716566525
20
1.22225897051953
30
0
41
1
10
26.2726673581569
20
1.05978034696756
30
0
41
1
10
26.466796769245
20
0.976056291495695
30
0
41
1
10
26.660962255357
20
0.890428651000292
30
0
0
SPLINE
5
A1
100
AcDbEntity
8
1
62
256
6
ByLayer
370
18
48
1
60
0
100
AcDbSpline
70
4
71
3
72
32
73
28
40
0
40
0
40
0
40
0
40
0.0955360791465838
40
0.0955360791465838
40
0.143304118719876
40
0.143304118719876
40
0.191072158293169
40
0.191072158293169
40
0.286608237439753
40
0.286608237439753
40
0.334376277013046
40
0.334376277013046
40
0.382144316586339
40
0.382144316586339
40
0.573216474879509
40
0.573216474879509
40
0.668752554026094
40
0.668752554026094
40
0.764288633172679
40
0.764288633172679
40
0.812056672745971
40
0.812056672745971
40
0.859824712319264
40
0.859824712319264
40
0.955360791465848
40
0.955360791465848
40
1
40
1
40
1
40
1
41
1
10
29.148887052516
20
-2.58818807733391
30
0
41
1
10
28.6089626911223
20
-2.61352843629328
30
0
41
1
10
28.0709646809296
20
-2.59669196889834
30
0
41
1
10
27.2597817267105
20
-2.50946060621587
30
0
41
1
10
26.9896604344308
20
-2.47007326689877
30
0
41
1
10
26.4527204917178
20
-2.37238387469125
30
0
41
1
10
26.1852394691735
20
-2.31406550440084
30
0
41
1
10
25.383879097419
20
-2.11284902531239
30
0
41
1
10
24.8511431660656
20
-1.94357901330838
30
0
41
1
10
24.0468272470599
20
-1.64623458013
30
0
41
1
10
23.77791486129
20
-1.53978979333928
30
0
41
1
10
23.2370635726383
20
-1.31414212874162
30
0
41
1
10
22.9673277394864
20
-1.1958917957933
30
0
41
1
10
21.6255023836194
20
-0.586473118819356
30
0
41
1
10
20.5675872405622
20
-0.03720722987984
30
0
41
1
10
18.9438044405012
20
0.757168276236882
30
0
41
1
10
18.4081452812194
20
1.01107065920166
30
0
41
1
10
17.3399407313401
20
1.47779835287744
30
0
41
1
10
16.8069413589786
20
1.69062913877565
30
0
41
1
10
16.0020798858964
20
1.96714703409637
30
0
41
1
10
15.7327230915176
20
2.05211011212586
30
0
41
1
10
15.191241639718
20
2.20550092385136
30
0
41
1
10
14.9220775395683
20
2.27314344457284
30
0
41
1
10
14.1173100032521
20
2.44754869015315
30
0
41
1
10
13.5842129216575
20
2.52563383671981
30
0
41
1
10
12.8003511707
20
2.58090764653775
30
0
41
1
10
12.5503728523874
20
2.58965770735654
30
0
41
1
10
12.2996070948011
20
2.58940134249096
30
0
0
SPLINE
5
A2
100
AcDbEntity
8
1
62
256
6
ByLayer
370
18
48
1
60
0
100
AcDbSpline
70
4
71
3
72
10
73
6
40
0
40
0
40
0
40
0
40
0.5
40
0.5
40
1
40
1
40
1
40
1
41
1
10
29.9997954052311
20
0.0320305380389243
30
0
41
1
10
29.9976388680173
20
0.0223268110945298
30
0
41
1
10
29.9946362204564
20
0.0120618162466428
30
0
41
1
10
29.9872622159585
20
-0.0073092341920642
30
0
41
1
10
29.982886010321
20
-0.0163774647674586
30
0
41
1
10
29.9784032625751
20
-0.0236962764350324
30
0
0
SPLINE
5
A3
100
AcDbEntity
8
1
62
256
6
ByLayer
370
18
48
1
60
0
100
AcDbSpline
70
4
71
3
72
8
73
4
40
0
40
0
40
0
40
0
40
1
40
1
40
1
40
1
41
1
10
29.9997954052309
20
-0.0320305380386401
30
0
41
1
10
30.0000679153558
20
-0.0106948121855623
30
0
41
1
10
30.0000684502905
20
0.01065293039008
30
0
41
1
10
29.9997954052313
20
0.0320305380389243
30
0
0
SPLINE
5
A4
100
AcDbEntity
8
1
62
256
6
ByLayer
370
18
48
1
60
0
100
AcDbSpline
70
4
71
3
72
10
73
6
40
0
40
0
40
0
40
0
40
0.5
40
0.5
40
1
40
1
40
1
40
1
41
1
10
29.9784032625751
20
-0.0236962764350608
30
0
41
1
10
29.7831234694265
20
-0.342522163938611
30
0
41
1
10
29.5775718872888
20
-0.650794450951196
30
0
41
1
10
29.1543147657483
20
-1.25485161801197
30
0
41
1
10
28.9364185458337
20
-1.55058287013742
30
0
41
1
10
28.7145809778111
20
-1.84188940815801
30
0
0
SPLINE
5
A5
100
AcDbEntity
8
1
62
256
6
ByLayer
370
18
48
1
60
0
100
AcDbSpline
70
4
71
3
72
18
73
14
40
0
40
0
40
0
40
0
40
0.138311816346874
40
0.138311816346874
40
0.276623632693749
40
0.276623632693749
40
0.414935449040623
40
0.414935449040623
40
0.553247265387497
40
0.553247265387497
40
0.829870898081245
40
0.829870898081245
40
1
40
1
40
1
40
1
41
1
10
3.50767054389959
20
-2.41021343873061
30
0
41
1
10
3.68315359778825
20
-2.43359844143458
30
0
41
1
10
3.86197927323877
20
-2.44721730303138
30
0
41
1
10
4.22404439774994
20
-2.4595549781688
30
0
41
1
10
4.40754080650331
20
-2.45818115393703
30
0
41
1
10
4.77714528868506
20
-2.44276244616063
30
0
41
1
10
4.96267412191432
20
-2.42865986907148
30
0
41
1
10
5.33502230048165
20
-2.39022555246956
30
0
41
1
10
5.52178936775178
20
-2.36646157299876
30
0
41
1
10
6.08448007447097
20
-2.27971673154087
30
0
41
1
10
6.46341003496764
20
-2.20042966598643
30
0
41
1
10
7.07696718530087
20
-2.04830254536901
30
0
41
1
10
7.31140896480537
20
-1.98466644309806
30
0
41
1
10
7.54728056646115
20
-1.91748269041887
30
0
0
SPLINE
5
A6
100
AcDbEntity
8
1
62
256
6
ByLayer
370
18
48
1
60
0
100
AcDbSpline
70
4
71
3
72
62
73
58
40
0
40
0
40
0
40
0
40
0.0141660904623194
40
0.0141660904623194
40
0.0506784574822334
40
0.0506784574822334
40
0.0871908245021475
40
0.0871908245021475
40
0.123703191522062
40
0.123703191522062
40
0.160215558541976
40
0.160215558541976
40
0.19672792556189
40
0.19672792556189
40
0.233240292581804
40
0.233240292581804
40
0.269752659601718
40
0.269752659601718
40
0.306265026621632
40
0.306265026621632
40
0.342777393641546
40
0.342777393641546
40
0.37928976066146
40
0.37928976066146
40
0.415802127681374
40
0.415802127681374
40
0.452314494701288
40
0.452314494701288
40
0.488826861721203
40
0.488826861721203
40
0.525339228741117
40
0.525339228741117
40
0.561851595761031
40
0.561851595761031
40
0.598363962780945
40
0.598363962780945
40
0.634876329800859
40
0.634876329800859
40
0.671388696820773
40
0.671388696820773
40
0.707901063840687
40
0.707901063840687
40
0.744413430860601
40
0.744413430860601
40
0.780925797880515
40
0.780925797880515
40
0.81743816490043
40
0.81743816490043
40
0.853950531920344
40
0.853950531920344
40
0.890462898940258
40
0.890462898940258
40
0.926975265960172
40
0.926975265960172
40
0.963487632980086
40
0.963487632980086
40
1
40
1
40
1
40
1
41
1
10
23.9704617949324
20
-1.91018181476195
30
0
41
1
10
23.8951053151163
20
-1.93253509759333
30
0
41
1
10
23.8197277379263
20
-1.95420199033623
30
0
41
1
10
23.5498977908008
20
-2.02919485789687
30
0
41
1
10
23.3552936414333
20
-2.07962131875755
30
0
41
1
10
22.9661367921819
20
-2.17377620301585
30
0
41
1
10
22.7712814276012
20
-2.21667132673917
30
0
41
1
10
22.382524666394
20
-2.29157685969139
30
0
41
1
10
22.1884367927101
20
-2.32321689718779
30
0
41
1
10
21.8001191746725
20
-2.37735380957309
30
0
41
1
10
21.6058550252586
20
-2.40021915494691
30
0
41
1
10
21.216947650638
20
-2.43598789734654
30
0
41
1
10
21.0222520788494
20
-2.44907338704368
30
0
41
1
10
20.6331238530958
20
-2.46357884477314
30
0
41
1
10
20.438781790545
20
-2.46462701192308
30
0
41
1
10
20.0504529206301
20
-2.45842444931182
30
0
41
1
10
19.8564299468073
20
-2.45077946383461
30
0
41
1
10
19.4679043351482
20
-2.42518002452661
30
0
41
1
10
19.2734590203979
20
-2.40731943137465
30
0
41
1
10
18.8841791524374
20
-2.36016652957937
30
0
41
1
10
18.6894907798215
20
-2.33140415028365
30
0
41
1
10
18.3007409779077
20
-2.26509762867064
30
0
41
1
10
18.1066263671735
20
-2.22678706803669
30
0
41
1
10
17.7182393203226
20
-2.14168644745254
30
0
41
1
10
17.523925959251
20
-2.09522386034556
30
0
41
1
10
17.1348395841764
20
-1.99323168477793
30
0
41
1
10
16.9400595289728
20
-1.93725410737429
30
0
41
1
10
16.5509860991382
20
-1.81773559134413
30
0
41
1
10
16.3566370310323
20
-1.75400508290124
30
0
41
1
10
15.968273300196
20
-1.62017494132419
30
0
41
1
10
15.7742047526543
20
-1.54994520450393
30
0
41
1
10
15.3854717491336
20
-1.4031183886153
30
0
41
1
10
15.1907487835996
20
-1.32633431935369
30
0
41
1
10
14.8013234900183
20
-1.16678862341865
30
0
41
1
10
14.6067528062272
20
-1.08505113043532
30
0
41
1
10
14.2180245668556
20
-0.917507462825085
30
0
41
1
10
14.0239323156647
20
-0.831505528130037
30
0
41
1
10
13.6355001079294
20
-0.656305417740981
30
0
41
1
10
13.4409546217883
20
-0.567030799503073
30
0
41
1
10
13.0514963708576
20
-0.386694771918485
30
0
41
1
10
12.8567495114408
20
-0.294942444214428
30
0
41
1
10
12.4677862571023
20
-0.111824044799391
30
0
41
1
10
12.273524768082
20
-0.0199911868724882
30
0
41
1
10
11.8851792285031
20
0.163599689854806
30
0
41
1
10
11.6910221512289
20
0.255227164368676
30
0
41
1
10
11.3021011422114
20
0.436828744101405
30
0
41
1
10
11.1071567300911
20
0.526814053009275
30
0
41
1
10
10.7177993073196
20
0.70544533434088
30
0
41
1
10
10.5231694622434
20
0.793162045216519
30
0
41
1
10
10.1340879032391
20
0.965032886167677
30
0
41
1
10
9.93970383673116
20
1.04938392194273
30
0
41
1
10
9.55024678276882
20
1.21229986082571
30
0
41
1
10
9.35508802645558
20
1.29094886333345
30
0
41
1
10
8.96554674119264
20
1.44353530392871
30
0
41
1
10
8.77124803926455
20
1.5179208163278
30
0
41
1
10
8.38202899242702
20
1.65872836121679
30
0
41
1
10
8.18713496730692
20
1.72508434309194
30
0
41
1
10
7.99205860131451
20
1.78767775724089
30
0
0
SPLINE
5
A7
100
AcDbEntity
8
1
62
256
6
ByLayer
370
18
48
1
60
0
100
AcDbSpline
70
4
71
3
72
12
73
8
40
0
40
0
40
0
40
0
40
0.457220357813177
40
0.457220357813177
40
0.914440715626354
40
0.914440715626354
40
1
40
1
40
1
40
1
41
1
10
29.1693980915806
20
-2.46614781324684
30
0
41
1
10
28.6330465186114
20
-2.48010516895715
30
0
41
1
10
28.100685006469
20
-2.45418075656428
30
0
41
1
10
27.0353374764973
20
-2.32753599500887
30
0
41
1
10
26.5025236207761
20
-2.2265695090442
30
0
41
1
10
25.8639794951555
20
-2.06529420809534
30
0
41
1
10
25.7633844150159
20
-2.03870328978618
30
0
41
1
10
25.6629063177495
20
-2.01102325713319
30
0
0
SPLINE
5
A8
100
AcDbEntity
8
1
62
256
6
ByLayer
370
13
48
1
60
0
100
AcDbSpline
70
4
71
3
72
24
73
20
40
0
40
0
40
0
40
0
40
0.0573509589840001
40
0.0573509589840001
40
0.149003749583726
40
0.149003749583726
40
0.332309330783179
40
0.332309330783179
40
0.423962121382906
40
0.423962121382906
40
0.515614911982633
40
0.515614911982633
40
0.698920493182088
40
0.698920493182088
40
0.882226074381543
40
0.882226074381543
40
0.973878864981269
40
0.973878864981269
40
1
40
1
40
1
40
1
41
1
10
25.6629062913055
20
-2.01102324984828
30
0
41
1
10
25.4949118878572
20
-1.96474360550255
30
0
41
1
10
25.3272445005021
20
-1.9154194308725
30
0
41
1
10
24.8931721300856
20
-1.78032791964014
30
0
41
1
10
24.6271558742222
20
-1.69026902692141
30
0
41
1
10
23.8304260728385
20
-1.40193713848649
30
0
41
1
10
23.3011036194364
20
-1.18514983887144
30
0
41
1
10
22.5030789455139
20
-0.836211164063712
30
0
41
1
10
22.2363742099313
20
-0.715921240313463
30
0
41
1
10
21.7005276989297
20
-0.469397328887624
30
0
41
1
10
21.4306245461298
20
-0.342899395035062
30
0
41
1
10
20.6270189681159
20
0.0365073923649391
30
0
41
1
10
20.0960578607989
20
0.290148146701682
30
0
41
1
10
19.0350050513057
20
0.780473261414016
30
0
41
1
10
18.5048300163516
20
1.01689558475317
30
0
41
1
10
17.7035423050935
20
1.34486285276563
30
0
41
1
10
17.4350212426482
20
1.44983588647398
30
0
41
1
10
17.0890169590473
20
1.57696268890578
30
0
41
1
10
17.0122987385517
20
1.60463930787219
30
0
41
1
10
16.935589861766
20
1.63177953673412
30
0
0
SPLINE
5
A9
100
AcDbEntity
8
1
62
256
6
ByLayer
370
18
48
1
60
0
100
AcDbSpline
70
4
71
3
72
8
73
4
40
0
40
0
40
0
40
0
40
1
40
1
40
1
40
1
41
1
10
29.9821657890763
20
-0.301582063677785
30
0
41
1
10
29.9888922537286
20
-0.229841613042623
30
0
41
1
10
29.9927878956257
20
-0.158140409338841
30
0
41
1
10
29.9933007962161
20
-0.0864861044441341
30
0
0
SPLINE
5
AA
100
AcDbEntity
8
1
62
256
6
ByLayer
370
18
48
1
60
0
100
AcDbSpline
70
4
71
3
72
8
73
4
40
0
40
0
40
0
40
0
40
1
40
1
40
1
40
1
41
1
10
29.9821657890763
20
0.301582063677557
30
0
41
1
10
29.9643159018908
20
0.455077337036869
30
0
41
1
10
29.9334052732408
20
0.611043301971336
30
0
41
1
10
29.8919164888614
20
0.774940270318524
30
0
0
SPLINE
5
AB
100
AcDbEntity
8
1
62
256
6
ByLayer
370
18
48
1
60
0
100
AcDbSpline
70
4
71
3
72
56
73
52
40
0
40
0
40
0
40
0
40
0.062500000000009
40
0.062500000000009
40
0.125000000000018
40
0.125000000000018
40
0.156250000000023
40
0.156250000000023
40
0.187500000000029
40
0.187500000000029
40
0.203125000000031
40
0.203125000000031
40
0.218750000000034
40
0.218750000000034
40
0.234375000000037
40
0.234375000000037
40
0.250000000000039
40
0.250000000000039
40
0.265625000000042
40
0.265625000000042
40
0.281250000000045
40
0.281250000000045
40
0.296875000000047
40
0.296875000000047
40
0.31250000000005
40
0.31250000000005
40
0.343750000000055
40
0.343750000000055
40
0.37500000000006
40
0.37500000000006
40
0.382812500000062
40
0.382812500000062
40
0.386718750000062
40
0.386718750000062
40
0.390625000000062
40
0.390625000000062
40
0.398437500000061
40
0.398437500000061
40
0.406250000000061
40
0.406250000000061
40
0.437500000000057
40
0.437500000000057
40
0.50000000000005
40
0.50000000000005
40
0.625000000000037
40
0.625000000000037
40
0.750000000000025
40
0.750000000000025
40
0.875000000000012
40
0.875000000000012
40
1
40
1
40
1
40
1
41
1
10
3.28788914831472
20
-2.52694693405161
30
0
41
1
10
3.13824881745154
20
-2.5061374239217
30
0
41
1
10
2.99143260889412
20
-2.47909118761385
30
0
41
1
10
2.70717641485595
20
-2.40799997707208
30
0
41
1
10
2.56875541885444
20
-2.36376883417483
30
0
41
1
10
2.37953740243751
20
-2.27890672119256
30
0
41
1
10
2.31942424494821
20
-2.24747512743213
30
0
41
1
10
2.208011907544
20
-2.17578230175056
30
0
41
1
10
2.15642170149368
20
-2.13547364212172
30
0
41
1
10
2.09080858107805
20
-2.06480784564931
30
0
41
1
10
2.07134601899989
20
-2.0399440571955
30
0
41
1
10
2.0384231734098
20
-1.98705679997221
30
0
41
1
10
2.02487216707687
20
-1.95874890158441
30
0
41
1
10
2.00602510468059
20
-1.89963824714104
30
0
41
1
10
2.00073763626023
20
-1.86904907392952
30
0
41
1
10
1.99940657277301
20
-1.80568149696512
30
0
41
1
10
2.00355311338728
20
-1.77243679844398
30
0
41
1
10
2.02140408617458
20
-1.70669040604815
30
0
41
1
10
2.03495139165568
20
-1.6740793966417
30
0
41
1
10
2.07043882028893
20
-1.60944846787834
30
0
41
1
10
2.09235772071389
20
-1.57761822955345
30
0
41
1
10
2.14150858449909
20
-1.51692664204089
30
0
41
1
10
2.16892491810864
20
-1.48771515829978
30
0
41
1
10
2.22831642941375
20
-1.43117893227603
30
0
41
1
10
2.26038897006228
20
-1.40383638508558
30
0
41
1
10
2.35999001386335
20
-1.32593255177039
30
0
41
1
10
2.43155288711759
20
-1.27869576939298
30
0
41
1
10
2.58140856641191
20
-1.19062304190476
30
0
41
1
10
2.65994644310152
20
-1.14974554397838
30
0
41
1
10
2.76028603632358
20
-1.10217407539429
30
0
41
1
10
2.78047302037814
20
-1.09283248833839
30
0
41
1
10
2.81091933230721
20
-1.07906260935897
30
0
41
1
10
2.821094311195
20
-1.07451379113695
30
0
41
1
10
2.84148264474896
20
-1.06550112550767
30
0
41
1
10
2.85154116849011
20
-1.06067949885534
30
0
41
1
10
2.88347438946431
20
-1.0502021624456
30
0
41
1
10
2.90727161341556
20
-1.04935373553889
30
0
41
1
10
2.95268888100742
20
-1.05165595412933
30
0
41
1
10
2.97536998424474
20
-1.05323362538246
30
0
41
1
10
3.08881339910175
20
-1.06053091043751
30
0
41
1
10
3.17953381331097
20
-1.0672236861117
30
0
41
1
10
3.45134671277359
20
-1.08978144163393
30
0
41
1
10
3.63207856102571
20
-1.1081307845437
30
0
41
1
10
4.17289582390907
20
-1.17241162769443
30
0
41
1
10
4.53213302029553
20
-1.22779731312494
30
0
41
1
10
5.24173598416206
20
-1.35757369881219
30
0
41
1
10
5.59268986394733
20
-1.4319267676382
30
0
41
1
10
6.2878575814328
20
-1.59218568223943
30
0
41
1
10
6.63207331067025
20
-1.6780529783116
30
0
41
1
10
7.31538965938159
20
-1.85209892172452
30
0
41
1
10
7.65447846686769
20
-1.94028474232084
30
0
41
1
10
7.99205860131451
20
-2.02478358772007
30
0
0
SPLINE
5
AC
100
AcDbEntity
8
1
62
256
6
ByLayer
370
18
48
1
60
0
100
AcDbSpline
70
4
71
3
72
20
73
16
40
0
40
0
40
0
40
0
40
0.190152009005063
40
0.190152009005063
40
0.380304018010126
40
0.380304018010126
40
0.57045602701519
40
0.57045602701519
40
0.760608036020253
40
0.760608036020253
40
0.855684040522784
40
0.855684040522784
40
0.950760045025316
40
0.950760045025316
40
1
40
1
40
1
40
1
41
1
10
7.99205860131451
20
-2.02478358772007
30
0
41
1
10
8.21463969858416
20
-2.0944603953501
30
0
41
1
10
8.43668057085111
20
-2.1574592200104
30
0
41
1
10
8.87964009351597
20
-2.27101655338674
30
0
41
1
10
9.09990614299539
20
-2.32217964134648
30
0
41
1
10
9.54037632453637
20
-2.41099861715031
30
0
41
1
10
9.76060251164427
20
-2.44877184597496
30
0
41
1
10
10.2002057520239
20
-2.51161724107655
30
0
41
1
10
10.420004388626
20
-2.53635437369394
30
0
41
1
10
10.7506419517437
20
-2.56309491097198
30
0
41
1
10
10.8609552890449
20
-2.57031185732757
30
0
41
1
10
11.0816028640698
20
-2.58134008247865
30
0
41
1
10
11.1918804713905
20
-2.58514190544255
30
0
41
1
10
11.3597992449519
20
-2.58820486913075
30
0
41
1
10
11.4171790271133
20
-2.58878148723389
30
0
41
1
10
11.4746272761472
20
-2.58888647801342
30
0
0
SPLINE
5
AD
100
AcDbEntity
8
1
62
256
6
ByLayer
370
18
48
1
60
0
100
AcDbSpline
70
4
71
3
72
26
73
22
40
0
40
0
40
0
40
0
40
0.120547639520386
40
0.120547639520386
40
0.246183691017477
40
0.246183691017477
40
0.309001716766021
40
0.309001716766021
40
0.371819742514565
40
0.371819742514565
40
0.497455794011656
40
0.497455794011656
40
0.62309184550874
40
0.62309184550874
40
0.685909871257285
40
0.685909871257285
40
0.748727897005831
40
0.748727897005831
40
0.874363948502916
40
0.874363948502916
40
1
40
1
40
1
40
1
41
1
10
23.9488282083048
20
1.90481522686031
30
0
41
1
10
24.1625309630319
20
1.97717096977064
30
0
41
1
10
24.3754415092843
20
2.04510323838488
30
0
41
1
10
24.8105525916774
20
2.17229842324662
30
0
41
1
10
25.0329237434883
20
2.2310044581933
30
0
41
1
10
25.3661248759639
20
2.31058282741162
30
0
41
1
10
25.4771193079481
20
2.33568067450926
30
0
41
1
10
25.6996900324691
20
2.38235681316922
30
0
41
1
10
25.8112287208208
20
2.40402715629219
30
0
41
1
10
26.1453081270022
20
2.46397714371176
30
0
41
1
10
26.3671965791499
20
2.4975162873605
30
0
41
1
10
26.8112248068905
20
2.55049484300437
30
0
41
1
10
27.0335939453472
20
2.5699438979037
30
0
41
1
10
27.366988556558
20
2.58876457112828
30
0
41
1
10
27.4780082384976
20
2.59329924902232
30
0
41
1
10
27.7006485606381
20
2.59873442771635
30
0
41
1
10
27.8120797119833
20
2.5996569064892
30
0
41
1
10
28.1459581913131
20
2.59712667437333
30
0
41
1
10
28.3678051973185
20
2.58831579551216
30
0
41
1
10
28.8116400751783
20
2.5565839603882
30
0
41
1
10
29.033942855166
20
2.53385565703127
30
0
41
1
10
29.2562532995127
20
2.50410571853072
30
0
0
SPLINE
5
AE
100
AcDbEntity
8
1
62
256
6
ByLayer
370
18
48
1
60
0
100
AcDbSpline
70
4
71
3
72
16
73
12
40
0
40
0
40
0
40
0
40
0.302577973776953
40
0.302577973776953
40
0.605155947553906
40
0.605155947553906
40
0.756444934442382
40
0.756444934442382
40
0.907733921330858
40
0.907733921330858
40
1
40
1
40
1
40
1
41
1
10
7.99205860131454
20
1.78767775724091
30
0
41
1
10
7.60445423078875
20
1.90299235460498
30
0
41
1
10
7.22135885830539
20
2.01258835703669
30
0
41
1
10
6.45846841770481
20
2.20156743058018
30
0
41
1
10
6.08114796239579
20
2.28029418727147
30
0
41
1
10
5.52088802550503
20
2.3665684175503
30
0
41
1
10
5.33495805944119
20
2.39021808800996
30
0
41
1
10
4.96433348660767
20
2.42850262202427
30
0
41
1
10
4.7796942031045
20
2.44257681118313
30
0
41
1
10
4.48367338801194
20
2.45505231764147
30
0
41
1
10
4.37180781382909
20
2.45746741927698
30
0
41
1
10
4.26028291767418
20
2.45724856392766
30
0
0
SPLINE
5
AF
100
AcDbEntity
8
1
62
256
6
ByLayer
370
18
48
1
60
0
100
AcDbSpline
70
4
71
3
72
14
73
10
40
0
40
0
40
0
40
0
40
0.3281153685086
40
0.3281153685086
40
0.550040299887396
40
0.550040299887396
40
0.771965231266192
40
0.771965231266192
40
1
40
1
40
1
40
1
41
1
10
12.7207135328532
20
-2.45807549091475
30
0
41
1
10
12.3273110459277
20
-2.46464450245293
30
0
41
1
10
11.9346082240741
20
-2.45013502655695
30
0
41
1
10
11.2745902961538
20
-2.3907148508298
30
0
41
1
10
11.0077748126669
20
-2.35716994277675
30
0
41
1
10
10.4720591577072
20
-2.27145059429805
30
0
41
1
10
10.2024578719134
20
-2.21913636509225
30
0
41
1
10
9.65717526794478
20
-2.09564183098684
30
0
41
1
10
9.38137207292559
20
-2.02397697349079
30
0
41
1
10
9.10545375771656
20
-1.94411504431932
30
0
0
SPLINE
5
B0
100
AcDbEntity
8
1
62
256
6
ByLayer
370
13
48
1
60
0
100
AcDbSpline
70
4
71
3
72
18
73
14
40
0
40
0
40
0
40
0
40
0.13947267662686
40
0.13947267662686
40
0.28289389718905
40
0.28289389718905
40
0.426315117751241
40
0.426315117751241
40
0.713157558875622
40
0.713157558875622
40
0.856578779437811
40
0.856578779437811
40
1
40
1
40
1
40
1
41
1
10
9.10545375743806
20
-1.94411504423871
30
0
41
1
10
8.84432104750431
20
-1.86853266772735
30
0
41
1
10
8.58308522467314
20
-1.7856081924057
30
0
41
1
10
8.05188195014381
20
-1.60403619001028
30
0
41
1
10
7.7832944178806
20
-1.50539937690723
30
0
41
1
10
7.24874251027364
20
-1.29777556128221
30
0
41
1
10
6.9822962077871
20
-1.18888178073578
30
0
41
1
10
6.18384539524158
20
-0.85012405540553
30
0
41
1
10
5.65280416568899
20
-0.608004835800415
30
0
41
1
10
4.85168812579056
20
-0.233719650156843
30
0
41
1
10
4.58387089530984
20
-0.107168616277136
30
0
41
1
10
4.04538269512528
20
0.146812383079606
30
0
41
1
10
3.77597732347635
20
0.273605445159205
30
0
41
1
10
3.50664682676836
20
0.398766210873873
30
0
0
SPLINE
5
B1
100
AcDbEntity
8
1
62
256
6
ByLayer
370
18
48
1
60
0
100
AcDbSpline
70
4
71
3
72
12
73
8
40
0
40
0
40
0
40
0
40
0.250000000000072
40
0.250000000000072
40
0.500000000000145
40
0.500000000000145
40
1
40
1
40
1
40
1
41
1
10
28.8843872392018
20
0.668842071242125
30
0
41
1
10
28.8841715302847
20
0.678847685364474
30
0
41
1
10
28.8867388675676
20
0.688883546364451
30
0
41
1
10
28.8974216426023
20
0.706157746392023
30
0
41
1
10
28.9055066999247
20
0.713339542003268
30
0
41
1
10
28.9325237239628
20
0.728761406884729
30
0
41
1
10
28.9538475321137
20
0.731945393769252
30
0
41
1
10
28.9746002613848
20
0.731347943848192
30
0
0
SPLINE
5
B2
100
AcDbEntity
8
1
62
256
6
ByLayer
370
18
48
1
60
0
100
AcDbSpline
70
4
71
3
72
18
73
14
40
0
40
0
40
0
40
0
40
0.164419604523841
40
0.164419604523841
40
0.328839209047683
40
0.328839209047683
40
0.657678418095366
40
0.657678418095366
40
0.822098022619207
40
0.822098022619207
40
0.986517627143048
40
0.986517627143048
40
1
40
1
40
1
40
1
41
1
10
3.46247340561553
20
0.325884435353913
30
0
41
1
10
3.73233939999929
20
0.194716472537692
30
0
41
1
10
4.00228660766018
20
0.0622592657024938
30
0
41
1
10
4.54180645905598
20
-0.20225900361811
30
0
41
1
10
4.81005378071967
20
-0.33362928470288
30
0
41
1
10
5.61225775829757
20
-0.721090032874798
30
0
41
1
10
6.14376359544713
20
-0.9702498942886
30
0
41
1
10
6.94315436460249
20
-1.31651191807069
30
0
41
1
10
7.20994390896033
20
-1.42741808722235
30
0
41
1
10
7.74527608227868
20
-1.63809886743081
30
0
41
1
10
8.01435788108932
20
-1.73778849105759
30
0
41
1
10
8.30629929431382
20
-1.83788610458308
30
0
41
1
10
8.32841920924525
20
-1.84542127503695
30
0
41
1
10
8.35053450015943
20
-1.85290523634322
30
0
0
SPLINE
5
B3
100
AcDbEntity
8
1
62
256
6
ByLayer
370
13
48
1
60
0
100
AcDbSpline
70
4
71
3
72
16
73
12
40
0
40
0
40
0
40
0
40
0.289948038692178
40
0.289948038692178
40
0.441120110023554
40
0.441120110023554
40
0.59229218135493
40
0.59229218135493
40
0.894636324017686
40
0.894636324017686
40
1
40
1
40
1
40
1
41
1
10
8.3505346395215
20
-1.85290528350424
30
0
41
1
10
8.86781802989287
20
-2.02795741304848
30
0
41
1
10
9.38257159147605
20
-2.17499269227346
30
0
41
1
10
10.1688341615501
20
-2.34746447088312
30
0
41
1
10
10.4389592031534
20
-2.39744503773659
30
0
41
1
10
10.9754615265678
20
-2.47740853453729
30
0
41
1
10
11.2425797018178
20
-2.5075566306744
30
0
41
1
10
12.0423567059771
20
-2.56785283408161
30
0
41
1
10
12.5736122366527
20
-2.56801105252686
30
0
41
1
10
13.2934762282883
20
-2.51398917631161
30
0
41
1
10
13.4798499353715
20
-2.49519674784929
30
0
41
1
10
13.6667925581607
20
-2.47155394389958
30
0
0
SPLINE
5
B4
100
AcDbEntity
8
1
62
256
6
ByLayer
370
18
48
1
60
0
100
AcDbSpline
70
4
71
3
72
10
73
6
40
0
40
0
40
0
40
0
40
0.5
40
0.5
40
1
40
1
40
1
40
1
41
1
10
29.9933007962161
20
0.0864861044441341
30
0
41
1
10
29.9933556110894
20
0.0788282430210927
30
0
41
1
10
29.9940179116105
20
0.0702810642313239
30
0
41
1
10
29.9962474442547
20
0.0519622608893826
30
0
41
1
10
29.9978420932972
20
0.0420917626995276
30
0
41
1
10
29.9997954052308
20
0.0320305380389527
30
0
0
SPLINE
5
B5
100
AcDbEntity
8
1
62
256
6
ByLayer
370
18
48
1
60
0
100
AcDbSpline
70
4
71
3
72
8
73
4
40
0
40
0
40
0
40
0
40
1
40
1
40
1
40
1
41
1
10
3.3956464906671
20
0.360521812659755
30
0
41
1
10
3.41676756677779
20
0.348755400111514
30
0
41
1
10
3.43937448539668
20
0.337111630967342
30
0
41
1
10
3.46247340561556
20
0.325884435353913
30
0
0
SPLINE
5
B6
100
AcDbEntity
8
1
62
256
6
ByLayer
370
18
48
1
60
0
100
AcDbSpline
70
4
71
3
72
8
73
4
40
0
40
0
40
0
40
0
40
1
40
1
40
1
40
1
41
1
10
29.8752215722595
20
0.711216965923057
30
0
41
1
10
29.9263279632008
20
0.575311736955143
30
0
41
1
10
29.9611909278257
20
0.438734278066732
30
0
41
1
10
29.9821657890763
20
0.301582063677557
30
0
0
SPLINE
5
B7
100
AcDbEntity
8
1
62
256
6
ByLayer
370
13
48
1
60
0
100
AcDbSpline
70
4
71
3
72
27
73
23
40
0
40
0
40
0
40
0
40
0.13582037426566
40
0.13582037426566
40
0.203730561398491
40
0.203730561398491
40
0.271640748531321
40
0.339550935664151
40
0.339550935664151
40
0.407461122796981
40
0.407461122796981
40
0.475371309929811
40
0.475371309929811
40
0.543281497062642
40
0.543281497062642
40
0.679101871328302
40
0.679101871328302
40
0.814922245593962
40
0.814922245593962
40
0.950742619859623
40
0.950742619859623
40
1
40
1
40
1
40
1
41
1
10
3.50664682676836
20
0.398766210873873
30
0
41
1
10
3.50673231358962
20
0.561509375388852
30
0
41
1
10
3.50680898328682
20
0.719630509884354
30
0
41
1
10
3.506914372088
20
0.949961757334847
30
0
41
1
10
3.50694792109931
20
1.02568006221031
30
0
41
1
10
3.50701116149656
20
1.17193430035076
30
0
41
1
10
3.50707089559592
20
1.31375654709896
30
0
41
1
10
3.5071249888681
20
1.44686681336998
30
0
41
1
10
3.50717684508066
20
1.57556643819288
30
0
41
1
10
3.50720174522621
20
1.63793936511684
30
0
41
1
10
3.50724934799951
20
1.75692300839819
30
0
41
1
10
3.50727199139413
20
1.81338067201111
30
0
41
1
10
3.507315493519
20
1.92024548905155
30
0
41
1
10
3.50733638345093
20
1.97071518185427
30
0
41
1
10
3.50739601183045
20
2.11061422314773
30
0
41
1
10
3.50743215227053
20
2.1895545250085
30
0
41
1
10
3.50749940085117
20
2.31897532693424
30
0
41
1
10
3.50753071539751
20
2.36949937521479
30
0
41
1
10
3.50758556340705
20
2.43665697074255
30
0
41
1
10
3.50760938188466
20
2.45407337033311
30
0
41
1
10
3.5076357308667
20
2.45582908022897
30
0
41
1
10
3.50764216172885
20
2.45413211208484
30
0
41
1
10
3.50764786251341
20
2.45027222943475
30
0
0
SPLINE
5
B8
100
AcDbEntity
8
1
62
256
6
ByLayer
370
18
48
1
60
0
100
AcDbSpline
70
4
71
3
72
8
73
4
40
0
40
0
40
0
40
0
40
1
40
1
40
1
40
1
41
1
10
29.2562532995126
20
-2.50410571853078
30
0
41
1
10
29.221119457662
20
-2.54541951738736
30
0
41
1
10
29.1854859761692
20
-2.57353573766326
30
0
41
1
10
29.1488870525159
20
-2.58818807733391
30
0
0
SPLINE
5
B9
100
AcDbEntity
8
1
62
256
6
ByLayer
370
18
48
1
60
0
100
AcDbSpline
70
4
71
3
72
8
73
4
40
0
40
0
40
0
40
0
40
1
40
1
40
1
40
1
41
1
10
29.2562532995116
20
2.50410571853195
30
0
41
1
10
29.2211194576613
20
2.54541951738793
30
0
41
1
10
29.1854859761688
20
2.57353573766341
30
0
41
1
10
29.1488870525159
20
2.58818807733391
30
0
0
SPLINE
5
BA
100
AcDbEntity
8
1
62
256
6
ByLayer
370
13
48
1
60
0
100
AcDbSpline
70
4
71
3
72
8
73
4
40
0
40
0
40
0
40
0
40
1
40
1
40
1
40
1
41
1
10
3.28716605574368
20
0.509826404069912
30
0
41
1
10
3.3106611896045
20
0.478107585408964
30
0
41
1
10
3.34762585491632
20
0.45086744681231
30
0
41
1
10
3.39564649066708
20
0.433694201293292
30
0
0
SPLINE
5
BB
100
AcDbEntity
8
1
62
256
6
ByLayer
370
18
48
1
60
0
100
AcDbSpline
70
4
71
3
72
10
73
6
40
0
40
0
40
0
40
0
40
0.5
40
0.5
40
1
40
1
40
1
40
1
41
1
10
3.35253519611123
20
0.389486869370216
30
0
41
1
10
3.33356316059101
20
0.404108698932475
30
0
41
1
10
3.31755905127551
20
0.421891408662049
30
0
41
1
10
3.29425178155154
20
0.463040895234116
30
0
41
1
10
3.28715808763064
20
0.48614840004629
30
0
41
1
10
3.287166055753
20
0.509826404096628
30
0
0
SPLINE
5
BC
100
AcDbEntity
8
1
62
256
6
ByLayer
370
18
48
1
60
0
100
AcDbSpline
70
4
71
3
72
14
73
10
40
0
40
0
40
0
40
0
40
0.25
40
0.25
40
0.5
40
0.5
40
0.75
40
0.75
40
1
40
1
40
1
40
1
41
1
10
29.1693980915806
20
-2.46614781324684
30
0
41
1
10
29.1727000768917
20
-2.46539265740375
30
0
41
1
10
29.1753423988719
20
-2.46631504819311
30
0
41
1
10
29.1789307592768
20
-2.47252403085082
30
0
41
1
10
29.1798235675418
20
-2.47789298189693
30
0
41
1
10
29.1788425204181
20
-2.49408653266559
30
0
41
1
10
29.1769198625842
20
-2.50484461783881
30
0
41
1
10
29.1704685341234
20
-2.52939671612077
30
0
41
1
10
29.1659814571703
20
-2.54305760445516
30
0
41
1
10
29.1609868344121
20
-2.55625676137839
30
0
0
SPLINE
5
BD
100
AcDbEntity
8
1
62
256
6
ByLayer
370
18
48
1
60
0
100
AcDbSpline
70
4
71
3
72
8
73
4
40
0
40
0
40
0
40
0
40
1
40
1
40
1
40
1
41
1
10
29.8919164888614
20
-0.774940270318552
30
0
41
1
10
29.9336276137102
20
-0.61016496992525
30
0
41
1
10
29.9644037423238
20
-0.454321977008533
30
0
41
1
10
29.9821657890763
20
-0.301582063677785
30
0
0
SPLINE
5
BE
100
AcDbEntity
8
1
62
256
6
ByLayer
370
18
48
1
60
0
100
AcDbSpline
70
4
71
3
72
10
73
6
40
0
40
0
40
0
40
0
40
0.5
40
0.5
40
1
40
1
40
1
40
1
41
1
10
29.2562532995123
20
-2.5041057185316
30
0
41
1
10
29.3588990941506
20
-2.21333442685827
30
0
41
1
10
29.4635758684208
20
-1.92419567005231
30
0
41
1
10
29.675860299984
20
-1.34810479692675
30
0
41
1
10
29.7834774918177
20
-1.06116633457933
30
0
41
1
10
29.8919164888614
20
-0.774940270318524
30
0
0
SPLINE
5
BF
100
AcDbEntity
8
1
62
256
6
ByLayer
370
18
48
1
60
0
100
AcDbSpline
70
4
71
3
72
8
73
4
40
0
40
0
40
0
40
0
40
1
40
1
40
1
40
1
41
1
10
7.54421744326783
20
1.91119206092219
30
0
41
1
10
7.69385231624978
20
1.94949598686958
30
0
41
1
10
7.8431023273873
20
1.98749871258235
30
0
41
1
10
7.99205860131451
20
2.02478358772007
30
0
0
SPLINE
5
C0
100
AcDbEntity
8
1
62
256
6
ByLayer
370
18
48
1
60
0
100
AcDbSpline
70
4
71
3
72
74
73
70
40
0
40
0
40
0
40
0
40
0.033486240147496
40
0.033486240147496
40
0.0669724802949919
40
0.0669724802949919
40
0.100458720442488
40
0.100458720442488
40
0.133944960589984
40
0.133944960589984
40
0.150688080663731
40
0.150688080663731
40
0.167431200737479
40
0.167431200737479
40
0.200917440884974
40
0.200917440884974
40
0.234403681032469
40
0.234403681032469
40
0.251146801106217
40
0.251146801106217
40
0.267889921179964
40
0.267889921179964
40
0.301376161327458
40
0.301376161327458
40
0.334862401474953
40
0.334862401474953
40
0.368348641622447
40
0.368348641622447
40
0.401834881769941
40
0.401834881769941
40
0.435321121917435
40
0.435321121917435
40
0.46880736206493
40
0.46880736206493
40
0.502293602212424
40
0.502293602212424
40
0.535779842359918
40
0.535779842359918
40
0.569266082507412
40
0.569266082507412
40
0.602752322654907
40
0.602752322654907
40
0.636238562802401
40
0.636238562802401
40
0.669724802949895
40
0.669724802949895
40
0.703211043097389
40
0.703211043097389
40
0.736697283244884
40
0.736697283244884
40
0.770183523392378
40
0.770183523392378
40
0.803669763539872
40
0.803669763539872
40
0.837156003687367
40
0.837156003687367
40
0.870642243834861
40
0.870642243834861
40
0.887385363908608
40
0.887385363908608
40
0.904128483982355
40
0.904128483982355
40
0.93761472412985
40
0.93761472412985
40
0.971100964277346
40
0.971100964277346
40
0.987844084351094
40
0.987844084351094
40
1
40
1
40
1
40
1
41
1
10
7.99205860131451
20
2.02478358772007
30
0
41
1
10
8.21463969858416
20
2.0944603953501
30
0
41
1
10
8.43668057085108
20
2.1574592200104
30
0
41
1
10
8.87964009351595
20
2.27101655338674
30
0
41
1
10
9.09990614299539
20
2.32217964134648
30
0
41
1
10
9.54037632453637
20
2.41099861715031
30
0
41
1
10
9.76060251164427
20
2.44877184597493
30
0
41
1
10
10.200205752024
20
2.51161724107655
30
0
41
1
10
10.420004388626
20
2.53635437369394
30
0
41
1
10
10.7506419517437
20
2.56309491097198
30
0
41
1
10
10.8609552890449
20
2.57031185732757
30
0
41
1
10
11.0816028640698
20
2.58134008247865
30
0
41
1
10
11.1918804713905
20
2.58514190544255
30
0
41
1
10
11.5237574057714
20
2.59119558828812
30
0
41
1
10
11.7463009619541
20
2.58824533804778
30
0
41
1
10
12.1918778708216
20
2.56800694362707
30
0
41
1
10
12.413534689168
20
2.55076118647855
30
0
41
1
10
12.7455015433045
20
2.51495580220057
30
0
41
1
10
12.856020621488
20
2.50135577774429
30
0
41
1
10
13.0766049513985
20
2.47072880362777
30
0
41
1
10
13.1865705162105
20
2.45362398441844
30
0
41
1
10
13.5166628611831
20
2.39769144266535
30
0
41
1
10
13.7368769843821
20
2.35429298265663
30
0
41
1
10
14.1765213923175
20
2.25446672953632
30
0
41
1
10
14.3961746435712
20
2.1981365336502
30
0
41
1
10
14.8369318645261
20
2.07458113288501
30
0
41
1
10
15.0575978584651
20
2.00689575706218
30
0
41
1
10
15.4999438516529
20
1.85987341356392
30
0
41
1
10
15.7226943771424
20
1.78149074590587
30
0
41
1
10
16.1681349334389
20
1.61405840852575
30
0
41
1
10
16.3895617931606
20
1.52558509521029
30
0
41
1
10
16.8318039733328
20
1.34265596997517
30
0
41
1
10
17.0523526353512
20
1.24776449399212
30
0
41
1
10
17.4919965254002
20
1.05054491789471
30
0
41
1
10
17.7120358750549
20
0.949978472308743
30
0
41
1
10
18.151639638898
20
0.74329190759002
30
0
41
1
10
18.3711107412227
20
0.636945703177219
30
0
41
1
10
18.8115159069078
20
0.422446603474498
30
0
41
1
10
19.0323846512591
20
0.314210328008016
30
0
41
1
10
19.4743229016356
20
0.0932480749295905
30
0
41
1
10
19.6967131890863
20
-0.0172214249500087
30
0
41
1
10
20.142526688564
20
-0.238646176579607
30
0
41
1
10
20.3644876423603
20
-0.349647284389533
30
0
41
1
10
20.8088190722094
20
-0.567597090714798
30
0
41
1
10
21.0312348001216
20
-0.674492375076284
30
0
41
1
10
21.4751230966823
20
-0.886896748792111
30
0
41
1
10
21.6978643419282
20
-0.990442827109433
30
0
41
1
10
22.1436013345927
20
-1.19162458023118
30
0
41
1
10
22.3655288167282
20
-1.28983168944339
30
0
41
1
10
22.8097619107602
20
-1.4774550235052
30
0
41
1
10
23.0321703083761
20
-1.56678370636746
30
0
41
1
10
23.4762461567002
20
-1.73854119106676
30
0
41
1
10
23.698967444606
20
-1.81983223343076
30
0
41
1
10
24.1445569794495
20
-1.97142595388533
30
0
41
1
10
24.366448125386
20
-2.04247421978761
30
0
41
1
10
24.8105525916774
20
-2.17229842324662
30
0
41
1
10
25.0329237434882
20
-2.2310044581933
30
0
41
1
10
25.3661248759639
20
-2.31058282741162
30
0
41
1
10
25.4771193079481
20
-2.33568067450926
30
0
41
1
10
25.6996900324691
20
-2.38235681316922
30
0
41
1
10
25.8112287208207
20
-2.40402715629216
30
0
41
1
10
26.1453081270022
20
-2.46397714371176
30
0
41
1
10
26.3671965791499
20
-2.4975162873605
30
0
41
1
10
26.8112248068905
20
-2.55049484300437
30
0
41
1
10
27.0335939453472
20
-2.5699438979037
30
0
41
1
10
27.366988556558
20
-2.58876457112828
30
0
41
1
10
27.4780082384976
20
-2.59329924902232
30
0
41
1
10
27.6701495656367
20
-2.59798987485985
30
0
41
1
10
27.7510292359669
20
-2.59901668774717
30
0
41
1
10
27.8318719986515
20
-2.5991084598262
30
0
0
SPLINE
5
C1
100
AcDbEntity
8
1
62
256
6
ByLayer
370
18
48
1
60
0
100
AcDbSpline
70
4
71
3
72
22
73
18
40
0
40
0
40
0
40
0
40
0.0745695689492359
40
0.0745695689492359
40
0.172173380079526
40
0.172173380079526
40
0.367381002340106
40
0.367381002340106
40
0.562588624600685
40
0.562588624600685
40
0.660192435730974
40
0.660192435730974
40
0.757796246861263
40
0.757796246861263
40
0.953003869121839
40
0.953003869121839
40
1
40
1
40
1
40
1
41
1
10
16.5249092594081
20
1.76362185234575
30
0
41
1
10
16.7309284134587
20
1.69020063996709
30
0
41
1
10
16.9368622759024
20
1.61269238671718
30
0
41
1
10
17.412788457877
20
1.42524123740421
30
0
41
1
10
17.6816428356968
20
1.31312665590195
30
0
41
1
10
18.4838229012855
20
0.964122177583874
30
0
41
1
10
19.0143728789968
20
0.714396890683446
30
0
41
1
10
20.0764457241396
20
0.199983487766076
30
0
41
1
10
20.6079669670479
20
-0.0646784504896516
30
0
41
1
10
21.4131112642023
20
-0.458197703628798
30
0
41
1
10
21.6835748329413
20
-0.589008314167501
30
0
41
1
10
22.2200396912219
20
-0.842969191499634
30
0
41
1
10
22.4869996081103
20
-0.966386171771489
30
0
41
1
10
23.2857781893777
20
-1.3230979583895
30
0
41
1
10
23.8154261143462
20
-1.54296190464757
30
0
41
1
10
24.4752025771269
20
-1.78246138007953
30
0
41
1
10
24.6033374734787
20
-1.82740574490876
30
0
41
1
10
24.7316513462746
20
-1.87072026702685
30
0
0
SPLINE
5
C2
100
AcDbEntity
8
1
62
256
6
ByLayer
370
13
48
1
60
0
100
AcDbSpline
70
4
71
3
72
16
73
12
40
0
40
0
40
0
40
0
40
0.0939566718301126
40
0.0939566718301126
40
0.184561004647101
40
0.184561004647101
40
0.275165337464089
40
0.275165337464089
40
0.637582668732045
40
0.637582668732045
40
1
40
1
40
1
40
1
41
1
10
24.7316522935909
20
-1.87072058680948
30
0
41
1
10
24.8698264906905
20
-1.9173636195269
30
0
41
1
10
25.0082082283221
20
-1.96211669304307
30
0
41
1
10
25.2805993175075
20
-2.04606142163303
30
0
41
1
10
25.4145886935934
20
-2.08539323312286
30
0
41
1
10
25.6832695374592
20
-2.16002532936932
30
0
41
1
10
25.8182148546266
20
-2.19538536653201
30
0
41
1
10
26.4914848407882
20
-2.36050893031162
30
0
41
1
10
27.0247110335089
20
-2.45534317113393
30
0
41
1
10
28.0910622586946
20
-2.56593649119148
30
0
41
1
10
28.6239024213572
20
-2.58198474203172
30
0
41
1
10
29.1609868344025
20
-2.55625676137885
30
0
0
SPLINE
5
C3
100
AcDbEntity
8
1
62
256
6
ByLayer
370
18
48
1
60
0
100
AcDbSpline
70
4
71
3
72
22
73
18
40
0
40
0
40
0
40
0
40
0.0624999999999994
40
0.0624999999999994
40
0.124999999999999
40
0.124999999999999
40
0.249999999999998
40
0.249999999999998
40
0.374999999999997
40
0.374999999999997
40
0.499999999999996
40
0.499999999999996
40
0.624999999999995
40
0.624999999999995
40
0.749999999999994
40
0.749999999999994
40
1
40
1
40
1
40
1
41
1
10
26.6609622553594
20
0.890428650999212
30
0
41
1
10
26.6566889946876
20
0.817509086671123
30
0
41
1
10
26.657463249595
20
0.743400396001874
30
0
41
1
10
26.6691234475282
20
0.592800837826303
30
0
41
1
10
26.6801956461422
20
0.515617134419756
30
0
41
1
10
26.7272606840477
20
0.287646214579098
30
0
41
1
10
26.7767968709456
20
0.138922456394795
30
0
41
1
10
26.9050122142376
20
-0.150832888543874
30
0
41
1
10
26.9812936016426
20
-0.286832132116302
30
0
41
1
10
27.1521110779089
20
-0.545517258564701
30
0
41
1
10
27.2475549881837
20
-0.668831673538961
30
0
41
1
10
27.4473915843089
20
-0.897326818368811
30
0
41
1
10
27.5522799054834
20
-1.00348851338887
30
0
41
1
10
27.7698185061844
20
-1.20318374412901
30
0
41
1
10
27.8825623758647
20
-1.29671904591078
30
0
41
1
10
28.2304161764199
20
-1.56072984405716
30
0
41
1
10
28.469678226245
20
-1.7111248570576
30
0
41
1
10
28.7145809778111
20
-1.84188940815801
30
0
0
SPLINE
5
C4
100
AcDbEntity
8
1
62
256
6
ByLayer
370
18
48
1
60
0
100
AcDbSpline
70
4
71
3
72
8
73
4
40
0
40
0
40
0
40
0
40
1
40
1
40
1
40
1
41
1
10
29.9933007962158
20
-0.0864861044446172
30
0
41
1
10
29.9934099139764
20
-0.0712419081415874
30
0
41
1
10
29.9958916248801
20
-0.0521383408214717
30
0
41
1
10
29.9997954052307
20
-0.0320305380390948
30
0
0
SPLINE
5
C5
100
AcDbEntity
8
1
62
256
6
ByLayer
370
18
48
1
60
0
100
AcDbSpline
70
4
71
3
72
12
73
8
40
0
40
0
40
0
40
0
40
0.0527243292791219
40
0.0527243292791219
40
0.526362164639561
40
0.526362164639561
40
1
40
1
40
1
40
1
41
1
10
3.28785298987009
20
-2.58376988686948
30
0
41
1
10
3.28785384391313
20
-2.58375986347593
30
0
41
1
10
3.28785468811355
20
-2.5836984603593
30
0
41
1
10
3.28786301672628
20
-2.58257323674479
30
0
41
1
10
3.28786969467052
20
-2.57739016043027
30
0
41
1
10
3.2878810838144
20
-2.55841478497408
30
0
41
1
10
3.28788573432945
20
-2.54467431689673
30
0
41
1
10
3.28788914831472
20
-2.52694693405161
30
0
0
SPLINE
5
C6
100
AcDbEntity
8
1
62
256
6
ByLayer
370
18
48
1
60
0
100
AcDbSpline
70
4
71
3
72
8
73
4
40
0
40
0
40
0
40
0
40
1
40
1
40
1
40
1
41
1
10
3.35253519611507
20
0.389486869367119
30
0
41
1
10
3.36570261177113
20
0.378493744787079
30
0
41
1
10
3.38001917855576
20
0.368780551785449
30
0
41
1
10
3.3956464906671
20
0.360521812659755
30
0
0
SPLINE
5
C7
100
AcDbEntity
8
1
62
256
6
ByLayer
370
18
48
1
60
0
100
AcDbSpline
70
4
71
3
72
14
73
10
40
0
40
0
40
0
40
0
40
0.25
40
0.25
40
0.5
40
0.5
40
0.75
40
0.75
40
1
40
1
40
1
40
1
41
1
10
3.28788914831472
20
-2.52694693405164
30
0
41
1
10
3.29863275313988
20
-2.50648281183459
30
0
41
1
10
3.31250866367867
20
-2.48698568804599
30
0
41
1
10
3.34539235212665
20
-2.45363635675705
30
0
41
1
10
3.36446498737641
20
-2.43975450783682
30
0
41
1
10
3.4049217537891
20
-2.41958061677374
30
0
41
1
10
3.42603890125477
20
-2.41331140820588
30
0
41
1
10
3.46784707295871
20
-2.4073414870395
30
0
41
1
10
3.48802127964012
20
-2.40759496311253
30
0
41
1
10
3.50767054369862
20
-2.41021343870384
30
0
0
SPLINE
5
C8
100
AcDbEntity
8
1
62
256
6
ByLayer
370
18
48
1
60
0
100
AcDbSpline
70
4
71
3
72
8
73
4
40
0
40
0
40
0
40
0
40
1
40
1
40
1
40
1
41
1
10
29.1488870525159
20
2.58818807733391
30
0
41
1
10
28.983195167804
20
2.59596452184257
30
0
41
1
10
28.8176559911503
20
2.59977026038732
30
0
41
1
10
28.6521329864767
20
2.59962605172456
30
0
0
SPLINE
5
C9
100
AcDbEntity
8
1
62
256
6
ByLayer
370
18
48
1
60
0
100
AcDbSpline
70
4
71
3
72
28
73
24
40
0
40
0
40
0
40
0
40
0.0801404600797309
40
0.0801404600797309
40
0.156795421739753
40
0.156795421739753
40
0.195122902569764
40
0.195122902569764
40
0.233450383399774
40
0.233450383399774
40
0.386760306719817
40
0.386760306719817
40
0.540070230039861
40
0.540070230039861
40
0.578397710869872
40
0.578397710869872
40
0.616725191699884
40
0.616725191699884
40
0.693380153359907
40
0.693380153359907
40
0.846690076679953
40
0.846690076679953
40
1
40
1
40
1
40
1
41
1
10
13.886913650426
20
-2.47150293646706
30
0
41
1
10
13.6076595778337
20
-2.51294285895767
30
0
41
1
10
13.3286631006012
20
-2.54367242623476
30
0
41
1
10
12.7820358307557
20
-2.58218135006797
30
0
41
1
10
12.5143166950259
20
-2.59086748893608
30
0
41
1
10
12.1112194471228
20
-2.58837646561781
30
0
41
1
10
11.9766087243748
20
-2.58495736343286
30
0
41
1
10
11.706729208689
20
-2.57287925952784
30
0
41
1
10
11.571188189897
20
-2.56419767619971
30
0
41
1
10
10.8954337520424
20
-2.5079721795866
30
0
41
1
10
10.3604783658791
20
-2.42216104571682
30
0
41
1
10
9.292090852066
20
-2.1781175976742
30
0
41
1
10
8.75869035430105
20
-2.01979937875339
30
0
41
1
10
8.08652529520572
20
-1.78359576651107
30
0
41
1
10
7.95181509456518
20
-1.73445713213675
30
0
41
1
10
7.68176314347841
20
-1.63243634702388
30
0
41
1
10
7.54618267935373
20
-1.57943127864766
30
0
41
1
10
7.14095693911256
20
-1.41646260024575
30
0
41
1
10
6.87225539849402
20
-1.30244008911063
30
0
41
1
10
6.06883406007873
20
-0.947573279567649
30
0
41
1
10
5.53687305115398
20
-0.693765167141692
30
0
41
1
10
4.47052311070809
20
-0.171088599434341
30
0
41
1
10
3.93588558110954
20
0.0972567711381203
30
0
41
1
10
3.39508973802052
20
0.36300725617221
30
0
0
SPLINE
5
CA
100
AcDbEntity
8
1
62
256
6
ByLayer
370
18
48
1
60
0
100
AcDbSpline
70
4
71
3
72
10
73
6
40
0
40
0
40
0
40
0
40
0.5
40
0.5
40
1
40
1
40
1
40
1
41
1
10
29.2562532995053
20
2.50410571855164
30
0
41
1
10
29.3583210556583
20
2.21497187337633
30
0
41
1
10
29.4628842247833
20
1.92608786226623
30
0
41
1
10
29.6756052398899
20
1.34878180741728
30
0
41
1
10
29.7834402579301
20
1.06126461388305
30
0
41
1
10
29.8919164888614
20
0.774940270318524
30
0
0
SPLINE
5
CB
100
AcDbEntity
8
1
62
256
6
ByLayer
370
18
48
1
60
0
100
AcDbSpline
70
4
71
3
72
8
73
4
40
0
40
0
40
0
40
0
40
1
40
1
40
1
40
1
41
1
10
29.1609868344109
20
-2.55625676138234
30
0
41
1
10
29.156957514431
20
-2.56690493828839
30
0
41
1
10
29.1529242549733
20
-2.57754871160472
30
0
41
1
10
29.1488870525159
20
-2.58818807733388
30
0
0
SPLINE
5
CC
100
AcDbEntity
8
1
62
256
6
ByLayer
370
18
48
1
60
0
100
AcDbSpline
70
4
71
3
72
8
73
4
40
0
40
0
40
0
40
0
40
1
40
1
40
1
40
1
41
1
10
29.9821657890763
20
0.301582063677557
30
0
41
1
10
29.9889040634365
20
0.229715657759016
30
0
41
1
10
29.9927888476362
20
0.158007409588436
30
0
41
1
10
29.9933007962161
20
0.0864861044441341
30
0
0
SPLINE
5
CD
100
AcDbEntity
8
1
62
256
6
ByLayer
370
18
48
1
60
0
100
AcDbSpline
70
4
71
3
72
27
73
23
40
0
40
0
40
0
40
0
40
0.0719949051903905
40
0.0719949051903905
40
0.143989810380781
40
0.143989810380781
40
0.287979620761562
40
0.287979620761562
40
0.359974525951952
40
0.359974525951952
40
0.431969431142343
40
0.431969431142343
40
0.575959241523123
40
0.575959241523123
40
0.647954146713514
40
0.647954146713514
40
0.719949051903904
40
0.791943957094295
40
0.791943957094295
40
0.863938862284685
40
0.863938862284685
40
1
40
1
40
1
40
1
41
1
10
3.28716605575306
20
0.509826404096657
30
0
41
1
10
3.28719430297463
20
0.593765605260671
30
0
41
1
10
3.28722129148505
20
0.676661533620688
30
0
41
1
10
3.2872731077687
20
0.840366640942193
30
0
41
1
10
3.28729799822915
20
0.921400913870855
30
0
41
1
10
3.28736877286093
20
1.15731424649837
30
0
41
1
10
3.28741119916427
20
1.30630935355762
30
0
41
1
10
3.28747021520104
20
1.51751373331055
30
0
41
1
10
3.28748916589751
20
1.58605806436705
30
0
41
1
10
3.28752561141116
20
1.7179540733697
30
0
41
1
10
3.2875429298096
20
1.78065765697127
30
0
41
1
10
3.28759280608861
20
1.95934436624637
30
0
41
1
10
3.28762332340241
20
2.06599382250744
30
0
41
1
10
3.28766669750277
20
2.20680728583722
30
0
41
1
10
3.28768072405109
20
2.25042848870405
30
0
41
1
10
3.28770753408449
20
2.32929254229757
30
0
41
1
10
3.28773326663736
20
2.40032950911439
30
0
41
1
10
3.28775711491903
20
2.4559437053276
30
0
41
1
10
3.28778004693515
20
2.5037357229638
30
0
41
1
10
3.28779111150703
20
2.52379803301582
30
0
41
1
10
3.28782118854329
20
2.56933834945741
30
0
41
1
10
3.28783852150531
20
2.58395836051378
30
0
41
1
10
3.28785301724631
20
2.58376954793024
30
0
0
SPLINE
5
CE
100
AcDbEntity
8
1
62
256
6
ByLayer
370
13
48
1
60
0
100
AcDbSpline
70
4
71
3
72
8
73
4
40
0
40
0
40
0
40
0
40
1
40
1
40
1
40
1
41
1
10
3.50664682676836
20
0.398766210873873
30
0
41
1
10
3.46811939105425
20
0.409508213110456
30
0
41
1
10
3.4305097707948
20
0.421226318271181
30
0
41
1
10
3.39564649066708
20
0.433694201293292
30
0
0
SPLINE
5
CF
100
AcDbEntity
8
1
62
256
6
ByLayer
370
18
48
1
60
0
100
AcDbSpline
70
4
71
3
72
35
73
31
40
0
40
0
40
0
40
0
40
0.140652256290326
40
0.140652256290326
40
0.297491677576874
40
0.297491677576874
40
0.454331098863422
40
0.454331098863422
40
0.532750809506696
40
0.532750809506696
40
0.571960664828333
40
0.571960664828333
40
0.581763128658742
40
0.586664360573947
40
0.586664360573947
40
0.591565592489152
40
0.591565592489152
40
0.596466824404356
40
0.596466824404356
40
0.601368056319561
40
0.601368056319561
40
0.61117052014997
40
0.61117052014997
40
0.689590230793244
40
0.689590230793244
40
0.768009941436518
40
0.768009941436518
40
0.924849362723066
40
0.924849362723066
40
1
40
1
40
1
40
1
41
1
10
7.99205860131451
20
2.02478358771984
30
0
41
1
10
7.99205860131451
20
1.87896797429249
30
0
41
1
10
7.99205860131454
20
1.74251793473195
30
0
41
1
10
7.99205860131454
20
1.47354634542174
30
0
41
1
10
7.99205860131451
20
1.34741556497798
30
0
41
1
10
7.99205860131451
20
1.12462982207847
30
0
41
1
10
7.99205860131454
20
1.02777358830289
30
0
41
1
10
7.99205860131454
20
0.903959717630755
30
0
41
1
10
7.99205860131454
20
0.866309708775304
30
0
41
1
10
7.99205860131454
20
0.815845941634336
30
0
41
1
10
7.99205860131454
20
0.799994599984331
30
0
41
1
10
7.99205860131454
20
0.781398422511671
30
0
41
1
10
7.99205860131451
20
0.775911750288117
30
0
41
1
10
7.99205860131457
20
0.770563094645979
30
0
41
1
10
7.99205860131457
20
0.767027971041784
30
0
41
1
10
7.99205860131451
20
0.765172731592031
30
0
41
1
10
7.99205860131451
20
0.764076808739418
30
0
41
1
10
7.99205860131454
20
0.764502171374829
30
0
41
1
10
7.99205860131454
20
0.767334209760861
30
0
41
1
10
7.99205860131454
20
0.769996598668769
30
0
41
1
10
7.99205860131454
20
0.778766932538076
30
0
41
1
10
7.99205860131454
20
0.784677247721703
30
0
41
1
10
7.99205860131454
20
0.838438798671802
30
0
41
1
10
7.99205860131451
20
0.890215393557753
30
0
41
1
10
7.99205860131451
20
1.00169772251209
30
0
41
1
10
7.99205860131451
20
1.06158084545569
30
0
41
1
10
7.99205860131451
20
1.2513825672383
30
0
41
1
10
7.99205860131454
20
1.39188149776191
30
0
41
1
10
7.99205860131451
20
1.62167045857709
30
0
41
1
10
7.99205860131454
20
1.69994567742259
30
0
41
1
10
7.99205860131454
20
1.78091098638703
30
0
0
SPLINE
5
D0
100
AcDbEntity
8
1
62
256
6
ByLayer
370
18
48
1
60
0
100
AcDbSpline
70
4
71
3
72
16
73
12
40
0
40
0
40
0
40
0
40
0.140498790873477
40
0.140498790873477
40
0.280997581746954
40
0.280997581746954
40
0.561995163493908
40
0.561995163493908
40
0.842992745240862
40
0.842992745240862
40
1
40
1
40
1
40
1
41
1
10
28.7145809778111
20
-1.84188940815804
30
0
41
1
10
28.7313001936552
20
-1.89629918457766
30
0
41
1
10
28.7485716913119
20
-1.94745940239008
30
0
41
1
10
28.7841020674875
20
-2.04336529476873
30
0
41
1
10
28.8024143628993
20
-2.08819981993838
30
0
41
1
10
28.8578671140277
20
-2.2111174927953
30
0
41
1
10
28.8957386209879
20
-2.2784508798043
30
0
41
1
10
28.9730712732343
20
-2.3844842837735
30
0
41
1
10
29.0128395768109
20
-2.42312732595803
30
0
41
1
10
29.0739884395953
20
-2.45818532403237
30
0
41
1
10
29.0958345745586
20
-2.46591009915323
30
0
41
1
10
29.1176676087018
20
-2.46872034915177
30
0
0
LINE
5
76
100
AcDbEntity
8
81
62
256
6
ByLayer
370
18
48
1
60
0
100
AcDbLine
10
30
20
0
30
0
11
35
21
0
31
0
39
0
210
0
220
0
230
1
0
LINE
5
77
100
AcDbEntity
8
1
62
256
6
ByLayer
370
18
48
1
60
0
100
AcDbLine
10
3.287846
20
2.58377
30
0
11
0.4
21
2.581965
31
0
39
0
210
0
220
0
230
1
0
LINE
5
79
100
AcDbEntity
8
1
62
256
6
ByLayer
370
18
48
1
60
0
100
AcDbLine
10
12.30412
20
2.589405
30
0
11
11.487854
21
2.588895
31
0
39
0
210
0
220
0
230
1
0
LINE
5
7A
100
AcDbEntity
8
1
62
256
6
ByLayer
370
18
48
1
60
0
100
AcDbLine
10
28.655121
20
2.599624
30
0
11
27.835986
21
2.599112
31
0
39
0
210
0
220
0
230
1
0
LINE
5
7B
100
AcDbEntity
8
1
62
256
6
ByLayer
370
18
48
1
60
0
100
AcDbLine
10
27.835986
20
-2.599112
30
0
11
28.654381
21
-2.599624
31
0
39
0
210
0
220
0
230
1
0
LINE
5
7C
100
AcDbEntity
8
1
62
256
6
ByLayer
370
18
48
1
60
0
100
AcDbLine
10
11.487854
20
-2.588895
30
0
11
12.304106
21
-2.589405
31
0
39
0
210
0
220
0
230
1
0
LINE
5
7D
100
AcDbEntity
8
1
62
256
6
ByLayer
370
18
48
1
60
0
100
AcDbLine
10
0.4
20
-2.581965
30
0
11
3.287846
21
-2.58377
31
0
39
0
210
0
220
0
230
1
0
LINE
5
7E
100
AcDbEntity
8
1
62
256
6
ByLayer
370
18
48
1
60
0
100
AcDbLine
10
0
20
-3
30
0
11
0.4
21
-2.581965
31
0
39
0
210
0
220
0
230
1
0
LINE
5
7F
100
AcDbEntity
8
1
62
256
6
ByLayer
370
18
48
1
60
0
100
AcDbLine
10
0.4
20
2.581965
30
0
11
0
21
3
31
0
39
0
210
0
220
0
230
1
0
LINE
5
80
100
AcDbEntity
8
SK1
62
256
6
ByLayer
370
18
48
1
60
0
100
AcDbLine
10
0
20
3
30
0
11
-35.278312
21
3
31
0
39
0
210
0
220
0
230
1
0
LINE
5
82
100
AcDbEntity
8
SK1
62
256
6
ByLayer
370
18
48
1
60
0
100
AcDbLine
10
-35.278312
20
-3
30
0
11
0
21
-3
31
0
39
0
210
0
220
0
230
1
0
LINE
5
83
100
AcDbEntity
8
SK1
62
256
6
ByLayer
370
18
48
1
60
0
100
AcDbLine
10
-35.278312
20
3
30
0
11
-36
21
1.75
31
0
39
0
210
0
220
0
230
1
0
LINE
5
84
100
AcDbEntity
8
SK1
62
256
6
ByLayer
370
18
48
1
60
0
100
AcDbLine
10
-36
20
-1.75
30
0
11
-35.278312
21
-3
31
0
39
0
210
0
220
0
230
1
0
LINE
5
85
100
AcDbEntity
8
SK4
62
256
6
ByLayer
370
18
48
0.05
60
0
100
AcDbLine
10
35
20
0
30
0
11
-41
21
0
31
0
39
0
210
0
220
0
230
1
0
LINE
5
87
100
AcDbEntity
8
4
62
256
6
ByLayer
370
18
48
0.05
60
0
100
AcDbLine
10
30
20
0
30
0
11
0
21
0
31
0
39
0
210
0
220
0
230
1
0
LINE
5
89
100
AcDbEntity
8
80
62
256
6
ByLayer
370
18
48
1
60
0
100
AcDbLine
10
0
20
0
30
0
11
-5
21
0
31
0
39
0
210
0
220
0
230
1
0
LINE
5
8A
100
AcDbEntity
8
1
62
256
6
ByLayer
370
13
48
1
60
0
100
AcDbLine
10
28.9746
20
0.731348
30
0
11
29.993301
21
0.086486
31
0
39
0
210
0
220
0
230
1
0
LINE
5
8B
100
AcDbEntity
8
1
62
256
6
ByLayer
370
13
48
1
60
0
100
AcDbLine
10
28.884387
20
0.668842
30
0
11
29.978403
21
-0.023696
31
0
39
0
210
0
220
0
230
1
0
LINE
5
8C
100
AcDbEntity
8
1
62
256
6
ByLayer
370
18
48
1
60
0
100
AcDbLine
10
0
20
-3
30
0
11
0
21
3
31
0
39
0
210
0
220
0
230
1
0
LINE
5
8D
100
AcDbEntity
8
1
62
256
6
ByLayer
370
18
48
1
60
0
100
AcDbLine
10
0.4
20
2.581965
30
0
11
0.4
21
-2.581965
31
0
39
0
210
0
220
0
230
1
0
LINE
5
8E
100
AcDbEntity
8
SK1
62
256
6
ByLayer
370
18
48
1
60
0
100
AcDbLine
10
0
20
-3
30
0
11
0
21
3
31
0
39
0
210
0
220
0
230
1
0
LINE
5
8F
100
AcDbEntity
8
SK1
62
256
6
ByLayer
370
18
48
1
60
0
100
AcDbLine
10
-35.278312
20
3
30
0
11
-35.278312
21
-3
31
0
39
0
210
0
220
0
230
1
0
LINE
5
90
100
AcDbEntity
8
SK1
62
256
6
ByLayer
370
18
48
1
60
0
100
AcDbLine
10
-36
20
1.75
30
0
11
-36
21
-1.75
31
0
39
0
210
0
220
0
230
1
0
MTEXT
5
D1
100
AcDbEntity
8
SK6
62
256
6
ByLayer
370
13
48
1
60
0
100
AcDbMText
10
-0.870831
20
34.982694
30
0
210
0
220
0
230
1
1
\W0.7538;460.1-0520-016A0-XM GC34
40
3.5
41
0
44
1.084337
50
0
71
8
72
5
7
iso_b_vert
0
DIMENSION
5
DE
100
AcDbEntity
8
SK2
62
256
6
ByLayer
370
13
48
1
60
0
100
AcDbDimension
2
DimnDraft3D1
10
29.2394
20
-12.813398
30
0
11
13.489459
21
-12.813398
31
0
70
32
71
5
72
1
41
1
210
0
220
0
230
1
3
Standard
100
AcDbAlignedDimension
13
0
23
-1.5875
33
0
14
29.2394
24
-4.1875
34
0
50
0
100
AcDbRotatedDimension
1001
ACAD
1000
DSTYLE
1002
{
1070
   279
1070
     0
1070
   172
1070
     1
1070
   173
1070
     1
1070
   340
1005
D2
1070
   271
1070
     2
1070
   272
1070
     2
1070
    77
1070
     1
1070
    73
1070
     0
1070
   171
1070
     3
1070
   274
1070
     4
1070
   177
1070
    35
1070
   176
1070
    35
1070
   178
1070
    35
1070
    48
1040
-0.005
1070
    41
1041
3.5
1070
   147
1041
1.75
1070
    42
1041
1.5875
1070
    44
1041
2.0
1070
   140
1041
3.5
1070
   343
1005
0
1070
   344
1005
0
1002
}
0
DIMENSION
5
E8
100
AcDbEntity
8
SK2
62
256
6
ByLayer
370
13
48
1
60
0
100
AcDbDimension
2
DimnDraft3D2
10
30
20
-31.692985
30
0
11
-2.4193
21
-31.692985
31
0
70
32
71
5
72
1
41
1
210
0
220
0
230
1
3
Standard
100
AcDbAlignedDimension
13
-36
23
-4.5875
33
0
14
30
24
-1.5875
34
0
50
0
100
AcDbRotatedDimension
1001
ACAD
1000
DSTYLE
1002
{
1070
   279
1070
     0
1070
   172
1070
     1
1070
   173
1070
     1
1070
   340
1005
D2
1070
   271
1070
     2
1070
   272
1070
     2
1070
    77
1070
     1
1070
    73
1070
     0
1070
   171
1070
     3
1070
   274
1070
     4
1070
   177
1070
    35
1070
   176
1070
    35
1070
   178
1070
    35
1070
    48
1040
-0.005
1070
    41
1041
3.5
1070
   147
1041
1.75
1070
    42
1041
1.5875
1070
    44
1041
2.0
1070
   140
1041
3.5
1070
   343
1005
0
1070
   344
1005
0
1002
}
0
DIMENSION
5
F2
100
AcDbEntity
8
SK2
62
256
6
ByLayer
370
13
48
1
60
0
100
AcDbDimension
2
DimnDraft3D3
10
30
20
14.209119
30
0
11
21.82
21
14.209119
31
0
70
32
71
5
72
1
41
1
210
0
220
0
230
1
3
Standard
100
AcDbAlignedDimension
13
13.64
23
4.1875
33
0
14
30
24
1.5875
34
0
50
0
100
AcDbRotatedDimension
1001
ACAD
1000
DSTYLE
1002
{
1070
   279
1070
     0
1070
   172
1070
     1
1070
   173
1070
     1
1070
   340
1005
D2
1070
   271
1070
     2
1070
   272
1070
     2
1070
    77
1070
     1
1070
    73
1070
     0
1070
   171
1070
     3
1070
   274
1070
     4
1070
   177
1070
    35
1070
   176
1070
    35
1070
   178
1070
    35
1070
    48
1040
-0.005
1070
    41
1041
3.5
1070
   147
1041
1.75
1070
    42
1041
1.5875
1070
    44
1041
2.0
1070
   140
1041
3.5
1070
   343
1005
0
1070
   344
1005
0
1002
}
0
DIMENSION
5
FC
100
AcDbEntity
8
SK2
62
256
6
ByLayer
370
13
48
1
60
0
100
AcDbDimension
2
DimnDraft3D4
10
29.2394
20
-15.402503
30
0
11
39.981425
21
-15.402503
31
0
70
32
71
5
72
1
41
1
210
0
220
0
230
1
3
Standard
100
AcDbAlignedDimension
13
30
23
-1.5875
33
0
14
29.2394
24
-4.1875
34
0
50
0
100
AcDbRotatedDimension
1001
ACAD
1000
DSTYLE
1002
{
1070
   279
1070
     0
1070
   172
1070
     1
1070
   173
1070
     1
1070
   340
1005
D2
1070
   271
1070
     2
1070
   272
1070
     2
1070
    77
1070
     1
1070
    73
1070
     0
1070
   171
1070
     3
1070
   274
1070
     4
1070
   177
1070
    35
1070
   176
1070
    35
1070
   178
1070
    35
1070
    48
1040
-0.005
1070
    41
1041
3.5
1070
   147
1041
1.75
1070
    42
1041
1.5875
1070
    44
1041
2.0
1070
   140
1041
3.5
1070
   343
1005
0
1070
   344
1005
0
1002
}
0
DIMENSION
5
106
100
AcDbEntity
8
SK2
62
256
6
ByLayer
370
13
48
1
60
0
100
AcDbDimension
2
DimnDraft3D5
10
29.2394
20
-21.343428
30
0
11
-5.499924
21
-21.343428
31
0
70
32
71
5
72
1
41
1
210
0
220
0
230
1
3
Standard
100
AcDbAlignedDimension
13
-36
23
-4.5875
33
0
14
29.2394
24
-4.1875
34
0
50
0
100
AcDbRotatedDimension
1001
ACAD
1000
DSTYLE
1002
{
1070
   279
1070
     0
1070
   172
1070
     1
1070
   173
1070
     1
1070
   340
1005
D2
1070
   271
1070
     2
1070
   272
1070
     2
1070
    77
1070
     1
1070
    73
1070
     0
1070
   171
1070
     3
1070
   274
1070
     4
1070
   177
1070
    35
1070
   176
1070
    35
1070
   178
1070
    35
1070
    48
1040
-0.005
1070
    41
1041
3.5
1070
   147
1041
1.75
1070
    42
1041
1.5875
1070
    44
1041
2.0
1070
   140
1041
3.5
1070
   343
1005
0
1070
   344
1005
0
1002
}
0
DIMENSION
5
111
100
AcDbEntity
8
SK2
62
256
6
ByLayer
370
13
48
1
60
0
100
AcDbDimension
2
DimnDraft3D6
10
-46.625163
20
3
30
0
11
-47.250163
21
21.47418
31
0
70
33
71
5
72
1
41
1
210
0
220
0
230
1
3
Standard
100
AcDbAlignedDimension
13
-37.5875
23
-3
33
0
14
-37.5875
24
3
34
0
1001
ACAD
1000
DSTYLE
1002
{
1070
   279
1070
     0
1070
    74
1070
     0
1070
   173
1070
     1
1070
   340
1005
D2
1070
   271
1070
     3
1070
   272
1070
     2
1070
    77
1070
     1
1070
    73
1070
     0
1070
   171
1070
     3
1070
   274
1070
     4
1070
   177
1070
    35
1070
   176
1070
    35
1070
   178
1070
    35
1070
    48
1040
-0.005
1070
    41
1041
3.5
1070
   147
1041
1.75
1070
    42
1041
1.5875
1070
    44
1041
2.0
1070
   140
1041
3.5
1070
   343
1005
0
1070
   344
1005
0
1002
}
0
DIMENSION
5
11C
100
AcDbEntity
8
2
62
256
6
ByLayer
370
13
48
1
60
0
100
AcDbDimension
2
DimnDraft3D7
10
44.083343
20
2.6
30
0
11
39.458343
21
19.667266
31
0
70
33
71
5
72
1
41
1
210
0
220
0
230
1
3
Standard
100
AcDbAlignedDimension
13
30.8269
23
-2.6
33
0
14
30.8269
24
2.6
34
0
1001
ACAD
1000
DSTYLE
1002
{
1070
   279
1070
     0
1070
    74
1070
     0
1070
   173
1070
     1
1070
   340
1005
D2
1070
   271
1070
     3
1070
   272
1070
     2
1070
    77
1070
     1
1070
    73
1070
     0
1070
   171
1070
     3
1070
   274
1070
     4
1070
   177
1070
    35
1070
   176
1070
    35
1070
   178
1070
    35
1070
    48
1040
-0.005
1070
    41
1041
3.5
1070
   147
1041
1.75
1070
    42
1041
1.5875
1070
    44
1041
2.0
1070
   140
1041
3.5
1070
   343
1005
0
1070
   344
1005
0
1002
}
0
ENDSEC
0
SECTION
2
OBJECTS
0
DICTIONARY
5
187
330
0
100
AcDbDictionary
280
0
281
1
3
ACAD_GROUP
350
188
3
ACAD_MLINESTYLE
350
189
0
DICTIONARY
5
188
330
0
100
AcDbDictionary
280
0
281
1
0
DICTIONARY
5
189
330
0
100
AcDbDictionary
280
0
281
1
3
Standard
350
18
0
MLINESTYLE
5
18
330
189
100
AcDbMlineStyle
2
Standard
70
0
3

62
256
51
90
52
90
71
2
49
-0.5
62
256
6
ByLayer
49
0.5
62
256
6
ByLayer
0
RASTERVARIABLES
5
175
330

100
AcDbRasterVariables
90
0
70
1
71
1
72
1
0
ENDSEC
0
EOF
