0
SECTION
2
HEADER
9
$ACADVER
1
AC1015
9
$DWGCODEPAGE
3
ANSI_1252
9
$HANDSEED
5
19f
9
$ANGBASE
50
0
9
$ANGDIR
70
0
9
$ATTMODE
70
1
9
$AUNITS
70
0
9
$AUPREC
70
0
9
$CECOLOR
62
256
9
$CELTSCALE
40
1
9
$CELTYPE
6
ByLayer
9
$CELWEIGHT
370
18
9
$CLAYER
8
0
9
$CMLJUST
70
0
9
$CMLSCALE
40
1
9
$CMLSTYLE
2
Standard
9
$DIMSTYLE
2
Standard
9
$TEXTSIZE
40
0.2
9
$TEXTSTYLE
7
Standard
9
$LUNITS
70
2
9
$LUPREC
70
4
9
$EXTNAMES
290
1
9
$INSUNITS
70
4
9
$LTSCALE
40
1
9
$LWDISPLAY
290
1
9
$PDMODE
70
0
9
$PDSIZE
40
0
9
$PLINEGEN
70
0
0
ENDSEC
0
SECTION
2
CLASSES
0
CLASS
1
RASTERVARIABLES
2
AcDbRasterVariables
3
ISM
90
0
280
0
281
0
0
ENDSEC
0
SECTION
2
TABLES
0
TABLE
2
VPORT
5
195
100
AcDbSymbolTable
0
VPORT
5
1
100
AcDbSymbolTableRecord
100
AcDbViewportTableRecord
2
*Active
70
0
10
0
20
0
11
1
21
1
12
-1
22
1
13
0
23
0
14
0.5
24
0.5
15
10
25
10
16
0
26
0
36
1
17
0
27
0
37
0
0
ENDTAB
0
TABLE
2
LTYPE
5
196
100
AcDbSymbolTable
0
LTYPE
5
14
100
AcDbSymbolTableRecord
100
AcDbLinetypeTableRecord
70
0
2
ByBlock
3

72
65
73
0
40
0
0
LTYPE
5
15
100
AcDbSymbolTableRecord
100
AcDbLinetypeTableRecord
70
0
2
ByLayer
3

72
65
73
0
40
0
0
LTYPE
5
16
100
AcDbSymbolTableRecord
100
AcDbLinetypeTableRecord
70
0
2
CONTINUOUS
3
Solid line
72
65
73
0
40
0
0
LTYPE
5
6A
100
AcDbSymbolTableRecord
100
AcDbLinetypeTableRecord
70
0
2
CENTER
3
____ _ ____ _ ____ _ ____
72
65
73
4
40
47.5
49
22
74
0
49
-8.5
74
0
49
8.5
74
0
49
-8.5
74
0
0
LTYPE
5
6B
100
AcDbSymbolTableRecord
100
AcDbLinetypeTableRecord
70
0
2
DASHED
3
__ __ __ __ __ __ __ __ __
72
65
73
2
40
25.72
49
12.86
74
0
49
-12.86
74
0
0
ENDTAB
0
TABLE
2
LAYER
5
197
100
AcDbSymbolTable
0
LAYER
5
10
100
AcDbSymbolTableRecord
100
AcDbLayerTableRecord
2
0
70
0
62
7
6
CONTINUOUS
290
1
370
-3
390
0
0
LAYER
5
6D
100
AcDbSymbolTableRecord
100
AcDbLayerTableRecord
2
81
70
0
62
-3
6
CONTINUOUS
290
1
370
-3
390
0
0
LAYER
5
6F
100
AcDbSymbolTableRecord
100
AcDbLayerTableRecord
2
80
70
0
62
-6
6
CONTINUOUS
290
1
370
-3
390
0
0
LAYER
5
74
100
AcDbSymbolTableRecord
100
AcDbLayerTableRecord
2
2
70
0
62
7
6
CONTINUOUS
290
1
370
-3
390
0
0
LAYER
5
78
100
AcDbSymbolTableRecord
100
AcDbLayerTableRecord
2
1
70
0
62
4
6
CONTINUOUS
290
1
370
-3
390
0
0
LAYER
5
8A
100
AcDbSymbolTableRecord
100
AcDbLayerTableRecord
2
4
70
0
62
-2
6
CENTER
290
1
370
-3
390
0
0
LAYER
5
181
100
AcDbSymbolTableRecord
100
AcDbLayerTableRecord
2
SK2
70
0
62
7
6
CONTINUOUS
290
1
370
-3
390
0
0
LAYER
5
182
100
AcDbSymbolTableRecord
100
AcDbLayerTableRecord
2
SK1
70
0
62
4
6
CONTINUOUS
290
1
370
-3
390
0
0
LAYER
5
183
100
AcDbSymbolTableRecord
100
AcDbLayerTableRecord
2
SK4
70
0
62
2
6
CENTER
290
1
370
-3
390
0
0
LAYER
5
184
100
AcDbSymbolTableRecord
100
AcDbLayerTableRecord
2
SK6
70
0
62
5
6
CONTINUOUS
290
1
370
-3
390
0
0
ENDTAB
0
TABLE
2
STYLE
5
198
100
AcDbSymbolTable
0
STYLE
5
11
100
AcDbSymbolTableRecord
100
AcDbTextStyleTableRecord
2
Standard
3
txt
70
0
71
0
40
0
41
1
42
0
50
0
0
STYLE
5
DD
100
AcDbSymbolTableRecord
100
AcDbTextStyleTableRecord
2
iso_b_vert
3
simplex.shx
70
0
71
0
40
0
41
1
42
0
50
0
0
STYLE
5
DE
100
AcDbSymbolTableRecord
100
AcDbTextStyleTableRecord
2
DWGDirectTextStyle
3
simplex
70
0
71
0
40
0
41
1
42
0
50
0
0
ENDTAB
0
TABLE
2
DIMSTYLE
5
199
100
AcDbSymbolTable
100
AcDbDimStyleTable
0
DIMSTYLE
105
27
100
AcDbSymbolTableRecord
100
AcDbDimStyleTableRecord
2
Standard
70
0
3
<>
41
0.18
42
0.0625
44
0.18
140
0.18
147
0.09
73
0
74
0
77
1
271
2
275
0
278
52
280
0
340
11
0
ENDTAB
0
TABLE
2
VIEW
5
19a
100
AcDbSymbolTable
0
ENDTAB
0
TABLE
2
UCS
5
19b
100
AcDbSymbolTable
0
ENDTAB
0
TABLE
2
APPID
5
19c
100
AcDbSymbolTable
0
APPID
5
12
100
AcDbSymbolTableRecord
100
AcDbRegAppTableRecord
2
ACAD
70
0
0
ENDTAB
0
TABLE
2
BLOCK_RECORD
5
19d
100
AcDbSymbolTable
0
BLOCK_RECORD
5
1F
100
AcDbSymbolTableRecord
100
AcDbBlockTableRecord
2
*Model_Space
340
0
70
0
0
BLOCK_RECORD
5
1B
100
AcDbSymbolTableRecord
100
AcDbBlockTableRecord
2
*Paper_Space
340
0
70
0
0
BLOCK_RECORD
5
23
100
AcDbSymbolTableRecord
100
AcDbBlockTableRecord
2
*Paper_Space0
340
0
70
0
0
BLOCK_RECORD
5
E0
100
AcDbSymbolTableRecord
100
AcDbBlockTableRecord
2
DimnDraft3D1
340
0
70
0
0
BLOCK_RECORD
5
EA
100
AcDbSymbolTableRecord
100
AcDbBlockTableRecord
2
DimnDraft3D2
340
0
70
0
0
BLOCK_RECORD
5
F4
100
AcDbSymbolTableRecord
100
AcDbBlockTableRecord
2
DimnDraft3D3
340
0
70
0
0
BLOCK_RECORD
5
FE
100
AcDbSymbolTableRecord
100
AcDbBlockTableRecord
2
DimnDraft3D4
340
0
70
0
0
BLOCK_RECORD
5
108
100
AcDbSymbolTableRecord
100
AcDbBlockTableRecord
2
DimnDraft3D5
340
0
70
0
0
BLOCK_RECORD
5
112
100
AcDbSymbolTableRecord
100
AcDbBlockTableRecord
2
DimnDraft3D6
340
0
70
0
0
BLOCK_RECORD
5
11D
100
AcDbSymbolTableRecord
100
AcDbBlockTableRecord
2
DimnDraft3D7
340
0
70
0
0
ENDTAB
0
ENDSEC
0
SECTION
2
BLOCKS
0
BLOCK
5
20
100
AcDbEntity
8
0
100
AcDbBlockBegin
2
*Model_Space
70
0
10
0
20
0
30
0
3
*Model_Space
0
ENDBLK
5
21
100
AcDbEntity
8
0
100
AcDbBlockEnd
0
BLOCK
5
1C
100
AcDbEntity
8
0
100
AcDbBlockBegin
2
*Paper_Space
70
0
10
0
20
0
30
0
3
*Paper_Space
0
ENDBLK
5
1D
100
AcDbEntity
8
0
100
AcDbBlockEnd
0
BLOCK
5
24
100
AcDbEntity
8
0
100
AcDbBlockBegin
2
*Paper_Space0
70
0
10
0
20
0
30
0
3
*Paper_Space0
0
ENDBLK
5
25
100
AcDbEntity
8
0
100
AcDbBlockEnd
0
BLOCK
5
E7
100
AcDbEntity
8
0
100
AcDbBlockBegin
2
DimnDraft3D1
70
0
10
0
20
0
30
0
3
DimnDraft3D1
0
MTEXT
5
E1
100
AcDbEntity
8
SK2
62
256
6
ByLayer
370
13
48
1
60
0
100
AcDbMText
10
16.871564
20
-11.888398
30
0
210
0
220
0
230
1
1
\W0.7581;45,25
40
3.5
41
0
44
1.084337
50
0
71
7
72
5
7
iso_b_vert
0
LINE
5
E2
100
AcDbEntity
8
SK2
62
256
6
ByLayer
370
13
48
1
60
0
100
AcDbLine
10
0
20
-1.5875
30
0
11
0
21
-14.763398
31
0
39
0
210
0
220
0
230
1
0
LINE
5
E3
100
AcDbEntity
8
SK2
62
256
6
ByLayer
370
13
48
1
60
0
100
AcDbLine
10
45.2544
20
-4.1375
30
0
11
45.2544
21
-14.763398
31
0
39
0
210
0
220
0
230
1
0
LINE
5
E4
100
AcDbEntity
8
SK2
62
256
6
ByLayer
370
13
48
1
60
0
100
AcDbLine
10
0
20
-12.763398
30
0
11
45.2544
21
-12.763398
31
0
39
0
210
0
220
0
230
1
0
SOLID
5
E5
100
AcDbEntity
8
SK2
62
256
6
ByLayer
370
13
48
1
60
0
100
AcDbTrace
10
0
20
-12.763398
30
0
11
3.499998
21
-12.302615
31
0
12
3.500002
22
-13.224182
32
0
13
0
23
-12.763398
33
0
39
0
210
0
220
0
230
1
0
SOLID
5
E6
100
AcDbEntity
8
SK2
62
256
6
ByLayer
370
13
48
1
60
0
100
AcDbTrace
10
45.2544
20
-12.763398
30
0
11
41.754402
21
-13.224182
31
0
12
41.754398
22
-12.302615
32
0
13
45.2544
23
-12.763398
33
0
39
0
210
0
220
0
230
1
0
ENDBLK
5
E8
100
AcDbEntity
8
0
100
AcDbBlockEnd
0
BLOCK
5
F1
100
AcDbEntity
8
0
100
AcDbBlockBegin
2
DimnDraft3D2
70
0
10
0
20
0
30
0
3
DimnDraft3D2
0
MTEXT
5
EB
100
AcDbEntity
8
SK2
62
256
6
ByLayer
370
13
48
1
60
0
100
AcDbMText
10
1.147016
20
-30.817985
30
0
210
0
220
0
230
1
1
\W0.7317;82,00
40
3.5
41
0
44
1.084337
50
0
71
7
72
5
7
iso_b_vert
0
LINE
5
EC
100
AcDbEntity
8
SK2
62
256
6
ByLayer
370
13
48
1
60
0
100
AcDbLine
10
-36
20
-4.5875
30
0
11
-36
21
-33.692985
31
0
39
0
210
0
220
0
230
1
0
LINE
5
ED
100
AcDbEntity
8
SK2
62
256
6
ByLayer
370
13
48
1
60
0
100
AcDbLine
10
46
20
-1.5875
30
0
11
46
21
-33.692985
31
0
39
0
210
0
220
0
230
1
0
LINE
5
EE
100
AcDbEntity
8
SK2
62
256
6
ByLayer
370
13
48
1
60
0
100
AcDbLine
10
-36
20
-31.692985
30
0
11
46
21
-31.692985
31
0
39
0
210
0
220
0
230
1
0
SOLID
5
EF
100
AcDbEntity
8
SK2
62
256
6
ByLayer
370
13
48
1
60
0
100
AcDbTrace
10
-36
20
-31.692985
30
0
11
-32.500002
21
-31.232202
31
0
12
-32.499998
22
-32.153769
32
0
13
-36
23
-31.692985
33
0
39
0
210
0
220
0
230
1
0
SOLID
5
F0
100
AcDbEntity
8
SK2
62
256
6
ByLayer
370
13
48
1
60
0
100
AcDbTrace
10
46
20
-31.692985
30
0
11
42.500002
21
-32.153769
31
0
12
42.499998
22
-31.232202
32
0
13
46
23
-31.692985
33
0
39
0
210
0
220
0
230
1
0
ENDBLK
5
F2
100
AcDbEntity
8
0
100
AcDbBlockEnd
0
BLOCK
5
FB
100
AcDbEntity
8
0
100
AcDbBlockBegin
2
DimnDraft3D3
70
0
10
0
20
0
30
0
3
DimnDraft3D3
0
MTEXT
5
F5
100
AcDbEntity
8
SK2
62
256
6
ByLayer
370
13
48
1
60
0
100
AcDbMText
10
28.247105
20
15.034119
30
0
210
0
220
0
230
1
1
\W0.7495;26,24
40
3.5
41
0
44
1.084337
50
0
71
7
72
5
7
iso_b_vert
0
LINE
5
F6
100
AcDbEntity
8
SK2
62
256
6
ByLayer
370
13
48
1
60
0
100
AcDbLine
10
19.76
20
4.1375
30
0
11
19.76
21
16.159119
31
0
39
0
210
0
220
0
230
1
0
LINE
5
F7
100
AcDbEntity
8
SK2
62
256
6
ByLayer
370
13
48
1
60
0
100
AcDbLine
10
46
20
1.5875
30
0
11
46
21
16.159119
31
0
39
0
210
0
220
0
230
1
0
LINE
5
F8
100
AcDbEntity
8
SK2
62
256
6
ByLayer
370
13
48
1
60
0
100
AcDbLine
10
19.76
20
14.159119
30
0
11
46
21
14.159119
31
0
39
0
210
0
220
0
230
1
0
SOLID
5
F9
100
AcDbEntity
8
SK2
62
256
6
ByLayer
370
13
48
1
60
0
100
AcDbTrace
10
19.76
20
14.159119
30
0
11
23.259998
21
14.619903
31
0
12
23.260002
22
13.698335
32
0
13
19.76
23
14.159119
33
0
39
0
210
0
220
0
230
1
0
SOLID
5
FA
100
AcDbEntity
8
SK2
62
256
6
ByLayer
370
13
48
1
60
0
100
AcDbTrace
10
46
20
14.159119
30
0
11
42.500002
21
13.698335
31
0
12
42.499998
22
14.619903
32
0
13
46
23
14.159119
33
0
39
0
210
0
220
0
230
1
0
ENDBLK
5
FC
100
AcDbEntity
8
0
100
AcDbBlockEnd
0
BLOCK
5
105
100
AcDbEntity
8
0
100
AcDbBlockBegin
2
DimnDraft3D4
70
0
10
0
20
0
30
0
3
DimnDraft3D4
0
MTEXT
5
FF
100
AcDbEntity
8
SK2
62
256
6
ByLayer
370
13
48
1
60
0
100
AcDbMText
10
52.840636
20
-14.477503
30
0
210
0
220
0
230
1
1
\W0.7150;0,75
40
3.5
41
0
44
1.084337
50
0
71
7
72
5
7
iso_b_vert
0
LINE
5
100
100
AcDbEntity
8
SK2
62
256
6
ByLayer
370
13
48
1
60
0
100
AcDbLine
10
46
20
-1.5875
30
0
11
46
21
-17.352503
31
0
39
0
210
0
220
0
230
1
0
LINE
5
101
100
AcDbEntity
8
SK2
62
256
6
ByLayer
370
13
48
1
60
0
100
AcDbLine
10
45.2544
20
-4.1375
30
0
11
45.2544
21
-17.352503
31
0
39
0
210
0
220
0
230
1
0
LINE
5
102
100
AcDbEntity
8
SK2
62
256
6
ByLayer
370
13
48
1
60
0
100
AcDbLine
10
36.5044
20
-15.352503
30
0
11
59.997215
21
-15.352503
31
0
39
0
210
0
220
0
230
1
0
SOLID
5
103
100
AcDbEntity
8
SK2
62
256
6
ByLayer
370
13
48
1
60
0
100
AcDbTrace
10
46
20
-15.352503
30
0
11
49.499998
21
-14.891719
31
0
12
49.500002
22
-15.813287
32
0
13
46
23
-15.352503
33
0
39
0
210
0
220
0
230
1
0
SOLID
5
104
100
AcDbEntity
8
SK2
62
256
6
ByLayer
370
13
48
1
60
0
100
AcDbTrace
10
45.2544
20
-15.352503
30
0
11
41.754402
21
-15.813287
31
0
12
41.754398
22
-14.891719
32
0
13
45.2544
23
-15.352503
33
0
39
0
210
0
220
0
230
1
0
ENDBLK
5
106
100
AcDbEntity
8
0
100
AcDbBlockEnd
0
BLOCK
5
10F
100
AcDbEntity
8
0
100
AcDbBlockBegin
2
DimnDraft3D5
70
0
10
0
20
0
30
0
3
DimnDraft3D5
0
MTEXT
5
109
100
AcDbEntity
8
SK2
62
256
6
ByLayer
370
13
48
1
60
0
100
AcDbMText
10
-1.496108
20
-20.468428
30
0
210
0
220
0
230
1
1
\W0.6713;81,25
40
3.5
41
0
44
1.084337
50
0
71
7
72
5
7
iso_b_vert
0
LINE
5
10A
100
AcDbEntity
8
SK2
62
256
6
ByLayer
370
13
48
1
60
0
100
AcDbLine
10
-36
20
-4.5875
30
0
11
-36
21
-23.343428
31
0
39
0
210
0
220
0
230
1
0
LINE
5
10B
100
AcDbEntity
8
SK2
62
256
6
ByLayer
370
13
48
1
60
0
100
AcDbLine
10
45.2544
20
-4.1375
30
0
11
45.2544
21
-23.343428
31
0
39
0
210
0
220
0
230
1
0
LINE
5
10C
100
AcDbEntity
8
SK2
62
256
6
ByLayer
370
13
48
1
60
0
100
AcDbLine
10
-36
20
-21.343428
30
0
11
45.2544
21
-21.343428
31
0
39
0
210
0
220
0
230
1
0
SOLID
5
10D
100
AcDbEntity
8
SK2
62
256
6
ByLayer
370
13
48
1
60
0
100
AcDbTrace
10
-36
20
-21.343428
30
0
11
-32.500002
21
-20.882645
31
0
12
-32.499998
22
-21.804212
32
0
13
-36
23
-21.343428
33
0
39
0
210
0
220
0
230
1
0
SOLID
5
10E
100
AcDbEntity
8
SK2
62
256
6
ByLayer
370
13
48
1
60
0
100
AcDbTrace
10
45.2544
20
-21.343428
30
0
11
41.754402
21
-21.804212
31
0
12
41.754398
22
-20.882645
32
0
13
45.2544
23
-21.343428
33
0
39
0
210
0
220
0
230
1
0
ENDBLK
5
110
100
AcDbEntity
8
0
100
AcDbBlockEnd
0
BLOCK
5
11A
100
AcDbEntity
8
0
100
AcDbBlockBegin
2
DimnDraft3D6
70
0
10
0
20
0
30
0
3
DimnDraft3D6
0
MTEXT
5
113
100
AcDbEntity
8
SK2
62
256
6
ByLayer
370
13
48
1
60
0
100
AcDbMText
10
-46.375163
20
22.34918
30
0
210
0
220
0
230
1
1
\W0.7317;6,000
40
3.5
41
0
44
1.084337
50
90
71
7
72
5
7
iso_b_vert
0
MTEXT
5
114
100
AcDbEntity
8
SK2
62
256
6
ByLayer
370
13
48
1
60
0
100
AcDbMText
10
-46.375163
20
17.126524
30
0
210
0
220
0
230
1
1
%%c
40
3.5
41
0
44
1.084337
50
90
71
7
72
5
7
iso_b_vert
0
LINE
5
115
100
AcDbEntity
8
SK2
62
256
6
ByLayer
370
13
48
1
60
0
100
AcDbLine
10
-37.5875
20
-3
30
0
11
-46.625163
21
-3
31
0
39
0
210
0
220
0
230
1
0
LINE
5
116
100
AcDbEntity
8
SK2
62
256
6
ByLayer
370
13
48
1
60
0
100
AcDbLine
10
-37.5875
20
3
30
0
11
-46.625163
21
3
31
0
39
0
210
0
220
0
230
1
0
LINE
5
117
100
AcDbEntity
8
SK2
62
256
6
ByLayer
370
13
48
1
60
0
100
AcDbLine
10
-44.625163
20
32.121549
30
0
11
-44.625163
21
-11.75
31
0
39
0
210
0
220
0
230
1
0
SOLID
5
118
100
AcDbEntity
8
SK2
62
256
6
ByLayer
370
13
48
1
60
0
100
AcDbTrace
10
-44.625163
20
-3
30
0
11
-44.164379
21
-6.499998
31
0
12
-45.085946
22
-6.500002
32
0
13
-44.625163
23
-3
33
0
39
0
210
0
220
0
230
1
0
SOLID
5
119
100
AcDbEntity
8
SK2
62
256
6
ByLayer
370
13
48
1
60
0
100
AcDbTrace
10
-44.625163
20
3
30
0
11
-45.085946
21
6.499998
31
0
12
-44.164379
22
6.500002
32
0
13
-44.625163
23
3
33
0
39
0
210
0
220
0
230
1
0
ENDBLK
5
11B
100
AcDbEntity
8
0
100
AcDbBlockEnd
0
BLOCK
5
125
100
AcDbEntity
8
0
100
AcDbBlockBegin
2
DimnDraft3D7
70
0
10
0
20
0
30
0
3
DimnDraft3D7
0
MTEXT
5
11E
100
AcDbEntity
8
2
62
256
6
ByLayer
370
13
48
1
60
0
100
AcDbMText
10
56.333343
20
20.492266
30
0
210
0
220
0
230
1
1
\W0.6713;5,100
40
3.5
41
0
44
1.084337
50
90
71
7
72
5
7
iso_b_vert
0
MTEXT
5
11F
100
AcDbEntity
8
2
62
256
6
ByLayer
370
13
48
1
60
0
100
AcDbMText
10
56.333343
20
15.26961
30
0
210
0
220
0
230
1
1
%%c
40
3.5
41
0
44
1.084337
50
90
71
7
72
5
7
iso_b_vert
0
LINE
5
120
100
AcDbEntity
8
2
62
256
6
ByLayer
370
13
48
1
60
0
100
AcDbLine
10
46.8419
20
-2.55
30
0
11
60.083343
21
-2.55
31
0
39
0
210
0
220
0
230
1
0
LINE
5
121
100
AcDbEntity
8
2
62
256
6
ByLayer
370
13
48
1
60
0
100
AcDbLine
10
46.8419
20
2.55
30
0
11
60.083343
21
2.55
31
0
39
0
210
0
220
0
230
1
0
LINE
5
122
100
AcDbEntity
8
2
62
256
6
ByLayer
370
13
48
1
60
0
100
AcDbLine
10
58.083343
20
29.389635
30
0
11
58.083343
21
-11.3
31
0
39
0
210
0
220
0
230
1
0
SOLID
5
123
100
AcDbEntity
8
2
62
256
6
ByLayer
370
13
48
1
60
0
100
AcDbTrace
10
58.083343
20
-2.55
30
0
11
58.544126
21
-6.049998
31
0
12
57.622559
22
-6.050002
32
0
13
58.083343
23
-2.55
33
0
39
0
210
0
220
0
230
1
0
SOLID
5
124
100
AcDbEntity
8
2
62
256
6
ByLayer
370
13
48
1
60
0
100
AcDbTrace
10
58.083343
20
2.55
30
0
11
57.622559
21
6.049998
31
0
12
58.544126
22
6.050002
32
0
13
58.083343
23
2.55
33
0
39
0
210
0
220
0
230
1
0
ENDBLK
5
126
100
AcDbEntity
8
0
100
AcDbBlockEnd
0
ENDSEC
0
SECTION
2
ENTITIES
0
ELLIPSE
5
94
100
AcDbEntity
8
1
62
256
6
ByLayer
370
18
48
1
60
0
100
AcDbEllipse
10
3.521046
20
2.64823
30
0
11
0.25
21
0
31
0
210
0
220
0
230
1
40
1
41
-2.59238999993145
42
-1.5629912844218
0
ELLIPSE
5
95
100
AcDbEntity
8
1
62
256
6
ByLayer
370
18
48
1
60
0
100
AcDbEllipse
10
3.521046
20
-2.64823
30
0
11
0.25
21
0
31
0
210
0
220
0
230
1
40
1
41
1.56491796335181
42
2.59085518695047
0
ELLIPSE
5
96
100
AcDbEntity
8
1
62
256
6
ByLayer
370
13
48
1
60
0
100
AcDbEllipse
10
3.521311
20
0.243295
30
0
11
0.0430912990372552
21
0.090239348109801
31
0
210
0
220
0
230
1
40
0.043441
41
3.08683935867891
42
-1.65742591957775
0
ELLIPSE
5
97
100
AcDbEntity
8
1
62
256
6
ByLayer
370
13
48
1
60
0
100
AcDbEllipse
10
3.455847
20
0.275643
30
0
11
0.045823253626696
21
0.088883234791852
31
0
210
0
220
0
230
1
40
0.356271
41
1.86132166343782
42
-3.07071926819332
0
POINT
5
6C
100
AcDbEntity
8
81
62
256
6
ByLayer
370
18
48
1
60
0
100
AcDbPoint
10
46
20
0
30
0
39
0
210
0
220
0
230
1
50
360
0
POINT
5
6E
100
AcDbEntity
8
80
62
256
6
ByLayer
370
18
48
1
60
0
100
AcDbPoint
10
0
20
0
30
0
39
0
210
0
220
0
230
1
50
360
0
POINT
5
70
100
AcDbEntity
8
SK2
62
256
6
ByLayer
370
18
48
1
60
1
100
AcDbPoint
10
-36
20
-3
30
0
39
0
210
0
220
0
230
1
50
360
0
POINT
5
72
100
AcDbEntity
8
SK2
62
256
6
ByLayer
370
18
48
1
60
1
100
AcDbPoint
10
-36
20
3
30
0
39
0
210
0
220
0
230
1
50
360
0
POINT
5
73
100
AcDbEntity
8
2
62
256
6
ByLayer
370
18
48
1
60
1
100
AcDbPoint
10
45.2544
20
-2.55
30
0
39
0
210
0
220
0
230
1
50
360
0
POINT
5
75
100
AcDbEntity
8
2
62
256
6
ByLayer
370
18
48
1
60
1
100
AcDbPoint
10
45.2544
20
2.55
30
0
39
0
210
0
220
0
230
1
50
360
0
SPLINE
5
98
100
AcDbEntity
8
1
62
256
6
ByLayer
370
18
48
1
60
0
100
AcDbSpline
70
4
71
3
72
21
73
17
40
0
40
0
40
0
40
0
40
0.0874409122397823
40
0.167714297869153
40
0.241334617867659
40
0.303077080647371
40
0.360706339969741
40
0.430839081815334
40
0.512379843352859
40
0.580341957875852
40
0.62664625782768
40
0.671576666287814
40
0.736808468687111
40
0.822246134135864
40
0.927910055556936
40
1
40
1
40
1
40
1
41
1
10
28.5113549712
20
-2.41212744809891
30
0
41
1
10
28.7369400542228
20
-2.41007845229083
30
0
41
1
10
29.1723531250706
20
-2.40784776642383
30
0
41
1
10
29.8226310511067
20
-2.40869457587163
30
0
41
1
10
30.3821203261792
20
-2.41438173479142
30
0
41
1
10
30.8967054695312
20
-2.41291114902253
30
0
41
1
10
31.4010013342289
20
-2.41414665863883
30
0
41
1
10
31.9583104018151
20
-2.41425649934018
30
0
41
1
10
32.5430692479607
20
-2.41385106156571
30
0
41
1
10
33.0643746327694
20
-2.41529323048596
30
0
41
1
10
33.4882776815335
20
-2.41418971308002
30
0
41
1
10
33.9046816528537
20
-2.41510148018517
30
0
41
1
10
34.4236886501383
20
-2.41588882766541
30
0
41
1
10
35.1047852803563
20
-2.41241655291574
30
0
41
1
10
35.8062270806446
20
-2.4139418392744
30
0
41
1
10
36.2781389968191
20
-2.4156115135329
30
0
41
1
10
36.4694211515696
20
-2.41655073653655
30
0
0
SPLINE
5
99
100
AcDbEntity
8
1
62
256
6
ByLayer
370
18
48
1
60
0
100
AcDbSpline
70
4
71
2
72
6
73
3
40
0
40
0
40
0
40
1
40
1
40
1
41
1
10
3.5227657457929
20
-2.39801120443147
30
0
41
1
10
3.73527053164438
20
-2.39993089936362
30
0
41
1
10
3.94787304740044
20
-2.40019865883059
30
0
0
SPLINE
5
9A
100
AcDbEntity
8
1
62
256
6
ByLayer
370
18
48
1
60
0
100
AcDbSpline
70
4
71
2
72
6
73
3
40
0
40
0
40
0
40
1
40
1
40
1
41
1
10
3.95509500753028
20
-2.40020727785458
30
0
41
1
10
3.96173195653427
20
-2.40021476072792
30
0
41
1
10
3.96836900077858
20
-2.40022063374735
30
0
0
SPLINE
5
9B
100
AcDbEntity
8
1
62
256
6
ByLayer
370
18
48
1
60
0
100
AcDbSpline
70
4
71
3
72
20
73
16
40
0
40
0
40
0
40
0
40
0.0701063352287929
40
0.186764300655583
40
0.284470533721852
40
0.363440246980284
40
0.423466333785532
40
0.466389209028338
40
0.5200501408125
40
0.593898413526528
40
0.693182401924477
40
0.778575991540528
40
0.848745347406959
40
0.923922937641574
40
1
40
1
40
1
40
1
41
1
10
36.4705115329675
20
2.41643635850127
30
0
41
1
10
36.3177286304168
20
2.41564123536168
30
0
41
1
10
35.9104497847503
20
2.41392754253982
30
0
41
1
10
35.2886518494819
20
2.41355538352127
30
0
41
1
10
34.6469432496382
20
2.41398390015269
30
0
41
1
10
34.1317014048502
20
2.4163365056034
30
0
41
1
10
33.7346399778303
20
2.4142735831559
30
0
41
1
10
33.39218363848
20
2.41453098267746
30
0
41
1
10
33.0195110316004
20
2.41521447074771
30
0
41
1
10
32.5235979582324
20
2.41383845924651
30
0
41
1
10
31.9583117794174
20
2.414263189671
30
0
41
1
10
31.4010010578651
20
2.41414531647453
30
0
41
1
10
30.8967055424009
20
2.41291150291303
30
0
41
1
10
30.4118211773962
20
2.41429676432762
30
0
41
1
10
30.0887771704962
20
2.4113680649798
30
0
41
1
10
29.9244567883182
20
2.41023892981099
30
0
0
SPLINE
5
9C
100
AcDbEntity
8
1
62
256
6
ByLayer
370
18
48
1
60
0
100
AcDbSpline
70
4
71
3
72
24
73
20
40
0
40
0
40
0
40
0
40
0.0929991000547474
40
0.178518507689688
40
0.257058578970534
40
0.322972747908797
40
0.37173167297177
40
0.408427453863226
40
0.459083003102108
40
0.518037324971312
40
0.582711861317756
40
0.63771627207359
40
0.68263764907416
40
0.709624376297404
40
0.749749880559695
40
0.805367110755803
40
0.876485624433899
40
0.963048441191349
40
1
40
1
40
1
40
1
41
1
10
12.1573382353091
20
-2.40169523202485
30
0
41
1
10
12.4003792791043
20
-2.40160024604083
30
0
41
1
10
12.8675507913186
20
-2.40163627055608
30
0
41
1
10
13.5438815679332
20
-2.40130855869532
30
0
41
1
10
14.1471964489964
20
-2.40319893940355
30
0
41
1
10
14.6513396694231
20
-2.4042671942494
30
0
41
1
10
15.0492403596897
20
-2.40452338159881
30
0
41
1
10
15.4067966502238
20
-2.4044493130217
30
0
41
1
10
15.791374861275
20
-2.40450055756864
30
0
41
1
10
16.2495012987515
20
-2.40641560461546
30
0
41
1
10
16.7190639858352
20
-2.4049777865161
30
0
41
1
10
17.1517338946307
20
-2.40575449922289
30
0
41
1
10
17.4853311762156
20
-2.40741202719067
30
0
41
1
10
17.779809377877
20
-2.40657747665594
30
0
41
1
10
18.1023803058257
20
-2.40575053237026
30
0
41
1
10
18.5409589253312
20
-2.40730189230609
30
0
41
1
10
19.1016175982826
20
-2.4077446403974
30
0
41
1
10
19.613264250831
20
-2.40723725789084
30
0
41
1
10
19.9379038143828
20
-2.4075855027979
30
0
41
1
10
20.0350237922514
20
-2.40770824760998
30
0
0
SPLINE
5
9D
100
AcDbEntity
8
1
62
256
6
ByLayer
370
18
48
1
60
0
100
AcDbSpline
70
4
71
2
72
6
73
3
40
0
40
0
40
0
40
1
40
1
40
1
41
1
10
3.98573914384087
20
2.40027707653388
30
0
41
1
10
3.75419666288912
20
2.40008702623396
30
0
41
1
10
3.52276574578042
20
2.39801120443141
30
0
0
SPLINE
5
9E
100
AcDbEntity
8
1
62
256
6
ByLayer
370
18
48
1
60
0
100
AcDbSpline
70
4
71
1
72
4
73
2
40
0
40
0
40
1
40
1
41
1
10
44.8173956236551
20
-2.422210525792
30
0
41
1
10
45.121474491224
20
-2.41883996093173
30
0
0
SPLINE
5
9F
100
AcDbEntity
8
1
62
256
6
ByLayer
370
18
48
1
60
0
100
AcDbSpline
70
4
71
3
72
20
73
16
40
0
40
0
40
0
40
0
40
0.0732391544899449
40
0.196734769249476
40
0.291574008636603
40
0.36435641442988
40
0.429738460174085
40
0.488242966522508
40
0.541413789954299
40
0.596437723797033
40
0.714090212019777
40
0.814097901019046
40
0.870092715962776
40
0.956493522167299
40
1
40
1
40
1
40
1
41
1
10
20.0389597665669
20
2.40759171929193
30
0
41
1
10
19.8812908582634
20
2.40726501704165
30
0
41
1
10
19.4577569015098
20
2.40640886512011
30
0
41
1
10
18.8300066734089
20
2.40954795703462
30
0
41
1
10
18.2032699708704
20
2.40514643203312
30
0
41
1
10
17.7016285970555
20
2.40721621910942
30
0
41
1
10
17.2782144995334
20
2.40667624573325
30
0
41
1
10
16.8970247445816
20
2.40507457044603
30
0
41
1
10
16.5381310488247
20
2.40555521208614
30
0
41
1
10
16.051899030228
20
2.40620319839616
30
0
41
1
10
15.4648706234582
20
2.40391567869344
30
0
41
1
10
14.8757149351766
20
2.40484455332728
30
0
41
1
10
14.3539932519185
20
2.40321541359654
30
0
41
1
10
13.9537972635005
20
2.40333493755608
30
0
41
1
10
13.6740973957237
20
2.40309511786836
30
0
41
1
10
13.5804261032857
20
2.40299727313342
30
0
0
SPLINE
5
A0
100
AcDbEntity
8
1
62
256
6
ByLayer
370
18
48
1
60
0
100
AcDbSpline
70
4
71
3
72
32
73
28
40
0
40
0
40
0
40
0
40
0.25000000000001
40
0.25000000000001
40
0.37500000000002
40
0.37500000000002
40
0.50000000000003
40
0.50000000000003
40
0.62500000000004
40
0.62500000000004
40
0.750000000000051
40
0.750000000000051
40
0.812500000000061
40
0.812500000000061
40
0.828125000000063
40
0.828125000000063
40
0.83593750000006
40
0.83593750000006
40
0.843750000000056
40
0.843750000000056
40
0.851562500000052
40
0.851562500000052
40
0.859375000000049
40
0.859375000000049
40
0.875000000000043
40
0.875000000000043
40
1
40
1
40
1
40
1
41
1
10
42.7234020460605
20
0.844940680784049
30
0
41
1
10
42.9210508843557
20
0.692516604911987
30
0
41
1
10
43.125909268686
20
0.560383178691865
30
0
41
1
10
43.4449883294261
20
0.395369161555891
30
0
41
1
10
43.5538280619559
20
0.345939223037789
30
0
41
1
10
43.7708651079867
20
0.261829427428324
30
0
41
1
10
43.8795761843796
20
0.226799175202501
30
0
41
1
10
44.0974074256655
20
0.171662853117368
30
0
41
1
10
44.2065263753954
20
0.151512452228218
30
0
41
1
10
44.425238301277
20
0.12850486883454
30
0
41
1
10
44.5340313261049
20
0.125821233618581
30
0
41
1
10
44.6934289893574
20
0.137569937497887
30
0
41
1
10
44.7460588695384
20
0.144112506856317
30
0
41
1
10
44.8111414626165
20
0.155848696633086
30
0
41
1
10
44.8241067148372
20
0.158371411019601
30
0
41
1
10
44.8434764614892
20
0.162422914476053
30
0
41
1
10
44.8499360542302
20
0.163785185952207
30
0
41
1
10
44.861570867976
20
0.169828751373217
30
0
41
1
10
44.8666460726198
20
0.174586743952204
30
0
41
1
10
44.8728405998539
20
0.187499746699217
30
0
41
1
10
44.8734995567849
20
0.195749048549942
30
0
41
1
10
44.8760402993759
20
0.211151168851615
30
0
41
1
10
44.877264702945
20
0.218873239277713
30
0
41
1
10
44.8808026697764
20
0.242101265904921
30
0
41
1
10
44.8829800236241
20
0.257663117445588
30
0
41
1
10
44.9009975909168
20
0.398272414559585
30
0
41
1
10
44.9058604367672
20
0.527636470310227
30
0
41
1
10
44.9028466792084
20
0.657288480417293
30
0
0
SPLINE
5
A1
100
AcDbEntity
8
1
62
256
6
ByLayer
370
18
48
1
60
0
100
AcDbSpline
70
4
71
3
72
60
73
56
40
0
40
0
40
0
40
0
40
0.0346812654479098
40
0.0346812654479098
40
0.0693625308958196
40
0.0693625308958196
40
0.104043796343729
40
0.104043796343729
40
0.138725061791639
40
0.138725061791639
40
0.173406327239549
40
0.173406327239549
40
0.208087592687459
40
0.208087592687459
40
0.242768858135369
40
0.242768858135369
40
0.277450123583278
40
0.277450123583278
40
0.346812654479097
40
0.346812654479097
40
0.416175185374916
40
0.416175185374916
40
0.450856450822825
40
0.450856450822825
40
0.485537716270734
40
0.485537716270734
40
0.520218981718643
40
0.520218981718643
40
0.554900247166553
40
0.554900247166553
40
0.589581512614462
40
0.589581512614462
40
0.624262778062371
40
0.624262778062371
40
0.658944043510281
40
0.658944043510281
40
0.69362530895819
40
0.69362530895819
40
0.728306574406099
40
0.728306574406099
40
0.762987839854009
40
0.762987839854009
40
0.797669105301918
40
0.797669105301918
40
0.832350370749827
40
0.832350370749827
40
0.867031636197737
40
0.867031636197737
40
0.901712901645646
40
0.901712901645646
40
0.936394167093555
40
0.936394167093555
40
0.971075432541465
40
0.971075432541465
40
1
40
1
40
1
40
1
41
1
10
7.97603240008897
20
1.63524337225101
30
0
41
1
10
8.15872754430131
20
1.57349403951523
30
0
41
1
10
8.3409746653148
20
1.50944197828036
30
0
41
1
10
8.70428831041676
20
1.37596737139373
30
0
41
1
10
8.88532279553814
20
1.30641157888428
30
0
41
1
10
9.24670655794176
20
1.16290003936541
30
0
41
1
10
9.42705960878985
20
1.08901280680195
30
0
41
1
10
9.78785109476732
20
0.938596401380124
30
0
41
1
10
9.96814526972938
20
0.861726063030318
30
0
41
1
10
10.3285136846148
20
0.704378735316084
30
0
41
1
10
10.5085668740799
20
0.623891374097411
30
0
41
1
10
10.8693365073669
20
0.461603008589833
30
0
41
1
10
11.0500639568347
20
0.379826381556512
30
0
41
1
10
11.412045297661
20
0.214279747460267
30
0
41
1
10
11.5933071170068
20
0.130469522130426
30
0
41
1
10
11.9568048132438
20
-0.0378521334842219
30
0
41
1
10
12.1396160226543
20
-0.122178767586547
30
0
41
1
10
12.6866813284226
20
-0.373286992656489
30
0
41
1
10
13.0483016939125
20
-0.539051011686382
30
0
41
1
10
13.770749482028
20
-0.858242026025124
30
0
41
1
10
14.1304603181633
20
-1.01199526341728
30
0
41
1
10
14.6707326253758
20
-1.23136577629225
30
0
41
1
10
14.8510328922405
20
-1.3023820276604
30
0
41
1
10
15.2119212554077
20
-1.43910108873521
30
0
41
1
10
15.3925115108811
20
-1.50513360840242
30
0
41
1
10
15.7544094719119
20
-1.63230939747433
30
0
41
1
10
15.9358337597004
20
-1.6934588016081
30
0
41
1
10
16.2999410882763
20
-1.8090930877425
30
0
41
1
10
16.4828974297149
20
-1.86338256151998
30
0
41
1
10
16.8467635084911
20
-1.96520184490814
30
0
41
1
10
17.0281428616066
20
-2.012702444768
30
0
41
1
10
17.3905855730181
20
-2.1007242586785
30
0
41
1
10
17.5713634071997
20
-2.14041778711479
30
0
41
1
10
17.9321566611766
20
-2.21104142286828
30
0
41
1
10
18.1122035274096
20
-2.24257439089212
30
0
41
1
10
18.4725253422962
20
-2.29835395858402
30
0
41
1
10
18.6528089133257
20
-2.32313245873016
30
0
41
1
10
19.013304287982
20
-2.36165295622425
30
0
41
1
10
19.1935643661467
20
-2.3760588171435
30
0
41
1
10
19.5545921216739
20
-2.39750380665518
30
0
41
1
10
19.7355054237864
20
-2.4044868820701
30
0
41
1
10
20.0982156453189
20
-2.4101817331503
30
0
41
1
10
20.2800297781799
20
-2.40765325817711
30
0
41
1
10
20.6447151183675
20
-2.39385523611824
30
0
41
1
10
20.8273060859374
20
-2.38273492143634
30
0
41
1
10
21.1911139981847
20
-2.35277097643294
30
0
41
1
10
21.3725414165581
20
-2.3337045097123
30
0
41
1
10
21.7342482598474
20
-2.28565654809608
30
0
41
1
10
21.9145715196714
20
-2.25709897696913
30
0
41
1
10
22.2752486758591
20
-2.19354590612252
30
0
41
1
10
22.4555840231896
20
-2.15842557334031
30
0
41
1
10
22.8159318721887
20
-2.07946817386898
30
0
41
1
10
22.9959493454458
20
-2.03549065362626
30
0
41
1
10
23.326347766178
20
-1.94860880855887
30
0
41
1
10
23.4767910719278
20
-1.90714158410572
30
0
41
1
10
23.6274578807625
20
-1.86332546648165
30
0
0
SPLINE
5
A2
100
AcDbEntity
8
1
62
256
6
ByLayer
370
18
48
1
60
0
100
AcDbSpline
70
4
71
3
72
28
73
24
40
0
40
0
40
0
40
0
40
0.0454686934420657
40
0.0454686934420657
40
0.132244266765514
40
0.132244266765514
40
0.219019840088962
40
0.219019840088962
40
0.30579541341241
40
0.30579541341241
40
0.479346560059312
40
0.479346560059312
40
0.56612213338276
40
0.56612213338276
40
0.652897706706208
40
0.652897706706208
40
0.739673280029656
40
0.739673280029656
40
0.826448853353104
40
0.826448853353104
40
0.913224426676552
40
0.913224426676552
40
1
40
1
40
1
40
1
41
1
10
36.4570936775758
20
2.41676266184714
30
0
41
1
10
36.551784014911
20
2.41679355082624
30
0
41
1
10
36.6465486207334
20
2.41561560685008
30
0
41
1
10
36.9224134088898
20
2.40782525904385
30
0
41
1
10
37.1037017522896
20
2.3977576251435
30
0
41
1
10
37.467765665367
20
2.36859625046091
30
0
41
1
10
37.6508857425174
20
2.34945130478076
30
0
41
1
10
38.0151405418163
20
2.30290659901453
30
0
41
1
10
38.1966168219454
20
2.2754618962976
30
0
41
1
10
38.7398823731282
20
2.18197685385951
30
0
41
1
10
39.1012284199651
20
2.1062224998239
30
0
41
1
10
39.6416659148762
20
1.96686785949851
30
0
41
1
10
39.8216825167198
20
1.91650776589745
30
0
41
1
10
40.1823182080298
20
1.80985283182073
30
0
41
1
10
40.3627982687071
20
1.75329591529592
30
0
41
1
10
40.7240796173049
20
1.6331870803985
30
0
41
1
10
40.9048533012322
20
1.56958518107089
30
0
41
1
10
41.2675530353755
20
1.43742098559105
30
0
41
1
10
41.4494899160325
20
1.36900555143677
30
0
41
1
10
41.8143894086442
20
1.226516297264
30
0
41
1
10
41.9971288902701
20
1.15237158622449
30
0
41
1
10
42.3607283926187
20
1.00070440265185
30
0
41
1
10
42.5422152601915
20
0.923511638473798
30
0
41
1
10
42.7234020460606
20
0.844940680784021
30
0
0
SPLINE
5
A3
100
AcDbEntity
8
1
62
256
6
ByLayer
370
18
48
1
60
0
100
AcDbSpline
70
4
71
3
72
12
73
8
40
0
40
0
40
0
40
0
40
0.0864627707650935
40
0.0864627707650935
40
0.499921481037118
40
0.499921481037118
40
1
40
1
40
1
40
1
41
1
10
28.5613993643721
20
-2.41215319489044
30
0
41
1
10
28.4699916710533
20
-2.41215295897126
30
0
41
1
10
28.3785606260646
20
-2.41104002654916
30
0
41
1
10
27.8506651375717
20
-2.39817933406394
30
0
41
1
10
27.4173615418147
20
-2.36223916996551
30
0
41
1
10
26.4623945658141
20
-2.23023355977097
30
0
41
1
10
25.9410871221826
20
-2.12317253737882
30
0
41
1
10
25.4171370522464
20
-1.98540255053484
30
0
0
SPLINE
5
A4
100
AcDbEntity
8
1
62
256
6
ByLayer
370
13
48
1
60
0
100
AcDbSpline
70
4
71
3
72
22
73
18
40
0
40
0
40
0
40
0
40
0.117984999473153
40
0.117984999473153
40
0.267238731132359
40
0.267238731132359
40
0.341865596961962
40
0.341865596961962
40
0.416492462791564
40
0.416492462791564
40
0.714999926109969
40
0.714999926109969
40
0.78962679193957
40
0.78962679193957
40
0.864253657769172
40
0.864253657769172
40
1
40
1
40
1
40
1
41
1
10
25.4171370522723
20
-1.98540255054166
30
0
41
1
10
25.0746962977668
20
-1.89535950837075
30
0
41
1
10
24.7311267176903
20
-1.79219880961966
30
0
41
1
10
23.9477888784648
20
-1.53141261832633
30
0
41
1
10
23.5114486141476
20
-1.36844068306456
30
0
41
1
10
22.8569841298616
20
-1.10499349408943
30
0
41
1
10
22.6387021069507
20
-1.01402604599809
30
0
41
1
10
22.2013239880532
20
-0.826913251126712
30
0
41
1
10
21.9824895365318
20
-0.730865160885003
30
0
41
1
10
20.8940193766572
20
-0.24468386356088
30
0
41
1
10
20.0341671466152
20
0.165458686893516
30
0
41
1
10
18.9497256170482
20
0.653000377946825
30
0
41
1
10
18.7323690801262
20
0.749281928531218
30
0
41
1
10
18.2961390339658
20
0.938111228072074
30
0
41
1
10
18.0768030325025
20
1.03074363055228
30
0
41
1
10
17.4620293659329
20
1.28194095643892
30
0
41
1
10
17.0679099581037
20
1.43329534531938
30
0
41
1
10
16.6745185553808
20
1.57073929033132
30
0
0
SPLINE
5
A5
100
AcDbEntity
8
1
62
256
6
ByLayer
370
13
48
1
60
0
100
AcDbSpline
70
4
71
3
72
8
73
4
40
0
40
0
40
0
40
0
40
1
40
1
40
1
40
1
41
1
10
3.41238134048641
20
0.26582285775936
30
0
41
1
10
3.44673853540095
20
0.254814378873647
30
0
41
1
10
3.48365908745791
20
0.244023614269167
30
0
41
1
10
3.5214885477024
20
0.233622031624776
30
0
0
SPLINE
5
A6
100
AcDbEntity
8
1
62
256
6
ByLayer
370
18
48
1
60
0
100
AcDbSpline
70
4
71
3
72
8
73
4
40
0
40
0
40
0
40
0
40
1
40
1
40
1
40
1
41
1
10
45.1766274363131
20
-2.50910532270475
30
0
41
1
10
45.1729185070446
20
-2.51892390808831
30
0
41
1
10
45.1692062006414
20
-2.52873885584063
30
0
41
1
10
45.1654905144616
20
-2.53855016208371
30
0
0
SPLINE
5
A7
100
AcDbEntity
8
1
62
256
6
ByLayer
370
18
48
1
60
0
100
AcDbSpline
70
4
71
3
72
14
73
10
40
0
40
0
40
0
40
0
40
0.25
40
0.25
40
0.5
40
0.5
40
0.75
40
0.75
40
1
40
1
40
1
40
1
41
1
10
45.1849448862231
20
-2.41890870568133
30
0
41
1
10
45.1882571574189
20
-2.41817262069148
30
0
41
1
10
45.1909048794293
20
-2.41912475179092
30
0
41
1
10
45.1944969895037
20
-2.42540590350248
30
0
41
1
10
45.1953873865641
20
-2.430818154794
30
0
41
1
10
45.1944015137849
20
-2.44707922546886
30
0
41
1
10
45.1924794123699
20
-2.45784732674807
30
0
41
1
10
45.1860483478732
20
-2.48237291350694
30
0
41
1
10
45.1816028525324
20
-2.49593398795199
30
0
41
1
10
45.1766274363129
20
-2.50910532270484
30
0
0
SPLINE
5
A8
100
AcDbEntity
8
1
62
256
6
ByLayer
370
18
48
1
60
0
100
AcDbSpline
70
4
71
3
72
40
73
36
40
0
40
0
40
0
40
0
40
0.0774293421661114
40
0.0774293421661114
40
0.116144013249168
40
0.116144013249168
40
0.154858684332225
40
0.154858684332225
40
0.193573355415282
40
0.193573355415282
40
0.232288026498338
40
0.232288026498338
40
0.309717368664453
40
0.309717368664453
40
0.34843203974751
40
0.34843203974751
40
0.387146710830567
40
0.387146710830567
40
0.46457605299668
40
0.46457605299668
40
0.542005395162794
40
0.542005395162794
40
0.58072006624585
40
0.58072006624585
40
0.619434737328907
40
0.619434737328907
40
0.774293421661134
40
0.774293421661134
40
0.81300809274419
40
0.81300809274419
40
0.851722763827247
40
0.851722763827247
40
0.92915210599336
40
0.92915210599336
40
1
40
1
40
1
40
1
41
1
10
45.1654905144615
20
-2.53855016208371
30
0
41
1
10
44.7285011225631
20
-2.55854442280707
30
0
41
1
10
44.2924904875596
20
-2.55143739229101
30
0
41
1
10
43.6364506588649
20
-2.5007220286198
30
0
41
1
10
43.417136906595
20
-2.47708049549115
30
0
41
1
10
42.9796294886433
20
-2.41693338888521
30
0
41
1
10
42.7612523310517
20
-2.38041539997064
30
0
41
1
10
42.3245807320848
20
-2.29498326715097
30
0
41
1
10
42.1062343100562
20
-2.24611331890094
30
0
41
1
10
41.6688925863469
20
-2.13662538791536
30
0
41
1
10
41.4496023843264
20
-2.07590363911484
30
0
41
1
10
40.7933199886346
20
-1.87823791695107
30
0
41
1
10
40.3571879276509
20
-1.7256094440782
30
0
41
1
10
39.7010946840985
20
-1.47123890382005
30
0
41
1
10
39.4816090995013
20
-1.38204848036045
30
0
41
1
10
39.0448722712529
20
-1.19774533261364
30
0
41
1
10
38.8273721164108
20
-1.10252131992525
30
0
41
1
10
38.1764775653209
20
-0.809639670288846
30
0
41
1
10
37.7445515904813
20
-0.605040243031709
30
0
41
1
10
36.8796831040645
20
-0.187461228701295
30
0
41
1
10
36.4468393590636
20
0.0257245895757592
30
0
41
1
10
35.7930900016737
20
0.344086464008598
30
0
41
1
10
35.5737277264573
20
0.450184388979579
30
0
41
1
10
35.136408621013
20
0.658692703509161
30
0
41
1
10
34.9186644475942
20
0.761048074415044
30
0
41
1
10
33.8328533862855
20
1.26020062186367
30
0
41
1
10
32.9733521219925
20
1.61855620566035
30
0
41
1
10
31.8851481117939
20
1.97100958096624
30
0
41
1
10
31.6665534835672
20
2.03678106775377
30
0
41
1
10
31.2283263080707
20
2.15740624127139
30
0
41
1
10
31.0101982008797
20
2.21187088980847
30
0
41
1
10
30.3577877291462
20
2.35705975678394
30
0
41
1
10
29.9253928172307
20
2.42948575928875
30
0
41
1
10
29.0975150622271
20
2.51904749976745
30
0
41
1
10
28.7019513571283
20
2.54032812342095
30
0
41
1
10
28.3045071482171
20
2.53937896381112
30
0
0
SPLINE
5
A9
100
AcDbEntity
8
1
62
256
6
ByLayer
370
18
48
1
60
0
100
AcDbSpline
70
4
71
3
72
24
73
20
40
0
40
0
40
0
40
0
40
0.228989907382544
40
0.228989907382544
40
0.293240748433998
40
0.293240748433998
40
0.357491589485453
40
0.357491589485453
40
0.485993271588361
40
0.485993271588361
40
0.61449495369127
40
0.61449495369127
40
0.678745794742724
40
0.678745794742724
40
0.742996635794179
40
0.742996635794179
40
0.87149831789709
40
0.87149831789709
40
1
40
1
40
1
40
1
41
1
10
13.5639658063201
20
-2.41287327263274
30
0
41
1
10
12.7926507839753
20
-2.52515385468328
30
0
41
1
10
12.023602829539
20
-2.55747540571613
30
0
41
1
10
11.0229846505877
20
-2.48875571741587
30
0
41
1
10
10.8040466249818
20
-2.46703036877543
30
0
41
1
10
10.3682270456159
20
-2.41099305079817
30
0
41
1
10
10.1510118236497
20
-2.37666024495479
30
0
41
1
10
9.50053983247471
20
-2.25562058324303
30
0
41
1
10
9.06841024856914
20
-2.15088536002636
30
0
41
1
10
8.20217230973449
20
-1.89877151207637
30
0
41
1
10
7.76806236130051
20
-1.75139197820147
30
0
41
1
10
7.11155962833183
20
-1.5030723599169
30
0
41
1
10
6.89180204528401
20
-1.41571198847356
30
0
41
1
10
6.45500662693431
20
-1.23515396631501
30
0
41
1
10
6.23732010513527
20
-1.14171806947923
30
0
41
1
10
5.58550133461415
20
-0.853729949523142
30
0
41
1
10
5.15266462941653
20
-0.65137290553136
30
0
41
1
10
4.2849589619496
20
-0.236981554736303
30
0
41
1
10
3.850080698386
20
-0.0249890308903389
30
0
41
1
10
3.4118847009305
20
0.187087512817015
30
0
0
SPLINE
5
AA
100
AcDbEntity
8
1
62
256
6
ByLayer
370
18
48
1
60
0
100
AcDbSpline
70
4
71
3
72
8
73
4
40
0
40
0
40
0
40
0
40
1
40
1
40
1
40
1
41
1
10
3.41238134048641
20
0.185826450320548
30
0
41
1
10
3.43318528797079
20
0.175079126014765
30
0
41
1
10
3.45538224768279
20
0.164151177960207
30
0
41
1
10
3.47807019300325
20
0.153292904853544
30
0
0
SPLINE
5
AB
100
AcDbEntity
8
1
62
256
6
ByLayer
370
18
48
1
60
0
100
AcDbSpline
70
4
71
3
72
20
73
16
40
0
40
0
40
0
40
0
40
0.019401074611942
40
0.019401074611942
40
0.159486635381663
40
0.159486635381663
40
0.439657756921108
40
0.439657756921108
40
0.579743317690831
40
0.579743317690831
40
0.719828878460554
40
0.719828878460554
40
0.859914439230277
40
0.859914439230277
40
1
40
1
40
1
40
1
41
1
10
3.98290231592708
20
2.40051655162543
30
0
41
1
10
4.0078846000747
20
2.40060729707469
30
0
41
1
10
4.03291349836789
20
2.40055491941419
30
0
41
1
10
4.23902386121853
20
2.39899036590239
30
0
41
1
10
4.42290603953791
20
2.39032888496942
30
0
41
1
10
4.97565554577841
20
2.34666934058549
30
0
41
1
10
5.34511402003324
20
2.29385069478187
30
0
41
1
10
5.90149399138045
20
2.19101020241652
30
0
41
1
10
6.08734147114603
20
2.15259052173462
30
0
41
1
10
6.46029835073472
20
2.0666505524344
30
0
41
1
10
6.64739953728852
20
2.01952930572287
30
0
41
1
10
7.0233095076307
20
1.91931897130661
30
0
41
1
10
7.21212156598696
20
1.86609543692248
30
0
41
1
10
7.59213822704581
20
1.7540952662894
30
0
41
1
10
7.78335108604114
20
1.69535015477842
30
0
41
1
10
7.97603240008894
20
1.63524337225104
30
0
0
SPLINE
5
AC
100
AcDbEntity
8
1
62
256
6
ByLayer
370
18
48
1
60
0
100
AcDbSpline
70
4
71
3
72
8
73
4
40
0
40
0
40
0
40
0
40
1
40
1
40
1
40
1
41
1
10
45.8961276898808
20
0.758185651086677
30
0
41
1
10
45.890936675833
20
0.738096116911436
30
0
41
1
10
45.8855988907434
20
0.718053823369871
30
0
41
1
10
45.8801186779211
20
0.698057798408428
30
0
0
SPLINE
5
AD
100
AcDbEntity
8
1
62
256
6
ByLayer
370
18
48
1
60
0
100
AcDbSpline
70
4
71
3
72
8
73
4
40
0
40
0
40
0
40
0
40
1
40
1
40
1
40
1
41
1
10
3.41188470092956
20
0.18708751281747
30
0
41
1
10
3.39806575193882
20
0.193775558707017
30
0
41
1
10
3.38507460056326
20
0.201616947442346
30
0
41
1
10
3.37287690859742
20
0.210561076696877
30
0
0
SPLINE
5
AE
100
AcDbEntity
8
1
62
256
6
ByLayer
370
18
48
1
60
0
100
AcDbSpline
70
4
71
3
72
10
73
6
40
0
40
0
40
0
40
0
40
0.5
40
0.5
40
1
40
1
40
1
40
1
41
1
10
45.9932998455157
20
0.0866183831171554
30
0
41
1
10
45.9933550216302
20
0.0789722573270808
30
0
41
1
10
45.9940184521601
20
0.0704086495624665
30
0
41
1
10
45.9962463511087
20
0.052106842934279
30
0
41
1
10
45.9978401056136
20
0.0422400127056051
30
0
41
1
10
45.9997935192016
20
0.0321778630152494
30
0
0
SPLINE
5
AF
100
AcDbEntity
8
1
62
256
6
ByLayer
370
18
48
1
60
0
100
AcDbSpline
70
4
71
3
72
26
73
22
40
0
40
0
40
0
40
0
40
0.0386220820618736
40
0.0386220820618736
40
0.198545210440576
40
0.198545210440576
40
0.278506774629927
40
0.278506774629927
40
0.358468338819277
40
0.358468338819277
40
0.678314595576677
40
0.678314595576677
40
0.758276159766026
40
0.758276159766026
40
0.838237723955374
40
0.838237723955374
40
0.918199288144722
40
0.918199288144722
40
0.998160852334071
40
0.998160852334071
40
1
40
1
40
1
40
1
41
1
10
16.2124614200903
20
1.71724874836903
30
0
41
1
10
16.3168875696461
20
1.68076786378219
30
0
41
1
10
16.4213283732893
20
1.64324970451651
30
0
41
1
10
16.9584991841039
20
1.44534340712229
30
0
41
1
10
17.3918536966998
20
1.2686697902744
30
0
41
1
10
18.0469974738923
20
0.984640800993532
30
0
41
1
10
18.2666825589337
20
0.886483428879757
30
0
41
1
10
18.7033286584091
20
0.686980052522244
30
0
41
1
10
18.9208618687953
20
0.585580388263679
30
0
41
1
10
20.0060885434974
20
0.0735611478826002
30
0
41
1
10
20.8660452866922
20
-0.353009960196147
30
0
41
1
10
21.955887708298
20
-0.853769283066669
30
0
41
1
10
22.1750904162304
20
-0.952498247868334
30
0
41
1
10
22.6130036945712
20
-1.14420451710828
30
0
41
1
10
22.831544448095
20
-1.23708665710745
30
0
41
1
10
23.2683787731375
20
-1.4158226610264
30
0
41
1
10
23.4866917593632
20
-1.50165976026719
30
0
41
1
10
23.9237884518614
20
-1.6651069287866
30
0
41
1
10
24.1428203364389
20
-1.74283914287599
30
0
41
1
10
24.3668569326233
20
-1.8174003306226
30
0
41
1
10
24.3718934966965
20
-1.81907397123339
30
0
41
1
10
24.376929552876
20
-1.82074486965092
30
0
0
SPLINE
5
B0
100
AcDbEntity
8
1
62
256
6
ByLayer
370
13
48
1
60
0
100
AcDbSpline
70
4
71
3
72
16
73
12
40
0
40
0
40
0
40
0
40
0.481011098661082
40
0.481011098661082
40
0.722907576704082
40
0.722907576704082
40
0.843855815725583
40
0.843855815725583
40
0.964804054747082
40
0.964804054747082
40
1
40
1
40
1
40
1
41
1
10
24.3769295528456
20
-1.82074486964083
30
0
41
1
10
25.2477142628216
20
-2.10965999331341
30
0
41
1
10
26.1033140259756
20
-2.31658934071333
30
0
41
1
10
27.3958481397437
20
-2.47850325924853
30
0
41
1
10
27.8295293972731
20
-2.50760922030847
30
0
41
1
10
28.4854485670388
20
-2.51148071285945
30
0
41
1
10
28.7047181955503
20
-2.50610095560487
30
0
41
1
10
29.1404458779764
20
-2.48220184284352
30
0
41
1
10
29.3575425347835
20
-2.46372672959509
30
0
41
1
10
29.6372469559481
20
-2.43177838325485
30
0
41
1
10
29.7002572558459
20
-2.42404098711219
30
0
41
1
10
29.7632382283956
20
-2.41577449649682
30
0
0
SPLINE
5
B1
100
AcDbEntity
8
1
62
256
6
ByLayer
370
18
48
1
60
0
100
AcDbSpline
70
4
71
3
72
52
73
48
40
0
40
0
40
0
40
0
40
0.062500000000017
40
0.062500000000017
40
0.125000000000034
40
0.125000000000034
40
0.156250000000043
40
0.156250000000043
40
0.187500000000053
40
0.187500000000053
40
0.218750000000062
40
0.218750000000062
40
0.234375000000067
40
0.234375000000067
40
0.250000000000072
40
0.250000000000072
40
0.265625000000077
40
0.265625000000077
40
0.281250000000082
40
0.281250000000082
40
0.296875000000086
40
0.296875000000086
40
0.312500000000091
40
0.312500000000091
40
0.343750000000101
40
0.343750000000101
40
0.375000000000111
40
0.375000000000111
40
0.382812500000114
40
0.382812500000114
40
0.386718750000115
40
0.386718750000115
40
0.390625000000115
40
0.390625000000115
40
0.398437500000114
40
0.398437500000114
40
0.406250000000112
40
0.406250000000112
40
0.437500000000106
40
0.437500000000106
40
0.500000000000094
40
0.500000000000094
40
0.625000000000071
40
0.625000000000071
40
0.750000000000047
40
0.750000000000047
40
1
40
1
40
1
40
1
41
1
10
3.30424029488887
20
-2.49989019400627
30
0
41
1
10
3.15350141187216
20
-2.48636895947246
30
0
41
1
10
3.00455161801722
20
-2.46671302852423
30
0
41
1
10
2.71680145901016
20
-2.41103253069846
30
0
41
1
10
2.57674626478712
20
-2.37492277078792
30
0
41
1
10
2.38428938847954
20
-2.30227172831309
30
0
41
1
10
2.32297866525622
20
-2.27492271505085
30
0
41
1
10
2.20902215138039
20
-2.21125158615828
30
0
41
1
10
2.15591452181331
20
-2.17456338583006
30
0
41
1
10
2.06827792247862
20
-2.09000755072105
30
0
41
1
10
2.03315811217755
20
-2.04123031180995
30
0
41
1
10
2.00547123748666
20
-1.96004576427831
30
0
41
1
10
2.00025738785257
20
-1.93136656640334
30
0
41
1
10
1.99976121277337
20
-1.87142460883192
30
0
41
1
10
2.00445092669128
20
-1.84112736043397
30
0
41
1
10
2.02337462205173
20
-1.78004148911381
30
0
41
1
10
2.03786605551841
20
-1.74887571092719
30
0
41
1
10
2.07478848799883
20
-1.68826120594241
30
0
41
1
10
2.09699873198295
20
-1.65890836144419
30
0
41
1
10
2.14741886971271
20
-1.60181952104165
30
0
41
1
10
2.17585905713719
20
-1.57391398152947
30
0
41
1
10
2.23627726104274
20
-1.52080371025235
30
0
41
1
10
2.26830565818287
20
-1.49547497138678
30
0
41
1
10
2.36859990807665
20
-1.42240506306885
30
0
41
1
10
2.44128216501241
20
-1.3773955229438
30
0
41
1
10
2.59287716998884
20
-1.29358169816527
30
0
41
1
10
2.67144363561954
20
-1.25497977988266
30
0
41
1
10
2.77210272195379
20
-1.20978123493307
30
0
41
1
10
2.79235946847692
20
-1.20089618329976
30
0
41
1
10
2.82287388897487
20
-1.18780573659998
30
0
41
1
10
2.83303628994173
20
-1.18341755185443
30
0
41
1
10
2.85354205909408
20
-1.17498015172879
30
0
41
1
10
2.8645132722273
20
-1.17178848636246
30
0
41
1
10
2.89821867436206
20
-1.16657749761626
30
0
41
1
10
2.92070832745827
20
-1.16798382818601
30
0
41
1
10
2.96568674530101
20
-1.17057429854688
30
0
41
1
10
2.98817724855232
20
-1.17191957249483
30
0
41
1
10
3.1005989333234
20
-1.17889234931658
30
0
41
1
10
3.19045973185172
20
-1.18526031917648
30
0
41
1
10
3.45981585302059
20
-1.20666629813664
30
0
41
1
10
3.63906895493199
20
-1.22401082757656
30
0
41
1
10
4.17478568659601
20
-1.28448228625223
30
0
41
1
10
4.5296012269452
20
-1.33611635307773
30
0
41
1
10
5.23494890503031
20
-1.45718885663362
30
0
41
1
10
5.58573637468925
20
-1.52661582613951
30
0
41
1
10
6.62560736989926
20
-1.74931998155557
30
0
41
1
10
7.30437666788021
20
-1.91725074028551
30
0
41
1
10
7.97603240008897
20
-2.0683231249557
30
0
0
SPLINE
5
B2
100
AcDbEntity
8
1
62
256
6
ByLayer
370
18
48
1
60
0
100
AcDbSpline
70
4
71
3
72
16
73
12
40
0
40
0
40
0
40
0
40
0.250000000000004
40
0.250000000000004
40
0.375000000000004
40
0.375000000000004
40
0.500000000000003
40
0.500000000000003
40
0.750000000000002
40
0.750000000000002
40
1
40
1
40
1
40
1
41
1
10
44.7403047455191
20
-1.8078472118882
30
0
41
1
10
44.7727009812124
20
-1.9141566898324
30
0
41
1
10
44.8070157901925
20
-2.00697344114093
30
0
41
1
10
44.860738478672
20
-2.12687828930237
30
0
41
1
10
44.8790288584545
20
-2.16360117683871
30
0
41
1
10
44.9163530130872
20
-2.23041298271062
30
0
41
1
10
44.9353504568498
20
-2.26038569096039
30
0
41
1
10
44.9922354020654
20
-2.33849037929582
30
0
41
1
10
45.030393500221
20
-2.37565074611436
30
0
41
1
10
45.1074239799709
20
-2.42027404071541
30
0
41
1
10
45.1463988692061
20
-2.42747477496366
30
0
41
1
10
45.1849448862231
20
-2.41890870568133
30
0
0
SPLINE
5
B3
100
AcDbEntity
8
1
62
256
6
ByLayer
370
18
48
1
60
0
100
AcDbSpline
70
4
71
3
72
14
73
10
40
0
40
0
40
0
40
0
40
0.25
40
0.25
40
0.5
40
0.5
40
0.75
40
0.75
40
1
40
1
40
1
40
1
41
1
10
3.52278017674269
20
-2.38096256820003
30
0
41
1
10
3.50325482629364
20
-2.3792975347225
30
0
41
1
10
3.4832495204808
20
-2.37990603484326
30
0
41
1
10
3.44193197559491
20
-2.3872227836012
30
0
41
1
10
3.42111369394263
20
-2.39392211918991
30
0
41
1
10
3.38081543706286
20
-2.41459585988696
30
0
41
1
10
3.36215275145963
20
-2.42815573162295
30
0
41
1
10
3.32896833105608
20
-2.46120512384246
30
0
41
1
10
3.31518608589488
20
-2.47996611703078
30
0
41
1
10
3.30424029488941
20
-2.49989019400513
30
0
0
SPLINE
5
B4
100
AcDbEntity
8
1
62
256
6
ByLayer
370
18
48
1
60
0
100
AcDbSpline
70
4
71
3
72
10
73
6
40
0
40
0
40
0
40
0
40
0.5
40
0.5
40
1
40
1
40
1
40
1
41
1
10
45.9997935192017
20
0.0321778630151925
30
0
41
1
10
45.9976430357827
20
0.0224973926355005
30
0
41
1
10
45.9946381384359
20
0.0122246150487513
30
0
41
1
10
45.9873098900495
20
-0.0070506490307878
30
0
41
1
10
45.9829342574654
20
-0.0161573360831255
30
0
41
1
10
45.9783988031139
20
-0.0235617766323912
30
0
0
SPLINE
5
B5
100
AcDbEntity
8
1
62
256
6
ByLayer
370
18
48
1
60
0
100
AcDbSpline
70
4
71
3
72
8
73
4
40
0
40
0
40
0
40
0
40
1
40
1
40
1
40
1
41
1
10
45.9932998455154
20
-0.086618383117667
30
0
41
1
10
45.9934098140996
20
-0.0713792957899102
30
0
41
1
10
45.9958909549869
20
-0.0522802036290386
30
0
41
1
10
45.9997935192001
20
-0.0321778630222127
30
0
0
SPLINE
5
B6
100
AcDbEntity
8
1
62
256
6
ByLayer
370
18
48
1
60
0
100
AcDbSpline
70
4
71
3
72
8
73
4
40
0
40
0
40
0
40
0
40
1
40
1
40
1
40
1
41
1
10
45.2710939382904
20
2.45692374027533
30
0
41
1
10
45.2365647470258
20
2.49693688415485
30
0
41
1
10
45.2015175058361
20
2.52429745254429
30
0
41
1
10
45.1654905144615
20
2.53855016208371
30
0
0
SPLINE
5
B7
100
AcDbEntity
8
1
62
256
6
ByLayer
370
18
48
1
60
0
100
AcDbSpline
70
4
71
3
72
10
73
6
40
0
40
0
40
0
40
0
40
0.5
40
0.5
40
1
40
1
40
1
40
1
41
1
10
3.37287690859245
20
0.210561076700486
30
0
41
1
10
3.35286569857016
20
0.225234578006251
30
0
41
1
10
3.33585945447683
20
0.243387210465784
30
0
41
1
10
3.31102382406758
20
0.285804100823896
30
0
41
1
10
3.30337135372139
20
0.309871271988754
30
0
41
1
10
3.30338124146357
20
0.334603660610242
30
0
0
SPLINE
5
B8
100
AcDbEntity
8
1
62
256
6
ByLayer
370
18
48
1
60
0
100
AcDbSpline
70
4
71
3
72
16
73
12
40
0
40
0
40
0
40
0
40
0.228024184981871
40
0.228024184981871
40
0.342036277472806
40
0.342036277472806
40
0.45604836996374
40
0.45604836996374
40
0.912096739927482
40
0.912096739927482
40
1
40
1
40
1
40
1
41
1
10
3.47807019300325
20
0.153292904853544
30
0
41
1
10
3.916158904094
20
-0.0563729244128695
30
0
41
1
10
4.35223664399737
20
-0.266412049731684
30
0
41
1
10
5.00689945743548
20
-0.574722634487841
30
0
41
1
10
5.22521546867583
20
-0.676358541605794
30
0
41
1
10
5.66270789591036
20
-0.875967656359961
30
0
41
1
10
5.88241898090692
20
-0.974117711613502
30
0
41
1
10
6.97563308450441
20
-1.44814527521302
30
0
41
1
10
7.83641891045136
20
-1.77589457310418
30
0
41
1
10
8.87052689951307
20
-2.0681356129397
30
0
41
1
10
9.03787174712477
20
-2.11230294878408
30
0
41
1
10
9.20558672424778
20
-2.15321526698767
30
0
0
SPLINE
5
B9
100
AcDbEntity
8
1
62
256
6
ByLayer
370
13
48
1
60
0
100
AcDbSpline
70
4
71
3
72
14
73
10
40
0
40
0
40
0
40
0
40
0.0358595752886618
40
0.0358595752886618
40
0.19245156522978
40
0.19245156522978
40
0.505635545112012
40
0.505635545112012
40
1
40
1
40
1
40
1
41
1
10
9.20558704623778
20
-2.15321534553374
30
0
41
1
10
9.25540127162444
20
-2.16536700462675
30
0
41
1
10
9.30524814954458
20
-2.17723150868909
30
0
41
1
10
9.57296163034536
20
-2.23933741390349
30
0
41
1
10
9.79182679465615
20
-2.28435585798411
30
0
41
1
10
10.4492676860799
20
-2.40094036821887
30
0
41
1
10
10.8837315296699
20
-2.45326140813003
30
0
41
1
10
12.0005899821718
20
-2.52137695688276
30
0
41
1
10
12.6809924916266
20
-2.4983173928465
30
0
41
1
10
13.3679712262888
20
-2.41143821005448
30
0
0
SPLINE
5
BA
100
AcDbEntity
8
1
62
256
6
ByLayer
370
18
48
1
60
0
100
AcDbSpline
70
4
71
3
72
26
73
22
40
0
40
0
40
0
40
0
40
0.0156442473237165
40
0.0156442473237165
40
0.0674524448329928
40
0.0674524448329928
40
0.171068839851547
40
0.171068839851547
40
0.274685234870102
40
0.274685234870102
40
0.326493432379379
40
0.326493432379379
40
0.378301629888656
40
0.378301629888656
40
0.585534419925771
40
0.585534419925771
40
0.689150814944329
40
0.689150814944329
40
0.792767209962886
40
0.792767209962886
40
1
40
1
40
1
40
1
41
1
10
32.6308462718577
20
1.70038292364308
30
0
41
1
10
32.6969105342201
20
1.67692796718734
30
0
41
1
10
32.7629337175347
20
1.65307544873755
30
0
41
1
10
33.0471098009563
20
1.54868849500758
30
0
41
1
10
33.2645159990839
20
1.46450154547645
30
0
41
1
10
33.9151218659438
20
1.20177944693657
30
0
41
1
10
34.3468007672065
20
1.01318806904982
30
0
41
1
10
35.2107501798761
20
0.61847362290132
30
0
41
1
10
35.6431408528277
20
0.412587895611523
30
0
41
1
10
36.2958586198364
20
0.097964265261993
30
0
41
1
10
36.5146418571218
20
-0.0080325001251822
30
0
41
1
10
36.9521489337774
20
-0.219248259222695
30
0
41
1
10
37.1698474609304
20
-0.324011203504227
30
0
41
1
10
38.2546407588655
20
-0.840601345736616
30
0
41
1
10
39.1104573725335
20
-1.23076879594379
30
0
41
1
10
40.4059852337816
20
-1.72322035375922
30
0
41
1
10
40.8401701787823
20
-1.87223121304382
30
0
41
1
10
41.7158672749234
20
-2.12997921564823
30
0
41
1
10
42.1496122893544
20
-2.23638010044456
30
0
41
1
10
43.4460983783624
20
-2.48271096639061
30
0
41
1
10
44.3049407839368
20
-2.54962295488269
30
0
41
1
10
45.1766274363129
20
-2.50910532270478
30
0
0
SPLINE
5
BB
100
AcDbEntity
8
1
62
256
6
ByLayer
370
18
48
1
60
0
100
AcDbSpline
70
4
71
3
72
27
73
23
40
0
40
0
40
0
40
0
40
0.0684020157712694
40
0.0684020157712694
40
0.136804031542539
40
0.136804031542539
40
0.273608063085078
40
0.273608063085078
40
0.410412094627616
40
0.410412094627616
40
0.547216126170155
40
0.547216126170155
40
0.615618141941425
40
0.615618141941425
40
0.684020157712695
40
0.752422173483964
40
0.752422173483964
40
0.820824189255234
40
0.820824189255234
40
0.957628220797773
40
0.957628220797773
40
1
40
1
40
1
40
1
41
1
10
3.30338124146363
20
0.33460366061027
30
0
41
1
10
3.30341423627993
20
0.417134192311664
30
0
41
1
10
3.303446145382
20
0.498908675493766
30
0
41
1
10
3.30350809231967
20
0.660946582309521
30
0
41
1
10
3.30353823208424
20
0.741496451381124
30
0
41
1
10
3.30362487237573
20
0.976993295206796
30
0
41
1
10
3.30367802456632
20
1.1268365203704
30
0
41
1
10
3.30377784604016
20
1.41241589244442
30
0
41
1
10
3.30382479265125
20
1.54897259912062
30
0
41
1
10
3.30391053336848
20
1.79627896057531
30
0
41
1
10
3.30394983892219
20
1.90850082328504
30
0
41
1
10
3.30400467435015
20
2.05935805063268
30
0
41
1
10
3.30402227324888
20
2.10674340432382
30
0
41
1
10
3.30405542936541
20
2.19352512996292
30
0
41
1
10
3.30408675355255
20
2.27290668380729
30
0
41
1
10
3.30411461825071
20
2.33774315267161
30
0
41
1
10
3.30414073769148
20
2.3952230179477
30
0
41
1
10
3.30415297452191
20
2.4203762618302
30
0
41
1
10
3.3041865070683
20
2.48368908955013
30
0
41
1
10
3.304204448311
20
2.50945724536683
30
0
41
1
10
3.30422151653653
20
2.52233013183346
30
0
41
1
10
3.30422507618229
20
2.52383410829089
30
0
41
1
10
3.30422812131886
20
2.5237705728664
30
0
0
SPLINE
5
BC
100
AcDbEntity
8
1
62
256
6
ByLayer
370
18
48
1
60
0
100
AcDbSpline
70
4
71
3
72
8
73
4
40
0
40
0
40
0
40
0
40
1
40
1
40
1
40
1
41
1
10
45.9821657890765
20
0.301582063676079
30
0
41
1
10
45.9889002894791
20
0.229755908532667
30
0
41
1
10
45.9927840794483
20
0.158091560714951
30
0
41
1
10
45.9932998455157
20
0.0866183831171554
30
0
0
SPLINE
5
BD
100
AcDbEntity
8
1
62
256
6
ByLayer
370
18
48
1
60
0
100
AcDbSpline
70
4
71
3
72
18
73
14
40
0
40
0
40
0
40
0
40
0.0831297445308379
40
0.0831297445308379
40
0.235941453775699
40
0.235941453775699
40
0.38875316302056
40
0.38875316302056
40
0.694376581510282
40
0.694376581510282
40
0.847188290755141
40
0.847188290755141
40
1
40
1
40
1
40
1
41
1
10
7.14198990497152
20
-1.88519986285007
30
0
41
1
10
7.03871170731691
20
-1.91437549711239
30
0
41
1
10
6.93560802161139
20
-1.94271358951201
30
0
41
1
10
6.64332762494757
20
-2.02058647298014
30
0
41
1
10
6.45470174943156
20
-2.06803262781437
30
0
41
1
10
6.07998378356976
20
-2.154190235855
30
0
41
1
10
5.89370660387112
20
-2.19255402025584
30
0
41
1
10
5.33714790538005
20
-2.29510755134726
30
0
41
1
10
4.96900422918191
20
-2.34733723087931
30
0
41
1
10
4.42112365670437
20
-2.39039740316244
30
0
41
1
10
4.23922792713938
20
-2.39897942541577
30
0
41
1
10
3.87744628282837
20
-2.40174442147972
30
0
41
1
10
3.69803182790423
20
-2.395907235473
30
0
41
1
10
3.52278017720266
20
-2.38096256823926
30
0
0
SPLINE
5
BE
100
AcDbEntity
8
1
62
256
6
ByLayer
370
18
48
1
60
0
100
AcDbSpline
70
4
71
3
72
8
73
4
40
0
40
0
40
0
40
0
40
1
40
1
40
1
40
1
41
1
10
7.16175224075974
20
1.88023753801636
30
0
41
1
10
7.43464883322267
20
1.94408441240859
30
0
41
1
10
7.70591587933396
20
2.00756707840924
30
0
41
1
10
7.976032400089
20
2.06832312495572
30
0
0
SPLINE
5
BF
100
AcDbEntity
8
1
62
256
6
ByLayer
370
18
48
1
60
0
100
AcDbSpline
70
4
71
3
72
12
73
8
40
0
40
0
40
0
40
0
40
0.250000000000072
40
0.250000000000072
40
0.500000000000145
40
0.500000000000145
40
1
40
1
40
1
40
1
41
1
10
44.9028466792084
20
0.657288480417265
30
0
41
1
10
44.9026142302351
20
0.667288447582877
30
0
41
1
10
44.9051510584684
20
0.677325196827979
30
0
41
1
10
44.9157682981011
20
0.694621843077186
30
0
41
1
10
44.923822242185
20
0.701826263427705
30
0
41
1
10
44.9507755971261
20
0.717313001461719
30
0
41
1
10
44.9720786679735
20
0.720529038886099
30
0
41
1
10
44.9928116823027
20
0.719951355047243
30
0
0
SPLINE
5
C0
100
AcDbEntity
8
1
62
256
6
ByLayer
370
18
48
1
60
0
100
AcDbSpline
70
4
71
3
72
10
73
6
40
0
40
0
40
0
40
0
40
0.667891175127129
40
0.667891175127129
40
1
40
1
40
1
40
1
41
1
10
45.184944886223
20
-2.41890870568133
30
0
41
1
10
44.3140857478836
20
-2.44054918689497
30
0
41
1
10
43.4552803449936
20
-2.35912787015337
30
0
41
1
10
42.1614568895935
20
-2.09974963819968
30
0
41
1
10
41.730265886211
20
-1.99091806434239
30
0
41
1
10
41.295311412091
20
-1.86144750913311
30
0
0
SPLINE
5
C1
100
AcDbEntity
8
1
62
256
6
ByLayer
370
13
48
1
60
0
100
AcDbSpline
70
4
71
3
72
22
73
18
40
0
40
0
40
0
40
0
40
0.0008708184234497
40
0.0008708184234497
40
0.159198866390074
40
0.159198866390074
40
0.475854962323323
40
0.475854962323323
40
0.555018986306634
40
0.555018986306634
40
0.634183010289945
40
0.634183010289945
40
0.792511058256572
40
0.792511058256572
40
0.950839106223198
40
0.950839106223198
40
1
40
1
40
1
40
1
41
1
10
41.2953112859944
20
-1.86144747159864
30
0
41
1
10
41.2929057666813
20
-1.86073143360238
30
0
41
1
10
41.2905001322567
20
-1.86001476433148
30
0
41
1
10
40.8506924185143
20
-1.72888136681789
30
0
41
1
10
40.4174240831274
20
-1.58004826937417
30
0
41
1
10
39.1228617559976
20
-1.09203251861646
30
0
41
1
10
38.2669301831219
20
-0.710464164794786
30
0
41
1
10
37.1827643059168
20
-0.21112913561916
30
0
41
1
10
36.9652258528822
20
-0.110140722738635
30
0
41
1
10
36.5281249720038
20
0.0928339087035113
30
0
41
1
10
36.3098066984657
20
0.19423687881158
30
0
41
1
10
35.6579017513938
20
0.494854766829661
30
0
41
1
10
35.225831304715
20
0.690676411126816
30
0
41
1
10
34.3623790208457
20
1.06409047835055
30
0
41
1
10
33.9308583453419
20
1.24140086561189
30
0
41
1
10
33.3627834063372
20
1.4556949478436
30
0
41
1
10
33.2279921841908
20
1.50513649323236
30
0
41
1
10
33.0929288825042
20
1.55309317348582
30
0
0
SPLINE
5
C2
100
AcDbEntity
8
1
62
256
6
ByLayer
370
18
48
1
60
0
100
AcDbSpline
70
4
71
3
72
16
73
12
40
0
40
0
40
0
40
0
40
0.245691191371465
40
0.245691191371465
40
0.620223850064098
40
0.620223850064098
40
0.807490179410415
40
0.807490179410415
40
0.994756508756731
40
0.994756508756731
40
1
40
1
40
1
40
1
41
1
10
12.2031739529265
20
-2.40166920227543
30
0
41
1
10
11.9196266946026
20
-2.40150790779558
30
0
41
1
10
11.6362022039494
20
-2.39067766781227
30
0
41
1
10
10.9193719431745
20
-2.3363581596262
30
0
41
1
10
10.4852341450899
20
-2.2788063180646
30
0
41
1
10
9.82866772749978
20
-2.15648265391474
30
0
41
1
10
9.61012819547426
20
-2.10991048825679
30
0
41
1
10
9.17492918221222
20
-2.00643537304737
30
0
41
1
10
8.95798017466771
20
-1.94947394031706
30
0
41
1
10
8.73532601257182
20
-1.88597469308161
30
0
41
1
10
8.72926174572848
20
-1.88424134791325
30
0
41
1
10
8.72319775417179
20
-1.8825042307771
30
0
0
SPLINE
5
C3
100
AcDbEntity
8
1
62
256
6
ByLayer
370
13
48
1
60
0
100
AcDbSpline
70
4
71
3
72
14
73
10
40
0
40
0
40
0
40
0
40
0.498243842062555
40
0.498243842062555
40
0.623682881546916
40
0.623682881546916
40
0.749121921031276
40
0.749121921031276
40
1
40
1
40
1
40
1
41
1
10
8.72319775427425
20
-1.88250423080649
30
0
41
1
10
7.86298285844811
20
-1.63608336720333
30
0
41
1
10
7.00830760655919
20
-1.31375849391449
30
0
41
1
10
5.92252689190656
20
-0.853873067866232
30
0
41
1
10
5.70314251900564
20
-0.758444481878087
30
0
41
1
10
5.26623971879434
20
-0.564769637856102
30
0
41
1
10
5.04820176772293
20
-0.466389959788444
30
0
41
1
10
4.39438082115623
20
-0.168673836022009
30
0
41
1
10
3.95888006647689
20
0.0332166512789911
30
0
41
1
10
3.5214885477024
20
0.233622031624776
30
0
0
SPLINE
5
C4
100
AcDbEntity
8
1
62
256
6
ByLayer
370
18
48
1
60
0
100
AcDbSpline
70
4
71
3
72
8
73
4
40
0
40
0
40
0
40
0
40
1
40
1
40
1
40
1
41
1
10
45.1654905144617
20
2.53855016208371
30
0
41
1
10
45.000848208449
20
2.54608329962332
30
0
41
1
10
44.8362911082494
20
2.54977176871088
30
0
41
1
10
44.671694479336
20
2.54962941966886
30
0
0
SPLINE
5
C5
100
AcDbEntity
8
1
62
256
6
ByLayer
370
18
48
1
60
0
100
AcDbSpline
70
4
71
3
72
36
73
32
40
0
40
0
40
0
40
0
40
0.0230434890601173
40
0.0230434890601173
40
0.168386136758845
40
0.168386136758845
40
0.241057460608209
40
0.241057460608209
40
0.313728784457574
40
0.313728784457574
40
0.459071432156302
40
0.459071432156302
40
0.495407094080983
40
0.495407094080983
40
0.531742756005665
40
0.531742756005665
40
0.604414079855028
40
0.604414079855028
40
0.677085403704391
40
0.677085403704391
40
0.713421065629073
40
0.713421065629073
40
0.749756727553754
40
0.749756727553754
40
0.895099375252479
40
0.895099375252479
40
0.931435037177161
40
0.931435037177161
40
0.967770699101842
40
0.967770699101842
40
1
40
1
40
1
40
1
41
1
10
29.9215384897595
20
-2.42156357445671
30
0
41
1
10
29.7829197965676
20
-2.44192910951378
30
0
41
1
10
29.6440064696428
20
-2.45976661469083
30
0
41
1
10
28.6294237810659
20
-2.57064816902712
30
0
41
1
10
27.7685564053107
20
-2.55897197956952
30
0
41
1
10
26.4692050300637
20
-2.38722775548456
30
0
41
1
10
26.0346912661001
20
-2.30439832148878
30
0
41
1
10
25.1577467801964
20
-2.09004035876734
30
0
41
1
10
24.7226128055195
20
-1.9601977702238
30
0
41
1
10
23.4225721316758
20
-1.51623003070787
30
0
41
1
10
22.5617997530481
20
-1.14662191472607
30
0
41
1
10
21.4676992904445
20
-0.636469738035686
30
0
41
1
10
21.2481968179768
20
-0.532169788262422
30
0
41
1
10
20.8119728397409
20
-0.322797294845515
30
0
41
1
10
20.5946459280694
20
-0.217319363430249
30
0
41
1
10
19.9439906548544
20
0.0993105893181792
30
0
41
1
10
19.5120010433392
20
0.310682398763703
30
0
41
1
10
18.6462977941117
20
0.722946542959676
30
0
41
1
10
18.212802232624
20
0.924286494194661
30
0
41
1
10
17.5573642279452
20
1.21036522021095
30
0
41
1
10
17.3375560772592
20
1.30340130260814
30
0
41
1
10
16.9005763385586
20
1.48095380960373
30
0
41
1
10
16.6828922910906
20
1.56562760368493
30
0
41
1
10
15.5970086271819
20
1.96646039196665
30
0
41
1
10
14.7367471853072
20
2.21497319128048
30
0
41
1
10
13.6460505063636
20
2.40271908246899
30
0
41
1
10
13.4265582627563
20
2.43425167138358
30
0
41
1
10
12.9886544120723
20
2.48402082492467
30
0
41
1
10
12.7705927873684
20
2.50224886233033
30
0
41
1
10
12.360216435141
20
2.52416486341704
30
0
41
1
10
12.1677998839652
20
2.52925688031624
30
0
41
1
10
11.9756319053754
20
2.52917894742029
30
0
0
SPLINE
5
C6
100
AcDbEntity
8
1
62
256
6
ByLayer
370
18
48
1
60
0
100
AcDbSpline
70
4
71
3
72
8
73
4
40
0
40
0
40
0
40
0
40
1
40
1
40
1
40
1
41
1
10
44.9928116823027
20
0.719951355047243
30
0
41
1
10
45.2887141810754
20
0.711706625713219
30
0
41
1
10
45.5846925766755
20
0.702923582942191
30
0
41
1
10
45.8801186779211
20
0.698057798408428
30
0
0
SPLINE
5
C7
100
AcDbEntity
8
1
62
256
6
ByLayer
370
18
48
1
60
0
100
AcDbSpline
70
4
71
3
72
22
73
18
40
0
40
0
40
0
40
0
40
0.0624999999999985
40
0.0624999999999985
40
0.124999999999997
40
0.124999999999997
40
0.249999999999997
40
0.249999999999997
40
0.374999999999996
40
0.374999999999996
40
0.499999999999996
40
0.499999999999996
40
0.750000000000002
40
0.750000000000002
40
0.875000000000001
40
0.875000000000001
40
1
40
1
40
1
40
1
41
1
10
42.7234020460605
20
0.844940680783964
30
0
41
1
10
42.720554227681
20
0.773573349597143
30
0
41
1
10
42.7225864143827
20
0.701202608410142
30
0
41
1
10
42.7363406957091
20
0.554468720218523
30
0
41
1
10
42.748244544211
20
0.479423007310743
30
0
41
1
10
42.7972005035791
20
0.25761242258875
30
0
41
1
10
42.8469367581644
20
0.113776136141354
30
0
41
1
10
42.9747256359373
20
-0.167210321119256
30
0
41
1
10
43.0502053561869
20
-0.298855672852284
30
0
41
1
10
43.2180359305373
20
-0.548918928643644
30
0
41
1
10
43.3112978069184
20
-0.668170269187755
30
0
41
1
10
43.6042832257794
20
-1.00101175614827
30
0
41
1
10
43.8174104728775
20
-1.19236940644836
30
0
41
1
10
44.1551583642073
20
-1.44843460132103
30
0
41
1
10
44.2704060890098
20
-1.52806162679698
30
0
41
1
10
44.503169072925
20
-1.675863825833
30
0
41
1
10
44.6210541200662
20
-1.74432560414576
30
0
41
1
10
44.7403047455192
20
-1.80784721188823
30
0
0
SPLINE
5
C8
100
AcDbEntity
8
1
62
256
6
ByLayer
370
18
48
1
60
0
100
AcDbSpline
70
4
71
3
72
8
73
4
40
0
40
0
40
0
40
0
40
1
40
1
40
1
40
1
41
1
10
45.8961276898808
20
-0.758185651086677
30
0
41
1
10
45.9357458980332
20
-0.599418700145776
30
0
41
1
10
45.9650238438205
20
-0.448989582034756
30
0
41
1
10
45.9821657890765
20
-0.301582063675738
30
0
0
SPLINE
5
C9
100
AcDbEntity
8
1
62
256
6
ByLayer
370
18
48
1
60
0
100
AcDbSpline
70
4
71
3
72
10
73
6
40
0
40
0
40
0
40
0
40
0.5
40
0.5
40
1
40
1
40
1
40
1
41
1
10
45.2710939382914
20
-2.45692374027473
30
0
41
1
10
45.3720362762683
20
-2.17122306697405
30
0
41
1
10
45.4749017323919
20
-1.88710383340853
30
0
41
1
10
45.6835912148568
20
-1.32112256212392
30
0
41
1
10
45.789425535336
20
-1.0392729862526
30
0
41
1
10
45.8961276898808
20
-0.758185651086649
30
0
0
SPLINE
5
CA
100
AcDbEntity
8
1
62
256
6
ByLayer
370
18
48
1
60
0
100
AcDbSpline
70
4
71
3
72
16
73
12
40
0
40
0
40
0
40
0
40
0.366434192067539
40
0.366434192067539
40
0.549651288101309
40
0.549651288101309
40
0.732868384135079
40
0.732868384135079
40
0.916085480168848
40
0.916085480168848
40
1
40
1
40
1
40
1
41
1
10
7.97603240008897
20
-2.0683231249557
30
0
41
1
10
8.3668153011258
20
-2.1791551246111
30
0
41
1
10
8.757011312309
20
-2.26838011599625
30
0
41
1
10
9.33743584364896
20
-2.37583924752545
30
0
41
1
10
9.53055213273254
20
-2.40668582961988
30
0
41
1
10
9.91732057894856
20
-2.45787183367108
30
0
41
1
10
10.1107632534761
20
-2.47840054962947
30
0
41
1
10
10.4971958970796
20
-2.50945801794742
30
0
41
1
10
10.6901251290395
20
-2.51989751385585
30
0
41
1
10
10.9726735881129
20
-2.52730957985068
30
0
41
1
10
11.0615528935193
20
-2.52854396702551
30
0
41
1
10
11.1505316442348
20
-2.52867724824063
30
0
0
SPLINE
5
CB
100
AcDbEntity
8
1
62
256
6
ByLayer
370
18
48
1
60
0
100
AcDbSpline
70
4
71
3
72
78
73
74
40
0
40
0
40
0
40
0
40
0.0042333561021874
40
0.0042333561021874
40
0.0330302406066746
40
0.0330302406066746
40
0.0618271251111618
40
0.0618271251111618
40
0.0906240096156491
40
0.0906240096156491
40
0.119420894120136
40
0.119420894120136
40
0.148217778624623
40
0.148217778624623
40
0.17701466312911
40
0.17701466312911
40
0.205811547633596
40
0.205811547633596
40
0.234608432138083
40
0.234608432138083
40
0.263405316642569
40
0.263405316642569
40
0.292202201147056
40
0.292202201147056
40
0.320999085651542
40
0.320999085651542
40
0.349795970156028
40
0.349795970156028
40
0.378592854660515
40
0.378592854660515
40
0.407389739165001
40
0.407389739165001
40
0.436186623669488
40
0.436186623669488
40
0.464983508173974
40
0.464983508173974
40
0.493780392678461
40
0.493780392678461
40
0.522577277182947
40
0.522577277182947
40
0.551374161687433
40
0.551374161687433
40
0.58017104619192
40
0.58017104619192
40
0.608967930696406
40
0.608967930696406
40
0.637764815200893
40
0.637764815200893
40
0.666561699705379
40
0.666561699705379
40
0.695358584209865
40
0.695358584209865
40
0.724155468714352
40
0.724155468714352
40
0.752952353218838
40
0.752952353218838
40
0.781749237723325
40
0.781749237723325
40
0.810546122227811
40
0.810546122227811
40
0.839343006732298
40
0.839343006732298
40
0.868139891236784
40
0.868139891236784
40
0.89693677574127
40
0.89693677574127
40
0.925733660245757
40
0.925733660245757
40
0.954530544750243
40
0.954530544750243
40
0.98332742925473
40
0.98332742925473
40
1
40
1
40
1
40
1
41
1
10
23.6222049988259
20
1.86120413517457
30
0
41
1
10
23.6506169924253
20
1.87060453563197
30
0
41
1
10
23.6790305456566
20
1.87991284213621
30
0
41
1
10
23.9007456002364
20
1.95181045146126
30
0
41
1
10
24.0940290010065
20
2.01041563381153
30
0
41
1
10
24.4798874724783
20
2.12021122453203
30
0
41
1
10
24.6726428773933
20
2.17110194005653
30
0
41
1
10
25.0596824284933
20
2.26282743633027
30
0
41
1
10
25.2536923582295
20
2.30402055623503
30
0
41
1
10
25.6422164558932
20
2.37736074655859
30
0
41
1
10
25.836503658959
20
2.40960081575113
30
0
41
1
10
26.2275722891127
20
2.4632279180087
30
0
41
1
10
26.4235352363484
20
2.48475615994022
30
0
41
1
10
26.8141542664247
20
2.51742264631224
30
0
41
1
10
27.0087349208353
20
2.52860725513699
30
0
41
1
10
27.3986235036676
20
2.54004621557422
30
0
41
1
10
27.5939731773267
20
2.54039991786277
30
0
41
1
10
27.9849637831461
20
2.53049601779199
30
0
41
1
10
28.1805829554381
20
2.52011128000083
30
0
41
1
10
28.570965045541
20
2.48863481702881
30
0
41
1
10
28.7662674211134
20
2.46774933037668
30
0
41
1
10
29.1567130467713
20
2.41581780003463
30
0
41
1
10
29.3517039451474
20
2.3846609299265
30
0
41
1
10
29.7414953252806
20
2.31183097844573
30
0
41
1
10
29.9370477164107
20
2.27059794272318
30
0
41
1
10
30.3285660819216
20
2.17899661018188
30
0
41
1
10
30.5235833656688
20
2.12875418973152
30
0
41
1
10
30.9116359573366
20
2.01873590523798
30
0
41
1
10
31.1052112706372
20
1.95960345720448
30
0
41
1
10
31.4923411081268
20
1.83454396243812
30
0
41
1
10
31.6857386687568
20
1.76843268664555
30
0
41
1
10
32.0715422965221
20
1.6279883331633
30
0
41
1
10
32.2640773395606
20
1.55379151012434
30
0
41
1
10
32.6503924728064
20
1.40077364965421
30
0
41
1
10
32.8438925623344
20
1.32153420223597
30
0
41
1
10
33.2310993132529
20
1.15665789080333
30
0
41
1
10
33.4245512499816
20
1.07047033451639
30
0
41
1
10
33.8136091805108
20
0.895245039121846
30
0
41
1
10
34.0093428328554
20
0.805755483111568
30
0
41
1
10
34.4006047840463
20
0.622909105379023
30
0
41
1
10
34.5953563547879
20
0.529100337263571
30
0
41
1
10
34.9851829449241
20
0.340902447706498
30
0
41
1
10
35.1803476979636
20
0.246706923765402
30
0
41
1
10
35.5706726582477
20
0.0571068015143794
30
0
41
1
10
35.7655883547333
20
-0.0388077227583494
30
0
41
1
10
36.15606697096
20
-0.230543990074409
30
0
41
1
10
36.3517962983235
20
-0.325338297785237
30
0
41
1
10
36.7412725435001
20
-0.512269296194347
30
0
41
1
10
36.9352705447619
20
-0.604860998163389
30
0
41
1
10
37.3218695309699
20
-0.788050479235665
30
0
41
1
10
37.5150555988943
20
-0.877445866267152
30
0
41
1
10
37.9014335069373
20
-1.05155093231582
30
0
41
1
10
38.0945358582247
20
-1.13644929785232
30
0
41
1
10
38.4799293153875
20
-1.3030252914557
30
0
41
1
10
38.6726934479312
20
-1.38380046054473
30
0
41
1
10
39.0595257492757
20
-1.53831987822696
30
0
41
1
10
39.253389898162
20
-1.61244946580283
30
0
41
1
10
39.6414531112081
20
-1.75526490287524
30
0
41
1
10
39.8356379997778
20
-1.82392122479507
30
0
41
1
10
40.2265228303212
20
-1.95220965009898
30
0
41
1
10
40.4221721271733
20
-2.01206130530539
30
0
41
1
10
40.8110756140201
20
-2.12323396777842
30
0
41
1
10
41.0043942674968
20
-2.17493883939269
30
0
41
1
10
41.3911794244375
20
-2.26788453429526
30
0
41
1
10
41.584518339867
20
-2.30937031230707
30
0
41
1
10
41.9705815220221
20
-2.38301800615224
30
0
41
1
10
42.163008972493
20
-2.41533964733156
30
0
41
1
10
42.548397807521
20
-2.46957039750461
30
0
41
1
10
42.7415551147974
20
-2.49144299812215
30
0
41
1
10
43.1283437786989
20
-2.5250674301854
30
0
41
1
10
43.3217934358166
20
-2.53684814359579
30
0
41
1
10
43.6278460939465
20
-2.54703737086797
30
0
41
1
10
43.7403676443936
20
-2.54897253082811
30
0
41
1
10
43.8531763125566
20
-2.54911540652526
30
0
0
SPLINE
5
CC
100
AcDbEntity
8
1
62
256
6
ByLayer
370
18
48
1
60
0
100
AcDbSpline
70
4
71
3
72
36
73
32
40
0
40
0
40
0
40
0
40
0.0637040333336234
40
0.0637040333336234
40
0.144029328821931
40
0.144029328821931
40
0.304679919798545
40
0.304679919798545
40
0.465330510775159
40
0.465330510775159
40
0.545655806263466
40
0.545655806263466
40
0.565737130135543
40
0.565737130135543
40
0.575777792071581
40
0.5807981230396
40
0.5807981230396
40
0.585818454007619
40
0.585818454007619
40
0.590838784975638
40
0.590838784975638
40
0.595859115943657
40
0.595859115943657
40
0.605899777879696
40
0.625981101751773
40
0.625981101751773
40
0.786631692728387
40
0.786631692728387
40
0.947282283705001
40
0.947282283705001
40
1
40
1
40
1
40
1
41
1
10
7.97603240008897
20
2.06832312495496
30
0
41
1
10
7.97603240008897
20
2.00037205926213
30
0
41
1
10
7.97603240008897
20
1.93414608004611
30
0
41
1
10
7.97603240008897
20
1.78827664201097
30
0
41
1
10
7.97603240008897
20
1.70938416189856
30
0
41
1
10
7.97603240008897
20
1.48267747682496
30
0
41
1
10
7.97603240008897
20
1.34725208097964
30
0
41
1
10
7.97603240008897
20
1.10493260387611
30
0
41
1
10
7.97603240008894
20
0.998061899467729
30
0
41
1
10
7.97603240008894
20
0.859107506803127
30
0
41
1
10
7.976032400089
20
0.816661689478565
30
0
41
1
10
7.976032400089
20
0.76855070419748
30
0
41
1
10
7.97603240008897
20
0.759171587475578
30
0
41
1
10
7.97603240008897
20
0.745474333296016
30
0
41
1
10
7.976032400089
20
0.738719066397636
30
0
41
1
10
7.97603240008897
20
0.732103580761674
30
0
41
1
10
7.97603240008897
20
0.727724295747521
30
0
41
1
10
7.97603240008897
20
0.725295786491074
30
0
41
1
10
7.97603240008897
20
0.723058380865808
30
0
41
1
10
7.97603240008897
20
0.722965008271984
30
0
41
1
10
7.97603240008897
20
0.724863006517666
30
0
41
1
10
7.976032400089
20
0.72706647388955
30
0
41
1
10
7.976032400089
20
0.734624389712053
30
0
41
1
10
7.97603240008897
20
0.749932034910699
30
0
41
1
10
7.97603240008897
20
0.765817590729739
30
0
41
1
10
7.97603240008897
20
0.863318362487092
30
0
41
1
10
7.97603240008897
20
0.96642039362581
30
0
41
1
10
7.97603240008897
20
1.20110158214999
30
0
41
1
10
7.97603240008897
20
1.33273081356958
30
0
41
1
10
7.976032400089
20
1.52796453915951
30
0
41
1
10
7.97603240008897
20
1.57802733296961
30
0
41
1
10
7.97603240008897
20
1.62942767091818
30
0
0
SPLINE
5
CD
100
AcDbEntity
8
1
62
256
6
ByLayer
370
18
48
1
60
0
100
AcDbSpline
70
4
71
3
72
8
73
4
40
0
40
0
40
0
40
0
40
1
40
1
40
1
40
1
41
1
10
45.9997935192017
20
-0.03217786301758
30
0
41
1
10
46.0000685722536
20
-0.010741561770061
30
0
41
1
10
46.0000690506137
20
0.010704280701276
30
0
41
1
10
45.9997935192017
20
0.0321778630151641
30
0
0
SPLINE
5
CE
100
AcDbEntity
8
1
62
256
6
ByLayer
370
18
48
1
60
0
100
AcDbSpline
70
4
71
3
72
10
73
6
40
0
40
0
40
0
40
0
40
0.5
40
0.5
40
1
40
1
40
1
40
1
41
1
10
45.2710939382843
20
2.45692374029503
30
0
41
1
10
45.3714851852407
20
2.17278283942224
30
0
41
1
10
45.4742337334466
20
1.88893054393404
30
0
41
1
10
45.6833498797371
20
1.32176209795171
30
0
41
1
10
45.7893963685693
20
1.03934982077166
30
0
41
1
10
45.8961276898808
20
0.758185651086677
30
0
0
SPLINE
5
CF
100
AcDbEntity
8
1
62
256
6
ByLayer
370
18
48
1
60
0
100
AcDbSpline
70
4
71
3
72
72
73
68
40
0
40
0
40
0
40
0
40
0.02582946843947
40
0.02582946843947
40
0.0802645892631003
40
0.0802645892631003
40
0.134699710086731
40
0.134699710086731
40
0.161917270498545
40
0.161917270498545
40
0.189134830910359
40
0.189134830910359
40
0.216352391322173
40
0.216352391322173
40
0.243569951733988
40
0.243569951733988
40
0.298005072557616
40
0.298005072557616
40
0.325222632969431
40
0.325222632969431
40
0.352440193381245
40
0.352440193381245
40
0.379657753793059
40
0.379657753793059
40
0.406875314204873
40
0.406875314204873
40
0.461310435028502
40
0.461310435028502
40
0.488527995440317
40
0.488527995440317
40
0.515745555852132
40
0.515745555852132
40
0.542963116263948
40
0.542963116263948
40
0.570180676675763
40
0.570180676675763
40
0.597398237087578
40
0.597398237087578
40
0.624615797499393
40
0.624615797499393
40
0.651833357911208
40
0.651833357911208
40
0.679050918323023
40
0.679050918323023
40
0.706268478734838
40
0.706268478734838
40
0.733486039146654
40
0.733486039146654
40
0.760703599558469
40
0.760703599558469
40
0.787921159970284
40
0.787921159970284
40
0.815138720382099
40
0.815138720382099
40
0.842356280793914
40
0.842356280793914
40
0.869573841205729
40
0.869573841205729
40
0.896791401617544
40
0.896791401617544
40
0.924008962029359
40
0.924008962029359
40
0.951226522441174
40
0.951226522441174
40
0.978444082852989
40
0.978444082852989
40
1
40
1
40
1
40
1
41
1
10
39.9805576864824
20
-1.86950882459072
30
0
41
1
10
39.809389911007
20
-1.91991604727261
30
0
41
1
10
39.6386957720929
20
-1.96753797761903
30
0
41
1
10
39.1087097481482
20
-2.10448951926924
30
0
41
1
10
38.7494014036663
20
-2.17999836808974
30
0
41
1
10
38.0309902698315
20
-2.3042916919355
30
0
41
1
10
37.6709501031739
20
-2.3515300974592
30
0
41
1
10
37.128517530982
20
-2.39612795656191
30
0
41
1
10
36.947385507753
20
-2.40665013312957
30
0
41
1
10
36.5833392311927
20
-2.41781244205453
30
0
41
1
10
36.4005716788539
20
-2.41785784853326
30
0
41
1
10
36.0370009274075
20
-2.41074512014896
30
0
41
1
10
35.8558521589495
20
-2.4035444605351
30
0
41
1
10
35.4942565037152
20
-2.38040311603396
30
0
41
1
10
35.3137336307761
20
-2.36429864971356
30
0
41
1
10
34.7725813336265
20
-2.30300568304369
30
0
41
1
10
34.4131697317124
20
-2.24714833895121
30
0
41
1
10
33.8724194593612
20
-2.13665177115203
30
0
41
1
10
33.691857643101
20
-2.09560202078532
30
0
41
1
10
33.3306210474026
20
-2.00727080357248
30
0
41
1
10
33.1498997747786
20
-1.95938591359416
30
0
41
1
10
32.7870868194044
20
-1.85612537314611
30
0
41
1
10
32.6049484993972
20
-1.80045438010836
30
0
41
1
10
32.2395688540927
20
-1.68292156618594
30
0
41
1
10
32.0575314586037
20
-1.6213826025726
30
0
41
1
10
31.5131117396253
20
-1.4282977353831
30
0
41
1
10
31.1516928733354
20
-1.2888835050575
30
0
41
1
10
30.6113072935904
20
-1.06770535317077
30
0
41
1
10
30.4313367508605
20
-0.99197822756804
30
0
41
1
10
30.0711065380513
20
-0.837478056544086
30
0
41
1
10
29.8908258466677
20
-0.758659912077803
30
0
41
1
10
29.5303355227104
20
-0.59823539005572
30
0
41
1
10
29.3501154711144
20
-0.516451309413526
30
0
41
1
10
28.9886080329926
20
-0.351513598289955
30
0
41
1
10
28.8073315207609
20
-0.268312174168813
30
0
41
1
10
28.4437735409004
20
-0.100682797380017
30
0
41
1
10
28.261492020528
20
-0.015813511940479
30
0
41
1
10
27.8966821633232
20
0.153680009117693
30
0
41
1
10
27.7148499323601
20
0.237728558642487
30
0
41
1
10
27.3520758537012
20
0.403718345365633
30
0
41
1
10
27.1711700983737
20
0.485894767570386
30
0
41
1
10
26.8102112958702
20
0.649043535052414
30
0
41
1
10
26.6300329750692
20
0.729460643173638
30
0
41
1
10
26.269718727658
20
0.886488920090045
30
0
41
1
10
26.0895735415777
20
0.962967379725058
30
0
41
1
10
25.7295513480131
20
1.11337699405018
30
0
41
1
10
25.5497078730273
20
1.18741000205384
30
0
41
1
10
25.1892741441833
20
1.33002942525573
30
0
41
1
10
25.0086841326748
20
1.39856353665854
30
0
41
1
10
24.6468247402876
20
1.53079372897537
30
0
41
1
10
24.4657430021584
20
1.59498159812384
30
0
41
1
10
24.1025537043862
20
1.71793270573497
30
0
41
1
10
23.9198558551323
20
1.77648201609844
30
0
41
1
10
23.5550685303191
20
1.88536226541936
30
0
41
1
10
23.3733125378515
20
1.93605794313547
30
0
41
1
10
23.0108677087563
20
2.03175166062664
30
0
41
1
10
22.8300742650512
20
2.0761368360769
30
0
41
1
10
22.4688498484169
20
2.15573439204698
30
0
41
1
10
22.2884052448735
20
2.19105379108413
30
0
41
1
10
21.9280203598709
20
2.2548907203427
30
0
41
1
10
21.7481044406993
20
2.28356117308471
30
0
41
1
10
21.3878585548929
20
2.33190474376926
30
0
41
1
10
21.2075176411375
20
2.35114952259701
30
0
41
1
10
20.8464302426328
20
2.38140488194836
30
0
41
1
10
20.6658466626722
20
2.39268754229155
30
0
41
1
10
20.3415689083513
20
2.40557783452007
30
0
41
1
10
20.1979674017924
20
2.40867920557088
30
0
41
1
10
20.0539058969096
20
2.40850431317335
30
0
0
SPLINE
5
D0
100
AcDbEntity
8
1
62
256
6
ByLayer
370
18
48
1
60
0
100
AcDbSpline
70
4
71
3
72
10
73
6
40
0
40
0
40
0
40
0
40
0.275008648033293
40
0.275008648033293
40
1
40
1
40
1
40
1
41
1
10
3.3042281393196
20
-2.52377017889205
30
0
41
1
10
3.30423000279262
20
-2.52372748833909
30
0
41
1
10
3.30423167330551
20
-2.52309698748468
30
0
41
1
10
3.30423701446563
20
-2.51864411993804
30
0
41
1
10
3.30423945282044
20
-2.51124677511257
30
0
41
1
10
3.30424029488901
20
-2.49989019400582
30
0
0
SPLINE
5
D1
100
AcDbEntity
8
1
62
256
6
ByLayer
370
18
48
1
60
0
100
AcDbSpline
70
4
71
3
72
8
73
4
40
0
40
0
40
0
40
0
40
1
40
1
40
1
40
1
41
1
10
45.9821657890765
20
0.301582063676079
30
0
41
1
10
45.9648953750016
20
0.450094314869602
30
0
41
1
10
45.9354275409394
20
0.600694491946001
30
0
41
1
10
45.8961276898808
20
0.758185651086677
30
0
0
SPLINE
5
D2
100
AcDbEntity
8
1
62
256
6
ByLayer
370
13
48
1
60
0
100
AcDbSpline
70
4
71
3
72
29
73
25
40
0
40
0
40
0
40
0
40
0.125
40
0.125
40
0.1875
40
0.1875
40
0.25
40
0.3125
40
0.3125
40
0.375
40
0.375
40
0.4375
40
0.4375
40
0.5
40
0.5
40
0.625
40
0.625
40
0.75
40
0.75
40
0.875
40
0.875
40
0.9375
40
0.9375
40
1
40
1
40
1
40
1
41
1
10
3.5214885477024
20
0.233622031624776
30
0
41
1
10
3.52158995709149
20
0.393276120816211
30
0
41
1
10
3.52168379245876
20
0.549476441304961
30
0
41
1
10
3.52181635820531
20
0.778658619352086
30
0
41
1
10
3.52185922717092
20
0.854302940848697
30
0
41
1
10
3.52194113094862
20
1.00101099249361
30
0
41
1
10
3.52201963237724
20
1.14387352048146
30
0
41
1
10
3.52209246096095
20
1.27917905161013
30
0
41
1
10
3.52216290334252
20
1.4106607038716
30
0
41
1
10
3.52219705069771
20
1.47471408910829
30
0
41
1
10
3.5222627197308
20
1.59772820514956
30
0
41
1
10
3.52229413168021
20
1.65648058047347
30
0
41
1
10
3.52235449778985
20
1.76849608339424
30
0
41
1
10
3.52238350909036
20
1.82185758740201
30
0
41
1
10
3.52246590458481
20
1.97116200376826
30
0
41
1
10
3.52251522051952
20
2.05732951624532
30
0
41
1
10
3.52260387512746
20
2.20315940466813
30
0
41
1
10
3.52264343929969
20
2.2630099519728
30
0
41
1
10
3.52270830710893
20
2.35009515442016
30
0
41
1
10
3.52273403078931
20
2.37814076311798
30
0
41
1
10
3.5227610353713
20
2.39700270632804
30
0
41
1
10
3.52276810427259
20
2.39937529023143
30
0
41
1
10
3.52277764265315
20
2.39606826339764
30
0
41
1
10
3.52278012952263
20
2.3904461923853
30
0
41
1
10
3.52278017674274
20
2.38096256820359
30
0
0
SPLINE
5
D3
100
AcDbEntity
8
1
62
256
6
ByLayer
370
18
48
1
60
0
100
AcDbSpline
70
4
71
3
72
8
73
4
40
0
40
0
40
0
40
0
40
1
40
1
40
1
40
1
41
1
10
45.2710939382916
20
-2.45692374027397
30
0
41
1
10
45.2365647470266
20
-2.49693688415425
30
0
41
1
10
45.2015175058365
20
-2.52429745254415
30
0
41
1
10
45.1654905144615
20
-2.53855016208371
30
0
0
SPLINE
5
D4
100
AcDbEntity
8
1
62
256
6
ByLayer
370
18
48
1
60
0
100
AcDbSpline
70
4
71
3
72
8
73
4
40
0
40
0
40
0
40
0
40
1
40
1
40
1
40
1
41
1
10
3.37287690859796
20
0.210561076696337
30
0
41
1
10
3.38506557806193
20
0.201236309353817
30
0
41
1
10
3.39819245612449
20
0.192947444741833
30
0
41
1
10
3.41238134048641
20
0.185826450320548
30
0
0
SPLINE
5
D5
100
AcDbEntity
8
1
62
256
6
ByLayer
370
18
48
1
60
0
100
AcDbSpline
70
4
71
3
72
8
73
4
40
0
40
0
40
0
40
0
40
1
40
1
40
1
40
1
41
1
10
45.8801186779211
20
0.698057798408428
30
0
41
1
10
45.9285797612438
20
0.566459594060234
30
0
41
1
10
45.9618731971445
20
0.434272997166431
30
0
41
1
10
45.9821657890765
20
0.301582063676079
30
0
0
SPLINE
5
D6
100
AcDbEntity
8
1
62
256
6
ByLayer
370
13
48
1
60
0
100
AcDbSpline
70
4
71
3
72
10
73
6
40
0
40
0
40
0
40
0
40
0.189599237337391
40
0.189599237337391
40
1
40
1
40
1
40
1
41
1
10
3.52276915317057
20
-2.3982226399076
30
0
41
1
10
3.52277051601118
20
-2.39827510745917
30
0
41
1
10
3.52277175767554
20
-2.39810862848086
30
0
41
1
10
3.52277764265307
20
-2.39606826341159
30
0
41
1
10
3.52278012952257
20
-2.39044619240829
30
0
41
1
10
3.52278017674269
20
-2.3809625682361
30
0
0
SPLINE
5
D7
100
AcDbEntity
8
1
62
256
6
ByLayer
370
18
48
1
60
0
100
AcDbSpline
70
4
71
3
72
8
73
4
40
0
40
0
40
0
40
0
40
1
40
1
40
1
40
1
41
1
10
45.9821657890765
20
-0.301582063675738
30
0
41
1
10
45.9888884901929
20
-0.229881752665023
30
0
41
1
10
45.9927831207934
20
-0.158224407965804
30
0
41
1
10
45.9932998455157
20
-0.0866183831171838
30
0
0
SPLINE
5
D8
100
AcDbEntity
8
1
62
256
6
ByLayer
370
18
48
1
60
0
100
AcDbSpline
70
4
71
3
72
72
73
68
40
0
40
0
40
0
40
0
40
0.0596890250255321
40
0.0596890250255321
40
0.0895335375382982
40
0.0895335375382982
40
0.119378050051064
40
0.119378050051064
40
0.14922256256383
40
0.14922256256383
40
0.179067075076596
40
0.179067075076596
40
0.208911587589362
40
0.208911587589362
40
0.238756100102128
40
0.238756100102128
40
0.268600612614894
40
0.268600612614894
40
0.298445125127661
40
0.298445125127661
40
0.328289637640427
40
0.328289637640427
40
0.358134150153193
40
0.358134150153193
40
0.387978662665959
40
0.387978662665959
40
0.417823175178725
40
0.417823175178725
40
0.447667687691491
40
0.447667687691491
40
0.477512200204257
40
0.477512200204257
40
0.507356712717023
40
0.507356712717023
40
0.537201225229789
40
0.537201225229789
40
0.567045737742555
40
0.567045737742555
40
0.596890250255321
40
0.596890250255321
40
0.626734762768087
40
0.626734762768087
40
0.656579275280853
40
0.656579275280853
40
0.686423787793619
40
0.686423787793619
40
0.716268300306385
40
0.716268300306385
40
0.746112812819151
40
0.746112812819151
40
0.775957325331917
40
0.775957325331917
40
0.805801837844683
40
0.805801837844683
40
0.83564635035745
40
0.83564635035745
40
0.865490862870215
40
0.865490862870215
40
0.895335375382982
40
0.895335375382982
40
0.925179887895748
40
0.925179887895748
40
0.955024400408514
40
0.955024400408514
40
0.98486891292128
40
0.98486891292128
40
1
40
1
40
1
40
1
41
1
10
7.97603240008897
20
2.0683231249557
30
0
41
1
10
8.3668153011258
20
2.1791551246111
30
0
41
1
10
8.757011312309
20
2.26838011599622
30
0
41
1
10
9.33743584364896
20
2.37583924752545
30
0
41
1
10
9.53055213273254
20
2.40668582961988
30
0
41
1
10
9.91732057894856
20
2.45787183367108
30
0
41
1
10
10.1107632534761
20
2.47840054962947
30
0
41
1
10
10.4971958970796
20
2.50945801794745
30
0
41
1
10
10.6901251290395
20
2.51989751385585
30
0
41
1
10
11.077707167898
20
2.53006491544019
30
0
41
1
10
11.2720791382853
20
2.52993347153767
30
0
41
1
10
11.6615182560189
20
2.51909191269857
30
0
41
1
10
11.8565655737955
20
2.50820388812588
30
0
41
1
10
12.247942316168
20
2.47592318287801
30
0
41
1
10
12.4431796660493
20
2.45470794939251
30
0
41
1
10
12.8322805129
20
2.40218534934391
30
0
41
1
10
13.0258479324777
20
2.37061715173598
30
0
41
1
10
13.4127144810774
20
2.29802945654092
30
0
41
1
10
13.6062226116603
20
2.25725632318623
30
0
41
1
10
13.9929515543505
20
2.16659037744569
30
0
41
1
10
14.1859900945953
20
2.11647557262845
30
0
41
1
10
14.5720194361962
20
2.00710125188138
30
0
41
1
10
14.7655299175481
20
1.94850288046123
30
0
41
1
10
15.1534264303172
20
1.82351241530236
30
0
41
1
10
15.3477187936007
20
1.75699562724117
30
0
41
1
10
15.7366865770418
20
1.61502892708327
30
0
41
1
10
15.9323896460772
20
1.54032232302501
30
0
41
1
10
16.3237649575938
20
1.38579356054808
30
0
41
1
10
16.518827419934
20
1.30598240928512
30
0
41
1
10
16.9070094951077
20
1.13995752465149
30
0
41
1
10
17.1004345069937
20
1.05430328698961
30
0
41
1
10
17.487546921327
20
0.880886455904232
30
0
41
1
10
17.6809908203427
20
0.792664986343453
30
0
41
1
10
18.0671340842497
20
0.612148792716681
30
0
41
1
10
18.2596600532866
20
0.519474086322276
30
0
41
1
10
18.6460524483937
20
0.334293425179794
30
0
41
1
10
18.839670749648
20
0.241298450492565
30
0
41
1
10
19.2272584039442
20
0.0534449102600831
30
0
41
1
10
19.4209200652323
20
-0.0421001429236014
30
0
41
1
10
19.8101653490733
20
-0.231745727350699
30
0
41
1
10
20.006087726608
20
-0.326001517122904
30
0
41
1
10
20.3976567770536
20
-0.51332133736932
30
0
41
1
10
20.5926766257897
20
-0.606770001238999
30
0
41
1
10
20.982606019061
20
-0.790315310584134
30
0
41
1
10
21.1778570338952
20
-0.879756873700728
30
0
41
1
10
21.5685117635229
20
-1.05488014533987
30
0
41
1
10
21.7637503304802
20
-1.14086729461732
30
0
41
1
10
22.15446069652
20
-1.30879474777348
30
0
41
1
10
22.350175854345
20
-1.38952842671438
30
0
41
1
10
22.7398715074632
20
-1.5437834467042
30
0
41
1
10
22.934121506916
20
-1.61763846276563
30
0
41
1
10
23.3209787527051
20
-1.75943693306559
30
0
41
1
10
23.514148185118
20
-1.82644490075052
30
0
41
1
10
23.9007456002365
20
-1.95181045146128
30
0
41
1
10
24.0940290010065
20
-2.01041563381153
30
0
41
1
10
24.4798874724784
20
-2.12021122453203
30
0
41
1
10
24.6726428773933
20
-2.17110194005653
30
0
41
1
10
25.0596824284934
20
-2.2628274363303
30
0
41
1
10
25.2536923582295
20
-2.30402055623503
30
0
41
1
10
25.6422164558933
20
-2.37736074655859
30
0
41
1
10
25.836503658959
20
-2.40960081575113
30
0
41
1
10
26.2275722891127
20
-2.4632279180087
30
0
41
1
10
26.4235352363484
20
-2.48475615994022
30
0
41
1
10
26.8141542664247
20
-2.51742264631224
30
0
41
1
10
27.0087349208353
20
-2.52860725513702
30
0
41
1
10
27.302515440441
20
-2.53722649634838
30
0
41
1
10
27.4014558706183
20
-2.53874700421412
30
0
41
1
10
27.5004666513173
20
-2.53889609462746
30
0
0
SPLINE
5
D9
100
AcDbEntity
8
1
62
256
6
ByLayer
370
18
48
1
60
0
100
AcDbSpline
70
4
71
3
72
26
73
22
40
0
40
0
40
0
40
0
40
0.0110981207423192
40
0.0110981207423192
40
0.120976107326506
40
0.120976107326506
40
0.230854093910693
40
0.230854093910693
40
0.34073208049488
40
0.34073208049488
40
0.450610067079066
40
0.450610067079066
40
0.560488053663253
40
0.560488053663253
40
0.67036604024744
40
0.67036604024744
40
0.780244026831627
40
0.780244026831627
40
0.890122013415813
40
0.890122013415813
40
1
40
1
40
1
40
1
41
1
10
39.9718963427737
20
1.86849268240266
30
0
41
1
10
39.9916122963697
20
1.87506175627345
30
0
41
1
10
40.0113399411813
20
1.88158661271552
30
0
41
1
10
40.2265228303212
20
1.95220965009898
30
0
41
1
10
40.4221721271733
20
2.01206130530539
30
0
41
1
10
40.8110756140201
20
2.12323396777845
30
0
41
1
10
41.0043942674969
20
2.17493883939272
30
0
41
1
10
41.3911794244376
20
2.26788453429529
30
0
41
1
10
41.584518339867
20
2.3093703123071
30
0
41
1
10
41.9705815220222
20
2.38301800615224
30
0
41
1
10
42.163008972493
20
2.41533964733156
30
0
41
1
10
42.548397807521
20
2.46957039750464
30
0
41
1
10
42.7415551147975
20
2.49144299812215
30
0
41
1
10
43.1283437786989
20
2.5250674301854
30
0
41
1
10
43.3217934358167
20
2.53684814359579
30
0
41
1
10
43.7094542511947
20
2.54975430221745
30
0
41
1
10
43.9041775378601
20
2.55083463081166
30
0
41
1
10
44.2952843275176
20
2.54233948082089
30
0
41
1
10
44.490931786655
20
2.53276176055698
30
0
41
1
10
44.8807362126747
20
2.50266547729822
30
0
41
1
10
45.0757296321662
20
2.48231282245146
30
0
41
1
10
45.2710939382918
20
2.45692374027388
30
0
0
SPLINE
5
DA
100
AcDbEntity
8
1
62
256
6
ByLayer
370
18
48
1
60
0
100
AcDbSpline
70
4
71
3
72
10
73
6
40
0
40
0
40
0
40
0
40
0.5
40
0.5
40
1
40
1
40
1
40
1
41
1
10
45.9783988031139
20
-0.0235617766324197
30
0
41
1
10
45.7868961787004
20
-0.336202956018582
30
0
41
1
10
45.5855063642226
20
-0.638688869727446
30
0
41
1
10
45.1709179412014
20
-1.23153172619527
30
0
41
1
10
44.957543845667
20
-1.52183821222945
30
0
41
1
10
44.7403047455192
20
-1.80784721188823
30
0
0
SPLINE
5
DB
100
AcDbEntity
8
1
62
256
6
ByLayer
370
13
48
1
60
0
100
AcDbSpline
70
4
71
3
72
8
73
4
40
0
40
0
40
0
40
0
40
1
40
1
40
1
40
1
41
1
10
3.30338124145584
20
0.3346036605883
30
0
41
1
10
3.32725680759182
20
0.30577363761148
30
0
41
1
10
3.3644218675604
20
0.281189678200576
30
0
41
1
10
3.41238134048641
20
0.26582285775936
30
0
0
LINE
5
76
100
AcDbEntity
8
81
62
256
6
ByLayer
370
18
48
1
60
0
100
AcDbLine
10
46
20
0
30
0
11
51
21
0
31
0
39
0
210
0
220
0
230
1
0
LINE
5
77
100
AcDbEntity
8
1
62
256
6
ByLayer
370
18
48
1
60
0
100
AcDbLine
10
3.30422
20
2.523771
30
0
11
0.45
21
2.521987
31
0
39
0
210
0
220
0
230
1
0
LINE
5
79
100
AcDbEntity
8
1
62
256
6
ByLayer
370
18
48
1
60
0
100
AcDbLine
10
28.323601
20
2.539408
30
0
11
27.510337
21
2.5389
31
0
39
0
210
0
220
0
230
1
0
LINE
5
7A
100
AcDbEntity
8
1
62
256
6
ByLayer
370
18
48
1
60
0
100
AcDbLine
10
44.674253
20
2.549627
30
0
11
43.861855
21
2.549119
31
0
39
0
210
0
220
0
230
1
0
LINE
5
7B
100
AcDbEntity
8
1
62
256
6
ByLayer
370
18
48
1
60
0
100
AcDbLine
10
43.861855
20
-2.549119
30
0
11
44.674647
21
-2.549627
31
0
39
0
210
0
220
0
230
1
0
LINE
5
7C
100
AcDbEntity
8
1
62
256
6
ByLayer
370
18
48
1
60
0
100
AcDbLine
10
27.510337
20
-2.5389
30
0
11
28.32357
21
-2.539408
31
0
39
0
210
0
220
0
230
1
0
LINE
5
7D
100
AcDbEntity
8
1
62
256
6
ByLayer
370
18
48
1
60
0
100
AcDbLine
10
0.45
20
-2.521987
30
0
11
3.30422
21
-2.523771
31
0
39
0
210
0
220
0
230
1
0
LINE
5
7E
100
AcDbEntity
8
1
62
256
6
ByLayer
370
18
48
1
60
0
100
AcDbLine
10
0
20
-3
30
0
11
0.45
21
-2.521987
31
0
39
0
210
0
220
0
230
1
0
LINE
5
7F
100
AcDbEntity
8
1
62
256
6
ByLayer
370
18
48
1
60
0
100
AcDbLine
10
0.45
20
2.521987
30
0
11
0
21
3
31
0
39
0
210
0
220
0
230
1
0
LINE
5
80
100
AcDbEntity
8
SK1
62
256
6
ByLayer
370
18
48
1
60
0
100
AcDbLine
10
-35.278312
20
3
30
0
11
-36
21
1.75
31
0
39
0
210
0
220
0
230
1
0
LINE
5
82
100
AcDbEntity
8
SK1
62
256
6
ByLayer
370
18
48
1
60
0
100
AcDbLine
10
-36
20
-1.75
30
0
11
-35.278312
21
-3
31
0
39
0
210
0
220
0
230
1
0
LINE
5
83
100
AcDbEntity
8
1
62
256
6
ByLayer
370
18
48
1
60
0
100
AcDbLine
10
11.973339
20
2.529189
30
0
11
11.158684
21
2.52868
31
0
39
0
210
0
220
0
230
1
0
LINE
5
84
100
AcDbEntity
8
1
62
256
6
ByLayer
370
18
48
1
60
0
100
AcDbLine
10
11.158684
20
-2.52868
30
0
11
11.973482
21
-2.529189
31
0
39
0
210
0
220
0
230
1
0
LINE
5
85
100
AcDbEntity
8
SK1
62
256
6
ByLayer
370
18
48
1
60
0
100
AcDbLine
10
0
20
3
30
0
11
-35.278312
21
3
31
0
39
0
210
0
220
0
230
1
0
LINE
5
86
100
AcDbEntity
8
SK1
62
256
6
ByLayer
370
18
48
1
60
0
100
AcDbLine
10
-35.278312
20
-3
30
0
11
0
21
-3
31
0
39
0
210
0
220
0
230
1
0
LINE
5
87
100
AcDbEntity
8
SK4
62
256
6
ByLayer
370
18
48
0.05
60
0
100
AcDbLine
10
51
20
0
30
0
11
-41
21
0
31
0
39
0
210
0
220
0
230
1
0
LINE
5
89
100
AcDbEntity
8
4
62
256
6
ByLayer
370
18
48
0.05
60
0
100
AcDbLine
10
46
20
0
30
0
11
0
21
0
31
0
39
0
210
0
220
0
230
1
0
LINE
5
8B
100
AcDbEntity
8
80
62
256
6
ByLayer
370
18
48
1
60
0
100
AcDbLine
10
0
20
0
30
0
11
-5
21
0
31
0
39
0
210
0
220
0
230
1
0
LINE
5
8C
100
AcDbEntity
8
1
62
256
6
ByLayer
370
18
48
1
60
0
100
AcDbLine
10
3.862519
20
-0.030877
30
0
11
3.862516
21
-0.031098
31
0
39
0
210
0
220
0
230
1
0
LINE
5
8D
100
AcDbEntity
8
1
62
256
6
ByLayer
370
13
48
1
60
0
100
AcDbLine
10
44.992812
20
0.719951
30
0
11
45.9933
21
0.086618
31
0
39
0
210
0
220
0
230
1
0
LINE
5
8E
100
AcDbEntity
8
1
62
256
6
ByLayer
370
18
48
1
60
0
100
AcDbLine
10
0
20
-3
30
0
11
0
21
3
31
0
39
0
210
0
220
0
230
1
0
LINE
5
8F
100
AcDbEntity
8
1
62
256
6
ByLayer
370
13
48
1
60
0
100
AcDbLine
10
44.902847
20
0.657288
30
0
11
45.978399
21
-0.023562
31
0
39
0
210
0
220
0
230
1
0
LINE
5
90
100
AcDbEntity
8
1
62
256
6
ByLayer
370
18
48
1
60
0
100
AcDbLine
10
0.45
20
2.521987
30
0
11
0.45
21
-2.521987
31
0
39
0
210
0
220
0
230
1
0
LINE
5
91
100
AcDbEntity
8
SK1
62
256
6
ByLayer
370
18
48
1
60
0
100
AcDbLine
10
-35.278312
20
3
30
0
11
-35.278312
21
-3
31
0
39
0
210
0
220
0
230
1
0
LINE
5
92
100
AcDbEntity
8
SK1
62
256
6
ByLayer
370
18
48
1
60
0
100
AcDbLine
10
0
20
-3
30
0
11
0
21
3
31
0
39
0
210
0
220
0
230
1
0
LINE
5
93
100
AcDbEntity
8
SK1
62
256
6
ByLayer
370
18
48
1
60
0
100
AcDbLine
10
-36
20
1.75
30
0
11
-36
21
-1.75
31
0
39
0
210
0
220
0
230
1
0
MTEXT
5
DC
100
AcDbEntity
8
SK6
62
256
6
ByLayer
370
13
48
1
60
0
100
AcDbMText
10
7.129169
20
34.932694
30
0
210
0
220
0
230
1
1
\W0.7538;460.1-0510-026A0-XM GC34
40
3.5
41
0
44
1.084337
50
0
71
8
72
5
7
iso_b_vert
0
DIMENSION
5
E9
100
AcDbEntity
8
SK2
62
256
6
ByLayer
370
13
48
1
60
0
100
AcDbDimension
2
DimnDraft3D1
10
45.2544
20
-12.763398
30
0
11
21.504459
21
-12.763398
31
0
70
32
71
5
72
1
41
1
210
0
220
0
230
1
3
Standard
100
AcDbAlignedDimension
13
0
23
-1.5875
33
0
14
45.2544
24
-4.1375
34
0
50
0
100
AcDbRotatedDimension
1001
ACAD
1000
DSTYLE
1002
{
1070
   279
1070
     0
1070
   172
1070
     1
1070
   173
1070
     1
1070
   340
1005
DD
1070
   271
1070
     2
1070
   272
1070
     2
1070
    77
1070
     1
1070
    73
1070
     0
1070
   171
1070
     3
1070
   274
1070
     4
1070
   177
1070
    35
1070
   176
1070
    35
1070
   178
1070
    35
1070
    48
1040
-0.005
1070
    41
1041
3.5
1070
   147
1041
1.75
1070
    42
1041
1.5875
1070
    44
1041
2.0
1070
   140
1041
3.5
1070
   343
1005
0
1070
   344
1005
0
1002
}
0
DIMENSION
5
F3
100
AcDbEntity
8
SK2
62
256
6
ByLayer
370
13
48
1
60
0
100
AcDbDimension
2
DimnDraft3D2
10
46
20
-31.692985
30
0
11
5.5957
21
-31.692985
31
0
70
32
71
5
72
1
41
1
210
0
220
0
230
1
3
Standard
100
AcDbAlignedDimension
13
-36
23
-4.5875
33
0
14
46
24
-1.5875
34
0
50
0
100
AcDbRotatedDimension
1001
ACAD
1000
DSTYLE
1002
{
1070
   279
1070
     0
1070
   172
1070
     1
1070
   173
1070
     1
1070
   340
1005
DD
1070
   271
1070
     2
1070
   272
1070
     2
1070
    77
1070
     1
1070
    73
1070
     0
1070
   171
1070
     3
1070
   274
1070
     4
1070
   177
1070
    35
1070
   176
1070
    35
1070
   178
1070
    35
1070
    48
1040
-0.005
1070
    41
1041
3.5
1070
   147
1041
1.75
1070
    42
1041
1.5875
1070
    44
1041
2.0
1070
   140
1041
3.5
1070
   343
1005
0
1070
   344
1005
0
1002
}
0
DIMENSION
5
FD
100
AcDbEntity
8
SK2
62
256
6
ByLayer
370
13
48
1
60
0
100
AcDbDimension
2
DimnDraft3D3
10
46
20
14.159119
30
0
11
32.88
21
14.159119
31
0
70
32
71
5
72
1
41
1
210
0
220
0
230
1
3
Standard
100
AcDbAlignedDimension
13
19.76
23
4.1375
33
0
14
46
24
1.5875
34
0
50
0
100
AcDbRotatedDimension
1001
ACAD
1000
DSTYLE
1002
{
1070
   279
1070
     0
1070
   172
1070
     1
1070
   173
1070
     1
1070
   340
1005
DD
1070
   271
1070
     2
1070
   272
1070
     2
1070
    77
1070
     1
1070
    73
1070
     0
1070
   171
1070
     3
1070
   274
1070
     4
1070
   177
1070
    35
1070
   176
1070
    35
1070
   178
1070
    35
1070
    48
1040
-0.005
1070
    41
1041
3.5
1070
   147
1041
1.75
1070
    42
1041
1.5875
1070
    44
1041
2.0
1070
   140
1041
3.5
1070
   343
1005
0
1070
   344
1005
0
1002
}
0
DIMENSION
5
107
100
AcDbEntity
8
SK2
62
256
6
ByLayer
370
13
48
1
60
0
100
AcDbDimension
2
DimnDraft3D4
10
45.2544
20
-15.352503
30
0
11
55.981425
21
-15.352503
31
0
70
32
71
5
72
1
41
1
210
0
220
0
230
1
3
Standard
100
AcDbAlignedDimension
13
46
23
-1.5875
33
0
14
45.2544
24
-4.1375
34
0
50
0
100
AcDbRotatedDimension
1001
ACAD
1000
DSTYLE
1002
{
1070
   279
1070
     0
1070
   172
1070
     1
1070
   173
1070
     1
1070
   340
1005
DD
1070
   271
1070
     2
1070
   272
1070
     2
1070
    77
1070
     1
1070
    73
1070
     0
1070
   171
1070
     3
1070
   274
1070
     4
1070
   177
1070
    35
1070
   176
1070
    35
1070
   178
1070
    35
1070
    48
1040
-0.005
1070
    41
1041
3.5
1070
   147
1041
1.75
1070
    42
1041
1.5875
1070
    44
1041
2.0
1070
   140
1041
3.5
1070
   343
1005
0
1070
   344
1005
0
1002
}
0
DIMENSION
5
111
100
AcDbEntity
8
SK2
62
256
6
ByLayer
370
13
48
1
60
0
100
AcDbDimension
2
DimnDraft3D5
10
45.2544
20
-21.343428
30
0
11
2.515076
21
-21.343428
31
0
70
32
71
5
72
1
41
1
210
0
220
0
230
1
3
Standard
100
AcDbAlignedDimension
13
-36
23
-4.5875
33
0
14
45.2544
24
-4.1375
34
0
50
0
100
AcDbRotatedDimension
1001
ACAD
1000
DSTYLE
1002
{
1070
   279
1070
     0
1070
   172
1070
     1
1070
   173
1070
     1
1070
   340
1005
DD
1070
   271
1070
     2
1070
   272
1070
     2
1070
    77
1070
     1
1070
    73
1070
     0
1070
   171
1070
     3
1070
   274
1070
     4
1070
   177
1070
    35
1070
   176
1070
    35
1070
   178
1070
    35
1070
    48
1040
-0.005
1070
    41
1041
3.5
1070
   147
1041
1.75
1070
    42
1041
1.5875
1070
    44
1041
2.0
1070
   140
1041
3.5
1070
   343
1005
0
1070
   344
1005
0
1002
}
0
DIMENSION
5
11C
100
AcDbEntity
8
SK2
62
256
6
ByLayer
370
13
48
1
60
0
100
AcDbDimension
2
DimnDraft3D6
10
-46.625163
20
3
30
0
11
-47.250163
21
21.47418
31
0
70
33
71
5
72
1
41
1
210
0
220
0
230
1
3
Standard
100
AcDbAlignedDimension
13
-37.5875
23
-3
33
0
14
-37.5875
24
3
34
0
1001
ACAD
1000
DSTYLE
1002
{
1070
   279
1070
     0
1070
    74
1070
     0
1070
   173
1070
     1
1070
   340
1005
DD
1070
   271
1070
     3
1070
   272
1070
     2
1070
    77
1070
     1
1070
    73
1070
     0
1070
   171
1070
     3
1070
   274
1070
     4
1070
   177
1070
    35
1070
   176
1070
    35
1070
   178
1070
    35
1070
    48
1040
-0.005
1070
    41
1041
3.5
1070
   147
1041
1.75
1070
    42
1041
1.5875
1070
    44
1041
2.0
1070
   140
1041
3.5
1070
   343
1005
0
1070
   344
1005
0
1002
}
0
DIMENSION
5
127
100
AcDbEntity
8
2
62
256
6
ByLayer
370
13
48
1
60
0
100
AcDbDimension
2
DimnDraft3D7
10
60.083343
20
2.55
30
0
11
55.458343
21
19.617266
31
0
70
33
71
5
72
1
41
1
210
0
220
0
230
1
3
Standard
100
AcDbAlignedDimension
13
46.8419
23
-2.55
33
0
14
46.8419
24
2.55
34
0
1001
ACAD
1000
DSTYLE
1002
{
1070
   279
1070
     0
1070
    74
1070
     0
1070
   173
1070
     1
1070
   340
1005
DD
1070
   271
1070
     3
1070
   272
1070
     2
1070
    77
1070
     1
1070
    73
1070
     0
1070
   171
1070
     3
1070
   274
1070
     4
1070
   177
1070
    35
1070
   176
1070
    35
1070
   178
1070
    35
1070
    48
1040
-0.005
1070
    41
1041
3.5
1070
   147
1041
1.75
1070
    42
1041
1.5875
1070
    44
1041
2.0
1070
   140
1041
3.5
1070
   343
1005
0
1070
   344
1005
0
1002
}
0
ENDSEC
0
SECTION
2
OBJECTS
0
DICTIONARY
5
192
330
0
100
AcDbDictionary
280
0
281
1
3
ACAD_GROUP
350
193
3
ACAD_MLINESTYLE
350
194
0
DICTIONARY
5
193
330
0
100
AcDbDictionary
280
0
281
1
0
DICTIONARY
5
194
330
0
100
AcDbDictionary
280
0
281
1
3
Standard
350
18
0
MLINESTYLE
5
18
330
194
100
AcDbMlineStyle
2
Standard
70
0
3

62
256
51
90
52
90
71
2
49
-0.5
62
256
6
ByLayer
49
0.5
62
256
6
ByLayer
0
RASTERVARIABLES
5
180
330

100
AcDbRasterVariables
90
0
70
1
71
1
72
1
0
ENDSEC
0
EOF
