0
SECTION
2
HEADER
9
$ACADVER
1
AC1015
9
$DWGCODEPAGE
3
ANSI_1252
9
$HANDSEED
5
1aa
9
$ANGBASE
50
0
9
$ANGDIR
70
0
9
$ATTMODE
70
1
9
$AUNITS
70
0
9
$AUPREC
70
0
9
$CECOLOR
62
256
9
$CELTSCALE
40
1
9
$CELTYPE
6
ByLayer
9
$CELWEIGHT
370
18
9
$CLAYER
8
0
9
$CMLJUST
70
0
9
$CMLSCALE
40
1
9
$CMLSTYLE
2
Standard
9
$DIMSTYLE
2
Standard
9
$TEXTSIZE
40
0.2
9
$TEXTSTYLE
7
Standard
9
$LUNITS
70
2
9
$LUPREC
70
4
9
$EXTNAMES
290
1
9
$INSUNITS
70
4
9
$LTSCALE
40
1
9
$LWDISPLAY
290
1
9
$PDMODE
70
0
9
$PDSIZE
40
0
9
$PLINEGEN
70
0
0
ENDSEC
0
SECTION
2
CLASSES
0
CLASS
1
RASTERVARIABLES
2
AcDbRasterVariables
3
ISM
90
0
280
0
281
0
0
ENDSEC
0
SECTION
2
TABLES
0
TABLE
2
VPORT
5
1a0
100
AcDbSymbolTable
0
VPORT
5
1
100
AcDbSymbolTableRecord
100
AcDbViewportTableRecord
2
*Active
70
0
10
0
20
0
11
1
21
1
12
-1
22
1
13
0
23
0
14
0.5
24
0.5
15
10
25
10
16
0
26
0
36
1
17
0
27
0
37
0
0
ENDTAB
0
TABLE
2
LTYPE
5
1a1
100
AcDbSymbolTable
0
LTYPE
5
14
100
AcDbSymbolTableRecord
100
AcDbLinetypeTableRecord
70
0
2
ByBlock
3

72
65
73
0
40
0
0
LTYPE
5
15
100
AcDbSymbolTableRecord
100
AcDbLinetypeTableRecord
70
0
2
ByLayer
3

72
65
73
0
40
0
0
LTYPE
5
16
100
AcDbSymbolTableRecord
100
AcDbLinetypeTableRecord
70
0
2
CONTINUOUS
3
Solid line
72
65
73
0
40
0
0
LTYPE
5
6A
100
AcDbSymbolTableRecord
100
AcDbLinetypeTableRecord
70
0
2
CENTER
3
____ _ ____ _ ____ _ ____
72
65
73
4
40
47.5
49
22
74
0
49
-8.5
74
0
49
8.5
74
0
49
-8.5
74
0
0
LTYPE
5
6B
100
AcDbSymbolTableRecord
100
AcDbLinetypeTableRecord
70
0
2
DASHED
3
__ __ __ __ __ __ __ __ __
72
65
73
2
40
25.72
49
12.86
74
0
49
-12.86
74
0
0
ENDTAB
0
TABLE
2
LAYER
5
1a2
100
AcDbSymbolTable
0
LAYER
5
10
100
AcDbSymbolTableRecord
100
AcDbLayerTableRecord
2
0
70
0
62
7
6
CONTINUOUS
290
1
370
-3
390
0
0
LAYER
5
6D
100
AcDbSymbolTableRecord
100
AcDbLayerTableRecord
2
81
70
0
62
-3
6
CONTINUOUS
290
1
370
-3
390
0
0
LAYER
5
6F
100
AcDbSymbolTableRecord
100
AcDbLayerTableRecord
2
80
70
0
62
-6
6
CONTINUOUS
290
1
370
-3
390
0
0
LAYER
5
74
100
AcDbSymbolTableRecord
100
AcDbLayerTableRecord
2
2
70
0
62
7
6
CONTINUOUS
290
1
370
-3
390
0
0
LAYER
5
78
100
AcDbSymbolTableRecord
100
AcDbLayerTableRecord
2
1
70
0
62
4
6
CONTINUOUS
290
1
370
-3
390
0
0
LAYER
5
8A
100
AcDbSymbolTableRecord
100
AcDbLayerTableRecord
2
4
70
0
62
-2
6
CENTER
290
1
370
-3
390
0
0
LAYER
5
18c
100
AcDbSymbolTableRecord
100
AcDbLayerTableRecord
2
SK2
70
0
62
7
6
CONTINUOUS
290
1
370
-3
390
0
0
LAYER
5
18d
100
AcDbSymbolTableRecord
100
AcDbLayerTableRecord
2
SK1
70
0
62
4
6
CONTINUOUS
290
1
370
-3
390
0
0
LAYER
5
18e
100
AcDbSymbolTableRecord
100
AcDbLayerTableRecord
2
SK4
70
0
62
2
6
CENTER
290
1
370
-3
390
0
0
LAYER
5
18f
100
AcDbSymbolTableRecord
100
AcDbLayerTableRecord
2
SK6
70
0
62
5
6
CONTINUOUS
290
1
370
-3
390
0
0
ENDTAB
0
TABLE
2
STYLE
5
1a3
100
AcDbSymbolTable
0
STYLE
5
11
100
AcDbSymbolTableRecord
100
AcDbTextStyleTableRecord
2
Standard
3
txt
70
0
71
0
40
0
41
1
42
0
50
0
0
STYLE
5
E8
100
AcDbSymbolTableRecord
100
AcDbTextStyleTableRecord
2
iso_b_vert
3
simplex.shx
70
0
71
0
40
0
41
1
42
0
50
0
0
STYLE
5
E9
100
AcDbSymbolTableRecord
100
AcDbTextStyleTableRecord
2
DWGDirectTextStyle
3
simplex
70
0
71
0
40
0
41
1
42
0
50
0
0
ENDTAB
0
TABLE
2
DIMSTYLE
5
1a4
100
AcDbSymbolTable
100
AcDbDimStyleTable
0
DIMSTYLE
105
27
100
AcDbSymbolTableRecord
100
AcDbDimStyleTableRecord
2
Standard
70
0
3
<>
41
0.18
42
0.0625
44
0.18
140
0.18
147
0.09
73
0
74
0
77
1
271
2
275
0
278
52
280
0
340
11
0
ENDTAB
0
TABLE
2
VIEW
5
1a5
100
AcDbSymbolTable
0
ENDTAB
0
TABLE
2
UCS
5
1a6
100
AcDbSymbolTable
0
ENDTAB
0
TABLE
2
APPID
5
1a7
100
AcDbSymbolTable
0
APPID
5
12
100
AcDbSymbolTableRecord
100
AcDbRegAppTableRecord
2
ACAD
70
0
0
ENDTAB
0
TABLE
2
BLOCK_RECORD
5
1a8
100
AcDbSymbolTable
0
BLOCK_RECORD
5
1F
100
AcDbSymbolTableRecord
100
AcDbBlockTableRecord
2
*Model_Space
340
0
70
0
0
BLOCK_RECORD
5
1B
100
AcDbSymbolTableRecord
100
AcDbBlockTableRecord
2
*Paper_Space
340
0
70
0
0
BLOCK_RECORD
5
23
100
AcDbSymbolTableRecord
100
AcDbBlockTableRecord
2
*Paper_Space0
340
0
70
0
0
BLOCK_RECORD
5
EB
100
AcDbSymbolTableRecord
100
AcDbBlockTableRecord
2
DimnDraft3D1
340
0
70
0
0
BLOCK_RECORD
5
F5
100
AcDbSymbolTableRecord
100
AcDbBlockTableRecord
2
DimnDraft3D2
340
0
70
0
0
BLOCK_RECORD
5
FF
100
AcDbSymbolTableRecord
100
AcDbBlockTableRecord
2
DimnDraft3D3
340
0
70
0
0
BLOCK_RECORD
5
109
100
AcDbSymbolTableRecord
100
AcDbBlockTableRecord
2
DimnDraft3D4
340
0
70
0
0
BLOCK_RECORD
5
113
100
AcDbSymbolTableRecord
100
AcDbBlockTableRecord
2
DimnDraft3D5
340
0
70
0
0
BLOCK_RECORD
5
11D
100
AcDbSymbolTableRecord
100
AcDbBlockTableRecord
2
DimnDraft3D6
340
0
70
0
0
BLOCK_RECORD
5
128
100
AcDbSymbolTableRecord
100
AcDbBlockTableRecord
2
DimnDraft3D7
340
0
70
0
0
ENDTAB
0
ENDSEC
0
SECTION
2
BLOCKS
0
BLOCK
5
20
100
AcDbEntity
8
0
100
AcDbBlockBegin
2
*Model_Space
70
0
10
0
20
0
30
0
3
*Model_Space
0
ENDBLK
5
21
100
AcDbEntity
8
0
100
AcDbBlockEnd
0
BLOCK
5
1C
100
AcDbEntity
8
0
100
AcDbBlockBegin
2
*Paper_Space
70
0
10
0
20
0
30
0
3
*Paper_Space
0
ENDBLK
5
1D
100
AcDbEntity
8
0
100
AcDbBlockEnd
0
BLOCK
5
24
100
AcDbEntity
8
0
100
AcDbBlockBegin
2
*Paper_Space0
70
0
10
0
20
0
30
0
3
*Paper_Space0
0
ENDBLK
5
25
100
AcDbEntity
8
0
100
AcDbBlockEnd
0
BLOCK
5
F2
100
AcDbEntity
8
0
100
AcDbBlockBegin
2
DimnDraft3D1
70
0
10
0
20
0
30
0
3
DimnDraft3D1
0
MTEXT
5
EC
100
AcDbEntity
8
SK2
62
256
6
ByLayer
370
13
48
1
60
0
100
AcDbMText
10
17.360364
20
-11.719398
30
0
210
0
220
0
230
1
1
\W0.7494;45,31
40
3.5
41
0
44
1.084337
50
0
71
7
72
5
7
iso_b_vert
0
LINE
5
ED
100
AcDbEntity
8
SK2
62
256
6
ByLayer
370
13
48
1
60
0
100
AcDbLine
10
0
20
-1.5875
30
0
11
0
21
-14.594398
31
0
39
0
210
0
220
0
230
1
0
LINE
5
EE
100
AcDbEntity
8
SK2
62
256
6
ByLayer
370
13
48
1
60
0
100
AcDbLine
10
45.3057
20
-3.9685
30
0
11
45.3057
21
-14.594398
31
0
39
0
210
0
220
0
230
1
0
LINE
5
EF
100
AcDbEntity
8
SK2
62
256
6
ByLayer
370
13
48
1
60
0
100
AcDbLine
10
0
20
-12.594398
30
0
11
45.3057
21
-12.594398
31
0
39
0
210
0
220
0
230
1
0
SOLID
5
F0
100
AcDbEntity
8
SK2
62
256
6
ByLayer
370
13
48
1
60
0
100
AcDbTrace
10
0
20
-12.594398
30
0
11
3.499998
21
-12.133615
31
0
12
3.500002
22
-13.055182
32
0
13
0
23
-12.594398
33
0
39
0
210
0
220
0
230
1
0
SOLID
5
F1
100
AcDbEntity
8
SK2
62
256
6
ByLayer
370
13
48
1
60
0
100
AcDbTrace
10
45.3057
20
-12.594398
30
0
11
41.805702
21
-13.055182
31
0
12
41.805698
22
-12.133615
32
0
13
45.3057
23
-12.594398
33
0
39
0
210
0
220
0
230
1
0
ENDBLK
5
F3
100
AcDbEntity
8
0
100
AcDbBlockEnd
0
BLOCK
5
FC
100
AcDbEntity
8
0
100
AcDbBlockBegin
2
DimnDraft3D2
70
0
10
0
20
0
30
0
3
DimnDraft3D2
0
MTEXT
5
F6
100
AcDbEntity
8
SK2
62
256
6
ByLayer
370
13
48
1
60
0
100
AcDbMText
10
1.198316
20
-30.817985
30
0
210
0
220
0
230
1
1
\W0.7317;82,00
40
3.5
41
0
44
1.084337
50
0
71
7
72
5
7
iso_b_vert
0
LINE
5
F7
100
AcDbEntity
8
SK2
62
256
6
ByLayer
370
13
48
1
60
0
100
AcDbLine
10
-36
20
-4.5875
30
0
11
-36
21
-33.692985
31
0
39
0
210
0
220
0
230
1
0
LINE
5
F8
100
AcDbEntity
8
SK2
62
256
6
ByLayer
370
13
48
1
60
0
100
AcDbLine
10
46
20
-1.5875
30
0
11
46
21
-33.692985
31
0
39
0
210
0
220
0
230
1
0
LINE
5
F9
100
AcDbEntity
8
SK2
62
256
6
ByLayer
370
13
48
1
60
0
100
AcDbLine
10
-36
20
-31.692985
30
0
11
46
21
-31.692985
31
0
39
0
210
0
220
0
230
1
0
SOLID
5
FA
100
AcDbEntity
8
SK2
62
256
6
ByLayer
370
13
48
1
60
0
100
AcDbTrace
10
-36
20
-31.692985
30
0
11
-32.500002
21
-31.232202
31
0
12
-32.499998
22
-32.153769
32
0
13
-36
23
-31.692985
33
0
39
0
210
0
220
0
230
1
0
SOLID
5
FB
100
AcDbEntity
8
SK2
62
256
6
ByLayer
370
13
48
1
60
0
100
AcDbTrace
10
46
20
-31.692985
30
0
11
42.500002
21
-32.153769
31
0
12
42.499998
22
-31.232202
32
0
13
46
23
-31.692985
33
0
39
0
210
0
220
0
230
1
0
ENDBLK
5
FD
100
AcDbEntity
8
0
100
AcDbBlockEnd
0
BLOCK
5
106
100
AcDbEntity
8
0
100
AcDbBlockBegin
2
DimnDraft3D3
70
0
10
0
20
0
30
0
3
DimnDraft3D3
0
MTEXT
5
100
100
AcDbEntity
8
SK2
62
256
6
ByLayer
370
13
48
1
60
0
100
AcDbMText
10
28.937895
20
14.865119
30
0
210
0
220
0
230
1
1
\W0.7936;24,49
40
3.5
41
0
44
1.084337
50
0
71
7
72
5
7
iso_b_vert
0
LINE
5
101
100
AcDbEntity
8
SK2
62
256
6
ByLayer
370
13
48
1
60
0
100
AcDbLine
10
21.51
20
3.9685
30
0
11
21.51
21
15.990119
31
0
39
0
210
0
220
0
230
1
0
LINE
5
102
100
AcDbEntity
8
SK2
62
256
6
ByLayer
370
13
48
1
60
0
100
AcDbLine
10
46
20
1.5875
30
0
11
46
21
15.990119
31
0
39
0
210
0
220
0
230
1
0
LINE
5
103
100
AcDbEntity
8
SK2
62
256
6
ByLayer
370
13
48
1
60
0
100
AcDbLine
10
21.51
20
13.990119
30
0
11
46
21
13.990119
31
0
39
0
210
0
220
0
230
1
0
SOLID
5
104
100
AcDbEntity
8
SK2
62
256
6
ByLayer
370
13
48
1
60
0
100
AcDbTrace
10
21.51
20
13.990119
30
0
11
25.009998
21
14.450903
31
0
12
25.010002
22
13.529335
32
0
13
21.51
23
13.990119
33
0
39
0
210
0
220
0
230
1
0
SOLID
5
105
100
AcDbEntity
8
SK2
62
256
6
ByLayer
370
13
48
1
60
0
100
AcDbTrace
10
46
20
13.990119
30
0
11
42.500002
21
13.529335
31
0
12
42.499998
22
14.450903
32
0
13
46
23
13.990119
33
0
39
0
210
0
220
0
230
1
0
ENDBLK
5
107
100
AcDbEntity
8
0
100
AcDbBlockEnd
0
BLOCK
5
110
100
AcDbEntity
8
0
100
AcDbBlockBegin
2
DimnDraft3D4
70
0
10
0
20
0
30
0
3
DimnDraft3D4
0
MTEXT
5
10A
100
AcDbEntity
8
SK2
62
256
6
ByLayer
370
13
48
1
60
0
100
AcDbMText
10
52.840636
20
-14.308503
30
0
210
0
220
0
230
1
1
\W0.7259;0,69
40
3.5
41
0
44
1.084337
50
0
71
7
72
5
7
iso_b_vert
0
LINE
5
10B
100
AcDbEntity
8
SK2
62
256
6
ByLayer
370
13
48
1
60
0
100
AcDbLine
10
46
20
-1.5875
30
0
11
46
21
-17.183503
31
0
39
0
210
0
220
0
230
1
0
LINE
5
10C
100
AcDbEntity
8
SK2
62
256
6
ByLayer
370
13
48
1
60
0
100
AcDbLine
10
45.3057
20
-3.9685
30
0
11
45.3057
21
-17.183503
31
0
39
0
210
0
220
0
230
1
0
LINE
5
10D
100
AcDbEntity
8
SK2
62
256
6
ByLayer
370
13
48
1
60
0
100
AcDbLine
10
36.5557
20
-15.183503
30
0
11
59.997215
21
-15.183503
31
0
39
0
210
0
220
0
230
1
0
SOLID
5
10E
100
AcDbEntity
8
SK2
62
256
6
ByLayer
370
13
48
1
60
0
100
AcDbTrace
10
46
20
-15.183503
30
0
11
49.499998
21
-14.722719
31
0
12
49.500002
22
-15.644287
32
0
13
46
23
-15.183503
33
0
39
0
210
0
220
0
230
1
0
SOLID
5
10F
100
AcDbEntity
8
SK2
62
256
6
ByLayer
370
13
48
1
60
0
100
AcDbTrace
10
45.3057
20
-15.183503
30
0
11
41.805702
21
-15.644287
31
0
12
41.805698
22
-14.722719
32
0
13
45.3057
23
-15.183503
33
0
39
0
210
0
220
0
230
1
0
ENDBLK
5
111
100
AcDbEntity
8
0
100
AcDbBlockEnd
0
BLOCK
5
11A
100
AcDbEntity
8
0
100
AcDbBlockBegin
2
DimnDraft3D5
70
0
10
0
20
0
30
0
3
DimnDraft3D5
0
MTEXT
5
114
100
AcDbEntity
8
SK2
62
256
6
ByLayer
370
13
48
1
60
0
100
AcDbMText
10
-1.007308
20
-20.468428
30
0
210
0
220
0
230
1
1
\W0.6563;81,31
40
3.5
41
0
44
1.084337
50
0
71
7
72
5
7
iso_b_vert
0
LINE
5
115
100
AcDbEntity
8
SK2
62
256
6
ByLayer
370
13
48
1
60
0
100
AcDbLine
10
-36
20
-4.5875
30
0
11
-36
21
-23.343428
31
0
39
0
210
0
220
0
230
1
0
LINE
5
116
100
AcDbEntity
8
SK2
62
256
6
ByLayer
370
13
48
1
60
0
100
AcDbLine
10
45.3057
20
-3.9685
30
0
11
45.3057
21
-23.343428
31
0
39
0
210
0
220
0
230
1
0
LINE
5
117
100
AcDbEntity
8
SK2
62
256
6
ByLayer
370
13
48
1
60
0
100
AcDbLine
10
-36
20
-21.343428
30
0
11
45.3057
21
-21.343428
31
0
39
0
210
0
220
0
230
1
0
SOLID
5
118
100
AcDbEntity
8
SK2
62
256
6
ByLayer
370
13
48
1
60
0
100
AcDbTrace
10
-36
20
-21.343428
30
0
11
-32.500002
21
-20.882645
31
0
12
-32.499998
22
-21.804212
32
0
13
-36
23
-21.343428
33
0
39
0
210
0
220
0
230
1
0
SOLID
5
119
100
AcDbEntity
8
SK2
62
256
6
ByLayer
370
13
48
1
60
0
100
AcDbTrace
10
45.3057
20
-21.343428
30
0
11
41.805702
21
-21.804212
31
0
12
41.805698
22
-20.882645
32
0
13
45.3057
23
-21.343428
33
0
39
0
210
0
220
0
230
1
0
ENDBLK
5
11B
100
AcDbEntity
8
0
100
AcDbBlockEnd
0
BLOCK
5
125
100
AcDbEntity
8
0
100
AcDbBlockBegin
2
DimnDraft3D6
70
0
10
0
20
0
30
0
3
DimnDraft3D6
0
MTEXT
5
11E
100
AcDbEntity
8
SK2
62
256
6
ByLayer
370
13
48
1
60
0
100
AcDbMText
10
-46.375163
20
22.34918
30
0
210
0
220
0
230
1
1
\W0.7317;6,000
40
3.5
41
0
44
1.084337
50
90
71
7
72
5
7
iso_b_vert
0
MTEXT
5
11F
100
AcDbEntity
8
SK2
62
256
6
ByLayer
370
13
48
1
60
0
100
AcDbMText
10
-46.375163
20
17.126524
30
0
210
0
220
0
230
1
1
%%c
40
3.5
41
0
44
1.084337
50
90
71
7
72
5
7
iso_b_vert
0
LINE
5
120
100
AcDbEntity
8
SK2
62
256
6
ByLayer
370
13
48
1
60
0
100
AcDbLine
10
-37.5875
20
-3
30
0
11
-46.625163
21
-3
31
0
39
0
210
0
220
0
230
1
0
LINE
5
121
100
AcDbEntity
8
SK2
62
256
6
ByLayer
370
13
48
1
60
0
100
AcDbLine
10
-37.5875
20
3
30
0
11
-46.625163
21
3
31
0
39
0
210
0
220
0
230
1
0
LINE
5
122
100
AcDbEntity
8
SK2
62
256
6
ByLayer
370
13
48
1
60
0
100
AcDbLine
10
-44.625163
20
32.121549
30
0
11
-44.625163
21
-11.75
31
0
39
0
210
0
220
0
230
1
0
SOLID
5
123
100
AcDbEntity
8
SK2
62
256
6
ByLayer
370
13
48
1
60
0
100
AcDbTrace
10
-44.625163
20
-3
30
0
11
-44.164379
21
-6.499998
31
0
12
-45.085946
22
-6.500002
32
0
13
-44.625163
23
-3
33
0
39
0
210
0
220
0
230
1
0
SOLID
5
124
100
AcDbEntity
8
SK2
62
256
6
ByLayer
370
13
48
1
60
0
100
AcDbTrace
10
-44.625163
20
3
30
0
11
-45.085946
21
6.499998
31
0
12
-44.164379
22
6.500002
32
0
13
-44.625163
23
3
33
0
39
0
210
0
220
0
230
1
0
ENDBLK
5
126
100
AcDbEntity
8
0
100
AcDbBlockEnd
0
BLOCK
5
130
100
AcDbEntity
8
0
100
AcDbBlockBegin
2
DimnDraft3D7
70
0
10
0
20
0
30
0
3
DimnDraft3D7
0
MTEXT
5
129
100
AcDbEntity
8
2
62
256
6
ByLayer
370
13
48
1
60
0
100
AcDbMText
10
56.333343
20
20.323266
30
0
210
0
220
0
230
1
1
\W0.7581;4,762
40
3.5
41
0
44
1.084337
50
90
71
7
72
5
7
iso_b_vert
0
MTEXT
5
12A
100
AcDbEntity
8
2
62
256
6
ByLayer
370
13
48
1
60
0
100
AcDbMText
10
56.333343
20
15.10061
30
0
210
0
220
0
230
1
1
%%c
40
3.5
41
0
44
1.084337
50
90
71
7
72
5
7
iso_b_vert
0
LINE
5
12B
100
AcDbEntity
8
2
62
256
6
ByLayer
370
13
48
1
60
0
100
AcDbLine
10
46.8932
20
-2.381
30
0
11
60.083343
21
-2.381
31
0
39
0
210
0
220
0
230
1
0
LINE
5
12C
100
AcDbEntity
8
2
62
256
6
ByLayer
370
13
48
1
60
0
100
AcDbLine
10
46.8932
20
2.381
30
0
11
60.083343
21
2.381
31
0
39
0
210
0
220
0
230
1
0
LINE
5
12D
100
AcDbEntity
8
2
62
256
6
ByLayer
370
13
48
1
60
0
100
AcDbLine
10
58.083343
20
30.464056
30
0
11
58.083343
21
-11.131
31
0
39
0
210
0
220
0
230
1
0
SOLID
5
12E
100
AcDbEntity
8
2
62
256
6
ByLayer
370
13
48
1
60
0
100
AcDbTrace
10
58.083343
20
-2.381
30
0
11
58.544126
21
-5.880998
31
0
12
57.622559
22
-5.881002
32
0
13
58.083343
23
-2.381
33
0
39
0
210
0
220
0
230
1
0
SOLID
5
12F
100
AcDbEntity
8
2
62
256
6
ByLayer
370
13
48
1
60
0
100
AcDbTrace
10
58.083343
20
2.381
30
0
11
57.622559
21
5.880998
31
0
12
58.544126
22
5.881002
32
0
13
58.083343
23
2.381
33
0
39
0
210
0
220
0
230
1
0
ENDBLK
5
131
100
AcDbEntity
8
0
100
AcDbBlockEnd
0
ENDSEC
0
SECTION
2
ENTITIES
0
ELLIPSE
5
97
100
AcDbEntity
8
1
62
256
6
ByLayer
370
18
48
1
60
0
100
AcDbEllipse
10
3.567709
20
2.487749
30
0
11
0.25
21
0
31
0
210
0
220
0
230
1
40
1
41
-2.49790926794407
42
-1.56178685734078
0
ELLIPSE
5
98
100
AcDbEntity
8
1
62
256
6
ByLayer
370
18
48
1
60
0
100
AcDbEllipse
10
3.567709
20
-2.487749
30
0
11
0.25
21
0
31
0
210
0
220
0
230
1
40
1
41
1.56578866388389
42
2.49398080879263
0
ELLIPSE
5
99
100
AcDbEntity
8
1
62
256
6
ByLayer
370
13
48
1
60
0
100
AcDbEllipse
10
3.505988
20
0.270454
30
0
11
0.0435010212502389
21
0.0900425518862402
31
0
210
0
220
0
230
1
40
0.337997
41
1.84711364047792
42
-3.10854554197031
0
ELLIPSE
5
9A
100
AcDbEntity
8
1
62
256
6
ByLayer
370
13
48
1
60
0
100
AcDbEllipse
10
3.567977
20
0.241769
30
0
11
0.0407767941838705
21
0.0913085595992307
31
0
210
0
220
0
230
1
40
0.043692
41
3.08337865625151
42
-1.66396577253744
0
POINT
5
6C
100
AcDbEntity
8
81
62
256
6
ByLayer
370
18
48
1
60
0
100
AcDbPoint
10
46
20
0
30
0
39
0
210
0
220
0
230
1
50
360
0
POINT
5
6E
100
AcDbEntity
8
80
62
256
6
ByLayer
370
18
48
1
60
0
100
AcDbPoint
10
0
20
0
30
0
39
0
210
0
220
0
230
1
50
360
0
POINT
5
70
100
AcDbEntity
8
SK2
62
256
6
ByLayer
370
18
48
1
60
1
100
AcDbPoint
10
-36
20
-3
30
0
39
0
210
0
220
0
230
1
50
360
0
POINT
5
72
100
AcDbEntity
8
SK2
62
256
6
ByLayer
370
18
48
1
60
1
100
AcDbPoint
10
-36
20
3
30
0
39
0
210
0
220
0
230
1
50
360
0
POINT
5
73
100
AcDbEntity
8
2
62
256
6
ByLayer
370
18
48
1
60
1
100
AcDbPoint
10
45.3057
20
-2.381
30
0
39
0
210
0
220
0
230
1
50
360
0
POINT
5
75
100
AcDbEntity
8
2
62
256
6
ByLayer
370
18
48
1
60
1
100
AcDbPoint
10
45.3057
20
2.381
30
0
39
0
210
0
220
0
230
1
50
360
0
SPLINE
5
9B
100
AcDbEntity
8
1
62
256
6
ByLayer
370
18
48
1
60
0
100
AcDbSpline
70
4
71
2
72
6
73
3
40
0
40
0
40
0
40
1
40
1
40
1
41
1
10
3.99787199214683
20
2.23910666672643
30
0
41
1
10
3.78262424660329
20
2.24010202240609
30
0
41
1
10
3.56948887635588
20
2.23089703375908
30
0
0
SPLINE
5
9C
100
AcDbEntity
8
1
62
256
6
ByLayer
370
18
48
1
60
0
100
AcDbSpline
70
4
71
3
72
22
73
18
40
0
40
0
40
0
40
0
40
0.0864433317978684
40
0.167392718166801
40
0.243224805705191
40
0.30885612856864
40
0.35832968496721
40
0.394175392535032
40
0.44065391603463
40
0.504102662437143
40
0.586077739194819
40
0.655341062437045
40
0.71242868418128
40
0.774883846515085
40
0.848786718541524
40
0.936133514484912
40
1
40
1
40
1
40
1
41
1
10
12.2363287696813
20
-2.24128788998789
30
0
41
1
10
12.4640035205421
20
-2.24122254964661
30
0
41
1
10
12.9054339683407
20
-2.24127101335583
30
0
41
1
10
13.5495092020085
20
-2.24099491299256
30
0
41
1
10
14.1378199602714
20
-2.24264986437291
30
0
41
1
10
14.6399608595654
20
-2.24356587556591
30
0
41
1
10
15.0393651992754
20
-2.24400881177971
30
0
41
1
10
15.3881611045223
20
-2.24398470240433
30
0
41
1
10
15.7739196572155
20
-2.24388836533504
30
0
41
1
10
16.2818954965832
20
-2.24603382395378
30
0
41
1
10
16.8501582854688
20
-2.24392111701653
30
0
41
1
10
17.4015586532836
20
-2.24697185490672
30
0
41
1
10
17.9011968570015
20
-2.24561932503497
30
0
41
1
10
18.4135616487492
20
-2.24603935499022
30
0
41
1
10
18.9925714432515
20
-2.24381808672209
30
0
41
1
10
19.5950740190867
20
-2.24142030465728
30
0
41
1
10
19.9889172563203
20
-2.24405964819917
30
0
41
1
10
20.1548487098175
20
-2.24564827189704
30
0
0
SPLINE
5
9D
100
AcDbEntity
8
1
62
256
6
ByLayer
370
18
48
1
60
0
100
AcDbSpline
70
4
71
1
72
4
73
2
40
0
40
0
40
1
40
1
41
1
10
44.8884771873403
20
-2.26163014543556
30
0
41
1
10
45.1839850376587
20
-2.25846215286114
30
0
0
SPLINE
5
9E
100
AcDbEntity
8
1
62
256
6
ByLayer
370
18
48
1
60
0
100
AcDbSpline
70
4
71
2
72
6
73
3
40
0
40
0
40
0
40
1
40
1
40
1
41
1
10
3.56948887635582
20
-2.23089703375601
30
0
41
1
10
3.68344769048912
20
-2.23583407376697
30
0
41
1
10
3.79802104325518
20
-2.23780359864543
30
0
0
SPLINE
5
9F
100
AcDbEntity
8
1
62
256
6
ByLayer
370
18
48
1
60
0
100
AcDbSpline
70
4
71
2
72
6
73
3
40
0
40
0
40
0
40
1
40
1
40
1
41
1
10
3.86752814124964
20
-2.23872486542635
30
0
41
1
10
3.92890558047702
20
-2.23929720248273
30
0
41
1
10
3.99045880745007
20
-2.2390206868105
30
0
0
SPLINE
5
A0
100
AcDbEntity
8
1
62
256
6
ByLayer
370
18
48
1
60
0
100
AcDbSpline
70
4
71
3
72
20
73
16
40
0
40
0
40
0
40
0
40
0.0996676204154827
40
0.192349175208401
40
0.2733464366934
40
0.34075709924398
40
0.419634666456907
40
0.515213792612128
40
0.584584643206427
40
0.631869960654149
40
0.677690277196074
40
0.744216065645061
40
0.830128421714304
40
0.931268739666723
40
1
40
1
40
1
40
1
41
1
10
28.5901929477733
20
-2.25161578173055
30
0
41
1
10
28.8465884572188
20
-2.24909229018462
30
0
41
1
10
29.3434853141142
20
-2.24611869938099
30
0
41
1
10
30.0642935691634
20
-2.25169078469168
30
0
41
1
10
30.6897483145331
20
-2.2531505005677
30
0
41
1
10
31.2893965466046
20
-2.25276606282256
30
0
41
1
10
31.9248926738145
20
-2.25406283644318
30
0
41
1
10
32.5663070133079
20
-2.25316304379766
30
0
41
1
10
33.1246360152248
20
-2.25467019323338
30
0
41
1
10
33.551349176379
20
-2.25346841570041
30
0
41
1
10
33.971699492995
20
-2.25446300590787
30
0
41
1
10
34.4906201834578
20
-2.25575956385916
30
0
41
1
10
35.1541976401683
20
-2.2520872640718
30
0
41
1
10
35.8286280788982
20
-2.25298885229526
30
0
41
1
10
36.273653164642
20
-2.25473216529326
30
0
41
1
10
36.453605375047
20
-2.25572468006371
30
0
0
SPLINE
5
A1
100
AcDbEntity
8
1
62
256
6
ByLayer
370
18
48
1
60
0
100
AcDbSpline
70
4
71
3
72
20
73
16
40
0
40
0
40
0
40
0
40
0.0774605767426225
40
0.183515444554965
40
0.273246948053228
40
0.349078853685488
40
0.418393590579646
40
0.502491839556727
40
0.602024465084773
40
0.688384164156677
40
0.747846336997137
40
0.802358840943855
40
0.882203847551865
40
0.9839337426993
40
1
40
1
40
1
40
1
41
1
10
20.1543004761108
20
2.2456449204555
30
0
41
1
10
19.9885501762129
20
2.24405839620889
30
0
41
1
10
19.5948885606685
20
2.24142026025706
30
0
41
1
10
18.992570972447
20
2.24381837289721
30
0
41
1
10
18.4135618197264
20
2.24603905351009
30
0
41
1
10
17.9011965985497
20
2.24562011667132
30
0
41
1
10
17.40155954016
20
2.24696895727533
30
0
41
1
10
16.8501538695582
20
2.24393563065189
30
0
41
1
10
16.2615933088391
20
2.24604817789171
30
0
41
1
10
15.7266214036006
20
2.24379469849706
30
0
41
1
10
15.2901780702925
20
2.2439954556254
30
0
41
1
10
14.8673115277672
20
2.24401089758501
30
0
41
1
10
14.3543749458653
20
2.24305166330819
30
0
41
1
10
13.9255206365511
20
2.24191774862135
30
0
41
1
10
13.6689670436179
20
2.24155620074833
30
0
41
1
10
13.6339625778651
20
2.24151206962105
30
0
0
SPLINE
5
A2
100
AcDbEntity
8
1
62
256
6
ByLayer
370
18
48
1
60
0
100
AcDbSpline
70
4
71
3
72
20
73
16
40
0
40
0
40
0
40
0
40
0.0677932569326722
40
0.179294291504344
40
0.27663094446174
40
0.357717964049718
40
0.419277623728742
40
0.463367945775201
40
0.518493138317771
40
0.594335037890666
40
0.711427205798454
40
0.808058611794708
40
0.890642131185206
40
0.989870334281701
40
1
40
1
40
1
40
1
41
1
10
36.4562768771841
20
2.25561911778837
30
0
41
1
10
36.3114065065238
20
2.25478449822012
30
0
41
1
10
35.9279250004175
20
2.25305232640082
30
0
41
1
10
35.3336857871386
20
2.25280759358023
30
0
41
1
10
34.711522158036
20
2.25395832976463
30
0
41
1
10
34.2004856688812
20
2.2559011211556
30
0
41
1
10
33.799923928033
20
2.25354047538713
30
0
41
1
10
33.4548124913683
20
2.25386948944731
30
0
41
1
10
33.0792817408024
20
2.25457049526568
30
0
41
1
10
32.5467075350915
20
2.25317053978765
30
0
41
1
10
31.9248841506062
20
2.25406797761701
30
0
41
1
10
31.2893982918629
20
2.25276501008986
30
0
41
1
10
30.6897477807266
20
2.25315082255952
30
0
41
1
10
30.2832848174423
20
2.25220191953883
30
0
41
1
10
30.0497452075202
20
2.25100392914018
30
0
41
1
10
30.0280991556196
20
2.2508889606232
30
0
0
SPLINE
5
A3
100
AcDbEntity
8
1
62
256
6
ByLayer
370
18
48
1
60
0
100
AcDbSpline
70
4
71
3
72
12
73
8
40
0
40
0
40
0
40
0
40
0.727669671660655
40
0.727669671660655
40
0.909587089575819
40
0.909587089575819
40
1
40
1
40
1
40
1
41
1
10
45.2417897487743
20
-2.25907440583046
30
0
41
1
10
44.3698709801648
20
-2.27770728597224
30
0
41
1
10
43.5064040026588
20
-2.19981186426062
30
0
41
1
10
42.4178146043964
20
-1.99326848997862
30
0
41
1
10
42.1991188354128
20
-1.94641420490876
30
0
41
1
10
41.8723369745139
20
-1.86888665916644
30
0
41
1
10
41.764056889055
20
-1.84196223263723
30
0
41
1
10
41.6559546703106
20
-1.81391223449086
30
0
0
SPLINE
5
A4
100
AcDbEntity
8
1
62
256
6
ByLayer
370
13
48
1
60
0
100
AcDbSpline
70
4
71
3
72
24
73
20
40
0
40
0
40
0
40
0
40
0.0370370517225584
40
0.0370370517225584
40
0.184301600450175
40
0.184301600450175
40
0.331566149177791
40
0.331566149177791
40
0.4051984235416
40
0.4051984235416
40
0.478830697905408
40
0.478830697905408
40
0.773359795360641
40
0.773359795360641
40
0.920624344088259
40
0.920624344088259
40
0.994256618452067
40
0.994256618452067
40
1
40
1
40
1
40
1
41
1
10
41.6559546613206
20
-1.81391223215817
30
0
41
1
10
41.5465472772795
20
-1.78552357406861
30
0
41
1
10
41.4373220808043
20
-1.7559820012558
30
0
41
1
10
40.8945399029526
20
-1.60355102644394
30
0
41
1
10
40.4632021003636
20
-1.46447480254616
30
0
41
1
10
39.6010973594829
20
-1.15972374453321
30
0
41
1
10
39.1702968638031
20
-0.993993353838192
30
0
41
1
10
38.5215436240148
20
-0.731402265260641
30
0
41
1
10
38.3048544663078
20
-0.641580327584137
30
0
41
1
10
37.8700680000408
20
-0.458541904861562
30
0
41
1
10
37.6514775425354
20
-0.365115811534707
30
0
41
1
10
36.5595618100879
20
0.104996994411494
30
0
41
1
10
35.699780227981
20
0.485884598881171
30
0
41
1
10
34.4059001094035
20
1.00685424462139
30
0
41
1
10
33.9738428367873
20
1.17201389684237
30
0
41
1
10
33.3216935233729
20
1.4004928737011
30
0
41
1
10
33.1031849421531
20
1.47357420635277
30
0
41
1
10
32.867671699382
20
1.54787226052892
30
0
41
1
10
32.8506356626426
20
1.55322135821913
30
0
41
1
10
32.8336044979302
20
1.55854347151214
30
0
0
SPLINE
5
A5
100
AcDbEntity
8
1
62
256
6
ByLayer
370
18
48
1
60
0
100
AcDbSpline
70
4
71
3
72
16
73
12
40
0
40
0
40
0
40
0
40
0.232043500215274
40
0.232043500215274
40
0.580718643374132
40
0.580718643374132
40
0.755056214953565
40
0.755056214953565
40
0.929393786532996
40
0.929393786532996
40
1
40
1
40
1
40
1
41
1
10
12.2569165545907
20
-2.2412951424671
30
0
41
1
10
11.9689067467044
20
-2.24050554128817
30
0
41
1
10
11.6813888668736
20
-2.22941900080988
30
0
41
1
10
10.9615832580631
20
-2.17631936725624
30
0
41
1
10
10.5291486228886
20
-2.12151972864095
30
0
41
1
10
9.87706337122793
20
-2.0065899471399
30
0
41
1
10
9.65912152323565
20
-1.96280951135552
30
0
41
1
10
9.22156234723965
20
-1.86477111901533
30
0
41
1
10
9.00296059052016
20
-1.81072353183166
30
0
41
1
10
8.69716966276965
20
-1.72865874688748
30
0
41
1
10
8.60912658512302
20
-1.70427459783076
30
0
41
1
10
8.52116909529826
20
-1.67919527333964
30
0
0
SPLINE
5
A6
100
AcDbEntity
8
1
62
256
6
ByLayer
370
13
48
1
60
0
100
AcDbSpline
70
4
71
3
72
14
73
10
40
0
40
0
40
0
40
0
40
0.473337922261632
40
0.473337922261632
40
0.605003441696223
40
0.605003441696223
40
0.736668961130814
40
0.736668961130814
40
1
40
1
40
1
40
1
41
1
10
8.52116909527288
20
-1.67919527333237
30
0
41
1
10
7.74040444719208
20
-1.45657580113587
30
0
41
1
10
6.96638362893268
20
-1.17918048908183
30
0
41
1
10
5.97045616578518
20
-0.784477655350855
30
0
41
1
10
5.75329897757678
20
-0.696175273332301
30
0
41
1
10
5.31773496834751
20
-0.515759913892538
30
0
41
1
10
5.09896359458816
20
-0.423560108125969
30
0
41
1
10
4.44236644387866
20
-0.14436183724635
30
0
41
1
10
4.00573231779322
20
0.0445571549118142
30
0
41
1
10
3.56815531156059
20
0.231500165632809
30
0
0
SPLINE
5
A7
100
AcDbEntity
8
1
62
256
6
ByLayer
370
18
48
1
60
0
100
AcDbSpline
70
4
71
3
72
12
73
8
40
0
40
0
40
0
40
0
40
0.499999999999994
40
0.499999999999994
40
0.749999999999997
40
0.749999999999997
40
1
40
1
40
1
40
1
41
1
10
45.820463420176
20
0.658373263015591
30
0
41
1
10
45.8676474411549
20
0.572486242453493
30
0
41
1
10
45.9058829082414
20
0.484881510242531
30
0
41
1
10
45.9497863069479
20
0.350892667242391
30
0
41
1
10
45.9621551186036
20
0.305834838799228
30
0
41
1
10
45.9823133833711
20
0.21633460135601
30
0
41
1
10
45.9901698878151
20
0.171706543548908
30
0
41
1
10
45.9960282093042
20
0.127188220724605
30
0
0
SPLINE
5
A8
100
AcDbEntity
8
1
62
256
6
ByLayer
370
18
48
1
60
0
100
AcDbSpline
70
4
71
3
72
8
73
4
40
0
40
0
40
0
40
0
40
1
40
1
40
1
40
1
41
1
10
3.44084585919893
20
0.192518215762334
30
0
41
1
10
3.44851470095807
20
0.187817512845953
30
0
41
1
10
3.45650366932497
20
0.183492126140607
30
0
41
1
10
3.46484085955717
20
0.179574084282876
30
0
0
SPLINE
5
A9
100
AcDbEntity
8
1
62
256
6
ByLayer
370
18
48
1
60
0
100
AcDbSpline
70
4
71
3
72
10
73
6
40
0
40
0
40
0
40
0
40
0.5
40
0.5
40
1
40
1
40
1
40
1
41
1
10
45.9997941103047
20
0.0288893962435282
30
0
41
1
10
45.9979482159599
20
0.0187053444454364
30
0
41
1
10
45.9951097005248
20
0.0077737325491398
30
0
41
1
10
45.987519669864
20
-0.0131910130743336
30
0
41
1
10
45.9827839518796
20
-0.0230396266429409
30
0
41
1
10
45.9778952232903
20
-0.0307388572502987
30
0
0
SPLINE
5
AA
100
AcDbEntity
8
1
62
256
6
ByLayer
370
18
48
1
60
0
100
AcDbSpline
70
4
71
3
72
24
73
20
40
0
40
0
40
0
40
0
40
0.125
40
0.125
40
0.1875
40
0.1875
40
0.25
40
0.25
40
0.375
40
0.375
40
0.5
40
0.5
40
0.625
40
0.625
40
0.75
40
0.75
40
0.875
40
0.875
40
1
40
1
40
1
40
1
41
1
10
45.5135289602276
20
-0.714602969751553
30
0
41
1
10
45.5201857102437
20
-0.749980496369318
30
0
41
1
10
45.5208740411117
20
-0.793070811232752
30
0
41
1
10
45.5123703620802
20
-0.863186278777846
30
0
41
1
10
45.5079085433316
20
-0.887935272497401
30
0
41
1
10
45.4964652270881
20
-0.937050764921935
30
0
41
1
10
45.4894108718173
20
-0.96188887926877
30
0
41
1
10
45.465056657891
20
-1.03545036753761
30
0
41
1
10
45.4449246760693
20
-1.0822018643816
30
0
41
1
10
45.4014165297701
20
-1.16519414535338
30
0
41
1
10
45.3777917575167
20
-1.20189214481289
30
0
41
1
10
45.3300801550483
20
-1.26237083576782
30
0
41
1
10
45.3056411250546
20
-1.28662258819375
30
0
41
1
10
45.2577429420018
20
-1.3218716080799
30
0
41
1
10
45.2338541429549
20
-1.33316323094152
30
0
41
1
10
45.1882875713211
20
-1.34250733851155
30
0
41
1
10
45.1660012389993
20
-1.34066253577072
30
0
41
1
10
45.1248182698184
20
-1.32389742710996
30
0
41
1
10
45.1055532780248
20
-1.3089971378007
30
0
41
1
10
45.0883900166168
20
-1.28721174243444
30
0
0
SPLINE
5
AB
100
AcDbEntity
8
1
62
256
6
ByLayer
370
13
48
1
60
0
100
AcDbSpline
70
4
71
3
72
8
73
4
40
0
40
0
40
0
40
0
40
1
40
1
40
1
40
1
41
1
10
3.35504018319375
20
0.325114898695773
30
0
41
1
10
3.3799896866486
20
0.297499780135325
30
0
41
1
10
3.41748935206323
20
0.274261651555292
30
0
41
1
10
3.46484085955717
20
0.260034106675391
30
0
0
SPLINE
5
AC
100
AcDbEntity
8
1
62
256
6
ByLayer
370
13
48
1
60
0
100
AcDbSpline
70
4
71
3
72
10
73
6
40
0
40
0
40
0
40
0
40
0.1931726916624
40
0.1931726916624
40
1
40
1
40
1
40
1
41
1
10
3.56947288046905
20
-2.23714089158716
30
0
41
1
10
3.56947409573687
20
-2.23755305501507
30
0
41
1
10
3.5694751848965
20
-2.23775865194466
30
0
41
1
10
3.56948014910918
20
-2.23774333031858
30
0
41
1
10
3.56948189324316
20
-2.23413778710304
30
0
41
1
10
3.56948127966251
20
-2.22703960553923
30
0
0
SPLINE
5
AD
100
AcDbEntity
8
1
62
256
6
ByLayer
370
18
48
1
60
0
100
AcDbSpline
70
4
71
3
72
10
73
6
40
0
40
0
40
0
40
0
40
0.5
40
0.5
40
1
40
1
40
1
40
1
41
1
10
45.9955072142795
20
0.0777252071093528
30
0
41
1
10
45.9953285837469
20
0.0708917580796538
30
0
41
1
10
45.9956657303093
20
0.0631782087828014
30
0
41
1
10
45.9971640817395
20
0.0466095256765016
30
0
41
1
10
45.9983079384051
20
0.0379198413272945
30
0
41
1
10
45.9997941103096
20
0.0288893962427323
30
0
0
SPLINE
5
AE
100
AcDbEntity
8
1
62
256
6
ByLayer
370
18
48
1
60
0
100
AcDbSpline
70
4
71
3
72
12
73
8
40
0
40
0
40
0
40
0
40
0.0754264026074412
40
0.0754264026074412
40
0.404105852289009
40
0.404105852289009
40
1
40
1
40
1
40
1
41
1
10
28.6303497881343
20
-2.25163533736475
30
0
41
1
10
28.5300340218367
20
-2.2515536176399
30
0
41
1
10
28.4297366468548
20
-2.25022082992208
30
0
41
1
10
27.8937054086459
20
-2.23641665526475
30
0
41
1
10
27.4605484180243
20
-2.20163925067214
30
0
41
1
10
26.2445184155832
20
-2.04130900132756
30
0
41
1
10
25.4633053395257
20
-1.86494567051531
30
0
41
1
10
24.6724562381019
20
-1.62899811061254
30
0
0
SPLINE
5
AF
100
AcDbEntity
8
1
62
256
6
ByLayer
370
13
48
1
60
0
100
AcDbSpline
70
4
71
3
72
24
73
20
40
0
40
0
40
0
40
0
40
0.0297920942539485
40
0.0297920942539485
40
0.189103713848041
40
0.189103713848041
40
0.268759523645086
40
0.268759523645086
40
0.348415333442132
40
0.348415333442132
40
0.667038572630317
40
0.667038572630317
40
0.746694382427365
40
0.746694382427365
40
0.826350192224412
40
0.826350192224412
40
0.985661811818503
40
0.985661811818503
40
1
40
1
40
1
40
1
41
1
10
24.6724562383667
20
-1.62899811069158
30
0
41
1
10
24.590882449041
20
-1.6046608047406
30
0
41
1
10
24.5092061389221
20
-1.57968956288829
30
0
41
1
10
23.9900346904767
20
-1.41725573196152
30
0
41
1
10
23.5536192659346
20
-1.2644119849779
30
0
41
1
10
22.8991586572447
20
-1.0174775023273
30
0
41
1
10
22.6808918016281
20
-0.932264634611101
30
0
41
1
10
22.2436118485942
20
-0.75716729111295
30
0
41
1
10
22.0247967454793
20
-0.667350684708396
30
0
41
1
10
20.9361157026785
20
-0.212691456542842
30
0
41
1
10
20.0755313338807
20
0.17049103404554
30
0
41
1
10
18.9919970012675
20
0.624347655239092
30
0
41
1
10
18.7749129651054
20
0.713896296823805
30
0
41
1
10
18.3394815760545
20
0.889350530323782
30
0
41
1
10
18.1205862954366
20
0.975372434729678
30
0
41
1
10
17.4650456739482
20
1.22445170771982
30
0
41
1
10
17.0312673102789
20
1.37814516117513
30
0
41
1
10
16.5596141690454
20
1.52786887795085
30
0
41
1
10
16.5206793031568
20
1.54010029326528
30
0
41
1
10
16.481752241835
20
1.55219832746607
30
0
0
SPLINE
5
B0
100
AcDbEntity
8
1
62
256
6
ByLayer
370
18
48
1
60
0
100
AcDbSpline
70
4
71
3
72
8
73
4
40
0
40
0
40
0
40
0
40
1
40
1
40
1
40
1
41
1
10
45.3174807148105
20
-2.29790895509214
30
0
41
1
10
45.2878502847731
20
-2.33340109086799
30
0
41
1
10
45.2566967805385
20
-2.35794549591228
30
0
41
1
10
45.2249157660831
20
-2.37056298921871
30
0
0
SPLINE
5
B1
100
AcDbEntity
8
1
62
256
6
ByLayer
370
18
48
1
60
0
100
AcDbSpline
70
4
71
3
72
74
73
70
40
0
40
0
40
0
40
0
40
0.0180280725732696
40
0.0180280725732696
40
0.0455073474088585
40
0.0455073474088585
40
0.0729866222444474
40
0.0729866222444474
40
0.127945171915627
40
0.127945171915627
40
0.155424446751217
40
0.155424446751217
40
0.182903721586807
40
0.182903721586807
40
0.210382996422396
40
0.210382996422396
40
0.237862271257986
40
0.237862271257986
40
0.265341546093576
40
0.265341546093576
40
0.292820820929166
40
0.292820820929166
40
0.320300095764755
40
0.320300095764755
40
0.347779370600345
40
0.347779370600345
40
0.375258645435935
40
0.375258645435935
40
0.402737920271525
40
0.402737920271525
40
0.430217195107115
40
0.430217195107115
40
0.457696469942704
40
0.457696469942704
40
0.485175744778294
40
0.485175744778294
40
0.512655019613884
40
0.512655019613884
40
0.540134294449474
40
0.540134294449474
40
0.567613569285063
40
0.567613569285063
40
0.622572118956243
40
0.622572118956243
40
0.650051393791834
40
0.650051393791834
40
0.677530668627425
40
0.677530668627425
40
0.705009943463015
40
0.705009943463015
40
0.732489218298606
40
0.732489218298606
40
0.787447767969787
40
0.787447767969787
40
0.814927042805377
40
0.814927042805377
40
0.842406317640967
40
0.842406317640967
40
0.869885592476558
40
0.869885592476558
40
0.897364867312148
40
0.897364867312148
40
0.924844142147738
40
0.924844142147738
40
0.952323416983328
40
0.952323416983328
40
0.979802691818918
40
0.979802691818918
40
1
40
1
40
1
40
1
41
1
10
40.0126442781216
20
-1.73153403475953
30
0
41
1
10
39.8933877195819
20
-1.76468205283942
30
0
41
1
10
39.7741025452706
20
-1.79650265725795
30
0
41
1
10
39.4729081609279
20
-1.87351030312107
30
0
41
1
10
39.2906759558048
20
-1.91660738011814
30
0
41
1
10
38.9265558141346
20
-1.99422877726801
30
0
41
1
10
38.7445834663969
20
-2.02910099611219
30
0
41
1
10
38.1992026491997
20
-2.12432699062529
30
0
41
1
10
37.8362149155395
20
-2.1743819959012
30
0
41
1
10
37.2898234791064
20
-2.22442525664391
30
0
41
1
10
37.1075658883825
20
-2.23714406039005
30
0
41
1
10
36.7439560189159
20
-2.25327703327358
30
0
41
1
10
36.5622386715717
20
-2.2563022936169
30
0
41
1
10
36.1986927467098
20
-2.25465672451767
30
0
41
1
10
36.016936360315
20
-2.25038314490644
30
0
41
1
10
35.6535519523245
20
-2.23400335550036
30
0
41
1
10
35.4717924278144
20
-2.22173484314587
30
0
41
1
10
35.1073753240836
20
-2.18836452526875
30
0
41
1
10
34.9250988296093
20
-2.16781985210179
30
0
41
1
10
34.5613730052344
20
-2.11938214817153
30
0
41
1
10
34.3798518702117
20
-2.09123252802434
30
0
41
1
10
34.0164951559122
20
-2.02659739665927
30
0
41
1
10
33.8346500346508
20
-1.98991721919481
30
0
41
1
10
33.4707781716283
20
-1.91093728724979
30
0
41
1
10
33.2887631146527
20
-1.86806360496883
30
0
41
1
10
32.9245712008492
20
-1.77500023760581
30
0
41
1
10
32.7426638122934
20
-1.72492725105471
30
0
41
1
10
32.3789499754428
20
-1.61895289297857
30
0
41
1
10
32.1972224112538
20
-1.56351753874824
30
0
41
1
10
31.8340297238541
20
-1.44645186883327
30
0
41
1
10
31.6524167058034
20
-1.38504569537312
30
0
41
1
10
31.288459863698
20
-1.25709928076228
30
0
41
1
10
31.1059795208333
20
-1.19073564259631
30
0
41
1
10
30.7418376938394
20
-1.05417601668154
30
0
41
1
10
30.5601697398744
20
-0.983630849078253
30
0
41
1
10
30.196704926478
20
-0.839628218978049
30
0
41
1
10
30.0149159857428
20
-0.766051141285516
30
0
41
1
10
29.6513087868942
20
-0.616556553279167
30
0
41
1
10
29.4696413079471
20
-0.540289112395925
30
0
41
1
10
29.1057500279102
20
-0.385810843862856
30
0
41
1
10
28.923332660785
20
-0.30777068217725
30
0
41
1
10
28.3771141482043
20
-0.0733083738311109
30
0
41
1
10
28.0142753681034
20
0.0854960994224712
30
0
41
1
10
27.4687119763692
20
0.319580034706092
30
0
41
1
10
27.2866214514449
20
0.396883999533259
30
0
41
1
10
26.9223754999259
20
0.551082759280376
30
0
41
1
10
26.7403044729436
20
0.627713909332698
30
0
41
1
10
26.376555573753
20
0.777179246602259
30
0
41
1
10
26.1947346459444
20
0.850055410229942
30
0
41
1
10
25.8312363513575
20
0.992918708141701
30
0
41
1
10
25.6497089943169
20
1.06340219618065
30
0
41
1
10
25.1044742034987
20
1.26782187448771
30
0
41
1
10
24.7392055292971
20
1.39409045288991
30
0
41
1
10
24.1938530350681
20
1.56974194278268
30
0
41
1
10
24.0121598678446
20
1.62528315162805
30
0
41
1
10
23.6485148639493
20
1.72932148364757
30
0
41
1
10
23.4665746471707
20
1.7779381583961
30
0
41
1
10
23.1027532740952
20
1.87013479477508
30
0
41
1
10
22.9206127630571
20
1.91345776246317
30
0
41
1
10
22.5562775756607
20
1.99149171506082
30
0
41
1
10
22.3742600595573
20
2.02619019313687
30
0
41
1
10
22.0105745266236
20
2.08891262385765
30
0
41
1
10
21.8290213738951
20
2.11720154863278
30
0
41
1
10
21.4656234951375
20
2.16544398834878
30
0
41
1
10
21.2837368468439
20
2.1850151445318
30
0
41
1
10
20.9194854692528
20
2.21619841141282
30
0
41
1
10
20.7370974881452
20
2.2281450151109
30
0
41
1
10
20.4213799999787
20
2.24215740803447
30
0
41
1
10
20.2877178045323
20
2.24608698534357
30
0
41
1
10
20.1540672546586
20
2.24738239491001
30
0
0
SPLINE
5
B2
100
AcDbEntity
8
1
62
256
6
ByLayer
370
18
48
1
60
0
100
AcDbSpline
70
4
71
3
72
56
73
52
40
0
40
0
40
0
40
0
40
0.0625000000000154
40
0.0625000000000154
40
0.0937500000000231
40
0.0937500000000231
40
0.125000000000031
40
0.125000000000031
40
0.156250000000039
40
0.156250000000039
40
0.187500000000046
40
0.187500000000046
40
0.20312500000005
40
0.20312500000005
40
0.218750000000054
40
0.218750000000054
40
0.234375000000058
40
0.234375000000058
40
0.250000000000062
40
0.250000000000062
40
0.265625000000065
40
0.265625000000065
40
0.281250000000069
40
0.281250000000069
40
0.296875000000073
40
0.296875000000073
40
0.312500000000077
40
0.312500000000077
40
0.343750000000082
40
0.343750000000082
40
0.375000000000088
40
0.375000000000088
40
0.382812500000088
40
0.382812500000088
40
0.386718750000088
40
0.386718750000088
40
0.390625000000088
40
0.390625000000088
40
0.398437500000088
40
0.398437500000088
40
0.406250000000087
40
0.406250000000087
40
0.437500000000082
40
0.437500000000082
40
0.500000000000073
40
0.500000000000073
40
0.625000000000055
40
0.625000000000055
40
0.750000000000036
40
0.750000000000036
40
1
40
1
40
1
40
1
41
1
10
3.35601634367248
20
-2.33947429671227
30
0
41
1
10
3.20395313496232
20
-2.32895219972949
30
0
41
1
10
3.05440985965998
20
-2.31284823080034
30
0
41
1
10
2.83592706794593
20
-2.27723945409602
30
0
41
1
10
2.76408424189009
20
-2.26344199387688
30
0
41
1
10
2.62305003102597
20
-2.23098009078964
30
0
41
1
10
2.55356022000888
20
-2.21223715897113
30
0
41
1
10
2.41994147145744
20
-2.16862923473164
30
0
41
1
10
2.3559279402582
20
-2.14386741805433
30
0
41
1
10
2.23627585793179
20
-2.08599254601091
30
0
41
1
10
2.18012779508811
20
-2.05267540918058
30
0
41
1
10
2.108093902202
20
-1.99352500478616
30
0
41
1
10
2.08633029985975
20
-1.97242462866228
30
0
41
1
10
2.04869912640416
20
-1.92671025434657
30
0
41
1
10
2.03280679284296
20
-1.90189420647934
30
0
41
1
10
2.00989089431744
20
-1.84976857271658
30
0
41
1
10
2.00266359083778
20
-1.82230684480942
30
0
41
1
10
1.99851944194395
20
-1.76413916785967
30
0
41
1
10
2.00183950688276
20
-1.73365741097706
30
0
41
1
10
2.01895762684814
20
-1.67328743747464
30
0
41
1
10
2.0328887661104
20
-1.64265091014766
30
0
41
1
10
2.06962174478821
20
-1.58265250836277
30
0
41
1
10
2.09199885928081
20
-1.55374970370605
30
0
41
1
10
2.14294923347239
20
-1.49773013856716
30
0
41
1
10
2.17175637233714
20
-1.47044118601934
30
0
41
1
10
2.23288431991639
20
-1.41863842400616
30
0
41
1
10
2.26526540948225
20
-1.39400741720811
30
0
41
1
10
2.36654214334865
20
-1.32308514881223
30
0
41
1
10
2.43981309829994
20
-1.27956083923044
30
0
41
1
10
2.59197224932802
20
-1.19875027556682
30
0
41
1
10
2.67063160278693
20
-1.16157680414312
30
0
41
1
10
2.77120385690256
20
-1.11804486525335
30
0
41
1
10
2.79142334109196
20
-1.10944024216388
30
0
41
1
10
2.82181270325768
20
-1.0966983967688
30
0
41
1
10
2.83183957251322
20
-1.09219431098632
30
0
41
1
10
2.85290533513648
20
-1.08562599409797
30
0
41
1
10
2.86413243767842
20
-1.08378645783475
30
0
41
1
10
2.89818302449706
20
-1.08075109467921
30
0
41
1
10
2.92066773937842
20
-1.08265060216007
30
0
41
1
10
2.96572176530378
20
-1.08491005896025
30
0
41
1
10
2.98824113792665
20
-1.08617824227338
30
0
41
1
10
3.10082381495016
20
-1.09277363021582
30
0
41
1
10
3.19087326277452
20
-1.09845070564799
30
0
41
1
10
3.46070230048119
20
-1.11796405112528
30
0
41
1
10
3.64024673143422
20
-1.13381401020288
30
0
41
1
10
4.17788583272781
20
-1.18931021132278
30
0
41
1
10
4.53468192362752
20
-1.23695681487899
30
0
41
1
10
5.24115269207766
20
-1.34826436129586
30
0
41
1
10
5.59140720438995
20
-1.41198086037008
30
0
41
1
10
6.63432081344621
20
-1.61741405675551
30
0
41
1
10
7.31890473420941
20
-1.77368317805747
30
0
41
1
10
7.99830528369537
20
-1.9159233177912
30
0
0
SPLINE
5
B3
100
AcDbEntity
8
1
62
256
6
ByLayer
370
18
48
1
60
0
100
AcDbSpline
70
4
71
3
72
30
73
26
40
0
40
0
40
0
40
0
40
0.250000000000008
40
0.250000000000008
40
0.375000000000013
40
0.375000000000013
40
0.500000000000017
40
0.500000000000017
40
0.625000000000021
40
0.625000000000021
40
0.750000000000026
40
0.750000000000026
40
0.812500000000028
40
0.812500000000028
40
0.820312500000027
40
0.820312500000027
40
0.828125000000026
40
0.828125000000026
40
0.835937500000024
40
0.835937500000024
40
0.843750000000023
40
0.843750000000023
40
0.875000000000019
40
0.875000000000019
40
1
40
1
40
1
40
1
41
1
10
42.9272828156685
20
0.698130342681367
30
0
41
1
10
43.115598131379
20
0.565913199398523
30
0
41
1
10
43.3092654966806
20
0.451977755780604
30
0
41
1
10
43.6088478436541
20
0.312094777749337
30
0
41
1
10
43.710841927892
20
0.270505779150028
30
0
41
1
10
43.9147760428529
20
0.200033006417584
30
0
41
1
10
44.0166060551081
20
0.171059772007823
30
0
41
1
10
44.2199743422425
20
0.12644609542312
30
0
41
1
10
44.3215125665659
20
0.110807963717633
30
0
41
1
10
44.5242497071372
20
0.0950385377953751
30
0
41
1
10
44.6257749955867
20
0.0950618809942512
30
0
41
1
10
44.7746217240918
20
0.108954337190966
30
0
41
1
10
44.8236675988142
20
0.116085865833952
30
0
41
1
10
44.8782269351166
20
0.12623327997045
30
0
41
1
10
44.8842706788361
20
0.12742408899237
30
0
41
1
10
44.8962670877846
20
0.130115918684084
30
0
41
1
10
44.9021978238097
20
0.131719649120299
30
0
41
1
10
44.9124992624283
20
0.138535337345303
30
0
41
1
10
44.9168408185484
20
0.143465439094825
30
0
41
1
10
44.9212489268073
20
0.156732086920982
30
0
41
1
10
44.9220688879984
20
0.164229535818862
30
0
41
1
10
44.9282124853472
20
0.20024707402942
30
0
41
1
10
44.9319467059186
20
0.229609810031917
30
0
41
1
10
44.9494605097799
20
0.376671204843063
30
0
41
1
10
44.9535758731187
20
0.497911852464796
30
0
41
1
10
44.9505545051975
20
0.619592425115826
30
0
0
SPLINE
5
B4
100
AcDbEntity
8
1
62
256
6
ByLayer
370
18
48
1
60
0
100
AcDbSpline
70
4
71
3
72
68
73
64
40
0
40
0
40
0
40
0
40
0.0595574785291303
40
0.0595574785291303
40
0.0893362177936955
40
0.0893362177936955
40
0.119114957058261
40
0.119114957058261
40
0.148893696322826
40
0.148893696322826
40
0.178672435587391
40
0.178672435587391
40
0.208451174851956
40
0.208451174851956
40
0.238229914116521
40
0.238229914116521
40
0.268008653381086
40
0.268008653381086
40
0.297787392645652
40
0.297787392645652
40
0.327566131910217
40
0.327566131910217
40
0.357344871174782
40
0.357344871174782
40
0.387123610439347
40
0.387123610439347
40
0.416902349703912
40
0.416902349703912
40
0.446681088968478
40
0.446681088968478
40
0.476459828233043
40
0.476459828233043
40
0.506238567497608
40
0.506238567497608
40
0.536017306762173
40
0.536017306762173
40
0.565796046026738
40
0.565796046026738
40
0.595574785291303
40
0.595574785291303
40
0.625353524555869
40
0.625353524555869
40
0.655132263820434
40
0.655132263820434
40
0.684911003084999
40
0.684911003084999
40
0.714689742349564
40
0.714689742349564
40
0.774247220878695
40
0.774247220878695
40
0.833804699407826
40
0.833804699407826
40
0.863583438672392
40
0.863583438672392
40
0.893362177936958
40
0.893362177936958
40
0.923140917201523
40
0.923140917201523
40
0.952919656466089
40
0.952919656466089
40
0.982698395730654
40
0.982698395730654
40
1
40
1
40
1
40
1
41
1
10
7.9983052836954
20
1.9159233177912
30
0
41
1
10
8.38728685290548
20
2.02036777038379
30
0
41
1
10
8.77718147836111
20
2.10529786390299
30
0
41
1
10
9.35954867081739
20
2.20849673507095
30
0
41
1
10
9.55369680061642
20
2.23830299790001
30
0
41
1
10
9.94315761142289
20
2.288074278827
30
0
41
1
10
10.1385101298203
20
2.30824083271469
30
0
41
1
10
10.5277688779085
20
2.33903224844568
30
0
41
1
10
10.721770021129
20
2.34957507397951
30
0
41
1
10
11.1105486756949
20
2.36057949874262
30
0
41
1
10
11.3050588798624
20
2.36118000613854
30
0
41
1
10
11.6938722476229
20
2.35255469530227
30
0
41
1
10
11.8879182713689
20
2.34318803846497
30
0
41
1
10
12.277527258041
20
2.31476115237854
30
0
41
1
10
12.4726767483157
20
2.29577222462845
30
0
41
1
10
12.8618360462312
20
2.24826441642409
30
0
41
1
10
13.0557644332102
20
2.21947416239891
30
0
41
1
10
13.4440858625913
20
2.15297463620021
30
0
41
1
10
13.6385950423715
20
2.11544882178876
30
0
41
1
10
14.0278432616052
20
2.03154216695887
30
0
41
1
10
14.2226070556913
20
1.98483649574459
30
0
41
1
10
14.6117547395827
20
1.88307895536596
30
0
41
1
10
14.8063529999233
20
1.82865651324971
30
0
41
1
10
15.1953239132642
20
1.71258296287397
30
0
41
1
10
15.3895834815797
20
1.65075605837512
30
0
41
1
10
15.7776747633329
20
1.51934645451743
30
0
41
1
10
15.9720550041061
20
1.45066127845379
30
0
41
1
10
16.3617083645119
20
1.30788819918476
30
0
41
1
10
16.556938300196
20
1.23361372121667
30
0
41
1
10
16.9455663471803
20
1.07889021266826
30
0
41
1
10
17.1396560196892
20
0.999201397303807
30
0
41
1
10
17.5283987995614
20
0.837298332778801
30
0
41
1
10
17.7228701258454
20
0.754737070879145
30
0
41
1
10
18.1114475305052
20
0.585146270732793
30
0
41
1
10
18.3056606586154
20
0.498166065594432
30
0
41
1
10
18.6955422296654
20
0.324224081050914
30
0
41
1
10
18.8903110358974
20
0.236973799391649
30
0
41
1
10
19.2790580655676
20
0.0609207134105247
30
0
41
1
10
19.4727913676423
20
-0.0284236938850597
30
0
41
1
10
19.8612389614685
20
-0.204731506586967
30
0
41
1
10
20.0557865350392
20
-0.292066661043805
30
0
41
1
10
20.445038631214
20
-0.466185754084478
30
0
41
1
10
20.639686429713
20
-0.553675839835932
30
0
41
1
10
21.0286479124018
20
-0.72446462361566
30
0
41
1
10
21.2231871453756
20
-0.807678192252553
30
0
41
1
10
21.6119151994729
20
-0.970821580667547
30
0
41
1
10
21.8058923449442
20
-1.05116117739368
30
0
41
1
10
22.3881569187577
20
-1.28533087619039
30
0
41
1
10
22.779124109365
20
-1.43006369741533
30
0
41
1
10
23.5556194858354
20
-1.69743306337546
30
0
41
1
10
23.9445671889795
20
-1.81547396065523
30
0
41
1
10
24.5271338339775
20
-1.97191351099926
30
0
41
1
10
24.7218285142206
20
-2.02003508005342
30
0
41
1
10
25.1114126712055
20
-2.10687544724931
30
0
41
1
10
25.3060180867676
20
-2.1458234529878
30
0
41
1
10
25.69426637986
20
-2.21524654605966
30
0
41
1
10
25.8880043249486
20
-2.24554362371936
30
0
41
1
10
26.2765763168235
20
-2.29603674309283
30
0
41
1
10
26.4711432866806
20
-2.31649171612875
30
0
41
1
10
26.8603906416466
20
-2.34794794621399
30
0
41
1
10
27.0548418571781
20
-2.35891046668723
30
0
41
1
10
27.3622117446986
20
-2.36814559979823
30
0
41
1
10
27.4751784517372
20
-2.36986650204634
30
0
41
1
10
27.5881087677128
20
-2.36992524964447
30
0
0
SPLINE
5
B5
100
AcDbEntity
8
1
62
256
6
ByLayer
370
18
48
1
60
0
100
AcDbSpline
70
4
71
3
72
26
73
22
40
0
40
0
40
0
40
0
40
0.010119065619975
40
0.010119065619975
40
0.120105836106644
40
0.120105836106644
40
0.230092606593313
40
0.230092606593313
40
0.340079377079983
40
0.340079377079983
40
0.450066147566652
40
0.450066147566652
40
0.560052918053322
40
0.560052918053322
40
0.670039688539992
40
0.670039688539992
40
0.780026459026661
40
0.780026459026661
40
0.890013229513331
40
0.890013229513331
40
1
40
1
40
1
40
1
41
1
10
40.0201660652107
20
1.73548361100362
30
0
41
1
10
40.0380368181356
20
1.7410566811464
30
0
41
1
10
40.0559084682059
20
1.74659546072439
30
0
41
1
10
40.2680462425582
20
1.81192482912061
30
0
41
1
10
40.4622999769041
20
1.8679282355981
30
0
41
1
10
40.8501747201471
20
1.9729996806241
30
0
41
1
10
41.0439448512322
20
2.02179676458263
30
0
41
1
10
41.4329246854525
20
2.1098554877945
30
0
41
1
10
41.6280155121799
20
2.14949826762441
30
0
41
1
10
42.0167450343628
20
2.21997255494722
30
0
41
1
10
42.2103877763801
20
2.25093679058927
30
0
41
1
10
42.5985094696425
20
2.3026317783798
30
0
41
1
10
42.7927855491598
20
2.32360122946656
30
0
41
1
10
43.1812867816647
20
2.35606556081851
30
0
41
1
10
43.375274195957
20
2.36757898593601
30
0
41
1
10
43.7644077804655
20
2.38039515430961
30
0
41
1
10
43.9589339212141
20
2.38177506921724
30
0
41
1
10
44.3474310324192
20
2.37473347275673
30
0
41
1
10
44.5411738981102
20
2.36622369793636
30
0
41
1
10
44.928802257431
20
2.3392551534871
30
0
41
1
10
45.1230285755822
20
2.32097342051389
30
0
41
1
10
45.3174807148105
20
2.29790895509208
30
0
0
SPLINE
5
B6
100
AcDbEntity
8
1
62
256
6
ByLayer
370
18
48
1
60
0
100
AcDbSpline
70
4
71
3
72
8
73
4
40
0
40
0
40
0
40
0
40
1
40
1
40
1
40
1
41
1
10
45.0411233685533
20
0.681873041736054
30
0
41
1
10
45.3009851604543
20
0.67336679273393
30
0
41
1
10
45.5608747086967
20
0.664636604625031
30
0
41
1
10
45.8204634201761
20
0.658373263013914
30
0
0
SPLINE
5
B7
100
AcDbEntity
8
1
62
256
6
ByLayer
370
18
48
1
60
0
100
AcDbSpline
70
4
71
3
72
8
73
4
40
0
40
0
40
0
40
0
40
1
40
1
40
1
40
1
41
1
10
45.9960282093026
20
0.127188220724662
30
0
41
1
10
45.996106994484
20
0.110690933045447
30
0
41
1
10
45.9959379560917
20
0.0942030856002134
30
0
41
1
10
45.9955072142805
20
0.0777252071077044
30
0
0
SPLINE
5
B8
100
AcDbEntity
8
1
62
256
6
ByLayer
370
18
48
1
60
0
100
AcDbSpline
70
4
71
3
72
8
73
4
40
0
40
0
40
0
40
0
40
1
40
1
40
1
40
1
41
1
10
3.46457257515203
20
0.180243587733997
30
0
41
1
10
3.45639326204207
20
0.183936592117476
30
0
41
1
10
3.4484876719327
20
0.188033213200072
30
0
41
1
10
3.44084585919933
20
0.192518215762476
30
0
0
SPLINE
5
B9
100
AcDbEntity
8
1
62
256
6
ByLayer
370
18
48
1
60
0
100
AcDbSpline
70
4
71
3
72
34
73
30
40
0
40
0
40
0
40
0
40
0.0212432063186556
40
0.0212432063186556
40
0.106892734765665
40
0.106892734765665
40
0.278191791659682
40
0.278191791659682
40
0.363841320106691
40
0.363841320106691
40
0.4494908485537
40
0.4494908485537
40
0.535140377000708
40
0.535140377000708
40
0.577965141224213
40
0.577965141224213
40
0.599377523335965
40
0.599377523335965
40
0.610083714391841
40
0.610083714391841
40
0.620789905447717
40
0.620789905447717
40
0.706439433894726
40
0.706439433894726
40
0.792088962341735
40
0.792088962341735
40
0.963388019235752
40
0.963388019235752
40
1
40
1
40
1
40
1
41
1
10
7.99830528369543
20
1.9159233177912
30
0
41
1
10
7.99830528369543
20
1.89545419639157
30
0
41
1
10
7.9983052836954
20
1.87513574350069
30
0
41
1
10
7.9983052836954
20
1.77365491772414
30
0
41
1
10
7.99830528369543
20
1.69492321774374
30
0
41
1
10
7.99830528369543
20
1.47074430262771
30
0
41
1
10
7.99830528369543
20
1.33547587777423
30
0
41
1
10
7.99830528369543
20
1.15257566601034
30
0
41
1
10
7.99830528369546
20
1.09496348885906
30
0
41
1
10
7.99830528369546
20
0.98646861275779
30
0
41
1
10
7.99830528369543
20
0.93570220769368
30
0
41
1
10
7.99830528369543
20
0.842122653738073
30
0
41
1
10
7.99830528369546
20
0.799137365428464
30
0
41
1
10
7.99830528369546
20
0.740303312229997
30
0
41
1
10
7.99830528369543
20
0.721631820706079
30
0
41
1
10
7.99830528369543
20
0.695102379027389
30
0
41
1
10
7.99830528365945
20
0.686065509738768
30
0
41
1
10
7.99830528365945
20
0.674201509446846
30
0
41
1
10
7.99830528369543
20
0.674666734736746
30
0
41
1
10
7.99830528369543
20
0.684622005437859
30
0
41
1
10
7.9983052836954
20
0.690265195975257
30
0
41
1
10
7.9983052836954
20
0.739033179096765
30
0
41
1
10
7.99830528369543
20
0.786707357584987
30
0
41
1
10
7.99830528369543
20
0.889913982648636
30
0
41
1
10
7.9983052836954
20
0.945333099371936
30
0
41
1
10
7.9983052836954
20
1.12307290703652
30
0
41
1
10
7.99830528369543
20
1.25675736164061
30
0
41
1
10
7.99830528369543
20
1.4391170443821
30
0
41
1
10
7.99830528369546
20
1.47189897686133
30
0
41
1
10
7.99830528369546
20
1.5052728723563
30
0
0
SPLINE
5
BA
100
AcDbEntity
8
1
62
256
6
ByLayer
370
18
48
1
60
0
100
AcDbSpline
70
4
71
3
72
20
73
16
40
0
40
0
40
0
40
0
40
0.0634170959378356
40
0.0634170959378356
40
0.197214653661
40
0.197214653661
40
0.464809769107334
40
0.464809769107334
40
0.5986073268305
40
0.5986073268305
40
0.732404884553667
40
0.732404884553667
40
0.866202442276833
40
0.866202442276833
40
1
40
1
40
1
40
1
41
1
10
3.84851010541598
20
2.23871201581932
30
0
41
1
10
3.93297131498485
20
2.2402835920285
30
0
41
1
10
4.01798662937162
20
2.24018452544758
30
0
41
1
10
4.28379580964352
20
2.23528850183325
30
0
41
1
10
4.46666959791372
20
2.2253135323181
30
0
41
1
10
5.01627013774689
20
2.17949134916341
30
0
41
1
10
5.38372025387318
20
2.1274853221195
30
0
41
1
10
5.9371408961635
20
2.02897395416073
30
0
41
1
10
6.12200502822685
20
1.99256361260336
30
0
41
1
10
6.49293634780673
20
1.91178441176101
30
0
41
1
10
6.67899585906957
20
1.86773145559266
30
0
41
1
10
7.05268145010345
20
1.77437631964614
30
0
41
1
10
7.24028857621212
20
1.7252540246179
30
0
41
1
10
7.61760363288431
20
1.6222484229117
30
0
41
1
10
7.80733014027038
20
1.56833426835215
30
0
41
1
10
7.99830528369543
20
1.51339043023734
30
0
0
SPLINE
5
BB
100
AcDbEntity
8
1
62
256
6
ByLayer
370
13
48
1
60
0
100
AcDbSpline
70
4
71
3
72
8
73
4
40
0
40
0
40
0
40
0
40
1
40
1
40
1
40
1
41
1
10
3.46484085955717
20
0.260034106675391
30
0
41
1
10
3.49761840329143
20
0.250185550648666
30
0
41
1
10
3.53244235025736
20
0.240656856316832
30
0
41
1
10
3.56815531156062
20
0.231500165632809
30
0
0
SPLINE
5
BC
100
AcDbEntity
8
1
62
256
6
ByLayer
370
18
48
1
60
0
100
AcDbSpline
70
4
71
3
72
10
73
6
40
0
40
0
40
0
40
0
40
0.5
40
0.5
40
1
40
1
40
1
40
1
41
1
10
45.9960282093034
20
0.127188220723639
30
0
41
1
10
45.9890725631032
20
0.239116390109871
30
0
41
1
10
45.9727356653281
20
0.353622850893004
30
0
41
1
10
45.9244342156347
20
0.589212072708506
30
0
41
1
10
45.8926694005947
20
0.710412561037828
30
0
41
1
10
45.8551242258072
20
0.837831907150019
30
0
0
SPLINE
5
BD
100
AcDbEntity
8
1
62
256
6
ByLayer
370
18
48
1
60
0
100
AcDbSpline
70
4
71
3
72
8
73
4
40
0
40
0
40
0
40
0
40
1
40
1
40
1
40
1
41
1
10
45.9997941103072
20
-0.0288893962574548
30
0
41
1
10
46.000068506647
20
-0.0096334382998293
30
0
41
1
10
46.0000687109267
20
0.0096191028144972
30
0
41
1
10
45.9997941103075
20
0.0288893962405439
30
0
0
SPLINE
5
BE
100
AcDbEntity
8
1
62
256
6
ByLayer
370
18
48
1
60
0
100
AcDbSpline
70
4
71
3
72
8
73
4
40
0
40
0
40
0
40
0
40
1
40
1
40
1
40
1
41
1
10
45.9955072142805
20
-0.0777252071076759
30
0
41
1
10
45.9951493866955
20
-0.0640366370354286
30
0
41
1
10
45.9967970191823
20
-0.0471006588595628
30
0
41
1
10
45.9997941103073
20
-0.0288893962573411
30
0
0
SPLINE
5
BF
100
AcDbEntity
8
1
62
256
6
ByLayer
370
18
48
1
60
0
100
AcDbSpline
70
4
71
3
72
8
73
4
40
0
40
0
40
0
40
0
40
1
40
1
40
1
40
1
41
1
10
45.9778952232903
20
-0.0307388572502703
30
0
41
1
10
45.8291461910482
20
-0.265002854714339
30
0
41
1
10
45.6733106441629
20
-0.491864044814491
30
0
41
1
10
45.5135289602246
20
-0.714602969752463
30
0
0
SPLINE
5
C0
100
AcDbEntity
8
1
62
256
6
ByLayer
370
18
48
1
60
0
100
AcDbSpline
70
4
71
3
72
29
73
25
40
0
40
0
40
0
40
0
40
0.0674409385165477
40
0.0674409385165477
40
0.134881877033096
40
0.134881877033096
40
0.269763754066191
40
0.269763754066191
40
0.337204692582739
40
0.337204692582739
40
0.404645631099286
40
0.404645631099286
40
0.539527508132382
40
0.539527508132382
40
0.606968446648929
40
0.606968446648929
40
0.674409385165477
40
0.674409385165477
40
0.809291262198572
40
0.809291262198572
40
0.87673220071512
40
0.87673220071512
40
0.944173139231667
40
1
40
1
40
1
40
1
41
1
10
3.3550401832014
20
0.325114898716805
30
0
41
1
10
3.35507723647717
20
0.400616564804835
30
0
41
1
10
3.35511325194
20
0.475390216146678
30
0
41
1
10
3.35518346357247
20
0.623486174291884
30
0
41
1
10
3.35521780396016
20
0.697124817009069
30
0
41
1
10
3.355317246558
20
0.913197798453666
30
0
41
1
10
3.35537867079398
20
1.05049215854865
30
0
41
1
10
3.35546533367912
20
1.24656133900117
30
0
41
1
10
3.35549330051833
20
1.31026088034574
30
0
41
1
10
3.35554761000702
20
1.43424830911431
30
0
41
1
10
3.35557380995337
20
1.49420825337779
30
0
41
1
10
3.35564870863888
20
1.66522238576079
30
0
41
1
10
3.35569427582274
20
1.76867951232904
30
0
41
1
10
3.35575722429843
20
1.90799706035057
30
0
41
1
10
3.35577739665527
20
1.95198820061475
30
0
41
1
10
3.35581539324858
20
2.03318829910316
30
0
41
1
10
3.35583320933324
20
2.07039058174823
30
0
41
1
10
3.35588331430103
20
2.17207142971961
30
0
41
1
10
3.35591231867531
20
2.22671647458571
30
0
41
1
10
3.35594896202127
20
2.28835105136889
30
0
41
1
10
3.35595993649585
20
2.30533260283889
30
0
41
1
10
3.35597902966126
20
2.3318008462677
30
0
41
1
10
3.3559939737082
20
2.34931981530525
30
0
41
1
10
3.35600415682612
20
2.35479622167645
30
0
41
1
10
3.35600772510537
20
2.35477433383852
30
0
0
SPLINE
5
C1
100
AcDbEntity
8
1
62
256
6
ByLayer
370
18
48
1
60
0
100
AcDbSpline
70
4
71
3
72
18
73
14
40
0
40
0
40
0
40
0
40
0.0802854868619041
40
0.0802854868619041
40
0.233571239051588
40
0.233571239051588
40
0.386856991241271
40
0.386856991241271
40
0.693428495620638
40
0.693428495620638
40
0.846714247810319
40
0.846714247810319
40
1
40
1
40
1
40
1
41
1
10
7.1586779933956
20
-1.74607885405194
30
0
41
1
10
7.05989305365119
20
-1.77197490935575
30
0
41
1
10
6.96125536340958
20
-1.79723068156517
30
0
41
1
10
6.67462103377062
20
-1.86879690259411
30
0
41
1
10
6.48719856838119
20
-1.91311555571252
30
0
41
1
10
6.11472046573408
20
-1.99406549426701
30
0
41
1
10
5.92950992709069
20
-2.03041998655309
30
0
41
1
10
5.37608943219061
20
-2.12866271134234
30
0
41
1
10
5.00999328901435
20
-2.18013060663546
30
0
41
1
10
4.46521826540294
20
-2.22537583270045
30
0
41
1
10
4.28435595304569
20
-2.23525393575741
30
0
41
1
10
3.92455078342397
20
-2.24192966518143
30
0
41
1
10
3.74512618863452
20
-2.23870562415553
30
0
41
1
10
3.5694812813793
20
-2.22703960555128
30
0
0
SPLINE
5
C2
100
AcDbEntity
8
1
62
256
6
ByLayer
370
18
48
1
60
0
100
AcDbSpline
70
4
71
3
72
12
73
8
40
0
40
0
40
0
40
0
40
0.250000000000072
40
0.250000000000072
40
0.500000000000145
40
0.500000000000145
40
1
40
1
40
1
40
1
41
1
10
44.9505545051975
20
0.619592425115826
30
0
41
1
10
44.9503052650667
20
0.629630157243554
30
0
41
1
10
44.9528631669574
20
0.639702250484987
30
0
41
1
10
44.9636049696276
20
0.657007555813664
30
0
41
1
10
44.971748719596
20
0.664171136514227
30
0
41
1
10
44.9989014680692
20
0.679479585245076
30
0
41
1
10
45.0203112145504
20
0.682554301427672
30
0
41
1
10
45.0411233685533
20
0.681873041736054
30
0
0
SPLINE
5
C3
100
AcDbEntity
8
1
62
256
6
ByLayer
370
18
48
1
60
0
100
AcDbSpline
70
4
71
3
72
60
73
56
40
0
40
0
40
0
40
0
40
0.069744734238859
40
0.069744734238859
40
0.104617101358289
40
0.104617101358289
40
0.139489468477719
40
0.139489468477719
40
0.174361835597149
40
0.174361835597149
40
0.209234202716579
40
0.209234202716579
40
0.24410656983601
40
0.24410656983601
40
0.27897893695544
40
0.27897893695544
40
0.3487236711943
40
0.3487236711943
40
0.38359603831373
40
0.38359603831373
40
0.41846840543316
40
0.41846840543316
40
0.45334077255259
40
0.45334077255259
40
0.48821313967202
40
0.48821313967202
40
0.52308550679145
40
0.52308550679145
40
0.55795787391088
40
0.55795787391088
40
0.59283024103031
40
0.59283024103031
40
0.62770260814974
40
0.62770260814974
40
0.662574975269171
40
0.662574975269171
40
0.697447342388601
40
0.697447342388601
40
0.732319709508031
40
0.732319709508031
40
0.767192076627461
40
0.767192076627461
40
0.802064443746891
40
0.802064443746891
40
0.836936810866321
40
0.836936810866321
40
0.871809177985751
40
0.871809177985751
40
0.906681545105182
40
0.906681545105182
40
0.941553912224612
40
0.941553912224612
40
0.976426279344042
40
0.976426279344042
40
1
40
1
40
1
40
1
41
1
10
7.99830528369543
20
1.51339043023731
30
0
41
1
10
8.36298879446494
20
1.39740971004008
30
0
41
1
10
8.72691108857239
20
1.27194426425885
30
0
41
1
10
9.27215904273118
20
1.06888514087996
30
0
41
1
10
9.45390014207288
20
0.999102212609927
30
0
41
1
10
9.81803887338705
20
0.856864211334084
30
0
41
1
10
10.0004977261036
20
0.783991906021328
30
0
41
1
10
10.364947872011
20
0.634965397844127
30
0
41
1
10
10.546757594839
20
0.55887020186762
30
0
41
1
10
10.9105043079507
20
0.40584018142755
30
0
41
1
10
11.0924258715316
20
0.328868856736676
30
0
41
1
10
11.4561517821995
20
0.173379901188781
30
0
41
1
10
11.6379426579211
20
0.0948119553864899
30
0
41
1
10
12.0019619444974
20
-0.0624942768474739
30
0
41
1
10
12.1844885436708
20
-0.140977768631529
30
0
41
1
10
12.7310732666237
20
-0.374833013013443
30
0
41
1
10
13.0940034417054
20
-0.529809257947363
30
0
41
1
10
13.6396849717757
20
-0.753858962044063
30
0
41
1
10
13.8216739550085
20
-0.827173120373345
30
0
41
1
10
14.1859567887035
20
-0.971070745193828
30
0
41
1
10
14.3681975227979
20
-1.04170182733265
30
0
41
1
10
14.7323276539692
20
-1.17847624370668
30
0
41
1
10
14.9143318383431
20
-1.24469705871519
30
0
41
1
10
15.2779831400111
20
-1.37188224910594
30
0
41
1
10
15.4596525247947
20
-1.43319115000571
30
0
41
1
10
15.823329151469
20
-1.5507208249621
30
0
41
1
10
16.0054287488202
20
-1.60707771767815
30
0
41
1
10
16.3701463664919
20
-1.713149881037
30
0
41
1
10
16.5523136886905
20
-1.76262293798882
30
0
41
1
10
16.9160002045755
20
-1.85560364912223
30
0
41
1
10
17.0977709745555
20
-1.89891653623516
30
0
41
1
10
17.4615349475363
20
-1.97908951739859
30
0
41
1
10
17.6433769641403
20
-2.01504850950516
30
0
41
1
10
18.0072030489964
20
-2.07910111959433
30
0
41
1
10
18.189274332103
20
-2.10757870956922
30
0
41
1
10
18.5538676809713
20
-2.15757873636102
30
0
41
1
10
18.7360530055883
20
-2.17945300345258
30
0
41
1
10
19.0997459835503
20
-2.21247666878045
30
0
41
1
10
19.2813278170197
20
-2.22456141580938
30
0
41
1
10
19.6447667911074
20
-2.24162141850377
30
0
41
1
10
19.82669681887
20
-2.24677585423819
30
0
41
1
10
20.1907981363542
20
-2.24867003698182
30
0
41
1
10
20.3731739733624
20
-2.24429853158185
30
0
41
1
10
20.7373094076117
20
-2.22813399836738
30
0
41
1
10
20.9192518686893
20
-2.21621286924119
30
0
41
1
10
21.2831607456621
20
-2.18506999230274
30
0
41
1
10
21.4649999638959
20
-2.16551854672832
30
0
41
1
10
21.8285884735453
20
-2.11726721169251
30
0
41
1
10
22.010367909559
20
-2.08894980636199
30
0
41
1
10
22.3747215029769
20
-2.02610906133864
30
0
41
1
10
22.5572968562939
20
-1.99128677356953
30
0
41
1
10
22.9213445595321
20
-1.9132875907049
30
0
41
1
10
23.1029803904103
20
-1.87007762021901
30
0
41
1
10
23.40754472117
20
-1.79289678284866
30
0
41
1
10
23.5304503886783
20
-1.7606061910088
30
0
41
1
10
23.6533815637702
20
-1.72687637671953
30
0
0
SPLINE
5
C4
100
AcDbEntity
8
1
62
256
6
ByLayer
370
18
48
1
60
0
100
AcDbSpline
70
4
71
3
72
26
73
22
40
0
40
0
40
0
40
0
40
0.0727482200059294
40
0.0727482200059294
40
0.157043836369023
40
0.157043836369023
40
0.325635069095211
40
0.325635069095211
40
0.409930685458307
40
0.409930685458307
40
0.494226301821404
40
0.494226301821404
40
0.662817534547602
40
0.662817534547602
40
0.747113150910702
40
0.747113150910702
40
0.831408767273801
40
0.831408767273801
40
0.915704383636901
40
0.915704383636901
40
1
40
1
40
1
40
1
41
1
10
36.457211743261
20
2.25559495915056
30
0
41
1
10
36.6142870665608
20
2.25534838327462
30
0
41
1
10
36.7714966583799
20
2.25209651709022
30
0
41
1
10
37.1106386937254
20
2.236958899542
30
0
41
1
10
37.2924056160318
20
2.22422181968156
30
0
41
1
10
37.8377806633283
20
2.17417186043528
30
0
41
1
10
38.2006015164912
20
2.12412242745987
30
0
41
1
10
38.7464173534945
20
2.02876080978379
30
0
41
1
10
38.9288373211639
20
1.99377382476902
30
0
41
1
10
39.292797985217
20
1.91612322543003
30
0
41
1
10
39.474339111698
20
1.87315748201229
30
0
41
1
10
40.018902052607
20
1.73388754004947
30
0
41
1
10
40.3821264688648
20
1.6287553931395
30
0
41
1
10
40.9275664447164
20
1.45185677604917
30
0
41
1
10
41.1097605010739
20
1.39011048754344
30
0
41
1
10
41.4736253242139
20
1.26289926540875
30
0
41
1
10
41.6553677058705
20
1.19711283093523
30
0
41
1
10
42.0185075539678
20
1.06075715799295
30
0
41
1
10
42.1999142270245
20
0.990146841245917
30
0
41
1
10
42.5633252368547
20
0.846414897607701
30
0
41
1
10
42.7452224714348
20
0.773251253511063
30
0
41
1
10
42.9272828156511
20
0.698130342688529
30
0
0
SPLINE
5
C5
100
AcDbEntity
8
1
62
256
6
ByLayer
370
18
48
1
60
0
100
AcDbSpline
70
4
71
3
72
8
73
4
40
0
40
0
40
0
40
0
40
1
40
1
40
1
40
1
41
1
10
45.9960282093026
20
-0.127188220737139
30
0
41
1
10
45.9961069705318
20
-0.110695948562352
30
0
41
1
10
45.9959380895278
20
-0.0942081901546601
30
0
41
1
10
45.9955072142805
20
-0.0777252071077044
30
0
0
SPLINE
5
C6
100
AcDbEntity
8
1
62
256
6
ByLayer
370
18
48
1
60
0
100
AcDbSpline
70
4
71
3
72
10
73
6
40
0
40
0
40
0
40
0
40
0.5
40
0.5
40
1
40
1
40
1
40
1
41
1
10
45.3174807148103
20
-2.29790895509274
30
0
41
1
10
45.4050058835272
20
-2.05252108822768
30
0
41
1
10
45.4937676211847
20
-1.80835465631537
30
0
41
1
10
45.6732365292758
20
-1.3218594419678
30
0
41
1
10
45.7639626342533
20
-1.07954670468499
30
0
41
1
10
45.8551242258069
20
-0.837831907150644
30
0
0
SPLINE
5
C7
100
AcDbEntity
8
1
62
256
6
ByLayer
370
13
48
1
60
0
100
AcDbSpline
70
4
71
3
72
28
73
24
40
0
40
0
40
0
40
0
40
0.125
40
0.125
40
0.1875
40
0.1875
40
0.25
40
0.25
40
0.375
40
0.375
40
0.437500000000001
40
0.437500000000001
40
0.500000000000001
40
0.500000000000001
40
0.625000000000001
40
0.625000000000001
40
0.75
40
0.75
40
0.875
40
0.875
40
0.9375
40
0.9375
40
1
40
1
40
1
40
1
41
1
10
3.56815531156062
20
0.231500165632781
30
0
41
1
10
3.5682590257351
20
0.377826786035342
30
0
41
1
10
3.56835603438856
20
0.52096033480899
30
0
41
1
10
3.56849394308205
20
0.730931272604579
30
0
41
1
10
3.56853872684746
20
0.80027697996826
30
0
41
1
10
3.56862451140438
20
0.93483317261709
30
0
41
1
10
3.56866572257289
20
1.00035918604621
30
0
41
1
10
3.56878500307545
20
1.19177897917771
30
0
41
1
10
3.56885894894305
20
1.31287052786749
30
0
41
1
10
3.56896248393011
20
1.48279930563262
30
0
41
1
10
3.56899542790603
20
1.53694053461504
30
0
41
1
10
3.56905850868463
20
1.64025269415401
30
0
41
1
10
3.56908874778372
20
1.68958785887878
30
0
41
1
10
3.56917432608776
20
1.82802254299739
30
0
41
1
10
3.5692249228776
20
1.90816217613784
30
0
41
1
10
3.5693145069948
20
2.0445524969
30
0
41
1
10
3.56935368548034
20
2.10098657766261
30
0
41
1
10
3.56941673984593
20
2.18469586971358
30
0
41
1
10
3.56944111353656
20
2.21278470307229
30
0
41
1
10
3.56946586182704
20
2.23414215589059
30
0
41
1
10
3.56947213858456
20
2.23776805416281
30
0
41
1
10
3.56948014910921
20
2.23774333028669
30
0
41
1
10
3.56948189324322
20
2.23413778703798
30
0
41
1
10
3.56948127966254
20
2.22703960543919
30
0
0
SPLINE
5
C8
100
AcDbEntity
8
1
62
256
6
ByLayer
370
18
48
1
60
0
100
AcDbSpline
70
4
71
3
72
14
73
10
40
0
40
0
40
0
40
0
40
0.25
40
0.25
40
0.5
40
0.5
40
0.75
40
0.75
40
1
40
1
40
1
40
1
41
1
10
45.2417897487743
20
-2.25907440583046
30
0
41
1
10
45.2450562880796
20
-2.25840095020632
30
0
41
1
10
45.2476305075916
20
-2.25945407721045
30
0
41
1
10
45.2510298793713
20
-2.26597976189703
30
0
41
1
10
45.2517981943938
20
-2.27154016302123
30
0
41
1
10
45.2505834805335
20
-2.28801222341679
30
0
41
1
10
45.2485725320693
20
-2.29877706940602
30
0
41
1
10
45.2421131502734
20
-2.32310481274513
30
0
41
1
10
45.237719262694
20
-2.33650288568268
30
0
41
1
10
45.2328158484356
20
-2.34955425074989
30
0
0
SPLINE
5
C9
100
AcDbEntity
8
1
62
256
6
ByLayer
370
18
48
1
60
0
100
AcDbSpline
70
4
71
3
72
8
73
4
40
0
40
0
40
0
40
0
40
1
40
1
40
1
40
1
41
1
10
45.2249157660831
20
2.37056298921871
30
0
41
1
10
45.0626122928817
20
2.37740736963377
30
0
41
1
10
44.900417193038
20
2.38076025093776
30
0
41
1
10
44.7382233992909
20
2.38063999557059
30
0
0
SPLINE
5
CA
100
AcDbEntity
8
1
62
256
6
ByLayer
370
18
48
1
60
0
100
AcDbSpline
70
4
71
3
72
38
73
34
40
0
40
0
40
0
40
0
40
0.0259918314413366
40
0.0259918314413366
40
0.17099479682771
40
0.17099479682771
40
0.207245538174304
40
0.207245538174304
40
0.243496279520899
40
0.243496279520899
40
0.279747020867493
40
0.279747020867493
40
0.315997762214088
40
0.315997762214088
40
0.461000727600468
40
0.461000727600468
40
0.533502210293659
40
0.533502210293659
40
0.569752951640254
40
0.569752951640254
40
0.606003692986849
40
0.606003692986849
40
0.751006658373233
40
0.751006658373233
40
0.787257399719829
40
0.787257399719829
40
0.823508141066426
40
0.823508141066426
40
0.896009623759618
40
0.896009623759618
40
0.96851110645281
40
0.96851110645281
40
1
40
1
40
1
40
1
41
1
10
30.0377619406332
20
-2.25338802232753
30
0
41
1
10
29.8824165977426
20
-2.27535183994186
30
0
41
1
10
29.7273242830878
20
-2.29426872299899
30
0
41
1
10
28.7079916004063
20
-2.39837876568703
30
0
41
1
10
27.8481479822581
20
-2.38987536073421
30
0
41
1
10
26.7566112161654
20
-2.25584077821932
30
0
41
1
10
26.537453995564
20
-2.22286146745031
30
0
41
1
10
26.1006060669084
20
-2.14559780802941
30
0
41
1
10
25.8824354878308
20
-2.10127549790408
30
0
41
1
10
25.4461235788723
20
-2.00176008663155
30
0
41
1
10
25.2279731741602
20
-1.94656753770434
30
0
41
1
10
24.7909709107283
20
-1.82615636253885
30
0
41
1
10
24.5717180627466
20
-1.76075153687671
30
0
41
1
10
23.4807200828678
20
-1.41279106192289
30
0
41
1
10
22.6206726613048
20
-1.06730443250728
30
0
41
1
10
21.3227404549752
20
-0.50260849148421
30
0
41
1
10
20.8888103624315
20
-0.306625455879384
30
0
41
1
10
20.2324480394101
20
-0.0086789702351382
30
0
41
1
10
20.0138782167349
20
0.090847149464139
30
0
41
1
10
19.5788225393769
20
0.287994085251654
30
0
41
1
10
19.3619462539181
20
0.385675713537608
30
0
41
1
10
18.2794977902749
20
0.866778381708059
30
0
41
1
10
17.4200934983399
20
1.22879876813033
30
0
41
1
10
16.3310272227405
20
1.60505223398567
30
0
41
1
10
16.1120483171331
20
1.67669654721183
30
0
41
1
10
15.67450246377
20
1.81059990867652
30
0
41
1
10
15.456094470704
20
1.87274492710316
30
0
41
1
10
14.8011518266534
20
2.04377727947536
30
0
41
1
10
14.3649365195415
20
2.13737364483202
30
0
41
1
10
13.4887747379651
20
2.27789869026844
30
0
41
1
10
13.0526318072076
20
2.3244023678543
30
0
41
1
10
12.4262682248094
20
2.3554634905139
30
0
41
1
10
12.2362771188071
20
2.36016075725956
30
0
41
1
10
12.0462187975456
20
2.36015845909375
30
0
0
SPLINE
5
CB
100
AcDbEntity
8
1
62
256
6
ByLayer
370
18
48
1
60
0
100
AcDbSpline
70
4
71
3
72
12
73
8
40
0
40
0
40
0
40
0
40
0.250000000000002
40
0.250000000000002
40
0.500000000000004
40
0.500000000000004
40
1
40
1
40
1
40
1
41
1
10
45.8551242258071
20
-0.837831907150502
30
0
41
1
10
45.8738969389165
20
-0.774121807445624
30
0
41
1
10
45.8912835505748
20
-0.711732727142561
30
0
41
1
10
45.9227822111426
20
-0.589009462936929
30
0
41
1
10
45.9369179117673
20
-0.528506158752094
30
0
41
1
10
45.9731043285537
20
-0.351449521165449
30
0
41
1
10
45.9891009084272
20
-0.23866026565841
30
0
41
1
10
45.9960282093026
20
-0.127188220737139
30
0
0
SPLINE
5
CC
100
AcDbEntity
8
1
62
256
6
ByLayer
370
18
48
1
60
0
100
AcDbSpline
70
4
71
3
72
8
73
4
40
0
40
0
40
0
40
0
40
1
40
1
40
1
40
1
41
1
10
45.0883900166168
20
-1.28721174243441
30
0
41
1
10
44.9887509790592
20
-1.41744696600523
30
0
41
1
10
44.8881585084226
20
-1.5465796238675
30
0
41
1
10
44.7868187387017
20
-1.6748480927661
30
0
0
SPLINE
5
CD
100
AcDbEntity
8
1
62
256
6
ByLayer
370
18
48
1
60
0
100
AcDbSpline
70
4
71
3
72
38
73
34
40
0
40
0
40
0
40
0
40
0.124999999999999
40
0.124999999999999
40
0.187499999999999
40
0.187499999999999
40
0.249999999999999
40
0.249999999999999
40
0.312499999999998
40
0.312499999999998
40
0.343749999999993
40
0.343749999999993
40
0.374999999999988
40
0.374999999999988
40
0.406249999999983
40
0.406249999999983
40
0.437499999999978
40
0.437499999999978
40
0.468749999999973
40
0.468749999999973
40
0.499999999999968
40
0.499999999999968
40
0.562499999999969
40
0.562499999999969
40
0.624999999999969
40
0.624999999999969
40
0.68749999999997
40
0.68749999999997
40
0.749999999999971
40
0.749999999999971
40
0.874999999999985
40
0.874999999999985
40
1
40
1
40
1
40
1
41
1
10
45.0883900166168
20
-1.28721174243444
30
0
41
1
10
45.00247211556
20
-1.2527469994005
30
0
41
1
10
44.9181654296226
20
-1.21188311704793
30
0
41
1
10
44.7945698495997
20
-1.13921078193334
30
0
41
1
10
44.7538554248471
20
-1.1130639998141
30
0
41
1
10
44.673654666644
20
-1.05589291969136
30
0
41
1
10
44.6339960042405
20
-1.02472469754207
30
0
41
1
10
44.5585545327111
20
-0.957168907222893
30
0
41
1
10
44.5224876787841
20
-0.92077927471999
30
0
41
1
10
44.4728325642217
20
-0.859175215106461
30
0
41
1
10
44.4570054835624
20
-0.837333096994541
30
0
41
1
10
44.4289448458928
20
-0.791858998729083
30
0
41
1
10
44.4165170706902
20
-0.768098048777347
30
0
41
1
10
44.3970840398261
20
-0.717111580366947
30
0
41
1
10
44.3904430032185
20
-0.690199410455932
30
0
41
1
10
44.3878075669989
20
-0.637948918269387
30
0
41
1
10
44.3920543615027
20
-0.612865793397049
30
0
41
1
10
44.410207807275
20
-0.570200123868318
30
0
41
1
10
44.4238533587623
20
-0.5524640749816
30
0
41
1
10
44.4552277512872
20
-0.523904884439958
30
0
41
1
10
44.4731925739453
20
-0.512721433806462
30
0
41
1
10
44.5291916580678
20
-0.486124936264304
30
0
41
1
10
44.5704988690544
20
-0.47672243523283
30
0
41
1
10
44.653801857874
20
-0.466622874182434
30
0
41
1
10
44.696307985297
20
-0.465977784993328
30
0
41
1
10
44.7824023805488
20
-0.470264847819493
30
0
41
1
10
44.8260620973527
20
-0.475296233915799
30
0
41
1
10
44.9127939437092
20
-0.489437812162521
30
0
41
1
10
44.9560752382426
20
-0.498572299869949
30
0
41
1
10
45.0857119456807
20
-0.531027824898956
30
0
41
1
10
45.1718647876172
20
-0.559288624884914
30
0
41
1
10
45.3436856116183
20
-0.627633699451678
30
0
41
1
10
45.4295896588276
20
-0.667863009960854
30
0
41
1
10
45.5135289602247
20
-0.714602969750388
30
0
0
SPLINE
5
CE
100
AcDbEntity
8
1
62
256
6
ByLayer
370
18
48
1
60
0
100
AcDbSpline
70
4
71
3
72
40
73
36
40
0
40
0
40
0
40
0
40
0.0774682624975173
40
0.0774682624975173
40
0.116202393746275
40
0.116202393746275
40
0.154936524995032
40
0.154936524995032
40
0.19367065624379
40
0.19367065624379
40
0.232404787492548
40
0.232404787492548
40
0.309873049990063
40
0.309873049990063
40
0.348607181238822
40
0.348607181238822
40
0.38734131248758
40
0.38734131248758
40
0.464809574985098
40
0.464809574985098
40
0.542277837482615
40
0.542277837482615
40
0.581011968731375
40
0.581011968731375
40
0.619746099980134
40
0.619746099980134
40
0.774682624975171
40
0.774682624975171
40
0.813416756223929
40
0.813416756223929
40
0.852150887472687
40
0.852150887472687
40
0.929619149970203
40
0.929619149970203
40
1
40
1
40
1
40
1
41
1
10
45.2249157660831
20
-2.37056298921871
30
0
41
1
10
44.7887959979621
20
-2.38895427525011
30
0
41
1
10
44.3535838571714
20
-2.38213069001992
30
0
41
1
10
43.6990127427349
20
-2.334671566227
30
0
41
1
10
43.480238182953
20
-2.31259661019752
30
0
41
1
10
43.0436469536388
20
-2.2564734839425
30
0
41
1
10
42.8257152178643
20
-2.22241922960996
30
0
41
1
10
42.3899858325216
20
-2.14279563093314
30
0
41
1
10
42.172140582524
20
-2.09726973052994
30
0
41
1
10
41.7359362623632
20
-1.99533354540134
30
0
41
1
10
41.5172762825135
20
-1.93882943427511
30
0
41
1
10
40.8621007440196
20
-1.75468780670849
30
0
41
1
10
40.4268118546474
20
-1.61255000273121
30
0
41
1
10
39.7725972947133
20
-1.3759179349945
30
0
41
1
10
39.5539732553714
20
-1.29304529773373
30
0
41
1
10
39.1171923281137
20
-1.12107775694057
30
0
41
1
10
38.8996886492131
20
-1.03222567902657
30
0
41
1
10
38.2489482694386
20
-0.758997729888733
30
0
41
1
10
37.8173839579953
20
-0.568156399236841
30
0
41
1
10
36.9542600919634
20
-0.179094648873729
30
0
41
1
10
36.5227365251412
20
0.0192038001393371
30
0
41
1
10
35.8722275606799
20
0.314965996609004
30
0
41
1
10
35.6548158888606
20
0.413183893207787
30
0
41
1
10
35.2182891817613
20
0.607626266612328
30
0
41
1
10
34.999559460117
20
0.703694936159593
30
0
41
1
10
33.9124003171132
20
1.17073487823592
30
0
41
1
10
33.0540364487716
20
1.50512562029925
30
0
41
1
10
31.9729123671697
20
1.83345191751334
30
0
41
1
10
31.7562685705551
20
1.89464071373749
30
0
41
1
10
31.3215820985051
20
2.00714775260454
30
0
41
1
10
31.1032107628867
20
2.05854162490508
30
0
41
1
10
30.44745208916
20
2.19609850519817
30
0
41
1
10
30.0119639499932
20
2.26506682057578
30
0
41
1
10
29.1796596333135
20
2.35032192219259
30
0
41
1
10
28.78200290801
20
2.37074207536421
30
0
41
1
10
28.3854080803284
20
2.3704117618035
30
0
0
SPLINE
5
CF
100
AcDbEntity
8
1
62
256
6
ByLayer
370
18
48
1
60
0
100
AcDbSpline
70
4
71
3
72
24
73
20
40
0
40
0
40
0
40
0
40
0.10025652976419
40
0.10025652976419
40
0.228791311226449
40
0.228791311226449
40
0.357326092688709
40
0.357326092688709
40
0.421593483419839
40
0.421593483419839
40
0.485860874150969
40
0.485860874150969
40
0.550128264882098
40
0.550128264882098
40
0.614395655613228
40
0.614395655613228
40
0.742930437075486
40
0.742930437075486
40
1
40
1
40
1
40
1
41
1
10
13.628556804953
20
-2.25183116452669
30
0
41
1
10
13.2878005349346
20
-2.29812267833932
30
0
41
1
10
12.9478119331375
20
-2.32984868338008
30
0
41
1
10
12.1709960472876
20
-2.36779676566999
30
0
41
1
10
11.7328259777175
20
-2.36417883445711
30
0
41
1
10
10.8595964744739
20
-2.30733935466119
30
0
41
1
10
10.4237888399788
20
-2.25428306812748
30
0
41
1
10
9.76778118642477
20
-2.13966589436043
30
0
41
1
10
9.54878617289864
20
-2.09561052176909
30
0
41
1
10
9.11193146904884
20
-1.99693569515864
30
0
41
1
10
8.89376071879809
20
-1.94226714109118
30
0
41
1
10
8.45737818970281
20
-1.82298356013234
30
0
41
1
10
8.23916454008958
20
-1.75836812695059
30
0
41
1
10
7.80206076260038
20
-1.62007032465635
30
0
41
1
10
7.58279398531454
20
-1.54624127390727
30
0
41
1
10
6.92841272735427
20
-1.31426463390687
30
0
41
1
10
6.49543262183158
20
-1.14520371922993
30
0
41
1
10
5.19919911014165
20
-0.60967457452557
30
0
41
1
10
4.33879368678242
20
-0.214472001946859
30
0
41
1
10
3.46457257515263
20
0.180243587733713
30
0
0
SPLINE
5
D0
100
AcDbEntity
8
1
62
256
6
ByLayer
370
18
48
1
60
0
100
AcDbSpline
70
4
71
3
72
24
73
20
40
0
40
0
40
0
40
0
40
0.0624999999999973
40
0.0624999999999973
40
0.124999999999995
40
0.124999999999995
40
0.24999999999999
40
0.24999999999999
40
0.31249999999999
40
0.31249999999999
40
0.37499999999999
40
0.37499999999999
40
0.49999999999999
40
0.49999999999999
40
0.62499999999999
40
0.62499999999999
40
0.74999999999999
40
0.74999999999999
40
1
40
1
40
1
40
1
41
1
10
42.9272828156685
20
0.698130342681452
30
0
41
1
10
42.9286806384285
20
0.632964396589045
30
0
41
1
10
42.9343008793879
20
0.567355893985024
30
0
41
1
10
42.9537052018266
20
0.435283227254502
30
0
41
1
10
42.9675981896712
20
0.368430264577938
30
0
41
1
10
43.0206888254693
20
0.169261846454134
30
0
41
1
10
43.070089616417
20
0.0414415535723833
30
0
41
1
10
43.1608469468255
20
-0.144392417442248
30
0
41
1
10
43.1939796444966
20
-0.205390880291901
30
0
41
1
10
43.2637642321811
20
-0.322996274114672
30
0
41
1
10
43.3005882366093
20
-0.379978756390898
30
0
41
1
10
43.4160816598401
20
-0.546194622856916
30
0
41
1
10
43.4997295121124
20
-0.650736922611998
30
0
41
1
10
43.6778292161537
20
-0.849641116140731
30
0
41
1
10
43.7707390688466
20
-0.942243506169007
30
0
41
1
10
43.9616371385521
20
-1.11569012176511
30
0
41
1
10
44.059822334641
20
-1.19670283479218
30
0
41
1
10
44.3612929876572
20
-1.42530866188841
30
0
41
1
10
44.5723542325429
20
-1.55907521346251
30
0
41
1
10
44.7868187387017
20
-1.6748480927661
30
0
0
SPLINE
5
D1
100
AcDbEntity
8
1
62
256
6
ByLayer
370
18
48
1
60
0
100
AcDbSpline
70
4
71
3
72
14
73
10
40
0
40
0
40
0
40
0
40
0.25
40
0.25
40
0.5
40
0.5
40
0.75
40
0.75
40
1
40
1
40
1
40
1
41
1
10
3.56948127966251
20
-2.22703960543726
30
0
41
1
10
3.55041167551258
20
-2.22577303664596
30
0
41
1
10
3.53091697541924
20
-2.22666928510986
30
0
41
1
10
3.49080414372941
20
-2.23411854722443
30
0
41
1
10
3.470633410022
20
-2.24066692078205
30
0
41
1
10
3.43172679252092
20
-2.26019998401685
30
0
41
1
10
3.41351192815253
20
-2.27294903094901
30
0
41
1
10
3.38110132239848
20
-2.30347332803836
30
0
41
1
10
3.36731488071683
20
-2.32081141430686
30
0
41
1
10
3.3560163436629
20
-2.3394742967281
30
0
0
SPLINE
5
D2
100
AcDbEntity
8
1
62
256
6
ByLayer
370
18
48
1
60
0
100
AcDbSpline
70
4
71
3
72
8
73
4
40
0
40
0
40
0
40
0
40
1
40
1
40
1
40
1
41
1
10
3.46484085955717
20
0.179574084282876
30
0
41
1
10
3.48465854928497
20
0.169977415665699
30
0
41
1
10
3.50560335216974
20
0.160314979431263
30
0
41
1
10
3.52703701314073
20
0.150718681712533
30
0
0
SPLINE
5
D3
100
AcDbEntity
8
1
62
256
6
ByLayer
370
18
48
1
60
0
100
AcDbSpline
70
4
71
3
72
10
73
6
40
0
40
0
40
0
40
0
40
0.5
40
0.5
40
1
40
1
40
1
40
1
41
1
10
45.3174807148026
20
2.29790895511422
30
0
41
1
10
45.4045882630324
20
2.05369194003936
30
0
41
1
10
45.4932343113462
20
1.80981102052073
30
0
41
1
10
45.6729592783448
20
1.32260035290969
30
0
41
1
10
45.7639009276666
20
1.07971031958942
30
0
41
1
10
45.8551242258072
20
0.83783190714999
30
0
0
SPLINE
5
D4
100
AcDbEntity
8
1
62
256
6
ByLayer
370
18
48
1
60
0
100
AcDbSpline
70
4
71
3
72
8
73
4
40
0
40
0
40
0
40
0
40
1
40
1
40
1
40
1
41
1
10
45.2328158484379
20
-2.34955425074418
30
0
41
1
10
45.2301842030466
20
-2.35655887301729
30
0
41
1
10
45.2275508422159
20
-2.36356178612189
30
0
41
1
10
45.2249157660831
20
-2.37056298921874
30
0
0
SPLINE
5
D5
100
AcDbEntity
8
1
62
256
6
ByLayer
370
18
48
1
60
0
100
AcDbSpline
70
4
71
3
72
8
73
4
40
0
40
0
40
0
40
0
40
1
40
1
40
1
40
1
41
1
10
45.8551242258072
20
0.83783190714999
30
0
41
1
10
45.8454969891902
20
0.777480951767473
30
0
41
1
10
45.833851027833
20
0.717676031796685
30
0
41
1
10
45.820463420176
20
0.658373263015591
30
0
0
SPLINE
5
D6
100
AcDbEntity
8
1
62
256
6
ByLayer
370
18
48
1
60
0
100
AcDbSpline
70
4
71
3
72
10
73
6
40
0
40
0
40
0
40
0
40
0.5
40
0.5
40
1
40
1
40
1
40
1
41
1
10
45.3174807148089
20
2.29790895509402
30
0
41
1
10
45.3026680401169
20
2.31565198010927
30
0
41
1
10
45.2875508219713
20
2.33064014611119
30
0
41
1
10
45.2565940836162
20
2.35497789354844
30
0
41
1
10
45.2408125453087
20
2.36425175249738
30
0
41
1
10
45.2249157660831
20
2.37056298921871
30
0
0
SPLINE
5
D7
100
AcDbEntity
8
1
62
256
6
ByLayer
370
18
48
1
60
0
100
AcDbSpline
70
4
71
3
72
16
73
12
40
0
40
0
40
0
40
0
40
0.25
40
0.25
40
0.375
40
0.375
40
0.5
40
0.5
40
0.75
40
0.75
40
1
40
1
40
1
40
1
41
1
10
44.7868187387017
20
-1.6748480927661
30
0
41
1
10
44.8236863662577
20
-1.77525083536798
30
0
41
1
10
44.8613631220773
20
-1.86316385356704
30
0
41
1
10
44.9187838875045
20
-1.97704715022513
30
0
41
1
10
44.9380798402467
20
-2.01198735940761
30
0
41
1
10
44.9769835096345
20
-2.07567676090207
30
0
41
1
10
44.9965866077802
20
-2.10437037223539
30
0
41
1
10
45.0546324548258
20
-2.17929530949434
30
0
41
1
10
45.0927306049564
20
-2.21520930785846
30
0
41
1
10
45.1681114215542
20
-2.25894961473426
30
0
41
1
10
45.2055272506256
20
-2.26655056975846
30
0
41
1
10
45.2417897487743
20
-2.25907440583046
30
0
0
SPLINE
5
D8
100
AcDbEntity
8
1
62
256
6
ByLayer
370
18
48
1
60
0
100
AcDbSpline
70
4
71
3
72
8
73
4
40
0
40
0
40
0
40
0
40
1
40
1
40
1
40
1
41
1
10
7.17687526750135
20
1.73991906339271
30
0
41
1
10
7.4517591869334
20
1.79941002506283
30
0
41
1
10
7.7254502528167
20
1.85879805089436
30
0
41
1
10
7.99830528369543
20
1.9159233177912
30
0
0
SPLINE
5
D9
100
AcDbEntity
8
1
62
256
6
ByLayer
370
18
48
1
60
0
100
AcDbSpline
70
4
71
3
72
10
73
6
40
0
40
0
40
0
40
0
40
0.146458392801701
40
0.146458392801701
40
1
40
1
40
1
40
1
41
1
10
3.35600773314778
20
-2.35477428025683
30
0
41
1
10
3.35600847247699
20
-2.35476896372799
30
0
41
1
10
3.35600916696478
20
-2.35465613712284
30
0
41
1
10
3.35601359859376
20
-2.3531497561126
30
0
41
1
10
3.35601583604333
20
-2.34814374743868
30
0
41
1
10
3.35601634366662
20
-2.33947429671318
30
0
0
SPLINE
5
DA
100
AcDbEntity
8
1
62
256
6
ByLayer
370
18
48
1
60
0
100
AcDbSpline
70
4
71
3
72
16
73
12
40
0
40
0
40
0
40
0
40
0.360489960826817
40
0.360489960826817
40
0.540734941240228
40
0.540734941240228
40
0.72097992165364
40
0.72097992165364
40
0.901224902067051
40
0.901224902067051
40
1
40
1
40
1
40
1
41
1
10
7.99830528369543
20
-1.9159233177912
30
0
41
1
10
8.38728685290548
20
-2.02036777038379
30
0
41
1
10
8.77718147836114
20
-2.10529786390299
30
0
41
1
10
9.35954867081739
20
-2.20849673507095
30
0
41
1
10
9.55369680061642
20
-2.23830299790001
30
0
41
1
10
9.94315761142286
20
-2.288074278827
30
0
41
1
10
10.1385101298203
20
-2.30824083271469
30
0
41
1
10
10.5277688779085
20
-2.33903224844568
30
0
41
1
10
10.721770021129
20
-2.34957507397951
30
0
41
1
10
11.0226856150268
20
-2.35809252465282
30
0
41
1
10
11.1292481820772
20
-2.35963573603561
30
0
41
1
10
11.2358101203337
20
-2.35970503488511
30
0
0
SPLINE
5
DB
100
AcDbEntity
8
1
62
256
6
ByLayer
370
18
48
1
60
0
100
AcDbSpline
70
4
71
3
72
74
73
70
40
0
40
0
40
0
40
0
40
0.0335106633218146
40
0.0335106633218146
40
0.0622478584849504
40
0.0622478584849504
40
0.0909850536480862
40
0.0909850536480862
40
0.119722248811222
40
0.119722248811222
40
0.148459443974358
40
0.148459443974358
40
0.177196639137495
40
0.177196639137495
40
0.205933834300633
40
0.205933834300633
40
0.23467102946377
40
0.23467102946377
40
0.263408224626908
40
0.263408224626908
40
0.292145419790045
40
0.292145419790045
40
0.320882614953182
40
0.320882614953182
40
0.34961981011632
40
0.34961981011632
40
0.378357005279457
40
0.378357005279457
40
0.407094200442595
40
0.407094200442595
40
0.435831395605732
40
0.435831395605732
40
0.46456859076887
40
0.46456859076887
40
0.493305785932007
40
0.493305785932007
40
0.522042981095144
40
0.522042981095144
40
0.550780176258282
40
0.550780176258282
40
0.579517371421419
40
0.579517371421419
40
0.608254566584557
40
0.608254566584557
40
0.636991761747694
40
0.636991761747694
40
0.665728956910832
40
0.665728956910832
40
0.694466152073969
40
0.694466152073969
40
0.723203347237106
40
0.723203347237106
40
0.780677737563381
40
0.780677737563381
40
0.809414932726518
40
0.809414932726518
40
0.838152127889654
40
0.838152127889654
40
0.866889323052791
40
0.866889323052791
40
0.895626518215928
40
0.895626518215928
40
0.924363713379064
40
0.924363713379064
40
0.953100908542201
40
0.953100908542201
40
0.981838103705338
40
0.981838103705338
40
1
40
1
40
1
40
1
41
1
10
23.6532799886529
20
1.72294501397295
30
0
41
1
10
23.8798609166167
20
1.7934764786412
30
0
41
1
10
24.1064998104872
20
1.85895854171079
30
0
41
1
10
24.5271338339775
20
1.97191351099926
30
0
41
1
10
24.7218285142206
20
2.02003508005342
30
0
41
1
10
25.1114126712055
20
2.10687544724928
30
0
41
1
10
25.3060180867676
20
2.1458234529878
30
0
41
1
10
25.69426637986
20
2.21524654605966
30
0
41
1
10
25.8880043249486
20
2.24554362371936
30
0
41
1
10
26.2765763168235
20
2.29603674309283
30
0
41
1
10
26.4711432866806
20
2.31649171612875
30
0
41
1
10
26.8603906416467
20
2.34794794621399
30
0
41
1
10
27.0548418571781
20
2.35891046668723
30
0
41
1
10
27.4436702747812
20
2.37059307562092
30
0
41
1
10
27.6381171535888
20
2.37147854667717
30
0
41
1
10
28.026592696424
20
2.36344766585691
30
0
41
1
10
28.220335306773
20
2.3544030363455
30
0
41
1
10
28.6087414878031
20
2.32652556568968
30
0
41
1
10
28.8035647788805
20
2.3077991973737
30
0
41
1
10
29.1933270973988
20
2.26070182840473
30
0
41
1
10
29.3875229425185
20
2.23220651572851
30
0
41
1
10
29.7756118519818
20
2.16593599505251
30
0
41
1
10
29.9698686517425
20
2.12851551116668
30
0
41
1
10
30.3584606937787
20
2.04501815771522
30
0
41
1
10
30.5526709210992
20
1.99879106714388
30
0
41
1
10
30.94110290582
20
1.89727594833965
30
0
41
1
10
31.136057256101
20
1.84260883282417
30
0
41
1
10
31.5253161500238
20
1.72647698387888
30
0
41
1
10
31.7197092331749
20
1.66485475115783
30
0
41
1
10
32.1075224301011
20
1.53356612094589
30
0
41
1
10
32.3014319313594
20
1.46466328750097
30
0
41
1
10
32.6901130349606
20
1.32197208863016
30
0
41
1
10
32.8847219383362
20
1.24793086680356
30
0
41
1
10
33.2738896576687
20
1.09318332651009
30
0
41
1
10
33.4681090686926
20
1.01286088346384
30
0
41
1
10
33.8567982880944
20
0.850355241521527
30
0
41
1
10
34.0511384627384
20
0.767615815457305
30
0
41
1
10
34.4393526775214
20
0.59820536300245
30
0
41
1
10
34.6330094717898
20
0.51104139406948
30
0
41
1
10
35.0216988932634
20
0.336677599485114
30
0
41
1
10
35.2167807647877
20
0.248964582707998
30
0
41
1
10
35.6060282195935
20
0.0722746833735926
30
0
41
1
10
35.7998685469472
20
-0.0173219978513544
30
0
41
1
10
36.1879298685515
20
-0.194693709089307
30
0
41
1
10
36.3821936589881
20
-0.282384170966651
30
0
41
1
10
36.7707021017019
20
-0.456854412047903
30
0
41
1
10
36.9647238003767
20
-0.54411409170072
30
0
41
1
10
37.3534347122343
20
-0.716195905550734
30
0
41
1
10
37.5483801535088
20
-0.800234982498864
30
0
41
1
10
37.9372894659596
20
-0.964387474601239
30
0
41
1
10
38.1313683284015
20
-1.04486729453271
30
0
41
1
10
38.7128024512599
20
-1.28067642199213
30
0
41
1
10
39.1022206025436
20
-1.4258517945637
30
0
41
1
10
39.685395717748
20
-1.62834956206001
30
0
41
1
10
39.8795164349223
20
-1.69227425291621
30
0
41
1
10
40.2680462425582
20
-1.81192482912061
30
0
41
1
10
40.4622999769041
20
-1.8679282355981
30
0
41
1
10
40.8501747201471
20
-1.9729996806241
30
0
41
1
10
41.0439448512322
20
-2.0217967645826
30
0
41
1
10
41.4329246854525
20
-2.1098554877945
30
0
41
1
10
41.6280155121799
20
-2.14949826762441
30
0
41
1
10
42.0167450343628
20
-2.21997255494722
30
0
41
1
10
42.2103877763801
20
-2.25093679058927
30
0
41
1
10
42.5985094696425
20
-2.3026317783798
30
0
41
1
10
42.7927855491598
20
-2.32360122946656
30
0
41
1
10
43.1812867816647
20
-2.35606556081851
30
0
41
1
10
43.375274195957
20
-2.36757898593601
30
0
41
1
10
43.6928071261119
20
-2.37803697686519
30
0
41
1
10
43.8157570268452
20
-2.3800785145649
30
0
41
1
10
43.9386308799477
20
-2.38014385767764
30
0
0
SPLINE
5
DC
100
AcDbEntity
8
1
62
256
6
ByLayer
370
18
48
1
60
0
100
AcDbSpline
70
4
71
3
72
16
73
12
40
0
40
0
40
0
40
0
40
0.247586303059381
40
0.247586303059381
40
0.371379454589072
40
0.371379454589072
40
0.495172606118763
40
0.495172606118763
40
0.990345212237529
40
0.990345212237529
40
1
40
1
40
1
40
1
41
1
10
3.52703701314076
20
0.150718681712533
30
0
41
1
10
3.9652559664672
20
-0.0454810971214954
30
0
41
1
10
4.40247915362184
20
-0.242574557793205
30
0
41
1
10
5.06002548858112
20
-0.532442728253642
30
0
41
1
10
5.27909037580093
20
-0.627905256497741
30
0
41
1
10
5.71508505585692
20
-0.814151077831895
30
0
41
1
10
5.93238923342398
20
-0.905065340371493
30
0
41
1
10
7.01676011792168
20
-1.34579409554877
30
0
41
1
10
7.87741114685537
20
-1.65405696758663
30
0
41
1
10
8.76586673207225
20
-1.8902346317941
30
0
41
1
10
8.78286479740473
20
-1.89472296721604
30
0
41
1
10
8.79986884288931
20
-1.89918241948783
30
0
0
SPLINE
5
DD
100
AcDbEntity
8
1
62
256
6
ByLayer
370
13
48
1
60
0
100
AcDbSpline
70
4
71
3
72
18
73
14
40
0
40
0
40
0
40
0
40
0.127651082230143
40
0.127651082230143
40
0.266099789974087
40
0.266099789974087
40
0.542997205461976
40
0.542997205461976
40
0.819894620949865
40
0.819894620949865
40
0.95834332869381
40
0.95834332869381
40
1
40
1
40
1
40
1
41
1
10
8.79986804918153
20
-1.89918221133132
30
0
41
1
10
9.00088919122013
20
-1.95190168799005
30
0
41
1
10
9.20274611270793
20
-2.00058449281474
30
0
41
1
10
9.62377595866701
20
-2.09249029295961
30
0
41
1
10
9.84192605598054
20
-2.13468947185356
30
0
41
1
10
10.4945455466226
20
-2.24387508024364
30
0
41
1
10
10.9271558062682
20
-2.29348560794722
30
0
41
1
10
11.7918988053781
20
-2.34455648324698
30
0
41
1
10
12.2240198165758
20
-2.34605096827843
30
0
41
1
10
12.8751215597364
20
-2.31165788654789
30
0
41
1
10
13.0926454742293
20
-2.29410576514863
30
0
41
1
10
13.3766078688153
20
-2.26333682024207
30
0
41
1
10
13.4424072385056
20
-2.25566299347918
30
0
41
1
10
13.5082600149549
20
-2.24744629231347
30
0
0
SPLINE
5
DE
100
AcDbEntity
8
1
62
256
6
ByLayer
370
18
48
1
60
0
100
AcDbSpline
70
4
71
3
72
20
73
16
40
0
40
0
40
0
40
0
40
0.0386775034467553
40
0.0386775034467553
40
0.203329846408158
40
0.203329846408158
40
0.532634532330958
40
0.532634532330958
40
0.61496070381166
40
0.61496070381166
40
0.697286875292361
40
0.697286875292361
40
0.861939218253758
40
0.861939218253758
40
1
40
1
40
1
40
1
41
1
10
33.2155370272339
20
1.41137772047202
30
0
41
1
10
33.3181304371141
20
1.37430506014178
30
0
41
1
10
33.4205745645035
20
1.33646038327922
30
0
41
1
10
33.9578218915485
20
1.13401609262306
30
0
41
1
10
34.3899849728138
20
0.957616327142972
30
0
41
1
10
35.6842115284716
20
0.404976292289007
30
0
41
1
10
36.5441264669172
20
0.0053438129454264
30
0
41
1
10
37.637824475471
20
-0.482849793237705
30
0
41
1
10
37.856553274445
20
-0.579497678742371
30
0
41
1
10
38.2916137737141
20
-0.768310572942482
30
0
41
1
10
38.5083920025622
20
-0.860676722877031
30
0
41
1
10
39.1573102737423
20
-1.1298650472491
30
0
41
1
10
39.5881666428793
20
-1.29848694294506
30
0
41
1
10
40.3808823543673
20
-1.58143151628789
30
0
41
1
10
40.7426842355786
20
-1.70011784087498
30
0
41
1
10
41.1060463962523
20
-1.80609755354001
30
0
0
SPLINE
5
DF
100
AcDbEntity
8
1
62
256
6
ByLayer
370
13
48
1
60
0
100
AcDbSpline
70
4
71
3
72
14
73
10
40
0
40
0
40
0
40
0
40
0.0510835037162835
40
0.0510835037162835
40
0.209236253096899
40
0.209236253096899
40
0.367389002477514
40
0.367389002477514
40
1
40
1
40
1
40
1
41
1
10
41.1060473562868
20
-1.8060978335476
30
0
41
1
10
41.1760333646858
20
-1.82651023814273
30
0
41
1
10
41.2460772553814
20
-1.84645126086161
30
0
41
1
10
41.5332496816302
20
-1.9261295097611
30
0
41
1
10
41.7509510730197
20
-1.98168200442913
30
0
41
1
10
42.188227269331
20
-2.08245302427091
30
0
41
1
10
42.4070816715372
20
-2.12748602383618
30
0
41
1
10
43.4964109247833
20
-2.32321814494296
30
0
41
1
10
44.3600986940703
20
-2.38682855628107
30
0
41
1
10
45.2328158484495
20
-2.34955425074929
30
0
0
SPLINE
5
E0
100
AcDbEntity
8
1
62
256
6
ByLayer
370
18
48
1
60
0
100
AcDbSpline
70
4
71
3
72
10
73
6
40
0
40
0
40
0
40
0
40
0.5
40
0.5
40
1
40
1
40
1
40
1
41
1
10
3.44084585919603
20
0.192518215764409
30
0
41
1
10
3.41685346916293
20
0.206599420648018
30
0
41
1
10
3.39592104536541
20
0.2252765197739
30
0
41
1
10
3.3649685453897
20
0.270709764930018
30
0
41
1
10
3.35502656500384
20
0.297365757352708
30
0
41
1
10
3.35504018320114
20
0.325114898716691
30
0
0
SPLINE
5
E1
100
AcDbEntity
8
1
62
256
6
ByLayer
370
18
48
1
60
0
100
AcDbSpline
70
4
71
3
72
22
73
18
40
0
40
0
40
0
40
0
40
0.0916411592841945
40
0.0916411592841945
40
0.174648989786143
40
0.174648989786143
40
0.257656820288091
40
0.257656820288091
40
0.589688142295887
40
0.589688142295887
40
0.672695972797836
40
0.672695972797836
40
0.755703803299785
40
0.755703803299785
40
0.921719464303683
40
0.921719464303683
40
1
40
1
40
1
40
1
41
1
10
17.1507906832041
20
1.30033597356208
30
0
41
1
10
17.3906213847848
20
1.21060613569901
30
0
41
1
10
17.6311281370417
20
1.11646495583341
30
0
41
1
10
18.0915567590673
20
0.930038034730472
30
0
41
1
10
18.3107125139966
20
0.838547502150107
30
0
41
1
10
18.7465066773868
20
0.652469855595683
30
0
41
1
10
18.9637430320701
20
0.557818986435819
30
0
41
1
10
20.0479516363779
20
0.0795354837875379
30
0
41
1
10
20.9086023219083
20
-0.320115993593873
30
0
41
1
10
21.9985848432693
20
-0.789442480235238
30
0
41
1
10
22.2177529205834
20
-0.88194994798053
30
0
41
1
10
22.6555661443725
20
-1.0616852720004
30
0
41
1
10
22.8740879551044
20
-1.14883835502494
30
0
41
1
10
23.5293214602625
20
-1.40050854552607
30
0
41
1
10
23.9663835821696
20
-1.55518917078965
30
0
41
1
10
24.6107432880272
20
-1.75687377001128
30
0
41
1
10
24.8164265760096
20
-1.81721859070015
30
0
41
1
10
25.0215517386228
20
-1.87305898184604
30
0
0
SPLINE
5
E2
100
AcDbEntity
8
1
62
256
6
ByLayer
370
13
48
1
60
0
100
AcDbSpline
70
4
71
3
72
16
73
12
40
0
40
0
40
0
40
0
40
0.409891553983197
40
0.409891553983197
40
0.67806182554147
40
0.67806182554147
40
0.812146961320606
40
0.812146961320606
40
0.946232097099742
40
0.946232097099742
40
1
40
1
40
1
40
1
41
1
10
25.0215517385888
20
-1.87305898183678
30
0
41
1
10
25.6864765611295
20
-2.05406876971745
30
0
41
1
10
26.3455367757992
20
-2.18774741228421
30
0
41
1
10
27.4391911562534
20
-2.31802961482137
30
0
41
1
10
27.87265913997
20
-2.3460802971143
30
0
41
1
10
28.5275224385257
20
-2.35102646495224
30
0
41
1
10
28.7470021333273
20
-2.34644802520532
30
0
41
1
10
29.1833245751539
20
-2.32492116852254
30
0
41
1
10
29.4006932801886
20
-2.30802951404581
30
0
41
1
10
29.7045253230446
20
-2.27612303883879
30
0
41
1
10
29.7914089643242
20
-2.26603482103314
30
0
41
1
10
29.8782302684355
20
-2.2550091983768
30
0
0
SPLINE
5
E3
100
AcDbEntity
8
SK1
62
256
6
ByLayer
370
18
48
1
60
0
100
AcDbSpline
70
4
71
3
72
14
73
10
40
0
40
0
40
0
40
0
40
0.500000000000002
40
0.500000000000002
40
0.750000000000001
40
0.750000000000001
40
0.875000000000001
40
0.875000000000001
40
1
40
1
40
1
40
1
41
1
10
-35.3999999999999
20
-2.67809312352284
30
0
41
1
10
-35.3787677796885
20
-2.71053387769524
30
0
41
1
10
-35.3584290958895
20
-2.73982104266133
30
0
41
1
10
-35.3303626450498
20
-2.77601742377763
30
0
41
1
10
-35.3215171954455
20
-2.78665181907101
30
0
41
1
10
-35.3102812516991
20
-2.79765317539534
30
0
41
1
10
-35.3068890218584
20
-2.80045694980541
30
0
41
1
10
-35.3017585680987
20
-2.80270108689717
30
0
41
1
10
-35.3
20
-2.80210063155724
30
0
41
1
10
-35.3
20
-2.79846630339318
30
0
0
SPLINE
5
E4
100
AcDbEntity
8
SK1
62
256
6
ByLayer
370
18
48
1
60
0
100
AcDbSpline
70
4
71
3
72
14
73
10
40
0
40
0
40
0
40
0
40
0.125000000000001
40
0.125000000000001
40
0.250000000000002
40
0.250000000000002
40
0.5
40
0.5
40
1
40
1
40
1
40
1
41
1
10
-35.3
20
-2.11290705936449
30
0
41
1
10
-35.3
20
-2.10517510612942
30
0
41
1
10
-35.3017593723636
20
-2.09534201990405
30
0
41
1
10
-35.3069353411979
20
-2.07515672628503
30
0
41
1
10
-35.3102739075534
20
-2.06489354680102
30
0
41
1
10
-35.3215583577555
20
-2.03381571212344
30
0
41
1
10
-35.3303095934911
20
-2.01387758354292
30
0
41
1
10
-35.358391202053
20
-1.95526529438575
30
0
41
1
10
-35.378655954467
20
-1.91967483873034
30
0
41
1
10
-35.4
20
-1.88706322656617
30
0
0
SPLINE
5
E5
100
AcDbEntity
8
SK1
62
256
6
ByLayer
370
18
48
1
60
0
100
AcDbSpline
70
4
71
3
72
8
73
4
40
0
40
0
40
0
40
0
40
1
40
1
40
1
40
1
41
1
10
-35.4
20
-1.88706322656617
30
0
41
1
10
-35.6037657367187
20
-1.57572912788604
30
0
41
1
10
-35.8060889026989
20
-1.26373518991557
30
0
41
1
10
-36
20
-0.947893528378671
30
0
0
SPLINE
5
E6
100
AcDbEntity
8
SK1
62
256
6
ByLayer
370
18
48
1
60
0
100
AcDbSpline
70
4
71
3
72
8
73
4
40
0
40
0
40
0
40
0
40
1
40
1
40
1
40
1
41
1
10
-36
20
-1.73892342533483
30
0
41
1
10
-35.8061310386666
20
-2.05469645596705
30
0
41
1
10
-35.6037931300688
20
-2.36671717048492
30
0
41
1
10
-35.4
20
-2.67809312352236
30
0
0
LINE
5
76
100
AcDbEntity
8
81
62
256
6
ByLayer
370
18
48
1
60
0
100
AcDbLine
10
46
20
0
30
0
11
51
21
0
31
0
39
0
210
0
220
0
230
1
0
LINE
5
77
100
AcDbEntity
8
1
62
256
6
ByLayer
370
18
48
1
60
0
100
AcDbLine
10
3.355982
20
2.354774
30
0
11
0.619
21
2.353063
31
0
39
0
210
0
220
0
230
1
0
LINE
5
79
100
AcDbEntity
8
1
62
256
6
ByLayer
370
18
48
1
60
0
100
AcDbLine
10
12.038389
20
2.3602
30
0
11
11.235383
21
2.359699
31
0
39
0
210
0
220
0
230
1
0
LINE
5
7A
100
AcDbEntity
8
1
62
256
6
ByLayer
370
18
48
1
60
0
100
AcDbLine
10
28.388688
20
2.370419
30
0
11
27.588362
21
2.369919
31
0
39
0
210
0
220
0
230
1
0
LINE
5
7B
100
AcDbEntity
8
1
62
256
6
ByLayer
370
18
48
1
60
0
100
AcDbLine
10
44.73982
20
2.380639
30
0
11
43.937936
21
2.380138
31
0
39
0
210
0
220
0
230
1
0
LINE
5
7C
100
AcDbEntity
8
1
62
256
6
ByLayer
370
18
48
1
60
0
100
AcDbLine
10
43.937936
20
-2.380138
30
0
11
44.739985
21
-2.380639
31
0
39
0
210
0
220
0
230
1
0
LINE
5
7D
100
AcDbEntity
8
1
62
256
6
ByLayer
370
18
48
1
60
0
100
AcDbLine
10
27.588362
20
-2.369919
30
0
11
28.388606
21
-2.370419
31
0
39
0
210
0
220
0
230
1
0
LINE
5
7E
100
AcDbEntity
8
1
62
256
6
ByLayer
370
18
48
1
60
0
100
AcDbLine
10
11.235383
20
-2.359699
30
0
11
12.038425
21
-2.3602
31
0
39
0
210
0
220
0
230
1
0
LINE
5
7F
100
AcDbEntity
8
1
62
256
6
ByLayer
370
18
48
1
60
0
100
AcDbLine
10
0.619
20
-2.353063
30
0
11
3.355982
21
-2.354774
31
0
39
0
210
0
220
0
230
1
0
LINE
5
80
100
AcDbEntity
8
1
62
256
6
ByLayer
370
18
48
1
60
0
100
AcDbLine
10
0
20
-3
30
0
11
0.619
21
-2.353063
31
0
39
0
210
0
220
0
230
1
0
LINE
5
81
100
AcDbEntity
8
1
62
256
6
ByLayer
370
18
48
1
60
0
100
AcDbLine
10
0.619
20
2.353063
30
0
11
0
21
3
31
0
39
0
210
0
220
0
230
1
0
LINE
5
82
100
AcDbEntity
8
SK1
62
256
6
ByLayer
370
18
48
1
60
0
100
AcDbLine
10
-35.278312
20
3
30
0
11
-36
21
1.75
31
0
39
0
210
0
220
0
230
1
0
LINE
5
84
100
AcDbEntity
8
SK1
62
256
6
ByLayer
370
18
48
1
60
0
100
AcDbLine
10
-36
20
-1.75
30
0
11
-35.278312
21
-3
31
0
39
0
210
0
220
0
230
1
0
LINE
5
85
100
AcDbEntity
8
SK1
62
256
6
ByLayer
370
18
48
1
60
0
100
AcDbLine
10
0
20
3
30
0
11
-35.278312
21
3
31
0
39
0
210
0
220
0
230
1
0
LINE
5
86
100
AcDbEntity
8
SK1
62
256
6
ByLayer
370
18
48
1
60
0
100
AcDbLine
10
-35.278312
20
-3
30
0
11
0
21
-3
31
0
39
0
210
0
220
0
230
1
0
LINE
5
87
100
AcDbEntity
8
SK4
62
256
6
ByLayer
370
18
48
0.05
60
0
100
AcDbLine
10
51
20
0
30
0
11
-41
21
0
31
0
39
0
210
0
220
0
230
1
0
LINE
5
89
100
AcDbEntity
8
4
62
256
6
ByLayer
370
18
48
0.05
60
0
100
AcDbLine
10
46
20
0
30
0
11
0
21
0
31
0
39
0
210
0
220
0
230
1
0
LINE
5
8B
100
AcDbEntity
8
80
62
256
6
ByLayer
370
18
48
1
60
0
100
AcDbLine
10
0
20
0
30
0
11
-5
21
0
31
0
39
0
210
0
220
0
230
1
0
LINE
5
8C
100
AcDbEntity
8
1
62
256
6
ByLayer
370
13
48
1
60
0
100
AcDbLine
10
44.950555
20
0.619592
30
0
11
45.977895
21
-0.030739
31
0
39
0
210
0
220
0
230
1
0
LINE
5
8D
100
AcDbEntity
8
1
62
256
6
ByLayer
370
13
48
1
60
0
100
AcDbLine
10
45.041123
20
0.681873
30
0
11
45.995507
21
0.077725
31
0
39
0
210
0
220
0
230
1
0
LINE
5
8E
100
AcDbEntity
8
1
62
256
6
ByLayer
370
18
48
1
60
0
100
AcDbLine
10
0.619
20
2.353063
30
0
11
0.619
21
-2.353063
31
0
39
0
210
0
220
0
230
1
0
LINE
5
8F
100
AcDbEntity
8
1
62
256
6
ByLayer
370
18
48
1
60
0
100
AcDbLine
10
0
20
-3
30
0
11
0
21
3
31
0
39
0
210
0
220
0
230
1
0
LINE
5
90
100
AcDbEntity
8
SK1
62
256
6
ByLayer
370
13
48
1
60
0
100
AcDbLine
10
-35.4
20
-1.887037
30
0
11
-35.4
21
-2.678093
31
0
39
0
210
0
220
0
230
1
0
LINE
5
91
100
AcDbEntity
8
SK1
62
256
6
ByLayer
370
18
48
1
60
0
100
AcDbLine
10
-35.278312
20
3
30
0
11
-35.278312
21
-3
31
0
39
0
210
0
220
0
230
1
0
LINE
5
92
100
AcDbEntity
8
SK1
62
256
6
ByLayer
370
18
48
1
60
0
100
AcDbLine
10
-35.3
20
-2.798466
30
0
11
-35.3
21
-2.112907
31
0
39
0
210
0
220
0
230
1
0
LINE
5
93
100
AcDbEntity
8
SK1
62
256
6
ByLayer
370
18
48
1
60
0
100
AcDbLine
10
-36
20
1.75
30
0
11
-36
21
-0.947894
31
0
39
0
210
0
220
0
230
1
0
LINE
5
94
100
AcDbEntity
8
SK1
62
256
6
ByLayer
370
18
48
1
60
0
100
AcDbLine
10
-36
20
-0.947866
30
0
11
-36
21
-1.738923
31
0
39
0
210
0
220
0
230
1
0
LINE
5
95
100
AcDbEntity
8
SK1
62
256
6
ByLayer
370
18
48
1
60
0
100
AcDbLine
10
0
20
-3
30
0
11
0
21
3
31
0
39
0
210
0
220
0
230
1
0
LINE
5
96
100
AcDbEntity
8
SK1
62
256
6
ByLayer
370
18
48
1
60
0
100
AcDbLine
10
-36
20
-1.75
30
0
11
-36
21
-1.738923
31
0
39
0
210
0
220
0
230
1
0
MTEXT
5
E7
100
AcDbEntity
8
SK6
62
256
6
ByLayer
370
13
48
1
60
0
100
AcDbMText
10
7.129169
20
34.763694
30
0
210
0
220
0
230
1
1
\W0.7632;460.1-0476-024A1-XM GC34
40
3.5
41
0
44
1.084337
50
0
71
8
72
5
7
iso_b_vert
0
DIMENSION
5
F4
100
AcDbEntity
8
SK2
62
256
6
ByLayer
370
13
48
1
60
0
100
AcDbDimension
2
DimnDraft3D1
10
45.3057
20
-12.594398
30
0
11
21.555759
21
-12.594398
31
0
70
32
71
5
72
1
41
1
210
0
220
0
230
1
3
Standard
100
AcDbAlignedDimension
13
0
23
-1.5875
33
0
14
45.3057
24
-3.9685
34
0
50
0
100
AcDbRotatedDimension
1001
ACAD
1000
DSTYLE
1002
{
1070
   279
1070
     0
1070
   172
1070
     1
1070
   173
1070
     1
1070
   340
1005
E8
1070
   271
1070
     2
1070
   272
1070
     2
1070
    77
1070
     1
1070
    73
1070
     0
1070
   171
1070
     3
1070
   274
1070
     4
1070
   177
1070
    35
1070
   176
1070
    35
1070
   178
1070
    35
1070
    48
1040
-0.005
1070
    41
1041
3.5
1070
   147
1041
1.75
1070
    42
1041
1.5875
1070
    44
1041
2.0
1070
   140
1041
3.5
1070
   343
1005
0
1070
   344
1005
0
1002
}
0
DIMENSION
5
FE
100
AcDbEntity
8
SK2
62
256
6
ByLayer
370
13
48
1
60
0
100
AcDbDimension
2
DimnDraft3D2
10
46
20
-31.692985
30
0
11
5.647
21
-31.692985
31
0
70
32
71
5
72
1
41
1
210
0
220
0
230
1
3
Standard
100
AcDbAlignedDimension
13
-36
23
-4.5875
33
0
14
46
24
-1.5875
34
0
50
0
100
AcDbRotatedDimension
1001
ACAD
1000
DSTYLE
1002
{
1070
   279
1070
     0
1070
   172
1070
     1
1070
   173
1070
     1
1070
   340
1005
E8
1070
   271
1070
     2
1070
   272
1070
     2
1070
    77
1070
     1
1070
    73
1070
     0
1070
   171
1070
     3
1070
   274
1070
     4
1070
   177
1070
    35
1070
   176
1070
    35
1070
   178
1070
    35
1070
    48
1040
-0.005
1070
    41
1041
3.5
1070
   147
1041
1.75
1070
    42
1041
1.5875
1070
    44
1041
2.0
1070
   140
1041
3.5
1070
   343
1005
0
1070
   344
1005
0
1002
}
0
DIMENSION
5
108
100
AcDbEntity
8
SK2
62
256
6
ByLayer
370
13
48
1
60
0
100
AcDbDimension
2
DimnDraft3D3
10
46
20
13.990119
30
0
11
33.755
21
13.990119
31
0
70
32
71
5
72
1
41
1
210
0
220
0
230
1
3
Standard
100
AcDbAlignedDimension
13
21.51
23
3.9685
33
0
14
46
24
1.5875
34
0
50
0
100
AcDbRotatedDimension
1001
ACAD
1000
DSTYLE
1002
{
1070
   279
1070
     0
1070
   172
1070
     1
1070
   173
1070
     1
1070
   340
1005
E8
1070
   271
1070
     2
1070
   272
1070
     2
1070
    77
1070
     1
1070
    73
1070
     0
1070
   171
1070
     3
1070
   274
1070
     4
1070
   177
1070
    35
1070
   176
1070
    35
1070
   178
1070
    35
1070
    48
1040
-0.005
1070
    41
1041
3.5
1070
   147
1041
1.75
1070
    42
1041
1.5875
1070
    44
1041
2.0
1070
   140
1041
3.5
1070
   343
1005
0
1070
   344
1005
0
1002
}
0
DIMENSION
5
112
100
AcDbEntity
8
SK2
62
256
6
ByLayer
370
13
48
1
60
0
100
AcDbDimension
2
DimnDraft3D4
10
45.3057
20
-15.183503
30
0
11
55.981425
21
-15.183503
31
0
70
32
71
5
72
1
41
1
210
0
220
0
230
1
3
Standard
100
AcDbAlignedDimension
13
46
23
-1.5875
33
0
14
45.3057
24
-3.9685
34
0
50
0
100
AcDbRotatedDimension
1001
ACAD
1000
DSTYLE
1002
{
1070
   279
1070
     0
1070
   172
1070
     1
1070
   173
1070
     1
1070
   340
1005
E8
1070
   271
1070
     2
1070
   272
1070
     2
1070
    77
1070
     1
1070
    73
1070
     0
1070
   171
1070
     3
1070
   274
1070
     4
1070
   177
1070
    35
1070
   176
1070
    35
1070
   178
1070
    35
1070
    48
1040
-0.005
1070
    41
1041
3.5
1070
   147
1041
1.75
1070
    42
1041
1.5875
1070
    44
1041
2.0
1070
   140
1041
3.5
1070
   343
1005
0
1070
   344
1005
0
1002
}
0
DIMENSION
5
11C
100
AcDbEntity
8
SK2
62
256
6
ByLayer
370
13
48
1
60
0
100
AcDbDimension
2
DimnDraft3D5
10
45.3057
20
-21.343428
30
0
11
2.566376
21
-21.343428
31
0
70
32
71
5
72
1
41
1
210
0
220
0
230
1
3
Standard
100
AcDbAlignedDimension
13
-36
23
-4.5875
33
0
14
45.3057
24
-3.9685
34
0
50
0
100
AcDbRotatedDimension
1001
ACAD
1000
DSTYLE
1002
{
1070
   279
1070
     0
1070
   172
1070
     1
1070
   173
1070
     1
1070
   340
1005
E8
1070
   271
1070
     2
1070
   272
1070
     2
1070
    77
1070
     1
1070
    73
1070
     0
1070
   171
1070
     3
1070
   274
1070
     4
1070
   177
1070
    35
1070
   176
1070
    35
1070
   178
1070
    35
1070
    48
1040
-0.005
1070
    41
1041
3.5
1070
   147
1041
1.75
1070
    42
1041
1.5875
1070
    44
1041
2.0
1070
   140
1041
3.5
1070
   343
1005
0
1070
   344
1005
0
1002
}
0
DIMENSION
5
127
100
AcDbEntity
8
SK2
62
256
6
ByLayer
370
13
48
1
60
0
100
AcDbDimension
2
DimnDraft3D6
10
-46.625163
20
3
30
0
11
-47.250163
21
21.47418
31
0
70
33
71
5
72
1
41
1
210
0
220
0
230
1
3
Standard
100
AcDbAlignedDimension
13
-37.5875
23
-3
33
0
14
-37.5875
24
3
34
0
1001
ACAD
1000
DSTYLE
1002
{
1070
   279
1070
     0
1070
    74
1070
     0
1070
   173
1070
     1
1070
   340
1005
E8
1070
   271
1070
     3
1070
   272
1070
     2
1070
    77
1070
     1
1070
    73
1070
     0
1070
   171
1070
     3
1070
   274
1070
     4
1070
   177
1070
    35
1070
   176
1070
    35
1070
   178
1070
    35
1070
    48
1040
-0.005
1070
    41
1041
3.5
1070
   147
1041
1.75
1070
    42
1041
1.5875
1070
    44
1041
2.0
1070
   140
1041
3.5
1070
   343
1005
0
1070
   344
1005
0
1002
}
0
DIMENSION
5
132
100
AcDbEntity
8
2
62
256
6
ByLayer
370
13
48
1
60
0
100
AcDbDimension
2
DimnDraft3D7
10
60.083343
20
2.381
30
0
11
55.458343
21
19.448266
31
0
70
33
71
5
72
1
41
1
210
0
220
0
230
1
3
Standard
100
AcDbAlignedDimension
13
46.8932
23
-2.381
33
0
14
46.8932
24
2.381
34
0
1001
ACAD
1000
DSTYLE
1002
{
1070
   279
1070
     0
1070
    74
1070
     0
1070
   173
1070
     1
1070
   340
1005
E8
1070
   271
1070
     3
1070
   272
1070
     2
1070
    77
1070
     1
1070
    73
1070
     0
1070
   171
1070
     3
1070
   274
1070
     4
1070
   177
1070
    35
1070
   176
1070
    35
1070
   178
1070
    35
1070
    48
1040
-0.005
1070
    41
1041
3.5
1070
   147
1041
1.75
1070
    42
1041
1.5875
1070
    44
1041
2.0
1070
   140
1041
3.5
1070
   343
1005
0
1070
   344
1005
0
1002
}
0
ENDSEC
0
SECTION
2
OBJECTS
0
DICTIONARY
5
19d
330
0
100
AcDbDictionary
280
0
281
1
3
ACAD_GROUP
350
19e
3
ACAD_MLINESTYLE
350
19f
0
DICTIONARY
5
19e
330
0
100
AcDbDictionary
280
0
281
1
0
DICTIONARY
5
19f
330
0
100
AcDbDictionary
280
0
281
1
3
Standard
350
18
0
MLINESTYLE
5
18
330
19f
100
AcDbMlineStyle
2
Standard
70
0
3

62
256
51
90
52
90
71
2
49
-0.5
62
256
6
ByLayer
49
0.5
62
256
6
ByLayer
0
RASTERVARIABLES
5
18b
330

100
AcDbRasterVariables
90
0
70
1
71
1
72
1
0
ENDSEC
0
EOF
