0
SECTION
2
HEADER
9
$ACADVER
1
AC1015
9
$DWGCODEPAGE
3
ANSI_1252
9
$HANDSEED
5
1ad
9
$ANGBASE
50
0
9
$ANGDIR
70
0
9
$ATTMODE
70
1
9
$AUNITS
70
0
9
$AUPREC
70
0
9
$CECOLOR
62
256
9
$CELTSCALE
40
1
9
$CELTYPE
6
ByLayer
9
$CELWEIGHT
370
18
9
$CLAYER
8
0
9
$CMLJUST
70
0
9
$CMLSCALE
40
1
9
$CMLSTYLE
2
Standard
9
$DIMSTYLE
2
Standard
9
$TEXTSIZE
40
0.2
9
$TEXTSTYLE
7
Standard
9
$LUNITS
70
2
9
$LUPREC
70
4
9
$EXTNAMES
290
1
9
$INSUNITS
70
4
9
$LTSCALE
40
1
9
$LWDISPLAY
290
1
9
$PDMODE
70
0
9
$PDSIZE
40
0
9
$PLINEGEN
70
0
0
ENDSEC
0
SECTION
2
CLASSES
0
CLASS
1
RASTERVARIABLES
2
AcDbRasterVariables
3
ISM
90
0
280
0
281
0
0
ENDSEC
0
SECTION
2
TABLES
0
TABLE
2
VPORT
5
1a3
100
AcDbSymbolTable
0
VPORT
5
1
100
AcDbSymbolTableRecord
100
AcDbViewportTableRecord
2
*Active
70
0
10
0
20
0
11
1
21
1
12
-1
22
1
13
0
23
0
14
0.5
24
0.5
15
10
25
10
16
0
26
0
36
1
17
0
27
0
37
0
0
ENDTAB
0
TABLE
2
LTYPE
5
1a4
100
AcDbSymbolTable
0
LTYPE
5
14
100
AcDbSymbolTableRecord
100
AcDbLinetypeTableRecord
70
0
2
ByBlock
3

72
65
73
0
40
0
0
LTYPE
5
15
100
AcDbSymbolTableRecord
100
AcDbLinetypeTableRecord
70
0
2
ByLayer
3

72
65
73
0
40
0
0
LTYPE
5
16
100
AcDbSymbolTableRecord
100
AcDbLinetypeTableRecord
70
0
2
CONTINUOUS
3
Solid line
72
65
73
0
40
0
0
LTYPE
5
6A
100
AcDbSymbolTableRecord
100
AcDbLinetypeTableRecord
70
0
2
CENTER
3
____ _ ____ _ ____ _ ____
72
65
73
4
40
47.5
49
22
74
0
49
-8.5
74
0
49
8.5
74
0
49
-8.5
74
0
0
LTYPE
5
6B
100
AcDbSymbolTableRecord
100
AcDbLinetypeTableRecord
70
0
2
DASHED
3
__ __ __ __ __ __ __ __ __
72
65
73
2
40
25.72
49
12.86
74
0
49
-12.86
74
0
0
ENDTAB
0
TABLE
2
LAYER
5
1a5
100
AcDbSymbolTable
0
LAYER
5
10
100
AcDbSymbolTableRecord
100
AcDbLayerTableRecord
2
0
70
0
62
7
6
CONTINUOUS
290
1
370
-3
390
0
0
LAYER
5
6D
100
AcDbSymbolTableRecord
100
AcDbLayerTableRecord
2
81
70
0
62
-3
6
CONTINUOUS
290
1
370
-3
390
0
0
LAYER
5
6F
100
AcDbSymbolTableRecord
100
AcDbLayerTableRecord
2
80
70
0
62
-6
6
CONTINUOUS
290
1
370
-3
390
0
0
LAYER
5
74
100
AcDbSymbolTableRecord
100
AcDbLayerTableRecord
2
2
70
0
62
7
6
CONTINUOUS
290
1
370
-3
390
0
0
LAYER
5
78
100
AcDbSymbolTableRecord
100
AcDbLayerTableRecord
2
1
70
0
62
4
6
CONTINUOUS
290
1
370
-3
390
0
0
LAYER
5
8C
100
AcDbSymbolTableRecord
100
AcDbLayerTableRecord
2
4
70
0
62
-2
6
CENTER
290
1
370
-3
390
0
0
LAYER
5
18f
100
AcDbSymbolTableRecord
100
AcDbLayerTableRecord
2
SK2
70
0
62
7
6
CONTINUOUS
290
1
370
-3
390
0
0
LAYER
5
190
100
AcDbSymbolTableRecord
100
AcDbLayerTableRecord
2
SK1
70
0
62
4
6
CONTINUOUS
290
1
370
-3
390
0
0
LAYER
5
191
100
AcDbSymbolTableRecord
100
AcDbLayerTableRecord
2
SK4
70
0
62
2
6
CENTER
290
1
370
-3
390
0
0
LAYER
5
192
100
AcDbSymbolTableRecord
100
AcDbLayerTableRecord
2
SK6
70
0
62
5
6
CONTINUOUS
290
1
370
-3
390
0
0
ENDTAB
0
TABLE
2
STYLE
5
1a6
100
AcDbSymbolTable
0
STYLE
5
11
100
AcDbSymbolTableRecord
100
AcDbTextStyleTableRecord
2
Standard
3
txt
70
0
71
0
40
0
41
1
42
0
50
0
0
STYLE
5
EB
100
AcDbSymbolTableRecord
100
AcDbTextStyleTableRecord
2
iso_b_vert
3
simplex.shx
70
0
71
0
40
0
41
1
42
0
50
0
0
STYLE
5
EC
100
AcDbSymbolTableRecord
100
AcDbTextStyleTableRecord
2
DWGDirectTextStyle
3
simplex
70
0
71
0
40
0
41
1
42
0
50
0
0
ENDTAB
0
TABLE
2
DIMSTYLE
5
1a7
100
AcDbSymbolTable
100
AcDbDimStyleTable
0
DIMSTYLE
105
27
100
AcDbSymbolTableRecord
100
AcDbDimStyleTableRecord
2
Standard
70
0
3
<>
41
0.18
42
0.0625
44
0.18
140
0.18
147
0.09
73
0
74
0
77
1
271
2
275
0
278
52
280
0
340
11
0
ENDTAB
0
TABLE
2
VIEW
5
1a8
100
AcDbSymbolTable
0
ENDTAB
0
TABLE
2
UCS
5
1a9
100
AcDbSymbolTable
0
ENDTAB
0
TABLE
2
APPID
5
1aa
100
AcDbSymbolTable
0
APPID
5
12
100
AcDbSymbolTableRecord
100
AcDbRegAppTableRecord
2
ACAD
70
0
0
ENDTAB
0
TABLE
2
BLOCK_RECORD
5
1ab
100
AcDbSymbolTable
0
BLOCK_RECORD
5
1F
100
AcDbSymbolTableRecord
100
AcDbBlockTableRecord
2
*Model_Space
340
0
70
0
0
BLOCK_RECORD
5
1B
100
AcDbSymbolTableRecord
100
AcDbBlockTableRecord
2
*Paper_Space
340
0
70
0
0
BLOCK_RECORD
5
23
100
AcDbSymbolTableRecord
100
AcDbBlockTableRecord
2
*Paper_Space0
340
0
70
0
0
BLOCK_RECORD
5
EE
100
AcDbSymbolTableRecord
100
AcDbBlockTableRecord
2
DimnDraft3D1
340
0
70
0
0
BLOCK_RECORD
5
F8
100
AcDbSymbolTableRecord
100
AcDbBlockTableRecord
2
DimnDraft3D2
340
0
70
0
0
BLOCK_RECORD
5
102
100
AcDbSymbolTableRecord
100
AcDbBlockTableRecord
2
DimnDraft3D3
340
0
70
0
0
BLOCK_RECORD
5
10C
100
AcDbSymbolTableRecord
100
AcDbBlockTableRecord
2
DimnDraft3D4
340
0
70
0
0
BLOCK_RECORD
5
116
100
AcDbSymbolTableRecord
100
AcDbBlockTableRecord
2
DimnDraft3D5
340
0
70
0
0
BLOCK_RECORD
5
120
100
AcDbSymbolTableRecord
100
AcDbBlockTableRecord
2
DimnDraft3D6
340
0
70
0
0
BLOCK_RECORD
5
12B
100
AcDbSymbolTableRecord
100
AcDbBlockTableRecord
2
DimnDraft3D7
340
0
70
0
0
ENDTAB
0
ENDSEC
0
SECTION
2
BLOCKS
0
BLOCK
5
20
100
AcDbEntity
8
0
100
AcDbBlockBegin
2
*Model_Space
70
0
10
0
20
0
30
0
3
*Model_Space
0
ENDBLK
5
21
100
AcDbEntity
8
0
100
AcDbBlockEnd
0
BLOCK
5
1C
100
AcDbEntity
8
0
100
AcDbBlockBegin
2
*Paper_Space
70
0
10
0
20
0
30
0
3
*Paper_Space
0
ENDBLK
5
1D
100
AcDbEntity
8
0
100
AcDbBlockEnd
0
BLOCK
5
24
100
AcDbEntity
8
0
100
AcDbBlockBegin
2
*Paper_Space0
70
0
10
0
20
0
30
0
3
*Paper_Space0
0
ENDBLK
5
25
100
AcDbEntity
8
0
100
AcDbBlockEnd
0
BLOCK
5
F5
100
AcDbEntity
8
0
100
AcDbBlockBegin
2
DimnDraft3D1
70
0
10
0
20
0
30
0
3
DimnDraft3D1
0
MTEXT
5
EF
100
AcDbEntity
8
SK2
62
256
6
ByLayer
370
13
48
1
60
0
100
AcDbMText
10
21.131175
20
-11.638398
30
0
210
0
220
0
230
1
1
\W0.7317;53,33
40
3.5
41
0
44
1.084337
50
0
71
7
72
5
7
iso_b_vert
0
LINE
5
F0
100
AcDbEntity
8
SK2
62
256
6
ByLayer
370
13
48
1
60
0
100
AcDbLine
10
0
20
-1.5875
30
0
11
0
21
-14.513398
31
0
39
0
210
0
220
0
230
1
0
LINE
5
F1
100
AcDbEntity
8
SK2
62
256
6
ByLayer
370
13
48
1
60
0
100
AcDbLine
10
53.3298
20
-3.8875
30
0
11
53.3298
21
-14.513398
31
0
39
0
210
0
220
0
230
1
0
LINE
5
F2
100
AcDbEntity
8
SK2
62
256
6
ByLayer
370
13
48
1
60
0
100
AcDbLine
10
0
20
-12.513398
30
0
11
53.3298
21
-12.513398
31
0
39
0
210
0
220
0
230
1
0
SOLID
5
F3
100
AcDbEntity
8
SK2
62
256
6
ByLayer
370
13
48
1
60
0
100
AcDbTrace
10
0
20
-12.513398
30
0
11
3.499998
21
-12.052615
31
0
12
3.500002
22
-12.974182
32
0
13
0
23
-12.513398
33
0
39
0
210
0
220
0
230
1
0
SOLID
5
F4
100
AcDbEntity
8
SK2
62
256
6
ByLayer
370
13
48
1
60
0
100
AcDbTrace
10
53.3298
20
-12.513398
30
0
11
49.829802
21
-12.974182
31
0
12
49.829798
22
-12.052615
32
0
13
53.3298
23
-12.513398
33
0
39
0
210
0
220
0
230
1
0
ENDBLK
5
F6
100
AcDbEntity
8
0
100
AcDbBlockEnd
0
BLOCK
5
FF
100
AcDbEntity
8
0
100
AcDbBlockBegin
2
DimnDraft3D2
70
0
10
0
20
0
30
0
3
DimnDraft3D2
0
MTEXT
5
F9
100
AcDbEntity
8
SK2
62
256
6
ByLayer
370
13
48
1
60
0
100
AcDbMText
10
5.222416
20
-30.817985
30
0
210
0
220
0
230
1
1
\W0.7317;90,00
40
3.5
41
0
44
1.084337
50
0
71
7
72
5
7
iso_b_vert
0
LINE
5
FA
100
AcDbEntity
8
SK2
62
256
6
ByLayer
370
13
48
1
60
0
100
AcDbLine
10
-36
20
-4.5875
30
0
11
-36
21
-33.692985
31
0
39
0
210
0
220
0
230
1
0
LINE
5
FB
100
AcDbEntity
8
SK2
62
256
6
ByLayer
370
13
48
1
60
0
100
AcDbLine
10
54
20
-1.5875
30
0
11
54
21
-33.692985
31
0
39
0
210
0
220
0
230
1
0
LINE
5
FC
100
AcDbEntity
8
SK2
62
256
6
ByLayer
370
13
48
1
60
0
100
AcDbLine
10
-36
20
-31.692985
30
0
11
54
21
-31.692985
31
0
39
0
210
0
220
0
230
1
0
SOLID
5
FD
100
AcDbEntity
8
SK2
62
256
6
ByLayer
370
13
48
1
60
0
100
AcDbTrace
10
-36
20
-31.692985
30
0
11
-32.500002
21
-31.232202
31
0
12
-32.499998
22
-32.153769
32
0
13
-36
23
-31.692985
33
0
39
0
210
0
220
0
230
1
0
SOLID
5
FE
100
AcDbEntity
8
SK2
62
256
6
ByLayer
370
13
48
1
60
0
100
AcDbTrace
10
54
20
-31.692985
30
0
11
50.500002
21
-32.153769
31
0
12
50.499998
22
-31.232202
32
0
13
54
23
-31.692985
33
0
39
0
210
0
220
0
230
1
0
ENDBLK
5
100
100
AcDbEntity
8
0
100
AcDbBlockEnd
0
BLOCK
5
109
100
AcDbEntity
8
0
100
AcDbBlockBegin
2
DimnDraft3D3
70
0
10
0
20
0
30
0
3
DimnDraft3D3
0
MTEXT
5
103
100
AcDbEntity
8
SK2
62
256
6
ByLayer
370
13
48
1
60
0
100
AcDbMText
10
30.632105
20
14.784119
30
0
210
0
220
0
230
1
1
\W0.7581;37,47
40
3.5
41
0
44
1.084337
50
0
71
7
72
5
7
iso_b_vert
0
LINE
5
104
100
AcDbEntity
8
SK2
62
256
6
ByLayer
370
13
48
1
60
0
100
AcDbLine
10
16.53
20
3.8875
30
0
11
16.53
21
15.909119
31
0
39
0
210
0
220
0
230
1
0
LINE
5
105
100
AcDbEntity
8
SK2
62
256
6
ByLayer
370
13
48
1
60
0
100
AcDbLine
10
54
20
1.5875
30
0
11
54
21
15.909119
31
0
39
0
210
0
220
0
230
1
0
LINE
5
106
100
AcDbEntity
8
SK2
62
256
6
ByLayer
370
13
48
1
60
0
100
AcDbLine
10
16.53
20
13.909119
30
0
11
54
21
13.909119
31
0
39
0
210
0
220
0
230
1
0
SOLID
5
107
100
AcDbEntity
8
SK2
62
256
6
ByLayer
370
13
48
1
60
0
100
AcDbTrace
10
16.53
20
13.909119
30
0
11
20.029998
21
14.369903
31
0
12
20.030002
22
13.448335
32
0
13
16.53
23
13.909119
33
0
39
0
210
0
220
0
230
1
0
SOLID
5
108
100
AcDbEntity
8
SK2
62
256
6
ByLayer
370
13
48
1
60
0
100
AcDbTrace
10
54
20
13.909119
30
0
11
50.500002
21
13.448335
31
0
12
50.499998
22
14.369903
32
0
13
54
23
13.909119
33
0
39
0
210
0
220
0
230
1
0
ENDBLK
5
10A
100
AcDbEntity
8
0
100
AcDbBlockEnd
0
BLOCK
5
113
100
AcDbEntity
8
0
100
AcDbBlockBegin
2
DimnDraft3D4
70
0
10
0
20
0
30
0
3
DimnDraft3D4
0
MTEXT
5
10D
100
AcDbEntity
8
SK2
62
256
6
ByLayer
370
13
48
1
60
0
100
AcDbMText
10
60.840636
20
-14.227503
30
0
210
0
220
0
230
1
1
\W0.7150;0,67
40
3.5
41
0
44
1.084337
50
0
71
7
72
5
7
iso_b_vert
0
LINE
5
10E
100
AcDbEntity
8
SK2
62
256
6
ByLayer
370
13
48
1
60
0
100
AcDbLine
10
54
20
-1.5875
30
0
11
54
21
-17.102503
31
0
39
0
210
0
220
0
230
1
0
LINE
5
10F
100
AcDbEntity
8
SK2
62
256
6
ByLayer
370
13
48
1
60
0
100
AcDbLine
10
53.3298
20
-3.8875
30
0
11
53.3298
21
-17.102503
31
0
39
0
210
0
220
0
230
1
0
LINE
5
110
100
AcDbEntity
8
SK2
62
256
6
ByLayer
370
13
48
1
60
0
100
AcDbLine
10
44.5798
20
-15.102503
30
0
11
67.997215
21
-15.102503
31
0
39
0
210
0
220
0
230
1
0
SOLID
5
111
100
AcDbEntity
8
SK2
62
256
6
ByLayer
370
13
48
1
60
0
100
AcDbTrace
10
54
20
-15.102503
30
0
11
57.499998
21
-14.641719
31
0
12
57.500002
22
-15.563287
32
0
13
54
23
-15.102503
33
0
39
0
210
0
220
0
230
1
0
SOLID
5
112
100
AcDbEntity
8
SK2
62
256
6
ByLayer
370
13
48
1
60
0
100
AcDbTrace
10
53.3298
20
-15.102503
30
0
11
49.829802
21
-15.563287
31
0
12
49.829798
22
-14.641719
32
0
13
53.3298
23
-15.102503
33
0
39
0
210
0
220
0
230
1
0
ENDBLK
5
114
100
AcDbEntity
8
0
100
AcDbBlockEnd
0
BLOCK
5
11D
100
AcDbEntity
8
0
100
AcDbBlockBegin
2
DimnDraft3D5
70
0
10
0
20
0
30
0
3
DimnDraft3D5
0
MTEXT
5
117
100
AcDbEntity
8
SK2
62
256
6
ByLayer
370
13
48
1
60
0
100
AcDbMText
10
2.141792
20
-20.468428
30
0
210
0
220
0
230
1
1
\W0.7317;89,33
40
3.5
41
0
44
1.084337
50
0
71
7
72
5
7
iso_b_vert
0
LINE
5
118
100
AcDbEntity
8
SK2
62
256
6
ByLayer
370
13
48
1
60
0
100
AcDbLine
10
-36
20
-4.5875
30
0
11
-36
21
-23.343428
31
0
39
0
210
0
220
0
230
1
0
LINE
5
119
100
AcDbEntity
8
SK2
62
256
6
ByLayer
370
13
48
1
60
0
100
AcDbLine
10
53.3298
20
-3.8875
30
0
11
53.3298
21
-23.343428
31
0
39
0
210
0
220
0
230
1
0
LINE
5
11A
100
AcDbEntity
8
SK2
62
256
6
ByLayer
370
13
48
1
60
0
100
AcDbLine
10
-36
20
-21.343428
30
0
11
53.3298
21
-21.343428
31
0
39
0
210
0
220
0
230
1
0
SOLID
5
11B
100
AcDbEntity
8
SK2
62
256
6
ByLayer
370
13
48
1
60
0
100
AcDbTrace
10
-36
20
-21.343428
30
0
11
-32.500002
21
-20.882645
31
0
12
-32.499998
22
-21.804212
32
0
13
-36
23
-21.343428
33
0
39
0
210
0
220
0
230
1
0
SOLID
5
11C
100
AcDbEntity
8
SK2
62
256
6
ByLayer
370
13
48
1
60
0
100
AcDbTrace
10
53.3298
20
-21.343428
30
0
11
49.829802
21
-21.804212
31
0
12
49.829798
22
-20.882645
32
0
13
53.3298
23
-21.343428
33
0
39
0
210
0
220
0
230
1
0
ENDBLK
5
11E
100
AcDbEntity
8
0
100
AcDbBlockEnd
0
BLOCK
5
128
100
AcDbEntity
8
0
100
AcDbBlockBegin
2
DimnDraft3D6
70
0
10
0
20
0
30
0
3
DimnDraft3D6
0
MTEXT
5
121
100
AcDbEntity
8
SK2
62
256
6
ByLayer
370
13
48
1
60
0
100
AcDbMText
10
-46.375163
20
22.34918
30
0
210
0
220
0
230
1
1
\W0.7317;6,000
40
3.5
41
0
44
1.084337
50
90
71
7
72
5
7
iso_b_vert
0
MTEXT
5
122
100
AcDbEntity
8
SK2
62
256
6
ByLayer
370
13
48
1
60
0
100
AcDbMText
10
-46.375163
20
17.126524
30
0
210
0
220
0
230
1
1
%%c
40
3.5
41
0
44
1.084337
50
90
71
7
72
5
7
iso_b_vert
0
LINE
5
123
100
AcDbEntity
8
SK2
62
256
6
ByLayer
370
13
48
1
60
0
100
AcDbLine
10
-37.5875
20
-3
30
0
11
-46.625163
21
-3
31
0
39
0
210
0
220
0
230
1
0
LINE
5
124
100
AcDbEntity
8
SK2
62
256
6
ByLayer
370
13
48
1
60
0
100
AcDbLine
10
-37.5875
20
3
30
0
11
-46.625163
21
3
31
0
39
0
210
0
220
0
230
1
0
LINE
5
125
100
AcDbEntity
8
SK2
62
256
6
ByLayer
370
13
48
1
60
0
100
AcDbLine
10
-44.625163
20
32.121549
30
0
11
-44.625163
21
-11.75
31
0
39
0
210
0
220
0
230
1
0
SOLID
5
126
100
AcDbEntity
8
SK2
62
256
6
ByLayer
370
13
48
1
60
0
100
AcDbTrace
10
-44.625163
20
-3
30
0
11
-44.164379
21
-6.499998
31
0
12
-45.085946
22
-6.500002
32
0
13
-44.625163
23
-3
33
0
39
0
210
0
220
0
230
1
0
SOLID
5
127
100
AcDbEntity
8
SK2
62
256
6
ByLayer
370
13
48
1
60
0
100
AcDbTrace
10
-44.625163
20
3
30
0
11
-45.085946
21
6.499998
31
0
12
-44.164379
22
6.500002
32
0
13
-44.625163
23
3
33
0
39
0
210
0
220
0
230
1
0
ENDBLK
5
129
100
AcDbEntity
8
0
100
AcDbBlockEnd
0
BLOCK
5
133
100
AcDbEntity
8
0
100
AcDbBlockBegin
2
DimnDraft3D7
70
0
10
0
20
0
30
0
3
DimnDraft3D7
0
MTEXT
5
12C
100
AcDbEntity
8
2
62
256
6
ByLayer
370
13
48
1
60
0
100
AcDbMText
10
64.333343
20
20.242266
30
0
210
0
220
0
230
1
1
\W0.7581;4,600
40
3.5
41
0
44
1.084337
50
90
71
7
72
5
7
iso_b_vert
0
MTEXT
5
12D
100
AcDbEntity
8
2
62
256
6
ByLayer
370
13
48
1
60
0
100
AcDbMText
10
64.333343
20
15.01961
30
0
210
0
220
0
230
1
1
%%c
40
3.5
41
0
44
1.084337
50
90
71
7
72
5
7
iso_b_vert
0
LINE
5
12E
100
AcDbEntity
8
2
62
256
6
ByLayer
370
13
48
1
60
0
100
AcDbLine
10
54.9173
20
-2.3
30
0
11
68.083343
21
-2.3
31
0
39
0
210
0
220
0
230
1
0
LINE
5
12F
100
AcDbEntity
8
2
62
256
6
ByLayer
370
13
48
1
60
0
100
AcDbLine
10
54.9173
20
2.3
30
0
11
68.083343
21
2.3
31
0
39
0
210
0
220
0
230
1
0
LINE
5
130
100
AcDbEntity
8
2
62
256
6
ByLayer
370
13
48
1
60
0
100
AcDbLine
10
66.083343
20
30.383056
30
0
11
66.083343
21
-11.05
31
0
39
0
210
0
220
0
230
1
0
SOLID
5
131
100
AcDbEntity
8
2
62
256
6
ByLayer
370
13
48
1
60
0
100
AcDbTrace
10
66.083343
20
-2.3
30
0
11
66.544126
21
-5.799998
31
0
12
65.622559
22
-5.800002
32
0
13
66.083343
23
-2.3
33
0
39
0
210
0
220
0
230
1
0
SOLID
5
132
100
AcDbEntity
8
2
62
256
6
ByLayer
370
13
48
1
60
0
100
AcDbTrace
10
66.083343
20
2.3
30
0
11
65.622559
21
5.799998
31
0
12
66.544126
22
5.800002
32
0
13
66.083343
23
2.3
33
0
39
0
210
0
220
0
230
1
0
ENDBLK
5
134
100
AcDbEntity
8
0
100
AcDbBlockEnd
0
ENDSEC
0
SECTION
2
ENTITIES
0
ELLIPSE
5
9A
100
AcDbEntity
8
1
62
256
6
ByLayer
370
13
48
1
60
0
100
AcDbEllipse
10
7.529267
20
-2.232554
30
0
11
0.00922510590085997
21
0.0995735779266665
31
0
210
0
220
0
230
1
40
0.526648
41
0.172356140115823
42
1.71131416649006
0
ELLIPSE
5
9B
100
AcDbEntity
8
1
62
256
6
ByLayer
370
13
48
1
60
0
100
AcDbEllipse
10
7.448699
20
-2.247802
30
0
11
-0.0463904402158064
21
0.0885885266644823
31
0
210
0
220
0
230
1
40
0.532189
41
0.167904506539677
42
1.33972952232388
0
POINT
5
6C
100
AcDbEntity
8
81
62
256
6
ByLayer
370
18
48
1
60
0
100
AcDbPoint
10
54
20
0
30
0
39
0
210
0
220
0
230
1
50
360
0
POINT
5
6E
100
AcDbEntity
8
80
62
256
6
ByLayer
370
18
48
1
60
0
100
AcDbPoint
10
0
20
0
30
0
39
0
210
0
220
0
230
1
50
360
0
POINT
5
70
100
AcDbEntity
8
SK2
62
256
6
ByLayer
370
18
48
1
60
1
100
AcDbPoint
10
-36
20
-3
30
0
39
0
210
0
220
0
230
1
50
360
0
POINT
5
72
100
AcDbEntity
8
SK2
62
256
6
ByLayer
370
18
48
1
60
1
100
AcDbPoint
10
-36
20
3
30
0
39
0
210
0
220
0
230
1
50
360
0
POINT
5
73
100
AcDbEntity
8
2
62
256
6
ByLayer
370
18
48
1
60
1
100
AcDbPoint
10
53.3298
20
-2.3
30
0
39
0
210
0
220
0
230
1
50
360
0
POINT
5
75
100
AcDbEntity
8
2
62
256
6
ByLayer
370
18
48
1
60
1
100
AcDbPoint
10
53.3298
20
2.3
30
0
39
0
210
0
220
0
230
1
50
360
0
SPLINE
5
9C
100
AcDbEntity
8
1
62
256
6
ByLayer
370
18
48
1
60
0
100
AcDbSpline
70
4
71
3
72
13
73
9
40
0
40
0
40
0
40
0
40
0.25048189009691
40
0.421450106700683
40
0.541745881564378
40
0.66190861088029
40
0.819948705277604
40
1
40
1
40
1
40
1
41
1
10
30.5349610352259
20
-2.17090862218393
30
0
41
1
10
30.7945181584006
20
-2.17096885684126
30
0
41
1
10
31.2313059638115
20
-2.17110702570096
30
0
41
1
10
31.7932824394266
20
-2.17154494156577
30
0
41
1
10
32.2196747473438
20
-2.17168555701772
30
0
41
1
10
32.6330523325168
20
-2.17233688480059
30
0
41
1
10
33.108315048916
20
-2.17155750230324
30
0
41
1
10
33.4589303067899
20
-2.17236878171946
30
0
41
1
10
33.6456382064025
20
-2.17294495599421
30
0
0
SPLINE
5
9D
100
AcDbEntity
8
1
62
256
6
ByLayer
370
18
48
1
60
0
100
AcDbSpline
70
4
71
3
72
13
73
9
40
0
40
0
40
0
40
0
40
0.237978451605213
40
0.45937475201631
40
0.610172026723212
40
0.735673159153364
40
0.903414320246023
40
1
40
1
40
1
40
1
41
1
10
22.3942623245327
20
2.16493423426112
30
0
41
1
10
22.2179044242369
20
2.1653695545813
30
0
41
1
10
21.8774702301787
20
2.16576484777238
30
0
41
1
10
21.4252390729819
20
2.1648178921985
30
0
41
1
10
21.0563952262282
20
2.16374532131758
30
0
41
1
10
20.7274856997368
20
2.16404130039351
30
0
41
1
10
20.4385900816693
20
2.16457126577123
30
0
41
1
10
20.2426867196558
20
2.16456467869418
30
0
41
1
10
20.1711038230005
20
2.16453777680684
30
0
0
SPLINE
5
9E
100
AcDbEntity
8
1
62
256
6
ByLayer
370
18
48
1
60
0
100
AcDbSpline
70
4
71
1
72
4
73
2
40
0
40
0
40
1
40
1
41
1
10
52.8888905956531
20
-2.18313020105904
30
0
41
1
10
53.1814652567491
20
-2.18383069404354
30
0
0
SPLINE
5
9F
100
AcDbEntity
8
1
62
256
6
ByLayer
370
18
48
1
60
0
100
AcDbSpline
70
4
71
3
72
13
73
9
40
0
40
0
40
0
40
0
40
0.225336121673022
40
0.444032824449987
40
0.602432452932477
40
0.704629714394638
40
0.863933573458953
40
1
40
1
40
1
40
1
41
1
10
44.8931413760211
20
2.17947824660402
30
0
41
1
10
44.7229115720535
20
2.17951821399305
30
0
41
1
10
44.3874592663344
20
2.17952855243871
30
0
41
1
10
43.9322853379999
20
2.17893058300302
30
0
41
1
10
43.5701806914977
20
2.17891987866852
30
0
41
1
10
43.2529443679687
20
2.17893864654616
30
0
41
1
10
42.9526042979275
20
2.17855328186076
30
0
41
1
10
42.7294456340375
20
2.17843349543321
30
0
41
1
10
42.6266467971121
20
2.1783897577786
30
0
0
SPLINE
5
A0
100
AcDbEntity
8
1
62
256
6
ByLayer
370
18
48
1
60
0
100
AcDbSpline
70
4
71
3
72
14
73
10
40
0
40
0
40
0
40
0
40
0.194707824078909
40
0.34122506262895
40
0.442384413108405
40
0.516218143635295
40
0.648318776548889
40
0.822265044592392
40
1
40
1
40
1
40
1
41
1
10
8.0521929452643
20
-2.15694312751162
30
0
41
1
10
8.25332688567525
20
-2.15691493315049
30
0
41
1
10
8.6058379523096
20
-2.15694921425791
30
0
41
1
10
9.06308932260163
20
-2.15703520216221
30
0
41
1
10
9.39521235485819
20
-2.15738057452913
30
0
41
1
10
9.71262932680031
20
-2.157913922387
30
0
41
1
10
10.105208603294
20
-2.15783082184098
30
0
41
1
10
10.6052332497717
20
-2.1569045502462
30
0
41
1
10
10.9686272334001
20
-2.15752048266319
30
0
41
1
10
11.1522704679076
20
-2.15799416360693
30
0
0
SPLINE
5
A1
100
AcDbEntity
8
1
62
256
6
ByLayer
370
18
48
1
60
0
100
AcDbSpline
70
4
71
3
72
14
73
10
40
0
40
0
40
0
40
0
40
0.201935522278761
40
0.353934266788206
40
0.473915909294517
40
0.563684168362751
40
0.67154621358309
40
0.829906222471142
40
1
40
1
40
1
40
1
41
1
10
19.2858074833787
20
-2.16391750046284
30
0
41
1
10
19.4949756974279
20
-2.16412191272727
30
0
41
1
10
19.8616182162192
20
-2.16431009208316
30
0
41
1
10
20.3526855887857
20
-2.16472885406094
30
0
41
1
10
20.7274856996966
20
-2.16404129896984
30
0
41
1
10
21.0563952263314
20
-2.16374532551123
30
0
41
1
10
21.4252390722836
20
-2.16481786886851
30
0
41
1
10
21.8773385491635
20
-2.16576470891235
30
0
41
1
10
22.2176410718297
20
-2.16536954736614
30
0
41
1
10
22.3938673048412
20
-2.16493464300046
30
0
0
SPLINE
5
A2
100
AcDbEntity
8
1
62
256
6
ByLayer
370
18
48
1
60
0
100
AcDbSpline
70
4
71
3
72
14
73
10
40
0
40
0
40
0
40
0
40
0.179113040181436
40
0.319872765102097
40
0.42257851806569
40
0.492099498389145
40
0.616659443395272
40
0.79895100687406
40
1
40
1
40
1
40
1
41
1
10
41.7833379903296
20
-2.17807287147525
30
0
41
1
10
41.9689184237761
20
-2.17815313785755
30
0
41
1
10
42.3003964617296
20
-2.17833618846768
30
0
41
1
10
42.7386053299981
20
-2.17824816202406
30
0
41
1
10
43.0630266103632
20
-2.17877834678532
30
0
41
1
10
43.3707403158579
20
-2.17892734289853
30
0
41
1
10
43.7609503388451
20
-2.17893962930228
30
0
41
1
10
44.2875565578044
20
-2.17920892517765
30
0
41
1
10
44.6849695484179
20
-2.17935596751457
30
0
41
1
10
44.8933932279639
20
-2.17944373097799
30
0
0
SPLINE
5
A3
100
AcDbEntity
8
1
62
256
6
ByLayer
370
18
48
1
60
0
100
AcDbSpline
70
4
71
3
72
13
73
9
40
0
40
0
40
0
40
0
40
0.244937749801474
40
0.460578503650829
40
0.624536780430988
40
0.746708451962618
40
0.891827702523653
40
1
40
1
40
1
40
1
41
1
10
33.6439587078661
20
2.1729418165022
30
0
41
1
10
33.4578105926319
20
2.17236768764892
30
0
41
1
10
33.1077578509953
20
2.17155865520726
30
0
41
1
10
32.6330450166628
20
2.17233467137092
30
0
41
1
10
32.2515990445104
20
2.17174154520808
30
0
41
1
10
31.9239365302231
20
2.17155881195057
30
0
41
1
10
31.6387303609727
20
2.17139492700562
30
0
41
1
10
31.4461777538955
20
2.17130098584678
30
0
41
1
10
31.3639462579949
20
2.17126259782324
30
0
0
SPLINE
5
A4
100
AcDbEntity
8
1
62
256
6
ByLayer
370
18
48
1
60
0
100
AcDbSpline
70
4
71
3
72
14
73
10
40
0
40
0
40
0
40
0
40
0.213572568662892
40
0.428164223929614
40
0.589550188946028
40
0.696383695926071
40
0.8040767377841
40
0.95463295238911
40
1
40
1
40
1
40
1
41
1
10
11.1486156464921
20
2.15798089928481
30
0
41
1
10
10.9902442788025
20
2.15757346745536
30
0
41
1
10
10.6727504905014
20
2.15704797032026
30
0
41
1
10
10.2355721829993
20
2.15763680330258
30
0
41
1
10
9.87759203264164
20
2.15796802892632
30
0
41
1
10
9.59877586122889
20
2.15778834367842
30
0
41
1
10
9.32837843301996
20
2.15726585648562
30
0
41
1
10
9.10340275526207
20
2.1571252639215
30
0
41
1
10
8.95814489878879
20
2.15705445334848
30
0
41
1
10
8.92450703679972
20
2.15703921244847
30
0
0
SPLINE
5
A5
100
AcDbEntity
8
1
62
256
6
ByLayer
370
18
48
1
60
0
100
AcDbSpline
70
4
71
3
72
8
73
4
40
0
40
0
40
0
40
0
40
1
40
1
40
1
40
1
41
1
10
53.2794386672581
20
2.2085368834241
30
0
41
1
10
53.2413700313092
20
2.25004208494857
30
0
41
1
10
53.2088013283456
20
2.27768159731713
30
0
41
1
10
53.1813360567334
20
2.29095121271016
30
0
0
SPLINE
5
A6
100
AcDbEntity
8
1
62
256
6
ByLayer
370
18
48
1
60
0
100
AcDbSpline
70
4
71
3
72
8
73
4
40
0
40
0
40
0
40
0
40
1
40
1
40
1
40
1
41
1
10
53.1628239840459
20
-2.17582743788026
30
0
41
1
10
53.1746488060249
20
-2.18486932181875
30
0
41
1
10
53.1887973620505
20
-2.18719104663268
30
0
41
1
10
53.2054013665498
20
-2.1829562383796
30
0
0
SPLINE
5
A7
100
AcDbEntity
8
1
62
256
6
ByLayer
370
18
48
1
60
0
100
AcDbSpline
70
4
71
3
72
8
73
4
40
0
40
0
40
0
40
0
40
1
40
1
40
1
40
1
41
1
10
53.9810177457494
20
0.108439112351164
30
0
41
1
10
53.9840015117262
20
0.0856262816829201
30
0
41
1
10
53.9909509333313
20
0.0566080924898529
30
0
41
1
10
53.9999629266528
20
0.0260582684053361
30
0
0
SPLINE
5
A8
100
AcDbEntity
8
1
62
256
6
ByLayer
370
18
48
1
60
0
100
AcDbSpline
70
4
71
3
72
8
73
4
40
0
40
0
40
0
40
0
40
1
40
1
40
1
40
1
41
1
10
53.9999629266619
20
0.0260582684294093
30
0
41
1
10
53.9950783313163
20
0.0122445249804457
30
0
41
1
10
53.9890868578909
20
-0.0015854349872768
30
0
41
1
10
53.9831682260968
20
-0.0125350697324507
30
0
0
SPLINE
5
A9
100
AcDbEntity
8
1
62
256
6
ByLayer
370
18
48
1
60
0
100
AcDbSpline
70
4
71
3
72
8
73
4
40
0
40
0
40
0
40
0
40
1
40
1
40
1
40
1
41
1
10
53.9831682260968
20
-0.0125350697324791
30
0
41
1
10
53.9484840292427
20
-0.076701806268602
30
0
41
1
10
53.9140554648052
20
-0.141097519836762
30
0
41
1
10
53.8798833717181
20
-0.205722961835136
30
0
0
SPLINE
5
AA
100
AcDbEntity
8
1
62
256
6
ByLayer
370
18
48
1
60
0
100
AcDbSpline
70
4
71
3
72
12
73
8
40
0
40
0
40
0
40
0
40
0.25
40
0.25
40
0.5
40
0.5
40
1
40
1
40
1
40
1
41
1
10
51.6961269386919
20
-0.709111096692538
30
0
41
1
10
51.7800042619045
20
-0.804453134605808
30
0
41
1
10
51.8681376907588
20
-0.893983795417967
30
0
41
1
10
52.0516184521068
20
-1.06319509969077
30
0
41
1
10
52.1475103856438
20
-1.14316491238375
30
0
41
1
10
52.439794536346
20
-1.36650555094761
30
0
41
1
10
52.6410283749645
20
-1.49491542288655
30
0
41
1
10
52.8472488970546
20
-1.60730916828712
30
0
0
SPLINE
5
AB
100
AcDbEntity
8
1
62
256
6
ByLayer
370
18
48
1
60
0
100
AcDbSpline
70
4
71
3
72
40
73
36
40
0
40
0
40
0
40
0
40
0.045451005258687
40
0.045451005258687
40
0.0806846680434715
40
0.0806846680434715
40
0.115918330828256
40
0.115918330828256
40
0.186385656397827
40
0.186385656397827
40
0.256852981967397
40
0.256852981967397
40
0.292086644752182
40
0.292086644752182
40
0.327320307536968
40
0.327320307536968
40
0.46825495867611
40
0.46825495867611
40
0.538722284245681
40
0.538722284245681
40
0.609189609815252
40
0.609189609815252
40
0.679656935384824
40
0.679656935384824
40
0.714890598169608
40
0.714890598169608
40
0.750124260954393
40
0.750124260954393
40
0.891058912093534
40
0.891058912093534
40
0.92629257487832
40
0.92629257487832
40
0.961526237663106
40
0.961526237663106
40
1
40
1
40
1
40
1
41
1
10
9.87853203776896
20
1.90893986539683
30
0
41
1
10
10.0320776793518
20
1.85743538994853
30
0
41
1
10
10.1860536792802
20
1.8005063278284
30
0
41
1
10
10.4607652558912
20
1.69018933480228
30
0
41
1
10
10.5811512992304
20
1.63889520678097
30
0
41
1
10
10.8204434761487
20
1.53174850653244
30
0
41
1
10
10.9397028222713
20
1.47574649990153
30
0
41
1
10
11.2966871896891
20
1.3009499919431
30
0
41
1
10
11.5336232335198
20
1.17540395692197
30
0
41
1
10
12.0080010609878
20
0.910021969973059
30
0
41
1
10
12.2455110716136
20
0.770303174902608
30
0
41
1
10
12.6043413314784
20
0.55295110119647
30
0
41
1
10
12.7247267475623
20
0.478970597046299
30
0
41
1
10
12.9646863011764
20
0.330233450678037
30
0
41
1
10
13.0841963045479
20
0.255509160726916
30
0
41
1
10
13.6800974027842
20
-0.118777507048577
30
0
41
1
10
14.1515140992918
20
-0.420390731608137
30
0
41
1
10
14.8671229916206
20
-0.849705738151727
30
0
41
1
10
15.1083774856387
20
-0.989475857035359
30
0
41
1
10
15.5859739020404
20
-1.25130965771791
30
0
41
1
10
15.8232485540813
20
-1.37398104318842
30
0
41
1
10
16.29741920432
20
-1.59961896248251
30
0
41
1
10
16.5343336712228
20
-1.70262135345638
30
0
41
1
10
16.8914454721354
20
-1.83993331600018
30
0
41
1
10
17.010790194242
20
-1.88282643246771
30
0
41
1
10
17.2503419175901
20
-1.96251259207418
30
0
41
1
10
17.3707658916355
20
-1.99935480970535
30
0
41
1
10
17.9691645057042
20
-2.16532193725868
30
0
41
1
10
18.4408548771099
20
-2.24165182905656
30
0
41
1
10
19.0350819539464
20
-2.26284700158695
30
0
41
1
10
19.1541528973437
20
-2.26337757880108
30
0
41
1
10
19.3930105122815
20
-2.25685516664927
30
0
41
1
10
19.5130710625152
20
-2.24979020020822
30
0
41
1
10
19.7641063624429
20
-2.22709328413333
30
0
41
1
10
19.8945649479824
20
-2.21078787955113
30
0
41
1
10
20.024653109974
20
-2.19020385989546
30
0
0
SPLINE
5
AC
100
AcDbEntity
8
1
62
256
6
ByLayer
370
18
48
1
60
0
100
AcDbSpline
70
4
71
3
72
34
73
30
40
0
40
0
40
0
40
0
40
0.0534449603590251
40
0.0534449603590251
40
0.124990454781924
40
0.124990454781924
40
0.196535949204823
40
0.196535949204823
40
0.268081443627722
40
0.268081443627722
40
0.303854190839172
40
0.303854190839172
40
0.339626938050621
40
0.339626938050621
40
0.48271792689641
40
0.48271792689641
40
0.518490674107857
40
0.518490674107857
40
0.554263421319304
40
0.554263421319304
40
0.625808915742197
40
0.625808915742197
40
0.768899904587983
40
0.768899904587983
40
0.911990893433769
40
0.911990893433769
40
0.983536387856662
40
0.983536387856662
40
1
40
1
40
1
40
1
41
1
10
32.6817596881694
20
1.81173120404506
30
0
41
1
10
32.8588059220062
20
1.74413696289992
30
0
41
1
10
33.0361388071261
20
1.66977668664364
30
0
41
1
10
33.4528157923703
20
1.48115514079743
30
0
41
1
10
33.6935397701588
20
1.3612242790839
30
0
41
1
10
34.1700202537755
20
1.10786961524275
30
0
41
1
10
34.406858972185
20
0.973697007189031
30
0
41
1
10
34.8803260082801
20
0.69440083676821
30
0
41
1
10
35.1169171700273
20
0.549193109704163
30
0
41
1
10
35.4738926477903
20
0.326352072192037
30
0
41
1
10
35.5932096565006
20
0.251205090688814
30
0
41
1
10
35.8328042464074
20
0.0996554071410287
30
0
41
1
10
35.9529212499647
20
0.0233564495391931
30
0
41
1
10
36.5496887148722
20
-0.355421160035405
30
0
41
1
10
37.0206615095666
20
-0.652670177813945
30
0
41
1
10
37.614370307662
20
-0.997084044119958
30
0
41
1
10
37.7333535276013
20
-1.06462035184174
30
0
41
1
10
37.9721799714151
20
-1.19638800105281
30
0
41
1
10
38.0923885013371
20
-1.26079269752526
30
0
41
1
10
38.4513644172065
20
-1.44636343315719
30
0
41
1
10
38.6888184877952
20
-1.56018450717627
30
0
41
1
10
39.3995297436978
20
-1.86838677520993
30
0
41
1
10
39.870872371456
20
-2.02988739895213
30
0
41
1
10
40.8313621457741
20
-2.24094016032134
30
0
41
1
10
41.3025263198717
20
-2.2874972877018
30
0
41
1
10
42.0132009218297
20
-2.26749344337759
30
0
41
1
10
42.2506293313059
20
-2.2458896151139
30
0
41
1
10
42.544989684817
20
-2.20077944352906
30
0
41
1
10
42.6001623623101
20
-2.19153595722037
30
0
41
1
10
42.6553164104292
20
-2.18152346113558
30
0
0
SPLINE
5
AD
100
AcDbEntity
8
1
62
256
6
ByLayer
370
18
48
1
60
0
100
AcDbSpline
70
4
71
3
72
10
73
6
40
0
40
0
40
0
40
0
40
0.5
40
0.5
40
1
40
1
40
1
40
1
41
1
10
7.39218228155033
20
-2.25154654787514
30
0
41
1
10
7.37140499085274
20
-2.24965231693099
30
0
41
1
10
7.35354953682497
20
-2.24714857273682
30
0
41
1
10
7.32721178648399
20
-2.24052906073251
30
0
41
1
10
7.31888734922677
20
-2.23641288809958
30
0
41
1
10
7.31888203771706
20
-2.23170218026209
30
0
0
SPLINE
5
AE
100
AcDbEntity
8
1
62
256
6
ByLayer
370
18
48
1
60
0
100
AcDbSpline
70
4
71
3
72
8
73
4
40
0
40
0
40
0
40
0
40
1
40
1
40
1
40
1
41
1
10
53.8798833717291
20
-0.205722961815724
30
0
41
1
10
53.6408635758349
20
-0.862424453836752
30
0
41
1
10
53.4018437799407
20
-1.51912594585775
30
0
41
1
10
53.1628239840465
20
-2.17582743787895
30
0
0
SPLINE
5
AF
100
AcDbEntity
8
1
62
256
6
ByLayer
370
18
48
1
60
0
100
AcDbSpline
70
4
71
3
72
8
73
4
40
0
40
0
40
0
40
0
40
1
40
1
40
1
40
1
41
1
10
7.31888203770919
20
-2.23170218027263
30
0
41
1
10
7.33797697899249
20
-2.2056047173198
30
0
41
1
10
7.36345042534236
20
-2.18251955240203
30
0
41
1
10
7.39508238640121
20
-2.16458554275832
30
0
0
SPLINE
5
B0
100
AcDbEntity
8
1
62
256
6
ByLayer
370
18
48
1
60
0
100
AcDbSpline
70
4
71
3
72
42
73
38
40
0
40
0
40
0
40
0
40
0.0968813728033131
40
0.0968813728033131
40
0.14532205920497
40
0.14532205920497
40
0.169542402405798
40
0.169542402405798
40
0.193762745606626
40
0.193762745606626
40
0.29064411840994
40
0.29064411840994
40
0.339084804811596
40
0.339084804811596
40
0.387525491213253
40
0.387525491213253
40
0.484406864016567
40
0.484406864016567
40
0.532847550418223
40
0.532847550418223
40
0.58128823681988
40
0.58128823681988
40
0.629728923221536
40
0.629728923221536
40
0.653949266422365
40
0.653949266422365
40
0.678169609623193
40
0.678169609623193
40
0.775050982426502
40
0.775050982426502
40
0.823491668828158
40
0.823491668828158
40
0.871932355229813
40
0.871932355229813
40
0.968813728033124
40
0.968813728033124
40
1
40
1
40
1
40
1
41
1
10
7.67143345776049
20
-1.21760206419646
30
0
41
1
10
7.9049924496606
20
-1.33006451885925
30
0
41
1
10
8.13546608164171
20
-1.43644788189701
30
0
41
1
10
8.47782479667615
20
-1.58347232077676
30
0
41
1
10
8.5916260741638
20
-1.63012644656465
30
0
41
1
10
8.76245849294259
20
-1.695845849667
30
0
41
1
10
8.81933367120311
20
-1.71713007632724
30
0
41
1
10
8.93384314635105
20
-1.75757448902169
30
0
41
1
10
8.99112866693247
20
-1.77709964426265
30
0
41
1
10
9.27748142501437
20
-1.87162222246769
30
0
41
1
10
9.50612063693936
20
-1.9380638599732
30
0
41
1
10
9.85057684069662
20
-2.01879830893876
30
0
41
1
10
9.96562733836467
20
-2.04265479988229
30
0
41
1
10
10.1979786944737
20
-2.08296781204064
30
0
41
1
10
10.3136686159544
20
-2.09981255257168
30
0
41
1
10
10.6591753427116
20
-2.14096495229305
30
0
41
1
10
10.887503047227
20
-2.1565078253407
30
0
41
1
10
11.2294006758804
20
-2.15873541861049
30
0
41
1
10
11.344376627639
20
-2.15602494761714
30
0
41
1
10
11.5734661286976
20
-2.14404793894869
30
0
41
1
10
11.687932991727
20
-2.13474983786853
30
0
41
1
10
11.917103523797
20
-2.10972526608592
30
0
41
1
10
12.0317556813491
20
-2.09396945996855
30
0
41
1
10
12.2040481769546
20
-2.06532954988381
30
0
41
1
10
12.2614519856145
20
-2.05489569821412
30
0
41
1
10
12.3770009766562
20
-2.03264862330164
30
0
41
1
10
12.4352410893689
20
-2.02084487136077
30
0
41
1
10
12.7253172633923
20
-1.95761374372731
30
0
41
1
10
12.955020753844
20
-1.89465614137157
30
0
41
1
10
13.2976883972368
20
-1.78258374592426
30
0
41
1
10
13.4112032759662
20
-1.74183432820797
30
0
41
1
10
13.6402596023501
20
-1.65738886495439
30
0
41
1
10
13.7548072901381
20
-1.61273794503597
30
0
41
1
10
14.0979774012707
20
-1.47118266791628
30
0
41
1
10
14.3263389631068
20
-1.36692525132909
30
0
41
1
10
14.6300078739483
20
-1.21606112501701
30
0
41
1
10
14.7045849147928
20
-1.17883261933414
30
0
41
1
10
14.7792572530992
20
-1.14094664938088
30
0
0
SPLINE
5
B1
100
AcDbEntity
8
1
62
256
6
ByLayer
370
18
48
1
60
0
100
AcDbSpline
70
4
71
3
72
102
73
98
40
0
40
0
40
0
40
0
40
0.0056824607139972
40
0.0056824607139972
40
0.0287814145299847
40
0.0287814145299847
40
0.0518803683459722
40
0.0518803683459722
40
0.0749793221619597
40
0.0749793221619597
40
0.0980782759779472
40
0.0980782759779472
40
0.121177229793935
40
0.121177229793935
40
0.144276183609922
40
0.144276183609922
40
0.16737513742591
40
0.16737513742591
40
0.178924614333903
40
0.178924614333903
40
0.190474091241896
40
0.190474091241896
40
0.213573045057883
40
0.213573045057883
40
0.236671998873871
40
0.236671998873871
40
0.259770952689858
40
0.259770952689858
40
0.282869906505846
40
0.282869906505846
40
0.305968860321834
40
0.305968860321834
40
0.329067814137823
40
0.329067814137823
40
0.340617291045817
40
0.340617291045817
40
0.352166767953811
40
0.352166767953811
40
0.3752657217698
40
0.3752657217698
40
0.398364675585788
40
0.398364675585788
40
0.421463629401777
40
0.421463629401777
40
0.444562583217765
40
0.444562583217765
40
0.467661537033754
40
0.467661537033754
40
0.490760490849742
40
0.490760490849742
40
0.513859444665731
40
0.513859444665731
40
0.53695839848172
40
0.53695839848172
40
0.560057352297708
40
0.560057352297708
40
0.571606829205702
40
0.571606829205702
40
0.583156306113697
40
0.583156306113697
40
0.606255259929686
40
0.606255259929686
40
0.629354213745674
40
0.629354213745674
40
0.652453167561663
40
0.652453167561663
40
0.675552121377652
40
0.675552121377652
40
0.721750029009629
40
0.721750029009629
40
0.733299505917622
40
0.733299505917622
40
0.744848982825616
40
0.744848982825616
40
0.767947936641603
40
0.767947936641603
40
0.791046890457591
40
0.791046890457591
40
0.802596367365583
40
0.802596367365583
40
0.814145844273576
40
0.814145844273576
40
0.837244798089561
40
0.837244798089561
40
0.860343751905547
40
0.860343751905547
40
0.883442705721532
40
0.883442705721532
40
0.906541659537517
40
0.906541659537517
40
0.929640613353503
40
0.929640613353503
40
0.952739567169488
40
0.952739567169488
40
0.998937474801457
40
0.998937474801457
40
1
40
1
40
1
40
1
41
1
10
22.3907577066727
20
2.16527467614244
30
0
41
1
10
22.4189415110277
20
2.16520358398759
30
0
41
1
10
22.4470997452625
20
2.16492541772846
30
0
41
1
10
22.5895961504261
20
2.16250035679994
30
0
41
1
10
22.70316254447
20
2.15713288634637
30
0
41
1
10
22.9321134830918
20
2.1408040850969
30
0
41
1
10
23.0465479971903
20
2.12976306819988
30
0
41
1
10
23.2747784705835
20
2.10224229427789
30
0
41
1
10
23.388676195956
20
2.08552005275888
30
0
41
1
10
23.616925238387
20
2.04342237592627
30
0
41
1
10
23.7310783908918
20
2.01874416405858
30
0
41
1
10
23.9599629981877
20
1.96285139772709
30
0
41
1
10
24.0755207156404
20
1.93223780638593
30
0
41
1
10
24.3070377486337
20
1.86514527604245
30
0
41
1
10
24.4229752996637
20
1.82862421642426
30
0
41
1
10
24.6532682121492
20
1.75100152244303
30
0
41
1
10
24.7678742341138
20
1.7098731308684
30
0
41
1
10
24.939206767997
20
1.64288267721693
30
0
41
1
10
24.9962317449832
20
1.61983294825077
30
0
41
1
10
25.1102243398764
20
1.57260341790231
30
0
41
1
10
25.1675299617316
20
1.5487961569998
30
0
41
1
10
25.339285539545
20
1.47562107336296
30
0
41
1
10
25.4536287122041
20
1.42456357928904
30
0
41
1
10
25.6820333086953
20
1.31777276245768
30
0
41
1
10
25.7961928854664
20
1.26211190459884
30
0
41
1
10
26.024551177881
20
1.14662694802789
30
0
41
1
10
26.1384885203487
20
1.08651524427898
30
0
41
1
10
26.3677693755699
20
0.963799907255833
30
0
41
1
10
26.4836474867953
20
0.901862670556199
30
0
41
1
10
26.7152011236765
20
0.773382387136621
30
0
41
1
10
26.8307565998048
20
0.707638348620776
30
0
41
1
10
27.0605505783105
20
0.574424804380044
30
0
41
1
10
27.1749257502007
20
0.506750083651099
30
0
41
1
10
27.3460265363375
20
0.404198146759256
30
0
41
1
10
27.402897831731
20
0.369698189533921
30
0
41
1
10
27.5173595821444
20
0.301816321594373
30
0
41
1
10
27.5746161980552
20
0.267877761786195
30
0
41
1
10
27.7461853962537
20
0.16560170533333
30
0
41
1
10
27.8603453319989
20
0.0968771134562303
30
0
41
1
10
28.0884217648274
20
-0.0412990480760129
30
0
41
1
10
28.2023200432669
20
-0.110763529948059
30
0
41
1
10
28.4302559020946
20
-0.249868091547995
30
0
41
1
10
28.5441725791965
20
-0.319733400449138
30
0
41
1
10
28.7746147038086
20
-0.455396403040766
30
0
41
1
10
28.8902090707724
20
-0.522776298649688
30
0
41
1
10
29.1218953873369
20
-0.657040281807951
30
0
41
1
10
29.2372750704162
20
-0.723253407794004
30
0
41
1
10
29.4669873704851
20
-0.853621583164113
30
0
41
1
10
29.5812471340712
20
-0.918358351178682
30
0
41
1
10
29.809370453938
20
-1.04373490935228
30
0
41
1
10
29.924264586706
20
-1.10287615120822
30
0
41
1
10
30.1530806904626
20
-1.21898906325842
30
0
41
1
10
30.2672659727585
20
-1.27548688880864
30
0
41
1
10
30.4956563160894
20
-1.38462575000546
30
0
41
1
10
30.609817957832
20
-1.43736482361896
30
0
41
1
10
30.7810722169771
20
-1.5138429213421
30
0
41
1
10
30.8381285804994
20
-1.53891903606015
30
0
41
1
10
30.9526408531683
20
-1.5876090567705
30
0
41
1
10
31.0103479953124
20
-1.61093418141053
30
0
41
1
10
31.1833866886806
20
-1.67945570822897
30
0
41
1
10
31.2992975524201
20
-1.72281341400901
30
0
41
1
10
31.5305698938919
20
-1.80461303184654
30
0
41
1
10
31.6456536645566
20
-1.84283856876954
30
0
41
1
10
31.874862076384
20
-1.91314477121881
30
0
41
1
10
31.9885861535987
20
-1.94550655211233
30
0
41
1
10
32.217636472362
20
-2.00311997998
30
0
41
1
10
32.3321736601585
20
-2.02904945732388
30
0
41
1
10
32.6748873461572
20
-2.09729880158781
30
0
41
1
10
32.9027675107812
20
-2.12986064589828
30
0
41
1
10
33.1882137731546
20
-2.15483333074448
30
0
41
1
10
33.2454009796499
20
-2.1589852142842
30
0
41
1
10
33.3604893473655
20
-2.16558109897937
30
0
41
1
10
33.4181165781505
20
-2.16807832559411
30
0
41
1
10
33.5911718238764
20
-2.1731910620241
30
0
41
1
10
33.7070053877653
20
-2.17371096867481
30
0
41
1
10
33.9375822737688
20
-2.1678617868304
30
0
41
1
10
34.052295032342
20
-2.16091349288072
30
0
41
1
10
34.2236723387647
20
-2.14521430930591
30
0
41
1
10
34.2806921258955
20
-2.13910553569178
30
0
41
1
10
34.3946389995152
20
-2.12526019515281
30
0
41
1
10
34.4518376221903
20
-2.11761593679762
30
0
41
1
10
34.6234432674291
20
-2.09248134194783
30
0
41
1
10
34.7376512219583
20
-2.07268947264973
30
0
41
1
10
34.9655594195526
20
-2.02732733717832
30
0
41
1
10
35.079310492703
20
-2.00194941848522
30
0
41
1
10
35.306757488594
20
-1.9446053656109
30
0
41
1
10
35.4203515303321
20
-1.91235261044909
30
0
41
1
10
35.648519449141
20
-1.84164524496933
30
0
41
1
10
35.7639027759283
20
-1.80410955023095
30
0
41
1
10
35.9943456477632
20
-1.72254616084089
30
0
41
1
10
36.110099872122
20
-1.67867459587006
30
0
41
1
10
36.3405592918404
20
-1.58630291160125
30
0
41
1
10
36.4552069921885
20
-1.53786871308938
30
0
41
1
10
36.79783380863
20
-1.38531058665029
30
0
41
1
10
37.026932658281
20
-1.27618984677113
30
0
41
1
10
37.260297039879
20
-1.15619357110501
30
0
41
1
10
37.2655434728781
20
-1.15349188064241
30
0
41
1
10
37.2707897603426
20
-1.1507863058435
30
0
0
SPLINE
5
B2
100
AcDbEntity
8
1
62
256
6
ByLayer
370
18
48
1
60
0
100
AcDbSpline
70
4
71
3
72
44
73
40
40
0
40
0
40
0
40
0
40
0.0410761220360564
40
0.0410761220360564
40
0.091545799823634
40
0.091545799823634
40
0.142015477611212
40
0.142015477611212
40
0.167250316505
40
0.167250316505
40
0.192485155398789
40
0.192485155398789
40
0.293424510973943
40
0.293424510973943
40
0.343894188761521
40
0.343894188761521
40
0.394363866549098
40
0.394363866549098
40
0.444833544336676
40
0.444833544336676
40
0.495303222124254
40
0.495303222124254
40
0.545772899911831
40
0.545772899911831
40
0.596242577699409
40
0.596242577699409
40
0.646712255486987
40
0.646712255486987
40
0.671947094380775
40
0.671947094380775
40
0.697181933274564
40
0.697181933274564
40
0.79812128884971
40
0.79812128884971
40
0.848590966637282
40
0.848590966637282
40
0.899060644424855
40
0.899060644424855
40
1
40
1
40
1
40
1
41
1
10
44.8896948806175
20
2.17955124683564
30
0
41
1
10
44.9835025659875
20
2.17947419781987
30
0
41
1
10
45.0778247943891
20
2.17721883986346
30
0
41
1
10
45.287407887221
20
2.16727128275034
30
0
41
1
10
45.4031331047464
20
2.15836286860801
30
0
41
1
10
45.6336247046755
20
2.13491816087702
30
0
41
1
10
45.7482538158071
20
2.12004046059252
30
0
41
1
10
45.9195951776328
20
2.09158017707335
30
0
41
1
10
45.9765054125397
20
2.08113618386648
30
0
41
1
10
46.0909172898275
20
2.05903286196354
30
0
41
1
10
46.1482642226607
20
2.04729447679742
30
0
41
1
10
46.4343986616691
20
1.98459922720159
30
0
41
1
10
46.6623673880033
20
1.92201941161898
30
0
41
1
10
47.0037854506379
20
1.81222461274646
30
0
41
1
10
47.1170984473292
20
1.772464935633
30
0
41
1
10
47.3466577204052
20
1.68826934940961
30
0
41
1
10
47.4618190633605
20
1.64328573719982
30
0
41
1
10
47.6925271528726
20
1.54774261389696
30
0
41
1
10
47.8082403974387
20
1.49714713904683
30
0
41
1
10
48.0380521031994
20
1.39181219525761
30
0
41
1
10
48.1523770099457
20
1.33678768977322
30
0
41
1
10
48.3804461990909
20
1.22317122492231
30
0
41
1
10
48.4950657322329
20
1.16583427604283
30
0
41
1
10
48.723602091308
20
1.04679799774681
30
0
41
1
10
48.8376282121809
20
0.985317171329228
30
0
41
1
10
49.0655659290633
20
0.859328974290548
30
0
41
1
10
49.1794701363399
20
0.794765951875291
30
0
41
1
10
49.3503320539892
20
0.69570766874773
30
0
41
1
10
49.4072962909553
20
0.662333059920769
30
0
41
1
10
49.5213854757369
20
0.595099713419899
30
0
41
1
10
49.5788600664035
20
0.561814198478032
30
0
41
1
10
49.8663203520125
20
0.393720186472876
30
0
41
1
10
50.0982305363958
20
0.253902325543407
30
0
41
1
10
50.4420933020529
20
0.0435030472581275
30
0
41
1
10
50.555904838066
20
-0.0273499195313605
30
0
41
1
10
50.7842746234098
20
-0.166510087522113
30
0
41
1
10
50.8989138918629
20
-0.234702886603174
30
0
41
1
10
51.2412102701258
20
-0.440157527269236
30
0
41
1
10
51.4685397654038
20
-0.57610864301671
30
0
41
1
10
51.696126938692
20
-0.709111096692595
30
0
0
SPLINE
5
B3
100
AcDbEntity
8
1
62
256
6
ByLayer
370
13
48
1
60
0
100
AcDbSpline
70
4
71
3
72
17
73
13
40
0
40
0
40
0
40
0
40
0.25
40
0.25
40
0.375
40
0.375
40
0.5
40
0.625
40
0.625
40
0.75
40
0.75
40
1
40
1
40
1
40
1
41
1
10
7.52936144536369
20
-2.13362241321627
30
0
41
1
10
7.52932606794303
20
-2.11010973310238
30
0
41
1
10
7.52927563847484
20
-2.06923675854182
30
0
41
1
10
7.52918973119603
20
-1.98220099766414
30
0
41
1
10
7.52915938739301
20
-1.94882928158103
30
0
41
1
10
7.52909865919079
20
-1.87492711734544
30
0
41
1
10
7.52903757214423
20
-1.79356342384628
30
0
41
1
10
7.52897961168773
20
-1.69746032952773
30
0
41
1
10
7.52892503921345
20
-1.5938034297732
30
0
41
1
10
7.52889946897108
20
-1.53813623527927
30
0
41
1
10
7.52883168348799
20
-1.36272221463125
30
0
41
1
10
7.52879812058134
20
-1.23296522832189
30
0
41
1
10
7.528780866582
20
-1.09593681589735
30
0
0
SPLINE
5
B4
100
AcDbEntity
8
1
62
256
6
ByLayer
370
18
48
1
60
0
100
AcDbSpline
70
4
71
3
72
8
73
4
40
0
40
0
40
0
40
0
40
1
40
1
40
1
40
1
41
1
10
53.2794386672537
20
-2.20853688343652
30
0
41
1
10
53.4869384946208
20
-1.71768332441746
30
0
41
1
10
53.6919731092888
20
-1.22223887868392
30
0
41
1
10
53.8871431455065
20
-0.719278724498935
30
0
0
SPLINE
5
B5
100
AcDbEntity
8
1
62
256
6
ByLayer
370
18
48
1
60
0
100
AcDbSpline
70
4
71
3
72
8
73
4
40
0
40
0
40
0
40
0
40
1
40
1
40
1
40
1
41
1
10
53.2794386672537
20
2.20853688343649
30
0
41
1
10
53.4869369862037
20
1.71768689267074
30
0
41
1
10
53.6919716905919
20
1.22224253471666
30
0
41
1
10
53.8871431455066
20
0.719278724498906
30
0
0
SPLINE
5
B6
100
AcDbEntity
8
1
62
256
6
ByLayer
370
18
48
1
60
0
100
AcDbSpline
70
4
71
3
72
8
73
4
40
0
40
0
40
0
40
0
40
1
40
1
40
1
40
1
41
1
10
53.2794386672581
20
-2.2085368834241
30
0
41
1
10
53.2413700313093
20
-2.25004208494857
30
0
41
1
10
53.2088013283455
20
-2.2776815973171
30
0
41
1
10
53.1813360567334
20
-2.29095121271016
30
0
0
SPLINE
5
B7
100
AcDbEntity
8
1
62
256
6
ByLayer
370
18
48
1
60
0
100
AcDbSpline
70
4
71
3
72
30
73
26
40
0
40
0
40
0
40
0
40
0.0625000000000006
40
0.0625000000000006
40
0.125000000000001
40
0.125000000000001
40
0.250000000000002
40
0.250000000000002
40
0.375000000000003
40
0.375000000000003
40
0.500000000000004
40
0.500000000000004
40
0.562500000000004
40
0.562500000000004
40
0.625000000000004
40
0.625000000000004
40
0.687500000000005
40
0.687500000000005
40
0.750000000000005
40
0.750000000000005
40
0.812500000000005
40
0.812500000000005
40
0.875000000000005
40
0.875000000000005
40
1
40
1
40
1
40
1
41
1
10
53.3705278045937
20
-0.89706704783498
30
0
41
1
10
53.3659771850032
20
-0.919438320117735
30
0
41
1
10
53.363508405304
20
-0.940460492741551
30
0
41
1
10
53.3627355554549
20
-0.978086966032407
30
0
41
1
10
53.3644049709787
20
-0.994193043093503
30
0
41
1
10
53.3745830681685
20
-1.03458758831786
30
0
41
1
10
53.3878438559007
20
-1.04963916080848
30
0
41
1
10
53.4213801716155
20
-1.05984154054667
30
0
41
1
10
53.4416501275197
20
-1.05496809262686
30
0
41
1
10
53.4852674610211
20
-1.02820215208322
30
0
41
1
10
53.5086388272049
20
-1.00638950973203
30
0
41
1
10
53.5438892412314
20
-0.961470229171255
30
0
41
1
10
53.55549569865
20
-0.944656767982963
30
0
41
1
10
53.5778747641195
20
-0.907666778726679
30
0
41
1
10
53.5888398494966
20
-0.887103010064379
30
0
41
1
10
53.6086378345248
20
-0.84404485034878
30
0
41
1
10
53.6177472339137
20
-0.820895440246403
30
0
41
1
10
53.6324712198544
20
-0.775121329523614
30
0
41
1
10
53.6383030454197
20
-0.751787071158901
30
0
41
1
10
53.6456317712116
20
-0.708477645344885
30
0
41
1
10
53.6472028633223
20
-0.688123376970594
30
0
41
1
10
53.6462379468029
20
-0.653027231089766
30
0
41
1
10
53.6437215668111
20
-0.637941759825338
30
0
41
1
10
53.631490117382
20
-0.601778833821754
30
0
41
1
10
53.6170532833399
20
-0.589040547517698
30
0
41
1
10
53.599581610949
20
-0.58617421654202
30
0
0
SPLINE
5
B8
100
AcDbEntity
8
1
62
256
6
ByLayer
370
18
48
1
60
0
100
AcDbSpline
70
4
71
3
72
8
73
4
40
0
40
0
40
0
40
0
40
1
40
1
40
1
40
1
41
1
10
7.40750317988818
20
-2.25286100170214
30
0
41
1
10
7.40233843629193
20
-2.25244159880535
30
0
41
1
10
7.39721920371062
20
-2.25200575566879
30
0
41
1
10
7.39218228155056
20
-2.25154654787517
30
0
0
SPLINE
5
B9
100
AcDbEntity
8
1
62
256
6
ByLayer
370
13
48
1
60
0
100
AcDbSpline
70
4
71
3
72
8
73
4
40
0
40
0
40
0
40
0
40
1
40
1
40
1
40
1
41
1
10
7.40750317986388
20
-2.2528610017124
30
0
41
1
10
7.42926158680393
20
-2.24369581698247
30
0
41
1
10
7.45232611000094
20
-2.24005165588707
30
0
41
1
10
7.47605131575818
20
-2.24168924646861
30
0
0
SPLINE
5
BA
100
AcDbEntity
8
1
62
256
6
ByLayer
370
18
48
1
60
0
100
AcDbSpline
70
4
71
3
72
12
73
8
40
0
40
0
40
0
40
0
40
0.24999999999994
40
0.24999999999994
40
0.499999999999879
40
0.499999999999879
40
1
40
1
40
1
40
1
41
1
10
53.0085496424577
20
0.604421838675307
30
0
41
1
10
53.0064500887264
20
0.614151896004557
30
0
41
1
10
53.0061032352444
20
0.624326448246137
30
0
41
1
10
53.0105341905834
20
0.643634055609937
30
0
41
1
10
53.0154631561534
20
0.652769946902083
30
0
41
1
10
53.0366973032395
20
0.674321127533318
30
0
41
1
10
53.0572562342347
20
0.680043822186519
30
0
41
1
10
53.0771086142544
20
0.680635243853857
30
0
0
SPLINE
5
BB
100
AcDbEntity
8
1
62
256
6
ByLayer
370
18
48
1
60
0
100
AcDbSpline
70
4
71
3
72
12
73
8
40
0
40
0
40
0
40
0
40
0.25
40
0.25
40
0.5
40
0.5
40
1
40
1
40
1
40
1
41
1
10
7.31828869861781
20
-0.989491409421305
30
0
41
1
10
7.33186878766045
20
-0.985987663797346
30
0
41
1
10
7.34817298664291
20
-0.987437609040001
30
0
41
1
10
7.38230196123567
20
-0.996993013508245
30
0
41
1
10
7.40056544535554
20
-1.00515979833062
30
0
41
1
10
7.45514556911215
20
-1.03544615245087
30
0
41
1
10
7.49244249597456
20
-1.06361562306839
30
0
41
1
10
7.52878086658586
20
-1.09593681579165
30
0
0
SPLINE
5
BC
100
AcDbEntity
8
1
62
256
6
ByLayer
370
18
48
1
60
0
100
AcDbSpline
70
4
71
3
72
8
73
4
40
0
40
0
40
0
40
0
40
1
40
1
40
1
40
1
41
1
10
53.1813360567334
20
2.29095121271016
30
0
41
1
10
53.075755472832
20
2.29689394074012
30
0
41
1
10
52.9702560960467
20
2.29982073550445
30
0
41
1
10
52.8647279752688
20
2.29974460154131
30
0
0
SPLINE
5
BD
100
AcDbEntity
8
1
62
256
6
ByLayer
370
18
48
1
60
0
100
AcDbSpline
70
4
71
3
72
44
73
40
40
0
40
0
40
0
40
0
40
0.0701547499706996
40
0.0701547499706996
40
0.128518119451909
40
0.128518119451909
40
0.157699804192515
40
0.157699804192515
40
0.18688148893312
40
0.18688148893312
40
0.303608227895534
40
0.303608227895534
40
0.332789912636137
40
0.332789912636137
40
0.361971597376739
40
0.361971597376739
40
0.420334966857944
40
0.420334966857944
40
0.478698336339149
40
0.478698336339149
40
0.507880021079753
40
0.507880021079753
40
0.537061705820357
40
0.537061705820357
40
0.653788444782774
40
0.653788444782774
40
0.682970129523378
40
0.682970129523378
40
0.712151814263983
40
0.712151814263983
40
0.770515183745191
40
0.770515183745191
40
0.8288785532264
40
0.8288785532264
40
0.858060237967006
40
0.858060237967006
40
0.887241922707611
40
0.887241922707611
40
1
40
1
40
1
40
1
41
1
10
42.6052537795795
20
-2.20615945077128
30
0
41
1
10
42.3195282651681
20
-2.25595995921862
30
0
41
1
10
42.0352033237134
20
-2.28442736282995
30
0
41
1
10
41.5125446299577
20
-2.29675029229651
30
0
41
1
10
41.2747151754635
20
-2.28726909479036
30
0
41
1
10
40.9147870887915
20
-2.24983920941341
30
0
41
1
10
40.7946300540338
20
-2.23352266662411
30
0
41
1
10
40.5556723849888
20
-2.19372457064335
30
0
41
1
10
40.4365710394185
20
-2.17021439131619
30
0
41
1
10
39.8421843389516
20
-2.03528562340534
30
0
41
1
10
39.3708017309509
20
-1.87134819201651
30
0
41
1
10
38.7721459251955
20
-1.6072143898304
30
0
41
1
10
38.6516661692315
20
-1.55126735307965
30
0
41
1
10
38.4121478501567
20
-1.43501098555862
30
0
41
1
10
38.2928510670361
20
-1.37460045893673
30
0
41
1
10
37.9358267673567
20
-1.18728213816212
30
0
41
1
10
37.6990009405329
20
-1.05423706658016
30
0
41
1
10
37.2247734300285
20
-0.776076827211085
30
0
41
1
10
36.9873629862869
20
-0.630985316946663
30
0
41
1
10
36.6289241913286
20
-0.40699304828081
30
0
41
1
10
36.5088172953258
20
-0.331050649218611
30
0
41
1
10
36.2687040958307
20
-0.178352116513935
30
0
41
1
10
36.1491494334913
20
-0.101931351611682
30
0
41
1
10
35.5530212578503
20
0.279198577981788
30
0
41
1
10
35.0814520219951
20
0.581120842648602
30
0
41
1
10
34.4852305309965
20
0.933827955273784
30
0
41
1
10
34.3656375288921
20
1.00311695013357
30
0
41
1
10
34.1253890475161
20
1.13861784992417
30
0
41
1
10
34.0051998346161
20
1.20455630765699
30
0
41
1
10
33.6466464831006
20
1.39495699289486
30
0
41
1
10
33.4093966165546
20
1.51282737084051
30
0
41
1
10
32.9350152451067
20
1.72662070158995
30
0
41
1
10
32.698005632197
20
1.82271328450938
30
0
41
1
10
32.340824789903
20
1.94851185873966
30
0
41
1
10
32.2214848906684
20
1.98738373444846
30
0
41
1
10
31.9818749244047
20
2.05859276393838
30
0
41
1
10
31.8613439411115
20
2.09097708482511
30
0
41
1
10
31.2786954837518
20
2.23018743029721
30
0
41
1
10
30.822531217815
20
2.28608504825587
30
0
41
1
10
30.363252021754
20
2.28567772518608
30
0
0
SPLINE
5
BE
100
AcDbEntity
8
1
62
256
6
ByLayer
370
18
48
1
60
0
100
AcDbSpline
70
4
71
3
72
42
73
38
40
0
40
0
40
0
40
0
40
0.102115571683434
40
0.102115571683434
40
0.131341848924172
40
0.131341848924172
40
0.16056812616491
40
0.16056812616491
40
0.219020680646385
40
0.219020680646385
40
0.277473235127861
40
0.277473235127861
40
0.306699512368598
40
0.306699512368598
40
0.335925789609336
40
0.335925789609336
40
0.452830898572286
40
0.452830898572286
40
0.511283453053761
40
0.511283453053761
40
0.540509730294498
40
0.540509730294498
40
0.569736007535235
40
0.569736007535235
40
0.686641116498185
40
0.686641116498185
40
0.715867393738922
40
0.715867393738922
40
0.745093670979659
40
0.745093670979659
40
0.803546225461132
40
0.803546225461132
40
0.861998779942606
40
0.861998779942606
40
0.92045133442408
40
0.92045133442408
40
1
40
1
40
1
40
1
41
1
10
20.1153172590916
20
-2.19089684163239
30
0
41
1
10
19.6985506363135
20
-2.26374352817956
30
0
41
1
10
19.2856972777776
20
-2.29154371745801
30
0
41
1
10
18.7499357069287
20
-2.2678718882195
30
0
41
1
10
18.6304360846533
20
-2.25881915263713
30
0
41
1
10
18.3905144342763
20
-2.23307062830028
30
0
41
1
10
18.2698760202466
20
-2.21629917825575
30
0
41
1
10
17.9102177037369
20
-2.155148459983
30
0
41
1
10
17.6721183100053
20
-2.09999599977067
30
0
41
1
10
17.1969713656775
20
-1.96304589654093
30
0
41
1
10
16.9597686190309
20
-1.88134656285885
30
0
41
1
10
16.6026328210008
20
-1.74051159813234
30
0
41
1
10
16.4833621656556
20
-1.69051978923662
30
0
41
1
10
16.24404188775
20
-1.58468678747036
30
0
41
1
10
16.1237161129381
20
-1.52870878109928
30
0
41
1
10
15.5224023623375
20
-1.23653454399025
30
0
41
1
10
15.0493405810786
20
-0.967466120862184
30
0
41
1
10
14.3360049251299
20
-0.53420388014294
30
0
41
1
10
14.0975859462345
20
-0.384846876124612
30
0
41
1
10
13.736792894426
20
-0.156628357948165
30
0
41
1
10
13.6164351085571
20
-0.0801504033076981
30
0
41
1
10
13.3770412814529
20
0.0719101201332819
30
0
41
1
10
13.2577275301237
20
0.147668024597323
30
0
41
1
10
12.6622210856795
20
0.52378386674232
30
0
41
1
10
12.1895942764063
20
0.816743534537352
30
0
41
1
10
11.5898200917085
20
1.15155619540224
30
0
41
1
10
11.4691084515303
20
1.21705287001103
30
0
41
1
10
11.2290853391228
20
1.34288684431925
30
0
41
1
10
11.1095105623147
20
1.40337917984692
30
0
41
1
10
10.751606454044
20
1.57712176239383
30
0
41
1
10
10.5142153697882
20
1.68278067499969
30
0
41
1
10
10.0390293548268
20
1.8707803931629
30
0
41
1
10
9.80114738392768
20
1.95304663999204
30
0
41
1
10
9.32225368730468
20
2.0914131568353
30
0
41
1
10
9.08063503790277
20
2.14749415990778
30
0
41
1
10
8.51570183483275
20
2.24373839792287
30
0
41
1
10
8.19208134273526
20
2.27171544114802
30
0
41
1
10
7.86694019809534
20
2.27162219533761
30
0
0
SPLINE
5
BF
100
AcDbEntity
8
1
62
256
6
ByLayer
370
18
48
1
60
0
100
AcDbSpline
70
4
71
3
72
8
73
4
40
0
40
0
40
0
40
0
40
1
40
1
40
1
40
1
41
1
10
7.52878086691706
20
-1.09593681608627
30
0
41
1
10
7.57576293622196
20
-1.13772505509291
30
0
41
1
10
7.62330658383087
20
-1.1782724148967
30
0
41
1
10
7.67143345776049
20
-1.21760206419646
30
0
0
SPLINE
5
C0
100
AcDbEntity
8
1
62
256
6
ByLayer
370
18
48
1
60
0
100
AcDbSpline
70
4
71
3
72
44
73
40
40
0
40
0
40
0
40
0
40
0.123494803691248
40
0.123494803691248
40
0.15436850461406
40
0.15436850461406
40
0.185242205536872
40
0.185242205536872
40
0.246989607382496
40
0.246989607382496
40
0.277863308305309
40
0.277863308305309
40
0.308737009228123
40
0.308737009228123
40
0.370484411073749
40
0.370484411073749
40
0.432231812919376
40
0.432231812919376
40
0.463105513842188
40
0.463105513842188
40
0.493979214765
40
0.493979214765
40
0.61747401845625
40
0.61747401845625
40
0.679221420301877
40
0.679221420301877
40
0.710095121224692
40
0.710095121224692
40
0.740968822147506
40
0.740968822147506
40
0.864463625838767
40
0.864463625838767
40
0.895337326761581
40
0.895337326761581
40
0.926211027684396
40
0.926211027684396
40
0.987958429530025
40
0.987958429530025
40
1
40
1
40
1
40
1
41
1
10
53.1813360567334
20
-2.29095121271016
30
0
41
1
10
52.7047766529453
20
-2.31777492235631
30
0
41
1
10
52.2314019117658
20
-2.28345979778672
30
0
41
1
10
51.6320847174144
20
-2.1651887719423
30
0
41
1
10
51.5120725561986
20
-2.13780936798102
30
0
41
1
10
51.2731929236087
20
-2.07629095246713
30
0
41
1
10
51.1540673473166
20
-2.04209990948993
30
0
41
1
10
50.7971108173256
20
-1.92972602758229
30
0
41
1
10
50.559687848098
20
-1.8417608499831
30
0
41
1
10
50.2023950328303
20
-1.69201913467569
30
0
41
1
10
50.0831006177535
20
-1.63914109746628
30
0
41
1
10
49.8437645103645
20
-1.52776019872527
30
0
41
1
10
49.7234262395795
20
-1.46909719231635
30
0
41
1
10
49.364336934795
20
-1.28703439831915
30
0
41
1
10
49.1267152035629
20
-1.15729375401881
30
0
41
1
10
48.6523451779535
20
-0.88509624300184
30
0
41
1
10
48.4156893574428
20
-0.742507369649303
30
0
41
1
10
48.0595482934356
20
-0.521696841566154
30
0
41
1
10
47.9406158904876
20
-0.44697724985042
30
0
41
1
10
47.7019295686751
20
-0.295868936190601
30
0
41
1
10
47.5819222089273
20
-0.219312821619326
30
0
41
1
10
46.9819411959982
20
0.164573131820276
30
0
41
1
10
46.5105257951019
20
0.470564643430549
30
0
41
1
10
45.7984882026428
20
0.900629893912622
30
0
41
1
10
45.5605281600797
20
1.03948191750018
30
0
41
1
10
45.2006863692836
20
1.23788431776023
30
0
41
1
10
45.080659687406
20
1.30205808616623
30
0
41
1
10
44.8419115930443
20
1.42507142151618
30
0
41
1
10
44.7229118452361
20
1.48406639799234
30
0
41
1
10
44.1290258104809
20
1.76578857204214
30
0
41
1
10
43.6575780929022
20
1.94892028197071
30
0
41
1
10
43.0590915508711
20
2.11072903217132
30
0
41
1
10
42.9386743835655
20
2.13976783125239
30
0
41
1
10
42.6993178003901
20
2.19021225991713
30
0
41
1
10
42.5800927057251
20
2.21171061169468
30
0
41
1
10
42.2232415292574
20
2.26500574617654
30
0
41
1
10
41.9864040466446
20
2.28560170441978
30
0
41
1
10
41.7031028236779
20
2.29225275530712
30
0
41
1
10
41.6568685775908
20
2.29276571291012
30
0
41
1
10
41.6106198106272
20
2.29270452243767
30
0
0
SPLINE
5
C1
100
AcDbEntity
8
1
62
256
6
ByLayer
370
18
48
1
60
0
100
AcDbSpline
70
4
71
3
72
44
73
40
40
0
40
0
40
0
40
0
40
0.0293664392711965
40
0.0293664392711965
40
0.0876593671357691
40
0.0876593671357691
40
0.145952295000341
40
0.145952295000341
40
0.175098758932628
40
0.175098758932628
40
0.204245222864914
40
0.204245222864914
40
0.320831078594052
40
0.320831078594052
40
0.349977542526336
40
0.349977542526336
40
0.379124006458619
40
0.379124006458619
40
0.437416934323184
40
0.437416934323184
40
0.495709862187747
40
0.495709862187747
40
0.554002790052312
40
0.554002790052312
40
0.67058864578144
40
0.67058864578144
40
0.699735109713721
40
0.699735109713721
40
0.728881573646002
40
0.728881573646002
40
0.787174501510565
40
0.787174501510565
40
0.845467429375128
40
0.845467429375128
40
0.87461389330741
40
0.87461389330741
40
0.903760357239692
40
0.903760357239692
40
1
40
1
40
1
40
1
41
1
10
31.3873054812788
20
-2.19372469745758
30
0
41
1
10
31.2668875473772
20
-2.2153121463439
30
0
41
1
10
31.146797823656
20
-2.23312203225115
30
0
41
1
10
30.7892509827331
20
-2.27486065074652
30
0
41
1
10
30.5523801866399
20
-2.28767677414376
30
0
41
1
10
30.0775827665637
20
-2.28317850787769
30
0
41
1
10
29.839697365552
20
-2.2658690712486
30
0
41
1
10
29.4800315421924
20
-2.21704925229565
30
0
41
1
10
29.3595073189836
20
-2.19689481814765
30
0
41
1
10
29.1200478984388
20
-2.14950593312164
30
0
41
1
10
29.0007536800195
20
-2.12225503997399
30
0
41
1
10
28.4054908791786
20
-1.96911386918757
30
0
41
1
10
27.9336330833665
20
-1.79233323041476
30
0
41
1
10
27.3356364580344
20
-1.51519572416513
30
0
41
1
10
27.2152875476848
20
-1.45680032246989
30
0
41
1
10
26.9750527099683
20
-1.33555604097791
30
0
41
1
10
26.8554373017691
20
-1.2728413905711
30
0
41
1
10
26.4976139246064
20
-1.07915595768489
30
0
41
1
10
26.2604635363818
20
-0.942590244753347
30
0
41
1
10
25.7859197946861
20
-0.659108586032147
30
0
41
1
10
25.5485800525349
20
-0.512118695479614
30
0
41
1
10
25.0710466903744
20
-0.211680614754471
30
0
41
1
10
24.8295873482918
20
-0.0573771893947139
30
0
41
1
10
24.1127961891746
20
0.399797859797161
30
0
41
1
10
23.6403414149825
20
0.696865010009191
30
0
41
1
10
23.0447801083373
20
1.04053984169531
30
0
41
1
10
22.9253456697104
20
1.10777893315031
30
0
41
1
10
22.6854982445022
20
1.23875052057048
30
0
41
1
10
22.5648905414644
20
1.30256757377489
30
0
41
1
10
22.2053209320973
20
1.48582457352495
30
0
41
1
10
21.9674057243597
20
1.59796351412316
30
0
41
1
10
21.4924397002887
20
1.79952540903258
30
0
41
1
10
21.255443492806
20
1.8889957940267
30
0
41
1
10
20.898474737516
20
2.0040193947975
30
0
41
1
10
20.7792278437937
20
2.03915585921328
30
0
41
1
10
20.5398831598725
20
2.10268452375436
30
0
41
1
10
20.4194581944158
20
2.13114017882808
30
0
41
1
10
19.9023524259997
20
2.23758000366348
30
0
41
1
10
19.5111054653535
20
2.27859160540464
30
0
41
1
10
19.1190558645153
20
2.2786464821377
30
0
0
SPLINE
5
C2
100
AcDbEntity
8
1
62
256
6
ByLayer
370
18
48
1
60
0
100
AcDbSpline
70
4
71
3
72
10
73
6
40
0
40
0
40
0
40
0
40
0.10029976251483
40
0.10029976251483
40
1
40
1
40
1
40
1
41
1
10
9.00517264008383
20
-2.15805957718104
30
0
41
1
10
8.95149536970055
20
-2.16869861252107
30
0
41
1
10
8.89782260742857
20
-2.17861136073816
30
0
41
1
10
8.36384910167129
20
-2.269847535184
30
0
41
1
10
7.88870896077481
20
-2.29193730717554
30
0
41
1
10
7.40750317986272
20
-2.25286100170007
30
0
0
SPLINE
5
C3
100
AcDbEntity
8
1
62
256
6
ByLayer
370
18
48
1
60
0
100
AcDbSpline
70
4
71
3
72
10
73
6
40
0
40
0
40
0
40
0
40
0.552182746793701
40
0.552182746793701
40
1
40
1
40
1
40
1
41
1
10
7.47605131575818
20
-2.24168924646861
30
0
41
1
10
7.71645792291713
20
-2.25828288951871
30
0
41
1
10
7.95657637040912
20
-2.25962301036932
30
0
41
1
10
8.39197229188227
20
-2.23440657140492
30
0
41
1
10
8.58557349941842
20
-2.21324650010641
30
0
41
1
10
8.77852904183405
20
-2.18267375870852
30
0
0
SPLINE
5
C4
100
AcDbEntity
8
1
62
256
6
ByLayer
370
18
48
1
60
0
100
AcDbSpline
70
4
71
3
72
38
73
34
40
0
40
0
40
0
40
0
40
0.0552225223016702
40
0.0552225223016702
40
0.0903966426839735
40
0.0903966426839735
40
0.125570763066277
40
0.125570763066277
40
0.195919003830883
40
0.195919003830883
40
0.26626724459549
40
0.26626724459549
40
0.301441364977794
40
0.301441364977794
40
0.336615485360097
40
0.336615485360097
40
0.477311966889312
40
0.477311966889312
40
0.547660207653919
40
0.547660207653919
40
0.618008448418526
40
0.618008448418526
40
0.688356689183133
40
0.688356689183133
40
0.723530809565437
40
0.723530809565437
40
0.75870492994774
40
0.75870492994774
40
0.899401411476951
40
0.899401411476951
40
0.969749652241556
40
0.969749652241556
40
1
40
1
40
1
40
1
41
1
10
21.2129117307153
20
1.88606317755398
30
0
41
1
10
21.3994061815894
20
1.82095022394745
30
0
41
1
10
21.5864769575938
20
1.74794199613464
30
0
41
1
10
21.8947699222849
20
1.61620702159021
30
0
41
1
10
22.0149041219875
20
1.56203006995221
30
0
41
1
10
22.2538104239707
20
1.44936712197995
30
0
41
1
10
22.3728913845122
20
1.39075206617687
30
0
41
1
10
22.7293745883558
20
1.20861044738362
30
0
41
1
10
22.9660255871422
20
1.07881007891157
30
0
41
1
10
23.4399040861505
20
0.805879782351724
30
0
41
1
10
23.6774854455381
20
0.66332626895715
30
0
41
1
10
24.0363906008988
20
0.442576023953251
30
0
41
1
10
24.1567682297612
20
0.36760220556809
30
0
41
1
10
24.3962222462916
20
0.217352983393425
30
0
41
1
10
24.5154569499977
20
0.141982253376994
30
0
41
1
10
25.1100221132916
20
-0.234729163569341
30
0
41
1
10
25.5815240394893
20
-0.534111032487004
30
0
41
1
10
26.2971714756538
20
-0.956951215939341
30
0
41
1
10
26.5380354942247
20
-1.09388067468819
30
0
41
1
10
27.0154283752913
20
-1.3485746311419
30
0
41
1
10
27.2530423211965
20
-1.46714427961413
30
0
41
1
10
27.7285255419528
20
-1.68389778078961
30
0
41
1
10
27.9663378417669
20
-1.78215408569738
30
0
41
1
10
28.3256579964751
20
-1.91127033264223
30
0
41
1
10
28.4459700421962
20
-1.95133087760092
30
0
41
1
10
28.6852948029832
20
-2.02435206606995
30
0
41
1
10
28.8046000395596
20
-2.05742464534851
30
0
41
1
10
29.3999969488537
20
-2.20546104446578
30
0
41
1
10
29.8735544100021
20
-2.26806403346106
30
0
41
1
10
30.5940168306388
20
-2.26979496601155
30
0
41
1
10
30.8333237109546
20
-2.25518097209704
30
0
41
1
10
31.1763113923538
20
-2.21266738468742
30
0
41
1
10
31.2796935248411
20
-2.19705583763786
30
0
41
1
10
31.3827132057157
20
-2.17880022204861
30
0
0
SPLINE
5
C5
100
AcDbEntity
8
1
62
256
6
ByLayer
370
18
48
1
60
0
100
AcDbSpline
70
4
71
3
72
28
73
24
40
0
40
0
40
0
40
0
40
0.100702819910863
40
0.100702819910863
40
0.154844742451521
40
0.154844742451521
40
0.20898666499218
40
0.20898666499218
40
0.317270510073501
40
0.317270510073501
40
0.425554355154823
40
0.425554355154823
40
0.533838200236143
40
0.533838200236143
40
0.750405890398791
40
0.750405890398791
40
0.804547812939451
40
0.804547812939451
40
0.85868973548011
40
0.85868973548011
40
0.966973580561429
40
0.966973580561429
40
1
40
1
40
1
40
1
41
1
10
43.9661310173491
20
1.80413573487434
30
0
41
1
10
44.186249239454
20
1.7187580222658
30
0
41
1
10
44.4067172640931
20
1.62300928660218
30
0
41
1
10
44.7479231192475
20
1.46132097042252
30
0
41
1
10
44.8679923726318
20
1.40186643191876
30
0
41
1
10
45.1073280992857
20
1.27874407219414
30
0
41
1
10
45.2264819808878
20
1.21515125579012
30
0
41
1
10
45.5829986569187
20
1.01919504120647
30
0
41
1
10
45.8195627519436
20
0.881888758916489
30
0
41
1
10
46.2928532027343
20
0.597461449225847
30
0
41
1
10
46.5294313808566
20
0.450132598738605
30
0
41
1
10
47.0052320636585
20
0.149449004211107
30
0
41
1
10
47.2459067539638
20
-0.0043327914424083
30
0
41
1
10
47.9605313480265
20
-0.458151446651243
30
0
41
1
10
48.4306970551506
20
-0.753118876202421
30
0
41
1
10
49.0247027534392
20
-1.0908618442634
30
0
41
1
10
49.1437863957576
20
-1.15690468170749
30
0
41
1
10
49.3828556611775
20
-1.28545454933237
30
0
41
1
10
49.503035753406
20
-1.34804979064944
30
0
41
1
10
49.8612213996595
20
-1.52765200040349
30
0
41
1
10
50.0981979917605
20
-1.63718033947154
30
0
41
1
10
50.4069006414488
20
-1.76508009203272
30
0
41
1
10
50.4790102569115
20
-1.79390077328375
30
0
41
1
10
50.5511172989163
20
-1.82161396736382
30
0
0
SPLINE
5
C6
100
AcDbEntity
8
1
62
256
6
ByLayer
370
13
48
1
60
0
100
AcDbSpline
70
4
71
3
72
14
73
10
40
0
40
0
40
0
40
0
40
0.188092327869376
40
0.188092327869376
40
0.323410273224479
40
0.323410273224479
40
0.458728218579581
40
0.458728218579581
40
1
40
1
40
1
40
1
41
1
10
50.5511172972073
20
-1.82161396670699
30
0
41
1
10
50.7154278843996
20
-1.88476412608864
30
0
41
1
10
50.8797251089343
20
-1.94216366853513
30
0
41
1
10
51.1629401055031
20
-2.03023771095624
30
0
41
1
10
51.2816598683221
20
-2.06388881598488
30
0
41
1
10
51.5198817526179
20
-2.12444000667406
30
0
41
1
10
51.6396444924875
20
-2.15138742287323
30
0
41
1
10
52.2381036001337
20
-2.26779255858347
30
0
41
1
10
52.7113320786674
20
-2.30144131115824
30
0
41
1
10
53.1881247686652
20
-2.27410326024616
30
0
0
SPLINE
5
C7
100
AcDbEntity
8
1
62
256
6
ByLayer
370
18
48
1
60
0
100
AcDbSpline
70
4
71
3
72
8
73
4
40
0
40
0
40
0
40
0
40
1
40
1
40
1
40
1
41
1
10
53.1881247686725
20
-2.27410326024969
30
0
41
1
10
53.1858622081293
20
-2.27972119480853
30
0
41
1
10
53.1835992915234
20
-2.28533719370014
30
0
41
1
10
53.1813360567334
20
-2.29095121271016
30
0
0
SPLINE
5
C8
100
AcDbEntity
8
1
62
256
6
ByLayer
370
18
48
1
60
0
100
AcDbSpline
70
4
71
3
72
18
73
14
40
0
40
0
40
0
40
0
40
0.25
40
0.25
40
0.375
40
0.375
40
0.5
40
0.5
40
0.75
40
0.75
40
0.875
40
0.875
40
1
40
1
40
1
40
1
41
1
10
53.1628239840465
20
-2.17582743787881
30
0
41
1
10
53.1202691466775
20
-2.16539270100444
30
0
41
1
10
53.0809633614554
20
-2.14606069978274
30
0
41
1
10
53.0272928554453
20
-2.10258147065491
30
0
41
1
10
53.0102222746751
20
-2.08556104221557
30
0
41
1
10
52.9785364059579
20
-2.04706732537878
30
0
41
1
10
52.963861627934
20
-2.02557546275716
30
0
41
1
10
52.9233457473284
20
-1.95435720482178
30
0
41
1
10
52.9009868444207
20
-1.8979385948958
30
0
41
1
10
52.8748784784405
20
-1.79903146528761
30
0
41
1
10
52.8673957235434
20
-1.76348785185397
30
0
41
1
10
52.8552375870889
20
-1.688372485668
30
0
41
1
10
52.8505471546378
20
-1.64883383508166
30
0
41
1
10
52.8472488970547
20
-1.60730916828712
30
0
0
SPLINE
5
C9
100
AcDbEntity
8
1
62
256
6
ByLayer
370
18
48
1
60
0
100
AcDbSpline
70
4
71
3
72
14
73
10
40
0
40
0
40
0
40
0
40
0.25
40
0.25
40
0.5
40
0.5
40
0.75
40
0.75
40
1
40
1
40
1
40
1
41
1
10
53.2054013665494
20
-2.18295623837975
30
0
41
1
10
53.2077817500787
20
-2.18234912773872
30
0
41
1
10
53.2095507310087
20
-2.18333453582096
30
0
41
1
10
53.2114380416164
20
-2.18956153941761
30
0
41
1
10
53.2115155650613
20
-2.19487971210074
30
0
41
1
10
53.2089802903928
20
-2.21108712191762
30
0
41
1
10
53.2063012015666
20
-2.2220231146288
30
0
41
1
10
53.1984759449365
20
-2.24708872602162
30
0
41
1
10
53.1934203890224
20
-2.26095424257423
30
0
41
1
10
53.1881247686741
20
-2.27410326024568
30
0
0
SPLINE
5
CA
100
AcDbEntity
8
1
62
256
6
ByLayer
370
18
48
1
60
0
100
AcDbSpline
70
4
71
3
72
12
73
8
40
0
40
0
40
0
40
0
40
0.548847133917212
40
0.548847133917212
40
0.823270700875818
40
0.823270700875818
40
1
40
1
40
1
40
1
41
1
10
53.2054013665531
20
-2.18295623837963
30
0
41
1
10
52.7289359733376
20
-2.1955160062318
30
0
41
1
10
52.2557889108067
20
-2.14945849545472
30
0
41
1
10
51.538031629217
20
-1.99653189245782
30
0
41
1
10
51.3001954767394
20
-1.93212702908684
30
0
41
1
10
50.9109487919355
20
-1.80676846016672
30
0
41
1
10
50.7587835913776
20
-1.7527262609936
30
0
41
1
10
50.6066087622864
20
-1.69409634096809
30
0
0
SPLINE
5
CB
100
AcDbEntity
8
1
62
256
6
ByLayer
370
13
48
1
60
0
100
AcDbSpline
70
4
71
3
72
30
73
26
40
0
40
0
40
0
40
0
40
0.0418084552466983
40
0.0418084552466983
40
0.159248307703502
40
0.159248307703502
40
0.217968233931907
40
0.217968233931907
40
0.276688160160311
40
0.276688160160311
40
0.511567865073929
40
0.511567865073929
40
0.570287791302337
40
0.570287791302337
40
0.629007717530745
40
0.629007717530745
40
0.746447569987556
40
0.746447569987556
40
0.863887422444368
40
0.863887422444368
40
0.922607348672773
40
0.922607348672773
40
0.981327274901179
40
0.981327274901179
40
1
40
1
40
1
40
1
41
1
10
50.6066093125662
20
-1.69409655297983
30
0
41
1
10
50.5224883377241
20
-1.661686428866
30
0
41
1
10
50.4383644207273
20
-1.62787439527088
30
0
41
1
10
50.1177173746394
20
-1.49396847425294
30
0
41
1
10
49.8807913244165
20
-1.38462296562048
30
0
41
1
10
49.5227642054411
20
-1.20675986981809
30
0
41
1
10
49.4027623278099
20
-1.14504614996358
30
0
41
1
10
49.1641485858373
20
-1.01876735665661
30
0
41
1
10
49.0452508614255
20
-0.954066356124116
30
0
41
1
10
48.4520088005106
20
-0.624050843260363
30
0
41
1
10
47.9818370971589
20
-0.338659018301712
30
0
41
1
10
47.386586217902
20
0.0238707527857684
30
0
41
1
10
47.2669146467189
20
0.0968305692931324
30
0
41
1
10
47.0276332008548
20
0.242098135321271
30
0
41
1
10
46.9084545944687
20
0.314119034727071
30
0
41
1
10
46.5520363336233
20
0.528045565911157
30
0
41
1
10
46.3156476467502
20
0.667318222031327
30
0
41
1
10
45.8426387685406
20
0.934845536672469
30
0
41
1
10
45.606099607765
20
1.06321731095693
30
0
41
1
10
45.2496793907196
20
1.24543587413888
30
0
41
1
10
45.1305726447532
20
1.30439459870544
30
0
41
1
10
44.8913698763239
20
1.41813249492193
30
0
41
1
10
44.7716024958308
20
1.47275057797884
30
0
41
1
10
44.6146120973074
20
1.54098344789713
30
0
41
1
10
44.576772280875
20
1.55717356803728
30
0
41
1
10
44.5389650913122
20
1.57308665929878
30
0
0
SPLINE
5
CC
100
AcDbEntity
8
1
62
256
6
ByLayer
370
18
48
1
60
0
100
AcDbSpline
70
4
71
3
72
14
73
10
40
0
40
0
40
0
40
0
40
0.0723632147367779
40
0.0723632147367779
40
0.698932421096646
40
0.698932421096646
40
0.855574722686614
40
0.855574722686614
40
1
40
1
40
1
40
1
41
1
10
30.5548480274419
20
-2.17092792481156
30
0
41
1
10
30.499512526287
20
-2.17092469186255
30
0
41
1
10
30.4441498488981
20
-2.17014815387947
30
0
41
1
10
29.9090081279176
20
-2.15518066666439
30
0
41
1
10
29.4359067419357
20
-2.08322590422006
30
0
41
1
10
28.8409395028459
20
-1.92794946016309
30
0
41
1
10
28.7217355094242
20
-1.8936318774719
30
0
41
1
10
28.4919604502794
20
-1.82147072418397
30
0
41
1
10
28.3812262344346
20
-1.78403285450761
30
0
41
1
10
28.2708714924449
20
-1.74424156870745
30
0
0
SPLINE
5
CD
100
AcDbEntity
8
1
62
256
6
ByLayer
370
13
48
1
60
0
100
AcDbSpline
70
4
71
3
72
30
73
26
40
0
40
0
40
0
40
0
40
0.0043118734614851
40
0.0043118734614851
40
0.114882460400628
40
0.114882460400628
40
0.22545304733977
40
0.22545304733977
40
0.336023634278914
40
0.336023634278914
40
0.557164808157199
40
0.557164808157199
40
0.612450101626771
40
0.612450101626771
40
0.667735395096343
40
0.667735395096343
40
0.77830598203549
40
0.77830598203549
40
0.888876568974638
40
0.888876568974638
40
0.944161862444213
40
0.944161862444213
40
0.999447155913787
40
0.999447155913787
40
1
40
1
40
1
40
1
41
1
10
28.2708714928893
20
-1.74424156886766
30
0
41
1
10
28.2615365162951
20
-1.74087559913372
30
0
41
1
10
28.2522042550541
20
-1.73749278935693
30
0
41
1
10
28.0036488571714
20
-1.64692250796025
30
0
41
1
10
27.7660093255833
20
-1.54852679475738
30
0
41
1
10
27.290872860819
20
-1.33316567063983
30
0
41
1
10
27.0534113422948
20
-1.21613539686393
30
0
41
1
10
26.5763427180313
20
-0.966425192839921
30
0
41
1
10
26.3358280484392
20
-0.833008182938727
30
0
41
1
10
25.6209448193853
20
-0.422922620998577
30
0
41
1
10
25.1496356243998
20
-0.134610677827965
30
0
41
1
10
24.5552329975961
20
0.224596275004245
30
0
41
1
10
24.4360643252728
20
0.296338819100498
30
0
41
1
10
24.1968149953535
20
0.439061467119302
30
0
41
1
10
24.0766457686155
20
0.510090749432209
30
0
41
1
10
23.7182577233101
20
0.718848794792024
30
0
41
1
10
23.4809114720405
20
0.853109256842487
30
0
41
1
10
23.0071674740772
20
1.10876685113598
30
0
41
1
10
22.770616149254
20
1.22986738571654
30
0
41
1
10
22.4143624108575
20
1.39877830063941
30
0
41
1
10
22.2953733416228
20
1.45295563532815
30
0
41
1
10
22.0566691850312
20
1.55666386436818
30
0
41
1
10
21.9366360667179
20
1.60630232934184
30
0
41
1
10
21.8156505849664
20
1.65351033580078
30
0
41
1
10
21.8144527752246
20
1.65397743839543
30
0
41
1
10
21.8132550126512
20
1.65444424488456
30
0
0
SPLINE
5
CE
100
AcDbEntity
8
1
62
256
6
ByLayer
370
18
48
1
60
0
100
AcDbSpline
70
4
71
3
72
8
73
4
40
0
40
0
40
0
40
0
40
1
40
1
40
1
40
1
41
1
10
8.07488744315947
20
-2.15692813083882
30
0
41
1
10
7.89300579111119
20
-2.15752508087266
30
0
41
1
10
7.71124402937628
20
-2.14973804394307
30
0
41
1
10
7.52936144536338
20
-2.13362241321624
30
0
0
SPLINE
5
CF
100
AcDbEntity
8
1
62
256
6
ByLayer
370
18
48
1
60
0
100
AcDbSpline
70
4
71
3
72
34
73
30
40
0
40
0
40
0
40
0
40
0.0625000000000017
40
0.0625000000000017
40
0.125000000000003
40
0.125000000000003
40
0.250000000000007
40
0.250000000000007
40
0.375000000000011
40
0.375000000000011
40
0.500000000000014
40
0.500000000000014
40
0.625000000000018
40
0.625000000000018
40
0.750000000000021
40
0.750000000000021
40
0.781250000000024
40
0.781250000000024
40
0.796875000000024
40
0.796875000000024
40
0.812500000000023
40
0.812500000000023
40
0.828125000000023
40
0.828125000000023
40
0.843750000000022
40
0.843750000000022
40
0.875000000000018
40
0.875000000000018
40
1
40
1
40
1
40
1
41
1
10
51.696126938692
20
-0.709111096692567
30
0
41
1
10
51.7432594251305
20
-0.721241603055631
30
0
41
1
10
51.7904059035786
20
-0.732150099950218
30
0
41
1
10
51.8847594362852
20
-0.74867663041934
30
0
41
1
10
51.9319650252252
20
-0.754422639406755
30
0
41
1
10
52.0736455021485
20
-0.766096465675389
30
0
41
1
10
52.168887819799
20
-0.76545185480515
30
0
41
1
10
52.3517383873632
20
-0.74253900579717
30
0
41
1
10
52.4403403789213
20
-0.720180340219059
30
0
41
1
10
52.608325840765
20
-0.64763752524874
30
0
41
1
10
52.6846706238192
20
-0.598800672739713
30
0
41
1
10
52.8221360144674
20
-0.476113912832915
30
0
41
1
10
52.8834581246172
20
-0.401197708579872
30
0
41
1
10
52.9867203336718
20
-0.237005746110697
30
0
41
1
10
53.0292484633104
20
-0.14671162178783
30
0
41
1
10
53.0750107064959
20
-0.027181397484128
30
0
41
1
10
53.0838016593871
20
-0.0029229433531555
30
0
41
1
10
53.0964403047645
20
0.0338118901269411
30
0
41
1
10
53.1005628784013
20
0.046117082657446
30
0
41
1
10
53.1086358369431
20
0.0708423414307333
30
0
41
1
10
53.1129453306408
20
0.0831885619252546
30
0
41
1
10
53.1164979910499
20
0.109880672302381
30
0
41
1
10
53.1158521224668
20
0.12434451964279
30
0
41
1
10
53.1122744759421
20
0.15276889492003
30
0
41
1
10
53.1090385351079
20
0.166881553841591
30
0
41
1
10
53.0986220356558
20
0.20917078977908
30
0
41
1
10
53.0918329923768
20
0.237374175844053
30
0
41
1
10
53.0582717527015
20
0.378418741792103
30
0
41
1
10
53.0329415866866
20
0.491381142369818
30
0
41
1
10
53.0085496424577
20
0.604421838675307
30
0
0
SPLINE
5
D0
100
AcDbEntity
8
1
62
256
6
ByLayer
370
18
48
1
60
0
100
AcDbSpline
70
4
71
3
72
8
73
4
40
0
40
0
40
0
40
0
40
1
40
1
40
1
40
1
41
1
10
53.8871431455073
20
-0.719278724496917
30
0
41
1
10
53.9230839121302
20
-0.515648486540101
30
0
41
1
10
53.9543887320574
20
-0.312035233812253
30
0
41
1
10
53.9810177457494
20
-0.108439112351164
30
0
0
SPLINE
5
D1
100
AcDbEntity
8
1
62
256
6
ByLayer
370
18
48
1
60
0
100
AcDbSpline
70
4
71
3
72
52
73
48
40
0
40
0
40
0
40
0
40
0.062500000000002
40
0.062500000000002
40
0.125000000000004
40
0.125000000000004
40
0.25000000000001
40
0.25000000000001
40
0.312500000000013
40
0.312500000000013
40
0.375000000000016
40
0.375000000000016
40
0.437500000000019
40
0.437500000000019
40
0.46875000000002
40
0.46875000000002
40
0.500000000000022
40
0.500000000000022
40
0.562500000000024
40
0.562500000000024
40
0.593750000000026
40
0.593750000000026
40
0.625000000000027
40
0.625000000000027
40
0.656250000000028
40
0.656250000000028
40
0.687500000000029
40
0.687500000000029
40
0.750000000000032
40
0.750000000000032
40
0.812500000000035
40
0.812500000000035
40
0.843750000000036
40
0.843750000000036
40
0.847656250000036
40
0.847656250000036
40
0.851562500000036
40
0.851562500000036
40
0.855468750000036
40
0.855468750000036
40
0.859375000000036
40
0.859375000000036
40
0.875000000000032
40
0.875000000000032
40
0.937500000000016
40
0.937500000000016
40
1
40
1
40
1
40
1
41
1
10
7.31828869861772
20
-0.989491409421532
30
0
41
1
10
7.23513633206159
20
-0.906494542542532
30
0
41
1
10
7.15402078619158
20
-0.819568282172924
30
0
41
1
10
6.99569891452387
20
-0.637383817647986
30
0
41
1
10
6.91803398077772
20
-0.541494788941492
30
0
41
1
10
6.69475057917219
20
-0.245127291844909
30
0
41
1
10
6.55905289160393
20
-0.0372288139454326
30
0
41
1
10
6.37691275103924
20
0.29197942714498
30
0
41
1
10
6.32070862345091
20
0.403186613622068
30
0
41
1
10
6.21974136420204
20
0.624984327823881
30
0
41
1
10
6.17465512346186
20
0.736105881995456
30
0
41
1
10
6.09715831216158
20
0.958876789332834
30
0
41
1
10
6.06580967699111
20
1.06760192996995
30
0
41
1
10
6.03148191830218
20
1.22513342895866
30
0
41
1
10
6.02214376540604
20
1.27678909143666
30
0
41
1
10
6.00808324913174
20
1.37830937024938
30
0
41
1
10
6.00341938941921
20
1.42802468341824
30
0
41
1
10
5.99711186972411
20
1.57049111985998
30
0
41
1
10
6.00287395874466
20
1.65795394173242
30
0
41
1
10
6.02765932779502
20
1.77800034443427
30
0
41
1
10
6.03872367269872
20
1.81629603976594
30
0
41
1
10
6.06581748687543
20
1.88726044918081
30
0
41
1
10
6.08186908123236
20
1.9201791944586
30
0
41
1
10
6.11886006823534
20
1.98124934508951
30
0
41
1
10
6.1397991069787
20
2.00939990268174
30
0
41
1
10
6.18652689810207
20
2.06119014301601
30
0
41
1
10
6.21237274878843
20
2.08482396894391
30
0
41
1
10
6.29536442454514
20
2.1480892789134
30
0
41
1
10
6.35839360837656
20
2.18072903449587
30
0
41
1
10
6.49822003381405
20
2.23053205371647
30
0
41
1
10
6.57481458211129
20
2.24750172839526
30
0
41
1
10
6.69654190588813
20
2.2630577058863
30
0
41
1
10
6.73829606227417
20
2.26660686968529
30
0
41
1
10
6.78641991335155
20
2.26895695601195
30
0
41
1
10
6.7915351169417
20
2.26920519755251
30
0
41
1
10
6.80305711106524
20
2.26960559250512
30
0
41
1
10
6.81011336912076
20
2.26973719289964
30
0
41
1
10
6.82556016646674
20
2.26985804725342
30
0
41
1
10
6.83331995755967
20
2.26983957736923
30
0
41
1
10
6.84875356035258
20
2.26981848872811
30
0
41
1
10
6.8564694504507
20
2.26980669054899
30
0
41
1
10
6.89504435056662
20
2.26974108276028
30
0
41
1
10
6.92584629550041
20
2.26966766565781
30
0
41
1
10
7.07956660304907
20
2.26916721220439
30
0
41
1
10
7.20129009219585
20
2.26837776526031
30
0
41
1
10
7.43959479634438
20
2.26465361977111
30
0
41
1
10
7.55658108062735
20
2.26171789880604
30
0
41
1
10
7.67143345776049
20
2.25651063383231
30
0
0
SPLINE
5
D2
100
AcDbEntity
8
1
62
256
6
ByLayer
370
18
48
1
60
0
100
AcDbSpline
70
4
71
3
72
8
73
4
40
0
40
0
40
0
40
0
40
1
40
1
40
1
40
1
41
1
10
53.8871431455073
20
0.719278724496888
30
0
41
1
10
53.9230852865272
20
0.515640699594741
30
0
41
1
10
53.9543897531992
20
0.312027426519819
30
0
41
1
10
53.9810177457494
20
0.108439112351192
30
0
0
SPLINE
5
D3
100
AcDbEntity
8
1
62
256
6
ByLayer
370
18
48
1
60
0
100
AcDbSpline
70
4
71
3
72
8
73
4
40
0
40
0
40
0
40
0
40
1
40
1
40
1
40
1
41
1
10
53.9810177457494
20
-0.108439112351078
30
0
41
1
10
53.9840015117267
20
-0.0856262816792537
30
0
41
1
10
53.9909509333334
20
-0.0566080924808432
30
0
41
1
10
53.9999629266571
20
-0.0260582683908126
30
0
0
SPLINE
5
D4
100
AcDbEntity
8
1
62
256
6
ByLayer
370
18
48
1
60
0
100
AcDbSpline
70
4
71
3
72
19
73
15
40
0
40
0
40
0
40
0
40
0.125
40
0.125
40
0.25
40
0.25
40
0.5
40
0.5
40
0.625
40
0.625
40
0.75
40
0.875
40
0.875
40
1
40
1
40
1
40
1
41
1
10
7.31888203771737
20
-2.23170218025931
30
0
41
1
10
7.31886346169716
20
-2.21522735069385
30
0
41
1
10
7.31884119724523
20
-2.193726325542
30
0
41
1
10
7.31879114268861
20
-2.14066816763554
30
0
41
1
10
7.31876324606014
20
-2.10895480158385
30
0
41
1
10
7.31867599230478
20
-2.00074446377192
30
0
41
1
10
7.3186126682125
20
-1.91093842638358
30
0
41
1
10
7.31852143976192
20
-1.74948352713932
30
0
41
1
10
7.31849166956761
20
-1.69108737303665
30
0
41
1
10
7.318436606332
20
-1.56829671096489
30
0
41
1
10
7.31838559450136
20
-1.43881660239819
30
0
41
1
10
7.31834532162418
20
-1.29611020956162
30
0
41
1
10
7.31831161888465
20
-1.1465954612749
30
0
41
1
10
7.31829818810067
20
-1.06874941598042
30
0
41
1
10
7.31828869861758
20
-0.989491409421447
30
0
0
SPLINE
5
D5
100
AcDbEntity
8
1
62
256
6
ByLayer
370
18
48
1
60
0
100
AcDbSpline
70
4
71
3
72
12
73
8
40
0
40
0
40
0
40
0
40
0.374394149194539
40
0.374394149194539
40
0.749914685486565
40
0.749914685486565
40
1
40
1
40
1
40
1
41
1
10
41.8004891199603
20
-2.17808794940626
30
0
41
1
10
41.5645000557569
20
-2.17791431906184
30
0
41
1
10
41.3290438102517
20
-2.16348836171179
30
0
41
1
10
40.8558574725424
20
-2.10660631971126
30
0
41
1
10
40.6177843066205
20
-2.06406454324096
30
0
41
1
10
40.2185420983257
20
-1.96997670328119
30
0
41
1
10
40.0598429364509
20
-1.92657876826649
30
0
41
1
10
39.9016533878241
20
-1.87782658860195
30
0
0
SPLINE
5
D6
100
AcDbEntity
8
1
62
256
6
ByLayer
370
13
48
1
60
0
100
AcDbSpline
70
4
71
3
72
26
73
22
40
0
40
0
40
0
40
0
40
0.144562179989976
40
0.144562179989976
40
0.252927282215316
40
0.252927282215316
40
0.307109833327986
40
0.307109833327986
40
0.361292384440656
40
0.361292384440656
40
0.578022588891346
40
0.578022588891346
40
0.632205140004018
40
0.632205140004018
40
0.68638769111669
40
0.68638769111669
40
0.794752793342035
40
0.794752793342035
40
0.90311789556738
40
0.90311789556738
40
1
40
1
40
1
40
1
41
1
10
39.9016524321153
20
-1.87782629406351
30
0
41
1
10
39.5847770301847
20
-1.78016893493807
30
0
41
1
10
39.2699464786328
20
-1.66102735370922
30
0
41
1
10
38.7172388532943
20
-1.42106473489332
30
0
41
1
10
38.4798681258649
20
-1.30809022786309
30
0
41
1
10
38.1211278552495
20
-1.12517793701863
30
0
41
1
10
38.001146939334
20
-1.06199381374762
30
0
41
1
10
37.7626234991493
20
-0.933113817976874
30
0
41
1
10
37.6437649087932
20
-0.867210562782759
30
0
41
1
10
37.0505858343406
20
-0.53188166761737
30
0
41
1
10
36.5795916539502
20
-0.244960220456676
30
0
41
1
10
35.983145847207
20
0.117263634488154
30
0
41
1
10
35.8631239626372
20
0.190066294709084
30
0
41
1
10
35.6239488740452
20
0.334217967910888
30
0
41
1
10
35.5048034234525
20
0.405564011950844
30
0
41
1
10
35.1482337006584
20
0.616657549037427
30
0
41
1
10
34.9117141278622
20
0.753534383510072
30
0
41
1
10
34.4384653326832
20
1.01584683606759
30
0
41
1
10
34.2017401946428
20
1.14128054001191
30
0
41
1
10
33.75074066631
20
1.364027018847
30
0
41
1
10
33.5359944286669
20
1.46341863483528
30
0
41
1
10
33.3226460386789
20
1.55385181969984
30
0
0
SPLINE
5
D7
100
AcDbEntity
8
1
62
256
6
ByLayer
370
18
48
1
60
0
100
AcDbSpline
70
4
71
3
72
14
73
10
40
0
40
0
40
0
40
0
40
0.158044528247333
40
0.158044528247333
40
0.821001359810895
40
0.821001359810895
40
0.986740567701785
40
0.986740567701785
40
1
40
1
40
1
40
1
41
1
10
19.3011304755198
20
-2.16389983627695
30
0
41
1
10
19.1873450743713
20
-2.16380953271406
30
0
41
1
10
19.0738179413049
20
-2.16045425662168
30
0
41
1
10
18.4855403105919
20
-2.12625426720584
30
0
41
1
10
18.0138727022333
20
-2.04204950281061
30
0
41
1
10
17.4160253936786
20
-1.87068566165073
30
0
41
1
10
17.2957800968059
20
-1.83299376275159
30
0
41
1
10
17.1665861052483
20
-1.78929278820163
30
0
41
1
10
17.1570184725062
20
-1.78603752197992
30
0
41
1
10
17.1474532847452
20
-1.78276424194422
30
0
0
SPLINE
5
D8
100
AcDbEntity
8
1
62
256
6
ByLayer
370
13
48
1
60
0
100
AcDbSpline
70
4
71
3
72
28
73
24
40
0
40
0
40
0
40
0
40
0.05074491606767
40
0.05074491606767
40
0.161059848630712
40
0.161059848630712
40
0.271374781193753
40
0.271374781193753
40
0.381689713756794
40
0.381689713756794
40
0.602319578882877
40
0.602319578882877
40
0.657477045164398
40
0.657477045164398
40
0.71263451144592
40
0.71263451144592
40
0.822949444008961
40
0.822949444008961
40
0.933264376572003
40
0.933264376572003
40
0.988421842853523
40
0.988421842853523
40
1
40
1
40
1
40
1
41
1
10
17.147454230832
20
-1.78276456570225
30
0
41
1
10
17.0374569204949
20
-1.74512266340207
30
0
41
1
10
16.9277829452947
20
-1.70509853569149
30
0
41
1
10
16.5804957146782
20
-1.57087304337301
30
0
41
1
10
16.3436780522016
20
-1.46836207697808
30
0
41
1
10
15.8697279154181
20
-1.24538808366725
30
0
41
1
10
15.6325439870086
20
-1.12493266531857
30
0
41
1
10
15.1553448277589
20
-0.869264431253896
30
0
41
1
10
14.9144723006623
20
-0.73357864724386
30
0
41
1
10
14.1995405490729
20
-0.318370146335241
30
0
41
1
10
13.7281289214397
20
-0.0288765110517204
30
0
41
1
10
13.1326897327265
20
0.327511242569159
30
0
41
1
10
13.0132858470694
20
0.398503365161304
30
0
41
1
10
12.7735870447079
20
0.539480403161576
30
0
41
1
10
12.6533829691858
20
0.609426013889419
30
0
41
1
10
12.2949351705689
20
0.814603032678576
30
0
41
1
10
12.0575453290546
20
0.945969317542904
30
0
41
1
10
11.5833884344313
20
1.19442335855715
30
0
41
1
10
11.3465608508366
20
1.31138780764678
30
0
41
1
10
10.9898068960432
20
1.47314190066774
30
0
41
1
10
10.8706305198822
20
1.52476135961572
30
0
41
1
10
10.7259964255863
20
1.5842777010557
30
0
41
1
10
10.7008730960088
20
1.5945023541972
30
0
41
1
10
10.6757296509646
20
1.60461910990045
30
0
0
SPLINE
5
D9
100
AcDbEntity
8
1
62
256
6
ByLayer
370
18
48
1
60
0
100
AcDbSpline
70
4
71
3
72
8
73
4
40
0
40
0
40
0
40
0
40
1
40
1
40
1
40
1
41
1
10
53.0771086142544
20
0.680635243853658
30
0
41
1
10
53.3486167620766
20
0.688723735073268
30
0
41
1
10
53.6204497797002
20
0.697608850755984
30
0
41
1
10
53.8871431455018
20
0.719278724496917
30
0
0
SPLINE
5
DA
100
AcDbEntity
8
1
62
256
6
ByLayer
370
18
48
1
60
0
100
AcDbSpline
70
4
71
3
72
27
73
23
40
0
40
0
40
0
40
0
40
0.0703602597526086
40
0.0703602597526086
40
0.239760459259618
40
0.239760459259618
40
0.409160658766628
40
0.409160658766628
40
0.493860758520133
40
0.493860758520133
40
0.515035783458509
40
0.525623295927697
40
0.525623295927697
40
0.536210808396886
40
0.536210808396886
40
0.546798320866074
40
0.546798320866074
40
0.557385833335262
40
0.557385833335262
40
0.578560858273637
40
0.578560858273637
40
1
40
1
40
1
40
1
41
1
10
7.67143345776049
20
2.25651063383231
30
0
41
1
10
7.67143345776049
20
2.16659621399126
30
0
41
1
10
7.67143345776049
20
2.07680584245401
30
0
41
1
10
7.67143345776049
20
1.77165974023424
30
0
41
1
10
7.67143345776049
20
1.55705632522768
30
0
41
1
10
7.67143345776049
20
1.12969767015616
30
0
41
1
10
7.67143345776049
20
0.916943136226934
30
0
41
1
10
7.67143345776049
20
0.599145192534394
30
0
41
1
10
7.67143345776049
20
0.493367123166053
30
0
41
1
10
7.67143345776049
20
0.361789859048201
30
0
41
1
10
7.67143345776049
20
0.322360115002453
30
0
41
1
10
7.67143345776063
20
0.282995240301887
30
0
41
1
10
7.67143345776063
20
0.256766377656987
30
0
41
1
10
7.67143345776049
20
0.24359457736125
30
0
41
1
10
7.67143345776049
20
0.218010132293586
30
0
41
1
10
7.67143345776049
20
0.205507357497623
30
0
41
1
10
7.67143345776049
20
0.181247618342894
30
0
41
1
10
7.67143345776049
20
0.169650613317856
30
0
41
1
10
7.67143345776049
20
0.135829194504083
30
0
41
1
10
7.67143345776049
20
0.113298617245079
30
0
41
1
10
7.67143345776049
20
-0.357291265453938
30
0
41
1
10
7.67143345776049
20
-0.794091921612988
30
0
41
1
10
7.67143345776049
20
-1.21760206419674
30
0
0
SPLINE
5
DB
100
AcDbEntity
8
1
62
256
6
ByLayer
370
18
48
1
60
0
100
AcDbSpline
70
4
71
3
72
8
73
4
40
0
40
0
40
0
40
0
40
1
40
1
40
1
40
1
41
1
10
53.9999629266531
20
0.026058268388141
30
0
41
1
10
54.0000123577818
20
0.0086860894591894
30
0
41
1
10
54.0000123577817
20
-0.0086860894697622
30
0
41
1
10
53.999962926653
20
-0.0260582683987423
30
0
0
SPLINE
5
DC
100
AcDbEntity
8
1
62
256
6
ByLayer
370
18
48
1
60
0
100
AcDbSpline
70
4
71
3
72
24
73
20
40
0
40
0
40
0
40
0
40
0.125000000000002
40
0.125000000000002
40
0.250000000000004
40
0.250000000000004
40
0.312500000000015
40
0.312500000000015
40
0.375000000000027
40
0.375000000000027
40
0.437500000000039
40
0.437500000000039
40
0.50000000000005
40
0.50000000000005
40
0.625000000000038
40
0.625000000000038
40
0.750000000000025
40
0.750000000000025
40
1
40
1
40
1
40
1
41
1
10
53.3705278045937
20
-0.89706704783498
30
0
41
1
10
53.3470463152483
20
-0.877950690011346
30
0
41
1
10
53.32428517061
20
-0.857216253996512
30
0
41
1
10
53.2815370125103
20
-0.809515974820329
30
0
41
1
10
53.2615116974286
20
-0.782676601675803
30
0
41
1
10
53.2416268180157
20
-0.737332975673894
30
0
41
1
10
53.2367933782454
20
-0.721140759500798
30
0
41
1
10
53.233968666918
20
-0.689148173426304
30
0
41
1
10
53.2361857746071
20
-0.673676433561951
30
0
41
1
10
53.2467906437584
20
-0.647313032766704
30
0
41
1
10
53.2549465623403
20
-0.636356875650023
30
0
41
1
10
53.2735853847281
20
-0.618500592020268
30
0
41
1
10
53.2842947206423
20
-0.611318523992026
30
0
41
1
10
53.3177296431642
20
-0.593718792505996
30
0
41
1
10
53.3421764370265
20
-0.586725861940067
30
0
41
1
10
53.3921825050843
20
-0.577437702188206
30
0
41
1
10
53.4175862690341
20
-0.575287123549174
30
0
41
1
10
53.4945191560966
20
-0.573325440564076
30
0
41
1
10
53.5467631512916
20
-0.577962555152254
30
0
41
1
10
53.5995816109531
20
-0.586174216542645
30
0
0
SPLINE
5
DD
100
AcDbEntity
8
1
62
256
6
ByLayer
370
18
48
1
60
0
100
AcDbSpline
70
4
71
3
72
96
73
92
40
0
40
0
40
0
40
0
40
0.0175053522076642
40
0.0175053522076642
40
0.0405991076698886
40
0.0405991076698886
40
0.0636928631321129
40
0.0636928631321129
40
0.0867866185943373
40
0.0867866185943373
40
0.109880374056562
40
0.109880374056562
40
0.156067884981012
40
0.156067884981012
40
0.167614762712125
40
0.167614762712125
40
0.179161640443238
40
0.179161640443238
40
0.202255395905463
40
0.202255395905463
40
0.225349151367688
40
0.225349151367688
40
0.248442906829914
40
0.248442906829914
40
0.294630417754364
40
0.294630417754364
40
0.317724173216591
40
0.317724173216591
40
0.340817928678817
40
0.340817928678817
40
0.363911684141043
40
0.363911684141043
40
0.38700543960327
40
0.38700543960327
40
0.398552317334384
40
0.398552317334384
40
0.410099195065498
40
0.410099195065498
40
0.433192950527726
40
0.433192950527726
40
0.456286705989955
40
0.456286705989955
40
0.479380461452183
40
0.479380461452183
40
0.502474216914412
40
0.502474216914412
40
0.52556797237664
40
0.52556797237664
40
0.548661727838868
40
0.548661727838868
40
0.560208605569984
40
0.560208605569984
40
0.571755483301099
40
0.571755483301099
40
0.594849238763329
40
0.594849238763329
40
0.61794299422556
40
0.61794299422556
40
0.64103674968779
40
0.64103674968779
40
0.664130505150021
40
0.664130505150021
40
0.71031801607448
40
0.71031801607448
40
0.733411771536709
40
0.733411771536709
40
0.756505526998938
40
0.756505526998938
40
0.779599282461168
40
0.779599282461168
40
0.791146160192281
40
0.791146160192281
40
0.802693037923395
40
0.802693037923395
40
0.82578679338562
40
0.82578679338562
40
0.848880548847846
40
0.848880548847846
40
0.871974304310071
40
0.871974304310071
40
0.895068059772296
40
0.895068059772296
40
0.918161815234522
40
0.918161815234522
40
0.941255570696747
40
0.941255570696747
40
0.964349326158973
40
0.964349326158973
40
0.987443081621198
40
0.987443081621198
40
1
40
1
40
1
40
1
41
1
10
48.5193289577718
20
-1.15276090348485
30
0
41
1
10
48.4324806586582
20
-1.19718476783669
30
0
41
1
10
48.3455805722801
20
-1.24059904088762
30
0
41
1
10
48.1447745016492
20
-1.34049116759954
30
0
41
1
10
48.0302590939847
20
-1.39549492479745
30
0
41
1
10
47.8000901419883
20
-1.50076410787847
30
0
41
1
10
47.6842048986613
20
-1.55131891522618
30
0
41
1
10
47.4528813957513
20
-1.64684723000454
30
0
41
1
10
47.3374142878338
20
-1.69178050014602
30
0
41
1
10
47.1074336343978
20
-1.77587807136951
30
0
41
1
10
46.9939372956661
20
-1.81555109380886
30
0
41
1
10
46.6519115178715
20
-1.9250408373733
30
0
41
1
10
46.42363436447
20
-1.98734432935078
30
0
41
1
10
46.1372576253574
20
-2.04959767545131
30
0
41
1
10
46.0798401484928
20
-2.06122937012819
30
0
41
1
10
45.965475774491
20
-2.08319814367937
30
0
41
1
10
45.9085186026746
20
-2.09352891248363
30
0
41
1
10
45.7371114763133
20
-2.12163841335433
30
0
41
1
10
45.6224580887138
20
-2.13624461628714
30
0
41
1
10
45.3919819090138
20
-2.15928706201171
30
0
41
1
10
45.2759517708204
20
-2.16802829454181
30
0
41
1
10
45.0447495211181
20
-2.17855308595384
30
0
41
1
10
44.9290525078461
20
-2.1804822535864
30
0
41
1
10
44.5858708949276
20
-2.17647657255105
30
0
41
1
10
44.3581159955033
20
-2.15935036218656
30
0
41
1
10
44.0153637752737
20
-2.11519558563992
30
0
41
1
10
43.9008912572044
20
-2.09749507096049
30
0
41
1
10
43.6716434516237
20
-2.05561552620233
30
0
41
1
10
43.5577179047759
20
-2.03098314074049
30
0
41
1
10
43.3287489853353
20
-1.97575938096736
30
0
41
1
10
43.213795073402
20
-1.94513398377916
30
0
41
1
10
42.9828349852473
20
-1.87735432241445
30
0
41
1
10
42.8667725331517
20
-1.84026558420467
30
0
41
1
10
42.6934351441241
20
-1.78139279301266
30
0
41
1
10
42.635708514467
20
-1.76118882798599
30
0
41
1
10
42.5204658709858
20
-1.71949051467897
30
0
41
1
10
42.4633049583116
20
-1.69762004711967
30
0
41
1
10
42.2917843885656
20
-1.63033111068793
30
0
41
1
10
42.1775978103396
20
-1.58304604996684
30
0
41
1
10
41.9490946497753
20
-1.48429484822697
30
0
41
1
10
41.8348583266596
20
-1.43272993602645
30
0
41
1
10
41.6060183507552
20
-1.32581816623159
30
0
41
1
10
41.491207405472
20
-1.27030543287668
30
0
41
1
10
41.2623679091261
20
-1.15355705568825
30
0
41
1
10
41.1483873854296
20
-1.09264664354723
30
0
41
1
10
40.9188143420027
20
-0.969008179765638
30
0
41
1
10
40.8035567540335
20
-0.90581680525807
30
0
41
1
10
40.5719650966465
20
-0.776672933022667
30
0
41
1
10
40.4560326074118
20
-0.711120961860047
30
0
41
1
10
40.2829220697569
20
-0.611910487243904
30
0
41
1
10
40.2252475734298
20
-0.578750508319672
30
0
41
1
10
40.1109003732421
20
-0.510657435674034
30
0
41
1
10
40.0538923530611
20
-0.476273990380065
30
0
41
1
10
39.8828830730633
20
-0.372974039191973
30
0
41
1
10
39.7687982953374
20
-0.304095445356666
30
0
41
1
10
39.5405799281405
20
-0.16608238825998
30
0
41
1
10
39.4264734707841
20
-0.0968930182718282
30
0
41
1
10
39.1977392035473
20
0.0409227300075088
30
0
41
1
10
39.0830018270974
20
0.109354424378836
30
0
41
1
10
38.8549149069473
20
0.24890665122831
30
0
41
1
10
38.7406656504112
20
0.318522899604034
30
0
41
1
10
38.3962854169817
20
0.525134347698469
30
0
41
1
10
38.1635111060542
20
0.661016936935539
30
0
41
1
10
37.8181867239517
20
0.854276374006986
30
0
41
1
10
37.7043849967533
20
0.918921849889529
30
0
41
1
10
37.4759417397927
20
1.04358905977276
30
0
41
1
10
37.3617118705298
20
1.1041288351939
30
0
41
1
10
37.1332461571296
20
1.22143472140391
30
0
41
1
10
37.0189388878671
20
1.27813662597342
30
0
41
1
10
36.8472386450135
20
1.35984132551644
30
0
41
1
10
36.7898986476832
20
1.38642903530041
30
0
41
1
10
36.6755948896866
20
1.43899775826875
30
0
41
1
10
36.6187373810021
20
1.46510969042134
30
0
41
1
10
36.4475959687321
20
1.54113656943227
30
0
41
1
10
36.3331223487781
20
1.58938601431743
30
0
41
1
10
36.1031396749885
20
1.68135548123826
30
0
41
1
10
35.9874935825026
20
1.72509197217417
30
0
41
1
10
35.755852249039
20
1.80683037842573
30
0
41
1
10
35.6399554367582
20
1.84440885624448
30
0
41
1
10
35.4109788066208
20
1.91513878055119
30
0
41
1
10
35.2969786170118
20
1.94726020698027
30
0
41
1
10
35.0689307033877
20
2.00435945896052
30
0
41
1
10
34.9549496749336
20
2.02961445378128
30
0
41
1
10
34.7266886413689
20
2.07467865526672
30
0
41
1
10
34.6123607850982
20
2.09429293944356
30
0
41
1
10
34.3834702060879
20
2.12742190052165
30
0
41
1
10
34.2697247160717
20
2.14121274235492
30
0
41
1
10
34.0413999205226
20
2.16167251823813
30
0
41
1
10
33.9268450726193
20
2.16836815612848
30
0
41
1
10
33.7492488364599
20
2.17249487602442
30
0
41
1
10
33.6864536461546
20
2.17296899590917
30
0
41
1
10
33.6235663481122
20
2.17251772319239
30
0
0
SPLINE
5
DE
100
AcDbEntity
8
1
62
256
6
ByLayer
370
18
48
1
60
0
100
AcDbSpline
70
4
71
3
72
96
73
92
40
0
40
0
40
0
40
0
40
0.0068522033564379
40
0.0068522033564379
40
0.0299992709673912
40
0.0299992709673912
40
0.0531463385783444
40
0.0531463385783444
40
0.0647198723838214
40
0.0647198723838214
40
0.076293406189298
40
0.076293406189298
40
0.0994404738002526
40
0.0994404738002526
40
0.122587541411207
40
0.122587541411207
40
0.145734609022161
40
0.145734609022161
40
0.168881676633115
40
0.168881676633115
40
0.19202874424407
40
0.19202874424407
40
0.215175811855024
40
0.215175811855024
40
0.238322879465978
40
0.238322879465978
40
0.261469947076933
40
0.261469947076933
40
0.284617014687887
40
0.284617014687887
40
0.296190548493365
40
0.296190548493365
40
0.307764082298843
40
0.307764082298843
40
0.354058217520751
40
0.354058217520751
40
0.377205285131706
40
0.377205285131706
40
0.40035235274266
40
0.40035235274266
40
0.423499420353614
40
0.423499420353614
40
0.446646487964569
40
0.446646487964569
40
0.469793555575523
40
0.469793555575523
40
0.492940623186477
40
0.492940623186477
40
0.516087690797432
40
0.516087690797432
40
0.527661224602908
40
0.527661224602908
40
0.539234758408385
40
0.539234758408385
40
0.562381826019339
40
0.562381826019339
40
0.585528893630292
40
0.585528893630292
40
0.608675961241245
40
0.608675961241245
40
0.631823028852199
40
0.631823028852199
40
0.678117164074105
40
0.678117164074105
40
0.689690697879581
40
0.689690697879581
40
0.701264231685058
40
0.701264231685058
40
0.72441129929601
40
0.72441129929601
40
0.747558366906961
40
0.747558366906961
40
0.770705434517913
40
0.770705434517913
40
0.816999569739817
40
0.816999569739817
40
0.840146637350769
40
0.840146637350769
40
0.86329370496172
40
0.86329370496172
40
0.909587840183624
40
0.909587840183624
40
0.921161373989099
40
0.921161373989099
40
0.932734907794575
40
0.932734907794575
40
0.955881975405526
40
0.955881975405526
40
0.979029043016476
40
0.979029043016476
40
1
40
1
40
1
40
1
41
1
10
26.0014777034648
20
-1.15780786441849
30
0
41
1
10
25.9676429721335
20
-1.17526758127599
30
0
41
1
10
25.9338169121779
20
-1.19254498867338
30
0
41
1
10
25.7856788042144
20
-1.26729528096069
30
0
41
1
10
25.6714673055833
20
-1.32284962868059
30
0
41
1
10
25.4430787640987
20
-1.42934625532112
30
0
41
1
10
25.3288011284876
20
-1.48021881962998
30
0
41
1
10
25.1572554657844
20
-1.55309874046452
30
0
41
1
10
25.1000909813499
20
-1.57686513691027
30
0
41
1
10
24.9863066970361
20
-1.62386979276889
30
0
41
1
10
24.929397319513
20
-1.64679883813361
30
0
41
1
10
24.7584652550668
20
-1.71336822795166
30
0
41
1
10
24.6442117281209
20
-1.75417609080355
30
0
41
1
10
24.4147374675005
20
-1.83126933090378
30
0
41
1
10
24.2995527914679
20
-1.86743418659461
30
0
41
1
10
24.0679856898818
20
-1.93429358317812
30
0
41
1
10
23.9520477223678
20
-1.96492795443575
30
0
41
1
10
23.7228578440137
20
-2.02059744000797
30
0
41
1
10
23.6086119204205
20
-2.04512865315377
30
0
41
1
10
23.3803431167355
20
-2.08687092284128
30
0
41
1
10
23.2665333075564
20
-2.1033619023315
30
0
41
1
10
23.0385640056264
20
-2.13059117169669
30
0
41
1
10
22.9242898186748
20
-2.14147768585511
30
0
41
1
10
22.6959172983724
20
-2.15752608589841
30
0
41
1
10
22.5826740346754
20
-2.16274122239153
30
0
41
1
10
22.3547112307309
20
-2.16636739176823
30
0
41
1
10
22.2403986567665
20
-2.16487934180827
30
0
41
1
10
22.0109721384419
20
-2.15447020413137
30
0
41
1
10
21.8957742790497
20
-2.14555488998076
30
0
41
1
10
21.7220903801376
20
-2.12743201760506
30
0
41
1
10
21.6640303473454
20
-2.12065428739942
30
0
41
1
10
21.548929746398
20
-2.10522403570732
30
0
41
1
10
21.4916708808499
20
-2.09660582785907
30
0
41
1
10
21.2054245212778
20
-2.04936070513276
30
0
41
1
10
20.9772922966743
20
-1.99857887242615
30
0
41
1
10
20.6343385368446
20
-1.9078625707663
30
0
41
1
10
20.5195886909559
20
-1.87531331349655
30
0
41
1
10
20.292068957698
20
-1.80268333349054
30
0
41
1
10
20.1782849179801
20
-1.76344852851443
30
0
41
1
10
19.9499172241634
20
-1.67923520574774
30
0
41
1
10
19.8354214605244
20
-1.63400949426406
30
0
41
1
10
19.6054469935876
20
-1.53910493286477
30
0
41
1
10
19.4897347922121
20
-1.48968926384796
30
0
41
1
10
19.2580558141634
20
-1.38646726978365
30
0
41
1
10
19.1435955122446
20
-1.33155001217327
30
0
41
1
10
18.9147205217995
20
-1.21889793841712
30
0
41
1
10
18.8003867924041
20
-1.16117070375054
30
0
41
1
10
18.5719907466548
20
-1.04261018081897
30
0
41
1
10
18.4579484089485
20
-0.981571894847548
30
0
41
1
10
18.2866462363062
20
-0.888634201609392
30
0
41
1
10
18.2295114089568
20
-0.857429346020353
30
0
41
1
10
18.1152918194451
20
-0.794325212287106
30
0
41
1
10
18.0585603356212
20
-0.761869974733997
30
0
41
1
10
17.8880866497519
20
-0.663912838949301
30
0
41
1
10
17.7742901794587
20
-0.597382952819686
30
0
41
1
10
17.5458663075844
20
-0.463133821456523
30
0
41
1
10
17.431315670803
20
-0.39544806382807
30
0
41
1
10
17.2012178104552
20
-0.25895968146736
30
0
41
1
10
17.0851543564465
20
-0.19049282968578
30
0
41
1
10
16.8541878946285
20
-0.0510694322967709
30
0
41
1
10
16.7396255287009
20
0.019542149117143
30
0
41
1
10
16.3956751230911
20
0.228106508372633
30
0
41
1
10
16.1673404143346
20
0.364941715307765
30
0
41
1
10
15.8812728265019
20
0.531200880653444
30
0
41
1
10
15.8239928873704
20
0.564132080488662
30
0
41
1
10
15.7102139001771
20
0.630785228353801
30
0
41
1
10
15.6533584867903
20
0.663933272429489
30
0
41
1
10
15.4825857308564
20
0.762416232681517
30
0
41
1
10
15.3684274188833
20
0.826816624916745
30
0
41
1
10
15.1394158959538
20
0.952858119909791
30
0
41
1
10
15.0245892019877
20
1.01445796523163
30
0
41
1
10
14.7938059098684
20
1.13418122889061
30
0
41
1
10
14.6774871908246
20
1.19239583966595
30
0
41
1
10
14.3319164009027
20
1.36430290967795
30
0
41
1
10
14.1021196718867
20
1.46941462804989
30
0
41
1
10
13.755728907142
20
1.61238709236571
30
0
41
1
10
13.6399241452972
20
1.65753180985197
30
0
41
1
10
13.4080030773192
20
1.74299456384023
30
0
41
1
10
13.2933972613317
20
1.78407234876437
30
0
41
1
10
12.9493048496127
20
1.89634985716535
30
0
41
1
10
12.7207832763445
20
1.9586488061359
30
0
41
1
10
12.434770883975
20
2.02093551828466
30
0
41
1
10
12.3774694957369
20
2.0325523010884
30
0
41
1
10
12.2633988687465
20
2.05452684564284
30
0
41
1
10
12.2066352374838
20
2.06486941537855
30
0
41
1
10
12.0359182771917
20
2.09333529821916
30
0
41
1
10
11.9218790872709
20
2.10910888303078
30
0
41
1
10
11.6930734177794
20
2.1342794059681
30
0
41
1
10
11.5783633240346
20
2.14370867178513
30
0
41
1
10
11.3587414530875
20
2.15534650393522
30
0
41
1
10
11.253446465212
20
2.1581733316074
30
0
41
1
10
11.1488628308366
20
2.15811143790353
30
0
0
SPLINE
5
DF
100
AcDbEntity
8
1
62
256
6
ByLayer
370
18
48
1
60
0
100
AcDbSpline
70
4
71
3
72
64
73
60
40
0
40
0
40
0
40
0
40
0.0658288091343746
40
0.0658288091343746
40
0.0987432137015619
40
0.0987432137015619
40
0.131657618268749
40
0.131657618268749
40
0.164572022835937
40
0.164572022835937
40
0.197486427403124
40
0.197486427403124
40
0.230400831970311
40
0.230400831970311
40
0.263315236537499
40
0.263315236537499
40
0.296229641104686
40
0.296229641104686
40
0.329144045671873
40
0.329144045671873
40
0.362058450239061
40
0.362058450239061
40
0.394972854806248
40
0.394972854806248
40
0.427887259373435
40
0.427887259373435
40
0.460801663940622
40
0.460801663940622
40
0.526630473074997
40
0.526630473074997
40
0.559544877642184
40
0.559544877642184
40
0.592459282209372
40
0.592459282209372
40
0.625373686776559
40
0.625373686776559
40
0.641830889060152
40
0.641830889060152
40
0.658288091343745
40
0.658288091343745
40
0.724116900478118
40
0.724116900478118
40
0.757031305045305
40
0.757031305045305
40
0.789945709612493
40
0.789945709612493
40
0.82286011417968
40
0.82286011417968
40
0.855774518746867
40
0.855774518746867
40
0.888688923314054
40
0.888688923314054
40
0.921603327881242
40
0.921603327881242
40
0.954517732448429
40
0.954517732448429
40
0.987432137015616
40
0.987432137015616
40
1
40
1
40
1
40
1
41
1
10
7.67143345776049
20
2.25651063383231
30
0
41
1
10
7.90906506565818
20
2.23877757630214
30
0
41
1
10
8.14798737076362
20
2.20621713562855
30
0
41
1
10
8.50570638667961
20
2.1370607575588
30
0
41
1
10
8.6247345502012
20
2.11051108173658
30
0
41
1
10
8.86179156788188
20
2.04982051330859
30
0
41
1
10
8.97960893968195
20
2.01544119027599
30
0
41
1
10
9.21739631069084
20
1.94117691485562
30
0
41
1
10
9.33697903851501
20
1.90109389125729
30
0
41
1
10
9.57673161814003
20
1.81440912607525
30
0
41
1
10
9.6971552769767
20
1.76776741828243
30
0
41
1
10
9.93600477519198
20
1.66874585203166
30
0
41
1
10
10.0541337598572
20
1.61557663218852
30
0
41
1
10
10.2908878893429
20
1.50539760000021
30
0
41
1
10
10.4095444933824
20
1.44848248116006
30
0
41
1
10
10.6468359163452
20
1.33049918724683
30
0
41
1
10
10.7653893232438
20
1.26931828799383
30
0
41
1
10
11.0023169183118
20
1.14254768155178
30
0
41
1
10
11.1204233064437
20
1.07658676882659
30
0
41
1
10
11.3564560555969
20
0.940027486723238
30
0
41
1
10
11.4752636632797
20
0.8707178705655
30
0
41
1
10
11.7142123550231
20
0.72982586714204
30
0
41
1
10
11.8345606079777
20
0.657837407996055
30
0
41
1
10
12.0743231669418
20
0.511773815207818
30
0
41
1
10
12.1937140987925
20
0.438073264955335
30
0
41
1
10
12.4303499150159
20
0.287461970726639
30
0
41
1
10
12.5482826060177
20
0.211661279752889
30
0
41
1
10
12.9036376263406
20
-0.0128840029475157
30
0
41
1
10
13.141017601225
20
-0.161352750830048
30
0
41
1
10
13.4957280422038
20
-0.385520725259454
30
0
41
1
10
13.6133361680438
20
-0.461123750430346
30
0
41
1
10
13.8508951843477
20
-0.60835486949091
30
0
41
1
10
13.9705063761775
20
-0.6805268197445
30
0
41
1
10
14.2106194986949
20
-0.823211267394811
30
0
41
1
10
14.3306436722177
20
-0.893331733634767
30
0
41
1
10
14.5093687775929
20
-0.996129171596039
30
0
41
1
10
14.5687803394233
20
-1.0300413274515
30
0
41
1
10
14.6870598489719
20
-1.09744587022649
30
0
41
1
10
14.7459357045788
20
-1.13091745618613
30
0
41
1
10
15.0412280993701
20
-1.29400956815908
30
0
41
1
10
15.2786127104975
20
-1.41360814600475
30
0
41
1
10
15.6338918893572
20
-1.58049738788648
30
0
41
1
10
15.7521337982193
20
-1.63406212611773
30
0
41
1
10
15.9881319282801
20
-1.73690487280604
30
0
41
1
10
16.106963436931
20
-1.7850106538323
30
0
41
1
10
16.3461017094994
20
-1.87496316349598
30
0
41
1
10
16.4665150830101
20
-1.91700589385172
30
0
41
1
10
16.7063139340663
20
-1.99464485954837
30
0
41
1
10
16.8260106426165
20
-2.03020676493205
30
0
41
1
10
17.0640130218956
20
-2.09528408175899
30
0
41
1
10
17.1827201376281
20
-2.12444774273632
30
0
41
1
10
17.4220230009665
20
-2.17474934562588
30
0
41
1
10
17.5423595522481
20
-2.19621468277938
30
0
41
1
10
17.7823413502307
20
-2.23188996056356
30
0
41
1
10
17.9021148187794
20
-2.24605822040957
30
0
41
1
10
18.1407360554217
20
-2.2670451634803
30
0
41
1
10
18.2591663049261
20
-2.27384346946735
30
0
41
1
10
18.424166799892
20
-2.27777055011325
30
0
41
1
10
18.4698879004916
20
-2.27829731286698
30
0
41
1
10
18.5156687785279
20
-2.27827092253827
30
0
0
SPLINE
5
E0
100
AcDbEntity
8
1
62
256
6
ByLayer
370
18
48
1
60
0
100
AcDbSpline
70
4
71
3
72
84
73
80
40
0
40
0
40
0
40
0
40
0.0131619830917275
40
0.0131619830917275
40
0.0369182946134614
40
0.0369182946134614
40
0.0606746061351954
40
0.0606746061351954
40
0.0844309176569294
40
0.0844309176569294
40
0.108187229178663
40
0.108187229178663
40
0.155699852222129
40
0.155699852222129
40
0.167578007982995
40
0.167578007982995
40
0.179456163743861
40
0.179456163743861
40
0.203212475265591
40
0.203212475265591
40
0.226968786787321
40
0.226968786787321
40
0.250725098309051
40
0.250725098309051
40
0.298237721352511
40
0.298237721352511
40
0.321994032874242
40
0.321994032874242
40
0.333872188635106
40
0.333872188635106
40
0.345750344395971
40
0.345750344395971
40
0.393262967439431
40
0.393262967439431
40
0.417019278961161
40
0.417019278961161
40
0.440775590482891
40
0.440775590482891
40
0.464531902004621
40
0.464531902004621
40
0.476410057765485
40
0.476410057765485
40
0.488288213526349
40
0.488288213526349
40
0.535800836569805
40
0.535800836569805
40
0.559557148091533
40
0.559557148091533
40
0.583313459613261
40
0.583313459613261
40
0.630826082656719
40
0.630826082656719
40
0.654582394178447
40
0.654582394178447
40
0.678338705700175
40
0.678338705700175
40
0.702095017221903
40
0.702095017221903
40
0.725851328743631
40
0.725851328743631
40
0.773363951787088
40
0.773363951787088
40
0.797120263308817
40
0.797120263308817
40
0.820876574830546
40
0.820876574830546
40
0.844632886352275
40
0.844632886352275
40
0.868389197874004
40
0.868389197874004
40
0.892145509395733
40
0.892145509395733
40
0.915901820917462
40
0.915901820917462
40
0.939658132439191
40
0.939658132439191
40
0.96341444396092
40
0.96341444396092
40
1
40
1
40
1
40
1
41
1
10
26.0241498605465
20
1.14669096229642
30
0
41
1
10
26.0898709781588
20
1.1828241061371
30
0
41
1
10
26.1555864426614
20
1.2185511675597
30
0
41
1
10
26.3398116578921
20
1.31772772871105
30
0
41
1
10
26.458276915068
20
1.38029058890916
30
0
41
1
10
26.697867071684
20
1.49883067615355
30
0
41
1
10
26.8175103639161
20
1.55494772177491
30
0
41
1
10
27.0558258179178
20
1.66195439382804
30
0
41
1
10
27.1746142120461
20
1.71270052058006
30
0
41
1
10
27.4110909099565
20
1.80901321376643
30
0
41
1
10
27.5282612189975
20
1.85502184373846
30
0
41
1
10
27.8818789456036
20
1.98150600793659
30
0
41
1
10
28.1192530077266
20
2.05203089564253
30
0
41
1
10
28.4160609467446
20
2.12450198715894
30
0
41
1
10
28.4754357483693
20
2.13819209611168
30
0
41
1
10
28.5940943739612
20
2.16397581306066
30
0
41
1
10
28.6532351055294
20
2.17613465763154
30
0
41
1
10
28.8316297216929
20
2.20956417083286
30
0
41
1
10
28.9516509002984
20
2.22795575015121
30
0
41
1
10
29.1905006998531
20
2.25705610476754
30
0
41
1
10
29.3095715368006
20
2.26787062317615
30
0
41
1
10
29.5468951922775
20
2.28214162713991
30
0
41
1
10
29.665251332795
20
2.28561219188717
30
0
41
1
10
30.0175334751565
20
2.28462469550701
30
0
41
1
10
30.2543310044952
20
2.26894774625447
30
0
41
1
10
30.6103123756201
20
2.22370653688867
30
0
41
1
10
30.7291929009684
20
2.20498832678919
30
0
41
1
10
30.9073708681979
20
2.17097340876708
30
0
41
1
10
30.9665802991605
20
2.15854728532582
30
0
41
1
10
31.0855952880102
20
2.13197824297626
30
0
41
1
10
31.1454048351158
20
2.11780792949932
30
0
41
1
10
31.4439771105762
20
2.04315989928995
30
0
41
1
10
31.682267840273
20
1.97103522219504
30
0
41
1
10
32.0367635267673
20
1.84317334817797
30
0
41
1
10
32.1539004237632
20
1.79666697896261
30
0
41
1
10
32.3894600343416
20
1.69903993580212
30
0
41
1
10
32.5077916550258
20
1.64790690750905
30
0
41
1
10
32.7449079814739
20
1.54047627736296
30
0
41
1
10
32.8636347268417
20
1.48409886559128
30
0
41
1
10
33.0419952581929
20
1.39545243706223
30
0
41
1
10
33.1014845133238
20
1.36521175006911
30
0
41
1
10
33.2204169061233
20
1.30314217958895
30
0
41
1
10
33.2797134938074
20
1.27110615192575
30
0
41
1
10
33.5775219782009
20
1.10877900077966
30
0
41
1
10
33.8164207721392
20
0.974669200566439
30
0
41
1
10
34.1719477178732
20
0.764694212757178
30
0
41
1
10
34.2902641271791
20
0.693494313615361
30
0
41
1
10
34.5251445897052
20
0.546522599624694
30
0
41
1
10
34.642719173512
20
0.472283884032578
30
0
41
1
10
34.9974946055209
20
0.249992731857475
30
0
41
1
10
35.235528231562
20
0.100542270680563
30
0
41
1
10
35.5928433361421
20
-0.129051007333345
30
0
41
1
10
35.7117716888726
20
-0.207086370818388
30
0
41
1
10
35.9505292573601
20
-0.358869950068907
30
0
41
1
10
36.0702304919541
20
-0.433437918954837
30
0
41
1
10
36.3094754842857
20
-0.581215546306879
30
0
41
1
10
36.4290950059984
20
-0.654305632355914
30
0
41
1
10
36.6681369290818
20
-0.79914067885079
30
0
41
1
10
36.7870816355156
20
-0.871833282425882
30
0
41
1
10
37.1445992589565
20
-1.08209649749716
30
0
41
1
10
37.3842334240268
20
-1.21280212798416
30
0
41
1
10
37.7430876438769
20
-1.39842148951882
30
0
41
1
10
37.8625062923129
20
-1.45890868313146
30
0
41
1
10
38.1003708374276
20
-1.57483839795259
30
0
41
1
10
38.2196901135262
20
-1.62945381952494
30
0
41
1
10
38.4588083912392
20
-1.73263420299008
30
0
41
1
10
38.5784740849654
20
-1.78133924212492
30
0
41
1
10
38.8177968025598
20
-1.87316800361924
30
0
41
1
10
38.9378046227103
20
-1.91620695030025
30
0
41
1
10
39.1756001787797
20
-1.99689016731924
30
0
41
1
10
39.2944848203876
20
-2.03364179628525
30
0
41
1
10
39.533337236996
20
-2.09949906408354
30
0
41
1
10
39.6530280864155
20
-2.12883088885434
30
0
41
1
10
39.8923847149254
20
-2.18067183167537
30
0
41
1
10
40.0124560284318
20
-2.20314329961516
30
0
41
1
10
40.2507401818599
20
-2.24086803819563
30
0
41
1
10
40.3686919316274
20
-2.25611649316045
30
0
41
1
10
40.6697170030407
20
-2.28455147589887
30
0
41
1
10
40.8523846809591
20
-2.29283812752021
30
0
41
1
10
41.034546657332
20
-2.29234829942934
30
0
0
SPLINE
5
E1
100
AcDbEntity
8
1
62
256
6
ByLayer
370
18
48
1
60
0
100
AcDbSpline
70
4
71
3
72
32
73
28
40
0
40
0
40
0
40
0
40
0.0276769360877287
40
0.0276769360877287
40
0.102471017927137
40
0.102471017927137
40
0.177265099766546
40
0.177265099766546
40
0.252059181605953
40
0.252059181605953
40
0.40164734528477
40
0.40164734528477
40
0.439044386204473
40
0.439044386204473
40
0.476441427124176
40
0.476441427124176
40
0.551235508963581
40
0.551235508963581
40
0.626029590802987
40
0.626029590802987
40
0.700823672642392
40
0.700823672642392
40
0.850411836321196
40
0.850411836321196
40
0.925205918160598
40
0.925205918160598
40
1
40
1
40
1
40
1
41
1
10
48.5288591464334
20
1.15566409968264
30
0
41
1
10
48.5725285575641
20
1.18017297872325
30
0
41
1
10
48.61628749111
20
1.2043753083351
30
0
41
1
10
48.778905470626
20
1.29246675451006
30
0
41
1
10
48.8983406045983
20
1.35443250394621
30
0
41
1
10
49.1380069546538
20
1.47459898600607
30
0
41
1
10
49.2574872267342
20
1.53220631875209
30
0
41
1
10
49.4947763091968
20
1.64260287308184
30
0
41
1
10
49.6121732848241
20
1.69595113623407
30
0
41
1
10
49.9659795516743
20
1.84459438230084
30
0
41
1
10
50.2027805168868
20
1.93030342146182
30
0
41
1
10
50.4980080705775
20
2.02282748570701
30
0
41
1
10
50.5570227267257
20
2.04058154012321
30
0
41
1
10
50.6748708954536
20
2.07462957154851
30
0
41
1
10
50.7335600493146
20
2.09101342352207
30
0
41
1
10
50.9104558453207
20
2.13716364987533
30
0
41
1
10
51.0292390734302
20
2.16415118429674
30
0
41
1
10
51.2681155259627
20
2.21097777921756
30
0
41
1
10
51.3882521702827
20
2.23087322082259
30
0
41
1
10
51.6266649281016
20
2.26315028539861
30
0
41
1
10
51.7453843123956
20
2.27560165054615
30
0
41
1
10
52.0982098856387
20
2.30193937740501
30
0
41
1
10
52.3346504193789
20
2.30391804733296
30
0
41
1
10
52.6890988275285
20
2.28513447252556
30
0
41
1
10
52.8072964986371
20
2.27521243919628
30
0
41
1
10
53.0431554362246
20
2.24761264788575
30
0
41
1
10
53.1606619063163
20
2.22978115683435
30
0
41
1
10
53.2794386672597
20
2.20853688342237
30
0
0
SPLINE
5
E2
100
AcDbEntity
8
1
62
256
6
ByLayer
370
13
48
1
60
0
100
AcDbSpline
70
4
71
3
72
10
73
6
40
0
40
0
40
0
40
0
40
0.5
40
0.5
40
1
40
1
40
1
40
1
41
1
10
7.39508238640121
20
-2.16458554275835
30
0
41
1
10
7.41538046951163
20
-2.15307737171685
30
0
41
1
10
7.43745641585076
20
-2.14462896663559
30
0
41
1
10
7.48264974244725
20
-2.13432723942793
30
0
41
1
10
7.50576253285033
20
-2.13235937658922
30
0
41
1
10
7.52936144536369
20
-2.13362241321627
30
0
0
SPLINE
5
E3
100
AcDbEntity
8
1
62
256
6
ByLayer
370
18
48
1
60
0
100
AcDbSpline
70
4
71
3
72
88
73
84
40
0
40
0
40
0
40
0
40
0.0018088208949278
40
0.0018088208949278
40
0.04940745182479
40
0.04940745182479
40
0.0732067672897206
40
0.0732067672897206
40
0.0970060827546512
40
0.0970060827546512
40
0.120805398219582
40
0.120805398219582
40
0.144604713684512
40
0.144604713684512
40
0.168404029149443
40
0.168404029149443
40
0.192203344614374
40
0.192203344614374
40
0.216002660079304
40
0.216002660079304
40
0.239801975544235
40
0.239801975544235
40
0.263601291009166
40
0.263601291009166
40
0.287400606474096
40
0.287400606474096
40
0.299300264206562
40
0.299300264206562
40
0.311199921939027
40
0.311199921939027
40
0.334999237403957
40
0.334999237403957
40
0.382597868333819
40
0.382597868333819
40
0.43019649926368
40
0.43019649926368
40
0.453995814728611
40
0.453995814728611
40
0.477795130193541
40
0.477795130193541
40
0.501594445658472
40
0.501594445658472
40
0.525393761123402
40
0.525393761123402
40
0.549193076588333
40
0.549193076588333
40
0.572992392053263
40
0.572992392053263
40
0.596791707518194
40
0.596791707518194
40
0.60869136525066
40
0.60869136525066
40
0.620591022983126
40
0.620591022983126
40
0.644390338448057
40
0.644390338448057
40
0.668189653912989
40
0.668189653912989
40
0.69198896937792
40
0.69198896937792
40
0.715788284842852
40
0.715788284842852
40
0.763386915772714
40
0.763386915772714
40
0.787186231237644
40
0.787186231237644
40
0.810985546702575
40
0.810985546702575
40
0.834784862167506
40
0.834784862167506
40
0.858584177632436
40
0.858584177632436
40
0.906182808562299
40
0.906182808562299
40
0.918082466294766
40
0.918082466294766
40
0.929982124027233
40
0.929982124027233
40
0.953781439492168
40
0.953781439492168
40
0.977580754957104
40
0.977580754957104
40
1
40
1
40
1
40
1
41
1
10
14.7780735221428
20
1.14860432537108
30
0
41
1
10
14.7870439017981
20
1.15359976532926
30
0
41
1
10
14.7960169328325
20
1.15857767849516
30
0
41
1
10
15.0412280993701
20
1.29400956815906
30
0
41
1
10
15.2786127104974
20
1.41360814600469
30
0
41
1
10
15.6338918893571
20
1.58049738788645
30
0
41
1
10
15.7521337982193
20
1.63406212611773
30
0
41
1
10
15.9881319282801
20
1.73690487280601
30
0
41
1
10
16.1069634369309
20
1.78501065383227
30
0
41
1
10
16.3461017094993
20
1.87496316349595
30
0
41
1
10
16.4665150830101
20
1.91700589385169
30
0
41
1
10
16.7063139340662
20
1.99464485954837
30
0
41
1
10
16.8260106426164
20
2.03020676493205
30
0
41
1
10
17.0640130218956
20
2.09528408175896
30
0
41
1
10
17.182720137628
20
2.12444774273629
30
0
41
1
10
17.4220230009665
20
2.17474934562588
30
0
41
1
10
17.5423595522481
20
2.19621468277936
30
0
41
1
10
17.7823413502307
20
2.23188996056356
30
0
41
1
10
17.9021148187794
20
2.24605822040957
30
0
41
1
10
18.1407360554216
20
2.2670451634803
30
0
41
1
10
18.259166304926
20
2.27384346946735
30
0
41
1
10
18.4979799497795
20
2.27952733388773
30
0
41
1
10
18.6182607777828
20
2.27853940163411
30
0
41
1
10
18.8581400575891
20
2.26909179232888
30
0
41
1
10
18.9775675064948
20
2.26064400886361
30
0
41
1
10
19.1558591097311
20
2.24239182954756
30
0
41
1
10
19.2151416100155
20
2.23537618877734
30
0
41
1
10
19.3332047546561
20
2.21937348864719
30
0
41
1
10
19.3919763404533
20
2.21036903719477
30
0
41
1
10
19.5688943415856
20
2.18090022509861
30
0
41
1
10
19.6872309223377
20
2.15787428408328
30
0
41
1
10
20.042635870473
20
2.07876359611961
30
0
41
1
10
20.279907261916
20
2.0127119046351
30
0
41
1
10
20.7527519615
20
1.85008649039733
30
0
41
1
10
20.9939399997242
20
1.75709499264193
30
0
41
1
10
21.3531310032108
20
1.60091220600802
30
0
41
1
10
21.4727267188386
20
1.54617706250195
30
0
41
1
10
21.7106902527868
20
1.43005487405418
30
0
41
1
10
21.8294258749336
20
1.36904472334098
30
0
41
1
10
22.0689475632854
20
1.24442956137312
30
0
41
1
10
22.1891569208941
20
1.18036238896517
30
0
41
1
10
22.4279735945391
20
1.04890722505067
30
0
41
1
10
22.5469697982183
20
0.981568639070218
30
0
41
1
10
22.7836845177852
20
0.842988780641122
30
0
41
1
10
22.9009671687908
20
0.771074243693448
30
0
41
1
10
23.1369947066487
20
0.627423715410487
30
0
41
1
10
23.2554395455504
20
0.555262334090855
30
0
41
1
10
23.4924281634404
20
0.409147299169064
30
0
41
1
10
23.6109940315418
20
0.335223357726676
30
0
41
1
10
23.7889035267959
20
0.222928142016201
30
0
41
1
10
23.8482036177078
20
0.185240321324898
30
0
41
1
10
23.9666519015127
20
0.109097886946074
30
0
41
1
10
24.0257090424661
20
0.0704906875346012
30
0
41
1
10
24.2039283825721
20
-0.0444104308982958
30
0
41
1
10
24.3240740371122
20
-0.120652012761838
30
0
41
1
10
24.5634697340403
20
-0.271253347174337
30
0
41
1
10
24.6827395485736
20
-0.345880651030427
30
0
41
1
10
24.9203773620847
20
-0.493894670445854
30
0
41
1
10
25.0387022024665
20
-0.567355171940477
30
0
41
1
10
25.2737642213503
20
-0.714004140340791
30
0
41
1
10
25.3917117690218
20
-0.785329318699411
30
0
41
1
10
25.7466115184839
20
-0.993827253352322
30
0
41
1
10
25.9841740276328
20
-1.1262723020424
30
0
41
1
10
26.339811657892
20
-1.31772772871096
30
0
41
1
10
26.4582769150678
20
-1.38029058890911
30
0
41
1
10
26.6978670716839
20
-1.49883067615346
30
0
41
1
10
26.817510363916
20
-1.55494772177482
30
0
41
1
10
27.0558258179177
20
-1.66195439382798
30
0
41
1
10
27.174614212046
20
-1.71270052058
30
0
41
1
10
27.4110909099564
20
-1.80901321376638
30
0
41
1
10
27.5282612189974
20
-1.8550218437384
30
0
41
1
10
27.8818789456034
20
-1.98150600793653
30
0
41
1
10
28.1192530077264
20
-2.0520308956425
30
0
41
1
10
28.4160609467445
20
-2.12450198715891
30
0
41
1
10
28.4754357483691
20
-2.13819209611165
30
0
41
1
10
28.594094373961
20
-2.16397581306063
30
0
41
1
10
28.6532351055293
20
-2.17613465763151
30
0
41
1
10
28.8316297216928
20
-2.20956417083283
30
0
41
1
10
28.9516509002983
20
-2.22795575015118
30
0
41
1
10
29.190500699853
20
-2.25705610476754
30
0
41
1
10
29.3095715368005
20
-2.26787062317612
30
0
41
1
10
29.5400142515659
20
-2.28172785493513
30
0
41
1
10
29.6515238757431
20
-2.28519736724792
30
0
41
1
10
29.7622413924962
20
-2.28530198469935
30
0
0
SPLINE
5
E4
100
AcDbEntity
8
1
62
256
6
ByLayer
370
18
48
1
60
0
100
AcDbSpline
70
4
71
3
72
86
73
82
40
0
40
0
40
0
40
0
40
0.0227509484490447
40
0.0227509484490447
40
0.0464995247605621
40
0.0464995247605621
40
0.0702481010720799
40
0.0702481010720799
40
0.0939966773835977
40
0.0939966773835977
40
0.117745253695115
40
0.117745253695115
40
0.141493830006633
40
0.141493830006633
40
0.16524240631815
40
0.16524240631815
40
0.188990982629668
40
0.188990982629668
40
0.212739558941186
40
0.212739558941186
40
0.260236711564219
40
0.260236711564219
40
0.283985287875737
40
0.283985287875737
40
0.307733864187254
40
0.307733864187254
40
0.331482440498772
40
0.331482440498772
40
0.35523101681029
40
0.35523101681029
40
0.402728169433325
40
0.402728169433325
40
0.426476745744844
40
0.426476745744844
40
0.450225322056363
40
0.450225322056363
40
0.473973898367881
40
0.473973898367881
40
0.4977224746794
40
0.4977224746794
40
0.521471050990918
40
0.521471050990918
40
0.545219627302437
40
0.545219627302437
40
0.568968203613956
40
0.568968203613956
40
0.580842491769714
40
0.580842491769714
40
0.592716779925472
40
0.592716779925472
40
0.616465356236987
40
0.616465356236987
40
0.640213932548502
40
0.640213932548502
40
0.663962508860017
40
0.663962508860017
40
0.687711085171532
40
0.687711085171532
40
0.735208237794561
40
0.735208237794561
40
0.758956814106077
40
0.758956814106077
40
0.782705390417593
40
0.782705390417593
40
0.806453966729109
40
0.806453966729109
40
0.830202543040624
40
0.830202543040624
40
0.877699695663656
40
0.877699695663656
40
0.889573983819414
40
0.889573983819414
40
0.901448271975172
40
0.901448271975172
40
0.925196848286687
40
0.925196848286687
40
0.948945424598202
40
0.948945424598202
40
0.972694000909717
40
0.972694000909717
40
1
40
1
40
1
40
1
41
1
10
37.2796015144337
20
1.15366036058808
30
0
41
1
10
37.3941919123305
20
1.21640370499276
30
0
41
1
10
37.5088764015904
20
1.27727440846843
30
0
41
1
10
37.7430876438767
20
1.39842148951871
30
0
41
1
10
37.8625062923127
20
1.45890868313134
30
0
41
1
10
38.1003708374275
20
1.5748383979525
30
0
41
1
10
38.219690113526
20
1.62945381952485
30
0
41
1
10
38.4588083912391
20
1.73263420299
30
0
41
1
10
38.5784740849651
20
1.78133924212486
30
0
41
1
10
38.8177968025597
20
1.87316800361918
30
0
41
1
10
38.9378046227102
20
1.91620695030011
30
0
41
1
10
39.1756001787794
20
1.99689016731921
30
0
41
1
10
39.2944848203874
20
2.03364179628519
30
0
41
1
10
39.5333372369959
20
2.09949906408352
30
0
41
1
10
39.6530280864153
20
2.12883088885431
30
0
41
1
10
39.8923847149252
20
2.18067183167531
30
0
41
1
10
40.0124560284316
20
2.20314329961514
30
0
41
1
10
40.2507401818597
20
2.2408680381956
30
0
41
1
10
40.3686919316271
20
2.25611649316042
30
0
41
1
10
40.7242284270035
20
2.2897006529829
30
0
41
1
10
40.9615137870317
20
2.29698939823405
30
0
41
1
10
41.3156634479292
20
2.28585342328165
30
0
41
1
10
41.4328826057652
20
2.27827395034032
30
0
41
1
10
41.6687645286079
20
2.25566931832839
30
0
41
1
10
41.7874476308369
20
2.24074680889967
30
0
41
1
10
42.0257021857773
20
2.20366450133275
30
0
41
1
10
42.1452917283007
20
2.18143573420434
30
0
41
1
10
42.3848193365661
20
2.12949190583197
30
0
41
1
10
42.503597380035
20
2.09978560939953
30
0
41
1
10
42.8580188800626
20
1.99990133843295
30
0
41
1
10
43.0952194599412
20
1.92171350878272
30
0
41
1
10
43.4497874783649
20
1.78611257449521
30
0
41
1
10
43.567948420133
20
1.73799185760103
30
0
41
1
10
43.8031318944637
20
1.63452060494833
30
0
41
1
10
43.9207393509024
20
1.57973673344992
30
0
41
1
10
44.1579914883206
20
1.46651620448986
30
0
41
1
10
44.2772558914231
20
1.4076762709299
30
0
41
1
10
44.5164579555196
20
1.28471819708659
30
0
41
1
10
44.6364833752993
20
1.22077646203465
30
0
41
1
10
44.8741347191892
20
1.0886979982244
30
0
41
1
10
44.9917285233215
20
1.01979941915613
30
0
41
1
10
45.2280737587891
20
0.881527497667832
30
0
41
1
10
45.346492551597
20
0.811701461438133
30
0
41
1
10
45.5830581232754
20
0.669611347662482
30
0
41
1
10
45.701242899759
20
0.597399396524082
30
0
41
1
10
45.8783009185067
20
0.487197125324855
30
0
41
1
10
45.9372733308874
20
0.450132884897386
30
0
41
1
10
46.0549539312996
20
0.375061137037363
30
0
41
1
10
46.113605135155
20
0.336959919878183
30
0
41
1
10
46.29047748561
20
0.223304714828458
30
0
41
1
10
46.4091960120737
20
0.1477491287894
30
0
41
1
10
46.6477394361798
20
-0.0036843423930577
30
0
41
1
10
46.7678189488976
20
-0.0799662312988971
30
0
41
1
10
47.0067544401062
20
-0.231964191497269
30
0
41
1
10
47.1254917292314
20
-0.307814720259927
30
0
41
1
10
47.3611597780765
20
-0.459689297780443
30
0
41
1
10
47.4792323042228
20
-0.533897189144369
30
0
41
1
10
47.8339610406596
20
-0.751912636118021
30
0
41
1
10
48.0707106583923
20
-0.891835953339182
30
0
41
1
10
48.4240119554919
20
-1.09658294564826
30
0
41
1
10
48.5415142020598
20
-1.16387002603301
30
0
41
1
10
48.7789054706257
20
-1.29246675450992
30
0
41
1
10
48.898340604598
20
-1.35443250394607
30
0
41
1
10
49.1380069546535
20
-1.47459898600596
30
0
41
1
10
49.2574872267339
20
-1.53220631875195
30
0
41
1
10
49.4947763091965
20
-1.64260287308173
30
0
41
1
10
49.6121732848238
20
-1.69595113623396
30
0
41
1
10
49.9659795516741
20
-1.84459438230073
30
0
41
1
10
50.2027805168866
20
-1.9303034214617
30
0
41
1
10
50.4980080705773
20
-2.02282748570693
30
0
41
1
10
50.5570227267255
20
-2.04058154012313
30
0
41
1
10
50.6748708954533
20
-2.07462957154843
30
0
41
1
10
50.7335600493142
20
-2.09101342352199
30
0
41
1
10
50.9104558453204
20
-2.13716364987528
30
0
41
1
10
51.0292390734299
20
-2.16415118429669
30
0
41
1
10
51.2681155259625
20
-2.2109777792175
30
0
41
1
10
51.3882521702824
20
-2.23087322082253
30
0
41
1
10
51.6266649281013
20
-2.26315028539858
30
0
41
1
10
51.7453843123953
20
-2.27560165054612
30
0
41
1
10
51.9982185538607
20
-2.29447522348781
30
0
41
1
10
52.1338486415472
20
-2.29942031242663
30
0
41
1
10
52.2696237240077
20
-2.29942113277849
30
0
0
SPLINE
5
E5
100
AcDbEntity
8
SK1
62
256
6
ByLayer
370
18
48
1
60
0
100
AcDbSpline
70
4
71
3
72
14
73
10
40
0
40
0
40
0
40
0
40
0.5
40
0.5
40
0.75
40
0.75
40
0.875
40
0.875
40
1
40
1
40
1
40
1
41
1
10
-35.3999999999999
20
-2.78922925724663
30
0
41
1
10
-35.3787677796885
20
-2.82599489427852
30
0
41
1
10
-35.3584290958895
20
-2.86117846220245
30
0
41
1
10
-35.3303626450498
20
-2.90915274316845
30
0
41
1
10
-35.3215171954455
20
-2.9241675559976
30
0
41
1
10
-35.3102812516991
20
-2.94283662633407
30
0
41
1
10
-35.3068890218584
20
-2.94838945504588
30
0
41
1
10
-35.3017585680987
20
-2.95646564837114
30
0
41
1
10
-35.3
20
-2.95901187928331
30
0
41
1
10
-35.3
20
-2.9584364778087
30
0
0
SPLINE
5
E6
100
AcDbEntity
8
SK1
62
256
6
ByLayer
370
18
48
1
60
0
100
AcDbSpline
70
4
71
3
72
8
73
4
40
0
40
0
40
0
40
0
40
1
40
1
40
1
40
1
41
1
10
-36
20
1.72485288512533
30
0
41
1
10
-35.8060560363144
20
2.08286207281557
30
0
41
1
10
-35.6037443830634
20
2.43642620956214
30
0
41
1
10
-35.4
20
2.78922925724638
30
0
0
SPLINE
5
E7
100
AcDbEntity
8
SK1
62
256
6
ByLayer
370
18
48
1
60
0
100
AcDbSpline
70
4
71
3
72
8
73
4
40
0
40
0
40
0
40
0
40
1
40
1
40
1
40
1
41
1
10
-36
20
-1.72485288512533
30
0
41
1
10
-35.8060560363144
20
-2.08286207281557
30
0
41
1
10
-35.6037443830634
20
-2.43642620956214
30
0
41
1
10
-35.4
20
-2.78922925724638
30
0
0
SPLINE
5
E8
100
AcDbEntity
8
SK1
62
256
6
ByLayer
370
18
48
1
60
0
100
AcDbSpline
70
4
71
3
72
8
73
4
40
0
40
0
40
0
40
0
40
1
40
1
40
1
40
1
41
1
10
-35.4
20
-2.38453706363259
30
0
41
1
10
-35.6037705039597
20
-2.03168878509746
30
0
41
1
10
-35.8060988287571
20
-1.67809088686101
30
0
41
1
10
-36
20
-1.32016069151155
30
0
0
SPLINE
5
E9
100
AcDbEntity
8
SK1
62
256
6
ByLayer
370
18
48
1
60
0
100
AcDbSpline
70
4
71
3
72
14
73
10
40
0
40
0
40
0
40
0
40
0.124999999999998
40
0.124999999999998
40
0.249999999999997
40
0.249999999999997
40
0.499999999999998
40
0.499999999999998
40
1
40
1
40
1
40
1
41
1
10
-35.3
20
-2.60770324334342
30
0
41
1
10
-35.3
20
-2.60246903569819
30
0
41
1
10
-35.3017593723636
20
-2.59457559771408
30
0
41
1
10
-35.3069353411979
20
-2.57726505281187
30
0
41
1
10
-35.3102739075534
20
-2.56796382722416
30
0
41
1
10
-35.3215583577555
20
-2.53896818343284
30
0
41
1
10
-35.3303095934911
20
-2.51929752096814
30
0
41
1
10
-35.358391202053
20
-2.45983604702749
30
0
41
1
10
-35.378655954467
20
-2.42149633681964
30
0
41
1
10
-35.4
20
-2.38453706363259
30
0
0
LINE
5
76
100
AcDbEntity
8
81
62
256
6
ByLayer
370
18
48
1
60
0
100
AcDbLine
10
54
20
0
30
0
11
59
21
0
31
0
39
0
210
0
220
0
230
1
0
LINE
5
77
100
AcDbEntity
8
1
62
256
6
ByLayer
370
18
48
1
60
0
100
AcDbLine
10
0
20
-3
30
0
11
0.7
21
-2.267138
31
0
39
0
210
0
220
0
230
1
0
LINE
5
79
100
AcDbEntity
8
1
62
256
6
ByLayer
370
18
48
1
60
0
100
AcDbLine
10
0.7
20
2.267138
30
0
11
0
21
3
31
0
39
0
210
0
220
0
230
1
0
LINE
5
7A
100
AcDbEntity
8
1
62
256
6
ByLayer
370
18
48
1
60
0
100
AcDbLine
10
7.864687
20
2.271616
30
0
11
0.7
21
2.267138
31
0
39
0
210
0
220
0
230
1
0
LINE
5
7B
100
AcDbEntity
8
1
62
256
6
ByLayer
370
18
48
1
60
0
100
AcDbLine
10
19.115667
20
2.278648
30
0
11
18.510685
21
2.27827
31
0
39
0
210
0
220
0
230
1
0
LINE
5
7C
100
AcDbEntity
8
1
62
256
6
ByLayer
370
18
48
1
60
0
100
AcDbLine
10
30.364962
20
2.285679
30
0
11
29.762084
21
2.285302
31
0
39
0
210
0
220
0
230
1
0
LINE
5
7D
100
AcDbEntity
8
1
62
256
6
ByLayer
370
18
48
1
60
0
100
AcDbLine
10
41.615507
20
2.29271
30
0
11
41.018294
21
2.292337
31
0
39
0
210
0
220
0
230
1
0
LINE
5
7E
100
AcDbEntity
8
1
62
256
6
ByLayer
370
18
48
1
60
0
100
AcDbLine
10
52.864932
20
2.299741
30
0
11
52.266585
21
2.299367
31
0
39
0
210
0
220
0
230
1
0
LINE
5
7F
100
AcDbEntity
8
1
62
256
6
ByLayer
370
18
48
1
60
0
100
AcDbLine
10
52.266585
20
-2.299367
30
0
11
52.864925
21
-2.299741
31
0
39
0
210
0
220
0
230
1
0
LINE
5
80
100
AcDbEntity
8
1
62
256
6
ByLayer
370
18
48
1
60
0
100
AcDbLine
10
41.018294
20
-2.292337
30
0
11
41.615063
21
-2.29271
31
0
39
0
210
0
220
0
230
1
0
LINE
5
81
100
AcDbEntity
8
1
62
256
6
ByLayer
370
18
48
1
60
0
100
AcDbLine
10
29.762084
20
-2.285302
30
0
11
30.365414
21
-2.285679
31
0
39
0
210
0
220
0
230
1
0
LINE
5
82
100
AcDbEntity
8
1
62
256
6
ByLayer
370
18
48
1
60
0
100
AcDbLine
10
18.510685
20
-2.27827
30
0
11
19.115356
21
-2.278648
31
0
39
0
210
0
220
0
230
1
0
LINE
5
83
100
AcDbEntity
8
1
62
256
6
ByLayer
370
18
48
1
60
0
100
AcDbLine
10
0.7
20
-2.267138
30
0
11
7.864937
21
-2.271616
31
0
39
0
210
0
220
0
230
1
0
LINE
5
84
100
AcDbEntity
8
SK1
62
256
6
ByLayer
370
18
48
1
60
0
100
AcDbLine
10
-35.278312
20
3
30
0
11
-35.405351
21
2.779963
31
0
39
0
210
0
220
0
230
1
0
LINE
5
86
100
AcDbEntity
8
SK1
62
256
6
ByLayer
370
18
48
1
60
0
100
AcDbLine
10
-35.405351
20
-2.779963
30
0
11
-35.278312
21
-3
31
0
39
0
210
0
220
0
230
1
0
LINE
5
87
100
AcDbEntity
8
SK1
62
256
6
ByLayer
370
18
48
1
60
0
100
AcDbLine
10
0
20
3
30
0
11
-35.278312
21
3
31
0
39
0
210
0
220
0
230
1
0
LINE
5
88
100
AcDbEntity
8
SK1
62
256
6
ByLayer
370
18
48
1
60
0
100
AcDbLine
10
-35.278312
20
-3
30
0
11
0
21
-3
31
0
39
0
210
0
220
0
230
1
0
LINE
5
89
100
AcDbEntity
8
SK4
62
256
6
ByLayer
370
18
48
0.05
60
0
100
AcDbLine
10
59
20
0
30
0
11
-41
21
0
31
0
39
0
210
0
220
0
230
1
0
LINE
5
8B
100
AcDbEntity
8
4
62
256
6
ByLayer
370
18
48
0.05
60
0
100
AcDbLine
10
54
20
0
30
0
11
0
21
0
31
0
39
0
210
0
220
0
230
1
0
LINE
5
8D
100
AcDbEntity
8
80
62
256
6
ByLayer
370
18
48
1
60
0
100
AcDbLine
10
0
20
0
30
0
11
-5
21
0
31
0
39
0
210
0
220
0
230
1
0
LINE
5
8E
100
AcDbEntity
8
1
62
256
6
ByLayer
370
18
48
1
60
0
100
AcDbLine
10
53.599582
20
-0.586174
30
0
11
53.879883
21
-0.205723
31
0
39
0
210
0
220
0
230
1
0
LINE
5
8F
100
AcDbEntity
8
1
62
256
6
ByLayer
370
13
48
1
60
0
100
AcDbLine
10
53.00855
20
0.604422
30
0
11
53.983168
21
-0.012535
31
0
39
0
210
0
220
0
230
1
0
LINE
5
90
100
AcDbEntity
8
1
62
256
6
ByLayer
370
18
48
1
60
0
100
AcDbLine
10
0
20
-3
30
0
11
0
21
3
31
0
39
0
210
0
220
0
230
1
0
LINE
5
91
100
AcDbEntity
8
1
62
256
6
ByLayer
370
18
48
1
60
0
100
AcDbLine
10
0.7
20
2.267138
30
0
11
0.7
21
-2.267138
31
0
39
0
210
0
220
0
230
1
0
LINE
5
92
100
AcDbEntity
8
1
62
256
6
ByLayer
370
13
48
1
60
0
100
AcDbLine
10
53.077109
20
0.680635
30
0
11
53.981018
21
0.108439
31
0
39
0
210
0
220
0
230
1
0
LINE
5
93
100
AcDbEntity
8
1
62
256
6
ByLayer
370
18
48
1
60
0
100
AcDbLine
10
52.847249
20
-1.607309
30
0
11
53.370528
21
-0.897067
31
0
39
0
210
0
220
0
230
1
0
LINE
5
94
100
AcDbEntity
8
SK1
62
256
6
ByLayer
370
18
48
1
60
0
100
AcDbLine
10
0
20
-3
30
0
11
0
21
3
31
0
39
0
210
0
220
0
230
1
0
LINE
5
95
100
AcDbEntity
8
SK1
62
256
6
ByLayer
370
18
48
1
60
0
100
AcDbLine
10
-35.278312
20
3
30
0
11
-35.278312
21
-3
31
0
39
0
210
0
220
0
230
1
0
LINE
5
96
100
AcDbEntity
8
SK1
62
256
6
ByLayer
370
18
48
1
60
0
100
AcDbLine
10
-35.3
20
-2.958436
30
0
11
-35.3
21
-2.607703
31
0
39
0
210
0
220
0
230
1
0
LINE
5
97
100
AcDbEntity
8
SK1
62
256
6
ByLayer
370
18
48
1
60
0
100
AcDbLine
10
-36
20
1.724853
30
0
11
-36
21
-1.320161
31
0
39
0
210
0
220
0
230
1
0
LINE
5
98
100
AcDbEntity
8
SK1
62
256
6
ByLayer
370
13
48
1
60
0
100
AcDbLine
10
-35.4
20
-2.384463
30
0
11
-35.4
21
-2.789229
31
0
39
0
210
0
220
0
230
1
0
LINE
5
99
100
AcDbEntity
8
SK1
62
256
6
ByLayer
370
18
48
1
60
0
100
AcDbLine
10
-36
20
-1.320152
30
0
11
-36
21
-1.724853
31
0
39
0
210
0
220
0
230
1
0
MTEXT
5
EA
100
AcDbEntity
8
SK6
62
256
6
ByLayer
370
13
48
1
60
0
100
AcDbMText
10
11.129169
20
34.682694
30
0
210
0
220
0
230
1
1
\W0.7585;460.1-0460-035A1-XM GC34
40
3.5
41
0
44
1.084337
50
0
71
8
72
5
7
iso_b_vert
0
DIMENSION
5
F7
100
AcDbEntity
8
SK2
62
256
6
ByLayer
370
13
48
1
60
0
100
AcDbDimension
2
DimnDraft3D1
10
53.3298
20
-12.513398
30
0
11
25.579859
21
-12.513398
31
0
70
32
71
5
72
1
41
1
210
0
220
0
230
1
3
Standard
100
AcDbAlignedDimension
13
0
23
-1.5875
33
0
14
53.3298
24
-3.8875
34
0
50
0
100
AcDbRotatedDimension
1001
ACAD
1000
DSTYLE
1002
{
1070
   279
1070
     0
1070
   172
1070
     1
1070
   173
1070
     1
1070
   340
1005
EB
1070
   271
1070
     2
1070
   272
1070
     2
1070
    77
1070
     1
1070
    73
1070
     0
1070
   171
1070
     3
1070
   274
1070
     4
1070
   177
1070
    35
1070
   176
1070
    35
1070
   178
1070
    35
1070
    48
1040
-0.005
1070
    41
1041
3.5
1070
   147
1041
1.75
1070
    42
1041
1.5875
1070
    44
1041
2.0
1070
   140
1041
3.5
1070
   343
1005
0
1070
   344
1005
0
1002
}
0
DIMENSION
5
101
100
AcDbEntity
8
SK2
62
256
6
ByLayer
370
13
48
1
60
0
100
AcDbDimension
2
DimnDraft3D2
10
54
20
-31.692985
30
0
11
9.6711
21
-31.692985
31
0
70
32
71
5
72
1
41
1
210
0
220
0
230
1
3
Standard
100
AcDbAlignedDimension
13
-36
23
-4.5875
33
0
14
54
24
-1.5875
34
0
50
0
100
AcDbRotatedDimension
1001
ACAD
1000
DSTYLE
1002
{
1070
   279
1070
     0
1070
   172
1070
     1
1070
   173
1070
     1
1070
   340
1005
EB
1070
   271
1070
     2
1070
   272
1070
     2
1070
    77
1070
     1
1070
    73
1070
     0
1070
   171
1070
     3
1070
   274
1070
     4
1070
   177
1070
    35
1070
   176
1070
    35
1070
   178
1070
    35
1070
    48
1040
-0.005
1070
    41
1041
3.5
1070
   147
1041
1.75
1070
    42
1041
1.5875
1070
    44
1041
2.0
1070
   140
1041
3.5
1070
   343
1005
0
1070
   344
1005
0
1002
}
0
DIMENSION
5
10B
100
AcDbEntity
8
SK2
62
256
6
ByLayer
370
13
48
1
60
0
100
AcDbDimension
2
DimnDraft3D3
10
54
20
13.909119
30
0
11
35.265
21
13.909119
31
0
70
32
71
5
72
1
41
1
210
0
220
0
230
1
3
Standard
100
AcDbAlignedDimension
13
16.53
23
3.8875
33
0
14
54
24
1.5875
34
0
50
0
100
AcDbRotatedDimension
1001
ACAD
1000
DSTYLE
1002
{
1070
   279
1070
     0
1070
   172
1070
     1
1070
   173
1070
     1
1070
   340
1005
EB
1070
   271
1070
     2
1070
   272
1070
     2
1070
    77
1070
     1
1070
    73
1070
     0
1070
   171
1070
     3
1070
   274
1070
     4
1070
   177
1070
    35
1070
   176
1070
    35
1070
   178
1070
    35
1070
    48
1040
-0.005
1070
    41
1041
3.5
1070
   147
1041
1.75
1070
    42
1041
1.5875
1070
    44
1041
2.0
1070
   140
1041
3.5
1070
   343
1005
0
1070
   344
1005
0
1002
}
0
DIMENSION
5
115
100
AcDbEntity
8
SK2
62
256
6
ByLayer
370
13
48
1
60
0
100
AcDbDimension
2
DimnDraft3D4
10
53.3298
20
-15.102503
30
0
11
63.981425
21
-15.102503
31
0
70
32
71
5
72
1
41
1
210
0
220
0
230
1
3
Standard
100
AcDbAlignedDimension
13
54
23
-1.5875
33
0
14
53.3298
24
-3.8875
34
0
50
0
100
AcDbRotatedDimension
1001
ACAD
1000
DSTYLE
1002
{
1070
   279
1070
     0
1070
   172
1070
     1
1070
   173
1070
     1
1070
   340
1005
EB
1070
   271
1070
     2
1070
   272
1070
     2
1070
    77
1070
     1
1070
    73
1070
     0
1070
   171
1070
     3
1070
   274
1070
     4
1070
   177
1070
    35
1070
   176
1070
    35
1070
   178
1070
    35
1070
    48
1040
-0.005
1070
    41
1041
3.5
1070
   147
1041
1.75
1070
    42
1041
1.5875
1070
    44
1041
2.0
1070
   140
1041
3.5
1070
   343
1005
0
1070
   344
1005
0
1002
}
0
DIMENSION
5
11F
100
AcDbEntity
8
SK2
62
256
6
ByLayer
370
13
48
1
60
0
100
AcDbDimension
2
DimnDraft3D5
10
53.3298
20
-21.343428
30
0
11
6.590476
21
-21.343428
31
0
70
32
71
5
72
1
41
1
210
0
220
0
230
1
3
Standard
100
AcDbAlignedDimension
13
-36
23
-4.5875
33
0
14
53.3298
24
-3.8875
34
0
50
0
100
AcDbRotatedDimension
1001
ACAD
1000
DSTYLE
1002
{
1070
   279
1070
     0
1070
   172
1070
     1
1070
   173
1070
     1
1070
   340
1005
EB
1070
   271
1070
     2
1070
   272
1070
     2
1070
    77
1070
     1
1070
    73
1070
     0
1070
   171
1070
     3
1070
   274
1070
     4
1070
   177
1070
    35
1070
   176
1070
    35
1070
   178
1070
    35
1070
    48
1040
-0.005
1070
    41
1041
3.5
1070
   147
1041
1.75
1070
    42
1041
1.5875
1070
    44
1041
2.0
1070
   140
1041
3.5
1070
   343
1005
0
1070
   344
1005
0
1002
}
0
DIMENSION
5
12A
100
AcDbEntity
8
SK2
62
256
6
ByLayer
370
13
48
1
60
0
100
AcDbDimension
2
DimnDraft3D6
10
-46.625163
20
3
30
0
11
-47.250163
21
21.47418
31
0
70
33
71
5
72
1
41
1
210
0
220
0
230
1
3
Standard
100
AcDbAlignedDimension
13
-37.5875
23
-3
33
0
14
-37.5875
24
3
34
0
1001
ACAD
1000
DSTYLE
1002
{
1070
   279
1070
     0
1070
    74
1070
     0
1070
   173
1070
     1
1070
   340
1005
EB
1070
   271
1070
     3
1070
   272
1070
     2
1070
    77
1070
     1
1070
    73
1070
     0
1070
   171
1070
     3
1070
   274
1070
     4
1070
   177
1070
    35
1070
   176
1070
    35
1070
   178
1070
    35
1070
    48
1040
-0.005
1070
    41
1041
3.5
1070
   147
1041
1.75
1070
    42
1041
1.5875
1070
    44
1041
2.0
1070
   140
1041
3.5
1070
   343
1005
0
1070
   344
1005
0
1002
}
0
DIMENSION
5
135
100
AcDbEntity
8
2
62
256
6
ByLayer
370
13
48
1
60
0
100
AcDbDimension
2
DimnDraft3D7
10
68.083343
20
2.3
30
0
11
63.458343
21
19.367266
31
0
70
33
71
5
72
1
41
1
210
0
220
0
230
1
3
Standard
100
AcDbAlignedDimension
13
54.9173
23
-2.3
33
0
14
54.9173
24
2.3
34
0
1001
ACAD
1000
DSTYLE
1002
{
1070
   279
1070
     0
1070
    74
1070
     0
1070
   173
1070
     1
1070
   340
1005
EB
1070
   271
1070
     3
1070
   272
1070
     2
1070
    77
1070
     1
1070
    73
1070
     0
1070
   171
1070
     3
1070
   274
1070
     4
1070
   177
1070
    35
1070
   176
1070
    35
1070
   178
1070
    35
1070
    48
1040
-0.005
1070
    41
1041
3.5
1070
   147
1041
1.75
1070
    42
1041
1.5875
1070
    44
1041
2.0
1070
   140
1041
3.5
1070
   343
1005
0
1070
   344
1005
0
1002
}
0
ENDSEC
0
SECTION
2
OBJECTS
0
DICTIONARY
5
1a0
330
0
100
AcDbDictionary
280
0
281
1
3
ACAD_GROUP
350
1a1
3
ACAD_MLINESTYLE
350
1a2
0
DICTIONARY
5
1a1
330
0
100
AcDbDictionary
280
0
281
1
0
DICTIONARY
5
1a2
330
0
100
AcDbDictionary
280
0
281
1
3
Standard
350
18
0
MLINESTYLE
5
18
330
1a2
100
AcDbMlineStyle
2
Standard
70
0
3

62
256
51
90
52
90
71
2
49
-0.5
62
256
6
ByLayer
49
0.5
62
256
6
ByLayer
0
RASTERVARIABLES
5
18e
330

100
AcDbRasterVariables
90
0
70
1
71
1
72
1
0
ENDSEC
0
EOF
