0
SECTION
2
HEADER
9
$ACADVER
1
AC1015
9
$DWGCODEPAGE
3
ANSI_1252
9
$HANDSEED
5
1a7
9
$ANGBASE
50
0
9
$ANGDIR
70
0
9
$ATTMODE
70
1
9
$AUNITS
70
0
9
$AUPREC
70
0
9
$CECOLOR
62
256
9
$CELTSCALE
40
1
9
$CELTYPE
6
ByLayer
9
$CELWEIGHT
370
18
9
$CLAYER
8
0
9
$CMLJUST
70
0
9
$CMLSCALE
40
1
9
$CMLSTYLE
2
Standard
9
$DIMSTYLE
2
Standard
9
$TEXTSIZE
40
0.2
9
$TEXTSTYLE
7
Standard
9
$LUNITS
70
2
9
$LUPREC
70
4
9
$EXTNAMES
290
1
9
$INSUNITS
70
4
9
$LTSCALE
40
1
9
$LWDISPLAY
290
1
9
$PDMODE
70
0
9
$PDSIZE
40
0
9
$PLINEGEN
70
0
0
ENDSEC
0
SECTION
2
CLASSES
0
CLASS
1
RASTERVARIABLES
2
AcDbRasterVariables
3
ISM
90
0
280
0
281
0
0
ENDSEC
0
SECTION
2
TABLES
0
TABLE
2
VPORT
5
19d
100
AcDbSymbolTable
0
VPORT
5
1
100
AcDbSymbolTableRecord
100
AcDbViewportTableRecord
2
*Active
70
0
10
0
20
0
11
1
21
1
12
-1
22
1
13
0
23
0
14
0.5
24
0.5
15
10
25
10
16
0
26
0
36
1
17
0
27
0
37
0
0
ENDTAB
0
TABLE
2
LTYPE
5
19e
100
AcDbSymbolTable
0
LTYPE
5
14
100
AcDbSymbolTableRecord
100
AcDbLinetypeTableRecord
70
0
2
ByBlock
3

72
65
73
0
40
0
0
LTYPE
5
15
100
AcDbSymbolTableRecord
100
AcDbLinetypeTableRecord
70
0
2
ByLayer
3

72
65
73
0
40
0
0
LTYPE
5
16
100
AcDbSymbolTableRecord
100
AcDbLinetypeTableRecord
70
0
2
CONTINUOUS
3
Solid line
72
65
73
0
40
0
0
LTYPE
5
6A
100
AcDbSymbolTableRecord
100
AcDbLinetypeTableRecord
70
0
2
CENTER
3
____ _ ____ _ ____ _ ____
72
65
73
4
40
47.5
49
22
74
0
49
-8.5
74
0
49
8.5
74
0
49
-8.5
74
0
0
LTYPE
5
6B
100
AcDbSymbolTableRecord
100
AcDbLinetypeTableRecord
70
0
2
DASHED
3
__ __ __ __ __ __ __ __ __
72
65
73
2
40
25.72
49
12.86
74
0
49
-12.86
74
0
0
ENDTAB
0
TABLE
2
LAYER
5
19f
100
AcDbSymbolTable
0
LAYER
5
10
100
AcDbSymbolTableRecord
100
AcDbLayerTableRecord
2
0
70
0
62
7
6
CONTINUOUS
290
1
370
-3
390
0
0
LAYER
5
6D
100
AcDbSymbolTableRecord
100
AcDbLayerTableRecord
2
81
70
0
62
-3
6
CONTINUOUS
290
1
370
-3
390
0
0
LAYER
5
6F
100
AcDbSymbolTableRecord
100
AcDbLayerTableRecord
2
80
70
0
62
-6
6
CONTINUOUS
290
1
370
-3
390
0
0
LAYER
5
74
100
AcDbSymbolTableRecord
100
AcDbLayerTableRecord
2
2
70
0
62
7
6
CONTINUOUS
290
1
370
-3
390
0
0
LAYER
5
78
100
AcDbSymbolTableRecord
100
AcDbLayerTableRecord
2
1
70
0
62
4
6
CONTINUOUS
290
1
370
-3
390
0
0
LAYER
5
8A
100
AcDbSymbolTableRecord
100
AcDbLayerTableRecord
2
4
70
0
62
-2
6
CENTER
290
1
370
-3
390
0
0
LAYER
5
189
100
AcDbSymbolTableRecord
100
AcDbLayerTableRecord
2
SK2
70
0
62
7
6
CONTINUOUS
290
1
370
-3
390
0
0
LAYER
5
18a
100
AcDbSymbolTableRecord
100
AcDbLayerTableRecord
2
SK1
70
0
62
4
6
CONTINUOUS
290
1
370
-3
390
0
0
LAYER
5
18b
100
AcDbSymbolTableRecord
100
AcDbLayerTableRecord
2
SK4
70
0
62
2
6
CENTER
290
1
370
-3
390
0
0
LAYER
5
18c
100
AcDbSymbolTableRecord
100
AcDbLayerTableRecord
2
SK6
70
0
62
5
6
CONTINUOUS
290
1
370
-3
390
0
0
ENDTAB
0
TABLE
2
STYLE
5
1a0
100
AcDbSymbolTable
0
STYLE
5
11
100
AcDbSymbolTableRecord
100
AcDbTextStyleTableRecord
2
Standard
3
txt
70
0
71
0
40
0
41
1
42
0
50
0
0
STYLE
5
E5
100
AcDbSymbolTableRecord
100
AcDbTextStyleTableRecord
2
iso_b_vert
3
simplex.shx
70
0
71
0
40
0
41
1
42
0
50
0
0
STYLE
5
E6
100
AcDbSymbolTableRecord
100
AcDbTextStyleTableRecord
2
DWGDirectTextStyle
3
simplex
70
0
71
0
40
0
41
1
42
0
50
0
0
ENDTAB
0
TABLE
2
DIMSTYLE
5
1a1
100
AcDbSymbolTable
100
AcDbDimStyleTable
0
DIMSTYLE
105
27
100
AcDbSymbolTableRecord
100
AcDbDimStyleTableRecord
2
Standard
70
0
3
<>
41
0.18
42
0.0625
44
0.18
140
0.18
147
0.09
73
0
74
0
77
1
271
2
275
0
278
52
280
0
340
11
0
ENDTAB
0
TABLE
2
VIEW
5
1a2
100
AcDbSymbolTable
0
ENDTAB
0
TABLE
2
UCS
5
1a3
100
AcDbSymbolTable
0
ENDTAB
0
TABLE
2
APPID
5
1a4
100
AcDbSymbolTable
0
APPID
5
12
100
AcDbSymbolTableRecord
100
AcDbRegAppTableRecord
2
ACAD
70
0
0
ENDTAB
0
TABLE
2
BLOCK_RECORD
5
1a5
100
AcDbSymbolTable
0
BLOCK_RECORD
5
1F
100
AcDbSymbolTableRecord
100
AcDbBlockTableRecord
2
*Model_Space
340
0
70
0
0
BLOCK_RECORD
5
1B
100
AcDbSymbolTableRecord
100
AcDbBlockTableRecord
2
*Paper_Space
340
0
70
0
0
BLOCK_RECORD
5
23
100
AcDbSymbolTableRecord
100
AcDbBlockTableRecord
2
*Paper_Space0
340
0
70
0
0
BLOCK_RECORD
5
E8
100
AcDbSymbolTableRecord
100
AcDbBlockTableRecord
2
DimnDraft3D1
340
0
70
0
0
BLOCK_RECORD
5
F2
100
AcDbSymbolTableRecord
100
AcDbBlockTableRecord
2
DimnDraft3D2
340
0
70
0
0
BLOCK_RECORD
5
FC
100
AcDbSymbolTableRecord
100
AcDbBlockTableRecord
2
DimnDraft3D3
340
0
70
0
0
BLOCK_RECORD
5
106
100
AcDbSymbolTableRecord
100
AcDbBlockTableRecord
2
DimnDraft3D4
340
0
70
0
0
BLOCK_RECORD
5
110
100
AcDbSymbolTableRecord
100
AcDbBlockTableRecord
2
DimnDraft3D5
340
0
70
0
0
BLOCK_RECORD
5
11A
100
AcDbSymbolTableRecord
100
AcDbBlockTableRecord
2
DimnDraft3D6
340
0
70
0
0
BLOCK_RECORD
5
125
100
AcDbSymbolTableRecord
100
AcDbBlockTableRecord
2
DimnDraft3D7
340
0
70
0
0
ENDTAB
0
ENDSEC
0
SECTION
2
BLOCKS
0
BLOCK
5
20
100
AcDbEntity
8
0
100
AcDbBlockBegin
2
*Model_Space
70
0
10
0
20
0
30
0
3
*Model_Space
0
ENDBLK
5
21
100
AcDbEntity
8
0
100
AcDbBlockEnd
0
BLOCK
5
1C
100
AcDbEntity
8
0
100
AcDbBlockBegin
2
*Paper_Space
70
0
10
0
20
0
30
0
3
*Paper_Space
0
ENDBLK
5
1D
100
AcDbEntity
8
0
100
AcDbBlockEnd
0
BLOCK
5
24
100
AcDbEntity
8
0
100
AcDbBlockBegin
2
*Paper_Space0
70
0
10
0
20
0
30
0
3
*Paper_Space0
0
ENDBLK
5
25
100
AcDbEntity
8
0
100
AcDbBlockEnd
0
BLOCK
5
EF
100
AcDbEntity
8
0
100
AcDbBlockBegin
2
DimnDraft3D1
70
0
10
0
20
0
30
0
3
DimnDraft3D1
0
MTEXT
5
E9
100
AcDbEntity
8
SK2
62
256
6
ByLayer
370
13
48
1
60
0
100
AcDbMText
10
13.161275
20
-11.538398
30
0
210
0
220
0
230
1
1
\W0.7317;37,36
40
3.5
41
0
44
1.084337
50
0
71
7
72
5
7
iso_b_vert
0
LINE
5
EA
100
AcDbEntity
8
SK2
62
256
6
ByLayer
370
13
48
1
60
0
100
AcDbLine
10
0
20
-1.5875
30
0
11
0
21
-14.413398
31
0
39
0
210
0
220
0
230
1
0
LINE
5
EB
100
AcDbEntity
8
SK2
62
256
6
ByLayer
370
13
48
1
60
0
100
AcDbLine
10
37.3599
20
-3.7875
30
0
11
37.3599
21
-14.413398
31
0
39
0
210
0
220
0
230
1
0
LINE
5
EC
100
AcDbEntity
8
SK2
62
256
6
ByLayer
370
13
48
1
60
0
100
AcDbLine
10
0
20
-12.413398
30
0
11
37.3599
21
-12.413398
31
0
39
0
210
0
220
0
230
1
0
SOLID
5
ED
100
AcDbEntity
8
SK2
62
256
6
ByLayer
370
13
48
1
60
0
100
AcDbTrace
10
0
20
-12.413398
30
0
11
3.499998
21
-11.952615
31
0
12
3.500002
22
-12.874182
32
0
13
0
23
-12.413398
33
0
39
0
210
0
220
0
230
1
0
SOLID
5
EE
100
AcDbEntity
8
SK2
62
256
6
ByLayer
370
13
48
1
60
0
100
AcDbTrace
10
37.3599
20
-12.413398
30
0
11
33.859902
21
-12.874182
31
0
12
33.859898
22
-11.952615
32
0
13
37.3599
23
-12.413398
33
0
39
0
210
0
220
0
230
1
0
ENDBLK
5
F0
100
AcDbEntity
8
0
100
AcDbBlockEnd
0
BLOCK
5
F9
100
AcDbEntity
8
0
100
AcDbBlockBegin
2
DimnDraft3D2
70
0
10
0
20
0
30
0
3
DimnDraft3D2
0
MTEXT
5
F3
100
AcDbEntity
8
SK2
62
256
6
ByLayer
370
13
48
1
60
0
100
AcDbMText
10
-2.931695
20
-30.817985
30
0
210
0
220
0
230
1
1
\W0.7581;74,00
40
3.5
41
0
44
1.084337
50
0
71
7
72
5
7
iso_b_vert
0
LINE
5
F4
100
AcDbEntity
8
SK2
62
256
6
ByLayer
370
13
48
1
60
0
100
AcDbLine
10
-36
20
-4.5875
30
0
11
-36
21
-33.692985
31
0
39
0
210
0
220
0
230
1
0
LINE
5
F5
100
AcDbEntity
8
SK2
62
256
6
ByLayer
370
13
48
1
60
0
100
AcDbLine
10
38
20
-1.5875
30
0
11
38
21
-33.692985
31
0
39
0
210
0
220
0
230
1
0
LINE
5
F6
100
AcDbEntity
8
SK2
62
256
6
ByLayer
370
13
48
1
60
0
100
AcDbLine
10
-36
20
-31.692985
30
0
11
38
21
-31.692985
31
0
39
0
210
0
220
0
230
1
0
SOLID
5
F7
100
AcDbEntity
8
SK2
62
256
6
ByLayer
370
13
48
1
60
0
100
AcDbTrace
10
-36
20
-31.692985
30
0
11
-32.500002
21
-31.232202
31
0
12
-32.499998
22
-32.153769
32
0
13
-36
23
-31.692985
33
0
39
0
210
0
220
0
230
1
0
SOLID
5
F8
100
AcDbEntity
8
SK2
62
256
6
ByLayer
370
13
48
1
60
0
100
AcDbTrace
10
38
20
-31.692985
30
0
11
34.500002
21
-32.153769
31
0
12
34.499998
22
-31.232202
32
0
13
38
23
-31.692985
33
0
39
0
210
0
220
0
230
1
0
ENDBLK
5
FA
100
AcDbEntity
8
0
100
AcDbBlockEnd
0
BLOCK
5
103
100
AcDbEntity
8
0
100
AcDbBlockBegin
2
DimnDraft3D3
70
0
10
0
20
0
30
0
3
DimnDraft3D3
0
MTEXT
5
FD
100
AcDbEntity
8
SK2
62
256
6
ByLayer
370
13
48
1
60
0
100
AcDbMText
10
22.047105
20
14.684119
30
0
210
0
220
0
230
1
1
\W0.7495;22,64
40
3.5
41
0
44
1.084337
50
0
71
7
72
5
7
iso_b_vert
0
LINE
5
FE
100
AcDbEntity
8
SK2
62
256
6
ByLayer
370
13
48
1
60
0
100
AcDbLine
10
15.36
20
3.7875
30
0
11
15.36
21
15.809119
31
0
39
0
210
0
220
0
230
1
0
LINE
5
FF
100
AcDbEntity
8
SK2
62
256
6
ByLayer
370
13
48
1
60
0
100
AcDbLine
10
38
20
1.5875
30
0
11
38
21
15.809119
31
0
39
0
210
0
220
0
230
1
0
LINE
5
100
100
AcDbEntity
8
SK2
62
256
6
ByLayer
370
13
48
1
60
0
100
AcDbLine
10
15.36
20
13.809119
30
0
11
38
21
13.809119
31
0
39
0
210
0
220
0
230
1
0
SOLID
5
101
100
AcDbEntity
8
SK2
62
256
6
ByLayer
370
13
48
1
60
0
100
AcDbTrace
10
15.36
20
13.809119
30
0
11
18.859998
21
14.269903
31
0
12
18.860002
22
13.348335
32
0
13
15.36
23
13.809119
33
0
39
0
210
0
220
0
230
1
0
SOLID
5
102
100
AcDbEntity
8
SK2
62
256
6
ByLayer
370
13
48
1
60
0
100
AcDbTrace
10
38
20
13.809119
30
0
11
34.500002
21
13.348335
31
0
12
34.499998
22
14.269903
32
0
13
38
23
13.809119
33
0
39
0
210
0
220
0
230
1
0
ENDBLK
5
104
100
AcDbEntity
8
0
100
AcDbBlockEnd
0
BLOCK
5
10D
100
AcDbEntity
8
0
100
AcDbBlockBegin
2
DimnDraft3D4
70
0
10
0
20
0
30
0
3
DimnDraft3D4
0
MTEXT
5
107
100
AcDbEntity
8
SK2
62
256
6
ByLayer
370
13
48
1
60
0
100
AcDbMText
10
44.656425
20
-14.127503
30
0
210
0
220
0
230
1
1
\W0.7383;0,64
40
3.5
41
0
44
1.084337
50
0
71
7
72
5
7
iso_b_vert
0
LINE
5
108
100
AcDbEntity
8
SK2
62
256
6
ByLayer
370
13
48
1
60
0
100
AcDbLine
10
38
20
-1.5875
30
0
11
38
21
-17.002503
31
0
39
0
210
0
220
0
230
1
0
LINE
5
109
100
AcDbEntity
8
SK2
62
256
6
ByLayer
370
13
48
1
60
0
100
AcDbLine
10
37.3599
20
-3.7875
30
0
11
37.3599
21
-17.002503
31
0
39
0
210
0
220
0
230
1
0
LINE
5
10A
100
AcDbEntity
8
SK2
62
256
6
ByLayer
370
13
48
1
60
0
100
AcDbLine
10
28.6099
20
-15.002503
30
0
11
52.181425
21
-15.002503
31
0
39
0
210
0
220
0
230
1
0
SOLID
5
10B
100
AcDbEntity
8
SK2
62
256
6
ByLayer
370
13
48
1
60
0
100
AcDbTrace
10
38
20
-15.002503
30
0
11
41.499998
21
-14.541719
31
0
12
41.500002
22
-15.463287
32
0
13
38
23
-15.002503
33
0
39
0
210
0
220
0
230
1
0
SOLID
5
10C
100
AcDbEntity
8
SK2
62
256
6
ByLayer
370
13
48
1
60
0
100
AcDbTrace
10
37.3599
20
-15.002503
30
0
11
33.859902
21
-15.463287
31
0
12
33.859898
22
-14.541719
32
0
13
37.3599
23
-15.002503
33
0
39
0
210
0
220
0
230
1
0
ENDBLK
5
10E
100
AcDbEntity
8
0
100
AcDbBlockEnd
0
BLOCK
5
117
100
AcDbEntity
8
0
100
AcDbBlockBegin
2
DimnDraft3D5
70
0
10
0
20
0
30
0
3
DimnDraft3D5
0
MTEXT
5
111
100
AcDbEntity
8
SK2
62
256
6
ByLayer
370
13
48
1
60
0
100
AcDbMText
10
-5.828108
20
-20.468428
30
0
210
0
220
0
230
1
1
\W0.7317;73,36
40
3.5
41
0
44
1.084337
50
0
71
7
72
5
7
iso_b_vert
0
LINE
5
112
100
AcDbEntity
8
SK2
62
256
6
ByLayer
370
13
48
1
60
0
100
AcDbLine
10
-36
20
-4.5875
30
0
11
-36
21
-23.343428
31
0
39
0
210
0
220
0
230
1
0
LINE
5
113
100
AcDbEntity
8
SK2
62
256
6
ByLayer
370
13
48
1
60
0
100
AcDbLine
10
37.3599
20
-3.7875
30
0
11
37.3599
21
-23.343428
31
0
39
0
210
0
220
0
230
1
0
LINE
5
114
100
AcDbEntity
8
SK2
62
256
6
ByLayer
370
13
48
1
60
0
100
AcDbLine
10
-36
20
-21.343428
30
0
11
37.3599
21
-21.343428
31
0
39
0
210
0
220
0
230
1
0
SOLID
5
115
100
AcDbEntity
8
SK2
62
256
6
ByLayer
370
13
48
1
60
0
100
AcDbTrace
10
-36
20
-21.343428
30
0
11
-32.500002
21
-20.882645
31
0
12
-32.499998
22
-21.804212
32
0
13
-36
23
-21.343428
33
0
39
0
210
0
220
0
230
1
0
SOLID
5
116
100
AcDbEntity
8
SK2
62
256
6
ByLayer
370
13
48
1
60
0
100
AcDbTrace
10
37.3599
20
-21.343428
30
0
11
33.859902
21
-21.804212
31
0
12
33.859898
22
-20.882645
32
0
13
37.3599
23
-21.343428
33
0
39
0
210
0
220
0
230
1
0
ENDBLK
5
118
100
AcDbEntity
8
0
100
AcDbBlockEnd
0
BLOCK
5
122
100
AcDbEntity
8
0
100
AcDbBlockBegin
2
DimnDraft3D6
70
0
10
0
20
0
30
0
3
DimnDraft3D6
0
MTEXT
5
11B
100
AcDbEntity
8
SK2
62
256
6
ByLayer
370
13
48
1
60
0
100
AcDbMText
10
-46.375163
20
22.34918
30
0
210
0
220
0
230
1
1
\W0.7317;6,000
40
3.5
41
0
44
1.084337
50
90
71
7
72
5
7
iso_b_vert
0
MTEXT
5
11C
100
AcDbEntity
8
SK2
62
256
6
ByLayer
370
13
48
1
60
0
100
AcDbMText
10
-46.375163
20
17.126524
30
0
210
0
220
0
230
1
1
%%c
40
3.5
41
0
44
1.084337
50
90
71
7
72
5
7
iso_b_vert
0
LINE
5
11D
100
AcDbEntity
8
SK2
62
256
6
ByLayer
370
13
48
1
60
0
100
AcDbLine
10
-37.5875
20
-3
30
0
11
-46.625163
21
-3
31
0
39
0
210
0
220
0
230
1
0
LINE
5
11E
100
AcDbEntity
8
SK2
62
256
6
ByLayer
370
13
48
1
60
0
100
AcDbLine
10
-37.5875
20
3
30
0
11
-46.625163
21
3
31
0
39
0
210
0
220
0
230
1
0
LINE
5
11F
100
AcDbEntity
8
SK2
62
256
6
ByLayer
370
13
48
1
60
0
100
AcDbLine
10
-44.625163
20
32.121549
30
0
11
-44.625163
21
-11.75
31
0
39
0
210
0
220
0
230
1
0
SOLID
5
120
100
AcDbEntity
8
SK2
62
256
6
ByLayer
370
13
48
1
60
0
100
AcDbTrace
10
-44.625163
20
-3
30
0
11
-44.164379
21
-6.499998
31
0
12
-45.085946
22
-6.500002
32
0
13
-44.625163
23
-3
33
0
39
0
210
0
220
0
230
1
0
SOLID
5
121
100
AcDbEntity
8
SK2
62
256
6
ByLayer
370
13
48
1
60
0
100
AcDbTrace
10
-44.625163
20
3
30
0
11
-45.085946
21
6.499998
31
0
12
-44.164379
22
6.500002
32
0
13
-44.625163
23
3
33
0
39
0
210
0
220
0
230
1
0
ENDBLK
5
123
100
AcDbEntity
8
0
100
AcDbBlockEnd
0
BLOCK
5
12D
100
AcDbEntity
8
0
100
AcDbBlockBegin
2
DimnDraft3D7
70
0
10
0
20
0
30
0
3
DimnDraft3D7
0
MTEXT
5
126
100
AcDbEntity
8
2
62
256
6
ByLayer
370
13
48
1
60
0
100
AcDbMText
10
48.333343
20
20.142266
30
0
210
0
220
0
230
1
1
\W0.7845;4,400
40
3.5
41
0
44
1.084337
50
90
71
7
72
5
7
iso_b_vert
0
MTEXT
5
127
100
AcDbEntity
8
2
62
256
6
ByLayer
370
13
48
1
60
0
100
AcDbMText
10
48.333343
20
14.91961
30
0
210
0
220
0
230
1
1
%%c
40
3.5
41
0
44
1.084337
50
90
71
7
72
5
7
iso_b_vert
0
LINE
5
128
100
AcDbEntity
8
2
62
256
6
ByLayer
370
13
48
1
60
0
100
AcDbLine
10
38.9474
20
-2.2
30
0
11
52.083343
21
-2.2
31
0
39
0
210
0
220
0
230
1
0
LINE
5
129
100
AcDbEntity
8
2
62
256
6
ByLayer
370
13
48
1
60
0
100
AcDbLine
10
38.9474
20
2.2
30
0
11
52.083343
21
2.2
31
0
39
0
210
0
220
0
230
1
0
LINE
5
12A
100
AcDbEntity
8
2
62
256
6
ByLayer
370
13
48
1
60
0
100
AcDbLine
10
50.083343
20
30.651477
30
0
11
50.083343
21
-10.95
31
0
39
0
210
0
220
0
230
1
0
SOLID
5
12B
100
AcDbEntity
8
2
62
256
6
ByLayer
370
13
48
1
60
0
100
AcDbTrace
10
50.083343
20
-2.2
30
0
11
50.544126
21
-5.699998
31
0
12
49.622559
22
-5.700002
32
0
13
50.083343
23
-2.2
33
0
39
0
210
0
220
0
230
1
0
SOLID
5
12C
100
AcDbEntity
8
2
62
256
6
ByLayer
370
13
48
1
60
0
100
AcDbTrace
10
50.083343
20
2.2
30
0
11
49.622559
21
5.699998
31
0
12
50.544126
22
5.700002
32
0
13
50.083343
23
2.2
33
0
39
0
210
0
220
0
230
1
0
ENDBLK
5
12E
100
AcDbEntity
8
0
100
AcDbBlockEnd
0
ENDSEC
0
SECTION
2
ENTITIES
0
ELLIPSE
5
99
100
AcDbEntity
8
1
62
256
6
ByLayer
370
13
48
1
60
0
100
AcDbEllipse
10
3.632192
20
-2.165085
30
0
11
-0.00356311514899865
21
0.099936500891491
31
0
210
0
220
0
230
1
40
0.516689
41
-0.0715183052289301
42
1.46586687657781
0
ELLIPSE
5
9A
100
AcDbEntity
8
1
62
256
6
ByLayer
370
13
48
1
60
0
100
AcDbEllipse
10
3.553799
20
-2.189408
30
0
11
0.0535249940592916
21
-0.0844693732127379
31
0
210
0
220
0
230
1
40
0.429242
41
3.10405082032696
42
-2.03216967389072
0
POINT
5
6C
100
AcDbEntity
8
81
62
256
6
ByLayer
370
18
48
1
60
0
100
AcDbPoint
10
38
20
0
30
0
39
0
210
0
220
0
230
1
50
360
0
POINT
5
6E
100
AcDbEntity
8
80
62
256
6
ByLayer
370
18
48
1
60
0
100
AcDbPoint
10
0
20
0
30
0
39
0
210
0
220
0
230
1
50
360
0
POINT
5
70
100
AcDbEntity
8
SK2
62
256
6
ByLayer
370
18
48
1
60
1
100
AcDbPoint
10
-36
20
-3
30
0
39
0
210
0
220
0
230
1
50
360
0
POINT
5
72
100
AcDbEntity
8
SK2
62
256
6
ByLayer
370
18
48
1
60
1
100
AcDbPoint
10
-36
20
3
30
0
39
0
210
0
220
0
230
1
50
360
0
POINT
5
73
100
AcDbEntity
8
2
62
256
6
ByLayer
370
18
48
1
60
1
100
AcDbPoint
10
37.3599
20
-2.2
30
0
39
0
210
0
220
0
230
1
50
360
0
POINT
5
75
100
AcDbEntity
8
2
62
256
6
ByLayer
370
18
48
1
60
1
100
AcDbPoint
10
37.3599
20
2.2
30
0
39
0
210
0
220
0
230
1
50
360
0
SPLINE
5
9B
100
AcDbEntity
8
1
62
256
6
ByLayer
370
18
48
1
60
0
100
AcDbSpline
70
4
71
3
72
22
73
18
40
0
40
0
40
0
40
0
40
0.114433232668305
40
0.191551102378166
40
0.240736885777592
40
0.290808773887926
40
0.341688474974338
40
0.434466460336728
40
0.533868659237017
40
0.595171599497007
40
0.659792509550374
40
0.722805461603892
40
0.782499537847983
40
0.83718443115431
40
0.886034475156317
40
0.950579155235423
40
1
40
1
40
1
40
1
41
1
10
14.6337706661001
20
-2.07577328255422
30
0
41
1
10
14.8415029848342
20
-2.07586060177709
30
0
41
1
10
15.1892647002792
20
-2.07600154142634
30
0
41
1
10
15.6267962818775
20
-2.07652930666578
30
0
41
1
10
15.9469139090092
20
-2.07647673447315
30
0
41
1
10
16.2197044888337
20
-2.07673801274285
30
0
41
1
10
16.5716655350483
20
-2.07786682285538
30
0
41
1
10
17.0132104827359
20
-2.07653511411638
30
0
41
1
10
17.4737396246655
20
-2.07788509509913
30
0
41
1
10
17.883097764552
20
-2.07881519935032
30
0
41
1
10
18.2263585497291
20
-2.07852285930087
30
0
41
1
10
18.5666938902606
20
-2.07698947020828
30
0
41
1
10
18.8889643035698
20
-2.07983229854852
30
0
41
1
10
19.1855384757605
20
-2.0803564028613
30
0
41
1
10
19.4907729612068
20
-2.07873261213774
30
0
41
1
10
19.7866239260984
20
-2.07773966071355
30
0
41
1
10
19.9936463093753
20
-2.07845097051185
30
0
41
1
10
20.0834218058171
20
-2.0789560104547
30
0
0
SPLINE
5
9C
100
AcDbEntity
8
1
62
256
6
ByLayer
370
18
48
1
60
0
100
AcDbSpline
70
4
71
3
72
18
73
14
40
0
40
0
40
0
40
0
40
0.0968829717809311
40
0.198303302932877
40
0.283747993383358
40
0.364886112811699
40
0.442061127179992
40
0.527433071164586
40
0.623090959526381
40
0.727819287214394
40
0.829655330109677
40
0.91489366105666
40
1
40
1
40
1
40
1
41
1
10
8.81151349476434
20
2.07233109790741
30
0
41
1
10
8.66364408053605
20
2.07181643794732
30
0
41
1
10
8.3609756881157
20
2.07116998217072
30
0
41
1
10
7.92755487186267
20
2.07146609770018
30
0
41
1
10
7.51874067211196
20
2.07275580553036
30
0
41
1
10
7.14643920574906
20
2.0719043671412
30
0
41
1
10
6.77436963482148
20
2.06980564213453
30
0
41
1
10
6.38010101240064
20
2.07017537988884
30
0
41
1
10
5.94376744224479
20
2.07129518861373
30
0
41
1
10
5.48226381799748
20
2.07028123503042
30
0
41
1
10
5.03678659432023
20
2.06969735544081
30
0
41
1
10
4.62089015016906
20
2.06934305635124
30
0
41
1
10
4.36147496905971
20
2.06974539408748
30
0
41
1
10
4.23238453677581
20
2.06950200712129
30
0
0
SPLINE
5
9D
100
AcDbEntity
8
1
62
256
6
ByLayer
370
18
48
1
60
0
100
AcDbSpline
70
4
71
1
72
4
73
2
40
0
40
0
40
1
40
1
41
1
10
37.0436271609931
20
-2.08922851038125
30
0
41
1
10
37.2622092307923
20
-2.08934704473853
30
0
0
SPLINE
5
9E
100
AcDbEntity
8
1
62
256
6
ByLayer
370
18
48
1
60
0
100
AcDbSpline
70
4
71
3
72
20
73
16
40
0
40
0
40
0
40
0
40
0.0587426272329535
40
0.135319702598293
40
0.193276353658335
40
0.258155584462542
40
0.328977808227101
40
0.40373761139692
40
0.480405127499834
40
0.553136139113123
40
0.701176592278397
40
0.845861473619067
40
0.903994757621542
40
0.961770126413327
40
1
40
1
40
1
40
1
41
1
10
20.0839214308684
20
2.07895760111953
30
0
41
1
10
19.9939794027768
20
2.07845139377596
30
0
41
1
10
19.7867904950163
20
2.07773955418736
30
0
41
1
10
19.490772964877
20
2.0787324855128
30
0
41
1
10
19.18553847423
20
2.08035651323579
30
0
41
1
10
18.8889643065036
20
2.07983191567985
30
0
41
1
10
18.5666938790338
20
2.07699104633428
30
0
41
1
10
18.2263585942351
20
2.07851657339799
30
0
41
1
10
17.8830975978587
20
2.07883875004691
30
0
41
1
10
17.4276371922103
20
2.07766148067776
30
0
41
1
10
16.8679907358857
20
2.07705070960301
30
0
41
1
10
16.3307599165537
20
2.07702961294044
30
0
41
1
10
15.9316869860772
20
2.07644221773427
30
0
41
1
10
15.6958881272325
20
2.07651752016247
30
0
41
1
10
15.5488881957037
20
2.07641024626028
30
0
41
1
10
15.4903444140353
20
2.07635728739675
30
0
0
SPLINE
5
9F
100
AcDbEntity
8
1
62
256
6
ByLayer
370
18
48
1
60
0
100
AcDbSpline
70
4
71
3
72
20
73
16
40
0
40
0
40
0
40
0
40
0.0761143763345814
40
0.167724082820015
40
0.234414672248727
40
0.304111261914767
40
0.384373815958877
40
0.462802054157235
40
0.534411009211501
40
0.632081937973453
40
0.725424754552272
40
0.773807437930646
40
0.824995526014445
40
0.914537810466026
40
1
40
1
40
1
40
1
41
1
10
3.63236989590891
20
-2.06460384313658
30
0
41
1
10
3.76141367430867
20
-2.06654228498587
30
0
41
1
10
4.04693159682074
20
-2.06982951881159
30
0
41
1
10
4.44991032427259
20
-2.06943431355785
30
0
41
1
10
4.84452764260919
20
-2.06955827747518
30
0
41
1
10
5.21914982819527
20
-2.06977571862012
30
0
41
1
10
5.61416901413924
20
-2.07079384912098
30
0
41
1
10
6.01246850191453
20
-2.07110734713316
30
0
41
1
10
6.44088377753428
20
-2.06998417875175
30
0
41
1
10
6.89508702822712
20
-2.07016683297684
30
0
41
1
10
7.30911936411752
20
-2.07258157901148
30
0
41
1
10
7.64277692643765
20
-2.07241100140973
30
0
41
1
10
7.96947114506997
20
-2.07140602974664
30
0
41
1
10
8.3608601686289
20
-2.07118040941671
30
0
41
1
10
8.66338769092687
20
-2.07181615583141
30
0
41
1
10
8.81112895016497
20
-2.07233028089871
30
0
0
SPLINE
5
A0
100
AcDbEntity
8
1
62
256
6
ByLayer
370
18
48
1
60
0
100
AcDbSpline
70
4
71
3
72
21
73
17
40
0
40
0
40
0
40
0
40
0.10846545367376
40
0.180379491387381
40
0.239207708212539
40
0.298567285674701
40
0.361554558395629
40
0.428613421833891
40
0.500194594623936
40
0.625019225255405
40
0.736647843961487
40
0.838246004148988
40
0.871662533978506
40
0.91841143522613
40
0.978493216036418
40
1
40
1
40
1
40
1
41
1
10
25.8851034558633
20
-2.08291829442737
30
0
41
1
10
26.0812992174147
20
-2.08307048419979
30
0
41
1
10
26.4075795007352
20
-2.08324339320328
30
0
41
1
10
26.8402927782054
20
-2.08387869467714
30
0
41
1
10
27.1841638933673
20
-2.08343961954628
30
0
41
1
10
27.5118868207276
20
-2.08367788532752
30
0
41
1
10
27.8545215371496
20
-2.08491875594797
30
0
41
1
10
28.219232611568
20
-2.08417393045139
30
0
41
1
10
28.6958447562985
20
-2.08461836890214
30
0
41
1
10
29.2530505305941
20
-2.08371981911222
30
0
41
1
10
29.8646123858156
20
-2.08660122211921
30
0
41
1
10
30.3106908580505
20
-2.08588640309759
30
0
41
1
10
30.6393340123855
20
-2.08535480261364
30
0
41
1
10
30.8930644364485
20
-2.08503546581767
30
0
41
1
10
31.1252378189192
20
-2.08541782837008
30
0
41
1
10
31.2727399286555
20
-2.08575526397911
30
0
41
1
10
31.3116174629085
20
-2.08585763954065
30
0
0
SPLINE
5
A1
100
AcDbEntity
8
1
62
256
6
ByLayer
370
18
48
1
60
0
100
AcDbSpline
70
4
71
3
72
22
73
18
40
0
40
0
40
0
40
0
40
0.0263024111538293
40
0.0990211545962529
40
0.196042103768952
40
0.257767245733273
40
0.319020835837212
40
0.383942734300326
40
0.454128516026994
40
0.528186807711438
40
0.605207721091484
40
0.691844516293776
40
0.773007827702423
40
0.849243173315541
40
0.921087812840756
40
0.992289330985281
40
1
40
1
40
1
40
1
41
1
10
31.3128368899289
20
2.08586050094729
30
0
41
1
10
31.273552971238
20
2.0857569687642
30
0
41
1
10
31.1256444233865
20
2.08541709962401
30
0
41
1
10
30.8326194086446
20
2.08495495648785
30
0
41
1
10
30.4866283905072
20
2.08560630545026
30
0
41
1
10
30.1581308634357
20
2.08615543800099
30
0
41
1
10
29.877233908048
20
2.08634807725932
30
0
41
1
10
29.583770642202
20
2.0844027232697
30
0
41
1
10
29.27114210465
20
2.08420166410889
30
0
41
1
10
28.9404434605678
20
2.08547801333242
30
0
41
1
10
28.5851533294764
20
2.08412502359172
30
0
41
1
10
28.2192328012108
20
2.08427619525477
30
0
41
1
10
27.8545214909932
20
2.0848938618953
30
0
41
1
10
27.5118868320036
20
2.0836839609625
30
0
41
1
10
27.1841638904857
20
2.08343805990387
30
0
41
1
10
26.9588526762274
20
2.08372711109467
30
0
41
1
10
26.8409136026215
20
2.08371650549682
30
0
41
1
10
26.8293895211119
20
2.08371409424041
30
0
0
SPLINE
5
A2
100
AcDbEntity
8
1
62
256
6
ByLayer
370
18
48
1
60
0
100
AcDbSpline
70
4
71
3
72
8
73
4
40
0
40
0
40
0
40
0
40
1
40
1
40
1
40
1
41
1
10
37.9997860084203
20
-0.0294524703915613
30
0
41
1
10
38.0000715254307
20
-0.0097987655522331
30
0
41
1
10
38.0000710885489
20
0.0098288385286196
30
0
41
1
10
37.9997860084204
20
0.0294524703913908
30
0
0
SPLINE
5
A3
100
AcDbEntity
8
1
62
256
6
ByLayer
370
18
48
1
60
0
100
AcDbSpline
70
4
71
3
72
10
73
6
40
0
40
0
40
0
40
0
40
0.5
40
0.5
40
1
40
1
40
1
40
1
41
1
10
37.8542212530566
20
0.593550332400184
30
0
41
1
10
37.8916360310849
20
0.517563498890553
30
0
41
1
10
37.9219696709586
20
0.440613270197645
30
0
41
1
10
37.968994527537
20
0.284856748930338
30
0
41
1
10
37.9857104228373
20
0.205594731803814
30
0
41
1
10
37.9960282093025
20
0.127188220738702
30
0
0
SPLINE
5
A4
100
AcDbEntity
8
1
62
256
6
ByLayer
370
18
48
1
60
0
100
AcDbSpline
70
4
71
3
72
14
73
10
40
0
40
0
40
0
40
0
40
0.25
40
0.25
40
0.5
40
0.5
40
0.75
40
0.75
40
1
40
1
40
1
40
1
41
1
10
37.2943037409022
20
-2.0885658218904
30
0
41
1
10
37.2978047369341
20
-2.08804857314155
30
0
41
1
10
37.3007114568845
20
-2.08900942898629
30
0
41
1
10
37.3049260458038
20
-2.0949896970821
30
0
41
1
10
37.3061941444693
20
-2.10005225907494
30
0
41
1
10
37.3058982516319
20
-2.11579053454596
30
0
41
1
10
37.3042348882975
20
-2.12658074504867
30
0
41
1
10
37.2977177503822
20
-2.15195379320954
30
0
41
1
10
37.2929334420575
20
-2.16625779315106
30
0
41
1
10
37.2876525689434
20
-2.17974911144071
30
0
0
SPLINE
5
A5
100
AcDbEntity
8
1
62
256
6
ByLayer
370
18
48
1
60
0
100
AcDbSpline
70
4
71
3
72
34
73
30
40
0
40
0
40
0
40
0
40
0.0346147120532432
40
0.0346147120532432
40
0.177148034184988
40
0.177148034184988
40
0.319681356316733
40
0.319681356316733
40
0.462214678448478
40
0.462214678448478
40
0.53348133951435
40
0.53348133951435
40
0.569114670047286
40
0.569114670047286
40
0.57802300268052
40
0.57802300268052
40
0.586931335313754
40
0.586931335313754
40
0.595839667946989
40
0.595839667946989
40
0.604748000580223
40
0.604748000580223
40
0.747281322711967
40
0.747281322711967
40
0.889814644843712
40
0.889814644843712
40
0.961081305909584
40
0.961081305909584
40
1
40
1
40
1
40
1
41
1
10
6.17744088740062
20
1.19695819028729
30
0
41
1
10
6.17744088740062
20
1.17674260443027
30
0
41
1
10
6.17744088740059
20
1.1556715094712
30
0
41
1
10
6.17744088740059
20
1.04362281369421
30
0
41
1
10
6.17744088740068
20
0.939210354419174
30
0
41
1
10
6.17744088740068
20
0.705903431786425
30
0
41
1
10
6.17744088740065
20
0.580013917805218
30
0
41
1
10
6.17744088740065
20
0.312014204506141
30
0
41
1
10
6.17744088740065
20
0.169584039223992
30
0
41
1
10
6.17744088740065
20
-0.0550937259441753
30
0
41
1
10
6.17744088740065
20
-0.131300455652848
30
0
41
1
10
6.17744088740065
20
-0.247530974394266
30
0
41
1
10
6.17744088740065
20
-0.286611517535135
30
0
41
1
10
6.17744088740065
20
-0.335781827368379
30
0
41
1
10
6.17744088740068
20
-0.345561389099487
30
0
41
1
10
6.17744088740068
20
-0.365448256523166
30
0
41
1
10
6.17744088740073
20
-0.376072804699959
30
0
41
1
10
6.17744088740073
20
-0.396072748205285
30
0
41
1
10
6.17744088740065
20
-0.405421420144052
30
0
41
1
10
6.17744088740065
20
-0.424579280600369
30
0
41
1
10
6.17744088740065
20
-0.434141082312209
30
0
41
1
10
6.17744088740065
20
-0.596398799792127
30
0
41
1
10
6.17744088740062
20
-0.744055008289678
30
0
41
1
10
6.17744088740062
20
-1.02407454737465
30
0
41
1
10
6.17744088740062
20
-1.15431544328106
30
0
41
1
10
6.17744088740062
20
-1.33381333251208
30
0
41
1
10
6.17744088740065
20
-1.39119428245056
30
0
41
1
10
6.17744088740065
20
-1.47466408727749
30
0
41
1
10
6.17744088740065
20
-1.50298511351139
30
0
41
1
10
6.17744088740065
20
-1.53013456435099
30
0
0
SPLINE
5
A6
100
AcDbEntity
8
1
62
256
6
ByLayer
370
18
48
1
60
0
100
AcDbSpline
70
4
71
3
72
54
73
50
40
0
40
0
40
0
40
0
40
0.0625000000000306
40
0.0625000000000306
40
0.125000000000061
40
0.125000000000061
40
0.187500000000092
40
0.187500000000092
40
0.218750000000107
40
0.218750000000107
40
0.250000000000123
40
0.250000000000123
40
0.281250000000138
40
0.281250000000138
40
0.312500000000153
40
0.312500000000153
40
0.328125000000161
40
0.328125000000161
40
0.343750000000169
40
0.343750000000169
40
0.375000000000184
40
0.375000000000184
40
0.4062500000002
40
0.4062500000002
40
0.437500000000216
40
0.437500000000216
40
0.453125000000223
40
0.453125000000223
40
0.468750000000231
40
0.468750000000231
40
0.472656250000231
40
0.472656250000231
40
0.476562500000231
40
0.476562500000231
40
0.480468750000231
40
0.480468750000231
40
0.484375000000231
40
0.484375000000231
40
0.500000000000225
40
0.500000000000225
40
0.625000000000169
40
0.625000000000169
40
0.687500000000141
40
0.687500000000141
40
0.750000000000113
40
0.750000000000113
40
0.875000000000056
40
0.875000000000056
40
1
40
1
40
1
40
1
41
1
10
3.42533692666208
20
-0.0145996093804968
30
0
41
1
10
3.30772062296256
20
0.0678423681984555
30
0
41
1
10
3.19135027289912
20
0.151506064239783
30
0
41
1
10
2.96202989861345
20
0.322399618220601
30
0
41
1
10
2.8490493820957
20
0.409592988731021
30
0
41
1
10
2.62844802017054
20
0.589878381191937
30
0
41
1
10
2.52094202264578
20
0.682781445439872
30
0
41
1
10
2.37015728973711
20
0.827665982848998
30
0
41
1
10
2.32145431378672
20
0.877132186871251
30
0
41
1
10
2.23021138562575
20
0.977727968368555
30
0
41
1
10
2.18749891108621
20
1.02895492791626
30
0
41
1
10
2.11075350678379
20
1.13451814072044
30
0
41
1
10
2.07648142419708
20
1.18935328815476
30
0
41
1
10
2.02455703452358
20
1.29976939190848
30
0
41
1
10
2.00661453762069
20
1.35661977239556
30
0
41
1
10
1.99895466585792
20
1.4382866621855
30
0
41
1
10
1.99950667095925
20
1.46503943682401
30
0
41
1
10
2.0075583470425
20
1.51759935244812
30
0
41
1
10
2.01510085503151
20
1.54306369051068
30
0
41
1
10
2.04707761671244
20
1.61466373847952
30
0
41
1
10
2.08180343639393
20
1.65757334104535
30
0
41
1
10
2.16642140571338
20
1.73070472168632
30
0
41
1
10
2.21697179128114
20
1.76206715685871
30
0
41
1
10
2.32575746152546
20
1.81610093978048
30
0
41
1
10
2.38384106867915
20
1.83885235950896
30
0
41
1
10
2.47474140630035
20
1.86894260835351
30
0
41
1
10
2.5056845063863
20
1.87828130307895
30
0
41
1
10
2.56868027987298
20
1.89581290904945
30
0
41
1
10
2.60099489165316
20
1.90376058676458
30
0
41
1
10
2.64104643995381
20
1.91378943435347
30
0
41
1
10
2.64917703958457
20
1.91565208187879
30
0
41
1
10
2.66667922831749
20
1.91802586815154
30
0
41
1
10
2.67615392711105
20
1.91859374872277
30
0
41
1
10
2.6946436853537
20
1.91880810928899
30
0
41
1
10
2.70378928262841
20
1.91840762242222
30
0
41
1
10
2.72210210026654
20
1.9177163412173
30
0
41
1
10
2.73124968403317
20
1.91732514946213
30
0
41
1
10
2.7770005213516
20
1.91543329157224
30
0
41
1
10
2.81359213272063
20
1.91386740050459
30
0
41
1
10
3.14261462295303
20
1.89814097600822
30
0
41
1
10
3.43269685413611
20
1.87532614574312
30
0
41
1
10
3.86182153240585
20
1.82506461152434
30
0
41
1
10
4.00400243139154
20
1.805595913069
30
0
41
1
10
4.28675924650543
20
1.76057089152968
30
0
41
1
10
4.42748457434789
20
1.73497579488227
30
0
41
1
10
4.84464949838451
20
1.64855836694269
30
0
41
1
10
5.11692536588913
20
1.57795073316987
30
0
41
1
10
5.65272077679006
20
1.40843409845249
30
0
41
1
10
5.91624237890679
20
1.30947812375626
30
0
41
1
10
6.17744088740059
20
1.19695819027129
30
0
0
SPLINE
5
A7
100
AcDbEntity
8
1
62
256
6
ByLayer
370
18
48
1
60
0
100
AcDbSpline
70
4
71
3
72
10
73
6
40
0
40
0
40
0
40
0
40
0.5
40
0.5
40
1
40
1
40
1
40
1
41
1
10
37.175587459624
20
0.597161674448074
30
0
41
1
10
37.2889414178717
20
0.595309241659834
30
0
41
1
10
37.4020951863857
20
0.594464942335009
30
0
41
1
10
37.6282906160055
20
0.593340904253466
30
0
41
1
10
37.7413341686399
20
0.593051639966404
30
0
41
1
10
37.8542212530566
20
0.593550332400184
30
0
0
SPLINE
5
A8
100
AcDbEntity
8
1
62
256
6
ByLayer
370
18
48
1
60
0
100
AcDbSpline
70
4
71
3
72
8
73
4
40
0
40
0
40
0
40
0
40
1
40
1
40
1
40
1
41
1
10
37.9778648298641
20
-0.0303119943156673
30
0
41
1
10
37.8868600541288
20
-0.173599878728652
30
0
41
1
10
37.7931386195211
20
-0.314087527630676
30
0
41
1
10
37.6975405222901
20
-0.452640779331233
30
0
0
SPLINE
5
A9
100
AcDbEntity
8
1
62
256
6
ByLayer
370
18
48
1
60
0
100
AcDbSpline
70
4
71
3
72
30
73
26
40
0
40
0
40
0
40
0
40
0.0624999999999999
40
0.0624999999999999
40
0.125
40
0.125
40
0.1875
40
0.1875
40
0.25
40
0.25
40
0.3125
40
0.3125
40
0.375
40
0.375
40
0.5
40
0.5
40
0.5625
40
0.5625
40
0.625
40
0.625
40
0.75
40
0.75
40
0.875
40
0.875
40
1
40
1
40
1
40
1
41
1
10
35.1989950530736
20
0.983725220641276
30
0
41
1
10
35.1838573464032
20
0.922407230690055
30
0
41
1
10
35.1731786684262
20
0.858766599672521
30
0
41
1
10
35.1615431573335
20
0.726421374682531
30
0
41
1
10
35.1607425468842
20
0.658264644213261
30
0
41
1
10
35.1689936253679
20
0.52213762037843
30
0
41
1
10
35.1779816388915
20
0.453577588361981
30
0
41
1
10
35.2053940164219
20
0.315493953642459
30
0
41
1
10
35.223879052311
20
0.246125315829829
30
0
41
1
10
35.2683379815802
20
0.110994085450528
30
0
41
1
10
35.2944181940297
20
0.0446221462794369
30
0
41
1
10
35.3534520310495
20
-0.085991073913334
30
0
41
1
10
35.3863742015847
20
-0.150044231156869
30
0
41
1
10
35.4917252709528
20
-0.334868632307348
30
0
41
1
10
35.5713897543744
20
-0.450129290521403
30
0
41
1
10
35.7016965533226
20
-0.613900793633377
30
0
41
1
10
35.7470797827385
20
-0.667041493877605
30
0
41
1
10
35.8396628140053
20
-0.768814741662879
30
0
41
1
10
35.8870385032482
20
-0.817677687395673
30
0
41
1
10
36.0320389519711
20
-0.958903178437396
30
0
41
1
10
36.1324883240954
20
-1.04599340677851
30
0
41
1
10
36.3393864349631
20
-1.20897566873154
30
0
41
1
10
36.4462580192666
20
-1.28505682412569
30
0
41
1
10
36.6630619627642
20
-1.42584232991013
30
0
41
1
10
36.7729504060425
20
-1.49059113251462
30
0
41
1
10
36.8841579398205
20
-1.55033151009531
30
0
0
SPLINE
5
AA
100
AcDbEntity
8
1
62
256
6
ByLayer
370
18
48
1
60
0
100
AcDbSpline
70
4
71
3
72
30
73
26
40
0
40
0
40
0
40
0
40
0.0633348643243273
40
0.0633348643243273
40
0.126669728648655
40
0.126669728648655
40
0.253339457297309
40
0.253339457297309
40
0.316674321621636
40
0.316674321621636
40
0.380009185945964
40
0.380009185945964
40
0.506678914594618
40
0.506678914594618
40
0.570013778918947
40
0.570013778918947
40
0.633348643243275
40
0.633348643243275
40
0.760018371891933
40
0.760018371891933
40
0.886688100540592
40
0.886688100540592
40
0.950022964864921
40
0.950022964864921
40
1
40
1
40
1
40
1
41
1
10
6.17744088740062
20
1.19695819027126
30
0
41
1
10
6.3408253750805
20
1.1123317737746
30
0
41
1
10
6.50418521986938
20
1.02578751193005
30
0
41
1
10
6.83007462797559
20
0.84799429678722
30
0
41
1
10
6.99235885646843
20
0.756359849313753
30
0
41
1
10
7.47702103322206
20
0.472800358175135
30
0
41
1
10
7.80172947042547
20
0.279562771404301
30
0
41
1
10
8.2892999626572
20
-0.0199254231619648
30
0
41
1
10
8.45352231449635
20
-0.120031996334973
30
0
41
1
10
8.78136164889366
20
-0.31763917165236
30
0
41
1
10
8.94430470601006
20
-0.415453674813847
30
0
41
1
10
9.43023143343675
20
-0.705822977124512
30
0
41
1
10
9.75456289921584
20
-0.888537234776919
30
0
41
1
10
10.2397112303603
20
-1.14933920937656
30
0
41
1
10
10.4022274068482
20
-1.23249737157872
30
0
41
1
10
10.7290979878025
20
-1.39098650573624
30
0
41
1
10
10.8937010735012
20
-1.46696365682826
30
0
41
1
10
11.3824099556022
20
-1.68047577268942
30
0
41
1
10
11.707274101172
20
-1.79991726859879
30
0
41
1
10
12.3527092094602
20
-1.9967039000498
30
0
41
1
10
12.6777294245167
20
-2.07037912464307
30
0
41
1
10
13.1669738235366
20
-2.14379499821044
30
0
41
1
10
13.3313987338939
20
-2.16145469763799
30
0
41
1
10
13.6233889901351
20
-2.18078943872007
30
0
41
1
10
13.7516620296783
20
-2.18515525443186
30
0
41
1
10
13.8794303545719
20
-2.18531217561485
30
0
0
SPLINE
5
AB
100
AcDbEntity
8
1
62
256
6
ByLayer
370
18
48
1
60
0
100
AcDbSpline
70
4
71
3
72
66
73
62
40
0
40
0
40
0
40
0
40
0.0211554594238663
40
0.0211554594238663
40
0.0561842387144649
40
0.0561842387144649
40
0.0736986283597642
40
0.0736986283597642
40
0.0912130180050635
40
0.0912130180050635
40
0.126241797295663
40
0.126241797295663
40
0.161270576586262
40
0.161270576586262
40
0.196299355876862
40
0.196299355876862
40
0.231328135167462
40
0.231328135167462
40
0.266356914458061
40
0.266356914458061
40
0.30138569374866
40
0.30138569374866
40
0.33641447303926
40
0.33641447303926
40
0.37144325232986
40
0.37144325232986
40
0.406472031620459
40
0.406472031620459
40
0.441500810911059
40
0.441500810911059
40
0.476529590201658
40
0.476529590201658
40
0.511558369492257
40
0.511558369492257
40
0.546587148782857
40
0.546587148782857
40
0.581615928073457
40
0.581615928073457
40
0.616644707364056
40
0.616644707364056
40
0.651673486654656
40
0.651673486654656
40
0.686702265945255
40
0.686702265945255
40
0.721731045235855
40
0.721731045235855
40
0.756759824526454
40
0.756759824526454
40
0.791788603817054
40
0.791788603817054
40
0.826817383107653
40
0.826817383107653
40
0.861846162398253
40
0.861846162398253
40
0.896874941688852
40
0.896874941688852
40
0.931903720979452
40
0.931903720979452
40
0.966932500270051
40
0.966932500270051
40
1
40
1
40
1
40
1
41
1
10
22.4667326573788
20
1.61107020903373
30
0
41
1
10
22.5643876399504
20
1.6515561531854
30
0
41
1
10
22.6619261687899
20
1.6903650683833
30
0
41
1
10
22.9208202096743
20
1.78870767365376
30
0
41
1
10
23.0829722599219
20
1.84424538726935
30
0
41
1
10
23.3272192294497
20
1.91908632423596
30
0
41
1
10
23.4087815056812
20
1.9426382917579
30
0
41
1
10
23.5721264488958
20
1.98694930719563
30
0
41
1
10
23.6539697744031
20
2.00781548612738
30
0
41
1
10
23.8988936356794
20
2.06541344671126
30
0
41
1
10
24.0618121528335
20
2.09683853370615
30
0
41
1
10
24.3867695690668
20
2.14662488025127
30
0
41
1
10
24.5484912410447
20
2.165084562152
30
0
41
1
10
24.8710448675047
20
2.18868068635624
30
0
41
1
10
25.0327587739138
20
2.19367521956636
30
0
41
1
10
25.356896135914
20
2.19041604360177
30
0
41
1
10
25.5190439220377
20
2.18213356238309
30
0
41
1
10
25.8439679524591
20
2.15164344755851
30
0
41
1
10
26.0083517424471
20
2.12957906947716
30
0
41
1
10
26.3353575854264
20
2.07276759756448
30
0
41
1
10
26.4977717732734
20
2.03787911373252
30
0
41
1
10
26.8211090849492
20
1.95545469884453
30
0
41
1
10
26.9829043982959
20
1.9085547644703
30
0
41
1
10
27.3065620203645
20
1.80365583477408
30
0
41
1
10
27.4681477547945
20
1.74539034097614
30
0
41
1
10
27.7913184996611
20
1.61726816307541
30
0
41
1
10
27.9538606011086
20
1.54846536929682
30
0
41
1
10
28.2806289336727
20
1.40121586298355
30
0
41
1
10
28.4448371046599
20
1.32213899444122
30
0
41
1
10
28.7699004119889
20
1.15655461484673
30
0
41
1
10
28.9322330621439
20
1.07103322507632
30
0
41
1
10
29.2563230831196
20
0.894508361317321
30
0
41
1
10
29.4177979703741
20
0.803072665738512
30
0
41
1
10
29.7401381222046
20
0.614544829980531
30
0
41
1
10
29.9019535210975
20
0.518955711983779
30
0
41
1
10
30.2266099998315
20
0.324798178238467
30
0
41
1
10
30.3891350277858
20
0.225696675405089
30
0
41
1
10
30.7153247918474
20
0.0244394752870676
30
0
41
1
10
30.8793375024406
20
-0.0758827398880442
30
0
41
1
10
31.2049719850311
20
-0.273845331306632
30
0
41
1
10
31.3668892018988
20
-0.372332710287395
30
0
41
1
10
31.6895066410476
20
-0.567293620407327
30
0
41
1
10
31.8511482869124
20
-0.662245478923239
30
0
41
1
10
32.1748085284082
20
-0.84768008719584
30
0
41
1
10
32.3365140859256
20
-0.938640881171892
30
0
41
1
10
32.6603962205459
20
-1.11577567060965
30
0
41
1
10
32.8234405565785
20
-1.20066327189892
30
0
41
1
10
33.1515421737847
20
-1.36336681534857
30
0
41
1
10
33.3143907232713
20
-1.44062617624928
30
0
41
1
10
33.6382160915997
20
-1.58606429569824
30
0
41
1
10
33.8001441624344
20
-1.65313495826589
30
0
41
1
10
34.1237424836565
20
-1.77679116949167
30
0
41
1
10
34.285097469144
20
-1.83367150885385
30
0
41
1
10
34.6076548364875
20
-1.9364936183772
30
0
41
1
10
34.7697210095454
20
-1.98172505790177
30
0
41
1
10
35.0952085018904
20
-2.06013976751248
30
0
41
1
10
35.2587676039806
20
-2.09355856768926
30
0
41
1
10
35.5852547020161
20
-2.14724503424733
30
0
41
1
10
35.7486873197444
20
-2.16708324374091
30
0
41
1
10
36.0664603460677
20
-2.19263305410604
30
0
41
1
10
36.220487331415
20
-2.19909850854117
30
0
41
1
10
36.3746227666288
20
-2.19936681215759
30
0
0
SPLINE
5
AC
100
AcDbEntity
8
1
62
256
6
ByLayer
370
18
48
1
60
0
100
AcDbSpline
70
4
71
3
72
38
73
34
40
0
40
0
40
0
40
0
40
0.125000000000003
40
0.125000000000003
40
0.187500000000005
40
0.187500000000005
40
0.250000000000007
40
0.250000000000007
40
0.312500000000008
40
0.312500000000008
40
0.37500000000001
40
0.37500000000001
40
0.406250000000011
40
0.406250000000011
40
0.437500000000012
40
0.437500000000012
40
0.468750000000013
40
0.468750000000013
40
0.500000000000014
40
0.500000000000014
40
0.531250000000015
40
0.531250000000015
40
0.562500000000016
40
0.562500000000016
40
0.625000000000018
40
0.625000000000018
40
0.68750000000002
40
0.68750000000002
40
0.750000000000022
40
0.750000000000022
40
0.875000000000011
40
0.875000000000011
40
1
40
1
40
1
40
1
41
1
10
37.3396998366387
20
-0.952579642485802
30
0
41
1
10
37.2627448902662
20
-0.922853965510086
30
0
41
1
10
37.1869158013332
20
-0.887091942398712
30
0
41
1
10
37.0751581477213
20
-0.82280096866026
30
0
41
1
10
37.0382413072905
20
-0.799570712439191
30
0
41
1
10
36.9652554000524
20
-0.748564815425453
30
0
41
1
10
36.9293761102691
20
-0.720909256733023
30
0
41
1
10
36.8608608023733
20
-0.661003522972379
30
0
41
1
10
36.8279760359532
20
-0.628720171758857
30
0
41
1
10
36.7669476267329
20
-0.556105385205825
30
0
41
1
10
36.7385145290435
20
-0.515781761820847
30
0
41
1
10
36.7088714297538
20
-0.447827691172847
30
0
41
1
10
36.7014270845536
20
-0.424064219923594
30
0
41
1
10
36.6952821015226
20
-0.376621082081527
30
0
41
1
10
36.6969296267084
20
-0.35305700293074
30
0
41
1
10
36.7100693843573
20
-0.312344175153555
30
0
41
1
10
36.7212666533404
20
-0.295201385092412
30
0
41
1
10
36.7485716226925
20
-0.26756681563063
30
0
41
1
10
36.7642802677638
20
-0.257145791253009
30
0
41
1
10
36.797775108218
20
-0.240499648653895
30
0
41
1
10
36.8156646888385
20
-0.234300688423303
30
0
41
1
10
36.8523206614444
20
-0.224952635870039
30
0
41
1
10
36.8707841888474
20
-0.221856323043255
30
0
41
1
10
36.9269542867656
20
-0.215677966929491
30
0
41
1
10
36.9651653290338
20
-0.215724010477885
30
0
41
1
10
37.0425286831393
20
-0.220945347196476
30
0
41
1
10
37.081761114647
20
-0.226222625632119
30
0
41
1
10
37.1596423968908
20
-0.240450405506095
30
0
41
1
10
37.1984813127343
20
-0.249427274488994
30
0
41
1
10
37.3147521123001
20
-0.280862129671533
30
0
41
1
10
37.3919438906006
20
-0.307717364785191
30
0
41
1
10
37.5457562812756
20
-0.371888068392849
30
0
41
1
10
37.6225423873351
20
-0.409300147463767
30
0
41
1
10
37.6975405222901
20
-0.452640779331233
30
0
0
SPLINE
5
AD
100
AcDbEntity
8
1
62
256
6
ByLayer
370
18
48
1
60
0
100
AcDbSpline
70
4
71
3
72
16
73
12
40
0
40
0
40
0
40
0
40
0.271581618988225
40
0.271581618988225
40
0.407372428482334
40
0.407372428482334
40
0.543163237976443
40
0.543163237976443
40
0.814744856964654
40
0.814744856964654
40
1
40
1
40
1
40
1
41
1
10
36.8841579398205
20
-1.55033151009531
30
0
41
1
10
36.9164011889588
20
-1.64129729796747
30
0
41
1
10
36.9496388390589
20
-1.72106360147586
30
0
41
1
10
37.0006569897994
20
-1.8246297648918
30
0
41
1
10
37.0178613919451
20
-1.8564510561888
30
0
41
1
10
37.0526630231697
20
-1.91457487683817
30
0
41
1
10
37.0702851064603
20
-1.94087247201142
30
0
41
1
10
37.1226531868523
20
-2.00980327249192
30
0
41
1
10
37.1572597160652
20
-2.04322426204348
30
0
41
1
10
37.215208707798
20
-2.0785056150286
30
0
41
1
10
37.2387140351306
20
-2.08694778787373
30
0
41
1
10
37.2619735222463
20
-2.08928967630121
30
0
0
SPLINE
5
AE
100
AcDbEntity
8
1
62
256
6
ByLayer
370
13
48
1
60
0
100
AcDbSpline
70
4
71
3
72
28
73
24
40
0
40
0
40
0
40
0
40
0.118014965958815
40
0.118014965958815
40
0.177022448938223
40
0.177022448938223
40
0.236029931917631
40
0.236029931917631
40
0.354044897876446
40
0.354044897876446
40
0.413052380855854
40
0.413052380855854
40
0.472059863835261
40
0.472059863835261
40
0.708089795752899
40
0.708089795752899
40
0.767097278732307
40
0.767097278732307
40
0.826104761711715
40
0.826104761711715
40
0.94411972767053
40
0.94411972767053
40
1
40
1
40
1
40
1
41
1
10
37.2943037409203
20
-2.08856582189003
30
0
41
1
10
36.9427526178272
20
-2.09603297603371
30
0
41
1
10
36.5925190907047
20
-2.07309927472682
30
0
41
1
10
36.0640517105654
20
-1.99416055453511
30
0
41
1
10
35.8874115236429
20
-1.96036279692845
30
0
41
1
10
35.5370807003409
20
-1.87957913276708
30
0
41
1
10
35.362726550475
20
-1.83248751667432
30
0
41
1
10
34.8406926126904
20
-1.67269127883682
30
0
41
1
10
34.4940604289396
20
-1.54150436902356
30
0
41
1
10
33.9707529286203
20
-1.3135561966462
30
0
41
1
10
33.795721994961
20
-1.23238377958924
30
0
41
1
10
33.4436829349009
20
-1.06063192283037
30
0
41
1
10
33.2670804935324
20
-0.970294277338354
30
0
41
1
10
32.3915184335449
20
-0.5069807034142
30
0
41
1
10
31.7034890926026
20
-0.0933227760536965
30
0
41
1
10
30.8224379568743
20
0.414528714053603
30
0
41
1
10
30.6461222829413
20
0.51507790498016
30
0
41
1
10
30.2957701044984
20
0.710198922101085
30
0
41
1
10
30.121187056972
20
0.805080676025113
30
0
41
1
10
29.5978818972878
20
1.07955144105347
30
0
41
1
10
29.2501935115121
20
1.25012324651391
30
0
41
1
10
28.7328442847772
20
1.47273199866291
30
0
41
1
10
28.5652407099991
20
1.54009011181012
30
0
41
1
10
28.3985470449733
20
1.6021303620104
30
0
0
SPLINE
5
AF
100
AcDbEntity
8
1
62
256
6
ByLayer
370
18
48
1
60
0
100
AcDbSpline
70
4
71
3
72
12
73
8
40
0
40
0
40
0
40
0
40
0.189585810646463
40
0.189585810646463
40
0.984488278800716
40
0.984488278800716
40
1
40
1
40
1
40
1
41
1
10
14.6652151671465
20
-2.0757957889941
30
0
41
1
10
14.4973997584138
20
-2.07573756175043
30
0
41
1
10
14.3283713204837
20
-2.06878006449429
30
0
41
1
10
13.4557814557212
20
-1.99739541683579
30
0
41
1
10
12.7651020090838
20
-1.82154293085981
30
0
41
1
10
12.0439942693407
20
-1.54345613992933
30
0
41
1
10
12.0301972316342
20
-1.53810091439573
30
0
41
1
10
12.0164053562302
20
-1.53271356012709
30
0
0
SPLINE
5
B0
100
AcDbEntity
8
1
62
256
6
ByLayer
370
13
48
1
60
0
100
AcDbSpline
70
4
71
3
72
22
73
18
40
0
40
0
40
0
40
0
40
0.168164840532466
40
0.168164840532466
40
0.343159364886151
40
0.343159364886151
40
0.430656627062995
40
0.430656627062995
40
0.518153889239838
40
0.518153889239838
40
0.693148413593526
40
0.693148413593526
40
0.780645675770372
40
0.780645675770372
40
0.868142937947217
40
0.868142937947217
40
1
40
1
40
1
40
1
41
1
10
12.0164053563838
20
-1.53271356018706
30
0
41
1
10
11.6768129857759
20
-1.40006268032374
30
0
41
1
10
11.3403503867763
20
-1.24793297231341
30
0
41
1
10
10.6555055457491
20
-0.909338969266969
30
0
41
1
10
10.3066867877117
20
-0.721638047477825
30
0
41
1
10
9.77878211240946
20
-0.425782096860758
30
0
41
1
10
9.60146664741768
20
-0.32446127602168
30
0
41
1
10
9.24941027120929
20
-0.121834681830904
30
0
41
1
10
9.07416098565432
20
-0.020266910810733
30
0
41
1
10
8.54946768558497
20
0.282957216683769
30
0
41
1
10
8.20117583080588
20
0.483327168499727
30
0
41
1
10
7.67502451524703
20
0.770861657808325
30
0
41
1
10
7.49896242100866
20
0.864632124514742
30
0
41
1
10
7.14511087856184
20
1.04615208814963
30
0
41
1
10
6.9692488850786
20
1.13283558111351
30
0
41
1
10
6.52982687500759
20
1.33867258083362
30
0
41
1
10
6.2669305481457
20
1.45186775668933
30
0
41
1
10
6.00364404806166
20
1.55246862577437
30
0
0
SPLINE
5
B1
100
AcDbEntity
8
1
62
256
6
ByLayer
370
18
48
1
60
0
100
AcDbSpline
70
4
71
3
72
38
73
34
40
0
40
0
40
0
40
0
40
0.0911542627136163
40
0.0911542627136163
40
0.136731394070426
40
0.136731394070426
40
0.182308525427235
40
0.182308525427235
40
0.273462788140854
40
0.273462788140854
40
0.319039919497664
40
0.319039919497664
40
0.364617050854473
40
0.364617050854473
40
0.455771313568092
40
0.455771313568092
40
0.5013484449249
40
0.5013484449249
40
0.546925576281708
40
0.546925576281708
40
0.638079838995324
40
0.638079838995324
40
0.683656970352131
40
0.683656970352131
40
0.729234101708938
40
0.729234101708938
40
0.820388364422554
40
0.820388364422554
40
0.865965495779362
40
0.865965495779362
40
0.91154262713617
40
0.91154262713617
40
1
40
1
40
1
40
1
41
1
10
37.2830158176207
20
-2.19158548095234
30
0
41
1
10
36.9307252054249
20
-2.21026261842894
30
0
41
1
10
36.5805299594722
20
-2.19683651498281
30
0
41
1
10
36.052871084634
20
-2.12988639292453
30
0
41
1
10
35.8766269701771
20
-2.09973449610968
30
0
41
1
10
35.5223880080215
20
-2.02379552862794
30
0
41
1
10
35.3459030994449
20
-1.97839288364187
30
0
41
1
10
34.818151819883
20
-1.82184383851825
30
0
41
1
10
34.4679818155673
20
-1.69025310261318
30
0
41
1
10
33.9392394542823
20
-1.4579021858554
30
0
41
1
10
33.7616971421011
20
-1.3742766253049
30
0
41
1
10
33.4085030008406
20
-1.19829370324206
30
0
41
1
10
33.2328774177859
20
-1.10610740238832
30
0
41
1
10
32.7072492201949
20
-0.819583768271912
30
0
41
1
10
32.3584548070733
20
-0.615372311044723
30
0
41
1
10
31.8322300735507
20
-0.297760242989938
30
0
41
1
10
31.6562352786246
20
-0.190133332502683
30
0
41
1
10
31.3019756941371
20
0.0269141477369033
30
0
41
1
10
31.1252168775764
20
0.135429521418786
30
0
41
1
10
30.5983040125888
20
0.45685150584066
30
0
41
1
10
30.2496266744683
20
0.665838631993523
30
0
41
1
10
29.7241196510396
20
0.961361210235481
30
0
41
1
10
29.5486989909831
20
1.05712803603521
30
0
41
1
10
29.1962968889022
20
1.24145415704757
30
0
41
1
10
29.0185029692064
20
1.32997715308233
30
0
41
1
10
28.4891939425762
20
1.57768523275828
30
0
41
1
10
28.1400524852564
20
1.72082867145181
30
0
41
1
10
27.6152894792388
20
1.89611064851957
30
0
41
1
10
27.4403077882888
20
1.94807247346142
30
0
41
1
10
27.0890056273067
20
2.03787410794317
30
0
41
1
10
26.912408409189
20
2.07574519435499
30
0
41
1
10
26.3910623277485
20
2.16461157086698
30
0
41
1
10
26.0511776226073
20
2.1934697534646
30
0
41
1
10
25.7117171236872
20
2.19274269313948
30
0
0
SPLINE
5
B2
100
AcDbEntity
8
1
62
256
6
ByLayer
370
18
48
1
60
0
100
AcDbSpline
70
4
71
3
72
40
73
36
40
0
40
0
40
0
40
0
40
0.0280966565442547
40
0.0280966565442547
40
0.0722740812467893
40
0.0722740812467893
40
0.116451505949324
40
0.116451505949324
40
0.204806355354393
40
0.204806355354393
40
0.248983780056928
40
0.248983780056928
40
0.293161204759462
40
0.293161204759462
40
0.381516054164531
40
0.381516054164531
40
0.425693478867065
40
0.425693478867065
40
0.469870903569599
40
0.469870903569599
40
0.558225752974666
40
0.558225752974666
40
0.602403177677198
40
0.602403177677198
40
0.646580602379731
40
0.646580602379731
40
0.734935451784798
40
0.734935451784798
40
0.779112876487331
40
0.779112876487331
40
0.823290301189864
40
0.823290301189864
40
0.911645150594932
40
0.911645150594932
40
1
40
1
40
1
40
1
41
1
10
15.4712232092713
20
-2.1015629244142
30
0
41
1
10
15.3591915454389
20
-2.1203603828703
30
0
41
1
10
15.2468414255013
20
-2.1361182434799
30
0
41
1
10
14.9566536334596
20
-2.16854260674455
30
0
41
1
10
14.7797629626565
20
-2.1803782800331
30
0
41
1
10
14.428022958881
20
-2.18813433567897
30
0
41
1
10
14.2527967311303
20
-2.18408723892247
30
0
41
1
10
13.7274941165824
20
-2.14863319940474
30
0
41
1
10
13.377855488643
20
-2.09393116057504
30
0
41
1
10
12.848272741801
20
-1.96667434302231
30
0
41
1
10
12.6703077891987
20
-1.91645202173728
30
0
41
1
10
12.3171769433192
20
-1.80321956009382
30
0
41
1
10
12.1414502923774
20
-1.74015187486714
30
0
41
1
10
11.6153295232909
20
-1.53344710942696
30
0
41
1
10
11.2661703473108
20
-1.37210107191015
30
0
41
1
10
10.7385168160069
20
-1.10228419233226
30
0
41
1
10
10.5617236632035
20
-1.00764401810031
30
0
41
1
10
10.2066907562779
20
-0.810892919822351
30
0
41
1
10
10.0303534216079
20
-0.709705471290476
30
0
41
1
10
9.50310767739481
20
-0.400637060833049
30
0
41
1
10
9.15381649476765
20
-0.187499111490865
30
0
41
1
10
8.62733084668523
20
0.133098972949625
30
0
41
1
10
8.45149383966759
20
0.240255175942252
30
0
41
1
10
8.09786364385519
20
0.45303357015348
30
0
41
1
10
7.91984882693853
20
0.558739099414936
30
0
41
1
10
7.3904261285243
20
0.865691240663807
30
0
41
1
10
7.04084542230066
20
1.05894896308169
30
0
41
1
10
6.51534583802265
20
1.32285898478401
30
0
41
1
10
6.3399603904781
20
1.40645504455273
30
0
41
1
10
5.98764599539936
20
1.5633468368496
30
0
41
1
10
5.81011742822503
20
1.63687751094784
30
0
41
1
10
5.27812785061857
20
1.83839864277331
30
0
41
1
10
4.92799023792469
20
1.94640014775007
30
0
41
1
10
4.22743898392417
20
2.10372904607789
30
0
41
1
10
3.87699466621376
20
2.15317423678411
30
0
41
1
10
3.52263103190168
20
2.17109459352608
30
0
0
SPLINE
5
B3
100
AcDbEntity
8
1
62
256
6
ByLayer
370
18
48
1
60
0
100
AcDbSpline
70
4
71
3
72
30
73
26
40
0
40
0
40
0
40
0
40
0.125000000000007
40
0.125000000000007
40
0.250000000000013
40
0.250000000000013
40
0.500000000000027
40
0.500000000000027
40
0.625000000000028
40
0.625000000000028
40
0.750000000000028
40
0.750000000000028
40
0.812500000000029
40
0.812500000000029
40
0.843750000000029
40
0.843750000000029
40
0.859375000000029
40
0.859375000000029
40
0.867187500000029
40
0.867187500000029
40
0.875000000000029
40
0.875000000000029
40
0.937500000000015
40
0.937500000000015
40
1
40
1
40
1
40
1
41
1
10
35.1989950530737
20
0.983725220641219
30
0
41
1
10
35.2752528701445
20
0.90334538322378
30
0
41
1
10
35.3543435308839
20
0.82756148405312
30
0
41
1
10
35.5184262029714
20
0.685567896692675
30
0
41
1
10
35.6036218389569
20
0.61919100949234
30
0
41
1
10
35.8671069745829
20
0.436009458249174
30
0
41
1
10
36.047109226854
20
0.338021072831282
30
0
41
1
10
36.3245668527896
20
0.232435557530294
30
0
41
1
10
36.4189679359796
20
0.204246070911978
30
0
41
1
10
36.6078609550001
20
0.165782057291722
30
0
41
1
10
36.701534167981
20
0.155532958511486
30
0
41
1
10
36.8406860554865
20
0.155933567045338
30
0
41
1
10
36.8866747376731
20
0.158725766340439
30
0
41
1
10
36.9545997284232
20
0.167323829045017
30
0
41
1
10
36.9769339570212
20
0.171353797191074
30
0
41
1
10
37.0105360387039
20
0.177033481239221
30
0
41
1
10
37.0222172188553
20
0.178676600528206
30
0
41
1
10
37.0349967630645
20
0.190283996095246
30
0
41
1
10
37.0378634321212
20
0.195882076365223
30
0
41
1
10
37.0413267050253
20
0.20815703106112
30
0
41
1
10
37.0427526804617
20
0.214470909013556
30
0
41
1
10
37.055765263056
20
0.271192620864866
30
0
41
1
10
37.0651525376306
20
0.322628570531435
30
0
41
1
10
37.078049007716
20
0.42808905254347
30
0
41
1
10
37.081945332225
20
0.481808231745191
30
0
41
1
10
37.0837464615091
20
0.535686349602173
30
0
0
SPLINE
5
B4
100
AcDbEntity
8
1
62
256
6
ByLayer
370
18
48
1
60
0
100
AcDbSpline
70
4
71
3
72
8
73
4
40
0
40
0
40
0
40
0
40
1
40
1
40
1
40
1
41
1
10
37.2876525689442
20
-2.17974911144074
30
0
41
1
10
37.2861077199427
20
-2.18369581668
30
0
41
1
10
37.2845621369064
20
-2.18764127370221
30
0
41
1
10
37.2830158176207
20
-2.19158548095237
30
0
0
SPLINE
5
B5
100
AcDbEntity
8
1
62
256
6
ByLayer
370
18
48
1
60
0
100
AcDbSpline
70
4
71
3
72
8
73
4
40
0
40
0
40
0
40
0
40
1
40
1
40
1
40
1
41
1
10
37.9960282093025
20
0.127188220738731
30
0
41
1
10
37.9961063599714
20
0.110823797353277
30
0
41
1
10
37.9959406561157
20
0.0944696112221379
30
0
41
1
10
37.9955176454666
20
0.0781262270848231
30
0
0
SPLINE
5
B6
100
AcDbEntity
8
1
62
256
6
ByLayer
370
18
48
1
60
0
100
AcDbSpline
70
4
71
3
72
8
73
4
40
0
40
0
40
0
40
0
40
1
40
1
40
1
40
1
41
1
10
37.2830158176207
20
2.19158548095234
30
0
41
1
10
37.1786688693095
20
2.19711756790389
30
0
41
1
10
37.0744771900557
20
2.19983462205894
30
0
41
1
10
36.9703451802876
20
2.19975539863984
30
0
0
SPLINE
5
B7
100
AcDbEntity
8
1
62
256
6
ByLayer
370
18
48
1
60
0
100
AcDbSpline
70
4
71
3
72
40
73
36
40
0
40
0
40
0
40
0
40
0.0090384794561701
40
0.0090384794561701
40
0.179416665928624
40
0.179416665928624
40
0.222011212546738
40
0.222011212546738
40
0.264605759164851
40
0.264605759164851
40
0.34979485240108
40
0.34979485240108
40
0.392389399019194
40
0.392389399019194
40
0.434983945637308
40
0.434983945637308
40
0.520173038873535
40
0.520173038873535
40
0.562767585491649
40
0.562767585491649
40
0.605362132109762
40
0.605362132109762
40
0.69055122534599
40
0.69055122534599
40
0.733145771964104
40
0.733145771964104
40
0.775740318582218
40
0.775740318582218
40
0.860929411818448
40
0.860929411818448
40
0.903523958436562
40
0.903523958436562
40
0.946118505054677
40
0.946118505054677
40
1
40
1
40
1
40
1
41
1
10
26.8468363138591
20
-2.08589387637753
30
0
41
1
10
26.8092710372566
20
-2.09298684085925
30
0
41
1
10
26.7717056794066
20
-2.09973468919492
30
0
41
1
10
26.0263698920145
20
-2.2266622796858
30
0
41
1
10
25.3350228695322
20
-2.22134857598184
30
0
41
1
10
24.4502669699963
20
-2.05789454716864
30
0
41
1
10
24.27295631065
20
-2.01742519107165
30
0
41
1
10
23.9210249101145
20
-1.92290539146799
30
0
41
1
10
23.7457648263998
20
-1.86873433392427
30
0
41
1
10
23.2207431210653
20
-1.68691322220676
30
0
41
1
10
22.8714543957655
20
-1.54025341001349
30
0
41
1
10
22.3429079107319
20
-1.28779357612791
30
0
41
1
10
22.1651338336147
20
-1.197882545244
30
0
41
1
10
21.8117024708984
20
-1.011199951268
30
0
41
1
10
21.6359944134916
20
-0.914253374730436
30
0
41
1
10
21.1102119229584
20
-0.615283738889332
30
0
41
1
10
20.761065404378
20
-0.40580363293634
30
0
41
1
10
20.2341199923623
20
-0.0848750053483514
30
0
41
1
10
20.0579398734318
20
0.0232372079184415
30
0
41
1
10
19.7033022349308
20
0.239778688003071
30
0
41
1
10
19.5265989038508
20
0.347088159270442
30
0
41
1
10
18.9991218636316
20
0.662346201296458
30
0
41
1
10
18.6499745977974
20
0.864268368625943
30
0
41
1
10
18.1242909735594
20
1.14597281608266
30
0
41
1
10
17.9486224870283
20
1.23617570003952
30
0
41
1
10
17.5955496865853
20
1.40785498960628
30
0
41
1
10
17.4176360794167
20
1.48957656240603
30
0
41
1
10
16.8881124400555
20
1.71526396496444
30
0
41
1
10
16.5386499819198
20
1.84147980305596
30
0
41
1
10
16.0134124496069
20
1.98918516478818
30
0
41
1
10
15.8381793943535
20
2.03150627463836
30
0
41
1
10
15.4864766099978
20
2.10149129344464
30
0
41
1
10
15.3096273735773
20
2.12915576203429
30
0
41
1
10
14.9078445664261
20
2.1739287287858
30
0
41
1
10
14.6852440247747
20
2.18609406448496
30
0
41
1
10
14.4633386063537
20
2.18566857198314
30
0
0
SPLINE
5
B8
100
AcDbEntity
8
1
62
256
6
ByLayer
370
18
48
1
60
0
100
AcDbSpline
70
4
71
3
72
8
73
4
40
0
40
0
40
0
40
0
40
1
40
1
40
1
40
1
41
1
10
4.21631216034498
20
-2.09573062084328
30
0
41
1
10
3.98613602205234
20
-2.13398391539141
30
0
41
1
10
3.75526238195653
20
-2.15933030289722
30
0
41
1
10
3.52263103190171
20
-2.17109459352608
30
0
0
SPLINE
5
B9
100
AcDbEntity
8
1
62
256
6
ByLayer
370
13
48
1
60
0
100
AcDbSpline
70
4
71
3
72
26
73
22
40
0
40
0
40
0
40
0
40
0.12480444051929
40
0.12480444051929
40
0.187318409053626
40
0.187318409053626
40
0.249832377587963
40
0.249832377587963
40
0.374860314656635
40
0.374860314656635
40
0.499888251725308
40
0.499888251725308
40
0.624916188793981
40
0.624916188793981
40
0.749944125862654
40
0.749944125862654
40
0.874972062931327
40
0.874972062931327
40
0.937486031465664
40
0.937486031465664
40
1
40
1
40
1
40
1
41
1
10
3.63232785248499
20
-2.06531753905287
30
0
41
1
10
3.6323484732321
20
-2.0736363666096
30
0
41
1
10
3.632360289026
20
-2.06843466344611
30
0
41
1
10
3.6323705980831
20
-2.04069942913236
30
0
41
1
10
3.63237278962322
20
-2.02799599087501
30
0
41
1
10
3.63237554041274
20
-1.99622800912863
30
0
41
1
10
3.63237611752362
20
-1.97718325425279
30
0
41
1
10
3.63237686583804
20
-1.91079149512154
30
0
41
1
10
3.63237608092067
20
-1.85427802675983
30
0
41
1
10
3.63237837807554
20
-1.71576318880963
30
0
41
1
10
3.63238152005081
20
-1.6348226489234
30
0
41
1
10
3.63239599519773
20
-1.45321119093188
30
0
41
1
10
3.63240720488241
20
-1.35369675521832
30
0
41
1
10
3.6324389599489
20
-1.13768145089955
30
0
41
1
10
3.63245981856298
20
-1.01978508445615
30
0
41
1
10
3.63250815257365
20
-0.775701313331609
30
0
41
1
10
3.63253562867317
20
-0.649025919345576
30
0
41
1
10
3.63257876884597
20
-0.452033055717379
30
0
41
1
10
3.6325935173081
20
-0.384908525495831
30
0
41
1
10
3.63262256326362
20
-0.249791233230752
30
0
41
1
10
3.63263683977104
20
-0.181896620602998
30
0
41
1
10
3.63265044734788
20
-0.113666522251776
30
0
0
SPLINE
5
BA
100
AcDbEntity
8
1
62
256
6
ByLayer
370
18
48
1
60
0
100
AcDbSpline
70
4
71
3
72
10
73
6
40
0
40
0
40
0
40
0
40
0.5
40
0.5
40
1
40
1
40
1
40
1
41
1
10
37.3821052969407
20
-2.11454791259737
30
0
41
1
10
37.4623261732821
20
-1.88371632313417
30
0
41
1
10
37.5446507537796
20
-1.65413477308894
30
0
41
1
10
37.7120435379683
20
-1.19648451460142
30
0
41
1
10
37.7971230476291
20
-0.968429790025823
30
0
41
1
10
37.8828865464416
20
-0.740784110877485
30
0
0
SPLINE
5
BB
100
AcDbEntity
8
1
62
256
6
ByLayer
370
18
48
1
60
0
100
AcDbSpline
70
4
71
3
72
26
73
22
40
0
40
0
40
0
40
0
40
0.0624999999999977
40
0.0624999999999977
40
0.124999999999995
40
0.124999999999995
40
0.249999999999996
40
0.249999999999996
40
0.312499999999997
40
0.312499999999997
40
0.374999999999997
40
0.374999999999997
40
0.499999999999997
40
0.499999999999997
40
0.624999999999998
40
0.624999999999998
40
0.749999999999999
40
0.749999999999999
40
0.874999999999999
40
0.874999999999999
40
1
40
1
40
1
40
1
41
1
10
37.6975405222902
20
-0.45264077933129
30
0
41
1
10
37.6992737363258
20
-0.468086882986228
30
0
41
1
10
37.6998191773927
20
-0.484724332139024
30
0
41
1
10
37.698468335939
20
-0.520599380720853
30
0
41
1
10
37.6965119753755
20
-0.5400681810479
30
0
41
1
10
37.6872268716908
20
-0.599435381028769
30
0
41
1
10
37.6762422910534
20
-0.641973720791412
30
0
41
1
10
37.6553123798274
20
-0.703232600481414
30
0
41
1
10
37.6474957299916
20
-0.723548424873343
30
0
41
1
10
37.631040471519
20
-0.762181233002792
30
0
41
1
10
37.6223428613595
20
-0.780695857232672
30
0
41
1
10
37.5949123005105
20
-0.833978502578447
30
0
41
1
10
37.5756318551889
20
-0.864989349070555
30
0
41
1
10
37.5362092589151
20
-0.917577129372859
30
0
41
1
10
37.5163709919034
20
-0.938731476470906
30
0
41
1
10
37.4769749434189
20
-0.970726170043577
30
0
41
1
10
37.4578699058443
20
-0.981266512171715
30
0
41
1
10
37.4203823578906
20
-0.991828393254565
30
0
41
1
10
37.4026275024235
20
-0.991634617478923
30
0
41
1
10
37.3691588608524
20
-0.980389080365143
30
0
41
1
10
37.3534269540037
20
-0.969145919104477
30
0
41
1
10
37.339699836638
20
-0.952579642485802
30
0
0
SPLINE
5
BC
100
AcDbEntity
8
1
62
256
6
ByLayer
370
18
48
1
60
0
100
AcDbSpline
70
4
71
3
72
8
73
4
40
0
40
0
40
0
40
0
40
1
40
1
40
1
40
1
41
1
10
3.52263103190171
20
2.17109459352608
30
0
41
1
10
3.5141284357814
20
2.17152457431689
30
0
41
1
10
3.50570448272708
20
2.17194877750592
30
0
41
1
10
3.49750379490979
20
2.17237673665753
30
0
0
SPLINE
5
BD
100
AcDbEntity
8
1
62
256
6
ByLayer
370
18
48
1
60
0
100
AcDbSpline
70
4
71
3
72
8
73
4
40
0
40
0
40
0
40
0
40
1
40
1
40
1
40
1
41
1
10
3.42510889358775
20
-2.17831135869585
30
0
41
1
10
3.4444930076838
20
-2.14941779550566
30
0
41
1
10
3.4701580689927
20
-2.12379359795705
30
0
41
1
10
3.5016722806952
20
-2.10413556179236
30
0
0
SPLINE
5
BE
100
AcDbEntity
8
1
62
256
6
ByLayer
370
18
48
1
60
0
100
AcDbSpline
70
4
71
3
72
14
73
10
40
0
40
0
40
0
40
0
40
0.0833449651651738
40
0.0833449651651738
40
0.566677548664911
40
0.566677548664911
40
0.808343840414781
40
0.808343840414781
40
1
40
1
40
1
40
1
41
1
10
25.9245214052773
20
-2.08293037006683
30
0
41
1
10
25.863922460085
20
-2.08299970399565
30
0
41
1
10
25.8034148516905
20
-2.08217986440033
30
0
41
1
10
25.3927491300029
20
-2.07063135778429
30
0
41
1
10
25.0447227186771
20
-2.03093417143046
30
0
41
1
10
24.5209249686486
20
-1.92902786507341
30
0
41
1
10
24.3460165918885
20
-1.88804683297823
30
0
41
1
10
24.0308725677719
20
-1.80222816601235
30
0
41
1
10
23.8905707399951
20
-1.75977394351776
30
0
41
1
10
23.7507592222805
20
-1.71354097185784
30
0
0
SPLINE
5
BF
100
AcDbEntity
8
1
62
256
6
ByLayer
370
13
48
1
60
0
100
AcDbSpline
70
4
71
3
72
24
73
20
40
0
40
0
40
0
40
0
40
0.0174927929695439
40
0.0174927929695439
40
0.186555269932733
40
0.186555269932733
40
0.355617746895923
40
0.355617746895923
40
0.440148985377517
40
0.440148985377517
40
0.524680223859112
40
0.524680223859112
40
0.693742700822304
40
0.693742700822304
40
0.778273939303899
40
0.778273939303899
40
0.862805177785493
40
0.862805177785493
40
1
40
1
40
1
40
1
41
1
10
23.750759222301
20
-1.71354097186463
30
0
41
1
10
23.7142772616091
20
-1.70147709127508
30
0
41
1
10
23.6778286851382
20
-1.68915592329279
30
0
41
1
10
23.2897381699573
20
-1.55514666497953
30
0
41
1
10
22.9411736938621
20
-1.41089000275713
30
0
41
1
10
22.2434533337134
20
-1.08606365309154
30
0
41
1
10
21.8938065906712
20
-0.905836480048947
30
0
41
1
10
21.3636707414727
20
-0.616008724089539
30
0
41
1
10
21.1873230431372
20
-0.517089164083899
30
0
41
1
10
20.8343407646139
20
-0.316293093180633
30
0
41
1
10
20.6572878786581
20
-0.214126350524339
30
0
41
1
10
20.12851988639
20
0.0923922953987812
30
0
41
1
10
19.7790199921403
20
0.296833790637578
30
0
41
1
10
19.2532530463457
20
0.593282405713751
30
0
41
1
10
19.0777488090508
20
0.690401967581295
30
0
41
1
10
18.7252248264233
20
0.879476485679987
30
0
41
1
10
18.5481352556159
20
0.971719213399439
30
0
41
1
10
18.0867619798422
20
1.20218802300539
30
0
41
1
10
17.8027682451539
20
1.33370378355718
30
0
41
1
10
17.5182964414768
20
1.45159695912898
30
0
0
SPLINE
5
C0
100
AcDbEntity
8
1
62
256
6
ByLayer
370
18
48
1
60
0
100
AcDbSpline
70
4
71
3
72
10
73
6
40
0
40
0
40
0
40
0
40
0.5
40
0.5
40
1
40
1
40
1
40
1
41
1
10
3.49750379491002
20
2.1723767366575
30
0
41
1
10
3.47704649083269
20
2.17344431668155
30
0
41
1
10
3.4594382218927
20
2.17465892595646
30
0
41
1
10
3.43338571677347
20
2.17685195680107
30
0
41
1
10
3.42510569833189
20
2.17779552184206
30
0
41
1
10
3.42510889358735
20
2.17831135869585
30
0
0
SPLINE
5
C1
100
AcDbEntity
8
1
62
256
6
ByLayer
370
18
48
1
60
0
100
AcDbSpline
70
4
71
3
72
10
73
6
40
0
40
0
40
0
40
0
40
0.5
40
0.5
40
1
40
1
40
1
40
1
41
1
10
37.3821052969395
20
2.11454791259916
30
0
41
1
10
37.366102057621
20
2.13403778813748
30
0
41
1
10
37.3496731162826
20
2.15039613095828
30
0
41
1
10
37.3165987556428
20
2.17608315832689
30
0
41
1
10
37.2999093376161
20
2.18550184106837
30
0
41
1
10
37.2830158176207
20
2.19158548095251
30
0
0
SPLINE
5
C2
100
AcDbEntity
8
1
62
256
6
ByLayer
370
18
48
1
60
0
100
AcDbSpline
70
4
71
3
72
28
73
24
40
0
40
0
40
0
40
0
40
0.0514154180446153
40
0.0514154180446153
40
0.203529786573752
40
0.203529786573752
40
0.27958697083832
40
0.27958697083832
40
0.355644155102887
40
0.355644155102887
40
0.507758523632022
40
0.507758523632022
40
0.583815707896591
40
0.583815707896591
40
0.659872892161159
40
0.659872892161159
40
0.811987260690296
40
0.811987260690296
40
0.888044444954865
40
0.888044444954865
40
0.964101629219433
40
0.964101629219433
40
1
40
1
40
1
40
1
41
1
10
5.34103902047679
20
1.79928365844998
30
0
41
1
10
5.4599336677789
20
1.75916225645
30
0
41
1
10
5.57852321914265
20
1.71620510276702
30
0
41
1
10
6.04731899649931
20
1.53560736041362
30
0
41
1
10
6.39601997723952
20
1.37714751988386
30
0
41
1
10
6.92249878260648
20
1.11133176160286
30
0
41
1
10
7.09860932698498
20
1.01809865177006
30
0
41
1
10
7.45318523169786
20
0.823649271561976
30
0
41
1
10
7.62946494544133
20
0.723675224721404
30
0
41
1
10
8.15630334340491
20
0.41819038317314
30
0
41
1
10
8.50480948023556
20
0.206610578828105
30
0
41
1
10
9.03013958494839
20
-0.111578760229634
30
0
41
1
10
9.20563341189387
20
-0.217852833614302
30
0
41
1
10
9.55831784144584
20
-0.42926786074392
30
0
41
1
10
9.73600806983211
20
-0.534687147291919
30
0
41
1
10
10.2645529231451
20
-0.841413336207012
30
0
41
1
10
10.6137034854458
20
-1.03433253390779
30
0
41
1
10
11.1380518713184
20
-1.29867482506501
30
0
41
1
10
11.3129714344891
20
-1.3825799549108
30
0
41
1
10
11.66416794529
20
-1.54033035961041
30
0
41
1
10
11.8407333855551
20
-1.61431751612017
30
0
41
1
10
12.1014569288858
20
-1.71444921174376
30
0
41
1
10
12.1848107133489
20
-1.74509424873708
30
0
41
1
10
12.2679715252489
20
-1.77424423115645
30
0
0
SPLINE
5
C3
100
AcDbEntity
8
1
62
256
6
ByLayer
370
13
48
1
60
0
100
AcDbSpline
70
4
71
3
72
14
73
10
40
0
40
0
40
0
40
0
40
0.569952652534442
40
0.569952652534442
40
0.731503484493988
40
0.731503484493988
40
0.893054316453533
40
0.893054316453533
40
1
40
1
40
1
40
1
41
1
10
12.2679715250889
20
-1.77424423110037
30
0
41
1
10
12.8895755320075
20
-1.99213226586878
30
0
41
1
10
13.5003978763856
20
-2.1264893901598
30
0
41
1
10
14.2993719464189
20
-2.17402210276731
30
0
41
1
10
14.4769260075659
20
-2.17658293218651
30
0
41
1
10
14.8289360983329
20
-2.16593302868128
30
0
41
1
10
15.0041620566447
20
-2.15280248780948
30
0
41
1
10
15.2948817836798
20
-2.11830312760569
30
0
41
1
10
15.4105269746773
20
-2.1012269341758
30
0
41
1
10
15.5261763909512
20
-2.0808890063731
30
0
0
SPLINE
5
C4
100
AcDbEntity
8
1
62
256
6
ByLayer
370
18
48
1
60
0
100
AcDbSpline
70
4
71
3
72
28
73
24
40
0
40
0
40
0
40
0
40
0.007048757617684
40
0.007048757617684
40
0.0890092491571687
40
0.0890092491571687
40
0.170969740696654
40
0.170969740696654
40
0.334890723775619
40
0.334890723775619
40
0.416851215315102
40
0.416851215315102
40
0.457831461084846
40
0.457831461084846
40
0.49881170685459
40
0.49881170685459
40
0.826653673012558
40
0.826653673012558
40
0.908614164552052
40
0.908614164552052
40
0.990574656091545
40
0.990574656091545
40
1
40
1
40
1
40
1
41
1
10
27.7809010263418
20
1.83116005732469
30
0
41
1
10
27.7959408502177
20
1.8261824816164
30
0
41
1
10
27.8109840820412
20
1.82115553802848
30
0
41
1
10
28.0009922642253
20
1.75705665500652
30
0
41
1
10
28.1763947380896
20
1.69133331586937
30
0
41
1
10
28.5290238393187
20
1.54721798227047
30
0
41
1
10
28.7063226601577
20
1.46908742792519
30
0
41
1
10
29.233482408697
20
1.2213068895999
30
0
41
1
10
29.5813578649596
20
1.03694945478847
30
0
41
1
10
30.1053325563317
20
0.742733657340381
30
0
41
1
10
30.2801902163135
20
0.641456114245756
30
0
41
1
10
30.5434722103928
20
0.485796051754846
30
0
41
1
10
30.6314025213018
20
0.433291577073419
30
0
41
1
10
30.8077506153512
20
0.327271340086241
30
0
41
1
10
30.8963329158323
20
0.273651406445282
30
0
41
1
10
31.6899628797577
20
-0.208377572252743
30
0
41
1
10
32.3779464134449
20
-0.637880105115613
30
0
41
1
10
33.2553423013223
20
-1.11215863951395
30
0
41
1
10
33.4325107546206
20
-1.20430437525903
30
0
41
1
10
33.784783836223
20
-1.37810089551573
30
0
41
1
10
33.9598935161892
20
-1.45971015059641
30
0
41
1
10
34.1544994585462
20
-1.5443296011357
30
0
41
1
10
34.1745633794787
20
-1.55298163974064
30
0
41
1
10
34.1946206974095
20
-1.56155752212982
30
0
0
SPLINE
5
C5
100
AcDbEntity
8
1
62
256
6
ByLayer
370
13
48
1
60
0
100
AcDbSpline
70
4
71
3
72
14
73
10
40
0
40
0
40
0
40
0
40
0.320306021018682
40
0.320306021018682
40
0.490229515764011
40
0.490229515764011
40
0.660153010509341
40
0.660153010509341
40
1
40
1
40
1
40
1
41
1
10
34.194620697598
20
-1.56155752221042
30
0
41
1
10
34.5233904680457
20
-1.70212920253391
30
0
41
1
10
34.8503861329792
20
-1.82223910359193
30
0
41
1
10
35.353031727907
20
-1.96988631502802
30
0
41
1
10
35.5276595460842
20
-2.01438971799823
30
0
41
1
10
35.8787429245433
20
-2.08901200159286
30
0
41
1
10
36.055916567356
20
-2.1191761537263
30
0
41
1
10
36.5850332751803
20
-2.18571701357126
30
0
41
1
10
36.9355939631578
20
-2.1986448116339
30
0
41
1
10
37.2876525689435
20
-2.17974911144068
30
0
0
SPLINE
5
C6
100
AcDbEntity
8
1
62
256
6
ByLayer
370
18
48
1
60
0
100
AcDbSpline
70
4
71
3
72
10
73
6
40
0
40
0
40
0
40
0
40
0.5
40
0.5
40
1
40
1
40
1
40
1
41
1
10
37.3821052969353
20
2.11454791261329
30
0
41
1
10
37.4622113578466
20
1.88404669885014
30
0
41
1
10
37.5444965828771
20
1.65456151449365
30
0
41
1
10
37.7119037124285
20
1.19686156582935
30
0
41
1
10
37.7970379260501
20
0.968655731830438
30
0
41
1
10
37.8828865464423
20
0.740784110875836
30
0
0
SPLINE
5
C7
100
AcDbEntity
8
1
62
256
6
ByLayer
370
18
48
1
60
0
100
AcDbSpline
70
4
71
3
72
10
73
6
40
0
40
0
40
0
40
0
40
0.5
40
0.5
40
1
40
1
40
1
40
1
41
1
10
37.9997860084298
20
0.0294524703995762
30
0
41
1
10
37.9979241270837
20
0.0191304049896246
30
0
41
1
10
37.9950631879885
20
0.008161067367098
30
0
41
1
10
37.9875302469047
20
-0.012660976950599
30
0
41
1
10
37.9828255347055
20
-0.0225013173904642
30
0
41
1
10
37.9778648298641
20
-0.0303119943156389
30
0
0
SPLINE
5
C8
100
AcDbEntity
8
1
62
256
6
ByLayer
370
13
48
1
60
0
100
AcDbSpline
70
4
71
3
72
8
73
4
40
0
40
0
40
0
40
0
40
1
40
1
40
1
40
1
41
1
10
3.52263103190171
20
-2.17109459352608
30
0
41
1
10
3.54125523179877
20
-2.16249249539598
30
0
41
1
10
3.56056401160757
20
-2.15763599336674
30
0
41
1
10
3.58046673944023
20
-2.15644914585585
30
0
0
SPLINE
5
C9
100
AcDbEntity
8
1
62
256
6
ByLayer
370
18
48
1
60
0
100
AcDbSpline
70
4
71
3
72
54
73
50
40
0
40
0
40
0
40
0
40
0.0561723019365336
40
0.0561723019365336
40
0.126470835001276
40
0.126470835001276
40
0.161620101533648
40
0.161620101533648
40
0.196769368066019
40
0.196769368066019
40
0.267067901130763
40
0.267067901130763
40
0.302217167663135
40
0.302217167663135
40
0.337366434195507
40
0.337366434195507
40
0.407664967260249
40
0.407664967260249
40
0.442814233792621
40
0.442814233792621
40
0.477963500324993
40
0.477963500324993
40
0.548262033389738
40
0.548262033389738
40
0.618560566454483
40
0.618560566454483
40
0.653709832986855
40
0.653709832986855
40
0.688859099519228
40
0.688859099519228
40
0.7240083660516
40
0.7240083660516
40
0.759157632583973
40
0.759157632583973
40
0.794306899116345
40
0.794306899116345
40
0.829456165648717
40
0.829456165648717
40
0.864605432181089
40
0.864605432181089
40
0.882180065447276
40
0.882180065447276
40
0.899754698713462
40
0.899754698713462
40
0.934903965245834
40
0.934903965245834
40
0.970053231778206
40
0.970053231778206
40
1
40
1
40
1
40
1
41
1
10
11.2528886704843
20
1.62118427689296
30
0
41
1
10
11.512883782959
20
1.72762851613729
30
0
41
1
10
11.7721230042746
20
1.819689042757
30
0
41
1
10
12.3527092094602
20
1.9967039000498
30
0
41
1
10
12.6777294245167
20
2.07037912464307
30
0
41
1
10
13.1669738235366
20
2.14379499821047
30
0
41
1
10
13.331398733894
20
2.16145469763799
30
0
41
1
10
13.6578104055945
20
2.18306872421456
30
0
41
1
10
13.8201949653702
20
2.18719171944747
30
0
41
1
10
14.3049255185448
20
2.17922178836423
30
0
41
1
10
14.6291170424602
20
2.14755331633316
30
0
41
1
10
15.1151148522577
20
2.0597232256853
30
0
41
1
10
15.2780910978629
20
2.02409150438854
30
0
41
1
10
15.6061265115147
20
1.94026249594847
30
0
41
1
10
15.7699443485608
20
1.89208260634058
30
0
41
1
10
16.256764378674
20
1.72989885347548
30
0
41
1
10
16.5810486267087
20
1.60211936216339
30
0
41
1
10
17.0652876274093
20
1.37949105729487
30
0
41
1
10
17.2273673538535
20
1.30130804337591
30
0
41
1
10
17.5529296661866
20
1.13724467588725
30
0
41
1
10
17.7163553763581
20
1.05087497387203
30
0
41
1
10
18.2069265635251
20
0.779340126888684
30
0
41
1
10
18.5323400672517
20
0.591834860770234
30
0
41
1
10
19.1777852570124
20
0.200769075966662
30
0
41
1
10
19.5021279348187
20
0.0042745667659574
30
0
41
1
10
19.9893032206151
20
-0.294983115678548
30
0
41
1
10
20.1533535665859
20
-0.393942062318814
30
0
41
1
10
20.4813538811092
20
-0.588263124845611
30
0
41
1
10
20.6447602407515
20
-0.684038902127639
30
0
41
1
10
20.9708286414946
20
-0.872006111997848
30
0
41
1
10
21.1344329060695
20
-0.962756515977617
30
0
41
1
10
21.4627006466425
20
-1.1380106207194
30
0
41
1
10
21.6260490665196
20
-1.22238291281198
30
0
41
1
10
21.9503414575652
20
-1.3833149422091
30
0
41
1
10
22.1124531171247
20
-1.45868092773367
30
0
41
1
10
22.4364363034563
20
-1.59989079392224
30
0
41
1
10
22.5979986346103
20
-1.66608177380348
30
0
41
1
10
22.9208202096743
20
-1.78870767365379
30
0
41
1
10
23.082972259922
20
-1.84424538726935
30
0
41
1
10
23.3272192294498
20
-1.91908632423599
30
0
41
1
10
23.4087815056812
20
-1.94263829175793
30
0
41
1
10
23.5721264488959
20
-1.98694930719566
30
0
41
1
10
23.6539697744031
20
-2.00781548612738
30
0
41
1
10
23.8988936356794
20
-2.06541344671126
30
0
41
1
10
24.0618121528336
20
-2.09683853370615
30
0
41
1
10
24.3867695690668
20
-2.14662488025127
30
0
41
1
10
24.5484912410447
20
-2.165084562152
30
0
41
1
10
24.847174032317
20
-2.18693443659882
30
0
41
1
10
24.984897289425
20
-2.19204767430094
30
0
41
1
10
25.1228869160795
20
-2.19233329115528
30
0
0
SPLINE
5
CA
100
AcDbEntity
8
1
62
256
6
ByLayer
370
18
48
1
60
0
100
AcDbSpline
70
4
71
3
72
22
73
18
40
0
40
0
40
0
40
0
40
0.0560984309117488
40
0.0560984309117488
40
0.190941512210071
40
0.190941512210071
40
0.325784593508392
40
0.325784593508392
40
0.460627674806713
40
0.460627674806713
40
0.595470756105035
40
0.595470756105035
40
0.730313837403357
40
0.730313837403357
40
0.865156918701679
40
0.865156918701679
40
1
40
1
40
1
40
1
41
1
10
33.759948074175
20
1.63504513549145
30
0
41
1
10
33.827295208649
20
1.66261130271204
30
0
41
1
10
33.8946304216663
20
1.68924087125512
30
0
41
1
10
34.1237424836565
20
1.7767911694917
30
0
41
1
10
34.285097469144
20
1.83367150885385
30
0
41
1
10
34.6076548364875
20
1.93649361837723
30
0
41
1
10
34.7697210095454
20
1.98172505790177
30
0
41
1
10
35.0952085018904
20
2.06013976751248
30
0
41
1
10
35.2587676039806
20
2.09355856768929
30
0
41
1
10
35.5852547020162
20
2.14724503424733
30
0
41
1
10
35.7486873197445
20
2.16708324374093
30
0
41
1
10
36.0756127072601
20
2.19336892868788
30
0
41
1
10
36.2387574455912
20
2.19984455749014
30
0
41
1
10
36.5653424669371
20
2.19885363734846
30
0
41
1
10
36.7292318385598
20
2.19142006518112
30
0
41
1
10
37.0561719221268
20
2.16320404653879
30
0
41
1
10
37.2191554369899
20
2.14230132847058
30
0
41
1
10
37.3821052969408
20
2.11454791259749
30
0
0
SPLINE
5
CB
100
AcDbEntity
8
1
62
256
6
ByLayer
370
18
48
1
60
0
100
AcDbSpline
70
4
71
3
72
8
73
4
40
0
40
0
40
0
40
0
40
1
40
1
40
1
40
1
41
1
10
37.8828865464424
20
0.740784110875865
30
0
41
1
10
37.8748054268068
20
0.691394185168974
30
0
41
1
10
37.8652057644109
20
0.642323542624922
30
0
41
1
10
37.8542212530574
20
0.5935503323999
30
0
0
SPLINE
5
CC
100
AcDbEntity
8
1
62
256
6
ByLayer
370
18
48
1
60
0
100
AcDbSpline
70
4
71
3
72
12
73
8
40
0
40
0
40
0
40
0
40
0.25
40
0.25
40
0.5
40
0.5
40
1
40
1
40
1
40
1
41
1
10
37.0837464615084
20
0.535686349602145
30
0
41
1
10
37.0840754693157
20
0.545528131405803
30
0
41
1
10
37.0872375460541
20
0.555249102942497
30
0
41
1
10
37.0985980540301
20
0.57188662829185
30
0
41
1
10
37.1067600351189
20
0.578806896917399
30
0
41
1
10
37.1338556949676
20
0.594013834080783
30
0
41
1
10
37.1549274835905
20
0.597499300214309
30
0
41
1
10
37.175587459624
20
0.597161674448074
30
0
0
SPLINE
5
CD
100
AcDbEntity
8
1
62
256
6
ByLayer
370
18
48
1
60
0
100
AcDbSpline
70
4
71
3
72
64
73
60
40
0
40
0
40
0
40
0
40
0.0276298400072388
40
0.0276298400072388
40
0.0938878487097833
40
0.0938878487097833
40
0.127016853061055
40
0.127016853061055
40
0.160145857412326
40
0.160145857412326
40
0.193274861763597
40
0.193274861763597
40
0.226403866114868
40
0.226403866114868
40
0.259532870466139
40
0.259532870466139
40
0.29266187481741
40
0.29266187481741
40
0.325790879168681
40
0.325790879168681
40
0.358919883519952
40
0.358919883519952
40
0.392048887871223
40
0.392048887871223
40
0.425177892222494
40
0.425177892222494
40
0.458306896573766
40
0.458306896573766
40
0.491435900925036
40
0.491435900925036
40
0.524564905276308
40
0.524564905276308
40
0.55769390962758
40
0.55769390962758
40
0.590822913978852
40
0.590822913978852
40
0.623951918330125
40
0.623951918330125
40
0.657080922681397
40
0.657080922681397
40
0.690209927032669
40
0.690209927032669
40
0.723338931383941
40
0.723338931383941
40
0.756467935735214
40
0.756467935735214
40
0.789596940086486
40
0.789596940086486
40
0.822725944437758
40
0.822725944437758
40
0.85585494878903
40
0.85585494878903
40
0.888983953140303
40
0.888983953140303
40
0.955241961842846
40
0.955241961842846
40
0.988370966194117
40
0.988370966194117
40
1
40
1
40
1
40
1
41
1
10
33.7637416487952
20
-1.62393278019042
30
0
41
1
10
33.6373728225445
20
-1.66968292615908
30
0
41
1
10
33.5108801572218
20
-1.71253232711169
30
0
41
1
10
33.0838705229172
20
-1.84762098065275
30
0
41
1
10
32.7842310614548
20
-1.9246908989029
30
0
41
1
10
32.3360567769205
20
-2.00773641721534
30
0
41
1
10
32.1866381800859
20
-2.0294663597692
30
0
41
1
10
31.886991387432
20
-2.06312952872523
30
0
41
1
10
31.7367864886617
20
-2.07492210522702
30
0
41
1
10
31.4356741098305
20
-2.08729789597098
30
0
41
1
10
31.2842980624842
20
-2.08751576044631
30
0
41
1
10
30.9810558235946
20
-2.07714458679598
30
0
41
1
10
30.8295689797118
20
-2.06688404596244
30
0
41
1
10
30.5271020807622
20
-2.03543738418387
30
0
41
1
10
30.3761593352814
20
-2.01423563732931
30
0
41
1
10
30.0733051017519
20
-1.96094991475439
30
0
41
1
10
29.9212087589123
20
-1.92874048253469
30
0
41
1
10
29.6192301136236
20
-1.85355656114834
30
0
41
1
10
29.469085053983
20
-1.81072222680919
30
0
41
1
10
29.1691468650699
20
-1.71799693419766
30
0
41
1
10
29.0193675341646
20
-1.66755700230834
30
0
41
1
10
28.7198142876293
20
-1.55716485279152
30
0
41
1
10
28.570192376109
20
-1.49686973865664
30
0
41
1
10
28.2705165881424
20
-1.36992084074041
30
0
41
1
10
28.120339641978
20
-1.30297787583814
30
0
41
1
10
27.8186788105546
20
-1.16193120984195
30
0
41
1
10
27.6668711360416
20
-1.08714844783475
30
0
41
1
10
27.363631549574
20
-0.931719715158948
30
0
41
1
10
27.2121888850731
20
-0.852001962127844
30
0
41
1
10
26.9092031853141
20
-0.688844314469435
30
0
41
1
10
26.7577709785136
20
-0.605127060578099
30
0
41
1
10
26.4545162897807
20
-0.43360501449979
30
0
41
1
10
26.3025089809101
20
-0.346376710995088
30
0
41
1
10
26.0002185074821
20
-0.172275170267625
30
0
41
1
10
25.8495239160843
20
-0.0851600136186903
30
0
41
1
10
25.549278591598
20
0.0899380985345886
30
0
41
1
10
25.3995835920731
20
0.177552010469782
30
0
41
1
10
25.099695447594
20
0.350370319428322
30
0
41
1
10
24.9494650020283
20
0.435466084722435
30
0
41
1
10
24.6490103106517
20
0.604489714504382
30
0
41
1
10
24.4987682128132
20
0.688371458838645
30
0
41
1
10
24.1966632497551
20
0.851885030904043
30
0
41
1
10
24.0441716864916
20
0.931544166987237
30
0
41
1
10
23.7408530614539
20
1.08467431617817
30
0
41
1
10
23.5900818611556
20
1.15942981013549
30
0
41
1
10
23.2890387512347
20
1.30112347808904
30
0
41
1
10
23.1387482938883
20
1.36816969922819
30
0
41
1
10
22.8384272302124
20
1.49414491181747
30
0
41
1
10
22.6886233499739
20
1.55377313244102
30
0
41
1
10
22.3885098540464
20
1.66508797030693
30
0
41
1
10
22.2381177338516
20
1.71628206053873
30
0
41
1
10
21.9360123761672
20
1.80829907037557
30
0
41
1
10
21.7844053696213
20
1.84901850673765
30
0
41
1
10
21.3281684771587
20
1.96058036467511
30
0
41
1
10
21.0250073831816
20
2.01606160134858
30
0
41
1
10
20.5700610007158
20
2.06353812230671
30
0
41
1
10
20.4175751575153
20
2.0728039310639
30
0
41
1
10
20.2123202110562
20
2.07761901875543
30
0
41
1
10
20.1590608708282
20
2.07829017567289
30
0
41
1
10
20.1058760905485
20
2.07836062097479
30
0
0
SPLINE
5
CE
100
AcDbEntity
8
1
62
256
6
ByLayer
370
18
48
1
60
0
100
AcDbSpline
70
4
71
3
72
30
73
26
40
0
40
0
40
0
40
0
40
0.0152206167903681
40
0.0152206167903681
40
0.104746015263971
40
0.104746015263971
40
0.194271413737575
40
0.194271413737575
40
0.283796812211177
40
0.283796812211177
40
0.37332221068478
40
0.37332221068478
40
0.462847609158383
40
0.462847609158383
40
0.552373007631986
40
0.552373007631986
40
0.641898406105589
40
0.641898406105589
40
0.731423804579192
40
0.731423804579192
40
0.820949203052795
40
0.820949203052795
40
0.910474601526397
40
0.910474601526397
40
1
40
1
40
1
40
1
41
1
10
11.2589883522307
20
-1.61343195814268
30
0
41
1
10
11.2333811927309
20
-1.62269603394614
30
0
41
1
10
11.2077869076075
20
-1.63183733151408
30
0
41
1
10
11.0317438776521
20
-1.69389277653923
30
0
41
1
10
10.8816928085873
20
-1.74263326474823
30
0
41
1
10
10.5811842077055
20
-1.83127180764348
30
0
41
1
10
10.4307561617237
20
-1.87108297938619
30
0
41
1
10
10.1293572420627
20
-1.93995838877666
30
0
41
1
10
9.97833448486415
20
-1.96809325386329
30
0
41
1
10
9.67495319245373
20
-2.01591303761646
30
0
41
1
10
9.52232267787866
20
-2.03526177433045
30
0
41
1
10
9.21828390414947
20
-2.0622543239856
30
0
41
1
10
9.06677359302958
20
-2.07005217773556
30
0
41
1
10
8.76338329821056
20
-2.07436546419248
30
0
41
1
10
8.61145830941405
20
-2.07074664740455
30
0
41
1
10
8.30658216261489
20
-2.05137013461254
30
0
41
1
10
8.1544893253371
20
-2.03682816795199
30
0
41
1
10
7.85085043235904
20
-1.99743176919307
30
0
41
1
10
7.69899473297141
20
-1.9723624681879
30
0
41
1
10
7.39462477866408
20
-1.91111452595544
30
0
41
1
10
7.2420752532353
20
-1.87469331838798
30
0
41
1
10
6.93801521435219
20
-1.79132544360468
30
0
41
1
10
6.78616349561787
20
-1.744702500529
30
0
41
1
10
6.48209919022179
20
-1.6437417490045
30
0
41
1
10
6.32984744035016
20
-1.58923805829602
30
0
41
1
10
6.17744088740028
20
-1.53013456435249
30
0
0
SPLINE
5
CF
100
AcDbEntity
8
1
62
256
6
ByLayer
370
18
48
1
60
0
100
AcDbSpline
70
4
71
3
72
10
73
6
40
0
40
0
40
0
40
0
40
0.5
40
0.5
40
1
40
1
40
1
40
1
41
1
10
37.3821052969407
20
-2.11454791259769
30
0
41
1
10
37.366102057622
20
-2.13403778813643
30
0
41
1
10
37.3496731162834
20
-2.15039613095755
30
0
41
1
10
37.3165987556431
20
-2.17608315832666
30
0
41
1
10
37.2999093376163
20
-2.18550184106829
30
0
41
1
10
37.2830158176207
20
-2.19158548095251
30
0
0
SPLINE
5
D0
100
AcDbEntity
8
1
62
256
6
ByLayer
370
18
48
1
60
0
100
AcDbSpline
70
4
71
3
72
30
73
26
40
0
40
0
40
0
40
0
40
0.0495190209236036
40
0.0495190209236036
40
0.112884419528697
40
0.112884419528697
40
0.239615216738882
40
0.239615216738882
40
0.302980615343975
40
0.302980615343975
40
0.366346013949068
40
0.366346013949068
40
0.493076811159255
40
0.493076811159255
40
0.556442209764348
40
0.556442209764348
40
0.619807608369441
40
0.619807608369441
40
0.746538405579627
40
0.746538405579627
40
0.873269202789814
40
0.873269202789814
40
0.936634601394907
40
0.936634601394907
40
1
40
1
40
1
40
1
41
1
10
3.42511466980429
20
-2.17877653660554
30
0
41
1
10
3.42512121821133
20
-2.1787188979612
30
0
41
1
10
3.42512657696801
20
-2.17647253592557
30
0
41
1
10
3.42513650117161
20
-2.16637751490575
30
0
41
1
10
3.42514043382761
20
-2.15708203164593
30
0
41
1
10
3.42514834105589
20
-2.11860383929616
30
0
41
1
10
3.42514848829563
20
-2.07928726116154
30
0
41
1
10
3.42514609799525
20
-2.00041144485797
30
0
41
1
10
3.42514485438309
20
-1.97077830234764
30
0
41
1
10
3.42514223013626
20
-1.90462980281242
30
0
41
1
10
3.42514086046478
20
-1.86825192288444
30
0
41
1
10
3.42513768695827
20
-1.75118126775493
30
0
41
1
10
3.42513683263948
20
-1.66200727371495
30
0
41
1
10
3.425140625974
20
-1.5114662530994
30
0
41
1
10
3.42514274737201
20
-1.45814972117654
30
0
41
1
10
3.42514894224888
20
-1.34773954974904
30
0
41
1
10
3.42515300637285
20
-1.29059031827089
30
0
41
1
10
3.42516827478644
20
-1.1134485582177
30
0
41
1
10
3.42518260671665
20
-0.987818687681454
30
0
41
1
10
3.42521926953504
20
-0.720867997560873
30
0
41
1
10
3.42524099551577
20
-0.583844032206514
30
0
41
1
10
3.42527609199681
20
-0.373632754294476
30
0
41
1
10
3.42528820150133
20
-0.302752915650728
30
0
41
1
10
3.42531266238649
20
-0.159337199990858
30
0
41
1
10
3.42532504558341
20
-0.0865929957316212
30
0
41
1
10
3.42533692666277
20
-0.0145996093811789
30
0
0
SPLINE
5
D1
100
AcDbEntity
8
1
62
256
6
ByLayer
370
18
48
1
60
0
100
AcDbSpline
70
4
71
3
72
8
73
4
40
0
40
0
40
0
40
0
40
1
40
1
40
1
40
1
41
1
10
37.9960282093025
20
-0.127188220738759
30
0
41
1
10
37.9961063334533
20
-0.110829350129706
30
0
41
1
10
37.9959408023436
20
-0.0944752608621684
30
0
41
1
10
37.9955176454666
20
-0.0781262270848231
30
0
0
SPLINE
5
D2
100
AcDbEntity
8
1
62
256
6
ByLayer
370
18
48
1
60
0
100
AcDbSpline
70
4
71
3
72
10
73
6
40
0
40
0
40
0
40
0
40
0.5
40
0.5
40
1
40
1
40
1
40
1
41
1
10
3.63232774161898
20
-2.06527271755493
30
0
41
1
10
3.60942575611546
20
-2.06572676350461
30
0
41
1
10
3.58698207913673
20
-2.06920809851368
30
0
41
1
10
3.5430611198351
20
-2.08215425016971
30
0
41
1
10
3.52154671024832
20
-2.09173822631106
30
0
41
1
10
3.5016722806952
20
-2.10413556179236
30
0
0
SPLINE
5
D3
100
AcDbEntity
8
1
62
256
6
ByLayer
370
18
48
1
60
0
100
AcDbSpline
70
4
71
3
72
8
73
4
40
0
40
0
40
0
40
0
40
1
40
1
40
1
40
1
41
1
10
37.3396998366388
20
-0.952579642485802
30
0
41
1
10
37.1903411152349
20
-1.15463582731695
30
0
41
1
10
37.0381709532234
20
-1.35356164207812
30
0
41
1
10
36.8841579398205
20
-1.55033151009531
30
0
0
SPLINE
5
D4
100
AcDbEntity
8
1
62
256
6
ByLayer
370
18
48
1
60
0
100
AcDbSpline
70
4
71
3
72
14
73
10
40
0
40
0
40
0
40
0
40
0.25
40
0.25
40
0.5
40
0.5
40
0.75
40
0.75
40
1
40
1
40
1
40
1
41
1
10
6.17744088740062
20
-1.53013456435212
30
0
41
1
10
5.95878699786257
20
-1.44600142574308
30
0
41
1
10
5.74319862615027
20
-1.35065706489317
30
0
41
1
10
5.31371213046816
20
-1.14007786965763
30
0
41
1
10
5.09989327697309
20
-1.02555278519171
30
0
41
1
10
4.67689039296533
20
-0.784713051480992
30
0
41
1
10
4.4669238754791
20
-0.658217793780011
30
0
41
1
10
4.04852928382161
20
-0.394599419891847
30
0
41
1
10
3.84009135141693
20
-0.25738399786772
30
0
41
1
10
3.63265044737213
20
-0.113666522251776
30
0
0
SPLINE
5
D5
100
AcDbEntity
8
1
62
256
6
ByLayer
370
18
48
1
60
0
100
AcDbSpline
70
4
71
3
72
8
73
4
40
0
40
0
40
0
40
0
40
1
40
1
40
1
40
1
41
1
10
3.52263103190171
20
-2.17109459352608
30
0
41
1
10
3.51412843578143
20
-2.17152457431686
30
0
41
1
10
3.50570448272711
20
-2.17194877750592
30
0
41
1
10
3.49750379490982
20
-2.17237673665753
30
0
0
SPLINE
5
D6
100
AcDbEntity
8
1
62
256
6
ByLayer
370
18
48
1
60
0
100
AcDbSpline
70
4
71
3
72
8
73
4
40
0
40
0
40
0
40
0
40
1
40
1
40
1
40
1
41
1
10
37.9955176454666
20
-0.0781262270847947
30
0
41
1
10
37.9951642673342
20
-0.0644731557581224
30
0
41
1
10
37.9968053873181
20
-0.0475938795584625
30
0
41
1
10
37.9997860084203
20
-0.0294524703915613
30
0
0
SPLINE
5
D7
100
AcDbEntity
8
1
62
256
6
ByLayer
370
18
48
1
60
0
100
AcDbSpline
70
4
71
3
72
12
73
8
40
0
40
0
40
0
40
0
40
0.249999999999985
40
0.249999999999985
40
0.499999999999969
40
0.499999999999969
40
1
40
1
40
1
40
1
41
1
10
3.63265044734749
20
-0.113666522233672
30
0
41
1
10
3.6142181745133
20
-0.100896428824541
30
0
41
1
10
3.595698279233
20
-0.0888947460159955
30
0
41
1
10
3.55846166261125
20
-0.06663624736467
30
0
41
1
10
3.53949633630685
20
-0.0562653752782296
30
0
41
1
10
3.4848293683954
20
-0.0296942430943545
30
0
41
1
10
3.45054187460488
20
-0.0178217593556553
30
0
41
1
10
3.42533692665396
20
-0.0145996093798146
30
0
0
SPLINE
5
D8
100
AcDbEntity
8
1
62
256
6
ByLayer
370
13
48
1
60
0
100
AcDbSpline
70
4
71
3
72
8
73
4
40
0
40
0
40
0
40
0
40
1
40
1
40
1
40
1
41
1
10
3.58046673944023
20
-2.15644914585585
30
0
41
1
10
3.82004815235842
20
-2.14216233020085
30
0
41
1
10
4.05860172907018
20
-2.11338730403727
30
0
41
1
10
4.29733137216499
20
-2.07073145836142
30
0
0
SPLINE
5
D9
100
AcDbEntity
8
1
62
256
6
ByLayer
370
18
48
1
60
0
100
AcDbSpline
70
4
71
3
72
22
73
18
40
0
40
0
40
0
40
0
40
0.0827733464231478
40
0.0827733464231478
40
0.191539590246006
40
0.191539590246006
40
0.300305834068865
40
0.300305834068865
40
0.517838321714581
40
0.517838321714581
40
0.626604565537438
40
0.626604565537438
40
0.735370809360295
40
0.735370809360295
40
0.952903297006008
40
0.952903297006008
40
1
40
1
40
1
40
1
41
1
10
17.9391042657417
20
1.23286692773712
30
0
41
1
10
18.0727011409069
20
1.16600411587444
30
0
41
1
10
18.2064435730956
20
1.09646356624421
30
0
41
1
10
18.5167605875833
20
0.929987316504423
30
0
41
1
10
18.6942259084509
20
0.83106539349663
30
0
41
1
10
19.0471806724696
20
0.629246339676627
30
0
41
1
10
19.22290976875
20
0.526062940331002
30
0
41
1
10
19.7493461567261
20
0.21219944240508
30
0
41
1
10
20.0992159037791
20
-0.0029359885994609
30
0
41
1
10
20.6290534180095
20
-0.323548014023714
30
0
41
1
10
20.8064552052916
20
-0.429946648658813
30
0
41
1
10
21.1600935130678
20
-0.638344574218195
30
0
41
1
10
21.3368715466491
20
-0.740705917912578
30
0
41
1
10
21.8678456276606
20
-1.03928812198629
30
0
41
1
10
22.2175863543272
20
-1.22314475333817
30
0
41
1
10
22.6423748660503
20
-1.42276456758412
30
0
41
1
10
22.7179635689631
20
-1.45735055311792
30
0
41
1
10
22.7935785795855
20
-1.49094706978988
30
0
0
SPLINE
5
DA
100
AcDbEntity
8
1
62
256
6
ByLayer
370
13
48
1
60
0
100
AcDbSpline
70
4
71
3
72
18
73
14
40
0
40
0
40
0
40
0
40
0.213632430067029
40
0.213632430067029
40
0.349965284297462
40
0.349965284297462
40
0.486298138527895
40
0.486298138527895
40
0.758963846988757
40
0.758963846988757
40
0.89529670121919
40
0.89529670121919
40
1
40
1
40
1
40
1
41
1
10
22.793578579848
20
-1.49094706990655
30
0
41
1
10
23.067217769929
20
-1.61252773934453
30
0
41
1
10
23.3412014872759
20
-1.72115026813785
30
0
41
1
10
23.7935664180932
20
-1.8740889787187
30
0
41
1
10
23.97108836949
20
-1.92739590691505
30
0
41
1
10
24.3229634945942
20
-2.01866572418174
30
0
41
1
10
24.4980363930569
20
-2.05695249438679
30
0
41
1
10
25.0222751227395
20
-2.14947228019926
30
0
41
1
10
25.3706237268501
20
-2.18095223658821
30
0
41
1
10
25.8969418229942
20
-2.1812315817451
30
0
41
1
10
26.0735543604679
20
-2.17347643514537
30
0
41
1
10
26.3860353746155
20
-2.14564360637365
30
0
41
1
10
26.5211711180367
20
-2.12896535969659
30
0
41
1
10
26.6559095454929
20
-2.1078546723752
30
0
0
SPLINE
5
DB
100
AcDbEntity
8
1
62
256
6
ByLayer
370
18
48
1
60
0
100
AcDbSpline
70
4
71
3
72
10
73
6
40
0
40
0
40
0
40
0
40
0.5
40
0.5
40
1
40
1
40
1
40
1
41
1
10
37.9955176454666
20
0.0781262270848799
30
0
41
1
10
37.9953410490802
20
0.0713032721886862
30
0
41
1
10
37.9956847754997
20
0.0635509843792477
30
0
41
1
10
37.99715776712
20
0.0472305845614756
30
0
41
1
10
37.9982942365922
20
0.0385320689681521
30
0
41
1
10
37.9997860084204
20
0.0294524703913908
30
0
0
SPLINE
5
DC
100
AcDbEntity
8
1
62
256
6
ByLayer
370
18
48
1
60
0
100
AcDbSpline
70
4
71
3
72
12
73
8
40
0
40
0
40
0
40
0
40
0.5
40
0.5
40
0.75
40
0.75
40
1
40
1
40
1
40
1
41
1
10
37.9960282093025
20
0.127188220738731
30
0
41
1
10
37.9899816284884
20
0.224487982974949
30
0
41
1
10
37.9770475989355
20
0.322592223547787
30
0
41
1
10
37.9483437497229
20
0.474782156544137
30
0
41
1
10
37.9372326430478
20
0.526348241817146
30
0
41
1
10
37.9121409625038
20
0.631765446809595
30
0
41
1
10
37.8980987632469
20
0.685837410184462
30
0
41
1
10
37.8828865464424
20
0.740784110875865
30
0
0
SPLINE
5
DD
100
AcDbEntity
8
1
62
256
6
ByLayer
370
18
48
1
60
0
100
AcDbSpline
70
4
71
3
72
10
73
6
40
0
40
0
40
0
40
0
40
0.5
40
0.5
40
1
40
1
40
1
40
1
41
1
10
37.882886546442
20
-0.740784110877172
30
0
41
1
10
37.9129455651414
20
-0.632210592318046
30
0
41
1
10
37.9382032545635
20
-0.52808749095712
30
0
41
1
10
37.976729376026
20
-0.324729235830318
30
0
41
1
10
37.9899474514688
20
-0.225037949310007
30
0
41
1
10
37.9960282093025
20
-0.127188220738759
30
0
0
SPLINE
5
DE
100
AcDbEntity
8
1
62
256
6
ByLayer
370
18
48
1
60
0
100
AcDbSpline
70
4
71
3
72
66
73
62
40
0
40
0
40
0
40
0
40
0.0065398914592609
40
0.0065398914592609
40
0.0397526540646139
40
0.0397526540646139
40
0.072965416669967
40
0.072965416669967
40
0.10617817927532
40
0.10617817927532
40
0.139390941880673
40
0.139390941880673
40
0.172603704486026
40
0.172603704486026
40
0.205816467091379
40
0.205816467091379
40
0.239029229696732
40
0.239029229696732
40
0.272241992302085
40
0.272241992302085
40
0.305454754907438
40
0.305454754907438
40
0.338667517512791
40
0.338667517512791
40
0.371880280118144
40
0.371880280118144
40
0.405093042723497
40
0.405093042723497
40
0.438305805328851
40
0.438305805328851
40
0.471518567934204
40
0.471518567934204
40
0.504731330539557
40
0.504731330539557
40
0.53794409314491
40
0.53794409314491
40
0.571156855750263
40
0.571156855750263
40
0.604369618355616
40
0.604369618355616
40
0.637582380960969
40
0.637582380960969
40
0.670795143566322
40
0.670795143566322
40
0.704007906171675
40
0.704007906171675
40
0.737220668777028
40
0.737220668777028
40
0.770433431382381
40
0.770433431382381
40
0.803646193987734
40
0.803646193987734
40
0.836858956593087
40
0.836858956593087
40
0.87007171919844
40
0.87007171919844
40
0.936497244409145
40
0.936497244409145
40
0.969710007014498
40
0.969710007014498
40
1
40
1
40
1
40
1
41
1
10
8.80593751941203
20
2.07275745626416
30
0
41
1
10
8.83586245446119
20
2.07288541571126
30
0
41
1
10
8.86576740475985
20
2.07278449901503
30
0
41
1
10
9.04735409473034
20
2.07077786920857
30
0
41
1
10
9.19871210320181
20
2.06346549301551
30
0
41
1
10
9.50216188203225
20
2.0375133548537
30
0
41
1
10
9.65407818753107
20
2.01875621226037
30
0
41
1
10
9.95833611734508
20
1.97163646989301
30
0
41
1
10
10.1097937620172
20
1.94390387730976
30
0
41
1
10
10.411527674458
20
1.87593894048939
30
0
41
1
10
10.5619551054024
20
1.8365199788044
30
0
41
1
10
10.8621765150956
20
1.74876219915839
30
0
41
1
10
11.0119429885865
20
1.70045887672134
30
0
41
1
10
11.3119280566763
20
1.5954886750655
30
0
41
1
10
11.4622406204165
20
1.53868908823705
30
0
41
1
10
11.7632662791898
20
1.4174325281941
30
0
41
1
10
11.9139418770668
20
1.35163091260054
30
0
41
1
10
12.2169174053061
20
1.21266284820965
30
0
41
1
10
12.3694564905337
20
1.13983114854057
30
0
41
1
10
12.673315109194
20
0.989652902921705
30
0
41
1
10
12.8248821417773
20
0.911676177985441
30
0
41
1
10
13.128029147732
20
0.750319334574812
30
0
41
1
10
13.2799478421686
20
0.667900610417121
30
0
41
1
10
13.5844755062363
20
0.498627525888196
30
0
41
1
10
13.735820754233
20
0.412653404132328
30
0
41
1
10
14.0375076508881
20
0.239415963510453
30
0
41
1
10
14.1881586601826
20
0.1526737860992
30
0
41
1
10
14.4890216760808
20
-0.0209796437821979
30
0
41
1
10
14.639058208808
20
-0.108166500494462
30
0
41
1
10
14.9392345763815
20
-0.281872952148888
30
0
41
1
10
15.0894251740424
20
-0.368294647301127
30
0
41
1
10
15.3910138354597
20
-0.538560765287713
30
0
41
1
10
15.5421862613674
20
-0.6227323782675
30
0
41
1
10
15.8456977488932
20
-0.788436875611268
30
0
41
1
10
15.9979682364862
20
-0.869928340085465
30
0
41
1
10
16.3020084264009
20
-1.02674262672741
30
0
41
1
10
16.4539325927633
20
-1.10265978466802
30
0
41
1
10
16.7574891693907
20
-1.24785582072886
30
0
41
1
10
16.9092691838131
20
-1.3173777194398
30
0
41
1
10
17.2138804476721
20
-1.44914531879701
30
0
41
1
10
17.3660736641276
20
-1.51130578298492
30
0
41
1
10
17.6697990310976
20
-1.62726318755529
30
0
41
1
10
17.8213368112839
20
-1.6813128638326
30
0
41
1
10
18.1252558157943
20
-1.77914049933244
30
0
41
1
10
18.2779889660678
20
-1.82281065496292
30
0
41
1
10
18.5814416283252
20
-1.90049888735515
30
0
41
1
10
18.7325327076144
20
-1.93513149020018
30
0
41
1
10
19.0341136473924
20
-1.9945375925418
30
0
41
1
10
19.1846038203453
20
-2.01752587763846
30
0
41
1
10
19.4853818970513
20
-2.05233456330947
30
0
41
1
10
19.6356127124927
20
-2.0644231512432
30
0
41
1
10
19.9365449646753
20
-2.07824514951258
30
0
41
1
10
20.0875350319727
20
-2.07992248054273
30
0
41
1
10
20.3904881115057
20
-2.0739617199809
30
0
41
1
10
20.5427501568789
20
-2.06558969988549
30
0
41
1
10
20.9988960039291
20
-2.02018904809154
30
0
41
1
10
21.3021864647727
20
-1.96588042088408
30
0
41
1
10
21.7580330257557
20
-1.85592874644013
30
0
41
1
10
21.9104158311638
20
-1.81547416172126
30
0
41
1
10
22.2010915448829
20
-1.72803732261173
30
0
41
1
10
22.3394667044867
20
-1.68187561653013
30
0
41
1
10
22.4777779415623
20
-1.63172693882149
30
0
0
SPLINE
5
DF
100
AcDbEntity
8
1
62
256
6
ByLayer
370
18
48
1
60
0
100
AcDbSpline
70
4
71
3
72
22
73
18
40
0
40
0
40
0
40
0
40
0.0676022244880242
40
0.0676022244880242
40
0.184151946427022
40
0.184151946427022
40
0.300701668366018
40
0.300701668366018
40
0.417251390305016
40
0.417251390305016
40
0.533801112244013
40
0.533801112244013
40
0.766900556122007
40
0.766900556122007
40
0.883450278061004
40
0.883450278061004
40
1
40
1
40
1
40
1
41
1
10
31.3115182687204
20
2.08590442216891
30
0
41
1
10
31.3995628057448
20
2.08639961095793
30
0
41
1
10
31.4876879730961
20
2.08499574142633
30
0
41
1
10
31.7273592546378
20
2.07556761853456
30
0
41
1
10
31.8790279125363
20
2.06387783832528
30
0
41
1
10
32.1821978953149
20
2.03010565761392
30
0
41
1
10
32.3336596202861
20
2.00818118144858
30
0
41
1
10
32.6372817152799
20
1.95191964946866
30
0
41
1
10
32.7891466927667
20
1.91801958584011
30
0
41
1
10
33.0911051981114
20
1.84109353785144
30
0
41
1
10
33.2414412092585
20
1.79788882688211
30
0
41
1
10
33.691499592954
20
1.6551504196384
30
0
41
1
10
33.9913312761043
20
1.54393551608112
30
0
41
1
10
34.4417376773163
20
1.3493789565685
30
0
41
1
10
34.5922657680573
20
1.28066269026513
30
0
41
1
10
34.8949614380123
20
1.13717953192071
30
0
41
1
10
35.0472880177601
20
1.06179339075266
30
0
41
1
10
35.1989950530561
20
0.983725220650228
30
0
0
SPLINE
5
E0
100
AcDbEntity
8
SK1
62
256
6
ByLayer
370
18
48
1
60
0
100
AcDbSpline
70
4
71
3
72
8
73
4
40
0
40
0
40
0
40
0
40
1
40
1
40
1
40
1
41
1
10
-35.4
20
2.32547915837173
30
0
41
1
10
-35.6037598652716
20
2.08563820520354
30
0
41
1
10
-35.8060798674839
20
1.84528643530476
30
0
41
1
10
-36
20
1.60195466397599
30
0
0
SPLINE
5
E1
100
AcDbEntity
8
SK1
62
256
6
ByLayer
370
18
48
1
60
0
100
AcDbSpline
70
4
71
3
72
8
73
4
40
0
40
0
40
0
40
0
40
1
40
1
40
1
40
1
41
1
10
-35.9999999999999
20
0.467935241672819
30
0
41
1
10
-35.8061980002813
20
0.711118779486497
30
0
41
1
10
-35.6038112378037
20
0.95155831349885
30
0
41
1
10
-35.4
20
1.19145973606848
30
0
0
SPLINE
5
E2
100
AcDbEntity
8
SK1
62
256
6
ByLayer
370
18
48
1
60
0
100
AcDbSpline
70
4
71
3
72
14
73
10
40
0
40
0
40
0
40
0
40
0.124999999999999
40
0.124999999999999
40
0.249999999999998
40
0.249999999999998
40
0.499999999999998
40
0.499999999999998
40
1
40
1
40
1
40
1
41
1
10
-35.3
20
2.38323847427293
30
0
41
1
10
-35.3
20
2.38979059634849
30
0
41
1
10
-35.3017593723636
20
2.39373858263767
30
0
41
1
10
-35.306935341198
20
2.39791883779503
30
0
41
1
10
-35.3102739075535
20
2.39827281303397
30
0
41
1
10
-35.3215583577555
20
2.39639986746909
30
0
41
1
10
-35.3303095934912
20
2.39141087522245
30
0
41
1
10
-35.358391202053
20
2.37094697603402
30
0
41
1
10
-35.378655954467
20
2.35060273321454
30
0
41
1
10
-35.4
20
2.32547915837173
30
0
0
SPLINE
5
E3
100
AcDbEntity
8
SK1
62
256
6
ByLayer
370
18
48
1
60
0
100
AcDbSpline
70
4
71
3
72
14
73
10
40
0
40
0
40
0
40
0
40
0.499999999999997
40
0.499999999999997
40
0.749999999999998
40
0.749999999999998
40
0.874999999999999
40
0.874999999999999
40
1
40
1
40
1
40
1
41
1
10
-35.4
20
1.19145973606794
30
0
41
1
10
-35.3787677796885
20
1.21645168406806
30
0
41
1
10
-35.3584290958895
20
1.24607561591634
30
0
41
1
10
-35.3303626450498
20
1.2986069465328
30
0
41
1
10
-35.3215171954455
20
1.31730228240394
30
0
41
1
10
-35.3102812516991
20
1.34776039706918
30
0
41
1
10
-35.3068890218585
20
1.35834073359516
30
0
41
1
10
-35.3017585680987
20
1.37968370046005
30
0
41
1
10
-35.3
20
1.39065993771365
30
0
41
1
10
-35.3
20
1.40042164161008
30
0
0
LINE
5
76
100
AcDbEntity
8
81
62
256
6
ByLayer
370
18
48
1
60
0
100
AcDbLine
10
38
20
0
30
0
11
43
21
0
31
0
39
0
210
0
220
0
230
1
0
LINE
5
77
100
AcDbEntity
8
1
62
256
6
ByLayer
370
18
48
1
60
0
100
AcDbLine
10
0
20
-3
30
0
11
0.8
21
-2.177136
31
0
39
0
210
0
220
0
230
1
0
LINE
5
79
100
AcDbEntity
8
1
62
256
6
ByLayer
370
18
48
1
60
0
100
AcDbLine
10
0.8
20
2.177136
30
0
11
0
21
3
31
0
39
0
210
0
220
0
230
1
0
LINE
5
7A
100
AcDbEntity
8
1
62
256
6
ByLayer
370
18
48
1
60
0
100
AcDbLine
10
3.42511
20
2.178777
30
0
11
0.8
21
2.177136
31
0
39
0
210
0
220
0
230
1
0
LINE
5
7B
100
AcDbEntity
8
1
62
256
6
ByLayer
370
18
48
1
60
0
100
AcDbLine
10
14.470316
20
2.18568
30
0
11
13.882074
21
2.185313
31
0
39
0
210
0
220
0
230
1
0
LINE
5
7C
100
AcDbEntity
8
1
62
256
6
ByLayer
370
18
48
1
60
0
100
AcDbLine
10
25.720267
20
2.192711
30
0
11
25.129953
21
2.192342
31
0
39
0
210
0
220
0
230
1
0
LINE
5
7D
100
AcDbEntity
8
1
62
256
6
ByLayer
370
18
48
1
60
0
100
AcDbLine
10
36.97113
20
2.199743
30
0
11
36.381151
21
2.199374
31
0
39
0
210
0
220
0
230
1
0
LINE
5
7E
100
AcDbEntity
8
1
62
256
6
ByLayer
370
18
48
1
60
0
100
AcDbLine
10
36.381151
20
-2.199374
30
0
11
36.97115
21
-2.199743
31
0
39
0
210
0
220
0
230
1
0
LINE
5
7F
100
AcDbEntity
8
1
62
256
6
ByLayer
370
18
48
1
60
0
100
AcDbLine
10
25.129953
20
-2.192342
30
0
11
25.720757
21
-2.192712
31
0
39
0
210
0
220
0
230
1
0
LINE
5
80
100
AcDbEntity
8
1
62
256
6
ByLayer
370
18
48
1
60
0
100
AcDbLine
10
13.882074
20
-2.185313
30
0
11
14.47063
21
-2.18568
31
0
39
0
210
0
220
0
230
1
0
LINE
5
81
100
AcDbEntity
8
1
62
256
6
ByLayer
370
18
48
1
60
0
100
AcDbLine
10
0.8
20
-2.177136
30
0
11
3.42511
21
-2.178777
31
0
39
0
210
0
220
0
230
1
0
LINE
5
82
100
AcDbEntity
8
SK1
62
256
6
ByLayer
370
18
48
1
60
0
100
AcDbLine
10
-35.278312
20
3
30
0
11
-36
21
1.75
31
0
39
0
210
0
220
0
230
1
0
LINE
5
84
100
AcDbEntity
8
SK1
62
256
6
ByLayer
370
18
48
1
60
0
100
AcDbLine
10
-36
20
-1.75
30
0
11
-35.278312
21
-3
31
0
39
0
210
0
220
0
230
1
0
LINE
5
85
100
AcDbEntity
8
SK1
62
256
6
ByLayer
370
18
48
1
60
0
100
AcDbLine
10
0
20
3
30
0
11
-35.278312
21
3
31
0
39
0
210
0
220
0
230
1
0
LINE
5
86
100
AcDbEntity
8
SK1
62
256
6
ByLayer
370
18
48
1
60
0
100
AcDbLine
10
-35.278312
20
-3
30
0
11
0
21
-3
31
0
39
0
210
0
220
0
230
1
0
LINE
5
87
100
AcDbEntity
8
SK4
62
256
6
ByLayer
370
18
48
0.05
60
0
100
AcDbLine
10
43
20
0
30
0
11
-41
21
0
31
0
39
0
210
0
220
0
230
1
0
LINE
5
89
100
AcDbEntity
8
4
62
256
6
ByLayer
370
18
48
0.05
60
0
100
AcDbLine
10
38
20
0
30
0
11
0
21
0
31
0
39
0
210
0
220
0
230
1
0
LINE
5
8B
100
AcDbEntity
8
80
62
256
6
ByLayer
370
18
48
1
60
0
100
AcDbLine
10
0
20
0
30
0
11
-5
21
0
31
0
39
0
210
0
220
0
230
1
0
LINE
5
8C
100
AcDbEntity
8
1
62
256
6
ByLayer
370
13
48
1
60
0
100
AcDbLine
10
37.083746
20
0.535686
30
0
11
37.977865
21
-0.030312
31
0
39
0
210
0
220
0
230
1
0
LINE
5
8D
100
AcDbEntity
8
1
62
256
6
ByLayer
370
13
48
1
60
0
100
AcDbLine
10
37.175587
20
0.597162
30
0
11
37.995518
21
0.078126
31
0
39
0
210
0
220
0
230
1
0
LINE
5
8E
100
AcDbEntity
8
1
62
256
6
ByLayer
370
18
48
1
60
0
100
AcDbLine
10
3.425109
20
2.178311
30
0
11
3.425115
21
2.178777
31
0
39
0
210
0
220
0
230
1
0
LINE
5
8F
100
AcDbEntity
8
1
62
256
6
ByLayer
370
18
48
1
60
0
100
AcDbLine
10
0
20
-3
30
0
11
0
21
3
31
0
39
0
210
0
220
0
230
1
0
LINE
5
90
100
AcDbEntity
8
1
62
256
6
ByLayer
370
18
48
1
60
0
100
AcDbLine
10
3.632328
20
-2.065273
30
0
11
3.632328
21
-2.065317
31
0
39
0
210
0
220
0
230
1
0
LINE
5
91
100
AcDbEntity
8
1
62
256
6
ByLayer
370
18
48
1
60
0
100
AcDbLine
10
0.8
20
2.177136
30
0
11
0.8
21
-2.177136
31
0
39
0
210
0
220
0
230
1
0
LINE
5
92
100
AcDbEntity
8
SK1
62
256
6
ByLayer
370
18
48
1
60
0
100
AcDbLine
10
-36
20
1.601955
30
0
11
-36
21
0.467946
31
0
39
0
210
0
220
0
230
1
0
LINE
5
93
100
AcDbEntity
8
SK1
62
256
6
ByLayer
370
13
48
1
60
0
100
AcDbLine
10
-35.4
20
2.325479
30
0
11
-35.4
21
1.191431
31
0
39
0
210
0
220
0
230
1
0
LINE
5
94
100
AcDbEntity
8
SK1
62
256
6
ByLayer
370
18
48
1
60
0
100
AcDbLine
10
0
20
-3
30
0
11
0
21
3
31
0
39
0
210
0
220
0
230
1
0
LINE
5
95
100
AcDbEntity
8
SK1
62
256
6
ByLayer
370
18
48
1
60
0
100
AcDbLine
10
-35.278312
20
3
30
0
11
-35.278312
21
-3
31
0
39
0
210
0
220
0
230
1
0
LINE
5
96
100
AcDbEntity
8
SK1
62
256
6
ByLayer
370
18
48
1
60
0
100
AcDbLine
10
-35.3
20
1.400422
30
0
11
-35.3
21
2.383238
31
0
39
0
210
0
220
0
230
1
0
LINE
5
97
100
AcDbEntity
8
SK1
62
256
6
ByLayer
370
18
48
1
60
0
100
AcDbLine
10
-36
20
0.467935
30
0
11
-36
21
-1.75
31
0
39
0
210
0
220
0
230
1
0
LINE
5
98
100
AcDbEntity
8
SK1
62
256
6
ByLayer
370
18
48
1
60
0
100
AcDbLine
10
-36
20
1.75
30
0
11
-36
21
1.601955
31
0
39
0
210
0
220
0
230
1
0
MTEXT
5
E4
100
AcDbEntity
8
SK6
62
256
6
ByLayer
370
13
48
1
60
0
100
AcDbMText
10
3.129169
20
34.582694
30
0
210
0
220
0
230
1
1
\W0.7632;460.1-0440-022A1-XM GC34
40
3.5
41
0
44
1.084337
50
0
71
8
72
5
7
iso_b_vert
0
DIMENSION
5
F1
100
AcDbEntity
8
SK2
62
256
6
ByLayer
370
13
48
1
60
0
100
AcDbDimension
2
DimnDraft3D1
10
37.3599
20
-12.413398
30
0
11
17.609959
21
-12.413398
31
0
70
32
71
5
72
1
41
1
210
0
220
0
230
1
3
Standard
100
AcDbAlignedDimension
13
0
23
-1.5875
33
0
14
37.3599
24
-3.7875
34
0
50
0
100
AcDbRotatedDimension
1001
ACAD
1000
DSTYLE
1002
{
1070
   279
1070
     0
1070
   172
1070
     1
1070
   173
1070
     1
1070
   340
1005
E5
1070
   271
1070
     2
1070
   272
1070
     2
1070
    77
1070
     1
1070
    73
1070
     0
1070
   171
1070
     3
1070
   274
1070
     4
1070
   177
1070
    35
1070
   176
1070
    35
1070
   178
1070
    35
1070
    48
1040
-0.005
1070
    41
1041
3.5
1070
   147
1041
1.75
1070
    42
1041
1.5875
1070
    44
1041
2.0
1070
   140
1041
3.5
1070
   343
1005
0
1070
   344
1005
0
1002
}
0
DIMENSION
5
FB
100
AcDbEntity
8
SK2
62
256
6
ByLayer
370
13
48
1
60
0
100
AcDbDimension
2
DimnDraft3D2
10
38
20
-31.692985
30
0
11
1.7012
21
-31.692985
31
0
70
32
71
5
72
1
41
1
210
0
220
0
230
1
3
Standard
100
AcDbAlignedDimension
13
-36
23
-4.5875
33
0
14
38
24
-1.5875
34
0
50
0
100
AcDbRotatedDimension
1001
ACAD
1000
DSTYLE
1002
{
1070
   279
1070
     0
1070
   172
1070
     1
1070
   173
1070
     1
1070
   340
1005
E5
1070
   271
1070
     2
1070
   272
1070
     2
1070
    77
1070
     1
1070
    73
1070
     0
1070
   171
1070
     3
1070
   274
1070
     4
1070
   177
1070
    35
1070
   176
1070
    35
1070
   178
1070
    35
1070
    48
1040
-0.005
1070
    41
1041
3.5
1070
   147
1041
1.75
1070
    42
1041
1.5875
1070
    44
1041
2.0
1070
   140
1041
3.5
1070
   343
1005
0
1070
   344
1005
0
1002
}
0
DIMENSION
5
105
100
AcDbEntity
8
SK2
62
256
6
ByLayer
370
13
48
1
60
0
100
AcDbDimension
2
DimnDraft3D3
10
38
20
13.809119
30
0
11
26.68
21
13.809119
31
0
70
32
71
5
72
1
41
1
210
0
220
0
230
1
3
Standard
100
AcDbAlignedDimension
13
15.36
23
3.7875
33
0
14
38
24
1.5875
34
0
50
0
100
AcDbRotatedDimension
1001
ACAD
1000
DSTYLE
1002
{
1070
   279
1070
     0
1070
   172
1070
     1
1070
   173
1070
     1
1070
   340
1005
E5
1070
   271
1070
     2
1070
   272
1070
     2
1070
    77
1070
     1
1070
    73
1070
     0
1070
   171
1070
     3
1070
   274
1070
     4
1070
   177
1070
    35
1070
   176
1070
    35
1070
   178
1070
    35
1070
    48
1040
-0.005
1070
    41
1041
3.5
1070
   147
1041
1.75
1070
    42
1041
1.5875
1070
    44
1041
2.0
1070
   140
1041
3.5
1070
   343
1005
0
1070
   344
1005
0
1002
}
0
DIMENSION
5
10F
100
AcDbEntity
8
SK2
62
256
6
ByLayer
370
13
48
1
60
0
100
AcDbDimension
2
DimnDraft3D4
10
37.3599
20
-15.002503
30
0
11
47.981425
21
-15.002503
31
0
70
32
71
5
72
1
41
1
210
0
220
0
230
1
3
Standard
100
AcDbAlignedDimension
13
38
23
-1.5875
33
0
14
37.3599
24
-3.7875
34
0
50
0
100
AcDbRotatedDimension
1001
ACAD
1000
DSTYLE
1002
{
1070
   279
1070
     0
1070
   172
1070
     1
1070
   173
1070
     1
1070
   340
1005
E5
1070
   271
1070
     2
1070
   272
1070
     2
1070
    77
1070
     1
1070
    73
1070
     0
1070
   171
1070
     3
1070
   274
1070
     4
1070
   177
1070
    35
1070
   176
1070
    35
1070
   178
1070
    35
1070
    48
1040
-0.005
1070
    41
1041
3.5
1070
   147
1041
1.75
1070
    42
1041
1.5875
1070
    44
1041
2.0
1070
   140
1041
3.5
1070
   343
1005
0
1070
   344
1005
0
1002
}
0
DIMENSION
5
119
100
AcDbEntity
8
SK2
62
256
6
ByLayer
370
13
48
1
60
0
100
AcDbDimension
2
DimnDraft3D5
10
37.3599
20
-21.343428
30
0
11
-1.379424
21
-21.343428
31
0
70
32
71
5
72
1
41
1
210
0
220
0
230
1
3
Standard
100
AcDbAlignedDimension
13
-36
23
-4.5875
33
0
14
37.3599
24
-3.7875
34
0
50
0
100
AcDbRotatedDimension
1001
ACAD
1000
DSTYLE
1002
{
1070
   279
1070
     0
1070
   172
1070
     1
1070
   173
1070
     1
1070
   340
1005
E5
1070
   271
1070
     2
1070
   272
1070
     2
1070
    77
1070
     1
1070
    73
1070
     0
1070
   171
1070
     3
1070
   274
1070
     4
1070
   177
1070
    35
1070
   176
1070
    35
1070
   178
1070
    35
1070
    48
1040
-0.005
1070
    41
1041
3.5
1070
   147
1041
1.75
1070
    42
1041
1.5875
1070
    44
1041
2.0
1070
   140
1041
3.5
1070
   343
1005
0
1070
   344
1005
0
1002
}
0
DIMENSION
5
124
100
AcDbEntity
8
SK2
62
256
6
ByLayer
370
13
48
1
60
0
100
AcDbDimension
2
DimnDraft3D6
10
-46.625163
20
3
30
0
11
-47.250163
21
21.47418
31
0
70
33
71
5
72
1
41
1
210
0
220
0
230
1
3
Standard
100
AcDbAlignedDimension
13
-37.5875
23
-3
33
0
14
-37.5875
24
3
34
0
1001
ACAD
1000
DSTYLE
1002
{
1070
   279
1070
     0
1070
    74
1070
     0
1070
   173
1070
     1
1070
   340
1005
E5
1070
   271
1070
     3
1070
   272
1070
     2
1070
    77
1070
     1
1070
    73
1070
     0
1070
   171
1070
     3
1070
   274
1070
     4
1070
   177
1070
    35
1070
   176
1070
    35
1070
   178
1070
    35
1070
    48
1040
-0.005
1070
    41
1041
3.5
1070
   147
1041
1.75
1070
    42
1041
1.5875
1070
    44
1041
2.0
1070
   140
1041
3.5
1070
   343
1005
0
1070
   344
1005
0
1002
}
0
DIMENSION
5
12F
100
AcDbEntity
8
2
62
256
6
ByLayer
370
13
48
1
60
0
100
AcDbDimension
2
DimnDraft3D7
10
52.083343
20
2.2
30
0
11
47.458343
21
19.267266
31
0
70
33
71
5
72
1
41
1
210
0
220
0
230
1
3
Standard
100
AcDbAlignedDimension
13
38.9474
23
-2.2
33
0
14
38.9474
24
2.2
34
0
1001
ACAD
1000
DSTYLE
1002
{
1070
   279
1070
     0
1070
    74
1070
     0
1070
   173
1070
     1
1070
   340
1005
E5
1070
   271
1070
     3
1070
   272
1070
     2
1070
    77
1070
     1
1070
    73
1070
     0
1070
   171
1070
     3
1070
   274
1070
     4
1070
   177
1070
    35
1070
   176
1070
    35
1070
   178
1070
    35
1070
    48
1040
-0.005
1070
    41
1041
3.5
1070
   147
1041
1.75
1070
    42
1041
1.5875
1070
    44
1041
2.0
1070
   140
1041
3.5
1070
   343
1005
0
1070
   344
1005
0
1002
}
0
ENDSEC
0
SECTION
2
OBJECTS
0
DICTIONARY
5
19a
330
0
100
AcDbDictionary
280
0
281
1
3
ACAD_GROUP
350
19b
3
ACAD_MLINESTYLE
350
19c
0
DICTIONARY
5
19b
330
0
100
AcDbDictionary
280
0
281
1
0
DICTIONARY
5
19c
330
0
100
AcDbDictionary
280
0
281
1
3
Standard
350
18
0
MLINESTYLE
5
18
330
19c
100
AcDbMlineStyle
2
Standard
70
0
3

62
256
51
90
52
90
71
2
49
-0.5
62
256
6
ByLayer
49
0.5
62
256
6
ByLayer
0
RASTERVARIABLES
5
188
330

100
AcDbRasterVariables
90
0
70
1
71
1
72
1
0
ENDSEC
0
EOF
