0
SECTION
2
HEADER
9
$ACADVER
1
AC1015
9
$DWGCODEPAGE
3
ANSI_1252
9
$HANDSEED
5
19a
9
$ANGBASE
50
0
9
$ANGDIR
70
0
9
$ATTMODE
70
1
9
$AUNITS
70
0
9
$AUPREC
70
0
9
$CECOLOR
62
256
9
$CELTSCALE
40
1
9
$CELTYPE
6
ByLayer
9
$CELWEIGHT
370
18
9
$CLAYER
8
0
9
$CMLJUST
70
0
9
$CMLSCALE
40
1
9
$CMLSTYLE
2
Standard
9
$DIMSTYLE
2
Standard
9
$TEXTSIZE
40
0.2
9
$TEXTSTYLE
7
Standard
9
$LUNITS
70
2
9
$LUPREC
70
4
9
$EXTNAMES
290
1
9
$INSUNITS
70
4
9
$LTSCALE
40
1
9
$LWDISPLAY
290
1
9
$PDMODE
70
0
9
$PDSIZE
40
0
9
$PLINEGEN
70
0
0
ENDSEC
0
SECTION
2
CLASSES
0
CLASS
1
RASTERVARIABLES
2
AcDbRasterVariables
3
ISM
90
0
280
0
281
0
0
ENDSEC
0
SECTION
2
TABLES
0
TABLE
2
VPORT
5
190
100
AcDbSymbolTable
0
VPORT
5
1
100
AcDbSymbolTableRecord
100
AcDbViewportTableRecord
2
*Active
70
0
10
0
20
0
11
1
21
1
12
-1
22
1
13
0
23
0
14
0.5
24
0.5
15
10
25
10
16
0
26
0
36
1
17
0
27
0
37
0
0
ENDTAB
0
TABLE
2
LTYPE
5
191
100
AcDbSymbolTable
0
LTYPE
5
14
100
AcDbSymbolTableRecord
100
AcDbLinetypeTableRecord
70
0
2
ByBlock
3

72
65
73
0
40
0
0
LTYPE
5
15
100
AcDbSymbolTableRecord
100
AcDbLinetypeTableRecord
70
0
2
ByLayer
3

72
65
73
0
40
0
0
LTYPE
5
16
100
AcDbSymbolTableRecord
100
AcDbLinetypeTableRecord
70
0
2
CONTINUOUS
3
Solid line
72
65
73
0
40
0
0
LTYPE
5
6A
100
AcDbSymbolTableRecord
100
AcDbLinetypeTableRecord
70
0
2
CENTER
3
____ _ ____ _ ____ _ ____
72
65
73
4
40
47.5
49
22
74
0
49
-8.5
74
0
49
8.5
74
0
49
-8.5
74
0
0
LTYPE
5
6B
100
AcDbSymbolTableRecord
100
AcDbLinetypeTableRecord
70
0
2
DASHED
3
__ __ __ __ __ __ __ __ __
72
65
73
2
40
25.72
49
12.86
74
0
49
-12.86
74
0
0
ENDTAB
0
TABLE
2
LAYER
5
192
100
AcDbSymbolTable
0
LAYER
5
10
100
AcDbSymbolTableRecord
100
AcDbLayerTableRecord
2
0
70
0
62
7
6
CONTINUOUS
290
1
370
-3
390
0
0
LAYER
5
6D
100
AcDbSymbolTableRecord
100
AcDbLayerTableRecord
2
81
70
0
62
-3
6
CONTINUOUS
290
1
370
-3
390
0
0
LAYER
5
6F
100
AcDbSymbolTableRecord
100
AcDbLayerTableRecord
2
80
70
0
62
-6
6
CONTINUOUS
290
1
370
-3
390
0
0
LAYER
5
74
100
AcDbSymbolTableRecord
100
AcDbLayerTableRecord
2
2
70
0
62
7
6
CONTINUOUS
290
1
370
-3
390
0
0
LAYER
5
78
100
AcDbSymbolTableRecord
100
AcDbLayerTableRecord
2
1
70
0
62
4
6
CONTINUOUS
290
1
370
-3
390
0
0
LAYER
5
88
100
AcDbSymbolTableRecord
100
AcDbLayerTableRecord
2
4
70
0
62
-2
6
CENTER
290
1
370
-3
390
0
0
LAYER
5
17c
100
AcDbSymbolTableRecord
100
AcDbLayerTableRecord
2
SK2
70
0
62
7
6
CONTINUOUS
290
1
370
-3
390
0
0
LAYER
5
17d
100
AcDbSymbolTableRecord
100
AcDbLayerTableRecord
2
SK1
70
0
62
4
6
CONTINUOUS
290
1
370
-3
390
0
0
LAYER
5
17e
100
AcDbSymbolTableRecord
100
AcDbLayerTableRecord
2
SK4
70
0
62
2
6
CENTER
290
1
370
-3
390
0
0
LAYER
5
17f
100
AcDbSymbolTableRecord
100
AcDbLayerTableRecord
2
SK6
70
0
62
5
6
CONTINUOUS
290
1
370
-3
390
0
0
ENDTAB
0
TABLE
2
STYLE
5
193
100
AcDbSymbolTable
0
STYLE
5
11
100
AcDbSymbolTableRecord
100
AcDbTextStyleTableRecord
2
Standard
3
txt
70
0
71
0
40
0
41
1
42
0
50
0
0
STYLE
5
D8
100
AcDbSymbolTableRecord
100
AcDbTextStyleTableRecord
2
iso_b_vert
3
simplex.shx
70
0
71
0
40
0
41
1
42
0
50
0
0
STYLE
5
D9
100
AcDbSymbolTableRecord
100
AcDbTextStyleTableRecord
2
DWGDirectTextStyle
3
simplex
70
0
71
0
40
0
41
1
42
0
50
0
0
ENDTAB
0
TABLE
2
DIMSTYLE
5
194
100
AcDbSymbolTable
100
AcDbDimStyleTable
0
DIMSTYLE
105
27
100
AcDbSymbolTableRecord
100
AcDbDimStyleTableRecord
2
Standard
70
0
3
<>
41
0.18
42
0.0625
44
0.18
140
0.18
147
0.09
73
0
74
0
77
1
271
2
275
0
278
52
280
0
340
11
0
ENDTAB
0
TABLE
2
VIEW
5
195
100
AcDbSymbolTable
0
ENDTAB
0
TABLE
2
UCS
5
196
100
AcDbSymbolTable
0
ENDTAB
0
TABLE
2
APPID
5
197
100
AcDbSymbolTable
0
APPID
5
12
100
AcDbSymbolTableRecord
100
AcDbRegAppTableRecord
2
ACAD
70
0
0
ENDTAB
0
TABLE
2
BLOCK_RECORD
5
198
100
AcDbSymbolTable
0
BLOCK_RECORD
5
1F
100
AcDbSymbolTableRecord
100
AcDbBlockTableRecord
2
*Model_Space
340
0
70
0
0
BLOCK_RECORD
5
1B
100
AcDbSymbolTableRecord
100
AcDbBlockTableRecord
2
*Paper_Space
340
0
70
0
0
BLOCK_RECORD
5
23
100
AcDbSymbolTableRecord
100
AcDbBlockTableRecord
2
*Paper_Space0
340
0
70
0
0
BLOCK_RECORD
5
DB
100
AcDbSymbolTableRecord
100
AcDbBlockTableRecord
2
DimnDraft3D1
340
0
70
0
0
BLOCK_RECORD
5
E5
100
AcDbSymbolTableRecord
100
AcDbBlockTableRecord
2
DimnDraft3D2
340
0
70
0
0
BLOCK_RECORD
5
EF
100
AcDbSymbolTableRecord
100
AcDbBlockTableRecord
2
DimnDraft3D3
340
0
70
0
0
BLOCK_RECORD
5
F9
100
AcDbSymbolTableRecord
100
AcDbBlockTableRecord
2
DimnDraft3D4
340
0
70
0
0
BLOCK_RECORD
5
103
100
AcDbSymbolTableRecord
100
AcDbBlockTableRecord
2
DimnDraft3D5
340
0
70
0
0
BLOCK_RECORD
5
10D
100
AcDbSymbolTableRecord
100
AcDbBlockTableRecord
2
DimnDraft3D6
340
0
70
0
0
BLOCK_RECORD
5
118
100
AcDbSymbolTableRecord
100
AcDbBlockTableRecord
2
DimnDraft3D7
340
0
70
0
0
ENDTAB
0
ENDSEC
0
SECTION
2
BLOCKS
0
BLOCK
5
20
100
AcDbEntity
8
0
100
AcDbBlockBegin
2
*Model_Space
70
0
10
0
20
0
30
0
3
*Model_Space
0
ENDBLK
5
21
100
AcDbEntity
8
0
100
AcDbBlockEnd
0
BLOCK
5
1C
100
AcDbEntity
8
0
100
AcDbBlockBegin
2
*Paper_Space
70
0
10
0
20
0
30
0
3
*Paper_Space
0
ENDBLK
5
1D
100
AcDbEntity
8
0
100
AcDbBlockEnd
0
BLOCK
5
24
100
AcDbEntity
8
0
100
AcDbBlockBegin
2
*Paper_Space0
70
0
10
0
20
0
30
0
3
*Paper_Space0
0
ENDBLK
5
25
100
AcDbEntity
8
0
100
AcDbBlockEnd
0
BLOCK
5
E2
100
AcDbEntity
8
0
100
AcDbBlockBegin
2
DimnDraft3D1
70
0
10
0
20
0
30
0
3
DimnDraft3D1
0
MTEXT
5
DC
100
AcDbEntity
8
SK2
62
256
6
ByLayer
370
13
48
1
60
0
100
AcDbMText
10
9.176375
20
-11.488398
30
0
210
0
220
0
230
1
1
\W0.7317;29,38
40
3.5
41
0
44
1.084337
50
0
71
7
72
5
7
iso_b_vert
0
LINE
5
DD
100
AcDbEntity
8
SK2
62
256
6
ByLayer
370
13
48
1
60
0
100
AcDbLine
10
0
20
-1.5875
30
0
11
0
21
-14.363398
31
0
39
0
210
0
220
0
230
1
0
LINE
5
DE
100
AcDbEntity
8
SK2
62
256
6
ByLayer
370
13
48
1
60
0
100
AcDbLine
10
29.375
20
-3.7375
30
0
11
29.375
21
-14.363398
31
0
39
0
210
0
220
0
230
1
0
LINE
5
DF
100
AcDbEntity
8
SK2
62
256
6
ByLayer
370
13
48
1
60
0
100
AcDbLine
10
0
20
-12.363398
30
0
11
29.375
21
-12.363398
31
0
39
0
210
0
220
0
230
1
0
SOLID
5
E0
100
AcDbEntity
8
SK2
62
256
6
ByLayer
370
13
48
1
60
0
100
AcDbTrace
10
0
20
-12.363398
30
0
11
3.499998
21
-11.902615
31
0
12
3.500002
22
-12.824182
32
0
13
0
23
-12.363398
33
0
39
0
210
0
220
0
230
1
0
SOLID
5
E1
100
AcDbEntity
8
SK2
62
256
6
ByLayer
370
13
48
1
60
0
100
AcDbTrace
10
29.375
20
-12.363398
30
0
11
25.875002
21
-12.824182
31
0
12
25.874998
22
-11.902615
32
0
13
29.375
23
-12.363398
33
0
39
0
210
0
220
0
230
1
0
ENDBLK
5
E3
100
AcDbEntity
8
0
100
AcDbBlockEnd
0
BLOCK
5
EC
100
AcDbEntity
8
0
100
AcDbBlockBegin
2
DimnDraft3D2
70
0
10
0
20
0
30
0
3
DimnDraft3D2
0
MTEXT
5
E6
100
AcDbEntity
8
SK2
62
256
6
ByLayer
370
13
48
1
60
0
100
AcDbMText
10
-6.732384
20
-30.817985
30
0
210
0
220
0
230
1
1
\W0.7317;66,00
40
3.5
41
0
44
1.084337
50
0
71
7
72
5
7
iso_b_vert
0
LINE
5
E7
100
AcDbEntity
8
SK2
62
256
6
ByLayer
370
13
48
1
60
0
100
AcDbLine
10
-36
20
-4.5875
30
0
11
-36
21
-33.692985
31
0
39
0
210
0
220
0
230
1
0
LINE
5
E8
100
AcDbEntity
8
SK2
62
256
6
ByLayer
370
13
48
1
60
0
100
AcDbLine
10
30
20
-1.5875
30
0
11
30
21
-33.692985
31
0
39
0
210
0
220
0
230
1
0
LINE
5
E9
100
AcDbEntity
8
SK2
62
256
6
ByLayer
370
13
48
1
60
0
100
AcDbLine
10
-36
20
-31.692985
30
0
11
30
21
-31.692985
31
0
39
0
210
0
220
0
230
1
0
SOLID
5
EA
100
AcDbEntity
8
SK2
62
256
6
ByLayer
370
13
48
1
60
0
100
AcDbTrace
10
-36
20
-31.692985
30
0
11
-32.500002
21
-31.232202
31
0
12
-32.499998
22
-32.153769
32
0
13
-36
23
-31.692985
33
0
39
0
210
0
220
0
230
1
0
SOLID
5
EB
100
AcDbEntity
8
SK2
62
256
6
ByLayer
370
13
48
1
60
0
100
AcDbTrace
10
30
20
-31.692985
30
0
11
26.500002
21
-32.153769
31
0
12
26.499998
22
-31.232202
32
0
13
30
23
-31.692985
33
0
39
0
210
0
220
0
230
1
0
ENDBLK
5
ED
100
AcDbEntity
8
0
100
AcDbBlockEnd
0
BLOCK
5
F6
100
AcDbEntity
8
0
100
AcDbBlockBegin
2
DimnDraft3D3
70
0
10
0
20
0
30
0
3
DimnDraft3D3
0
MTEXT
5
F0
100
AcDbEntity
8
SK2
62
256
6
ByLayer
370
13
48
1
60
0
100
AcDbMText
10
19.228816
20
14.634119
30
0
210
0
220
0
230
1
1
\W0.6713;13,52
40
3.5
41
0
44
1.084337
50
0
71
7
72
5
7
iso_b_vert
0
LINE
5
F1
100
AcDbEntity
8
SK2
62
256
6
ByLayer
370
13
48
1
60
0
100
AcDbLine
10
16.48
20
3.7375
30
0
11
16.48
21
15.759119
31
0
39
0
210
0
220
0
230
1
0
LINE
5
F2
100
AcDbEntity
8
SK2
62
256
6
ByLayer
370
13
48
1
60
0
100
AcDbLine
10
30
20
1.5875
30
0
11
30
21
15.759119
31
0
39
0
210
0
220
0
230
1
0
LINE
5
F3
100
AcDbEntity
8
SK2
62
256
6
ByLayer
370
13
48
1
60
0
100
AcDbLine
10
16.48
20
13.759119
30
0
11
30
21
13.759119
31
0
39
0
210
0
220
0
230
1
0
SOLID
5
F4
100
AcDbEntity
8
SK2
62
256
6
ByLayer
370
13
48
1
60
0
100
AcDbTrace
10
16.48
20
13.759119
30
0
11
19.979998
21
14.219903
31
0
12
19.980002
22
13.298335
32
0
13
16.48
23
13.759119
33
0
39
0
210
0
220
0
230
1
0
SOLID
5
F5
100
AcDbEntity
8
SK2
62
256
6
ByLayer
370
13
48
1
60
0
100
AcDbTrace
10
30
20
13.759119
30
0
11
26.500002
21
13.298335
31
0
12
26.499998
22
14.219903
32
0
13
30
23
13.759119
33
0
39
0
210
0
220
0
230
1
0
ENDBLK
5
F7
100
AcDbEntity
8
0
100
AcDbBlockEnd
0
BLOCK
5
100
100
AcDbEntity
8
0
100
AcDbBlockBegin
2
DimnDraft3D4
70
0
10
0
20
0
30
0
3
DimnDraft3D4
0
MTEXT
5
FA
100
AcDbEntity
8
SK2
62
256
6
ByLayer
370
13
48
1
60
0
100
AcDbMText
10
36.840636
20
-14.077503
30
0
210
0
220
0
230
1
1
\W0.7150;0,62
40
3.5
41
0
44
1.084337
50
0
71
7
72
5
7
iso_b_vert
0
LINE
5
FB
100
AcDbEntity
8
SK2
62
256
6
ByLayer
370
13
48
1
60
0
100
AcDbLine
10
30
20
-1.5875
30
0
11
30
21
-16.952503
31
0
39
0
210
0
220
0
230
1
0
LINE
5
FC
100
AcDbEntity
8
SK2
62
256
6
ByLayer
370
13
48
1
60
0
100
AcDbLine
10
29.375
20
-3.7375
30
0
11
29.375
21
-16.952503
31
0
39
0
210
0
220
0
230
1
0
LINE
5
FD
100
AcDbEntity
8
SK2
62
256
6
ByLayer
370
13
48
1
60
0
100
AcDbLine
10
20.625
20
-14.952503
30
0
11
43.997215
21
-14.952503
31
0
39
0
210
0
220
0
230
1
0
SOLID
5
FE
100
AcDbEntity
8
SK2
62
256
6
ByLayer
370
13
48
1
60
0
100
AcDbTrace
10
30
20
-14.952503
30
0
11
33.499998
21
-14.491719
31
0
12
33.500002
22
-15.413287
32
0
13
30
23
-14.952503
33
0
39
0
210
0
220
0
230
1
0
SOLID
5
FF
100
AcDbEntity
8
SK2
62
256
6
ByLayer
370
13
48
1
60
0
100
AcDbTrace
10
29.375
20
-14.952503
30
0
11
25.875002
21
-15.413287
31
0
12
25.874998
22
-14.491719
32
0
13
29.375
23
-14.952503
33
0
39
0
210
0
220
0
230
1
0
ENDBLK
5
101
100
AcDbEntity
8
0
100
AcDbBlockEnd
0
BLOCK
5
10A
100
AcDbEntity
8
0
100
AcDbBlockBegin
2
DimnDraft3D5
70
0
10
0
20
0
30
0
3
DimnDraft3D5
0
MTEXT
5
104
100
AcDbEntity
8
SK2
62
256
6
ByLayer
370
13
48
1
60
0
100
AcDbMText
10
-9.813008
20
-20.468428
30
0
210
0
220
0
230
1
1
\W0.7317;65,38
40
3.5
41
0
44
1.084337
50
0
71
7
72
5
7
iso_b_vert
0
LINE
5
105
100
AcDbEntity
8
SK2
62
256
6
ByLayer
370
13
48
1
60
0
100
AcDbLine
10
-36
20
-4.5875
30
0
11
-36
21
-23.343428
31
0
39
0
210
0
220
0
230
1
0
LINE
5
106
100
AcDbEntity
8
SK2
62
256
6
ByLayer
370
13
48
1
60
0
100
AcDbLine
10
29.375
20
-3.7375
30
0
11
29.375
21
-23.343428
31
0
39
0
210
0
220
0
230
1
0
LINE
5
107
100
AcDbEntity
8
SK2
62
256
6
ByLayer
370
13
48
1
60
0
100
AcDbLine
10
-36
20
-21.343428
30
0
11
29.375
21
-21.343428
31
0
39
0
210
0
220
0
230
1
0
SOLID
5
108
100
AcDbEntity
8
SK2
62
256
6
ByLayer
370
13
48
1
60
0
100
AcDbTrace
10
-36
20
-21.343428
30
0
11
-32.500002
21
-20.882645
31
0
12
-32.499998
22
-21.804212
32
0
13
-36
23
-21.343428
33
0
39
0
210
0
220
0
230
1
0
SOLID
5
109
100
AcDbEntity
8
SK2
62
256
6
ByLayer
370
13
48
1
60
0
100
AcDbTrace
10
29.375
20
-21.343428
30
0
11
25.875002
21
-21.804212
31
0
12
25.874998
22
-20.882645
32
0
13
29.375
23
-21.343428
33
0
39
0
210
0
220
0
230
1
0
ENDBLK
5
10B
100
AcDbEntity
8
0
100
AcDbBlockEnd
0
BLOCK
5
115
100
AcDbEntity
8
0
100
AcDbBlockBegin
2
DimnDraft3D6
70
0
10
0
20
0
30
0
3
DimnDraft3D6
0
MTEXT
5
10E
100
AcDbEntity
8
SK2
62
256
6
ByLayer
370
13
48
1
60
0
100
AcDbMText
10
-46.375163
20
22.34918
30
0
210
0
220
0
230
1
1
\W0.7317;6,000
40
3.5
41
0
44
1.084337
50
90
71
7
72
5
7
iso_b_vert
0
MTEXT
5
10F
100
AcDbEntity
8
SK2
62
256
6
ByLayer
370
13
48
1
60
0
100
AcDbMText
10
-46.375163
20
17.126524
30
0
210
0
220
0
230
1
1
%%c
40
3.5
41
0
44
1.084337
50
90
71
7
72
5
7
iso_b_vert
0
LINE
5
110
100
AcDbEntity
8
SK2
62
256
6
ByLayer
370
13
48
1
60
0
100
AcDbLine
10
-37.5875
20
-3
30
0
11
-46.625163
21
-3
31
0
39
0
210
0
220
0
230
1
0
LINE
5
111
100
AcDbEntity
8
SK2
62
256
6
ByLayer
370
13
48
1
60
0
100
AcDbLine
10
-37.5875
20
3
30
0
11
-46.625163
21
3
31
0
39
0
210
0
220
0
230
1
0
LINE
5
112
100
AcDbEntity
8
SK2
62
256
6
ByLayer
370
13
48
1
60
0
100
AcDbLine
10
-44.625163
20
32.121549
30
0
11
-44.625163
21
-11.75
31
0
39
0
210
0
220
0
230
1
0
SOLID
5
113
100
AcDbEntity
8
SK2
62
256
6
ByLayer
370
13
48
1
60
0
100
AcDbTrace
10
-44.625163
20
-3
30
0
11
-44.164379
21
-6.499998
31
0
12
-45.085946
22
-6.500002
32
0
13
-44.625163
23
-3
33
0
39
0
210
0
220
0
230
1
0
SOLID
5
114
100
AcDbEntity
8
SK2
62
256
6
ByLayer
370
13
48
1
60
0
100
AcDbTrace
10
-44.625163
20
3
30
0
11
-45.085946
21
6.499998
31
0
12
-44.164379
22
6.500002
32
0
13
-44.625163
23
3
33
0
39
0
210
0
220
0
230
1
0
ENDBLK
5
116
100
AcDbEntity
8
0
100
AcDbBlockEnd
0
BLOCK
5
120
100
AcDbEntity
8
0
100
AcDbBlockBegin
2
DimnDraft3D7
70
0
10
0
20
0
30
0
3
DimnDraft3D7
0
MTEXT
5
119
100
AcDbEntity
8
2
62
256
6
ByLayer
370
13
48
1
60
0
100
AcDbMText
10
40.333343
20
20.092266
30
0
210
0
220
0
230
1
1
\W0.7581;4,300
40
3.5
41
0
44
1.084337
50
90
71
7
72
5
7
iso_b_vert
0
MTEXT
5
11A
100
AcDbEntity
8
2
62
256
6
ByLayer
370
13
48
1
60
0
100
AcDbMText
10
40.333343
20
14.86961
30
0
210
0
220
0
230
1
1
%%c
40
3.5
41
0
44
1.084337
50
90
71
7
72
5
7
iso_b_vert
0
LINE
5
11B
100
AcDbEntity
8
2
62
256
6
ByLayer
370
13
48
1
60
0
100
AcDbLine
10
30.9625
20
-2.15
30
0
11
44.083343
21
-2.15
31
0
39
0
210
0
220
0
230
1
0
LINE
5
11C
100
AcDbEntity
8
2
62
256
6
ByLayer
370
13
48
1
60
0
100
AcDbLine
10
30.9625
20
2.15
30
0
11
44.083343
21
2.15
31
0
39
0
210
0
220
0
230
1
0
LINE
5
11D
100
AcDbEntity
8
2
62
256
6
ByLayer
370
13
48
1
60
0
100
AcDbLine
10
42.083343
20
30.233056
30
0
11
42.083343
21
-10.9
31
0
39
0
210
0
220
0
230
1
0
SOLID
5
11E
100
AcDbEntity
8
2
62
256
6
ByLayer
370
13
48
1
60
0
100
AcDbTrace
10
42.083343
20
-2.15
30
0
11
42.544126
21
-5.649998
31
0
12
41.622559
22
-5.650002
32
0
13
42.083343
23
-2.15
33
0
39
0
210
0
220
0
230
1
0
SOLID
5
11F
100
AcDbEntity
8
2
62
256
6
ByLayer
370
13
48
1
60
0
100
AcDbTrace
10
42.083343
20
2.15
30
0
11
41.622559
21
5.649998
31
0
12
42.544126
22
5.650002
32
0
13
42.083343
23
2.15
33
0
39
0
210
0
220
0
230
1
0
ENDBLK
5
121
100
AcDbEntity
8
0
100
AcDbBlockEnd
0
ENDSEC
0
SECTION
2
ENTITIES
0
ELLIPSE
5
95
100
AcDbEntity
8
1
62
256
6
ByLayer
370
18
48
1
60
0
100
AcDbEllipse
10
7.646849
20
-2.279103
30
0
11
0.25
21
0
31
0
210
0
220
0
230
1
40
1
41
1.57278461247995
42
2.48451859058077
0
ELLIPSE
5
96
100
AcDbEntity
8
1
62
256
6
ByLayer
370
18
48
1
60
0
100
AcDbEllipse
10
7.646849
20
2.279103
30
0
11
0.25
21
0
31
0
210
0
220
0
230
1
40
1
41
-2.48690316445755
42
-1.96113115563313
0
POINT
5
6C
100
AcDbEntity
8
81
62
256
6
ByLayer
370
18
48
1
60
0
100
AcDbPoint
10
30
20
0
30
0
39
0
210
0
220
0
230
1
50
360
0
POINT
5
6E
100
AcDbEntity
8
80
62
256
6
ByLayer
370
18
48
1
60
0
100
AcDbPoint
10
0
20
0
30
0
39
0
210
0
220
0
230
1
50
360
0
POINT
5
70
100
AcDbEntity
8
SK2
62
256
6
ByLayer
370
18
48
1
60
1
100
AcDbPoint
10
-36
20
-3
30
0
39
0
210
0
220
0
230
1
50
360
0
POINT
5
72
100
AcDbEntity
8
SK2
62
256
6
ByLayer
370
18
48
1
60
1
100
AcDbPoint
10
-36
20
3
30
0
39
0
210
0
220
0
230
1
50
360
0
POINT
5
73
100
AcDbEntity
8
2
62
256
6
ByLayer
370
18
48
1
60
1
100
AcDbPoint
10
29.375
20
-2.15
30
0
39
0
210
0
220
0
230
1
50
360
0
POINT
5
75
100
AcDbEntity
8
2
62
256
6
ByLayer
370
18
48
1
60
1
100
AcDbPoint
10
29.375
20
2.15
30
0
39
0
210
0
220
0
230
1
50
360
0
SPLINE
5
97
100
AcDbEntity
8
1
62
256
6
ByLayer
370
18
48
1
60
0
100
AcDbSpline
70
4
71
3
72
18
73
14
40
0
40
0
40
0
40
0
40
0.102581764359239
40
0.202069034251004
40
0.277482957670622
40
0.353097198383861
40
0.430063790266721
40
0.507857175978262
40
0.600961311079947
40
0.685457318959496
40
0.771151709161994
40
0.894313341633261
40
1
40
1
40
1
40
1
41
1
10
7.6470670749128
20
-2.02891821307699
30
0
41
1
10
7.79838542319123
20
-2.02903160108531
30
0
41
1
10
8.09645637420402
20
-2.02927377994163
30
0
41
1
10
8.50568356517334
20
-2.02912321482242
30
0
41
1
10
8.87526992040452
20
-2.02987468955027
30
0
41
1
10
9.21161060005252
20
-2.02972275268763
30
0
41
1
10
9.55146744241307
20
-2.0293345635269
30
0
41
1
10
9.91711925182523
20
-2.02936930584278
30
0
41
1
10
10.2938832946175
20
-2.03070662580333
30
0
41
1
10
10.6822988838188
20
-2.0303862302988
30
0
41
1
10
11.1150522415655
20
-2.03000779236155
30
0
41
1
10
11.5790727489284
20
-2.03161845091904
30
0
41
1
10
11.9166679464175
20
-2.03128863489977
30
0
41
1
10
12.0725754993668
20
-2.03104805990219
30
0
0
SPLINE
5
98
100
AcDbEntity
8
1
62
256
6
ByLayer
370
18
48
1
60
0
100
AcDbSpline
70
4
71
3
72
20
73
16
40
0
40
0
40
0
40
0
40
0.125772118620667
40
0.215618508969631
40
0.2780215208367
40
0.342176719774587
40
0.409289065448831
40
0.476483395276407
40
0.543647346732018
40
0.621971897226198
40
0.70028192963024
40
0.777578407300282
40
0.849689942792602
40
0.933779752755553
40
1
40
1
40
1
40
1
41
1
10
17.9049872462924
20
-2.03549106738197
30
0
41
1
10
18.1322013619046
20
-2.03528098508267
30
0
41
1
10
18.5217726540658
20
-2.03506104346548
30
0
41
1
10
19.0242923351174
20
-2.03649745971478
30
0
41
1
10
19.4153603996462
20
-2.0359260115217
30
0
41
1
10
19.7653925970917
20
-2.03522092066774
30
0
41
1
10
20.1240836129457
20
-2.03612999766983
30
0
41
1
10
20.4882137186896
20
-2.03647298512968
30
0
41
1
10
20.8726067799345
20
-2.03826896820539
30
0
41
1
10
21.2770925508967
20
-2.03646976542487
30
0
41
1
10
21.699890802772
20
-2.0350225593088
30
0
41
1
10
22.1114551043445
20
-2.03821096537789
30
0
41
1
10
22.5334746043672
20
-2.03836057862964
30
0
41
1
10
22.9354623409759
20
-2.03609664368662
30
0
41
1
10
23.207126644069
20
-2.03716913677812
30
0
41
1
10
23.3268105301968
20
-2.03785657172554
30
0
0
SPLINE
5
99
100
AcDbEntity
8
1
62
256
6
ByLayer
370
18
48
1
60
0
100
AcDbSpline
70
4
71
3
72
19
73
15
40
0
40
0
40
0
40
0
40
0.0869644080381995
40
0.19555461152224
40
0.268372165145381
40
0.335196398405877
40
0.40574656469702
40
0.477567067048342
40
0.549461052275849
40
0.619499033495462
40
0.685679506756998
40
0.761837111856593
40
0.876240785817347
40
1
40
1
40
1
40
1
41
1
10
12.0648033777389
20
2.03106836568679
30
0
41
1
10
11.9367824647171
20
2.03127611243636
30
0
41
1
10
11.6488893820527
20
2.03154489184644
30
0
41
1
10
11.2535298935404
20
2.03026278025507
30
0
41
1
10
10.8881334072052
20
2.03015674372642
30
0
41
1
10
10.5786813320411
20
2.03050663868504
30
0
41
1
10
10.2705720972426
20
2.03057666303337
30
0
41
1
10
9.95501743641938
20
2.02953276889556
30
0
41
1
10
9.64021036276625
20
2.02928481298537
30
0
41
1
10
9.33371374146884
20
2.02957599842145
30
0
41
1
10
9.02092926467645
20
2.02989166329118
30
0
41
1
10
8.64284373068148
20
2.02942056656056
30
0
41
1
10
8.1801199360705
20
2.02904794948205
30
0
41
1
10
7.82934576853066
20
2.02891391128472
30
0
41
1
10
7.64705177713086
20
2.02888824749809
30
0
0
SPLINE
5
9A
100
AcDbEntity
8
1
62
256
6
ByLayer
370
18
48
1
60
0
100
AcDbSpline
70
4
71
3
72
19
73
15
40
0
40
0
40
0
40
0
40
0.0791378651255241
40
0.179653870078036
40
0.265851751389791
40
0.358247407126839
40
0.451854606482623
40
0.54547915990808
40
0.625762990733103
40
0.706083134074332
40
0.786305278388508
40
0.862992623704681
40
0.937585507820813
40
1
40
1
40
1
40
1
41
1
10
23.3267292574695
20
2.03785631655245
30
0
41
1
10
23.2070724624003
20
2.03716907667075
30
0
41
1
10
22.9354352503683
20
2.03609670427767
30
0
41
1
10
22.5334746044203
20
2.03836060142396
30
0
41
1
10
22.1114551043432
20
2.03821095921214
30
0
41
1
10
21.6998908027854
20
2.03502256103462
30
0
41
1
10
21.2770925509056
20
2.03646976495742
30
0
41
1
10
20.8726067799442
20
2.03826896831095
30
0
41
1
10
20.4882137186988
20
2.03647298510333
30
0
41
1
10
20.1240836129547
20
2.03612999767705
30
0
41
1
10
19.7653925971005
20
2.03522092066598
30
0
41
1
10
19.4153603996546
20
2.03592601152221
30
0
41
1
10
19.0922969631564
20
2.03639808795489
30
0
41
1
10
18.8851374816068
20
2.03602708721175
30
0
41
1
10
18.7907673387572
20
2.03584498046621
30
0
0
SPLINE
5
9B
100
AcDbEntity
8
1
62
256
6
ByLayer
370
18
48
1
60
0
100
AcDbSpline
70
4
71
2
72
6
73
3
40
0
40
0
40
0
40
1
40
1
40
1
41
1
10
28.9575510278029
20
-2.03927094888277
30
0
41
1
10
29.1133342437125
20
-2.03988359204905
30
0
41
1
10
29.2693542793433
20
-2.04055027822832
30
0
0
SPLINE
5
9C
100
AcDbEntity
8
1
62
256
6
ByLayer
370
18
48
1
60
0
100
AcDbSpline
70
4
71
3
72
8
73
4
40
0
40
0
40
0
40
0
40
1
40
1
40
1
40
1
41
1
10
11.3613605899926
20
0.0990240261982365
30
0
41
1
10
11.3466302983405
20
0.10789383609054
30
0
41
1
10
11.331896976229
20
0.116833328377993
30
0
41
1
10
11.3171606001478
20
0.125842691030755
30
0
0
SPLINE
5
9D
100
AcDbEntity
8
1
62
256
6
ByLayer
370
18
48
1
60
0
100
AcDbSpline
70
4
71
3
72
32
73
28
40
0
40
0
40
0
40
0
40
0.124999999999991
40
0.124999999999991
40
0.249999999999982
40
0.249999999999982
40
0.312499999999978
40
0.312499999999978
40
0.374999999999974
40
0.374999999999974
40
0.406249999999975
40
0.406249999999975
40
0.437499999999976
40
0.437499999999976
40
0.468749999999977
40
0.468749999999977
40
0.499999999999979
40
0.499999999999979
40
0.562499999999981
40
0.562499999999981
40
0.624999999999984
40
0.624999999999984
40
0.749999999999989
40
0.749999999999989
40
0.874999999999995
40
0.874999999999995
40
1
40
1
40
1
40
1
41
1
10
29.3394629995697
20
-0.952319672722496
30
0
41
1
10
29.2619375151019
20
-0.922302128813413
30
0
41
1
10
29.1857282721653
20
-0.886182693545351
30
0
41
1
10
29.0375818547257
20
-0.800733356215574
30
0
41
1
10
28.9653360241595
20
-0.751717264219934
30
0
41
1
10
28.8618622245529
20
-0.661340468263518
30
0
41
1
10
28.8283405306144
20
-0.628391426310117
30
0
41
1
10
28.7673806038522
20
-0.555709536827976
30
0
41
1
10
28.7390249593199
20
-0.515339158669264
30
0
41
1
10
28.7096148721939
20
-0.447610994389834
30
0
41
1
10
28.7022573803569
20
-0.424030623640704
30
0
41
1
10
28.6961747172763
20
-0.376640315884174
30
0
41
1
10
28.6978473599419
20
-0.353172240357054
30
0
41
1
10
28.710938483637
20
-0.312611347625108
30
0
41
1
10
28.7221070482165
20
-0.295482341646618
30
0
41
1
10
28.7492251174734
20
-0.267947961595013
30
0
41
1
10
28.7649312396927
20
-0.257476390315475
30
0
41
1
10
28.8149071262964
20
-0.232518448959752
30
0
41
1
10
28.8519603285555
20
-0.22425009169956
30
0
41
1
10
28.9269796101244
20
-0.215830215247507
30
0
41
1
10
28.965795052887
20
-0.215834052193515
30
0
41
1
10
29.0819547557875
20
-0.223607030852264
30
0
41
1
10
29.1597474540235
20
-0.238792718214256
30
0
41
1
10
29.3157472341965
20
-0.280910803979339
30
0
41
1
10
29.3940842586129
20
-0.308235774425128
30
0
41
1
10
29.5475473254919
20
-0.37241202116013
30
0
41
1
10
29.6231787987351
20
-0.409352715065751
30
0
41
1
10
29.6974585774669
20
-0.452255985388263
30
0
0
SPLINE
5
9E
100
AcDbEntity
8
1
62
256
6
ByLayer
370
18
48
1
60
0
100
AcDbSpline
70
4
71
3
72
10
73
6
40
0
40
0
40
0
40
0
40
0.5
40
0.5
40
1
40
1
40
1
40
1
41
1
10
29.1925300644088
20
0.58680074964613
30
0
41
1
10
29.3039571910696
20
0.585044958004573
30
0
41
1
10
29.4153575430976
20
0.583582114914833
30
0
41
1
10
29.6380827888052
20
0.581097272007071
30
0
41
1
10
29.7494201486352
20
0.579984148614102
30
0
41
1
10
29.8603476824293
20
0.580968545775676
30
0
0
SPLINE
5
9F
100
AcDbEntity
8
1
62
256
6
ByLayer
370
18
48
1
60
0
100
AcDbSpline
70
4
71
3
72
16
73
12
40
0
40
0
40
0
40
0
40
0.250000000000001
40
0.250000000000001
40
0.374999999999999
40
0.374999999999999
40
0.499999999999997
40
0.499999999999997
40
0.749999999999998
40
0.749999999999998
40
1
40
1
40
1
40
1
41
1
10
28.9115649177141
20
-1.51461510428277
30
0
41
1
10
28.9425822254122
20
-1.60344561692534
30
0
41
1
10
28.9746570520923
20
-1.68135545770312
30
0
41
1
10
29.0240169841103
20
-1.78254247615743
30
0
41
1
10
29.0406830466486
20
-1.81363883297047
30
0
41
1
10
29.0744360922965
20
-1.87045306885906
30
0
41
1
10
29.0915462178555
20
-1.89616429561869
30
0
41
1
10
29.1424505220353
20
-1.96358780786659
30
0
41
1
10
29.176166044289
20
-1.9963224042684
30
0
41
1
10
29.2434374621998
20
-2.03753923276946
30
0
41
1
10
29.2771597902673
20
-2.04586798328023
30
0
41
1
10
29.3101927520362
20
-2.04119777016581
30
0
0
SPLINE
5
A0
100
AcDbEntity
8
1
62
256
6
ByLayer
370
18
48
1
60
0
100
AcDbSpline
70
4
71
3
72
16
73
12
40
0
40
0
40
0
40
0
40
0.336081325857553
40
0.336081325857553
40
0.477521077386699
40
0.477521077386699
40
0.618960828915845
40
0.618960828915845
40
0.901840331974143
40
0.901840331974143
40
1
40
1
40
1
40
1
41
1
10
17.9298183641356
20
-2.03539370752094
30
0
41
1
10
17.6617414943466
20
-2.03505551123419
30
0
41
1
10
17.3942278622247
20
-2.01757206487264
30
0
41
1
10
17.0128774209839
20
-1.9688696151342
30
0
41
1
10
16.8997255540176
20
-1.95147810766582
30
0
41
1
10
16.6727579684932
20
-1.91078365924503
30
0
41
1
10
16.558840890883
20
-1.88744782850239
30
0
41
1
10
16.2186101509451
20
-1.80930506844373
30
0
41
1
10
15.9930014871717
20
-1.74620408601766
30
0
41
1
10
15.6893186249188
20
-1.64789075233284
30
0
41
1
10
15.6111000927466
20
-1.62137828524072
30
0
41
1
10
15.532857314171
20
-1.59372309340796
30
0
0
SPLINE
5
A1
100
AcDbEntity
8
1
62
256
6
ByLayer
370
13
48
1
60
0
100
AcDbSpline
70
4
71
3
72
28
73
24
40
0
40
0
40
0
40
0
40
0.072298341238988
40
0.072298341238988
40
0.127657092609492
40
0.127657092609492
40
0.183015843979996
40
0.183015843979996
40
0.404450849462016
40
0.404450849462016
40
0.515168352203026
40
0.515168352203026
40
0.570527103573533
40
0.570527103573533
40
0.625885854944039
40
0.625885854944039
40
0.847320860426059
40
0.847320860426059
40
0.902679611796565
40
0.902679611796565
40
0.958038363167071
40
0.958038363167071
40
1
40
1
40
1
40
1
41
1
10
15.5328573141732
20
-1.59372309340875
30
0
41
1
10
15.3856176846827
20
-1.54168071616874
30
0
41
1
10
15.2382921917626
20
-1.48559162473717
30
0
41
1
10
14.9775658314058
20
-1.37991824731969
30
0
41
1
10
14.8642970015725
20
-1.33188519776806
30
0
41
1
10
14.6370894243684
20
-1.23168133744917
30
0
41
1
10
14.5232802450565
20
-1.17955381151663
30
0
41
1
10
13.9571987275791
20
-0.911762240815335
30
0
41
1
10
13.5097176594314
20
-0.673075113598429
30
0
41
1
10
12.8347984659099
20
-0.298467177083182
30
0
41
1
10
12.609266253097
20
-0.170688208664558
30
0
41
1
10
12.2686698798424
20
0.0227610362667292
30
0
41
1
10
12.1548327016354
20
0.087450226222046
30
0
41
1
10
11.9283677901943
20
0.215616744519139
30
0
41
1
10
11.8154625854434
20
0.279255257442173
30
0
41
1
10
11.251974418752
20
0.594174558765729
30
0
41
1
10
10.8047795574776
20
0.836221298919156
30
0
41
1
10
10.2402781819537
20
1.10949210641527
30
0
41
1
10
10.1270946224594
20
1.1626561250844
30
0
41
1
10
9.89996554494286
20
1.26569668116972
30
0
41
1
10
9.78606027421995
20
1.31558642688583
30
0
41
1
10
9.58697616325011
20
1.3992405680545
30
0
41
1
10
9.50134150872
20
1.43404589082166
30
0
41
1
10
9.41585782326362
20
1.4675294709742
30
0
0
SPLINE
5
A2
100
AcDbEntity
8
1
62
256
6
ByLayer
370
18
48
1
60
0
100
AcDbSpline
70
4
71
3
72
12
73
8
40
0
40
0
40
0
40
0
40
0.500000000000032
40
0.500000000000032
40
0.750000000000016
40
0.750000000000016
40
1
40
1
40
1
40
1
41
1
10
7.44178908965256
20
-0.478134280702136
30
0
41
1
10
7.46666182224089
20
-0.473297550824981
30
0
41
1
10
7.50101402169696
20
-0.478220706448809
30
0
41
1
10
7.55500739512604
20
-0.497157025129724
30
0
41
1
10
7.57371605320361
20
-0.505387737043833
30
0
41
1
10
7.61060447801583
20
-0.524351753041486
30
0
41
1
10
7.62892753598362
20
-0.535114112414334
30
0
41
1
10
7.6471431300497
20
-0.546996981475871
30
0
0
SPLINE
5
A3
100
AcDbEntity
8
1
62
256
6
ByLayer
370
13
48
1
60
0
100
AcDbSpline
70
4
71
3
72
26
73
22
40
0
40
0
40
0
40
0
40
0.0254875606085829
40
0.0254875606085829
40
0.100450055946384
40
0.100450055946384
40
0.250375046621987
40
0.250375046621987
40
0.40030003729759
40
0.40030003729759
40
0.550225027973193
40
0.550225027973193
40
0.625187523310994
40
0.625187523310994
40
0.700150018648796
40
0.700150018648796
40
0.850075009324398
40
0.850075009324398
40
0.925037504662199
40
0.925037504662199
40
1
40
1
40
1
40
1
41
1
10
7.64707724429857
20
-2.02903621024058
30
0
41
1
10
7.64707377326101
20
-2.02921471746896
30
0
41
1
10
7.64707019838139
20
-2.02901513133634
30
0
41
1
10
7.64705581577385
20
-2.02673303077268
30
0
41
1
10
7.64704443838207
20
-2.02179065408353
30
0
41
1
10
7.64700996687833
20
-1.99747964002645
30
0
41
1
10
7.64698654936143
20
-1.96871891379271
30
0
41
1
10
7.64694643686275
20
-1.88513177046079
30
0
41
1
10
7.64693018668933
20
-1.83082698757639
30
0
41
1
10
7.64691132680318
20
-1.69964259162072
30
0
41
1
10
7.64690875973838
20
-1.62371527429349
30
0
41
1
10
7.64691671045426
20
-1.49474845584894
30
0
41
1
10
7.64692131511214
20
-1.44922888778945
30
0
41
1
10
7.64693454480258
20
-1.35297862997493
30
0
41
1
10
7.64694315838369
20
-1.30245769276536
30
0
41
1
10
7.64697414761014
20
-1.14628194506491
30
0
41
1
10
7.6470018366181
20
-1.03515562044117
30
0
41
1
10
7.64705096281989
20
-0.857884813301467
30
0
41
1
10
7.64706869096716
20
-0.796693524430111
30
0
41
1
10
7.64710525463053
20
-0.673022935136203
30
0
41
1
10
7.64712412360967
20
-0.61039660031517
30
0
41
1
10
7.64714313004967
20
-0.546996981496534
30
0
0
SPLINE
5
A4
100
AcDbEntity
8
1
62
256
6
ByLayer
370
18
48
1
60
0
100
AcDbSpline
70
4
71
3
72
8
73
4
40
0
40
0
40
0
40
0
40
1
40
1
40
1
40
1
41
1
10
29.9960282093014
20
-0.127188220757716
30
0
41
1
10
29.9961057646989
20
-0.110948444745333
30
0
41
1
10
29.9959431962894
20
-0.0947137852000424
30
0
41
1
10
29.9955268780993
20
-0.0784845324589583
30
0
0
SPLINE
5
A5
100
AcDbEntity
8
1
62
256
6
ByLayer
370
18
48
1
60
0
100
AcDbSpline
70
4
71
3
72
70
73
66
40
0
40
0
40
0
40
0
40
0.0070868622319023
40
0.0070868622319023
40
0.0460235735531639
40
0.0460235735531639
40
0.0654919292137952
40
0.0654919292137952
40
0.0849602848744266
40
0.0849602848744266
40
0.123896996195689
40
0.123896996195689
40
0.162833707516952
40
0.162833707516952
40
0.182302063177584
40
0.182302063177584
40
0.201770418838216
40
0.201770418838216
40
0.24070713015948
40
0.24070713015948
40
0.260175485820112
40
0.260175485820112
40
0.279643841480744
40
0.279643841480744
40
0.318580552802006
40
0.318580552802006
40
0.357517264123269
40
0.357517264123269
40
0.396453975444532
40
0.396453975444532
40
0.435390686765795
40
0.435390686765795
40
0.474327398087057
40
0.474327398087057
40
0.51326410940832
40
0.51326410940832
40
0.552200820729583
40
0.552200820729583
40
0.591137532050846
40
0.591137532050846
40
0.630074243372108
40
0.630074243372108
40
0.669010954693371
40
0.669010954693371
40
0.707947666014634
40
0.707947666014634
40
0.746884377335896
40
0.746884377335896
40
0.785821088657159
40
0.785821088657159
40
0.824757799978422
40
0.824757799978422
40
0.844226155639053
40
0.844226155639053
40
0.863694511299684
40
0.863694511299684
40
0.902631222620946
40
0.902631222620946
40
0.941567933942208
40
0.941567933942208
40
0.961036289602839
40
0.961036289602839
40
0.98050464526347
40
0.98050464526347
40
1
40
1
40
1
40
1
41
1
10
25.7546628263028
20
-1.58860717314062
30
0
41
1
10
25.7223324504804
20
-1.6000986335074
30
0
41
1
10
25.6899987670265
20
-1.6114150895605
30
0
41
1
10
25.479974169521
20
-1.68379119247959
30
0
41
1
10
25.3015381178153
20
-1.73933520136012
30
0
41
1
10
25.0347340198623
20
-1.81254214231404
30
0
41
1
10
24.9460582043479
20
-1.83532173802368
30
0
41
1
10
24.7684397564161
20
-1.87682459071289
30
0
41
1
10
24.6795935482962
20
-1.89565382628359
30
0
41
1
10
24.4130570321144
20
-1.94745935615441
30
0
41
1
10
24.2354062944492
20
-1.97605647716534
30
0
41
1
10
23.8792665855443
20
-2.01724761013875
30
0
41
1
10
23.701444962024
20
-2.03072835098942
30
0
41
1
10
23.4352420899607
20
-2.03772790360713
30
0
41
1
10
23.3465073870582
20
-2.03773431475352
30
0
41
1
10
23.1687844030532
20
-2.03514813599699
30
0
41
1
10
23.0798475269586
20
-2.03229814636549
30
0
41
1
10
22.8128430338163
20
-2.01845865941127
30
0
41
1
10
22.6350589472516
20
-2.00212870836504
30
0
41
1
10
22.3688463499523
20
-1.96621115632016
30
0
41
1
10
22.280113073616
20
-1.95232496982231
30
0
41
1
10
22.1024850177717
20
-1.92007367744699
30
0
41
1
10
22.0135036082548
20
-1.90157060641391
30
0
41
1
10
21.7470578827933
20
-1.84222566399885
30
0
41
1
10
21.5687549109702
20
-1.79695765218551
30
0
41
1
10
21.2134524188519
20
-1.69382666020104
30
0
41
1
10
21.0363333923449
20
-1.63618651713605
30
0
41
1
10
20.6811077926359
20
-1.50733964266215
30
0
41
1
10
20.5025166523131
20
-1.4366535046905
30
0
41
1
10
20.1471834853391
20
-1.28519957298309
30
0
41
1
10
19.9694532548442
20
-1.20492655002778
30
0
41
1
10
19.6140808895455
20
-1.03631180292547
30
0
41
1
10
19.4363204916467
20
-0.947881344519971
30
0
41
1
10
19.080365108073
20
-0.764746265390244
30
0
41
1
10
18.902767123408
20
-0.670320676043758
30
0
41
1
10
18.5479729470215
20
-0.47575409673135
30
0
41
1
10
18.3702079842373
20
-0.377205525785485
30
0
41
1
10
18.0142900356406
20
-0.176946687959202
30
0
41
1
10
17.8367228778739
20
-0.0755496603714221
30
0
41
1
10
17.4817922836792
20
0.12602347697424
30
0
41
1
10
17.3041796640761
20
0.226105469347743
30
0
41
1
10
16.9489229552472
20
0.425681278926419
30
0
41
1
10
16.770689232069
20
0.524133488360974
30
0
41
1
10
16.4157619763594
20
0.71664419490574
30
0
41
1
10
16.2387259347271
20
0.81087898094404
30
0
41
1
10
15.8832983501839
20
0.990226448528688
30
0
41
1
10
15.7051184261371
20
1.07754678581523
30
0
41
1
10
15.3499616772471
20
1.24315152863429
30
0
41
1
10
15.1724562552209
20
1.32159930108679
30
0
41
1
10
14.817536025422
20
1.46847563379538
30
0
41
1
10
14.6396964826889
20
1.53678622961652
30
0
41
1
10
14.3728670157077
20
1.63041276130082
30
0
41
1
10
14.2840207579035
20
1.66014604204537
30
0
41
1
10
14.1064316907226
20
1.71591302350626
30
0
41
1
10
14.017836995366
20
1.74175755321704
30
0
41
1
10
13.7516829405648
20
1.81541512255689
30
0
41
1
10
13.5740654897687
20
1.85917120351672
30
0
41
1
10
13.2182958031054
20
1.93295643699332
30
0
41
1
10
13.0409483951747
20
1.96282943697338
30
0
41
1
10
12.7748139377702
20
1.99514920940109
30
0
41
1
10
12.6860469622202
20
2.00349341961643
30
0
41
1
10
12.5085096841993
20
2.01700481009783
30
0
41
1
10
12.419914866082
20
2.0222595021487
30
0
41
1
10
12.2421230925991
20
2.02928371005544
30
0
41
1
10
12.1530669413077
20
2.03107815242464
30
0
41
1
10
12.0640354177634
20
2.03102694591206
30
0
0
SPLINE
5
A6
100
AcDbEntity
8
1
62
256
6
ByLayer
370
18
48
1
60
0
100
AcDbSpline
70
4
71
3
72
42
73
38
40
0
40
0
40
0
40
0
40
0.117543227760886
40
0.117543227760886
40
0.176314841641329
40
0.176314841641329
40
0.235086455521773
40
0.235086455521773
40
0.293858069402216
40
0.293858069402216
40
0.323243876342437
40
0.323243876342437
40
0.352629683282657
40
0.352629683282657
40
0.470172911043542
40
0.470172911043542
40
0.499558717983764
40
0.499558717983764
40
0.528944524923986
40
0.528944524923986
40
0.58771613880443
40
0.58771613880443
40
0.705259366565317
40
0.705259366565317
40
0.734645173505539
40
0.734645173505539
40
0.764030980445762
40
0.764030980445762
40
0.822802594326205
40
0.822802594326205
40
0.881574208206648
40
0.881574208206648
40
0.910960015146869
40
0.910960015146869
40
0.94034582208709
40
0.94034582208709
40
1
40
1
40
1
40
1
41
1
10
29.2999647593099
20
-2.14178580490781
30
0
41
1
10
28.8456930487417
20
-2.16532844624243
30
0
41
1
10
28.3950868771734
20
-2.13663004424271
30
0
41
1
10
27.7130761332824
20
-2.01827357790015
30
0
41
1
10
27.4842223651033
20
-1.9658863028182
30
0
41
1
10
27.0301304566188
20
-1.8388819841179
30
0
41
1
10
26.8038975851596
20
-1.76427524426887
30
0
41
1
10
26.3512461221263
20
-1.59480162478548
30
0
41
1
10
26.1248338138638
20
-1.49990800021178
30
0
41
1
10
25.7833591176076
20
-1.34407795397811
30
0
41
1
10
25.6689558944963
20
-1.28975101586448
30
0
41
1
10
25.4411946345525
20
-1.17787675390568
30
0
41
1
10
25.3277151421073
20
-1.12028507506656
30
0
41
1
10
24.7616075188069
20
-0.825216421014261
30
0
41
1
10
24.3131862543324
20
-0.565892077795183
30
0
41
1
10
23.7473819270335
20
-0.230162327527609
30
0
41
1
10
23.6339687915633
20
-0.162418445728292
30
0
41
1
10
23.4063641982291
20
-0.0261739680955486
30
0
41
1
10
23.291932379422
20
0.042541975975297
30
0
41
1
10
22.9504954409844
20
0.247234340741755
30
0
41
1
10
22.7243844114777
20
0.381839712408805
30
0
41
1
10
22.0474593388993
20
0.775177761490482
30
0
41
1
10
21.598705451163
20
1.02445438694124
30
0
41
1
10
21.029351891762
20
1.30137738876005
30
0
41
1
10
20.9148290390715
20
1.35517865161017
30
0
41
1
10
20.6870973722814
20
1.45804974416171
30
0
41
1
10
20.5736486775078
20
1.50718532021435
30
0
41
1
10
20.2341221583179
20
1.6472803431364
30
0
41
1
10
20.0088492230525
20
1.73090706402289
30
0
41
1
10
19.5582057154627
20
1.87658159613508
30
0
41
1
10
19.3328042352052
20
1.93861205289343
30
0
41
1
10
18.9930863158235
20
2.01413004400447
30
0
41
1
10
18.8795984795134
20
2.03639457890131
30
0
41
1
10
18.651902230802
20
2.07486047815635
30
0
41
1
10
18.5374352114711
20
2.09106901076558
30
0
41
1
10
18.1925251942713
20
2.1302006432216
30
0
41
1
10
17.9629360840895
20
2.14306149660393
30
0
41
1
10
17.7338718801554
20
2.14275851366557
30
0
0
SPLINE
5
A7
100
AcDbEntity
8
1
62
256
6
ByLayer
370
18
48
1
60
0
100
AcDbSpline
70
4
71
3
72
68
73
64
40
0
40
0
40
0
40
0
40
0.0126873081626368
40
0.0126873081626368
40
0.0343005575526017
40
0.0343005575526017
40
0.0775270563325317
40
0.0775270563325317
40
0.0991403057224961
40
0.0991403057224961
40
0.120753555112461
40
0.120753555112461
40
0.163980053892391
40
0.163980053892391
40
0.185593303282355
40
0.185593303282355
40
0.20720655267232
40
0.20720655267232
40
0.250433051452252
40
0.250433051452252
40
0.293659550232183
40
0.293659550232183
40
0.336886049012114
40
0.336886049012114
40
0.380112547792045
40
0.380112547792045
40
0.423339046571976
40
0.423339046571976
40
0.444952295961941
40
0.444952295961941
40
0.466565545351906
40
0.466565545351906
40
0.509792044131837
40
0.509792044131837
40
0.531405293521803
40
0.531405293521803
40
0.553018542911768
40
0.553018542911768
40
0.596245041691699
40
0.596245041691699
40
0.63947154047163
40
0.63947154047163
40
0.661084789861595
40
0.661084789861595
40
0.68269803925156
40
0.68269803925156
40
0.725924538031489
40
0.725924538031489
40
0.769151036811418
40
0.769151036811418
40
0.812377535591347
40
0.812377535591347
40
0.855604034371276
40
0.855604034371276
40
0.898830533151205
40
0.898830533151205
40
0.920443782541168
40
0.920443782541168
40
0.942057031931131
40
0.942057031931131
40
0.985283530711058
40
0.985283530711058
40
1
40
1
40
1
40
1
41
1
10
14.5241683333616
20
1.58941975224383
30
0
41
1
10
14.5829260215822
20
1.61287566793934
30
0
41
1
10
14.6417244431352
20
1.63568962631612
30
0
41
1
10
14.8006788725486
20
1.69576297028991
30
0
41
1
10
14.9008752931672
20
1.73194373215955
30
0
41
1
10
15.2008760549354
20
1.8338886073949
30
0
41
1
10
15.4009626771901
20
1.89285561536718
30
0
41
1
10
15.7007706903866
20
1.96835286104891
30
0
41
1
10
15.8004425651482
20
1.99146154946422
30
0
41
1
10
16.000638651224
20
2.03263694683727
30
0
41
1
10
16.101074439769
20
2.05079544032563
30
0
41
1
10
16.4015712161407
20
2.09799437480007
30
0
41
1
10
16.6007071248627
20
2.11996756107442
30
0
41
1
10
16.900662114312
20
2.13772137779171
30
0
41
1
10
17.0008452448523
20
2.14114785665396
30
0
41
1
10
17.2013040791339
20
2.14302361271712
30
0
41
1
10
17.3012982515574
20
2.14143808002646
30
0
41
1
10
17.6010325816024
20
2.1291258668364
30
0
41
1
10
17.8011927402873
20
2.11110194852449
30
0
41
1
10
18.200674435696
20
2.05510410688763
30
0
41
1
10
18.4012559440103
20
2.0171865464819
30
0
41
1
10
18.801612469153
20
1.92351107018808
30
0
41
1
10
19.0005813486905
20
1.86691298705369
30
0
41
1
10
19.4008193798322
20
1.73789807541414
30
0
41
1
10
19.6013227211071
20
1.66441907935101
30
0
41
1
10
20.0009032248406
20
1.5030138185316
30
0
41
1
10
20.2011338803831
20
1.41600642679441
30
0
41
1
10
20.5005789116895
20
1.27400705730969
30
0
41
1
10
20.6005906405205
20
1.22502306718164
30
0
41
1
10
20.800998500926
20
1.12486841305969
30
0
41
1
10
20.9011953167009
20
1.0737239614331
30
0
41
1
10
21.2010306124934
20
0.916040848967498
30
0
41
1
10
21.4001376746909
20
0.805512297041503
30
0
41
1
10
21.7004396173094
20
0.635964027628063
30
0
41
1
10
21.8008381473496
20
0.578619602171329
30
0
41
1
10
22.0009840342708
20
0.462182007119367
30
0
41
1
10
22.1006276892577
20
0.402980351051866
30
0
41
1
10
22.4002732999391
20
0.225732675908205
30
0
41
1
10
22.600196082866
20
0.106751782148621
30
0
41
1
10
22.9998722580611
20
-0.133682273490706
30
0
41
1
10
23.2005567739511
20
-0.253239565168627
30
0
41
1
10
23.5003059650787
20
-0.429913365375114
30
0
41
1
10
23.5998464537804
20
-0.488886993140881
30
0
41
1
10
23.7994230406172
20
-0.604944174314909
30
0
41
1
10
23.8994296402109
20
-0.662082380694443
30
0
41
1
10
24.1999414598574
20
-0.831106010848515
30
0
41
1
10
24.3997789836794
20
-0.941566233340666
30
0
41
1
10
24.7992224964751
20
-1.1507319881143
30
0
41
1
10
24.9991492710258
20
-1.24992622349282
30
0
41
1
10
25.398826106459
20
-1.43812998397883
30
0
41
1
10
25.5995089487658
20
-1.52475245970632
30
0
41
1
10
25.9986215686676
20
-1.68439273440475
30
0
41
1
10
26.1979999530509
20
-1.75674258272076
30
0
41
1
10
26.59891022655
20
-1.88406265352342
30
0
41
1
10
26.7982456790392
20
-1.939714788445
30
0
41
1
10
27.0978951865848
20
-2.00840834204291
30
0
41
1
10
27.197905196448
20
-2.02892694115647
30
0
41
1
10
27.3976878602977
20
-2.06545198258107
30
0
41
1
10
27.4975112736968
20
-2.08140850918107
30
0
41
1
10
27.7977111142981
20
-2.12184147757728
30
0
41
1
10
27.9980072959237
20
-2.13871108827908
30
0
41
1
10
28.2656369299104
20
-2.14810564963506
30
0
41
1
10
28.3335225662891
20
-2.14932500636718
30
0
41
1
10
28.4015092013478
20
-2.14937456138637
30
0
0
SPLINE
5
A8
100
AcDbEntity
8
1
62
256
6
ByLayer
370
18
48
1
60
0
100
AcDbSpline
70
4
71
3
72
27
73
23
40
0
40
0
40
0
40
0
40
0.124624171832084
40
0.124624171832084
40
0.197572157512743
40
0.197572157512743
40
0.270520143193403
40
0.270520143193403
40
0.416416114554722
40
0.416416114554722
40
0.489364100235382
40
0.489364100235382
40
0.562312085916042
40
0.562312085916042
40
0.708208057277361
40
0.708208057277361
40
0.781156042958021
40
0.781156042958021
40
0.854104028638681
40
0.92705201431934
40
0.92705201431934
40
1
40
1
40
1
40
1
41
1
10
7.44166469979962
20
-2.13627653067337
30
0
41
1
10
7.4416587437442
20
-2.13662125696339
30
0
41
1
10
7.44164908464884
20
-2.12687734011954
30
0
41
1
10
7.44163194209247
20
-2.09588784942778
30
0
41
1
10
7.44162520419184
20
-2.08106229320552
30
0
41
1
10
7.44161183916009
20
-2.04445990123125
30
0
41
1
10
7.44160522908174
20
-2.02266447550463
30
0
41
1
10
7.44158729410662
20
-1.94828404340095
30
0
41
1
10
7.44157775352829
20
-1.88642036005274
30
0
41
1
10
7.44157102002481
20
-1.77521679324585
30
0
41
1
10
7.44157003356565
20
-1.73481562722765
30
0
41
1
10
7.44157108466584
20
-1.64887118906134
30
0
41
1
10
7.4415731029641
20
-1.60345252077039
30
0
41
1
10
7.44158387014079
20
-1.46005440561572
30
0
41
1
10
7.44159738044888
20
-1.35500191990093
30
0
41
1
10
7.44162716229442
20
-1.1827711854323
30
0
41
1
10
7.44163859809208
20
-1.1233253440503
30
0
41
1
10
7.44166378641978
20
-1.00199099275855
30
0
41
1
10
7.44169136883238
20
-0.877755955360158
30
0
41
1
10
7.44172268584231
20
-0.74778127428516
30
0
41
1
10
7.44175523312421
20
-0.614884011723035
30
0
41
1
10
7.44177221414358
20
-0.546603242645574
30
0
41
1
10
7.44178908961825
20
-0.478134280702221
30
0
0
SPLINE
5
A9
100
AcDbEntity
8
1
62
256
6
ByLayer
370
18
48
1
60
0
100
AcDbSpline
70
4
71
3
72
8
73
4
40
0
40
0
40
0
40
0
40
1
40
1
40
1
40
1
41
1
10
29.3036078193198
20
-2.13246103421579
30
0
41
1
10
29.3023939343419
20
-2.13557005281123
30
0
41
1
10
29.3011795813229
20
-2.13867830992754
30
0
41
1
10
29.2999647593098
20
-2.14178580490784
30
0
0
SPLINE
5
AA
100
AcDbEntity
8
1
62
256
6
ByLayer
370
18
48
1
60
0
100
AcDbSpline
70
4
71
3
72
8
73
4
40
0
40
0
40
0
40
0
40
1
40
1
40
1
40
1
41
1
10
29.888419129478
20
0.720649437802592
30
0
41
1
10
29.88037305039
20
0.673854715823012
30
0
41
1
10
29.8709839789601
20
0.627300033912121
30
0
41
1
10
29.8603476824291
20
0.580968545776585
30
0
0
SPLINE
5
AB
100
AcDbEntity
8
1
62
256
6
ByLayer
370
18
48
1
60
0
100
AcDbSpline
70
4
71
3
72
10
73
6
40
0
40
0
40
0
40
0
40
0.5
40
0.5
40
1
40
1
40
1
40
1
41
1
10
29.9997786310006
20
0.0299559992327829
30
0
41
1
10
29.9979355588354
20
0.0196935788291626
30
0
41
1
10
29.9950937588581
20
0.0087209324622108
30
0
41
1
10
29.9875199230651
20
-0.0122556990764622
30
0
41
1
10
29.9827562599187
20
-0.0221877765532668
30
0
41
1
10
29.9778375798537
20
-0.029930594554628
30
0
0
SPLINE
5
AC
100
AcDbEntity
8
1
62
256
6
ByLayer
370
18
48
1
60
0
100
AcDbSpline
70
4
71
3
72
10
73
6
40
0
40
0
40
0
40
0
40
0.5
40
0.5
40
1
40
1
40
1
40
1
41
1
10
29.9955268780992
20
0.0784845324591004
30
0
41
1
10
29.9953515015858
20
0.0716478632270707
30
0
41
1
10
29.9956875915473
20
0.0640531244405622
30
0
41
1
10
29.997159023877
20
0.0476955798969811
30
0
41
1
10
29.9983082415115
20
0.0389188827134319
30
0
41
1
10
29.9997786310003
20
0.029955999232925
30
0
0
SPLINE
5
AD
100
AcDbEntity
8
1
62
256
6
ByLayer
370
18
48
1
60
0
100
AcDbSpline
70
4
71
3
72
8
73
4
40
0
40
0
40
0
40
0
40
1
40
1
40
1
40
1
41
1
10
29.9960282093014
20
0.12718822075766
30
0
41
1
10
29.9842836301218
20
0.316178461146251
30
0
41
1
10
29.9464004295218
20
0.508010172307422
30
0
41
1
10
29.8884191294781
20
0.720649437802621
30
0
0
SPLINE
5
AE
100
AcDbEntity
8
1
62
256
6
ByLayer
370
18
48
1
60
0
100
AcDbSpline
70
4
71
3
72
28
73
24
40
0
40
0
40
0
40
0
40
0.123946496820492
40
0.123946496820492
40
0.247892993640984
40
0.247892993640984
40
0.371839490461476
40
0.371839490461476
40
0.495785987281967
40
0.495785987281967
40
0.557759235692213
40
0.557759235692213
40
0.619732484102459
40
0.619732484102459
40
0.743678980922951
40
0.743678980922951
40
0.867625477743443
40
0.867625477743443
40
0.92959872615369
40
0.92959872615369
40
0.991571974563938
40
0.991571974563938
40
1
40
1
40
1
40
1
41
1
10
10.1988278785175
20
-1.75774857201651
30
0
41
1
10
10.3775007922507
20
-1.80879498447314
30
0
41
1
10
10.5557611689464
20
-1.85243509147639
30
0
41
1
10
10.911458572283
20
-1.92615240096174
30
0
41
1
10
11.0892404120215
20
-1.95607428416088
30
0
41
1
10
11.4460493733047
20
-2.00198465986668
30
0
41
1
10
11.6244511476137
20
-2.01784491909069
30
0
41
1
10
11.9802210398877
20
-2.03302479178683
30
0
41
1
10
12.1581329534273
20
-2.03273189674093
30
0
41
1
10
12.4252058961415
20
-2.02198268191969
30
0
41
1
10
12.5141759543413
20
-2.01664069862861
30
0
41
1
10
12.6926873934537
20
-2.00291614433482
30
0
41
1
10
12.7818484702683
20
-1.99440881043725
30
0
41
1
10
13.0488261104647
20
-1.96163032191112
30
0
41
1
10
13.2262640349723
20
-1.93150241250285
30
0
41
1
10
13.5818158483798
20
-1.85735627294036
30
0
41
1
10
13.7603375263476
20
-1.81320243598969
30
0
41
1
10
14.0274352649242
20
-1.73900269458113
30
0
41
1
10
14.1162932793061
20
-1.71295197923837
30
0
41
1
10
14.2941603199307
20
-1.65681005663205
30
0
41
1
10
14.3830501087594
20
-1.6269477037979
30
0
41
1
10
14.4840447522299
20
-1.59138000720776
30
0
41
1
10
14.4961359128919
20
-1.58709466692295
30
0
41
1
10
14.5082277826114
20
-1.58278209833497
30
0
0
SPLINE
5
AF
100
AcDbEntity
8
1
62
256
6
ByLayer
370
18
48
1
60
0
100
AcDbSpline
70
4
71
3
72
24
73
20
40
0
40
0
40
0
40
0
40
0.0512312481202592
40
0.0512312481202592
40
0.186769641245933
40
0.186769641245933
40
0.322308034371608
40
0.322308034371608
40
0.390077230934448
40
0.390077230934448
40
0.457846427497286
40
0.457846427497286
40
0.593384820622965
40
0.593384820622965
40
0.728923213748643
40
0.728923213748643
40
0.864461606874322
40
0.864461606874322
40
1
40
1
40
1
40
1
41
1
10
23.3316432622409
20
2.03718847136363
30
0
41
1
10
23.3987262449909
20
2.0375571909006
30
0
41
1
10
23.4657239683459
20
2.03703142077308
30
0
41
1
10
23.7098909333544
20
2.03020174605407
30
0
41
1
10
23.8871111969423
20
2.01653712005751
30
0
41
1
10
24.2416408203444
20
1.97513060111064
30
0
41
1
10
24.4193721409512
20
1.94637342830916
30
0
41
1
10
24.6855907070907
20
1.89441371809792
30
0
41
1
10
24.7742827971564
20
1.87553859816117
30
0
41
1
10
24.9514792914723
20
1.83397051797607
30
0
41
1
10
25.0398862679011
20
1.81118098725472
30
0
41
1
10
25.3057590104647
20
1.73806754865669
30
0
41
1
10
25.4837185204708
20
1.68257728741165
30
0
41
1
10
25.8387215165064
20
1.56008610151906
30
0
41
1
10
26.0158744320003
20
1.49373384592315
30
0
41
1
10
26.3704806811225
20
1.34976641935708
30
0
41
1
10
26.5476809285773
20
1.27104603914077
30
0
41
1
10
26.9031947079077
20
1.10631772928414
30
0
41
1
10
27.0806228356706
20
1.02010103079755
30
0
41
1
10
27.2579059699932
20
0.930566438135031
30
0
0
SPLINE
5
B0
100
AcDbEntity
8
1
62
256
6
ByLayer
370
18
48
1
60
0
100
AcDbSpline
70
4
71
3
72
10
73
6
40
0
40
0
40
0
40
0
40
0.5
40
0.5
40
1
40
1
40
1
40
1
41
1
10
29.3968952749932
20
-2.06753292506298
30
0
41
1
10
29.4753190878284
20
-1.8419605610865
30
0
41
1
10
29.5559574580637
20
-1.61707099116199
30
0
41
1
10
29.7202410952292
20
-1.1682470653044
30
0
41
1
10
29.8039142174086
20
-0.944320021874603
30
0
41
1
10
29.8884191294779
20
-0.720649437802962
30
0
0
SPLINE
5
B1
100
AcDbEntity
8
1
62
256
6
ByLayer
370
18
48
1
60
0
100
AcDbSpline
70
4
71
3
72
8
73
4
40
0
40
0
40
0
40
0
40
1
40
1
40
1
40
1
41
1
10
29.2999647593098
20
2.14178580490781
30
0
41
1
10
29.1958187559952
20
2.14718317380712
30
0
41
1
10
29.0918395165404
20
2.14983600105742
30
0
41
1
10
28.9879335774966
20
2.14976481661776
30
0
0
SPLINE
5
B2
100
AcDbEntity
8
1
62
256
6
ByLayer
370
18
48
1
60
0
100
AcDbSpline
70
4
71
3
72
42
73
38
40
0
40
0
40
0
40
0
40
0.0039839978435537
40
0.0039839978435537
40
0.034166300939203
40
0.034166300939203
40
0.154895513321799
40
0.154895513321799
40
0.215260119513098
40
0.215260119513098
40
0.245442422608746
40
0.245442422608746
40
0.275624725704395
40
0.275624725704395
40
0.396353938086994
40
0.396353938086994
40
0.426536241182643
40
0.426536241182643
40
0.456718544278294
40
0.456718544278294
40
0.517083150469593
40
0.517083150469593
40
0.637812362852195
40
0.637812362852195
40
0.667994665947845
40
0.667994665947845
40
0.698176969043495
40
0.698176969043495
40
0.758541575234796
40
0.758541575234796
40
0.818906181426097
40
0.818906181426097
40
0.849088484521748
40
0.849088484521748
40
0.879270787617399
40
0.879270787617399
40
1
40
1
40
1
40
1
41
1
10
18.8103669047281
20
-2.04793212121385
30
0
41
1
10
18.7953271073905
20
-2.05057940728366
30
0
41
1
10
18.7802807315414
20
-2.05317407649889
30
0
41
1
10
18.6511861156959
20
-2.07497187900091
30
0
41
1
10
18.5368404098889
20
-2.09114441589469
30
0
41
1
10
17.9685485601731
20
-2.15558006313634
30
0
41
1
10
17.5192073722493
20
-2.15548253782998
30
0
41
1
10
16.8420911767914
20
-2.07958435528076
30
0
41
1
10
16.6156156645804
20
-2.0416875288191
30
0
41
1
10
16.2732641521223
20
-1.9661827669255
30
0
41
1
10
16.1588532176014
20
-1.93789537797238
30
0
41
1
10
15.9314641204686
20
-1.87580490204539
30
0
41
1
10
15.8181354783211
20
-1.84197545987172
30
0
41
1
10
15.2525915973855
20
-1.65974793389904
30
0
41
1
10
14.8037230208238
20
-1.47211159657354
30
0
41
1
10
14.2367817583884
20
-1.19713037926002
30
0
41
1
10
14.1231136391837
20
-1.14009148128832
30
0
41
1
10
13.8949461514457
20
-1.02222184215094
30
0
41
1
10
13.7805588771883
20
-0.961506430735312
30
0
41
1
10
13.4393648044898
20
-0.776393282946401
30
0
41
1
10
13.2133096893802
20
-0.648444064804607
30
0
41
1
10
12.5363529211469
20
-0.256063772321312
30
0
41
1
10
12.087006077065
20
0.0175043908973009
30
0
41
1
10
11.5162386826915
20
0.355049336017004
30
0
41
1
10
11.4018029765302
20
0.422259388398572
30
0
41
1
10
11.1743023365061
20
0.554500034042974
30
0
41
1
10
11.0609471792898
20
0.619715068731608
30
0
41
1
10
10.7215458352621
20
0.811835003690589
30
0
41
1
10
10.4961404551618
20
0.935182606796502
30
0
41
1
10
10.0450006137463
20
1.16937445544903
30
0
41
1
10
9.81933229829701
20
1.28031674350456
30
0
41
1
10
9.47912262773016
20
1.43511898278459
30
0
41
1
10
9.36541064072048
20
1.48475172451751
30
0
41
1
10
9.13708840281066
20
1.57966496673023
30
0
41
1
10
9.02263128751429
20
1.62486915430432
30
0
41
1
10
8.4528244770845
20
1.83718451216202
30
0
41
1
10
8.00114365388538
20
1.96518802227132
30
0
41
1
10
7.54444944364479
20
2.04401396728201
30
0
0
SPLINE
5
B3
100
AcDbEntity
8
1
62
256
6
ByLayer
370
18
48
1
60
0
100
AcDbSpline
70
4
71
3
72
24
73
20
40
0
40
0
40
0
40
0
40
0.0851368445514687
40
0.0851368445514687
40
0.321627248416579
40
0.321627248416579
40
0.380749849382856
40
0.380749849382856
40
0.439872450349133
40
0.439872450349133
40
0.558117652281689
40
0.558117652281689
40
0.676362854214245
40
0.676362854214245
40
0.735485455180524
40
0.735485455180524
40
0.794608056146802
40
0.794608056146802
40
1
40
1
40
1
40
1
41
1
10
20.6876908484166
20
1.45090162472542
30
0
41
1
10
20.8505657518374
20
1.37969103712462
30
0
41
1
10
21.0128430735783
20
1.30430255871778
30
0
41
1
10
21.6250825050499
20
1.00589454039601
30
0
41
1
10
22.0729316162953
20
0.757730828532232
30
0
41
1
10
22.6412591180612
20
0.428173923723762
30
0
41
1
10
22.7554503048272
20
0.361168890443849
30
0
41
1
10
22.9824365148933
20
0.226986936306986
30
0
41
1
10
23.0955195375178
20
0.159637405887139
30
0
41
1
10
23.4339486683092
20
-0.0424868642220133
30
0
41
1
10
23.6587124622933
20
-0.176916204174859
30
0
41
1
10
24.1082387870452
20
-0.442281196575692
30
0
41
1
10
24.3329786892503
20
-0.573254220546715
30
0
41
1
10
24.6716688114784
20
-0.764423331370296
30
0
41
1
10
24.7848390492224
20
-0.827246561687787
30
0
41
1
10
25.0120210135778
20
-0.950593534316766
30
0
41
1
10
25.1262379779191
20
-1.01122602140413
30
0
41
1
10
25.6342518738759
20
-1.27385255632677
30
0
41
1
10
26.0238058590236
20
-1.45604610370597
30
0
41
1
10
26.4141755328768
20
-1.60980558177334
30
0
0
SPLINE
5
B4
100
AcDbEntity
8
1
62
256
6
ByLayer
370
13
48
1
60
0
100
AcDbSpline
70
4
71
3
72
16
73
12
40
0
40
0
40
0
40
0
40
0.0616935906651489
40
0.0616935906651489
40
0.296270192998864
40
0.296270192998864
40
0.413558494165717
40
0.413558494165717
40
0.530846795332569
40
0.530846795332569
40
1
40
1
40
1
40
1
41
1
10
26.4141755329075
20
-1.60980558178545
30
0
41
1
10
26.4732815302623
20
-1.63308635360906
30
0
41
1
10
26.5324062273501
20
-1.65571527197412
30
0
41
1
10
26.8165251372776
20
-1.76114368517409
30
0
41
1
10
27.0420266177619
20
-1.83488299833994
30
0
41
1
10
27.3824722481281
20
-1.92907919634178
30
0
41
1
10
27.4965738414329
20
-1.95778570109377
30
0
41
1
10
27.7237470167295
20
-2.00887105896751
30
0
41
1
10
27.8370083843425
20
-2.0313226825732
30
0
41
1
10
28.402222910075
20
-2.12815000335945
30
0
41
1
10
28.8508644635443
20
-2.156282050502
30
0
41
1
10
29.3036078193189
20
-2.13246103421588
30
0
0
SPLINE
5
B5
100
AcDbEntity
8
1
62
256
6
ByLayer
370
18
48
1
60
0
100
AcDbSpline
70
4
71
3
72
10
73
6
40
0
40
0
40
0
40
0
40
0.5
40
0.5
40
1
40
1
40
1
40
1
41
1
10
29.888419129478
20
-0.720649437802848
30
0
41
1
10
29.9170140770896
20
-0.615780994832392
30
0
41
1
10
29.9409737345675
20
-0.515156832159562
30
0
41
1
10
29.9775355749664
20
-0.318608498577504
30
0
41
1
10
29.9901200227156
20
-0.222260984628264
30
0
41
1
10
29.9960282093014
20
-0.127188220757716
30
0
0
SPLINE
5
B6
100
AcDbEntity
8
1
62
256
6
ByLayer
370
18
48
1
60
0
100
AcDbSpline
70
4
71
3
72
8
73
4
40
0
40
0
40
0
40
0
40
1
40
1
40
1
40
1
41
1
10
29.9997786309995
20
-0.0299559993044909
30
0
41
1
10
30.0000740438437
20
-0.0099625453707688
30
0
41
1
10
30.0000734844546
20
0.0100004046096274
30
0
41
1
10
29.9997786310005
20
0.029955999232584
30
0
0
SPLINE
5
B7
100
AcDbEntity
8
1
62
256
6
ByLayer
370
18
48
1
60
0
100
AcDbSpline
70
4
71
3
72
10
73
6
40
0
40
0
40
0
40
0
40
0.873028230464414
40
0.873028230464414
40
1
40
1
40
1
40
1
41
1
10
7.4416622492403
20
2.0804780933355
30
0
41
1
10
7.44167233612421
20
2.11242197993062
30
0
41
1
10
7.44167281918729
20
2.13077166404025
30
0
41
1
10
7.44166662712507
20
2.13586331183404
30
0
41
1
10
7.44166572094619
20
2.13621593269849
30
0
41
1
10
7.44166470738688
20
2.1362760859565
30
0
0
SPLINE
5
B8
100
AcDbEntity
8
1
62
256
6
ByLayer
370
18
48
1
60
0
100
AcDbSpline
70
4
71
3
72
8
73
4
40
0
40
0
40
0
40
0
40
1
40
1
40
1
40
1
41
1
10
29.9955268780993
20
-0.0784845324589014
30
0
41
1
10
29.9951774556217
20
-0.0648630625376541
30
0
41
1
10
29.996812681432
20
-0.0480351956867935
30
0
41
1
10
29.9997786309835
20
-0.0299559993357263
30
0
0
SPLINE
5
B9
100
AcDbEntity
8
1
62
256
6
ByLayer
370
18
48
1
60
0
100
AcDbSpline
70
4
71
3
72
38
73
34
40
0
40
0
40
0
40
0
40
0.0173032112284132
40
0.0173032112284132
40
0.161934791384658
40
0.161934791384658
40
0.306566371540902
40
0.306566371540902
40
0.451197951697147
40
0.451197951697147
40
0.523513741775269
40
0.523513741775269
40
0.55967163681433
40
0.55967163681433
40
0.577750584333861
40
0.577750584333861
40
0.586790058093626
40
0.586790058093626
40
0.595829531853391
40
0.595829531853391
40
0.604869005613157
40
0.604869005613157
40
0.613908479372922
40
0.613908479372922
40
0.631987426892452
40
0.631987426892452
40
0.668145321931513
40
0.668145321931513
40
0.740461112009635
40
0.740461112009635
40
0.885092692165878
40
0.885092692165878
40
1
40
1
40
1
40
1
41
1
10
10.1988278785175
20
0.775959147947702
30
0
41
1
10
10.1988278785175
20
0.769787066200138
30
0
41
1
10
10.1988278785174
20
0.763386261870778
30
0
41
1
10
10.1988278785174
20
0.701376587143301
30
0
41
1
10
10.1988278785174
20
0.629294179783727
30
0
41
1
10
10.1988278785174
20
0.461709741361517
30
0
41
1
10
10.1988278785174
20
0.365878565732771
30
0
41
1
10
10.1988278785174
20
0.152042372380038
30
0
41
1
10
10.1988278785174
20
0.0333672172157264
30
0
41
1
10
10.1988278785174
20
-0.155804095291245
30
0
41
1
10
10.1988278785175
20
-0.220897233097048
30
0
41
1
10
10.1988278785175
20
-0.321541023870083
30
0
41
1
10
10.1988278785174
20
-0.35560746505729
30
0
41
1
10
10.1988278785174
20
-0.407307540976859
30
0
41
1
10
10.1988278785177
20
-0.4246462985287
30
0
41
1
10
10.1988278785177
20
-0.450811891107378
30
0
41
1
10
10.1988278785174
20
-0.459561422490253
30
0
41
1
10
10.1988278785174
20
-0.477098566142615
30
0
41
1
10
10.1988278785174
20
-0.486507964869588
30
0
41
1
10
10.1988278785174
20
-0.507358208403105
30
0
41
1
10
10.1988278785174
20
-0.517543860075989
30
0
41
1
10
10.1988278785174
20
-0.538040469667038
30
0
41
1
10
10.1988278785174
20
-0.548283785205115
30
0
41
1
10
10.1988278785174
20
-0.578982071020533
30
0
41
1
10
10.1988278785175
20
-0.599411351348749
30
0
41
1
10
10.1988278785175
20
-0.660589406780872
30
0
41
1
10
10.1988278785174
20
-0.701251309903313
30
0
41
1
10
10.1988278785174
20
-0.822487448983821
30
0
41
1
10
10.1988278785174
20
-0.902385657150489
30
0
41
1
10
10.1988278785174
20
-1.13916183424536
30
0
41
1
10
10.1988278785174
20
-1.29011751868896
30
0
41
1
10
10.1988278785174
20
-1.54720182240172
30
0
41
1
10
10.1988278785174
20
-1.65672310638226
30
0
41
1
10
10.1988278785174
20
-1.75774857201515
30
0
0
SPLINE
5
BA
100
AcDbEntity
8
1
62
256
6
ByLayer
370
18
48
1
60
0
100
AcDbSpline
70
4
71
3
72
14
73
10
40
0
40
0
40
0
40
0
40
0.25
40
0.25
40
0.5
40
0.5
40
0.75
40
0.75
40
1
40
1
40
1
40
1
41
1
10
7.64714313096152
20
-0.546996982070709
30
0
41
1
10
7.85485242351865
20
-0.682495298338125
30
0
41
1
10
8.06483850400593
20
-0.809400354404204
30
0
41
1
10
8.48853339808085
20
-1.04897394056198
30
0
41
1
10
8.70045920837845
20
-1.16090086428144
30
0
41
1
10
9.12414586980597
20
-1.36549093819292
30
0
41
1
10
9.33623051200505
20
-1.45817002582493
30
0
41
1
10
9.76394224449848
20
-1.62331214478769
30
0
41
1
10
9.97956455818206
20
-1.69613322325705
30
0
41
1
10
10.1988278785174
20
-1.75774857201651
30
0
0
SPLINE
5
BB
100
AcDbEntity
8
1
62
256
6
ByLayer
370
18
48
1
60
0
100
AcDbSpline
70
4
71
3
72
8
73
4
40
0
40
0
40
0
40
0
40
1
40
1
40
1
40
1
41
1
10
29.9778375798537
20
-0.0299305945545996
30
0
41
1
10
29.8868120093621
20
-0.173219935691691
30
0
41
1
10
29.7930725051018
20
-0.313706018850724
30
0
41
1
10
29.6974585774669
20
-0.452255985388263
30
0
0
SPLINE
5
BC
100
AcDbEntity
8
1
62
256
6
ByLayer
370
18
48
1
60
0
100
AcDbSpline
70
4
71
3
72
8
73
4
40
0
40
0
40
0
40
0
40
1
40
1
40
1
40
1
41
1
10
7.54444944364377
20
2.04401396728261
30
0
41
1
10
7.53400953011194
20
2.04581590834408
30
0
41
1
10
7.5236554022585
20
2.04764175507836
30
0
41
1
10
7.51363627016991
20
2.04957507480987
30
0
0
SPLINE
5
BD
100
AcDbEntity
8
1
62
256
6
ByLayer
370
18
48
1
60
0
100
AcDbSpline
70
4
71
3
72
8
73
4
40
0
40
0
40
0
40
0
40
1
40
1
40
1
40
1
41
1
10
29.9960282093014
20
0.12718822075766
30
0
41
1
10
29.9961057945664
20
0.110942190604561
30
0
41
1
10
29.9959430331106
20
0.0947074240299344
30
0
41
1
10
29.9955268780993
20
0.0784845324589583
30
0
0
SPLINE
5
BE
100
AcDbEntity
8
1
62
256
6
ByLayer
370
18
48
1
60
0
100
AcDbSpline
70
4
71
3
72
10
73
6
40
0
40
0
40
0
40
0
40
0.5
40
0.5
40
1
40
1
40
1
40
1
41
1
10
29.3968952749931
20
2.06753292506298
30
0
41
1
10
29.4753190878284
20
1.84196056108641
30
0
41
1
10
29.5559574580637
20
1.61707099116185
30
0
41
1
10
29.7202410952293
20
1.16824706530414
30
0
41
1
10
29.8039142174088
20
0.94432002187429
30
0
41
1
10
29.888419129478
20
0.720649437802592
30
0
0
SPLINE
5
BF
100
AcDbEntity
8
1
62
256
6
ByLayer
370
18
48
1
60
0
100
AcDbSpline
70
4
71
3
72
24
73
20
40
0
40
0
40
0
40
0
40
0.0625000000000027
40
0.0625000000000027
40
0.125000000000005
40
0.125000000000005
40
0.250000000000005
40
0.250000000000005
40
0.375000000000004
40
0.375000000000004
40
0.500000000000004
40
0.500000000000004
40
0.625000000000003
40
0.625000000000003
40
0.750000000000002
40
0.750000000000002
40
0.875000000000001
40
0.875000000000001
40
1
40
1
40
1
40
1
41
1
10
29.6974585774669
20
-0.452255985388263
30
0
41
1
10
29.6992222155717
20
-0.46778138227387
30
0
41
1
10
29.6997766666722
20
-0.484457873337959
30
0
41
1
10
29.6984551527637
20
-0.52026917011915
30
0
41
1
10
29.6965196049461
20
-0.539711873435635
30
0
41
1
10
29.6872385680257
20
-0.599276192513912
30
0
41
1
10
29.6762596251788
20
-0.641811159404398
30
0
41
1
10
29.6483750297366
20
-0.723506229039913
30
0
41
1
10
29.6314687633358
20
-0.76293599723013
30
0
41
1
10
29.5949801855761
20
-0.833853770720225
30
0
41
1
10
29.5756716909671
20
-0.864954081144703
30
0
41
1
10
29.5360960980369
20
-0.917746944048389
30
0
41
1
10
29.5163608956875
20
-0.93878513397712
30
0
41
1
10
29.4768005538884
20
-0.970885013599911
30
0
41
1
10
29.457683246463
20
-0.981378516643389
30
0
41
1
10
29.4202829005268
20
-0.991859470405558
30
0
41
1
10
29.4023902022999
20
-0.991631860159146
30
0
41
1
10
29.3689699704917
20
-0.980300055047707
30
0
41
1
10
29.3531860389736
20
-0.96896619949004
30
0
41
1
10
29.3394629995719
20
-0.952319672722439
30
0
0
SPLINE
5
C0
100
AcDbEntity
8
1
62
256
6
ByLayer
370
18
48
1
60
0
100
AcDbSpline
70
4
71
3
72
28
73
24
40
0
40
0
40
0
40
0
40
0.0899259249288259
40
0.0899259249288259
40
0.140933326145981
40
0.140933326145981
40
0.191940727363135
40
0.191940727363135
40
0.395970332231748
40
0.395970332231748
40
0.446977733448902
40
0.446977733448902
40
0.497985134666057
40
0.497985134666057
40
0.599999937100367
40
0.599999937100367
40
0.804029541968984
40
0.804029541968984
40
0.855036943186138
40
0.855036943186138
40
0.906044344403292
40
0.906044344403292
40
1
40
1
40
1
40
1
41
1
10
9.03059018932629
20
1.61406221511359
30
0
41
1
10
9.22924780576264
20
1.53721022583599
30
0
41
1
10
9.42830555789402
20
1.45268518687453
30
0
41
1
10
9.74201658052729
20
1.30934389969593
30
0
41
1
10
9.85623600593453
20
1.25509760755298
30
0
41
1
10
10.0838612240771
20
1.14343969104226
30
0
41
1
10
10.1972711075134
20
1.08601303602566
30
0
41
1
10
10.762846177782
20
0.7917900496453
30
0
41
1
10
11.2105815983957
20
0.53384196805186
30
0
41
1
10
11.7752316661207
20
0.200932860301094
30
0
41
1
10
11.8883906007987
20
0.133793658346804
30
0
41
1
10
12.11541615402
20
-0.0011871494654656
30
0
41
1
10
12.22958978987
20
-0.0692151303848618
30
0
41
1
10
12.5708955890417
20
-0.272101643624239
30
0
41
1
10
12.7967509922605
20
-0.405538390130516
30
0
41
1
10
13.4727940755273
20
-0.794694133378727
30
0
41
1
10
13.9208288054305
20
-1.04049773095932
30
0
41
1
10
14.4883529855524
20
-1.31318352117441
30
0
41
1
10
14.6025126993357
20
-1.36612168015304
30
0
41
1
10
14.8302080558336
20
-1.46743893989606
30
0
41
1
10
14.9437042789207
20
-1.51580700455929
30
0
41
1
10
15.2656607978799
20
-1.64637495040964
30
0
41
1
10
15.4736167197771
20
-1.72281512447074
30
0
41
1
10
15.6816334788658
20
-1.79025622189638
30
0
0
SPLINE
5
C1
100
AcDbEntity
8
1
62
256
6
ByLayer
370
13
48
1
60
0
100
AcDbSpline
70
4
71
3
72
18
73
14
40
0
40
0
40
0
40
0
40
0.0173740321272814
40
0.0173740321272814
40
0.237299105130059
40
0.237299105130059
40
0.34726164163145
40
0.34726164163145
40
0.457224178132841
40
0.457224178132841
40
0.89707432413842
40
0.89707432413842
40
1
40
1
40
1
40
1
41
1
10
15.6816334789156
20
-1.7902562219125
30
0
41
1
10
15.6994763388688
20
-1.79604105416209
30
0
41
1
10
15.7173196464337
20
-1.8017596753987
30
0
41
1
10
15.9610410437869
20
-1.87895476965048
30
0
41
1
10
16.1870893716107
20
-1.93976685696785
30
0
41
1
10
16.5282558540633
20
-2.01322891085474
30
0
41
1
10
16.6424958855571
20
-2.03481362215678
30
0
41
1
10
16.8699307454479
20
-2.07160730388915
30
0
41
1
10
16.9832979815955
20
-2.0868588445542
30
0
41
1
10
17.5490556276777
20
-2.14735209276648
30
0
41
1
10
17.9991566270578
20
-2.14517682996052
30
0
41
1
10
18.5605299566468
20
-2.07890338912955
30
0
41
1
10
18.667328784346
20
-2.06353591438122
30
0
41
1
10
18.7737602067591
20
-2.04551690597515
30
0
0
SPLINE
5
C2
100
AcDbEntity
8
1
62
256
6
ByLayer
370
18
48
1
60
0
100
AcDbSpline
70
4
71
3
72
28
73
24
40
0
40
0
40
0
40
0
40
0.249999999999988
40
0.249999999999988
40
0.374999999999976
40
0.374999999999976
40
0.499999999999964
40
0.499999999999964
40
0.624999999999952
40
0.624999999999952
40
0.74999999999994
40
0.74999999999994
40
0.81249999999994
40
0.81249999999994
40
0.84374999999994
40
0.84374999999994
40
0.85937499999994
40
0.85937499999994
40
0.867187499999944
40
0.867187499999944
40
0.874999999999948
40
0.874999999999948
40
1
40
1
40
1
40
1
41
1
10
27.2579059699943
20
0.93056643813452
30
0
41
1
10
27.4089740188822
20
0.777033728476283
30
0
41
1
10
27.5705810477854
20
0.641102772949694
30
0
41
1
10
27.8293424793013
20
0.466546429085042
30
0
41
1
10
27.9165591164303
20
0.41444669609723
30
0
41
1
10
28.0928916136284
20
0.32225160265287
30
0
41
1
10
28.1819595833916
20
0.281853543096815
30
0
41
1
10
28.3624816934121
20
0.216139634149187
30
0
41
1
10
28.4541264532064
20
0.190126297374803
30
0
41
1
10
28.6386852725663
20
0.154217274162931
30
0
41
1
10
28.7300774050892
20
0.144557200822618
30
0
41
1
10
28.8655253252426
20
0.145400732314357
30
0
41
1
10
28.910431632335
20
0.148303767771523
30
0
41
1
10
28.9766109314888
20
0.156977653473149
30
0
41
1
10
28.9983971056711
20
0.160984292098164
30
0
41
1
10
29.0311132370463
20
0.166811271331483
30
0
41
1
10
29.0427352289028
20
0.168466605708034
30
0
41
1
10
29.0541795565032
20
0.180969996832744
30
0
41
1
10
29.0567268088777
20
0.186664434256784
30
0
41
1
10
29.0598824175428
20
0.199034550459629
30
0
41
1
10
29.0613749075727
20
0.205265501941994
30
0
41
1
10
29.0862774136128
20
0.31144441123908
30
0
41
1
10
29.0978180983096
20
0.417411057984253
30
0
41
1
10
29.1010918162173
20
0.52507047445124
30
0
0
SPLINE
5
C3
100
AcDbEntity
8
1
62
256
6
ByLayer
370
18
48
1
60
0
100
AcDbSpline
70
4
71
3
72
8
73
4
40
0
40
0
40
0
40
0
40
1
40
1
40
1
40
1
41
1
10
29.33946299958
20
-0.952319672733182
30
0
41
1
10
29.1990526624333
20
-1.14223678453294
30
0
41
1
10
29.0561401717006
20
-1.32940477780073
30
0
41
1
10
28.9115649177141
20
-1.51461510428277
30
0
0
SPLINE
5
C4
100
AcDbEntity
8
1
62
256
6
ByLayer
370
18
48
1
60
0
100
AcDbSpline
70
4
71
3
72
10
73
6
40
0
40
0
40
0
40
0
40
0.5
40
0.5
40
1
40
1
40
1
40
1
41
1
10
29.8603476824291
20
0.580968545776585
30
0
41
1
10
29.8959970471938
20
0.506927441198656
30
0
41
1
10
29.9249261261111
20
0.432022205271295
30
0
41
1
10
29.9698983713666
20
0.28055479184016
30
0
41
1
10
29.9859815565888
20
0.203534343025893
30
0
41
1
10
29.9960282093014
20
0.12718822075766
30
0
0
SPLINE
5
C5
100
AcDbEntity
8
1
62
256
6
ByLayer
370
18
48
1
60
0
100
AcDbSpline
70
4
71
3
72
38
73
34
40
0
40
0
40
0
40
0
40
0.0863033250419252
40
0.0863033250419252
40
0.17260665008385
40
0.17260665008385
40
0.258909975125776
40
0.258909975125776
40
0.345213300167701
40
0.345213300167701
40
0.431516625209626
40
0.431516625209626
40
0.517819950251551
40
0.517819950251551
40
0.560971612772514
40
0.560971612772514
40
0.604123275293477
40
0.604123275293477
40
0.647274937814439
40
0.647274937814439
40
0.690426600335402
40
0.690426600335402
40
0.776729925377327
40
0.776729925377327
40
0.81988158789829
40
0.81988158789829
40
0.863033250419252
40
0.863033250419252
40
0.94933657546118
40
0.94933657546118
40
0.992488237982143
40
0.992488237982143
40
1
40
1
40
1
40
1
41
1
10
10.1988278785174
20
0.775959147947702
30
0
41
1
10
10.398743257192
20
0.663349489064274
30
0
41
1
10
10.5989698198658
20
0.549092228290277
30
0
41
1
10
10.9992073702797
20
0.316131060651941
30
0
41
1
10
11.1986307961556
20
0.196039231871026
30
0
41
1
10
11.6000586004496
20
-0.0424774700481407
30
0
41
1
10
11.7995931951942
20
-0.162576629278135
30
0
41
1
10
12.1992442628706
20
-0.399495165629787
30
0
41
1
10
12.4001027924177
20
-0.515765159708025
30
0
41
1
10
12.8000400213144
20
-0.745963697138762
30
0
41
1
10
13.000324793876
20
-0.856245738061034
30
0
41
1
10
13.3999886564961
20
-1.06977212357003
30
0
41
1
10
13.6000093103526
20
-1.17272322930234
30
0
41
1
10
13.9007819632789
20
-1.31696285827928
30
0
41
1
10
14.0009358715733
20
-1.36345438817361
30
0
41
1
10
14.200612589972
20
-1.45377226908335
30
0
41
1
10
14.300269369906
20
-1.49740624030232
30
0
41
1
10
14.5001910933873
20
-1.58048108684963
30
0
41
1
10
14.6003601623188
20
-1.62005690265511
30
0
41
1
10
14.8006788725486
20
-1.69576297028991
30
0
41
1
10
14.9008752931671
20
-1.73194373215955
30
0
41
1
10
15.2008760549354
20
-1.8338886073949
30
0
41
1
10
15.4009626771902
20
-1.89285561536718
30
0
41
1
10
15.7007706903866
20
-1.96835286104891
30
0
41
1
10
15.8004425651482
20
-1.99146154946422
30
0
41
1
10
16.0006386512239
20
-2.03263694683727
30
0
41
1
10
16.101074439769
20
-2.05079544032563
30
0
41
1
10
16.4015712161407
20
-2.09799437480007
30
0
41
1
10
16.6007071248627
20
-2.11996756107442
30
0
41
1
10
16.900662114312
20
-2.13772137779171
30
0
41
1
10
17.0008452448523
20
-2.14114785665396
30
0
41
1
10
17.1185224145191
20
-2.14224899876768
30
0
41
1
10
17.1359630383759
20
-2.14233579541534
30
0
41
1
10
17.153397338103
20
-2.14234615033072
30
0
0
SPLINE
5
C6
100
AcDbEntity
8
1
62
256
6
ByLayer
370
18
48
1
60
0
100
AcDbSpline
70
4
71
3
72
24
73
20
40
0
40
0
40
0
40
0
40
0.0094913083493839
40
0.0094913083493839
40
0.17457609029116
40
0.17457609029116
40
0.339660872232931
40
0.339660872232931
40
0.422203263203812
40
0.422203263203812
40
0.504745654174694
40
0.504745654174694
40
0.669830436116466
40
0.669830436116466
40
0.752372827087351
40
0.752372827087351
40
0.834915218058237
40
0.834915218058237
40
1
40
1
40
1
40
1
41
1
10
25.7646348665376
20
1.59073758631064
30
0
41
1
10
25.7761151379772
20
1.59537182751842
30
0
41
1
10
25.7875920602273
20
1.59998345487566
30
0
41
1
10
25.9986215686676
20
1.68439273440475
30
0
41
1
10
26.1979999530508
20
1.75674258272076
30
0
41
1
10
26.59891022655
20
1.88406265352342
30
0
41
1
10
26.7982456790392
20
1.939714788445
30
0
41
1
10
27.0978951865847
20
2.00840834204291
30
0
41
1
10
27.197905196448
20
2.02892694115647
30
0
41
1
10
27.3976878602977
20
2.06545198258107
30
0
41
1
10
27.4975112736968
20
2.0814085091811
30
0
41
1
10
27.7977111142981
20
2.12184147757728
30
0
41
1
10
27.9980072959237
20
2.13871108827908
30
0
41
1
10
28.2974920936281
20
2.14922385648529
30
0
41
1
10
28.3971317032913
20
2.15021165694648
30
0
41
1
10
28.5972276225135
20
2.14713464822123
30
0
41
1
10
28.697609869784
20
2.1430929188333
30
0
41
1
10
28.9978187153511
20
2.1234973729172
30
0
41
1
10
29.196872824043
20
2.10026332949164
30
0
41
1
10
29.3968952749935
20
2.06753292506221
30
0
0
SPLINE
5
C7
100
AcDbEntity
8
1
62
256
6
ByLayer
370
18
48
1
60
0
100
AcDbSpline
70
4
71
3
72
10
73
6
40
0
40
0
40
0
40
0
40
0.5
40
0.5
40
1
40
1
40
1
40
1
41
1
10
29.3968952749934
20
2.06753292506235
30
0
41
1
10
29.3811561778751
20
2.08634647747496
30
0
41
1
10
29.3650622339577
20
2.10208672054026
30
0
41
1
10
29.3327525746569
20
2.12680444791505
30
0
41
1
10
29.3164551047832
20
2.1358947566851
30
0
41
1
10
29.2999647593097
20
2.14178580490807
30
0
0
SPLINE
5
C8
100
AcDbEntity
8
1
62
256
6
ByLayer
370
18
48
1
60
0
100
AcDbSpline
70
4
71
3
72
28
73
24
40
0
40
0
40
0
40
0
40
0.0625000000000036
40
0.0625000000000036
40
0.125000000000007
40
0.125000000000007
40
0.187500000000011
40
0.187500000000011
40
0.250000000000014
40
0.250000000000014
40
0.312500000000018
40
0.312500000000018
40
0.375000000000021
40
0.375000000000021
40
0.500000000000029
40
0.500000000000029
40
0.562500000000028
40
0.562500000000028
40
0.625000000000028
40
0.625000000000028
40
0.750000000000019
40
0.750000000000019
40
1
40
1
40
1
40
1
41
1
10
27.2579059699942
20
0.93056643813452
30
0
41
1
10
27.2447496701704
20
0.870492991944758
30
0
41
1
10
27.2359315035885
20
0.808328056720853
30
0
41
1
10
27.2276584926358
20
0.679483966759761
30
0
41
1
10
27.2283379355068
20
0.613118443452208
30
0
41
1
10
27.2390254853609
20
0.481057127005812
30
0
41
1
10
27.2489767091669
20
0.414738518415732
30
0
41
1
10
27.2777054844206
20
0.28154968485282
30
0
41
1
10
27.2965971670206
20
0.214579783167238
30
0
41
1
10
27.3413380424915
20
0.0842906003677513
30
0
41
1
10
27.3672850427218
20
0.0204053232895092
30
0
41
1
10
27.4255456579946
20
-0.105123533923432
30
0
41
1
10
27.4579642031
20
-0.166861360544885
30
0
41
1
10
27.5613846354753
20
-0.344833490133624
30
0
41
1
10
27.6391747429073
20
-0.455496870431261
30
0
41
1
10
27.7660354938438
20
-0.612304143465082
30
0
41
1
10
27.8102231713551
20
-0.663222231075224
30
0
41
1
10
27.9005277304791
20
-0.76104946531683
30
0
41
1
10
27.9466557535719
20
-0.808009793082277
30
0
41
1
10
28.0875626597642
20
-0.943840442623184
30
0
41
1
10
28.1848487994959
20
-1.02769161998563
30
0
41
1
10
28.4848410326084
20
-1.26296250028673
30
0
41
1
10
28.6964300139844
20
-1.39871990403805
30
0
41
1
10
28.9115649177141
20
-1.51461510428277
30
0
0
SPLINE
5
C9
100
AcDbEntity
8
1
62
256
6
ByLayer
370
13
48
1
60
0
100
AcDbSpline
70
4
71
3
72
32
73
28
40
0
40
0
40
0
40
0
40
0.162252041337577
40
0.162252041337577
40
0.202815051671972
40
0.202815051671972
40
0.243378062006367
40
0.243378062006367
40
0.324504082675154
40
0.324504082675154
40
0.486756124012727
40
0.486756124012727
40
0.52731913434712
40
0.52731913434712
40
0.567882144681514
40
0.567882144681514
40
0.6490081653503
40
0.6490081653503
40
0.730134186019087
40
0.730134186019087
40
0.770697196353479
40
0.770697196353479
40
0.811260206687872
40
0.811260206687872
40
0.973512248025439
40
0.973512248025439
40
1
40
1
40
1
40
1
41
1
10
29.3101927520499
20
-2.04119777016592
30
0
41
1
10
28.8582280626132
20
-2.05030872685674
30
0
41
1
10
28.410010002702
20
-2.01007245129657
30
0
41
1
10
27.8455689851791
20
-1.90187364817581
30
0
41
1
10
27.7324748368665
20
-1.87733391980817
30
0
41
1
10
27.5056474708675
20
-1.82248114449581
30
0
41
1
10
27.3918880113999
20
-1.79215550811762
30
0
41
1
10
27.0524084765494
20
-1.69382537448544
30
0
41
1
10
26.8274231790217
20
-1.61818916975108
30
0
41
1
10
26.1538495940337
20
-1.36452921420334
30
0
41
1
10
25.7065529971141
20
-1.159874109691
30
0
41
1
10
25.1396774084585
20
-0.872415989869467
30
0
41
1
10
25.0257831351008
20
-0.813281419217503
30
0
41
1
10
24.7992818079183
20
-0.693370358053841
30
0
41
1
10
24.6863964881235
20
-0.632467160277599
30
0
41
1
10
24.3484655887431
20
-0.447584432773454
30
0
41
1
10
24.1241229518503
20
-0.321471040412519
30
0
41
1
10
23.6752872632726
20
-0.0671334288152536
30
0
41
1
10
23.4508081246497
20
0.0611205978967746
30
0
41
1
10
23.1127986806584
20
0.252980769616215
30
0
41
1
10
22.9998727621119
20
0.316772234524734
30
0
41
1
10
22.7732469787051
20
0.443564546937637
30
0
41
1
10
22.6593441378803
20
0.50667866567079
30
0
41
1
10
22.0927369663453
20
0.816180809059631
30
0
41
1
10
21.6454810133186
20
1.04691949449293
30
0
41
1
10
21.1226305951791
20
1.28155286733772
30
0
41
1
10
21.0492067202795
20
1.31372201761508
30
0
41
1
10
20.975702547949
20
1.34508219102676
30
0
0
SPLINE
5
CA
100
AcDbEntity
8
1
62
256
6
ByLayer
370
13
48
1
60
0
100
AcDbSpline
70
4
71
3
72
10
73
6
40
0
40
0
40
0
40
0
40
0.819297843553781
40
0.819297843553781
40
1
40
1
40
1
40
1
41
1
10
20.9402398089955
20
1.36014651677931
30
0
41
1
10
20.8003852919371
20
1.41929582084373
30
0
41
1
10
20.6602209397416
20
1.47548972565229
30
0
41
1
10
20.4884846832869
20
1.54005326042207
30
0
41
1
10
20.4574086318045
20
1.55156100818422
30
0
41
1
10
20.426309909715
20
1.56289888549597
30
0
0
SPLINE
5
CB
100
AcDbEntity
8
1
62
256
6
ByLayer
370
18
48
1
60
0
100
AcDbSpline
70
4
71
3
72
8
73
4
40
0
40
0
40
0
40
0
40
1
40
1
40
1
40
1
41
1
10
20.4263099095956
20
1.56289888553948
30
0
41
1
10
20.3595462443421
20
1.5872393791237
30
0
41
1
10
20.2926780930157
20
1.61079696044834
30
0
41
1
10
20.225906006728
20
1.63346429172455
30
0
0
SPLINE
5
CC
100
AcDbEntity
8
1
62
256
6
ByLayer
370
18
48
1
60
0
100
AcDbSpline
70
4
71
3
72
10
73
6
40
0
40
0
40
0
40
0
40
0.5
40
0.5
40
1
40
1
40
1
40
1
41
1
10
29.3968952749934
20
-2.06753292506235
30
0
41
1
10
29.3811561778751
20
-2.08634647747496
30
0
41
1
10
29.3650622339577
20
-2.10208672054026
30
0
41
1
10
29.3327525746568
20
-2.12680444791505
30
0
41
1
10
29.3164551047832
20
-2.13589475668513
30
0
41
1
10
29.2999647593097
20
-2.1417858049081
30
0
0
SPLINE
5
CD
100
AcDbEntity
8
1
62
256
6
ByLayer
370
18
48
1
60
0
100
AcDbSpline
70
4
71
3
72
14
73
10
40
0
40
0
40
0
40
0
40
0.25
40
0.25
40
0.5
40
0.5
40
0.75
40
0.75
40
1
40
1
40
1
40
1
41
1
10
29.3101927520329
20
-2.04119777016626
30
0
41
1
10
29.3136992819012
20
-2.04070201559574
30
0
41
1
10
29.3166062518896
20
-2.04169621991085
30
0
41
1
10
29.3208125594985
20
-2.04776019677999
30
0
41
1
10
29.3220709797378
20
-2.05287554430458
30
0
41
1
10
29.3217559470848
20
-2.06869383523417
30
0
41
1
10
29.3200855846145
20
-2.07949674415096
30
0
41
1
10
29.3136047772578
20
-2.10478218045424
30
0
41
1
10
29.3088577044959
20
-2.11901495741537
30
0
41
1
10
29.3036078193189
20
-2.13246103421588
30
0
0
SPLINE
5
CE
100
AcDbEntity
8
1
62
256
6
ByLayer
370
18
48
1
60
0
100
AcDbSpline
70
4
71
3
72
54
73
50
40
0
40
0
40
0
40
0
40
0.062499999999986
40
0.062499999999986
40
0.124999999999972
40
0.124999999999972
40
0.187499999999958
40
0.187499999999958
40
0.218749999999952
40
0.218749999999952
40
0.249999999999946
40
0.249999999999946
40
0.28124999999994
40
0.28124999999994
40
0.312499999999934
40
0.312499999999934
40
0.328124999999931
40
0.328124999999931
40
0.343749999999928
40
0.343749999999928
40
0.359374999999925
40
0.359374999999925
40
0.374999999999922
40
0.374999999999922
40
0.406249999999914
40
0.406249999999914
40
0.437499999999906
40
0.437499999999906
40
0.453124999999903
40
0.453124999999903
40
0.460937499999901
40
0.460937499999901
40
0.468749999999899
40
0.468749999999899
40
0.472656249999898
40
0.472656249999898
40
0.476562499999897
40
0.476562499999897
40
0.484374999999898
40
0.484374999999898
40
0.4999999999999
40
0.4999999999999
40
0.624999999999925
40
0.624999999999925
40
0.74999999999995
40
0.74999999999995
40
0.874999999999975
40
0.874999999999975
40
1
40
1
40
1
40
1
41
1
10
7.44178908965242
20
-0.478134280702534
30
0
41
1
10
7.32340779117845
20
-0.399080909967324
30
0
41
1
10
7.20629515835356
20
-0.317861855270138
30
0
41
1
10
6.97550450090415
20
-0.149768053693805
30
0
41
1
10
6.86179718499037
20
-0.0629369214338169
30
0
41
1
10
6.6397000272473
20
0.119171030208236
30
0
41
1
10
6.53094847453698
20
0.214693886345259
30
0
41
1
10
6.37901135621607
20
0.365370701637119
30
0
41
1
10
6.33012528221525
20
0.416949741962981
30
0
41
1
10
6.23737179408548
20
0.524061709181808
30
0
41
1
10
6.19318745285526
20
0.579975127376855
30
0
41
1
10
6.11448416311316
20
0.695556821855206
30
0
41
1
10
6.07957852991711
20
0.755724139741858
30
0
41
1
10
6.02595379021895
20
0.879730325284726
30
0
41
1
10
6.00759751059337
20
0.942355635088234
30
0
41
1
10
5.99894453273029
20
1.03813278987886
30
0
41
1
10
5.99940133152637
20
1.0699820217703
30
0
41
1
10
6.00739524633229
20
1.13138591930985
30
0
41
1
10
6.01493113191489
20
1.16143930882549
30
0
41
1
10
6.03689362712106
20
1.21917806163296
30
0
41
1
10
6.05105223690342
20
1.24631756308835
30
0
41
1
10
6.08486629945114
20
1.2976945610055
30
0
41
1
10
6.10470247864927
20
1.32208420975172
30
0
41
1
10
6.16958864003135
20
1.38973445899393
30
0
41
1
10
6.22003215529759
20
1.42817853177121
30
0
41
1
10
6.33044699672683
20
1.49671219977665
30
0
41
1
10
6.38978266839217
20
1.52627883911026
30
0
41
1
10
6.48218847270442
20
1.56566579512753
30
0
41
1
10
6.51364668257179
20
1.57798520463717
30
0
41
1
10
6.56146127180355
20
1.59537505247681
30
0
41
1
10
6.57751148693094
20
1.60099277917135
30
0
41
1
10
6.60981986363799
20
1.6119010894237
30
0
41
1
10
6.62597550222341
20
1.61739586432901
30
0
41
1
10
6.65052382491081
20
1.62500161647554
30
0
41
1
10
6.6590222651152
20
1.62695762053534
30
0
41
1
10
6.67710105591141
20
1.62891908101466
30
0
41
1
10
6.68653508702286
20
1.62908915190704
30
0
41
1
10
6.71418408452362
20
1.62850664627752
30
0
41
1
10
6.73250120830045
20
1.62719370207441
30
0
41
1
10
6.78757174108839
20
1.62420307536539
30
0
41
1
10
6.8242633775389
20
1.62202747071567
30
0
41
1
10
7.15429132519768
20
1.60079735295889
30
0
41
1
10
7.44509245514342
20
1.57039251347203
30
0
41
1
10
8.02123324072667
20
1.48370008894977
30
0
41
1
10
8.30438461113806
20
1.42765736081537
30
0
41
1
10
8.85986057434548
20
1.2881989872316
30
0
41
1
10
9.1325450104917
20
1.20463982130491
30
0
41
1
10
9.67037801845979
20
1.00997753175278
30
0
41
1
10
9.93558014707713
20
0.898962274078457
30
0
41
1
10
10.1988278785174
20
0.775959147947702
30
0
0
SPLINE
5
CF
100
AcDbEntity
8
1
62
256
6
ByLayer
370
18
48
1
60
0
100
AcDbSpline
70
4
71
3
72
10
73
6
40
0
40
0
40
0
40
0
40
0.5
40
0.5
40
1
40
1
40
1
40
1
41
1
10
7.51363627017062
20
2.04957507480964
30
0
41
1
10
7.49333262172735
20
2.05349292356237
30
0
41
1
10
7.47584203402982
20
2.05828310416857
30
0
41
1
10
7.44992267915094
20
2.06899940199764
30
0
41
1
10
7.4416604740828
20
2.07485639960555
30
0
41
1
10
7.4416622492397
20
2.08047809333675
30
0
0
SPLINE
5
D0
100
AcDbEntity
8
1
62
256
6
ByLayer
370
18
48
1
60
0
100
AcDbSpline
70
4
71
3
72
12
73
8
40
0
40
0
40
0
40
0
40
0.250000000000072
40
0.250000000000072
40
0.500000000000145
40
0.500000000000145
40
1
40
1
40
1
40
1
41
1
10
29.1010918162174
20
0.52507047445124
30
0
41
1
10
29.1013909280541
20
0.53490705985979
30
0
41
1
10
29.1044988790521
20
0.544636807588603
30
0
41
1
10
29.1157497528142
20
0.561325188394051
30
0
41
1
10
29.1238606106625
20
0.568286803410786
30
0
41
1
10
29.1508588311982
20
0.583603858582876
30
0
41
1
10
29.1718988466451
20
0.587125842115313
30
0
41
1
10
29.1925300644087
20
0.586800749646443
30
0
0
SPLINE
5
D1
100
AcDbEntity
8
SK1
62
256
6
ByLayer
370
18
48
1
60
0
100
AcDbSpline
70
4
71
3
72
8
73
4
40
0
40
0
40
0
40
0
40
1
40
1
40
1
40
1
41
1
10
-35.4
20
-2.64532782536625
30
0
41
1
10
-35.6037666427161
20
-2.27936314008574
30
0
41
1
10
-35.8061169486181
20
-1.91257239299989
30
0
41
1
10
-35.9999999999999
20
-1.54136453869094
30
0
0
SPLINE
5
D2
100
AcDbEntity
8
SK1
62
256
6
ByLayer
370
18
48
1
60
0
100
AcDbSpline
70
4
71
3
72
14
73
10
40
0
40
0
40
0
40
0
40
0.499999999999999
40
0.499999999999999
40
0.750000000000001
40
0.750000000000001
40
0.875000000000001
40
0.875000000000001
40
1
40
1
40
1
40
1
41
1
10
-35.4
20
2.72086426766794
30
0
41
1
10
-35.3787677796885
20
2.75899731398269
30
0
41
1
10
-35.3584290958895
20
2.79688361246494
30
0
41
1
10
-35.3303626450498
20
2.85150811788549
30
0
41
1
10
-35.3215171954455
20
2.86915494961713
30
0
41
1
10
-35.3102812516991
20
2.89285848877108
30
0
41
1
10
-35.3068890218585
20
2.90028028995999
30
0
41
1
10
-35.3017585680987
20
2.91252931822532
30
0
41
1
10
-35.3
20
2.91742864337098
30
0
41
1
10
-35.3
20
2.91931189658556
30
0
0
SPLINE
5
D3
100
AcDbEntity
8
SK1
62
256
6
ByLayer
370
18
48
1
60
0
100
AcDbSpline
70
4
71
3
72
8
73
4
40
0
40
0
40
0
40
0
40
1
40
1
40
1
40
1
41
1
10
-36
20
1.61690098099237
30
0
41
1
10
-35.8060527853315
20
1.98823168211948
30
0
41
1
10
-35.6037422715003
20
2.35494335306649
30
0
41
1
10
-35.4
20
2.72086426766782
30
0
0
SPLINE
5
D4
100
AcDbEntity
8
SK1
62
256
6
ByLayer
370
18
48
1
60
0
100
AcDbSpline
70
4
71
3
72
14
73
10
40
0
40
0
40
0
40
0
40
0.124999999999999
40
0.124999999999999
40
0.249999999999997
40
0.249999999999997
40
0.499999999999999
40
0.499999999999999
40
1
40
1
40
1
40
1
41
1
10
-35.3
20
-2.85384697992418
30
0
41
1
10
-35.3
20
-2.85088772490298
30
0
41
1
10
-35.3017593723636
20
-2.84497577627388
30
0
41
1
10
-35.306935341198
20
-2.83091689604981
30
0
41
1
10
-35.3102739075535
20
-2.82290064339631
30
0
41
1
10
-35.3215583577555
20
-2.79718371644776
30
0
41
1
10
-35.3303095934912
20
-2.77882903997673
30
0
41
1
10
-35.358391202053
20
-2.72203069791291
30
0
41
1
10
-35.378655954467
20
-2.68366170966641
30
0
41
1
10
-35.4
20
-2.64532782536625
30
0
0
SPLINE
5
D5
100
AcDbEntity
8
SK1
62
256
6
ByLayer
370
18
48
1
60
0
100
AcDbSpline
70
4
71
3
72
8
73
4
40
0
40
0
40
0
40
0
40
1
40
1
40
1
40
1
41
1
10
-36
20
-1.61690098099237
30
0
41
1
10
-35.8060527853315
20
-1.98823168211948
30
0
41
1
10
-35.6037422715003
20
-2.35494335306649
30
0
41
1
10
-35.4
20
-2.72086426766782
30
0
0
SPLINE
5
D6
100
AcDbEntity
8
SK1
62
256
6
ByLayer
370
18
48
1
60
0
100
AcDbSpline
70
4
71
3
72
14
73
10
40
0
40
0
40
0
40
0
40
0.5
40
0.5
40
0.749999999999999
40
0.749999999999999
40
0.875
40
0.875
40
1
40
1
40
1
40
1
41
1
10
-35.4
20
-2.72086426766794
30
0
41
1
10
-35.3787677796885
20
-2.75899731398269
30
0
41
1
10
-35.3584290958895
20
-2.79688361246491
30
0
41
1
10
-35.3303626450498
20
-2.85150811788549
30
0
41
1
10
-35.3215171954455
20
-2.8691549496171
30
0
41
1
10
-35.3102812516991
20
-2.89285848877108
30
0
41
1
10
-35.3068890218585
20
-2.90028028995999
30
0
41
1
10
-35.3017585680987
20
-2.91252931822532
30
0
41
1
10
-35.3
20
-2.91742864337098
30
0
41
1
10
-35.3
20
-2.91931189658556
30
0
0
LINE
5
76
100
AcDbEntity
8
81
62
256
6
ByLayer
370
18
48
1
60
0
100
AcDbLine
10
30
20
0
30
0
11
35
21
0
31
0
39
0
210
0
220
0
230
1
0
LINE
5
77
100
AcDbEntity
8
1
62
256
6
ByLayer
370
18
48
1
60
0
100
AcDbLine
10
0
20
-3
30
0
11
0.85
21
-2.132158
31
0
39
0
210
0
220
0
230
1
0
LINE
5
79
100
AcDbEntity
8
1
62
256
6
ByLayer
370
18
48
1
60
0
100
AcDbLine
10
0.85
20
2.132158
30
0
11
0
21
3
31
0
39
0
210
0
220
0
230
1
0
LINE
5
7A
100
AcDbEntity
8
1
62
256
6
ByLayer
370
18
48
1
60
0
100
AcDbLine
10
7.441652
20
2.136278
30
0
11
0.85
21
2.132158
31
0
39
0
210
0
220
0
230
1
0
LINE
5
7B
100
AcDbEntity
8
1
62
256
6
ByLayer
370
18
48
1
60
0
100
AcDbLine
10
17.736675
20
2.142712
30
0
11
17.153692
21
2.142348
31
0
39
0
210
0
220
0
230
1
0
LINE
5
7C
100
AcDbEntity
8
1
62
256
6
ByLayer
370
18
48
1
60
0
100
AcDbLine
10
28.9885
20
2.149745
30
0
11
28.402534
21
2.149379
31
0
39
0
210
0
220
0
230
1
0
LINE
5
7D
100
AcDbEntity
8
1
62
256
6
ByLayer
370
18
48
1
60
0
100
AcDbLine
10
28.402534
20
-2.149379
30
0
11
28.988518
21
-2.149745
31
0
39
0
210
0
220
0
230
1
0
LINE
5
7E
100
AcDbEntity
8
1
62
256
6
ByLayer
370
18
48
1
60
0
100
AcDbLine
10
17.153692
20
-2.142348
30
0
11
17.736615
21
-2.142712
31
0
39
0
210
0
220
0
230
1
0
LINE
5
7F
100
AcDbEntity
8
1
62
256
6
ByLayer
370
18
48
1
60
0
100
AcDbLine
10
0.85
20
-2.132158
30
0
11
7.441652
21
-2.136278
31
0
39
0
210
0
220
0
230
1
0
LINE
5
80
100
AcDbEntity
8
SK1
62
256
6
ByLayer
370
18
48
1
60
0
100
AcDbLine
10
-35.278312
20
3
30
0
11
-35.3
21
2.962436
31
0
39
0
210
0
220
0
230
1
0
LINE
5
82
100
AcDbEntity
8
SK1
62
256
6
ByLayer
370
18
48
1
60
0
100
AcDbLine
10
-35.3
20
-2.962436
30
0
11
-35.278312
21
-3
31
0
39
0
210
0
220
0
230
1
0
LINE
5
83
100
AcDbEntity
8
SK1
62
256
6
ByLayer
370
18
48
1
60
0
100
AcDbLine
10
0
20
3
30
0
11
-35.278312
21
3
31
0
39
0
210
0
220
0
230
1
0
LINE
5
84
100
AcDbEntity
8
SK1
62
256
6
ByLayer
370
18
48
1
60
0
100
AcDbLine
10
-35.278312
20
-3
30
0
11
0
21
-3
31
0
39
0
210
0
220
0
230
1
0
LINE
5
85
100
AcDbEntity
8
SK4
62
256
6
ByLayer
370
18
48
0.05
60
0
100
AcDbLine
10
35
20
0
30
0
11
-41
21
0
31
0
39
0
210
0
220
0
230
1
0
LINE
5
87
100
AcDbEntity
8
4
62
256
6
ByLayer
370
18
48
0.05
60
0
100
AcDbLine
10
30
20
0
30
0
11
0
21
0
31
0
39
0
210
0
220
0
230
1
0
LINE
5
89
100
AcDbEntity
8
80
62
256
6
ByLayer
370
18
48
1
60
0
100
AcDbLine
10
0
20
0
30
0
11
-5
21
0
31
0
39
0
210
0
220
0
230
1
0
LINE
5
8A
100
AcDbEntity
8
1
62
256
6
ByLayer
370
18
48
1
60
0
100
AcDbLine
10
0.85
20
2.132158
30
0
11
0.85
21
-2.132158
31
0
39
0
210
0
220
0
230
1
0
LINE
5
8B
100
AcDbEntity
8
1
62
256
6
ByLayer
370
13
48
1
60
0
100
AcDbLine
10
29.19253
20
0.586801
30
0
11
29.995527
21
0.078485
31
0
39
0
210
0
220
0
230
1
0
LINE
5
8C
100
AcDbEntity
8
1
62
256
6
ByLayer
370
13
48
1
60
0
100
AcDbLine
10
29.101092
20
0.52507
30
0
11
29.977838
21
-0.029931
31
0
39
0
210
0
220
0
230
1
0
LINE
5
8D
100
AcDbEntity
8
1
62
256
6
ByLayer
370
18
48
1
60
0
100
AcDbLine
10
0
20
-3
30
0
11
0
21
3
31
0
39
0
210
0
220
0
230
1
0
LINE
5
8E
100
AcDbEntity
8
SK1
62
256
6
ByLayer
370
18
48
1
60
0
100
AcDbLine
10
0
20
-3
30
0
11
0
21
3
31
0
39
0
210
0
220
0
230
1
0
LINE
5
8F
100
AcDbEntity
8
SK1
62
256
6
ByLayer
370
18
48
1
60
0
100
AcDbLine
10
-36
20
1.616901
30
0
11
-36
21
-1.541365
31
0
39
0
210
0
220
0
230
1
0
LINE
5
90
100
AcDbEntity
8
SK1
62
256
6
ByLayer
370
18
48
1
60
0
100
AcDbLine
10
-35.3
20
-2.962436
30
0
11
-35.3
21
-2.853847
31
0
39
0
210
0
220
0
230
1
0
LINE
5
91
100
AcDbEntity
8
SK1
62
256
6
ByLayer
370
13
48
1
60
0
100
AcDbLine
10
-35.4
20
-2.645318
30
0
11
-35.4
21
-2.720864
31
0
39
0
210
0
220
0
230
1
0
LINE
5
92
100
AcDbEntity
8
SK1
62
256
6
ByLayer
370
18
48
1
60
0
100
AcDbLine
10
-35.3
20
2.962436
30
0
11
-35.3
21
2.919312
31
0
39
0
210
0
220
0
230
1
0
LINE
5
93
100
AcDbEntity
8
SK1
62
256
6
ByLayer
370
18
48
1
60
0
100
AcDbLine
10
-35.278312
20
3
30
0
11
-35.278312
21
-3
31
0
39
0
210
0
220
0
230
1
0
LINE
5
94
100
AcDbEntity
8
SK1
62
256
6
ByLayer
370
18
48
1
60
0
100
AcDbLine
10
-36
20
-1.541349
30
0
11
-36
21
-1.616901
31
0
39
0
210
0
220
0
230
1
0
MTEXT
5
D7
100
AcDbEntity
8
SK6
62
256
6
ByLayer
370
13
48
1
60
0
100
AcDbMText
10
-0.870831
20
34.532694
30
0
210
0
220
0
230
1
1
\W0.7478;460.1-0430-013A1-XM GC34
40
3.5
41
0
44
1.084337
50
0
71
8
72
5
7
iso_b_vert
0
DIMENSION
5
E4
100
AcDbEntity
8
SK2
62
256
6
ByLayer
370
13
48
1
60
0
100
AcDbDimension
2
DimnDraft3D1
10
29.375
20
-12.363398
30
0
11
13.625059
21
-12.363398
31
0
70
32
71
5
72
1
41
1
210
0
220
0
230
1
3
Standard
100
AcDbAlignedDimension
13
0
23
-1.5875
33
0
14
29.375
24
-3.7375
34
0
50
0
100
AcDbRotatedDimension
1001
ACAD
1000
DSTYLE
1002
{
1070
   279
1070
     0
1070
   172
1070
     1
1070
   173
1070
     1
1070
   340
1005
D8
1070
   271
1070
     2
1070
   272
1070
     2
1070
    77
1070
     1
1070
    73
1070
     0
1070
   171
1070
     3
1070
   274
1070
     4
1070
   177
1070
    35
1070
   176
1070
    35
1070
   178
1070
    35
1070
    48
1040
-0.005
1070
    41
1041
3.5
1070
   147
1041
1.75
1070
    42
1041
1.5875
1070
    44
1041
2.0
1070
   140
1041
3.5
1070
   343
1005
0
1070
   344
1005
0
1002
}
0
DIMENSION
5
EE
100
AcDbEntity
8
SK2
62
256
6
ByLayer
370
13
48
1
60
0
100
AcDbDimension
2
DimnDraft3D2
10
30
20
-31.692985
30
0
11
-2.2837
21
-31.692985
31
0
70
32
71
5
72
1
41
1
210
0
220
0
230
1
3
Standard
100
AcDbAlignedDimension
13
-36
23
-4.5875
33
0
14
30
24
-1.5875
34
0
50
0
100
AcDbRotatedDimension
1001
ACAD
1000
DSTYLE
1002
{
1070
   279
1070
     0
1070
   172
1070
     1
1070
   173
1070
     1
1070
   340
1005
D8
1070
   271
1070
     2
1070
   272
1070
     2
1070
    77
1070
     1
1070
    73
1070
     0
1070
   171
1070
     3
1070
   274
1070
     4
1070
   177
1070
    35
1070
   176
1070
    35
1070
   178
1070
    35
1070
    48
1040
-0.005
1070
    41
1041
3.5
1070
   147
1041
1.75
1070
    42
1041
1.5875
1070
    44
1041
2.0
1070
   140
1041
3.5
1070
   343
1005
0
1070
   344
1005
0
1002
}
0
DIMENSION
5
F8
100
AcDbEntity
8
SK2
62
256
6
ByLayer
370
13
48
1
60
0
100
AcDbDimension
2
DimnDraft3D3
10
30
20
13.759119
30
0
11
23.24
21
13.759119
31
0
70
32
71
5
72
1
41
1
210
0
220
0
230
1
3
Standard
100
AcDbAlignedDimension
13
16.48
23
3.7375
33
0
14
30
24
1.5875
34
0
50
0
100
AcDbRotatedDimension
1001
ACAD
1000
DSTYLE
1002
{
1070
   279
1070
     0
1070
   172
1070
     1
1070
   173
1070
     1
1070
   340
1005
D8
1070
   271
1070
     2
1070
   272
1070
     2
1070
    77
1070
     1
1070
    73
1070
     0
1070
   171
1070
     3
1070
   274
1070
     4
1070
   177
1070
    35
1070
   176
1070
    35
1070
   178
1070
    35
1070
    48
1040
-0.005
1070
    41
1041
3.5
1070
   147
1041
1.75
1070
    42
1041
1.5875
1070
    44
1041
2.0
1070
   140
1041
3.5
1070
   343
1005
0
1070
   344
1005
0
1002
}
0
DIMENSION
5
102
100
AcDbEntity
8
SK2
62
256
6
ByLayer
370
13
48
1
60
0
100
AcDbDimension
2
DimnDraft3D4
10
29.375
20
-14.952503
30
0
11
39.981425
21
-14.952503
31
0
70
32
71
5
72
1
41
1
210
0
220
0
230
1
3
Standard
100
AcDbAlignedDimension
13
30
23
-1.5875
33
0
14
29.375
24
-3.7375
34
0
50
0
100
AcDbRotatedDimension
1001
ACAD
1000
DSTYLE
1002
{
1070
   279
1070
     0
1070
   172
1070
     1
1070
   173
1070
     1
1070
   340
1005
D8
1070
   271
1070
     2
1070
   272
1070
     2
1070
    77
1070
     1
1070
    73
1070
     0
1070
   171
1070
     3
1070
   274
1070
     4
1070
   177
1070
    35
1070
   176
1070
    35
1070
   178
1070
    35
1070
    48
1040
-0.005
1070
    41
1041
3.5
1070
   147
1041
1.75
1070
    42
1041
1.5875
1070
    44
1041
2.0
1070
   140
1041
3.5
1070
   343
1005
0
1070
   344
1005
0
1002
}
0
DIMENSION
5
10C
100
AcDbEntity
8
SK2
62
256
6
ByLayer
370
13
48
1
60
0
100
AcDbDimension
2
DimnDraft3D5
10
29.375
20
-21.343428
30
0
11
-5.364324
21
-21.343428
31
0
70
32
71
5
72
1
41
1
210
0
220
0
230
1
3
Standard
100
AcDbAlignedDimension
13
-36
23
-4.5875
33
0
14
29.375
24
-3.7375
34
0
50
0
100
AcDbRotatedDimension
1001
ACAD
1000
DSTYLE
1002
{
1070
   279
1070
     0
1070
   172
1070
     1
1070
   173
1070
     1
1070
   340
1005
D8
1070
   271
1070
     2
1070
   272
1070
     2
1070
    77
1070
     1
1070
    73
1070
     0
1070
   171
1070
     3
1070
   274
1070
     4
1070
   177
1070
    35
1070
   176
1070
    35
1070
   178
1070
    35
1070
    48
1040
-0.005
1070
    41
1041
3.5
1070
   147
1041
1.75
1070
    42
1041
1.5875
1070
    44
1041
2.0
1070
   140
1041
3.5
1070
   343
1005
0
1070
   344
1005
0
1002
}
0
DIMENSION
5
117
100
AcDbEntity
8
SK2
62
256
6
ByLayer
370
13
48
1
60
0
100
AcDbDimension
2
DimnDraft3D6
10
-46.625163
20
3
30
0
11
-47.250163
21
21.47418
31
0
70
33
71
5
72
1
41
1
210
0
220
0
230
1
3
Standard
100
AcDbAlignedDimension
13
-37.5875
23
-3
33
0
14
-37.5875
24
3
34
0
1001
ACAD
1000
DSTYLE
1002
{
1070
   279
1070
     0
1070
    74
1070
     0
1070
   173
1070
     1
1070
   340
1005
D8
1070
   271
1070
     3
1070
   272
1070
     2
1070
    77
1070
     1
1070
    73
1070
     0
1070
   171
1070
     3
1070
   274
1070
     4
1070
   177
1070
    35
1070
   176
1070
    35
1070
   178
1070
    35
1070
    48
1040
-0.005
1070
    41
1041
3.5
1070
   147
1041
1.75
1070
    42
1041
1.5875
1070
    44
1041
2.0
1070
   140
1041
3.5
1070
   343
1005
0
1070
   344
1005
0
1002
}
0
DIMENSION
5
122
100
AcDbEntity
8
2
62
256
6
ByLayer
370
13
48
1
60
0
100
AcDbDimension
2
DimnDraft3D7
10
44.083343
20
2.15
30
0
11
39.458343
21
19.217266
31
0
70
33
71
5
72
1
41
1
210
0
220
0
230
1
3
Standard
100
AcDbAlignedDimension
13
30.9625
23
-2.15
33
0
14
30.9625
24
2.15
34
0
1001
ACAD
1000
DSTYLE
1002
{
1070
   279
1070
     0
1070
    74
1070
     0
1070
   173
1070
     1
1070
   340
1005
D8
1070
   271
1070
     3
1070
   272
1070
     2
1070
    77
1070
     1
1070
    73
1070
     0
1070
   171
1070
     3
1070
   274
1070
     4
1070
   177
1070
    35
1070
   176
1070
    35
1070
   178
1070
    35
1070
    48
1040
-0.005
1070
    41
1041
3.5
1070
   147
1041
1.75
1070
    42
1041
1.5875
1070
    44
1041
2.0
1070
   140
1041
3.5
1070
   343
1005
0
1070
   344
1005
0
1002
}
0
ENDSEC
0
SECTION
2
OBJECTS
0
DICTIONARY
5
18d
330
0
100
AcDbDictionary
280
0
281
1
3
ACAD_GROUP
350
18e
3
ACAD_MLINESTYLE
350
18f
0
DICTIONARY
5
18e
330
0
100
AcDbDictionary
280
0
281
1
0
DICTIONARY
5
18f
330
0
100
AcDbDictionary
280
0
281
1
3
Standard
350
18
0
MLINESTYLE
5
18
330
18f
100
AcDbMlineStyle
2
Standard
70
0
3

62
256
51
90
52
90
71
2
49
-0.5
62
256
6
ByLayer
49
0.5
62
256
6
ByLayer
0
RASTERVARIABLES
5
17b
330

100
AcDbRasterVariables
90
0
70
1
71
1
72
1
0
ENDSEC
0
EOF
