0
SECTION
2
HEADER
9
$ACADVER
1
AC1015
9
$DWGCODEPAGE
3
ANSI_1252
9
$HANDSEED
5
18c
9
$ANGBASE
50
0
9
$ANGDIR
70
0
9
$ATTMODE
70
1
9
$AUNITS
70
0
9
$AUPREC
70
0
9
$CECOLOR
62
256
9
$CELTSCALE
40
1
9
$CELTYPE
6
ByLayer
9
$CELWEIGHT
370
18
9
$CLAYER
8
0
9
$CMLJUST
70
0
9
$CMLSCALE
40
1
9
$CMLSTYLE
2
Standard
9
$DIMSTYLE
2
Standard
9
$TEXTSIZE
40
0.2
9
$TEXTSTYLE
7
Standard
9
$LUNITS
70
2
9
$LUPREC
70
4
9
$EXTNAMES
290
1
9
$INSUNITS
70
4
9
$LTSCALE
40
1
9
$LWDISPLAY
290
1
9
$PDMODE
70
0
9
$PDSIZE
40
0
9
$PLINEGEN
70
0
0
ENDSEC
0
SECTION
2
CLASSES
0
CLASS
1
RASTERVARIABLES
2
AcDbRasterVariables
3
ISM
90
0
280
0
281
0
0
ENDSEC
0
SECTION
2
TABLES
0
TABLE
2
VPORT
5
182
100
AcDbSymbolTable
0
VPORT
5
1
100
AcDbSymbolTableRecord
100
AcDbViewportTableRecord
2
*Active
70
0
10
0
20
0
11
1
21
1
12
-1
22
1
13
0
23
0
14
0.5
24
0.5
15
10
25
10
16
0
26
0
36
1
17
0
27
0
37
0
0
ENDTAB
0
TABLE
2
LTYPE
5
183
100
AcDbSymbolTable
0
LTYPE
5
14
100
AcDbSymbolTableRecord
100
AcDbLinetypeTableRecord
70
0
2
ByBlock
3

72
65
73
0
40
0
0
LTYPE
5
15
100
AcDbSymbolTableRecord
100
AcDbLinetypeTableRecord
70
0
2
ByLayer
3

72
65
73
0
40
0
0
LTYPE
5
16
100
AcDbSymbolTableRecord
100
AcDbLinetypeTableRecord
70
0
2
CONTINUOUS
3
Solid line
72
65
73
0
40
0
0
LTYPE
5
6A
100
AcDbSymbolTableRecord
100
AcDbLinetypeTableRecord
70
0
2
CENTER
3
____ _ ____ _ ____ _ ____
72
65
73
4
40
47.5
49
22
74
0
49
-8.5
74
0
49
8.5
74
0
49
-8.5
74
0
0
LTYPE
5
6B
100
AcDbSymbolTableRecord
100
AcDbLinetypeTableRecord
70
0
2
DASHED
3
__ __ __ __ __ __ __ __ __
72
65
73
2
40
25.72
49
12.86
74
0
49
-12.86
74
0
0
ENDTAB
0
TABLE
2
LAYER
5
184
100
AcDbSymbolTable
0
LAYER
5
10
100
AcDbSymbolTableRecord
100
AcDbLayerTableRecord
2
0
70
0
62
7
6
CONTINUOUS
290
1
370
-3
390
0
0
LAYER
5
6D
100
AcDbSymbolTableRecord
100
AcDbLayerTableRecord
2
81
70
0
62
-3
6
CONTINUOUS
290
1
370
-3
390
0
0
LAYER
5
6F
100
AcDbSymbolTableRecord
100
AcDbLayerTableRecord
2
80
70
0
62
-6
6
CONTINUOUS
290
1
370
-3
390
0
0
LAYER
5
74
100
AcDbSymbolTableRecord
100
AcDbLayerTableRecord
2
2
70
0
62
7
6
CONTINUOUS
290
1
370
-3
390
0
0
LAYER
5
78
100
AcDbSymbolTableRecord
100
AcDbLayerTableRecord
2
1
70
0
62
4
6
CONTINUOUS
290
1
370
-3
390
0
0
LAYER
5
88
100
AcDbSymbolTableRecord
100
AcDbLayerTableRecord
2
4
70
0
62
-2
6
CENTER
290
1
370
-3
390
0
0
LAYER
5
16e
100
AcDbSymbolTableRecord
100
AcDbLayerTableRecord
2
SK2
70
0
62
7
6
CONTINUOUS
290
1
370
-3
390
0
0
LAYER
5
16f
100
AcDbSymbolTableRecord
100
AcDbLayerTableRecord
2
SK1
70
0
62
4
6
CONTINUOUS
290
1
370
-3
390
0
0
LAYER
5
170
100
AcDbSymbolTableRecord
100
AcDbLayerTableRecord
2
SK4
70
0
62
2
6
CENTER
290
1
370
-3
390
0
0
LAYER
5
171
100
AcDbSymbolTableRecord
100
AcDbLayerTableRecord
2
SK6
70
0
62
5
6
CONTINUOUS
290
1
370
-3
390
0
0
ENDTAB
0
TABLE
2
STYLE
5
185
100
AcDbSymbolTable
0
STYLE
5
11
100
AcDbSymbolTableRecord
100
AcDbTextStyleTableRecord
2
Standard
3
txt
70
0
71
0
40
0
41
1
42
0
50
0
0
STYLE
5
CA
100
AcDbSymbolTableRecord
100
AcDbTextStyleTableRecord
2
iso_b_vert
3
simplex.shx
70
0
71
0
40
0
41
1
42
0
50
0
0
STYLE
5
CB
100
AcDbSymbolTableRecord
100
AcDbTextStyleTableRecord
2
DWGDirectTextStyle
3
simplex
70
0
71
0
40
0
41
1
42
0
50
0
0
ENDTAB
0
TABLE
2
DIMSTYLE
5
186
100
AcDbSymbolTable
100
AcDbDimStyleTable
0
DIMSTYLE
105
27
100
AcDbSymbolTableRecord
100
AcDbDimStyleTableRecord
2
Standard
70
0
3
<>
41
0.18
42
0.0625
44
0.18
140
0.18
147
0.09
73
0
74
0
77
1
271
2
275
0
278
52
280
0
340
11
0
ENDTAB
0
TABLE
2
VIEW
5
187
100
AcDbSymbolTable
0
ENDTAB
0
TABLE
2
UCS
5
188
100
AcDbSymbolTable
0
ENDTAB
0
TABLE
2
APPID
5
189
100
AcDbSymbolTable
0
APPID
5
12
100
AcDbSymbolTableRecord
100
AcDbRegAppTableRecord
2
ACAD
70
0
0
ENDTAB
0
TABLE
2
BLOCK_RECORD
5
18a
100
AcDbSymbolTable
0
BLOCK_RECORD
5
1F
100
AcDbSymbolTableRecord
100
AcDbBlockTableRecord
2
*Model_Space
340
0
70
0
0
BLOCK_RECORD
5
1B
100
AcDbSymbolTableRecord
100
AcDbBlockTableRecord
2
*Paper_Space
340
0
70
0
0
BLOCK_RECORD
5
23
100
AcDbSymbolTableRecord
100
AcDbBlockTableRecord
2
*Paper_Space0
340
0
70
0
0
BLOCK_RECORD
5
CD
100
AcDbSymbolTableRecord
100
AcDbBlockTableRecord
2
DimnDraft3D1
340
0
70
0
0
BLOCK_RECORD
5
D7
100
AcDbSymbolTableRecord
100
AcDbBlockTableRecord
2
DimnDraft3D2
340
0
70
0
0
BLOCK_RECORD
5
E1
100
AcDbSymbolTableRecord
100
AcDbBlockTableRecord
2
DimnDraft3D3
340
0
70
0
0
BLOCK_RECORD
5
EB
100
AcDbSymbolTableRecord
100
AcDbBlockTableRecord
2
DimnDraft3D4
340
0
70
0
0
BLOCK_RECORD
5
F5
100
AcDbSymbolTableRecord
100
AcDbBlockTableRecord
2
DimnDraft3D5
340
0
70
0
0
BLOCK_RECORD
5
FF
100
AcDbSymbolTableRecord
100
AcDbBlockTableRecord
2
DimnDraft3D6
340
0
70
0
0
BLOCK_RECORD
5
10A
100
AcDbSymbolTableRecord
100
AcDbBlockTableRecord
2
DimnDraft3D7
340
0
70
0
0
ENDTAB
0
ENDSEC
0
SECTION
2
BLOCKS
0
BLOCK
5
20
100
AcDbEntity
8
0
100
AcDbBlockBegin
2
*Model_Space
70
0
10
0
20
0
30
0
3
*Model_Space
0
ENDBLK
5
21
100
AcDbEntity
8
0
100
AcDbBlockEnd
0
BLOCK
5
1C
100
AcDbEntity
8
0
100
AcDbBlockBegin
2
*Paper_Space
70
0
10
0
20
0
30
0
3
*Paper_Space
0
ENDBLK
5
1D
100
AcDbEntity
8
0
100
AcDbBlockEnd
0
BLOCK
5
24
100
AcDbEntity
8
0
100
AcDbBlockBegin
2
*Paper_Space0
70
0
10
0
20
0
30
0
3
*Paper_Space0
0
ENDBLK
5
25
100
AcDbEntity
8
0
100
AcDbBlockEnd
0
BLOCK
5
D4
100
AcDbEntity
8
0
100
AcDbBlockBegin
2
DimnDraft3D1
70
0
10
0
20
0
30
0
3
DimnDraft3D1
0
MTEXT
5
CE
100
AcDbEntity
8
SK2
62
256
6
ByLayer
370
13
48
1
60
0
100
AcDbMText
10
9.191475
20
-11.438398
30
0
210
0
220
0
230
1
1
\W0.7402;29,39
40
3.5
41
0
44
1.084337
50
0
71
7
72
5
7
iso_b_vert
0
LINE
5
CF
100
AcDbEntity
8
SK2
62
256
6
ByLayer
370
13
48
1
60
0
100
AcDbLine
10
0
20
-1.5875
30
0
11
0
21
-14.313398
31
0
39
0
210
0
220
0
230
1
0
LINE
5
D0
100
AcDbEntity
8
SK2
62
256
6
ByLayer
370
13
48
1
60
0
100
AcDbLine
10
29.3901
20
-3.6875
30
0
11
29.3901
21
-14.313398
31
0
39
0
210
0
220
0
230
1
0
LINE
5
D1
100
AcDbEntity
8
SK2
62
256
6
ByLayer
370
13
48
1
60
0
100
AcDbLine
10
0
20
-12.313398
30
0
11
29.3901
21
-12.313398
31
0
39
0
210
0
220
0
230
1
0
SOLID
5
D2
100
AcDbEntity
8
SK2
62
256
6
ByLayer
370
13
48
1
60
0
100
AcDbTrace
10
0
20
-12.313398
30
0
11
3.499998
21
-11.852615
31
0
12
3.500002
22
-12.774182
32
0
13
0
23
-12.313398
33
0
39
0
210
0
220
0
230
1
0
SOLID
5
D3
100
AcDbEntity
8
SK2
62
256
6
ByLayer
370
13
48
1
60
0
100
AcDbTrace
10
29.3901
20
-12.313398
30
0
11
25.890102
21
-12.774182
31
0
12
25.890098
22
-11.852615
32
0
13
29.3901
23
-12.313398
33
0
39
0
210
0
220
0
230
1
0
ENDBLK
5
D5
100
AcDbEntity
8
0
100
AcDbBlockEnd
0
BLOCK
5
DE
100
AcDbEntity
8
0
100
AcDbBlockBegin
2
DimnDraft3D2
70
0
10
0
20
0
30
0
3
DimnDraft3D2
0
MTEXT
5
D8
100
AcDbEntity
8
SK2
62
256
6
ByLayer
370
13
48
1
60
0
100
AcDbMText
10
-6.717284
20
-30.817985
30
0
210
0
220
0
230
1
1
\W0.7317;66,00
40
3.5
41
0
44
1.084337
50
0
71
7
72
5
7
iso_b_vert
0
LINE
5
D9
100
AcDbEntity
8
SK2
62
256
6
ByLayer
370
13
48
1
60
0
100
AcDbLine
10
-36
20
-4.5875
30
0
11
-36
21
-33.692985
31
0
39
0
210
0
220
0
230
1
0
LINE
5
DA
100
AcDbEntity
8
SK2
62
256
6
ByLayer
370
13
48
1
60
0
100
AcDbLine
10
30
20
-1.5875
30
0
11
30
21
-33.692985
31
0
39
0
210
0
220
0
230
1
0
LINE
5
DB
100
AcDbEntity
8
SK2
62
256
6
ByLayer
370
13
48
1
60
0
100
AcDbLine
10
-36
20
-31.692985
30
0
11
30
21
-31.692985
31
0
39
0
210
0
220
0
230
1
0
SOLID
5
DC
100
AcDbEntity
8
SK2
62
256
6
ByLayer
370
13
48
1
60
0
100
AcDbTrace
10
-36
20
-31.692985
30
0
11
-32.500002
21
-31.232202
31
0
12
-32.499998
22
-32.153769
32
0
13
-36
23
-31.692985
33
0
39
0
210
0
220
0
230
1
0
SOLID
5
DD
100
AcDbEntity
8
SK2
62
256
6
ByLayer
370
13
48
1
60
0
100
AcDbTrace
10
30
20
-31.692985
30
0
11
26.500002
21
-32.153769
31
0
12
26.499998
22
-31.232202
32
0
13
30
23
-31.692985
33
0
39
0
210
0
220
0
230
1
0
ENDBLK
5
DF
100
AcDbEntity
8
0
100
AcDbBlockEnd
0
BLOCK
5
E8
100
AcDbEntity
8
0
100
AcDbBlockBegin
2
DimnDraft3D3
70
0
10
0
20
0
30
0
3
DimnDraft3D3
0
MTEXT
5
E2
100
AcDbEntity
8
SK2
62
256
6
ByLayer
370
13
48
1
60
0
100
AcDbMText
10
19.388816
20
14.584119
30
0
210
0
220
0
230
1
1
\W0.6713;13,20
40
3.5
41
0
44
1.084337
50
0
71
7
72
5
7
iso_b_vert
0
LINE
5
E3
100
AcDbEntity
8
SK2
62
256
6
ByLayer
370
13
48
1
60
0
100
AcDbLine
10
16.8
20
3.6875
30
0
11
16.8
21
15.709119
31
0
39
0
210
0
220
0
230
1
0
LINE
5
E4
100
AcDbEntity
8
SK2
62
256
6
ByLayer
370
13
48
1
60
0
100
AcDbLine
10
30
20
1.5875
30
0
11
30
21
15.709119
31
0
39
0
210
0
220
0
230
1
0
LINE
5
E5
100
AcDbEntity
8
SK2
62
256
6
ByLayer
370
13
48
1
60
0
100
AcDbLine
10
16.8
20
13.709119
30
0
11
30
21
13.709119
31
0
39
0
210
0
220
0
230
1
0
SOLID
5
E6
100
AcDbEntity
8
SK2
62
256
6
ByLayer
370
13
48
1
60
0
100
AcDbTrace
10
16.8
20
13.709119
30
0
11
20.299998
21
14.169903
31
0
12
20.300002
22
13.248335
32
0
13
16.8
23
13.709119
33
0
39
0
210
0
220
0
230
1
0
SOLID
5
E7
100
AcDbEntity
8
SK2
62
256
6
ByLayer
370
13
48
1
60
0
100
AcDbTrace
10
30
20
13.709119
30
0
11
26.500002
21
13.248335
31
0
12
26.499998
22
14.169903
32
0
13
30
23
13.709119
33
0
39
0
210
0
220
0
230
1
0
ENDBLK
5
E9
100
AcDbEntity
8
0
100
AcDbBlockEnd
0
BLOCK
5
F2
100
AcDbEntity
8
0
100
AcDbBlockBegin
2
DimnDraft3D4
70
0
10
0
20
0
30
0
3
DimnDraft3D4
0
MTEXT
5
EC
100
AcDbEntity
8
SK2
62
256
6
ByLayer
370
13
48
1
60
0
100
AcDbMText
10
37.278136
20
-14.027503
30
0
210
0
220
0
230
1
1
\W0.6993;0,61
40
3.5
41
0
44
1.084337
50
0
71
7
72
5
7
iso_b_vert
0
LINE
5
ED
100
AcDbEntity
8
SK2
62
256
6
ByLayer
370
13
48
1
60
0
100
AcDbLine
10
30
20
-1.5875
30
0
11
30
21
-16.902503
31
0
39
0
210
0
220
0
230
1
0
LINE
5
EE
100
AcDbEntity
8
SK2
62
256
6
ByLayer
370
13
48
1
60
0
100
AcDbLine
10
29.3901
20
-3.6875
30
0
11
29.3901
21
-16.902503
31
0
39
0
210
0
220
0
230
1
0
LINE
5
EF
100
AcDbEntity
8
SK2
62
256
6
ByLayer
370
13
48
1
60
0
100
AcDbLine
10
20.6401
20
-14.902503
30
0
11
43.559715
21
-14.902503
31
0
39
0
210
0
220
0
230
1
0
SOLID
5
F0
100
AcDbEntity
8
SK2
62
256
6
ByLayer
370
13
48
1
60
0
100
AcDbTrace
10
30
20
-14.902503
30
0
11
33.499998
21
-14.441719
31
0
12
33.500002
22
-15.363287
32
0
13
30
23
-14.902503
33
0
39
0
210
0
220
0
230
1
0
SOLID
5
F1
100
AcDbEntity
8
SK2
62
256
6
ByLayer
370
13
48
1
60
0
100
AcDbTrace
10
29.3901
20
-14.902503
30
0
11
25.890102
21
-15.363287
31
0
12
25.890098
22
-14.441719
32
0
13
29.3901
23
-14.902503
33
0
39
0
210
0
220
0
230
1
0
ENDBLK
5
F3
100
AcDbEntity
8
0
100
AcDbBlockEnd
0
BLOCK
5
FC
100
AcDbEntity
8
0
100
AcDbBlockBegin
2
DimnDraft3D5
70
0
10
0
20
0
30
0
3
DimnDraft3D5
0
MTEXT
5
F6
100
AcDbEntity
8
SK2
62
256
6
ByLayer
370
13
48
1
60
0
100
AcDbMText
10
-9.797908
20
-20.468428
30
0
210
0
220
0
230
1
1
\W0.7402;65,39
40
3.5
41
0
44
1.084337
50
0
71
7
72
5
7
iso_b_vert
0
LINE
5
F7
100
AcDbEntity
8
SK2
62
256
6
ByLayer
370
13
48
1
60
0
100
AcDbLine
10
-36
20
-4.5875
30
0
11
-36
21
-23.343428
31
0
39
0
210
0
220
0
230
1
0
LINE
5
F8
100
AcDbEntity
8
SK2
62
256
6
ByLayer
370
13
48
1
60
0
100
AcDbLine
10
29.3901
20
-3.6875
30
0
11
29.3901
21
-23.343428
31
0
39
0
210
0
220
0
230
1
0
LINE
5
F9
100
AcDbEntity
8
SK2
62
256
6
ByLayer
370
13
48
1
60
0
100
AcDbLine
10
-36
20
-21.343428
30
0
11
29.3901
21
-21.343428
31
0
39
0
210
0
220
0
230
1
0
SOLID
5
FA
100
AcDbEntity
8
SK2
62
256
6
ByLayer
370
13
48
1
60
0
100
AcDbTrace
10
-36
20
-21.343428
30
0
11
-32.500002
21
-20.882645
31
0
12
-32.499998
22
-21.804212
32
0
13
-36
23
-21.343428
33
0
39
0
210
0
220
0
230
1
0
SOLID
5
FB
100
AcDbEntity
8
SK2
62
256
6
ByLayer
370
13
48
1
60
0
100
AcDbTrace
10
29.3901
20
-21.343428
30
0
11
25.890102
21
-21.804212
31
0
12
25.890098
22
-20.882645
32
0
13
29.3901
23
-21.343428
33
0
39
0
210
0
220
0
230
1
0
ENDBLK
5
FD
100
AcDbEntity
8
0
100
AcDbBlockEnd
0
BLOCK
5
107
100
AcDbEntity
8
0
100
AcDbBlockBegin
2
DimnDraft3D6
70
0
10
0
20
0
30
0
3
DimnDraft3D6
0
MTEXT
5
100
100
AcDbEntity
8
SK2
62
256
6
ByLayer
370
13
48
1
60
0
100
AcDbMText
10
-46.375163
20
22.34918
30
0
210
0
220
0
230
1
1
\W0.7317;6,000
40
3.5
41
0
44
1.084337
50
90
71
7
72
5
7
iso_b_vert
0
MTEXT
5
101
100
AcDbEntity
8
SK2
62
256
6
ByLayer
370
13
48
1
60
0
100
AcDbMText
10
-46.375163
20
17.126524
30
0
210
0
220
0
230
1
1
%%c
40
3.5
41
0
44
1.084337
50
90
71
7
72
5
7
iso_b_vert
0
LINE
5
102
100
AcDbEntity
8
SK2
62
256
6
ByLayer
370
13
48
1
60
0
100
AcDbLine
10
-37.5875
20
-3
30
0
11
-46.625163
21
-3
31
0
39
0
210
0
220
0
230
1
0
LINE
5
103
100
AcDbEntity
8
SK2
62
256
6
ByLayer
370
13
48
1
60
0
100
AcDbLine
10
-37.5875
20
3
30
0
11
-46.625163
21
3
31
0
39
0
210
0
220
0
230
1
0
LINE
5
104
100
AcDbEntity
8
SK2
62
256
6
ByLayer
370
13
48
1
60
0
100
AcDbLine
10
-44.625163
20
32.121549
30
0
11
-44.625163
21
-11.75
31
0
39
0
210
0
220
0
230
1
0
SOLID
5
105
100
AcDbEntity
8
SK2
62
256
6
ByLayer
370
13
48
1
60
0
100
AcDbTrace
10
-44.625163
20
-3
30
0
11
-44.164379
21
-6.499998
31
0
12
-45.085946
22
-6.500002
32
0
13
-44.625163
23
-3
33
0
39
0
210
0
220
0
230
1
0
SOLID
5
106
100
AcDbEntity
8
SK2
62
256
6
ByLayer
370
13
48
1
60
0
100
AcDbTrace
10
-44.625163
20
3
30
0
11
-45.085946
21
6.499998
31
0
12
-44.164379
22
6.500002
32
0
13
-44.625163
23
3
33
0
39
0
210
0
220
0
230
1
0
ENDBLK
5
108
100
AcDbEntity
8
0
100
AcDbBlockEnd
0
BLOCK
5
112
100
AcDbEntity
8
0
100
AcDbBlockBegin
2
DimnDraft3D7
70
0
10
0
20
0
30
0
3
DimnDraft3D7
0
MTEXT
5
10B
100
AcDbEntity
8
2
62
256
6
ByLayer
370
13
48
1
60
0
100
AcDbMText
10
40.333343
20
20.042266
30
0
210
0
220
0
230
1
1
\W0.7581;4,200
40
3.5
41
0
44
1.084337
50
90
71
7
72
5
7
iso_b_vert
0
MTEXT
5
10C
100
AcDbEntity
8
2
62
256
6
ByLayer
370
13
48
1
60
0
100
AcDbMText
10
40.333343
20
14.81961
30
0
210
0
220
0
230
1
1
%%c
40
3.5
41
0
44
1.084337
50
90
71
7
72
5
7
iso_b_vert
0
LINE
5
10D
100
AcDbEntity
8
2
62
256
6
ByLayer
370
13
48
1
60
0
100
AcDbLine
10
30.9776
20
-2.1
30
0
11
44.083343
21
-2.1
31
0
39
0
210
0
220
0
230
1
0
LINE
5
10E
100
AcDbEntity
8
2
62
256
6
ByLayer
370
13
48
1
60
0
100
AcDbLine
10
30.9776
20
2.1
30
0
11
44.083343
21
2.1
31
0
39
0
210
0
220
0
230
1
0
LINE
5
10F
100
AcDbEntity
8
2
62
256
6
ByLayer
370
13
48
1
60
0
100
AcDbLine
10
42.083343
20
30.183056
30
0
11
42.083343
21
-10.85
31
0
39
0
210
0
220
0
230
1
0
SOLID
5
110
100
AcDbEntity
8
2
62
256
6
ByLayer
370
13
48
1
60
0
100
AcDbTrace
10
42.083343
20
-2.1
30
0
11
42.544126
21
-5.599998
31
0
12
41.622559
22
-5.600002
32
0
13
42.083343
23
-2.1
33
0
39
0
210
0
220
0
230
1
0
SOLID
5
111
100
AcDbEntity
8
2
62
256
6
ByLayer
370
13
48
1
60
0
100
AcDbTrace
10
42.083343
20
2.1
30
0
11
41.622559
21
5.599998
31
0
12
42.544126
22
5.600002
32
0
13
42.083343
23
2.1
33
0
39
0
210
0
220
0
230
1
0
ENDBLK
5
113
100
AcDbEntity
8
0
100
AcDbBlockEnd
0
ENDSEC
0
SECTION
2
ENTITIES
0
ARC
5
91
100
AcDbEntity
8
1
62
256
6
ByLayer
370
18
48
1
60
0
100
AcDbCircle
39
0
10
7.661649
20
-2.231614
30
3.3881317890172E-21
40
0.25
210
0
220
-4.77427220072572E-06
230
0.999999999988603
100
AcDbArc
50
89.965668
51
142.087883
0
ARC
5
92
100
AcDbEntity
8
1
62
256
6
ByLayer
370
18
48
1
60
0
100
AcDbCircle
39
0
10
7.661649
20
2.231614
30
-3.3881317890172E-21
40
0.25
210
0
220
-4.77427220072572E-06
230
0.999999999988603
100
AcDbArc
50
217.794889
51
248.372959
0
POINT
5
6C
100
AcDbEntity
8
81
62
256
6
ByLayer
370
18
48
1
60
0
100
AcDbPoint
10
30
20
0
30
0
39
0
210
0
220
0
230
1
50
360
0
POINT
5
6E
100
AcDbEntity
8
80
62
256
6
ByLayer
370
18
48
1
60
0
100
AcDbPoint
10
0
20
0
30
0
39
0
210
0
220
0
230
1
50
360
0
POINT
5
70
100
AcDbEntity
8
SK2
62
256
6
ByLayer
370
18
48
1
60
1
100
AcDbPoint
10
-36
20
-3
30
0
39
0
210
0
220
0
230
1
50
360
0
POINT
5
72
100
AcDbEntity
8
SK2
62
256
6
ByLayer
370
18
48
1
60
1
100
AcDbPoint
10
-36
20
3
30
0
39
0
210
0
220
0
230
1
50
360
0
POINT
5
73
100
AcDbEntity
8
2
62
256
6
ByLayer
370
18
48
1
60
1
100
AcDbPoint
10
29.3901
20
-2.1
30
0
39
0
210
0
220
0
230
1
50
360
0
POINT
5
75
100
AcDbEntity
8
2
62
256
6
ByLayer
370
18
48
1
60
1
100
AcDbPoint
10
29.3901
20
2.1
30
0
39
0
210
0
220
0
230
1
50
360
0
SPLINE
5
93
100
AcDbEntity
8
1
62
256
6
ByLayer
370
18
48
1
60
0
100
AcDbSpline
70
4
71
3
72
18
73
14
40
0
40
0
40
0
40
0
40
0.102384940027722
40
0.201588582902611
40
0.276691257331784
40
0.35204550127771
40
0.428772151654419
40
0.506327281397952
40
0.599130721973028
40
0.683351854575808
40
0.768879202533074
40
0.89182097460864
40
1
40
1
40
1
40
1
41
1
10
7.66188317345933
20
-1.98143144118001
30
0
41
1
10
7.81230729699769
20
-1.98155164892714
30
0
41
1
10
8.10847999328971
20
-1.98180398946005
30
0
41
1
10
8.51490771639638
20
-1.98164341808746
30
0
41
1
10
8.88175564755682
20
-1.98240232442586
30
0
41
1
10
9.2155548263602
20
-1.9822800058063
30
0
41
1
10
9.55296328385651
20
-1.98190295606417
30
0
41
1
10
9.91600370384307
20
-1.98187686354348
30
0
41
1
10
10.2900599633222
20
-1.98323380675089
30
0
41
1
10
10.6758264888342
20
-1.98298226735665
30
0
41
1
10
11.1058717894265
20
-1.98249369294931
30
0
41
1
10
11.5711236004289
20
-1.98413943835595
30
0
41
1
10
11.9107044691182
20
-1.98377566064664
30
0
41
1
10
12.0696491745132
20
-1.98351542534985
30
0
0
SPLINE
5
94
100
AcDbEntity
8
1
62
256
6
ByLayer
370
18
48
1
60
0
100
AcDbSpline
70
4
71
3
72
18
73
14
40
0
40
0
40
0
40
0
40
0.127081733816829
40
0.217526982822337
40
0.280785602861999
40
0.346284525983774
40
0.414639723442217
40
0.483041166087011
40
0.685047412478862
40
0.731439147776502
40
0.799186405548277
40
0.903612175469679
40
1
40
1
40
1
40
1
41
1
10
17.9257874770727
20
-1.9879652522514
30
0
41
1
10
18.1542692761477
20
-1.98776651094275
30
0
41
1
10
18.5454051499526
20
-1.98755380143615
30
0
41
1
10
19.0504684991835
20
-1.98897210834497
30
0
41
1
10
19.4446903471564
20
-1.98836247219268
30
0
41
1
10
19.7992272908712
20
-1.98774714278835
30
0
41
1
10
20.1630124282229
20
-1.98855930778708
30
0
41
1
10
20.7723273439472
20
-1.9898690142131
30
0
41
1
10
21.3421360199969
20
-1.98858381736144
30
0
41
1
10
21.9107767826993
20
-1.9880376591812
30
0
41
1
10
22.3038806271167
20
-1.99228419434388
30
0
41
1
10
22.7869172461433
20
-1.98864241085678
30
0
41
1
10
23.1480883980219
20
-1.98992241760814
30
0
41
1
10
23.3214442796607
20
-1.99053454415124
30
0
0
SPLINE
5
95
100
AcDbEntity
8
1
62
256
6
ByLayer
370
18
48
1
60
0
100
AcDbSpline
70
4
71
3
72
17
73
13
40
0
40
0
40
0
40
0
40
0.0959321725302263
40
0.205190535163675
40
0.276209496602313
40
0.334864075255487
40
0.394104322552364
40
0.627001985177015
40
0.730141555173329
40
0.826055554628393
40
0.9086994166399
40
1
40
1
40
1
40
1
41
1
10
23.3225827381974
20
1.99041155880741
30
0
41
1
10
23.1756652751317
20
1.98973170373958
30
0
41
1
10
22.8614176916784
20
1.98857625889443
30
0
41
1
10
22.4383902110535
20
1.99165429682327
30
0
41
1
10
22.0724514335971
20
1.98958476000095
30
0
41
1
10
21.7831150737836
20
1.98800803263327
30
0
41
1
10
21.2458493804926
20
1.98895487999207
30
0
41
1
10
20.6404436058437
20
1.98976772968817
30
0
41
1
10
19.9788760230661
20
1.98797005798048
30
0
41
1
10
19.5474296886428
20
1.98804598818032
30
0
41
1
10
19.1341194126667
20
1.98900945219793
30
0
41
1
10
18.8677119362565
20
1.9884094617743
30
0
41
1
10
18.7278847498682
20
1.98816357131821
30
0
0
SPLINE
5
96
100
AcDbEntity
8
1
62
256
6
ByLayer
370
18
48
1
60
0
100
AcDbSpline
70
4
71
3
72
18
73
14
40
0
40
0
40
0
40
0
40
0.0862438210050981
40
0.193069354704322
40
0.26575728821573
40
0.332817903666883
40
0.403620186113116
40
0.47570925449141
40
0.562231906589215
40
0.645220439642439
40
0.726132384613309
40
0.849619329562786
40
1
40
1
40
1
40
1
41
1
10
12.0617128310797
20
1.98355035977545
30
0
41
1
10
11.9352684532434
20
1.98378137713689
30
0
41
1
10
11.6521881715787
20
1.98408996577172
30
0
41
1
10
11.2622679971498
20
1.98275564885947
30
0
41
1
10
10.9007849200704
20
1.98270374660706
30
0
41
1
10
10.5920627866728
20
1.98306268903894
30
0
41
1
10
10.2840912805022
20
1.98313708201545
30
0
41
1
10
9.9475957584263
20
1.98200526908718
30
0
41
1
10
9.59321598889571
20
1.98183322126963
30
0
41
1
10
9.22590711573312
20
1.98230255177251
30
0
41
1
10
8.80434030981164
20
1.98234448176703
30
0
41
1
10
8.28419484446329
20
1.98143526160342
30
0
41
1
10
7.88246083153939
20
1.98138268318254
30
0
41
1
10
7.6618511977664
20
1.98139560603059
30
0
0
SPLINE
5
97
100
AcDbEntity
8
1
62
256
6
ByLayer
370
18
48
1
60
0
100
AcDbSpline
70
4
71
2
72
6
73
3
40
0
40
0
40
0
40
1
40
1
40
1
41
1
10
28.9762516199415
20
-1.99176951323216
30
0
41
1
10
29.1312267326946
20
-1.99238343246637
30
0
41
1
10
29.2864311586291
20
-1.99306153837696
30
0
0
SPLINE
5
98
100
AcDbEntity
8
1
62
256
6
ByLayer
370
18
48
1
60
0
100
AcDbSpline
70
4
71
1
72
4
73
2
40
0
40
0
40
1
40
1
41
1
10
22.6904834600055
20
0.0658534421923207
30
0
41
1
10
22.6198023021629
20
0.104278908769089
30
0
0
SPLINE
5
99
100
AcDbEntity
8
1
62
256
6
ByLayer
370
18
48
1
60
0
100
AcDbSpline
70
4
71
3
72
14
73
10
40
0
40
0
40
0
40
0
40
0.25
40
0.25
40
0.5
40
0.5
40
0.75
40
0.75
40
1
40
1
40
1
40
1
41
1
10
29.3260427400271
20
-1.99381689050884
30
0
41
1
10
29.3295553915305
20
-1.99334211331862
30
0
41
1
10
29.332462739352
20
-1.99437026131144
30
0
41
1
10
29.3366605843337
20
-2.00051998553451
30
0
41
1
10
29.3379089570082
20
-2.00568945062423
30
0
41
1
10
29.3375749627014
20
-2.02158853372407
30
0
41
1
10
29.3358984659157
20
-2.03240233299488
30
0
41
1
10
29.329456923881
20
-2.05759652042369
30
0
41
1
10
29.3247488756771
20
-2.07175676828493
30
0
41
1
10
29.3195312059131
20
-2.08515775387809
30
0
0
SPLINE
5
9A
100
AcDbEntity
8
1
62
256
6
ByLayer
370
18
48
1
60
0
100
AcDbSpline
70
4
71
3
72
10
73
6
40
0
40
0
40
0
40
0
40
0.5
40
0.5
40
1
40
1
40
1
40
1
41
1
10
29.9997718559967
20
0.0304110768142039
30
0
41
1
10
29.9979291344384
20
0.0201098353723808
30
0
41
1
10
29.995061430941
20
0.0090420475841597
30
0
41
1
10
29.9874994652906
20
-0.0119014292573922
30
0
41
1
10
29.9827762808856
20
-0.0217745057909156
30
0
41
1
10
29.9778128948154
20
-0.0295861582505381
30
0
0
SPLINE
5
9B
100
AcDbEntity
8
1
62
256
6
ByLayer
370
18
48
1
60
0
100
AcDbSpline
70
4
71
3
72
10
73
6
40
0
40
0
40
0
40
0
40
0.5
40
0.5
40
1
40
1
40
1
40
1
41
1
10
29.9778128948154
20
-0.0295861582505665
30
0
41
1
10
29.8163713136923
20
-0.283671878451798
30
0
41
1
10
29.6466482476412
20
-0.529080196220292
30
0
41
1
10
29.298395935914
20
-1.01066965025999
30
0
41
1
10
29.1196821733156
20
-1.24674182325879
30
0
41
1
10
28.9383328252308
20
-1.47969068845504
30
0
0
SPLINE
5
9C
100
AcDbEntity
8
1
62
256
6
ByLayer
370
18
48
1
60
0
100
AcDbSpline
70
4
71
3
72
30
73
26
40
0
40
0
40
0
40
0
40
0.249999999999994
40
0.249999999999994
40
0.374999999999991
40
0.374999999999991
40
0.499999999999988
40
0.499999999999988
40
0.624999999999985
40
0.624999999999985
40
0.749999999999982
40
0.749999999999982
40
0.812499999999981
40
0.812499999999981
40
0.843749999999986
40
0.843749999999986
40
0.851562499999987
40
0.851562499999987
40
0.859374999999988
40
0.859374999999988
40
0.86718749999999
40
0.86718749999999
40
0.874999999999991
40
0.874999999999991
40
1
40
1
40
1
40
1
41
1
10
27.3161427714011
20
0.878463071361011
30
0
41
1
10
27.4660319528543
20
0.731237879701922
30
0
41
1
10
27.6255942742505
20
0.601593984753805
30
0
41
1
10
27.880397677821
20
0.435227132752828
30
0
41
1
10
27.9663718614245
20
0.385470824515949
30
0
41
1
10
28.1396451288783
20
0.297876314379437
30
0
41
1
10
28.2270753388348
20
0.260010968596362
30
0
41
1
10
28.4038359036258
20
0.198483685113757
30
0
41
1
10
28.4930874535186
20
0.174232687727226
30
0
41
1
10
28.6736580404714
20
0.141184969261019
30
0
41
1
10
28.7632898352347
20
0.132671848611977
30
0
41
1
10
28.8954475835171
20
0.134894639619119
30
0
41
1
10
28.9392834204426
20
0.138157394692456
30
0
41
1
10
29.0039411556446
20
0.147207386177314
30
0
41
1
10
29.0253142199331
20
0.150908782434755
30
0
41
1
10
29.0518211812889
20
0.156323945096204
30
0
41
1
10
29.0570610710549
20
0.157574986411078
30
0
41
1
10
29.0666958807499
20
0.162385305978091
30
0
41
1
10
29.0708024138975
20
0.166271992522695
30
0
41
1
10
29.0760909044823
20
0.17670139517503
30
0
41
1
10
29.0774532566012
20
0.182955447358609
30
0
41
1
10
29.0803958423487
20
0.195107087200682
30
0
41
1
10
29.0818220634223
20
0.201207413336334
30
0
41
1
10
29.1053179631766
20
0.305320666970744
30
0
41
1
10
29.1160800665613
20
0.409106313463269
30
0
41
1
10
29.118919804746
20
0.51411374076369
30
0
0
SPLINE
5
9D
100
AcDbEntity
8
1
62
256
6
ByLayer
370
18
48
1
60
0
100
AcDbSpline
70
4
71
3
72
8
73
4
40
0
40
0
40
0
40
0
40
1
40
1
40
1
40
1
41
1
10
29.8936525925325
20
0.70130902618601
30
0
41
1
10
29.885637433488
20
0.656949670614409
30
0
41
1
10
29.8764194087545
20
0.612820950792411
30
0
41
1
10
29.8660928135819
20
0.568905905435656
30
0
0
SPLINE
5
9E
100
AcDbEntity
8
1
62
256
6
ByLayer
370
18
48
1
60
0
100
AcDbSpline
70
4
71
3
72
41
73
37
40
0
40
0
40
0
40
0
40
0.0055063854962236
40
0.0055063854962236
40
0.153411286176399
40
0.153411286176399
40
0.227363736516487
40
0.227363736516487
40
0.301316186856575
40
0.301316186856575
40
0.449221087536751
40
0.449221087536751
40
0.523173537876838
40
0.523173537876838
40
0.560149763046882
40
0.560149763046882
40
0.578637875631904
40
0.578637875631904
40
0.587881931924415
40
0.587881931924415
40
0.597125988216926
40
0.597125988216926
40
0.606370044509437
40
0.606370044509437
40
0.615614100801948
40
0.63410221338697
40
0.63410221338697
40
0.671078438557014
40
0.671078438557014
40
0.745030888897101
40
0.745030888897101
40
0.892935789577276
40
0.892935789577276
40
0.966888239917364
40
0.966888239917364
40
1
40
1
40
1
40
1
41
1
10
10.2068837084013
20
0.764125573315681
30
0
41
1
10
10.2068837084013
20
0.762135871206084
30
0
41
1
10
10.2068837084013
20
0.760124896795929
30
0
41
1
10
10.2068837084013
20
0.703508970278591
30
0
41
1
10
10.2068837084013
20
0.633776502325645
30
0
41
1
10
10.2068837084013
20
0.507939370821703
30
0
41
1
10
10.2068837084013
20
0.462617815856106
30
0
41
1
10
10.2068837084013
20
0.36697179892812
30
0
41
1
10
10.2068837084013
20
0.31646043607654
30
0
41
1
10
10.2068837084013
20
0.157294265846076
30
0
41
1
10
10.2068837084013
20
0.0410677724418065
30
0
41
1
10
10.2068837084013
20
-0.147986785228852
30
0
41
1
10
10.2068837084013
20
-0.213318688300006
30
0
41
1
10
10.2068837084013
20
-0.313831794301592
30
0
41
1
10
10.2068837084013
20
-0.347797667186313
30
0
41
1
10
10.2068837084013
20
-0.399433991481942
30
0
41
1
10
10.2068837084013
20
-0.416765774125452
30
0
41
1
10
10.2068837084013
20
-0.442898592970693
30
0
41
1
10
10.2068837084013
20
-0.45163322580629
30
0
41
1
10
10.2068837084013
20
-0.46914971944625
30
0
41
1
10
10.2068837084013
20
-0.477958214406613
30
0
41
1
10
10.2068837084013
20
-0.499184814172253
30
0
41
1
10
10.2068837084013
20
-0.509357082396264
30
0
41
1
10
10.2068837084013
20
-0.529832966646637
30
0
41
1
10
10.2068837084013
20
-0.560523936179351
30
0
41
1
10
10.2068837084013
20
-0.59114600861804
30
0
41
1
10
10.2068837084013
20
-0.652297242689883
30
0
41
1
10
10.2068837084013
20
-0.692910178875991
30
0
41
1
10
10.2068837084013
20
-0.814000411145031
30
0
41
1
10
10.2068837084013
20
-0.894022744446829
30
0
41
1
10
10.2068837084013
20
-1.13001658628414
30
0
41
1
10
10.2068837084013
20
-1.28044343126132
30
0
41
1
10
10.2068837084013
20
-1.49487260479378
30
0
41
1
10
10.2068837084013
20
-1.56484974309578
30
0
41
1
10
10.2068837084013
20
-1.66174312417112
30
0
41
1
10
10.2068837084013
20
-1.6910489568711
30
0
41
1
10
10.2068837084013
20
-1.71968920818222
30
0
0
SPLINE
5
9F
100
AcDbEntity
8
1
62
256
6
ByLayer
370
18
48
1
60
0
100
AcDbSpline
70
4
71
3
72
10
73
6
40
0
40
0
40
0
40
0
40
0.5
40
0.5
40
1
40
1
40
1
40
1
41
1
10
7.45837184556871
20
-0.48624092294861
30
0
41
1
10
7.48348701255378
20
-0.481042300478435
30
0
41
1
10
7.51696485716684
20
-0.485220990940462
30
0
41
1
10
7.58875116938523
20
-0.508997487603409
30
0
41
1
10
7.6258457078211
20
-0.527773200480112
30
0
41
1
10
7.66195733879493
20
-0.550696822235295
30
0
0
SPLINE
5
A0
100
AcDbEntity
8
1
62
256
6
ByLayer
370
18
48
1
60
0
100
AcDbSpline
70
4
71
3
72
25
73
21
40
0
40
0
40
0
40
0
40
0.124458732619635
40
0.124458732619635
40
0.197420504901332
40
0.197420504901332
40
0.270382277183029
40
0.270382277183029
40
0.416305821746423
40
0.416305821746423
40
0.562229366309817
40
0.562229366309817
40
0.708152910873211
40
0.708152910873211
40
0.781114683154909
40
0.781114683154909
40
0.854076455436606
40
0.927038227718303
40
0.927038227718303
40
1
40
1
40
1
40
1
41
1
10
7.45823460729611
20
-2.08627764394134
30
0
41
1
10
7.4582309737014
20
-2.08661156332226
30
0
41
1
10
7.45822367538719
20
-2.0772365205311
30
0
41
1
10
7.4582101344829
20
-2.04745854277976
30
0
41
1
10
7.45820469145872
20
-2.03320005198762
30
0
41
1
10
7.45819380814493
20
-1.99801891324344
30
0
41
1
10
7.45818836357745
20
-1.97701406565332
30
0
41
1
10
7.45817362738748
20
-1.90531260552083
30
0
41
1
10
7.45816585318801
20
-1.84569050894172
30
0
41
1
10
7.45815943897432
20
-1.70296315208699
30
0
41
1
10
7.45816095432946
20
-1.61912833967247
30
0
41
1
10
7.45817581512239
20
-1.43462055093042
30
0
41
1
10
7.45818905815051
20
-1.33331086227662
30
0
41
1
10
7.4582176773352
20
-1.16742611143206
30
0
41
1
10
7.45822867101492
20
-1.10983099532427
30
0
41
1
10
7.45825277118055
20
-0.992485795010793
30
0
41
1
10
7.45827908218826
20
-0.872379977201831
30
0
41
1
10
7.45830882983029
20
-0.746835268785304
30
0
41
1
10
7.4583397004595
20
-0.618534330099862
30
0
41
1
10
7.45835578273795
20
-0.552657526023381
30
0
41
1
10
7.45837184556757
20
-0.48624092294861
30
0
0
SPLINE
5
A1
100
AcDbEntity
8
1
62
256
6
ByLayer
370
18
48
1
60
0
100
AcDbSpline
70
4
71
3
72
8
73
4
40
0
40
0
40
0
40
0
40
1
40
1
40
1
40
1
41
1
10
29.8936525925325
20
-0.701309026186323
30
0
41
1
10
29.9480823616852
20
-0.498585369848428
30
0
41
1
10
29.9845386500062
20
-0.312074757777964
30
0
41
1
10
29.9960282093019
20
-0.127188220749162
30
0
0
SPLINE
5
A2
100
AcDbEntity
8
1
62
256
6
ByLayer
370
18
48
1
60
0
100
AcDbSpline
70
4
71
3
72
8
73
4
40
0
40
0
40
0
40
0
40
1
40
1
40
1
40
1
41
1
10
29.3195312059136
20
-2.08515775387807
30
0
41
1
10
29.3186435315765
20
-2.08743764347264
30
0
41
1
10
29.317755599805
20
-2.08971713352142
30
0
41
1
10
29.316867410267
20
-2.09199622378617
30
0
0
SPLINE
5
A3
100
AcDbEntity
8
1
62
256
6
ByLayer
370
18
48
1
60
0
100
AcDbSpline
70
4
71
3
72
8
73
4
40
0
40
0
40
0
40
0
40
1
40
1
40
1
40
1
41
1
10
7.56738820828195
20
1.99522219266362
30
0
41
1
10
7.55473384914876
20
1.99736626449601
30
0
41
1
10
7.54215726881827
20
1.99952606367975
30
0
41
1
10
7.53006488682382
20
2.00184313590555
30
0
0
SPLINE
5
A4
100
AcDbEntity
8
1
62
256
6
ByLayer
370
18
48
1
60
0
100
AcDbSpline
70
4
71
3
72
14
73
10
40
0
40
0
40
0
40
0
40
0.264376026207149
40
0.264376026207149
40
0.396564039310717
40
0.396564039310717
40
0.528752052414286
40
0.528752052414286
40
1
40
1
40
1
40
1
41
1
10
29.326042740027
20
-1.99381689050884
30
0
41
1
10
29.0996947121236
20
-1.99810001925528
30
0
41
1
10
28.8738891436157
20
-1.99029057550049
30
0
41
1
10
28.5346711619147
20
-1.96085138881858
30
0
41
1
10
28.4215158353366
20
-1.94808252946674
30
0
41
1
10
28.194827787228
20
-1.91669936000079
30
0
41
1
10
28.0810662427069
20
-1.89803935778056
30
0
41
1
10
27.5632124051571
20
-1.8002207571659
30
0
41
1
10
27.1638410673127
20
-1.68888085110748
30
0
41
1
10
26.7640649106042
20
-1.54849148848683
30
0
0
SPLINE
5
A5
100
AcDbEntity
8
1
62
256
6
ByLayer
370
13
48
1
60
0
100
AcDbSpline
70
4
71
3
72
24
73
20
40
0
40
0
40
0
40
0
40
0.0237453623333582
40
0.0237453623333582
40
0.132915408401942
40
0.132915408401942
40
0.242085454470525
40
0.242085454470525
40
0.460425546607692
40
0.460425546607692
40
0.569595592676275
40
0.569595592676275
40
0.678765638744859
40
0.678765638744859
40
0.897105730882023
40
0.897105730882023
40
0.951690753916312
40
0.951690753916312
40
1
40
1
40
1
40
1
41
1
10
26.7640644154807
20
-1.54849131461432
30
0
41
1
10
26.7152818321612
20
-1.53136033561867
30
0
41
1
10
26.6664932210399
20
-1.51379680914116
30
0
41
1
10
26.3933083066723
20
-1.41312322672428
30
0
41
1
10
26.1686373038315
20
-1.32152057104028
30
0
41
1
10
25.7167469756611
20
-1.12271130676254
30
0
41
1
10
25.4888066411952
20
-1.01500093503822
30
0
41
1
10
24.8112452584071
20
-0.678905819161002
30
0
41
1
10
24.3643716482031
20
-0.435604940842779
30
0
41
1
10
23.6898986291126
20
-0.0622548526206685
30
0
41
1
10
23.464373241138
20
0.0636075265038585
30
0
41
1
10
23.0103222232164
20
0.315259746912432
30
0
41
1
10
22.7838891026028
20
0.4394690294246
30
0
41
1
10
22.1084102075709
20
0.79960845752845
30
0
41
1
10
21.6615219405026
20
1.02476488468025
30
0
41
1
10
21.0973596864563
20
1.27168883765537
30
0
41
1
10
20.9842598045632
20
1.31934735107652
30
0
41
1
10
20.7704000039244
20
1.40570606707755
30
0
41
1
10
20.6697036106976
20
1.44475656274093
30
0
41
1
10
20.5693674734212
20
1.48193512566277
30
0
0
SPLINE
5
A6
100
AcDbEntity
8
1
62
256
6
ByLayer
370
18
48
1
60
0
100
AcDbSpline
70
4
71
3
72
10
73
6
40
0
40
0
40
0
40
0
40
0.5
40
0.5
40
1
40
1
40
1
40
1
41
1
10
29.4118410894141
20
-2.02025389915062
30
0
41
1
10
29.3964347803937
20
-2.03835324182569
30
0
41
1
10
29.3806576549878
20
-2.05356173156085
30
0
41
1
10
29.3489465887425
20
-2.0774943649368
30
0
41
1
10
29.3329844008481
20
-2.08628894071586
30
0
41
1
10
29.316867410267
20
-2.09199622378631
30
0
0
SPLINE
5
A7
100
AcDbEntity
8
1
62
256
6
ByLayer
370
18
48
1
60
0
100
AcDbSpline
70
4
71
3
72
10
73
6
40
0
40
0
40
0
40
0
40
0.5
40
0.5
40
1
40
1
40
1
40
1
41
1
10
29.9955351449586
20
0.0788081094229653
30
0
41
1
10
29.99536281732
20
0.0720353931745592
30
0
41
1
10
29.995704331592
20
0.0642952411123474
30
0
41
1
10
29.9971753992743
20
0.0479984548038033
30
0
41
1
10
29.9982990466401
20
0.0394009440999525
30
0
41
1
10
29.9997718559949
20
0.030411076814147
30
0
0
SPLINE
5
A8
100
AcDbEntity
8
1
62
256
6
ByLayer
370
18
48
1
60
0
100
AcDbSpline
70
4
71
3
72
55
73
51
40
0
40
0
40
0
40
0
40
0.0624999999999905
40
0.0624999999999905
40
0.124999999999981
40
0.124999999999981
40
0.187499999999971
40
0.187499999999971
40
0.218749999999967
40
0.218749999999967
40
0.249999999999962
40
0.249999999999962
40
0.281249999999957
40
0.281249999999957
40
0.312499999999952
40
0.312499999999952
40
0.32812499999995
40
0.32812499999995
40
0.343749999999948
40
0.343749999999948
40
0.359374999999945
40
0.359374999999945
40
0.374999999999943
40
0.374999999999943
40
0.39062499999994
40
0.39062499999994
40
0.406249999999938
40
0.406249999999938
40
0.437499999999936
40
0.437499999999936
40
0.453124999999936
40
0.453124999999936
40
0.460937499999935
40
0.460937499999935
40
0.464843749999934
40
0.464843749999934
40
0.468749999999933
40
0.468749999999933
40
0.476562499999935
40
0.476562499999935
40
0.484374999999937
40
0.49999999999994
40
0.49999999999994
40
0.624999999999955
40
0.624999999999955
40
0.74999999999997
40
0.74999999999997
40
0.874999999999985
40
0.874999999999985
40
1
40
1
40
1
40
1
41
1
10
7.45837184556871
20
-0.486240922948639
30
0
41
1
10
7.33876165905585
20
-0.408453817465983
30
0
41
1
10
7.21903635882961
20
-0.32752070153478
30
0
41
1
10
6.98432863170098
20
-0.160676335244545
30
0
41
1
10
6.86913172964367
20
-0.0747087867156893
30
0
41
1
10
6.64514913139539
20
0.1048384941042
30
0
41
1
10
6.53625874371312
20
0.198292633217591
30
0
41
1
10
6.38141325781135
20
0.34860652592198
30
0
41
1
10
6.33097991183402
20
0.400729559134447
30
0
41
1
10
6.23581130633943
20
0.508713448359373
30
0
41
1
10
6.1912331412905
20
0.564288821761295
30
0
41
1
10
6.11121034795792
20
0.68045671967235
30
0
41
1
10
6.07561492064337
20
0.741455880740347
30
0
41
1
10
6.02234190799334
20
0.866357949670913
30
0
41
1
10
6.0043757685788
20
0.931822927908314
30
0
41
1
10
5.9988486976782
20
1.02761174207393
30
0
41
1
10
6.00056216981514
20
1.05969446360891
30
0
41
1
10
6.01149457317226
20
1.12137425739235
30
0
41
1
10
6.02058843828948
20
1.15086097176305
30
0
41
1
10
6.045624699379
20
1.20738032222693
30
0
41
1
10
6.06172080884676
20
1.23450858259562
30
0
41
1
10
6.09865837952014
20
1.28455438999308
30
0
41
1
10
6.11960133231179
20
1.30779208255922
30
0
41
1
10
6.16552161075936
20
1.35143234697074
30
0
41
1
10
6.19063600347283
20
1.37191119735425
30
0
41
1
10
6.24301947572309
20
1.40970734873648
30
0
41
1
10
6.27040242604252
20
1.42714796286648
30
0
41
1
10
6.3553860206024
20
1.47608990953131
30
0
41
1
10
6.41581045151949
20
1.50426824536146
30
0
41
1
10
6.5103240169089
20
1.54206684832218
30
0
41
1
10
6.54233570493264
20
1.55384669878063
30
0
41
1
10
6.59099976491217
20
1.57050224987367
30
0
41
1
10
6.60733581282886
20
1.57588638190478
30
0
41
1
10
6.63196261019536
20
1.58372036025955
30
0
41
1
10
6.64003192302272
20
1.58653978871851
30
0
41
1
10
6.65695336322437
20
1.59094495492016
30
0
41
1
10
6.66613080173926
20
1.59233622873941
30
0
41
1
10
6.69372075430721
20
1.59384361009486
30
0
41
1
10
6.7118461386097
20
1.59237887916407
30
0
41
1
10
6.74821397743864
20
1.59052579611449
30
0
41
1
10
6.80275095668748
20
1.58761643136248
30
0
41
1
10
6.85725145241912
20
1.58431648202318
30
0
41
1
10
7.18405129076649
20
1.56294429836953
30
0
41
1
10
7.47213457820396
20
1.53293525260264
30
0
41
1
10
8.04309129838907
20
1.44822265240288
30
0
41
1
10
8.32329397789042
20
1.39376469436758
30
0
41
1
10
8.87450501593003
20
1.25863969283381
30
0
41
1
10
9.14549235461644
20
1.17788218220724
30
0
41
1
10
9.68055544121313
20
0.990012914899353
30
0
41
1
10
9.944612589293
20
0.882814737853437
30
0
41
1
10
10.2068837084016
20
0.764125573309968
30
0
0
SPLINE
5
A9
100
AcDbEntity
8
1
62
256
6
ByLayer
370
18
48
1
60
0
100
AcDbSpline
70
4
71
3
72
8
73
4
40
0
40
0
40
0
40
0
40
1
40
1
40
1
40
1
41
1
10
29.9960282093019
20
0.127188220748934
30
0
41
1
10
29.996105294793
20
0.111046841150568
30
0
41
1
10
29.9959450992611
20
0.0949198845571857
30
0
41
1
10
29.995535144959
20
0.0788081094222832
30
0
0
SPLINE
5
AA
100
AcDbEntity
8
1
62
256
6
ByLayer
370
18
48
1
60
0
100
AcDbSpline
70
4
71
3
72
24
73
20
40
0
40
0
40
0
40
0
40
0.047983538121488
40
0.047983538121488
40
0.274855665891203
40
0.274855665891203
40
0.331573697833629
40
0.331573697833629
40
0.388291729776057
40
0.388291729776057
40
0.501727793660911
40
0.501727793660911
40
0.728599921430623
40
0.728599921430623
40
0.842035985315478
40
0.842035985315478
40
0.955472049200334
40
0.955472049200334
40
1
40
1
40
1
40
1
41
1
10
20.9009206417966
20
1.33272436916997
30
0
41
1
10
20.9969852759628
20
1.28967017745848
30
0
41
1
10
21.0928078258156
20
1.24534787871028
30
0
41
1
10
21.640510776323
20
0.984538468855163
30
0
41
1
10
22.0878537497487
20
0.74209986844852
30
0
41
1
10
22.6520337321972
20
0.42235748900228
30
0
41
1
10
22.7650843928929
20
0.357527845542847
30
0
41
1
10
22.9918610857382
20
0.226500829065856
30
0
41
1
10
23.1058813501854
20
0.160125283655987
30
0
41
1
10
23.4469701294496
20
-0.039028052025202
30
0
41
1
10
23.672799812773
20
-0.17111182613624
30
0
41
1
10
24.3482284589047
20
-0.561005010750932
30
0
41
1
10
24.7956935751909
20
-0.812599037280847
30
0
41
1
10
25.4750819415982
20
-1.15647300784482
30
0
41
1
10
25.7036537079231
20
-1.26594499658333
30
0
41
1
10
26.1561462336621
20
-1.46622135445313
30
0
41
1
10
26.3810859610377
20
-1.55762785587086
30
0
41
1
10
26.6940036411924
20
-1.67129060696158
30
0
41
1
10
26.7821588347572
20
-1.70182843492438
30
0
41
1
10
26.8703268400051
20
-1.73080081547258
30
0
0
SPLINE
5
AB
100
AcDbEntity
8
1
62
256
6
ByLayer
370
13
48
1
60
0
100
AcDbSpline
70
4
71
3
72
12
73
8
40
0
40
0
40
0
40
0
40
0.445593625896395
40
0.445593625896395
40
0.722796812948198
40
0.722796812948198
40
1
40
1
40
1
40
1
41
1
10
26.8703268396316
20
-1.73080081534985
30
0
41
1
10
27.231379213901
20
-1.84944415719872
30
0
41
1
10
27.5926464328327
20
-1.94183583343428
30
0
41
1
10
28.1862400715925
20
-2.04207473288324
30
0
41
1
10
28.4135470630437
20
-2.06832704459384
30
0
41
1
10
28.8665944263525
20
-2.0956380858363
30
0
41
1
10
29.0927541440698
20
-2.09677236324066
30
0
41
1
10
29.3195312059132
20
-2.08515775387809
30
0
0
SPLINE
5
AC
100
AcDbEntity
8
1
62
256
6
ByLayer
370
18
48
1
60
0
100
AcDbSpline
70
4
71
3
72
10
73
6
40
0
40
0
40
0
40
0
40
0.5
40
0.5
40
1
40
1
40
1
40
1
41
1
10
29.4118410894068
20
-2.02025389917514
30
0
41
1
10
29.4886215701381
20
-1.79959792173545
30
0
41
1
10
29.5682667353088
20
-1.57762418166229
30
0
41
1
10
29.7294062160416
20
-1.13783438078065
30
0
41
1
10
29.8112128500065
20
-0.91920463640929
30
0
41
1
10
29.8936525925324
20
-0.701309026186379
30
0
0
SPLINE
5
AD
100
AcDbEntity
8
1
62
256
6
ByLayer
370
18
48
1
60
0
100
AcDbSpline
70
4
71
3
72
26
73
22
40
0
40
0
40
0
40
0
40
0.124177284557468
40
0.124177284557468
40
0.248354569114936
40
0.248354569114936
40
0.372531853672403
40
0.372531853672403
40
0.496709138229871
40
0.496709138229871
40
0.620886422787339
40
0.620886422787339
40
0.745063707344807
40
0.745063707344807
40
0.869240991902275
40
0.869240991902275
40
0.931329634181009
40
0.931329634181009
40
0.993418276459743
40
0.993418276459743
40
1
40
1
40
1
40
1
41
1
10
10.2068837084013
20
-1.7196892081846
30
0
41
1
10
10.3859991335534
20
-1.76942218510089
30
0
41
1
10
10.5647102515185
20
-1.81185748167573
30
0
41
1
10
10.9213035249625
20
-1.88338471214149
30
0
41
1
10
11.0995368477349
20
-1.91230820381796
30
0
41
1
10
11.4571873377676
20
-1.95653465442612
30
0
41
1
10
11.6360738158788
20
-1.97170867311007
30
0
41
1
10
11.9927691638155
20
-1.98570058091994
30
0
41
1
10
12.1711236071089
20
-1.98494830613947
30
0
41
1
10
12.5280269894498
20
-1.97002054402216
30
0
41
1
10
12.7070710090062
20
-1.95605801086199
30
0
41
1
10
13.064157023855
20
-1.91312815041459
30
0
41
1
10
13.2420463638381
20
-1.8830613830834
30
0
41
1
10
13.5984580120356
20
-1.80947563846638
30
0
41
1
10
13.7772950917411
20
-1.76580478419052
30
0
41
1
10
14.045185459138
20
-1.69238119677678
30
0
41
1
10
14.1343232547009
20
-1.66662102212763
30
0
41
1
10
14.3126639630998
20
-1.61114641785886
30
0
41
1
10
14.4017708700614
20
-1.58167534253334
30
0
41
1
10
14.500315447964
20
-1.54751719210285
30
0
41
1
10
14.5097600880993
20
-1.54422736308388
30
0
41
1
10
14.5192044591943
20
-1.54092163770295
30
0
0
SPLINE
5
AE
100
AcDbEntity
8
1
62
256
6
ByLayer
370
18
48
1
60
0
100
AcDbSpline
70
4
71
3
72
22
73
18
40
0
40
0
40
0
40
0
40
0.0632945066788742
40
0.0632945066788742
40
0.19710957715332
40
0.19710957715332
40
0.330924647627765
40
0.330924647627765
40
0.46473971810221
40
0.46473971810221
40
0.598554788576655
40
0.598554788576655
40
0.732369859051101
40
0.732369859051101
40
0.86618492952555
40
0.86618492952555
40
1
40
1
40
1
40
1
41
1
10
23.3276301730872
20
1.9895250323579
30
0
41
1
10
23.4119285226035
20
1.98991469570044
30
0
41
1
10
23.4962551653875
20
1.98901871347718
30
0
41
1
10
23.7588160220077
20
1.9795416700947
30
0
41
1
10
23.9365705084144
20
1.96475431220713
30
0
41
1
10
24.2919449323364
20
1.92127141884836
30
0
41
1
10
24.469701310342
20
1.89186162579213
30
0
41
1
10
24.826457923717
20
1.8212504650489
30
0
41
1
10
25.0039919628545
20
1.77889315242493
30
0
41
1
10
25.3594917426482
20
1.68082057703833
30
0
41
1
10
25.5372181368802
20
1.62529953091482
30
0
41
1
10
25.8932056143672
20
1.50286731487952
30
0
41
1
10
26.0714786874612
20
1.43670498376366
30
0
41
1
10
26.4269763595175
20
1.29321332764292
30
0
41
1
10
26.6041694910326
20
1.21523715585246
30
0
41
1
10
26.9599828740924
20
1.05248295631424
30
0
41
1
10
27.1384100513073
20
0.966890889439355
30
0
41
1
10
27.3161427713876
20
0.878463071367719
30
0
0
SPLINE
5
AF
100
AcDbEntity
8
1
62
256
6
ByLayer
370
18
48
1
60
0
100
AcDbSpline
70
4
71
3
72
10
73
6
40
0
40
0
40
0
40
0
40
0.871758197129026
40
0.871758197129026
40
1
40
1
40
1
40
1
41
1
10
7.4582234654051
20
2.03241566085245
30
0
41
1
10
7.45823577405983
20
2.06321767847072
30
0
41
1
10
7.45823884140043
20
2.08090806745812
30
0
41
1
10
7.45823575160062
20
2.08587372557653
30
0
41
1
10
7.45823523388921
20
2.086220105254
30
0
41
1
10
7.45823460715826
20
2.08627765661058
30
0
0
SPLINE
5
B0
100
AcDbEntity
8
1
62
256
6
ByLayer
370
18
48
1
60
0
100
AcDbSpline
70
4
71
3
72
10
73
6
40
0
40
0
40
0
40
0
40
0.5
40
0.5
40
1
40
1
40
1
40
1
41
1
10
7.53006488682536
20
2.00184313590512
30
0
41
1
10
7.50984263995693
20
2.00571800576807
30
0
41
1
10
7.49239946294719
20
2.01045685070264
30
0
41
1
10
7.46650574544301
20
2.02106127527099
30
0
41
1
10
7.45822124445669
20
2.0268578134646
30
0
41
1
10
7.45822346540433
20
2.03241566085185
30
0
0
SPLINE
5
B1
100
AcDbEntity
8
1
62
256
6
ByLayer
370
18
48
1
60
0
100
AcDbSpline
70
4
71
3
72
8
73
4
40
0
40
0
40
0
40
0
40
1
40
1
40
1
40
1
41
1
10
29.9960282093019
20
-0.127188220749162
30
0
41
1
10
29.996105260023
20
-0.111054121847701
30
0
41
1
10
29.995945287531
20
-0.0949272838266779
30
0
41
1
10
29.995535144959
20
-0.0788081094223116
30
0
0
SPLINE
5
B2
100
AcDbEntity
8
1
62
256
6
ByLayer
370
18
48
1
60
0
100
AcDbSpline
70
4
71
3
72
36
73
32
40
0
40
0
40
0
40
0
40
0.117539888673484
40
0.117539888673484
40
0.176309833010227
40
0.176309833010227
40
0.23507977734697
40
0.23507977734697
40
0.352619666020458
40
0.352619666020458
40
0.470159554693946
40
0.470159554693946
40
0.52892949903069
40
0.52892949903069
40
0.587699443367434
40
0.587699443367434
40
0.705239332040922
40
0.705239332040922
40
0.764009276377666
40
0.764009276377666
40
0.793394248546039
40
0.793394248546039
40
0.822779220714412
40
0.822779220714412
40
0.940319109387905
40
0.940319109387905
40
0.969704081556278
40
0.969704081556278
40
0.999089053724651
40
0.999089053724651
40
1
40
1
40
1
40
1
41
1
10
29.3168674102672
20
-2.09199622378614
30
0
41
1
10
28.8624894554811
20
-2.11496145728603
30
0
41
1
10
28.4116902060502
20
-2.08686190868696
30
0
41
1
10
27.729641019026
20
-1.97116648407419
30
0
41
1
10
27.5007129582872
20
-1.91994181476139
30
0
41
1
10
27.0472102154174
20
-1.79601651614655
30
0
41
1
10
26.8216037669799
20
-1.72332901940254
30
0
41
1
10
26.1456160830561
20
-1.47623351767828
30
0
41
1
10
25.6960732591738
20
-1.27266690763949
30
0
41
1
10
24.7819827738185
20
-0.807827317346664
30
0
41
1
10
24.332283033349
20
-0.553717246648972
30
0
41
1
10
23.6561807878516
20
-0.161939982997438
30
0
41
1
10
23.4305791228854
20
-0.0295193621313672
30
0
41
1
10
22.9771515608038
20
0.236007079765926
30
0
41
1
10
22.7479988970052
20
0.369307523588873
30
0
41
1
10
22.066489671895
20
0.756218961080805
30
0
41
1
10
21.6178971124361
20
0.99942518267153
30
0
41
1
10
20.9403004515611
20
1.32168238229232
30
0
41
1
10
20.7138411719445
20
1.42230175299844
30
0
41
1
10
20.3716518556605
20
1.56052097568454
30
0
41
1
10
20.2573933764445
20
1.60434270965115
30
0
41
1
10
20.0301394214005
20
1.68652238542356
30
0
41
1
10
19.9168715282966
20
1.72499274843747
30
0
41
1
10
19.3515612147924
20
1.90370172384809
30
0
41
1
10
18.9025104780788
20
2.00312521543594
30
0
41
1
10
18.3361778608416
20
2.06665063784828
30
0
41
1
10
18.2226000431044
20
2.07628523060598
30
0
41
1
10
17.9945654531282
20
2.08926013651276
30
0
41
1
10
17.880108065977
20
2.09257803347333
30
0
41
1
10
17.7627854877821
20
2.09271585750389
30
0
41
1
10
17.7592581718417
20
2.0927169636538
30
0
41
1
10
17.7557312247115
20
2.09271503333528
30
0
0
SPLINE
5
B3
100
AcDbEntity
8
1
62
256
6
ByLayer
370
18
48
1
60
0
100
AcDbSpline
70
4
71
3
72
8
73
4
40
0
40
0
40
0
40
0
40
1
40
1
40
1
40
1
41
1
10
29.316867410267
20
2.09199622378617
30
0
41
1
10
29.2128120328372
20
2.09725540507878
30
0
41
1
10
29.1089193402472
20
2.09983771270384
30
0
41
1
10
29.0050992566577
20
2.09976382041586
30
0
0
SPLINE
5
B4
100
AcDbEntity
8
1
62
256
6
ByLayer
370
18
48
1
60
0
100
AcDbSpline
70
4
71
3
72
42
73
38
40
0
40
0
40
0
40
0
40
0.0246561085330384
40
0.0246561085330384
40
0.0856151017497261
40
0.0856151017497261
40
0.146574094966414
40
0.146574094966414
40
0.268492081399789
40
0.268492081399789
40
0.298971578008133
40
0.298971578008133
40
0.329451074616477
40
0.329451074616477
40
0.390410067833162
40
0.390410067833162
40
0.451369061049848
40
0.451369061049848
40
0.481848557658191
40
0.481848557658191
40
0.512328054266534
40
0.512328054266534
40
0.634246040699904
40
0.634246040699904
40
0.695205033916588
40
0.695205033916588
40
0.725684530524929
40
0.725684530524929
40
0.756164027133271
40
0.756164027133271
40
0.878082013566634
40
0.878082013566634
40
0.908561510174975
40
0.908561510174975
40
0.939041006783316
40
0.939041006783316
40
1
40
1
40
1
40
1
41
1
10
18.7244514885376
20
-2.01710387235443
30
0
41
1
10
18.6330217535322
20
-2.03133443242453
30
0
41
1
10
18.5414680800709
20
-2.04361903329425
30
0
41
1
10
18.2229221867351
20
-2.07936496414081
30
0
41
1
10
17.9936631234747
20
-2.09244132684208
30
0
41
1
10
17.5391420971357
20
-2.09298188847575
30
0
41
1
10
17.3133101205764
20
-2.08064403544094
30
0
41
1
10
16.6370305378802
20
-2.00690432557798
30
0
41
1
10
16.1871303927405
20
-1.90912869125214
30
0
41
1
10
15.6165146080705
20
-1.73020313009164
30
0
41
1
10
15.5022058630859
20
-1.6916714045162
30
0
41
1
10
15.2748227946643
20
-1.61005485468249
30
0
41
1
10
15.1614807138544
20
-1.56688724321694
30
0
41
1
10
14.8221259382191
20
-1.43083653971505
30
0
41
1
10
14.5967726509495
20
-1.33142026568504
30
0
41
1
10
14.1458216300217
20
-1.11796935271337
30
0
41
1
10
13.9203189621866
20
-1.00378927945874
30
0
41
1
10
13.5802591328447
20
-0.823818514691425
30
0
41
1
10
13.4666127442433
20
-0.762368279509388
30
0
41
1
10
13.2384847871203
20
-0.636894957134899
30
0
41
1
10
13.124005024842
20
-0.572867660839819
30
0
41
1
10
12.5550371209662
20
-0.250715155074829
30
0
41
1
10
12.1059019362117
20
0.016094117987592
30
0
41
1
10
11.4284057334565
20
0.407499779492781
30
0
41
1
10
11.2020395908706
20
0.536671983751972
30
0
41
1
10
10.8601668443885
20
0.725825671392272
30
0
41
1
10
10.745618102671
20
0.788157654354166
30
0
41
1
10
10.5178054697616
20
0.90947878296592
30
0
41
1
10
10.4042731628417
20
0.96862136018072
30
0
41
1
10
9.83785202529864
20
1.25592579863158
30
0
41
1
10
9.38898305738206
20
1.45925776386193
30
0
41
1
10
8.82255119689216
20
1.66608851804267
30
0
41
1
10
8.70900332579001
20
1.70509950572816
30
0
41
1
10
8.48117679580864
20
1.77811776654434
30
0
41
1
10
8.36670985291036
20
1.81218356774312
30
0
41
1
10
8.02401091580936
20
1.9056646316962
30
0
41
1
10
7.79598525896526
20
1.95649020377522
30
0
41
1
10
7.56738820828244
20
1.99522219266353
30
0
0
SPLINE
5
B5
100
AcDbEntity
8
1
62
256
6
ByLayer
370
18
48
1
60
0
100
AcDbSpline
70
4
71
3
72
10
73
6
40
0
40
0
40
0
40
0
40
0.5
40
0.5
40
1
40
1
40
1
40
1
41
1
10
29.2103305977061
20
0.575861395777707
30
0
41
1
10
29.319712430767
20
0.573981815062609
30
0
41
1
10
29.4290742079635
20
0.57226616058702
30
0
41
1
10
29.6477351679357
20
0.569346465981681
30
0
41
1
10
29.7570145901122
20
0.568303938745743
30
0
41
1
10
29.8660928135819
20
0.568905905435656
30
0
0
SPLINE
5
B6
100
AcDbEntity
8
1
62
256
6
ByLayer
370
18
48
1
60
0
100
AcDbSpline
70
4
71
3
72
66
73
62
40
0
40
0
40
0
40
0
40
0.004096314696764
40
0.004096314696764
40
0.0431015978598026
40
0.0431015978598026
40
0.0821068810228412
40
0.0821068810228412
40
0.12111216418588
40
0.12111216418588
40
0.160117447348919
40
0.160117447348919
40
0.179620088930438
40
0.179620088930438
40
0.199122730511957
40
0.199122730511957
40
0.238128013674995
40
0.238128013674995
40
0.257630655256513
40
0.257630655256513
40
0.277133296838032
40
0.277133296838032
40
0.31613858000107
40
0.31613858000107
40
0.355143863164107
40
0.355143863164107
40
0.394149146327144
40
0.394149146327144
40
0.433154429490182
40
0.433154429490182
40
0.472159712653219
40
0.472159712653219
40
0.511164995816257
40
0.511164995816257
40
0.550170278979294
40
0.550170278979294
40
0.589175562142332
40
0.589175562142332
40
0.628180845305369
40
0.628180845305369
40
0.667186128468407
40
0.667186128468407
40
0.706191411631445
40
0.706191411631445
40
0.745196694794482
40
0.745196694794482
40
0.78420197795752
40
0.78420197795752
40
0.823207261120557
40
0.823207261120557
40
0.842709902702076
40
0.842709902702076
40
0.862212544283595
40
0.862212544283595
40
0.901217827446631
40
0.901217827446631
40
0.940223110609667
40
0.940223110609667
40
0.979228393772703
40
0.979228393772703
40
1
40
1
40
1
40
1
41
1
10
25.7716016256009
20
-1.54452670232413
30
0
41
1
10
25.75289848794
20
-1.55106757366127
30
0
41
1
10
25.7341921788762
20
-1.55755507640134
30
0
41
1
10
25.5373287312534
20
-1.62526704134882
30
0
41
1
10
25.3595484418815
20
-1.68080208766165
30
0
41
1
10
25.0041695871297
20
-1.77884699653808
30
0
41
1
10
24.8268363954416
20
-1.82115991074386
30
0
41
1
10
24.470633860117
20
-1.89169263829788
30
0
41
1
10
24.292477332806
20
-1.92118991925949
30
0
41
1
10
23.9372021386942
20
-1.96469332985416
30
0
41
1
10
23.7596303917606
20
-1.97947422601413
30
0
41
1
10
23.4927677127508
20
-1.98916343203902
30
0
41
1
10
23.403865551743
20
-1.99000281047844
30
0
41
1
10
23.2256065583359
20
-1.98890820583392
30
0
41
1
10
23.136496986722
20
-1.98687466627942
30
0
41
1
10
22.8694856111553
20
-1.97568586781549
30
0
41
1
10
22.6919633090749
20
-1.96142750841946
30
0
41
1
10
22.4253996100209
20
-1.92875284737164
30
0
41
1
10
22.3364748056128
20
-1.91602234638819
30
0
41
1
10
22.1582724768631
20
-1.8862086427435
30
0
41
1
10
22.0688676669658
20
-1.86884584618858
30
0
41
1
10
21.8013123100484
20
-1.8127576308701
30
0
41
1
10
21.6235081123212
20
-1.76983511842826
30
0
41
1
10
21.2674570405671
20
-1.67161146361568
30
0
41
1
10
21.0896728511414
20
-1.61647270098703
30
0
41
1
10
20.7326436849639
20
-1.49252733636999
30
0
41
1
10
20.5542522636479
20
-1.42458503297911
30
0
41
1
10
20.1985061813155
20
-1.27875399282559
30
0
41
1
10
20.0205350291345
20
-1.20088562823849
30
0
41
1
10
19.6637220793762
20
-1.03716701533474
30
0
41
1
10
19.485350193866
20
-0.951231780854812
30
0
41
1
10
19.1294127466153
20
-0.77353677109059
30
0
41
1
10
18.9513776614008
20
-0.681976584787435
30
0
41
1
10
18.5953691953809
20
-0.491862635064393
30
0
41
1
10
18.4164629913354
20
-0.395145625737968
30
0
41
1
10
18.0600038891384
20
-0.199785703082682
30
0
41
1
10
17.8822919961263
20
-0.100788245399798
30
0
41
1
10
17.5261997510927
20
0.096859599270374
30
0
41
1
10
17.3472543104773
20
0.195210883629812
30
0
41
1
10
16.9905969780698
20
0.391500592400575
30
0
41
1
10
16.8123302651644
20
0.487941801597998
30
0
41
1
10
16.4560797819499
20
0.677256049208836
30
0
41
1
10
16.2781701964661
20
0.770349093275371
30
0
41
1
10
15.9203120361965
20
0.947797471843757
30
0
41
1
10
15.7417589644326
20
1.03355625800441
30
0
41
1
10
15.3853202624411
20
1.19724953338033
30
0
41
1
10
15.2068852587037
20
1.27485934341996
30
0
41
1
10
14.8495668598368
20
1.42063566453319
30
0
41
1
10
14.6708014019605
20
1.48838877814788
30
0
41
1
10
14.4031750064086
20
1.58120516202826
30
0
41
1
10
14.3139937022212
20
1.61071474456173
30
0
41
1
10
14.1355875466421
20
1.66624553637243
30
0
41
1
10
14.0464657451378
20
1.69201716155098
30
0
41
1
10
13.7787116632938
20
1.76544250573207
30
0
41
1
10
13.5995404133761
20
1.80923022603596
30
0
41
1
10
13.2427109445895
20
1.88294600156678
30
0
41
1
10
13.0647481417615
20
1.91303664902978
30
0
41
1
10
12.7078345724566
20
1.95598657132714
30
0
41
1
10
12.5289181280506
20
1.96996575611269
30
0
41
1
10
12.2551172347238
20
1.98144448343484
30
0
41
1
10
12.1600256147747
20
1.98352440757006
30
0
41
1
10
12.0649724732676
20
1.98354199317774
30
0
0
SPLINE
5
B7
100
AcDbEntity
8
1
62
256
6
ByLayer
370
18
48
1
60
0
100
AcDbSpline
70
4
71
3
72
38
73
34
40
0
40
0
40
0
40
0
40
0.0861843982388869
40
0.0861843982388869
40
0.172368796477774
40
0.172368796477774
40
0.258553194716661
40
0.258553194716661
40
0.344737592955547
40
0.344737592955547
40
0.430921991194434
40
0.430921991194434
40
0.517106389433321
40
0.517106389433321
40
0.560198588552765
40
0.560198588552765
40
0.603290787672208
40
0.603290787672208
40
0.646382986791651
40
0.646382986791651
40
0.689475185911095
40
0.689475185911095
40
0.775659584149982
40
0.775659584149982
40
0.818751783269425
40
0.818751783269425
40
0.861843982388869
40
0.861843982388869
40
0.948028380627755
40
0.948028380627755
40
0.991120579747199
40
0.991120579747199
40
1
40
1
40
1
40
1
41
1
10
10.2068837084013
20
0.76412557331011
30
0
41
1
10
10.4084160656132
20
0.653388179860741
30
0
41
1
10
10.6094880178844
20
0.541427140050928
30
0
41
1
10
11.0099980513756
20
0.313885003405176
30
0
41
1
10
11.2087096233073
20
0.197033169066856
30
0
41
1
10
11.6078228543326
20
-0.0345156762807051
30
0
41
1
10
11.8068801393152
20
-0.15155500283646
30
0
41
1
10
12.2068332184664
20
-0.383213743610412
30
0
41
1
10
12.4081616731111
20
-0.497133974398423
30
0
41
1
10
12.8116160699558
20
-0.724131562756412
30
0
41
1
10
13.0128163360637
20
-0.832350597572599
30
0
41
1
10
13.4126893890882
20
-1.04126104620499
30
0
41
1
10
13.6116539701122
20
-1.14135435557446
30
0
41
1
10
13.9109085422413
20
-1.2817585415367
30
0
41
1
10
14.0106951155187
20
-1.32709779139921
30
0
41
1
10
14.2099042439826
20
-1.41537644765944
30
0
41
1
10
14.3095068845283
20
-1.45805939708782
30
0
41
1
10
14.5095392936058
20
-1.53946613903179
30
0
41
1
10
14.609890290284
20
-1.57830603460732
30
0
41
1
10
14.810821707074
20
-1.65274637911727
30
0
41
1
10
14.9113843295335
20
-1.68835216020284
30
0
41
1
10
15.2142543985254
20
-1.789200662507
30
0
41
1
10
15.4153411392345
20
-1.84715343448002
30
0
41
1
10
15.7152129077119
20
-1.9211906876493
30
0
41
1
10
15.8147051952674
20
-1.94379509281194
30
0
41
1
10
16.0140746587783
20
-1.98400489100297
30
0
41
1
10
16.1138388970313
20
-2.00171559032108
30
0
41
1
10
16.4129736822192
20
-2.04796812562881
30
0
41
1
10
16.6117025416047
20
-2.0696937231759
30
0
41
1
10
16.9117044526853
20
-2.08745803376277
30
0
41
1
10
17.0120035407429
20
-2.09095431254303
30
0
41
1
10
17.1331405973065
20
-2.09222917363692
30
0
41
1
10
17.1538351186323
20
-2.09234211054596
30
0
41
1
10
17.174532749841
20
-2.09234971905286
30
0
0
SPLINE
5
B8
100
AcDbEntity
8
1
62
256
6
ByLayer
370
18
48
1
60
0
100
AcDbSpline
70
4
71
3
72
24
73
20
40
0
40
0
40
0
40
0
40
0.0129136812122518
40
0.0129136812122518
40
0.17742806767688
40
0.17742806767688
40
0.341942454141507
40
0.341942454141507
40
0.424199647373821
40
0.424199647373821
40
0.506456840606135
40
0.506456840606135
40
0.670971227070762
40
0.670971227070762
40
0.753228420303072
40
0.753228420303072
40
0.835485613535382
40
0.835485613535382
40
1
40
1
40
1
40
1
41
1
10
25.7711824252591
20
1.548492483209
30
0
41
1
10
25.7868058601936
20
1.55467852520732
30
0
41
1
10
25.8024249794055
20
1.56082459490176
30
0
41
1
10
26.0169602261119
20
1.64472667776886
30
0
41
1
10
26.2158816825989
20
1.71511607706324
30
0
41
1
10
26.6155610874112
20
1.83926853638434
30
0
41
1
10
26.815242717064
20
1.8939380586682
30
0
41
1
10
27.1179158913321
20
1.96168600810677
30
0
41
1
10
27.2190097075969
20
1.98195298838596
30
0
41
1
10
27.4197502450722
20
2.01779502785573
30
0
41
1
10
27.5196902814787
20
2.03335112085918
30
0
41
1
10
27.819119814489
20
2.07260560648413
30
0
41
1
10
28.0185900236264
20
2.08895342470123
30
0
41
1
10
28.3161141785877
20
2.09921065488484
30
0
41
1
10
28.4152196840337
20
2.10017949506883
30
0
41
1
10
28.6139228015701
20
2.0972816789035
30
0
41
1
10
28.713467719744
20
2.09343900613354
30
0
41
1
10
29.0119910531631
20
2.07460594819318
30
0
41
1
10
29.2109995016966
20
2.05216286462044
30
0
41
1
10
29.4118410894162
20
2.02025389914809
30
0
0
SPLINE
5
B9
100
AcDbEntity
8
1
62
256
6
ByLayer
370
18
48
1
60
0
100
AcDbSpline
70
4
71
3
72
12
73
8
40
0
40
0
40
0
40
0
40
0.250000000000073
40
0.250000000000073
40
0.500000000000145
40
0.500000000000145
40
1
40
1
40
1
40
1
41
1
10
29.118919804746
20
0.514113740763662
30
0
41
1
10
29.1191862232971
20
0.523965327358923
30
0
41
1
10
29.1222646956623
20
0.533717769293361
30
0
41
1
10
29.133492081676
20
0.550443609550058
30
0
41
1
10
29.1416091581199
20
0.557417236026566
30
0
41
1
10
29.1686234725265
20
0.572728342002449
30
0
41
1
10
29.1896850723022
20
0.576216161558506
30
0
41
1
10
29.2103305977061
20
0.575861395777793
30
0
0
SPLINE
5
BA
100
AcDbEntity
8
1
62
256
6
ByLayer
370
18
48
1
60
0
100
AcDbSpline
70
4
71
3
72
8
73
4
40
0
40
0
40
0
40
0
40
1
40
1
40
1
40
1
41
1
10
29.9997718559955
20
-0.0304110768296937
30
0
41
1
10
30.0000762904144
20
-0.0101150209237915
30
0
41
1
10
30.0000757529189
20
0.0101508547003277
30
0
41
1
10
29.9997718559957
20
0.0304110768131522
30
0
0
SPLINE
5
BB
100
AcDbEntity
8
1
62
256
6
ByLayer
370
18
48
1
60
0
100
AcDbSpline
70
4
71
3
72
14
73
10
40
0
40
0
40
0
40
0
40
0.25
40
0.25
40
0.5
40
0.5
40
0.75
40
0.75
40
1
40
1
40
1
40
1
41
1
10
7.66195733951599
20
-0.550696822693482
30
0
41
1
10
7.86910871900969
20
-0.682196279813468
30
0
41
1
10
8.07848482249625
20
-0.805172610233143
30
0
41
1
10
8.50094809116356
20
-1.03695683454333
30
0
41
1
10
8.71216727403439
20
-1.14502928241845
30
0
41
1
10
9.13479211445642
20
-1.34238724140351
30
0
41
1
10
9.34643070858323
20
-1.43163429851103
30
0
41
1
10
9.77319813275631
20
-1.59049135252761
30
0
41
1
10
9.98832360288409
20
-1.66045995854492
30
0
41
1
10
10.2068837084016
20
-1.71968920818466
30
0
0
SPLINE
5
BC
100
AcDbEntity
8
1
62
256
6
ByLayer
370
18
48
1
60
0
100
AcDbSpline
70
4
71
3
72
8
73
4
40
0
40
0
40
0
40
0
40
1
40
1
40
1
40
1
41
1
10
29.995535144959
20
-0.0788081094222548
30
0
41
1
10
29.9951892787955
20
-0.0652150874042263
30
0
41
1
10
29.9968191213615
20
-0.0484342462132759
30
0
41
1
10
29.9997718559908
20
-0.030411076839215
30
0
0
SPLINE
5
BD
100
AcDbEntity
8
1
62
256
6
ByLayer
370
18
48
1
60
0
100
AcDbSpline
70
4
71
3
72
70
73
66
40
0
40
0
40
0
40
0
40
0.0137698692972265
40
0.0137698692972265
40
0.0353523151931446
40
0.0353523151931446
40
0.0785172069849808
40
0.0785172069849808
40
0.100099652880899
40
0.100099652880899
40
0.121682098776817
40
0.121682098776817
40
0.164846990568654
40
0.164846990568654
40
0.186429436464573
40
0.186429436464573
40
0.208011882360493
40
0.208011882360493
40
0.251176774152331
40
0.251176774152331
40
0.294341665944169
40
0.294341665944169
40
0.337506557736008
40
0.337506557736008
40
0.380671449527846
40
0.380671449527846
40
0.423836341319685
40
0.423836341319685
40
0.467001233111523
40
0.467001233111523
40
0.510166124903361
40
0.510166124903361
40
0.531748570799281
40
0.531748570799281
40
0.553331016695201
40
0.553331016695201
40
0.574913462591121
40
0.574913462591121
40
0.596495908487041
40
0.596495908487041
40
0.63966080027888
40
0.63966080027888
40
0.6612432461748
40
0.6612432461748
40
0.68282569207072
40
0.68282569207072
40
0.725990583862559
40
0.725990583862559
40
0.747573029758479
40
0.747573029758479
40
0.769155475654399
40
0.769155475654399
40
0.812320367446239
40
0.812320367446239
40
0.85548525923808
40
0.85548525923808
40
0.89865015102992
40
0.89865015102992
40
0.92023259692584
40
0.92023259692584
40
0.941815042821759
40
0.941815042821759
40
0.984979934613597
40
0.984979934613597
40
1
40
1
40
1
40
1
41
1
10
14.5182581193683
20
1.54224412852034
30
0
41
1
10
14.582205946647
20
1.56737301548711
30
0
41
1
10
14.6462576253934
20
1.59177927337558
30
0
41
1
10
14.810821707074
20
1.65274637911727
30
0
41
1
10
14.9113843295335
20
1.68835216020284
30
0
41
1
10
15.2142543985255
20
1.789200662507
30
0
41
1
10
15.4153411392346
20
1.84715343448002
30
0
41
1
10
15.7152129077119
20
1.9211906876493
30
0
41
1
10
15.8147051952674
20
1.94379509281194
30
0
41
1
10
16.0140746587783
20
1.98400489100297
30
0
41
1
10
16.1138388970313
20
2.00171559032108
30
0
41
1
10
16.4129736822192
20
2.04796812562881
30
0
41
1
10
16.6117025416047
20
2.0696937231759
30
0
41
1
10
16.9117044526852
20
2.08745803376277
30
0
41
1
10
17.0120035407429
20
2.09095431254303
30
0
41
1
10
17.2128847996005
20
2.09306841130581
30
0
41
1
10
17.3132805433843
20
2.09165544760427
30
0
41
1
10
17.6160529823506
20
2.07985097973
30
0
41
1
10
17.817293093972
20
2.06222622568896
30
0
41
1
10
18.2168110381355
20
2.0077442495793
30
0
41
1
10
18.4160384058991
20
1.97111826517056
30
0
41
1
10
18.8147906103333
20
1.88032742606714
30
0
41
1
10
19.0133559613566
20
1.82536183616898
30
0
41
1
10
19.413442469322
20
1.69986063789193
30
0
41
1
10
19.6137751915861
20
1.62829035390453
30
0
41
1
10
20.0174740054957
20
1.46937054444047
30
0
41
1
10
20.2189521990664
20
1.38389707853156
30
0
41
1
10
20.6180167941296
20
1.19887681703312
30
0
41
1
10
20.8176341658966
20
1.1018047657785
30
0
41
1
10
21.2159224615243
20
0.897166451608001
30
0
41
1
10
21.4146529104261
20
0.789588748537795
30
0
41
1
10
21.7146288983437
20
0.62433395203081
30
0
41
1
10
21.8148359172885
20
0.568454595321953
30
0
41
1
10
22.0153107146804
20
0.45440920988753
30
0
41
1
10
22.1156144800555
20
0.396287537482152
30
0
41
1
10
22.3174654846945
20
0.279795491944128
30
0
41
1
10
22.4184745353761
20
0.221487697627907
30
0
41
1
10
22.6194475349236
20
0.104545148532026
30
0
41
1
10
22.7194794554414
20
0.0457238646938549
30
0
41
1
10
23.0190565636549
20
-0.130282489245673
30
0
41
1
10
23.2185806043263
20
-0.246153767102499
30
0
41
1
10
23.5172833392933
20
-0.418327862918375
30
0
41
1
10
23.6165226398373
20
-0.475834349697209
30
0
41
1
10
23.8156581974242
20
-0.588835437855153
30
0
41
1
10
23.9154682678313
20
-0.644482189579406
30
0
41
1
10
24.2153524765301
20
-0.809327367191656
30
0
41
1
10
24.4152423822877
20
-0.917462944969998
30
0
41
1
10
24.7179198900169
20
-1.07219422244421
30
0
41
1
10
24.8189704896729
20
-1.12236561900554
30
0
41
1
10
25.0199728036888
20
-1.21980913870291
30
0
41
1
10
25.1199080648303
20
-1.26743047702155
30
0
41
1
10
25.4194382656788
20
-1.40493679948389
30
0
41
1
10
25.6191186112078
20
-1.48913574036294
30
0
41
1
10
26.0169602261119
20
-1.64472667776886
30
0
41
1
10
26.2158816825989
20
-1.71511607706324
30
0
41
1
10
26.6155610874112
20
-1.83926853638434
30
0
41
1
10
26.815242717064
20
-1.8939380586682
30
0
41
1
10
27.1179158913321
20
-1.96168600810674
30
0
41
1
10
27.2190097075968
20
-1.98195298838596
30
0
41
1
10
27.4197502450722
20
-2.01779502785573
30
0
41
1
10
27.5196902814787
20
-2.03335112085915
30
0
41
1
10
27.819119814489
20
-2.07260560648413
30
0
41
1
10
28.0185900236264
20
-2.08895342470123
30
0
41
1
10
28.2859590125939
20
-2.09817104692809
30
0
41
1
10
28.3549450429755
20
-2.09936379002656
30
0
41
1
10
28.4240038165705
20
-2.09938075810925
30
0
0
SPLINE
5
BE
100
AcDbEntity
8
1
62
256
6
ByLayer
370
18
48
1
60
0
100
AcDbSpline
70
4
71
3
72
10
73
6
40
0
40
0
40
0
40
0
40
0.5
40
0.5
40
1
40
1
40
1
40
1
41
1
10
29.4118410894071
20
2.02025389917421
30
0
41
1
10
29.4884329141356
20
1.80014009175346
30
0
41
1
10
29.5678463692306
20
1.5787870544749
30
0
41
1
10
29.728992162292
20
1.13894892812527
30
0
41
1
10
29.8110307267066
20
0.919686004574174
30
0
41
1
10
29.8936525925325
20
0.70130902618601
30
0
0
SPLINE
5
BF
100
AcDbEntity
8
1
62
256
6
ByLayer
370
18
48
1
60
0
100
AcDbSpline
70
4
71
3
72
10
73
6
40
0
40
0
40
0
40
0
40
0.5
40
0.5
40
1
40
1
40
1
40
1
41
1
10
29.9960282093019
20
0.127188220748934
30
0
41
1
10
29.9903383408858
20
0.218747874215296
30
0
41
1
10
29.9785556809238
20
0.310987414222268
30
0
41
1
10
29.9439415360072
20
0.501109915992373
30
0
41
1
10
29.9209431536299
20
0.599665340841085
30
0
41
1
10
29.8936525925325
20
0.70130902618601
30
0
0
SPLINE
5
C0
100
AcDbEntity
8
1
62
256
6
ByLayer
370
18
48
1
60
0
100
AcDbSpline
70
4
71
3
72
16
73
12
40
0
40
0
40
0
40
0
40
0.341472912857309
40
0.341472912857309
40
0.484041998120354
40
0.484041998120354
40
0.626611083383399
40
0.626611083383399
40
0.911749253909497
40
0.911749253909497
40
1
40
1
40
1
40
1
41
1
10
17.9529216183367
20
-1.98786836106572
30
0
41
1
10
17.6826572823392
20
-1.9876373343761
30
0
41
1
10
17.4129690657988
20
-1.97038957231752
30
0
41
1
10
17.0294697090255
20
-1.92231585854569
30
0
41
1
10
16.9163270567924
20
-1.90526224849367
30
0
41
1
10
16.6894063009972
20
-1.86539128147931
30
0
41
1
10
16.5755018928001
20
-1.84253771132674
30
0
41
1
10
16.2352355675303
20
-1.76601956014002
30
0
41
1
10
16.0095770488197
20
-1.70425288727063
30
0
41
1
10
15.7143004183346
20
-1.61073832342495
30
0
41
1
10
15.6445235943639
20
-1.58771551491799
30
0
41
1
10
15.5747330358548
20
-1.56380268016611
30
0
0
SPLINE
5
C1
100
AcDbEntity
8
1
62
256
6
ByLayer
370
13
48
1
60
0
100
AcDbSpline
70
4
71
3
72
28
73
24
40
0
40
0
40
0
40
0
40
0.0729798087315209
40
0.0729798087315209
40
0.125825563595359
40
0.125825563595359
40
0.178671318459197
40
0.178671318459197
40
0.390054337914549
40
0.390054337914549
40
0.495745847642227
40
0.495745847642227
40
0.548591602506067
40
0.548591602506067
40
0.601437357369907
40
0.601437357369907
40
0.812820376825269
40
0.812820376825269
40
0.865666131689109
40
0.865666131689109
40
0.918511886552948
40
0.918511886552948
40
1
40
1
40
1
40
1
41
1
10
15.5747330361255
20
-1.56380268025887
30
0
41
1
10
15.4190302921665
20
-1.51045314321701
30
0
41
1
10
15.2632591864456
20
-1.45267362380346
30
0
41
1
10
14.994080875015
20
-1.34600212235017
30
0
41
1
10
14.880835912309
20
-1.29905218633229
30
0
41
1
10
14.65370930118
20
-1.20113355400136
30
0
41
1
10
14.539867935163
20
-1.15016800624022
30
0
41
1
10
13.9736481602281
20
-0.888373223773556
30
0
41
1
10
13.5260438164714
20
-0.655116947753015
30
0
41
1
10
12.8514819454594
20
-0.28920948290039
30
0
41
1
10
12.6261041568212
20
-0.164508271343863
30
0
41
1
10
12.2858786835113
20
0.0241331898324688
30
0
41
1
10
12.1719389941637
20
0.0873471191634678
30
0
41
1
10
11.945243789189
20
0.212619894144041
30
0
41
1
10
11.832241892369
20
0.274816537544325
30
0
41
1
10
11.2683700537366
20
0.582534318633691
30
0
41
1
10
10.8211525268243
20
0.818784831764617
30
0
41
1
10
10.2573691651258
20
1.08516478463662
30
0
41
1
10
10.1443673986662
20
1.13696913882461
30
0
41
1
10
9.91768312371809
20
1.23733241407606
30
0
41
1
10
9.80374812190937
20
1.28603428387532
30
0
41
1
10
9.51529823002053
20
1.404302436683
30
0
41
1
10
9.34118442752228
20
1.47090976003705
30
0
41
1
10
9.16749509150017
20
1.53189955656362
30
0
0
SPLINE
5
C2
100
AcDbEntity
8
1
62
256
6
ByLayer
370
18
48
1
60
0
100
AcDbSpline
70
4
71
3
72
10
73
6
40
0
40
0
40
0
40
0
40
0.5
40
0.5
40
1
40
1
40
1
40
1
41
1
10
29.8660928135819
20
0.568905905435656
30
0
41
1
10
29.9000911324192
20
0.496734465220186
30
0
41
1
10
29.9277088075481
20
0.423787568065819
30
0
41
1
10
29.9707607297599
20
0.276413088696188
30
0
41
1
10
29.9862406606707
20
0.201565369627787
30
0
41
1
10
29.9960282093019
20
0.127188220748934
30
0
0
SPLINE
5
C3
100
AcDbEntity
8
1
62
256
6
ByLayer
370
18
48
1
60
0
100
AcDbSpline
70
4
71
3
72
28
73
24
40
0
40
0
40
0
40
0
40
0.0971411334306397
40
0.0971411334306397
40
0.147920598390241
40
0.147920598390241
40
0.198700063349842
40
0.198700063349842
40
0.401817923188249
40
0.401817923188249
40
0.452597388147852
40
0.452597388147852
40
0.503376853107455
40
0.503376853107455
40
0.604935783026661
40
0.604935783026661
40
0.808053642865072
40
0.808053642865072
40
0.858833107824675
40
0.858833107824675
40
0.909612572784278
40
0.909612572784278
40
1
40
1
40
1
40
1
41
1
10
8.9954363327092
20
1.59764587381352
30
0
41
1
10
9.21117472875972
20
1.51746474363179
30
0
41
1
10
9.42741780352509
20
1.42831735335991
30
0
41
1
10
9.75881888097013
20
1.28031006155459
30
0
41
1
10
9.87304509083424
20
1.22727739396635
30
0
41
1
10
10.1002108566903
20
1.1183510551586
30
0
41
1
10
10.21343375149
20
1.06230889722693
30
0
41
1
10
10.77827111083
20
0.775085862438658
30
0
41
1
10
11.226035515719
20
0.522966113416942
30
0
41
1
10
11.791103883261
20
0.197261889624741
30
0
41
1
10
11.9043679063981
20
0.131563619727984
30
0
41
1
10
12.1316440342461
20
-0.0005292635860883
30
0
41
1
10
12.2459017029489
20
-0.0670688478812451
30
0
41
1
10
12.586841553938
20
-0.265123809497453
30
0
41
1
10
12.8125512306588
20
-0.395473047889283
30
0
41
1
10
13.4882260012224
20
-0.775983876836449
30
0
41
1
10
13.936403600906
20
-1.01638420628194
30
0
41
1
10
14.5040792579875
20
-1.28314364147823
30
0
41
1
10
14.6182634303094
20
-1.33492964388032
30
0
41
1
10
14.8458923416327
20
-1.43399800898723
30
0
41
1
10
14.9593715326971
20
-1.48130203984846
30
0
41
1
10
15.274289215597
20
-1.6062286669746
30
0
41
1
10
15.475293969418
20
-1.67876227067285
30
0
41
1
10
15.6763439820792
20
-1.74310819010697
30
0
0
SPLINE
5
C4
100
AcDbEntity
8
1
62
256
6
ByLayer
370
13
48
1
60
0
100
AcDbSpline
70
4
71
3
72
18
73
14
40
0
40
0
40
0
40
0
40
0.024046363557668
40
0.024046363557668
40
0.242649269235573
40
0.242649269235573
40
0.351950722074528
40
0.351950722074528
40
0.461252174913484
40
0.461252174913484
40
0.898457986269303
40
0.898457986269303
40
1
40
1
40
1
40
1
41
1
10
15.6763439820915
20
-1.74310819011092
30
0
41
1
10
15.701192911072
20
-1.75106107288386
30
0
41
1
10
15.7260425314225
20
-1.75888888131473
30
0
41
1
10
15.9768172805604
20
-1.83660239099214
30
0
41
1
10
16.2029228055159
20
-1.89612433388629
30
0
41
1
10
16.5441302856921
20
-1.96803440255678
30
0
41
1
10
16.6583550666855
20
-1.98916113868614
30
0
41
1
10
16.8857593764579
20
-2.02518453866244
30
0
41
1
10
16.9991251049702
20
-2.04012454537607
30
0
41
1
10
17.5649234883176
20
-2.09941494524227
30
0
41
1
10
18.0151542381279
20
-2.09739092326464
30
0
41
1
10
18.5757448464953
20
-2.03281473843481
30
0
41
1
10
18.6817317826714
20
-2.01794646143202
30
0
41
1
10
18.787292702387
20
-2.00053702554308
30
0
0
SPLINE
5
C5
100
AcDbEntity
8
1
62
256
6
ByLayer
370
18
48
1
60
0
100
AcDbSpline
70
4
71
3
72
10
73
6
40
0
40
0
40
0
40
0
40
0.5
40
0.5
40
1
40
1
40
1
40
1
41
1
10
29.4118410894141
20
2.02025389915053
30
0
41
1
10
29.3964347803938
20
2.0383532418256
30
0
41
1
10
29.3806576549878
20
2.05356173156082
30
0
41
1
10
29.3489465887425
20
2.0774943649368
30
0
41
1
10
29.3329844008481
20
2.08628894071586
30
0
41
1
10
29.316867410267
20
2.09199622378631
30
0
0
SPLINE
5
C6
100
AcDbEntity
8
1
62
256
6
ByLayer
370
13
48
1
60
0
100
AcDbSpline
70
4
71
3
72
29
73
25
40
0
40
0
40
0
40
0
40
0.0255432682275194
40
0.0255432682275194
40
0.100501478363864
40
0.100501478363864
40
0.250417898636553
40
0.250417898636553
40
0.325376108772898
40
0.325376108772898
40
0.400334318909243
40
0.475292529045588
40
0.475292529045588
40
0.550250739181932
40
0.550250739181932
40
0.625208949318277
40
0.625208949318277
40
0.700167159454622
40
0.700167159454622
40
0.850083579727311
40
0.850083579727311
40
0.925041789863655
40
0.925041789863655
40
1
40
1
40
1
40
1
41
1
10
7.66188809571923
20
-1.98154832405427
30
0
41
1
10
7.66188512799323
20
-1.98172404496216
30
0
41
1
10
7.66188205642965
20
-1.98153290176913
30
0
41
1
10
7.66186966205063
20
-1.97932894936187
30
0
41
1
10
7.66185977639955
20
-1.97454769229469
30
0
41
1
10
7.66182968633382
20
-1.9510502991902
30
0
41
1
10
7.66180906711909
20
-1.92326670490138
30
0
41
1
10
7.66178256901378
20
-1.86286786122292
30
0
41
1
10
7.6617745266536
20
-1.83965930499468
30
0
41
1
10
7.66176095005676
20
-1.78796466503235
30
0
41
1
10
7.66174979269374
20
-1.73080636824042
30
0
41
1
10
7.66174450146258
20
-1.6628580538416
30
0
41
1
10
7.66174257555528
20
-1.58942989696825
30
0
41
1
10
7.6617433099793
20
-1.54979860764072
30
0
41
1
10
7.66174842960214
20
-1.46583942567389
30
0
41
1
10
7.66175279568938
20
-1.42155050175546
30
0
41
1
10
7.6617651541242
20
-1.32835072735983
30
0
41
1
10
7.66177315269545
20
-1.27950716588521
30
0
41
1
10
7.66180179733078
20
-1.12875595852248
30
0
41
1
10
7.66182722889738
20
-1.02185809626081
30
0
41
1
10
7.66187208509231
20
-0.852087873085537
30
0
41
1
10
7.66188814607372
20
-0.793916423038894
30
0
41
1
10
7.66192187230902
20
-0.674303944792086
30
0
41
1
10
7.66193956510909
20
-0.612770666577603
30
0
41
1
10
7.66195733879496
20
-0.550696822240553
30
0
0
SPLINE
5
C7
100
AcDbEntity
8
1
62
256
6
ByLayer
370
18
48
1
60
0
100
AcDbSpline
70
4
71
3
72
24
73
20
40
0
40
0
40
0
40
0
40
0.0624999999999983
40
0.0624999999999983
40
0.124999999999997
40
0.124999999999997
40
0.187499999999995
40
0.187499999999995
40
0.249999999999993
40
0.249999999999993
40
0.374999999999994
40
0.374999999999994
40
0.499999999999996
40
0.499999999999996
40
0.624999999999997
40
0.624999999999997
40
0.749999999999998
40
0.749999999999998
40
1
40
1
40
1
40
1
41
1
10
27.3161427714011
20
0.878463071360954
30
0
41
1
10
27.3048674799828
20
0.819580743689158
30
0
41
1
10
27.2978317359376
20
0.7588227013172
30
0
41
1
10
27.2928003444488
20
0.63330698156588
30
0
41
1
10
27.2949270109233
20
0.568660416974552
30
0
41
1
10
27.3080255297299
20
0.440443705292125
30
0
41
1
10
27.3189492632489
20
0.376240107664444
30
0
41
1
10
27.3490875251642
20
0.247652403828312
30
0
41
1
10
27.3684640366008
20
0.182994481450805
30
0
41
1
10
27.4361478220893
20
-0.0050518257873762
30
0
41
1
10
27.4942585713687
20
-0.124787766518608
30
0
41
1
10
27.6309262156036
20
-0.354813315108061
30
0
41
1
10
27.7071559539277
20
-0.461141041718065
30
0
41
1
10
27.8711424289335
20
-0.661117468492449
30
0
41
1
10
27.9594769975251
20
-0.755217476901151
30
0
41
1
10
28.1429514020831
20
-0.930688558435321
30
0
41
1
10
28.2374552507045
20
-1.01155364806166
30
0
41
1
10
28.5275408901359
20
-1.23782337943103
30
0
41
1
10
28.7299996588705
20
-1.36749003665693
30
0
41
1
10
28.9383328252294
20
-1.47969068846089
30
0
0
SPLINE
5
C8
100
AcDbEntity
8
1
62
256
6
ByLayer
370
18
48
1
60
0
100
AcDbSpline
70
4
71
3
72
16
73
12
40
0
40
0
40
0
40
0
40
0.249999999999998
40
0.249999999999998
40
0.375000000000001
40
0.375000000000001
40
0.500000000000003
40
0.500000000000003
40
0.750000000000002
40
0.750000000000002
40
1
40
1
40
1
40
1
41
1
10
28.9383328252276
20
-1.47969068846092
30
0
41
1
10
28.9682206268764
20
-1.56629741549773
30
0
41
1
10
28.9992164334037
20
-1.64225900557508
30
0
41
1
10
29.0470256410138
20
-1.74093137384912
30
0
41
1
10
29.0631861374703
20
-1.77125798699569
30
0
41
1
10
29.095949815619
20
-1.8266752032093
30
0
41
1
10
29.1125768786328
20
-1.85176134701732
30
0
41
1
10
29.1620953427855
20
-1.91756955415292
30
0
41
1
10
29.1949589954765
20
-1.94955356291462
30
0
41
1
10
29.2606542024374
20
-1.98993935383527
30
0
41
1
10
29.293650872905
20
-1.99819504178399
30
0
41
1
10
29.326042740027
20
-1.99381689050884
30
0
0
LINE
5
76
100
AcDbEntity
8
81
62
256
6
ByLayer
370
18
48
1
60
0
100
AcDbLine
10
30
20
0
30
0
11
35
21
0
31
0
39
0
210
0
220
0
230
1
0
LINE
5
77
100
AcDbEntity
8
1
62
256
6
ByLayer
370
18
48
1
60
0
100
AcDbLine
10
0
20
-3
30
0
11
0.9
21
-2.08218
31
0
39
0
210
0
220
0
230
1
0
LINE
5
79
100
AcDbEntity
8
1
62
256
6
ByLayer
370
18
48
1
60
0
100
AcDbLine
10
0.9
20
2.08218
30
0
11
0
21
3
31
0
39
0
210
0
220
0
230
1
0
LINE
5
7A
100
AcDbEntity
8
1
62
256
6
ByLayer
370
18
48
1
60
0
100
AcDbLine
10
7.458224
20
2.086279
30
0
11
0.9
21
2.08218
31
0
39
0
210
0
220
0
230
1
0
LINE
5
7B
100
AcDbEntity
8
1
62
256
6
ByLayer
370
18
48
1
60
0
100
AcDbLine
10
17.756474
20
2.092716
30
0
11
17.173285
21
2.092351
31
0
39
0
210
0
220
0
230
1
0
LINE
5
7C
100
AcDbEntity
8
1
62
256
6
ByLayer
370
18
48
1
60
0
100
AcDbLine
10
29.005786
20
2.099746
30
0
11
28.42136
21
2.099381
31
0
39
0
210
0
220
0
230
1
0
LINE
5
7D
100
AcDbEntity
8
1
62
256
6
ByLayer
370
18
48
1
60
0
100
AcDbLine
10
28.42136
20
-2.099381
30
0
11
29.005805
21
-2.099746
31
0
39
0
210
0
220
0
230
1
0
LINE
5
7E
100
AcDbEntity
8
1
62
256
6
ByLayer
370
18
48
1
60
0
100
AcDbLine
10
17.173285
20
-2.092351
30
0
11
17.756425
21
-2.092715
31
0
39
0
210
0
220
0
230
1
0
LINE
5
7F
100
AcDbEntity
8
1
62
256
6
ByLayer
370
18
48
1
60
0
100
AcDbLine
10
0.9
20
-2.08218
30
0
11
7.458224
21
-2.086279
31
0
39
0
210
0
220
0
230
1
0
LINE
5
80
100
AcDbEntity
8
SK1
62
256
6
ByLayer
370
18
48
1
60
0
100
AcDbLine
10
-35.278312
20
3
30
0
11
-36
21
1.75
31
0
39
0
210
0
220
0
230
1
0
LINE
5
82
100
AcDbEntity
8
SK1
62
256
6
ByLayer
370
18
48
1
60
0
100
AcDbLine
10
-36
20
-1.75
30
0
11
-35.278312
21
-3
31
0
39
0
210
0
220
0
230
1
0
LINE
5
83
100
AcDbEntity
8
SK1
62
256
6
ByLayer
370
18
48
1
60
0
100
AcDbLine
10
0
20
3
30
0
11
-35.278312
21
3
31
0
39
0
210
0
220
0
230
1
0
LINE
5
84
100
AcDbEntity
8
SK1
62
256
6
ByLayer
370
18
48
1
60
0
100
AcDbLine
10
-35.278312
20
-3
30
0
11
0
21
-3
31
0
39
0
210
0
220
0
230
1
0
LINE
5
85
100
AcDbEntity
8
SK4
62
256
6
ByLayer
370
18
48
0.05
60
0
100
AcDbLine
10
35
20
0
30
0
11
-41
21
0
31
0
39
0
210
0
220
0
230
1
0
LINE
5
87
100
AcDbEntity
8
4
62
256
6
ByLayer
370
18
48
0.05
60
0
100
AcDbLine
10
30
20
0
30
0
11
0
21
0
31
0
39
0
210
0
220
0
230
1
0
LINE
5
89
100
AcDbEntity
8
80
62
256
6
ByLayer
370
18
48
1
60
0
100
AcDbLine
10
0
20
0
30
0
11
-5
21
0
31
0
39
0
210
0
220
0
230
1
0
LINE
5
8A
100
AcDbEntity
8
1
62
256
6
ByLayer
370
18
48
1
60
0
100
AcDbLine
10
0
20
-3
30
0
11
0
21
3
31
0
39
0
210
0
220
0
230
1
0
LINE
5
8B
100
AcDbEntity
8
1
62
256
6
ByLayer
370
13
48
1
60
0
100
AcDbLine
10
29.210331
20
0.575861
30
0
11
29.995535
21
0.078808
31
0
39
0
210
0
220
0
230
1
0
LINE
5
8C
100
AcDbEntity
8
1
62
256
6
ByLayer
370
18
48
1
60
0
100
AcDbLine
10
0.9
20
2.08218
30
0
11
0.9
21
-2.08218
31
0
39
0
210
0
220
0
230
1
0
LINE
5
8D
100
AcDbEntity
8
1
62
256
6
ByLayer
370
13
48
1
60
0
100
AcDbLine
10
29.11892
20
0.514114
30
0
11
29.977813
21
-0.029586
31
0
39
0
210
0
220
0
230
1
0
LINE
5
8E
100
AcDbEntity
8
SK1
62
256
6
ByLayer
370
18
48
1
60
0
100
AcDbLine
10
-36
20
1.75
30
0
11
-36
21
-1.75
31
0
39
0
210
0
220
0
230
1
0
LINE
5
8F
100
AcDbEntity
8
SK1
62
256
6
ByLayer
370
18
48
1
60
0
100
AcDbLine
10
0
20
-3
30
0
11
0
21
3
31
0
39
0
210
0
220
0
230
1
0
LINE
5
90
100
AcDbEntity
8
SK1
62
256
6
ByLayer
370
18
48
1
60
0
100
AcDbLine
10
-35.278312
20
3
30
0
11
-35.278312
21
-3
31
0
39
0
210
0
220
0
230
1
0
MTEXT
5
C9
100
AcDbEntity
8
SK6
62
256
6
ByLayer
370
13
48
1
60
0
100
AcDbMText
10
-0.870831
20
34.482694
30
0
210
0
220
0
230
1
1
\W0.7585;460.1-0420-013A0-XM GC34
40
3.5
41
0
44
1.084337
50
0
71
8
72
5
7
iso_b_vert
0
DIMENSION
5
D6
100
AcDbEntity
8
SK2
62
256
6
ByLayer
370
13
48
1
60
0
100
AcDbDimension
2
DimnDraft3D1
10
29.3901
20
-12.313398
30
0
11
13.640159
21
-12.313398
31
0
70
32
71
5
72
1
41
1
210
0
220
0
230
1
3
Standard
100
AcDbAlignedDimension
13
0
23
-1.5875
33
0
14
29.3901
24
-3.6875
34
0
50
0
100
AcDbRotatedDimension
1001
ACAD
1000
DSTYLE
1002
{
1070
   279
1070
     0
1070
   172
1070
     1
1070
   173
1070
     1
1070
   340
1005
CA
1070
   271
1070
     2
1070
   272
1070
     2
1070
    77
1070
     1
1070
    73
1070
     0
1070
   171
1070
     3
1070
   274
1070
     4
1070
   177
1070
    35
1070
   176
1070
    35
1070
   178
1070
    35
1070
    48
1040
-0.005
1070
    41
1041
3.5
1070
   147
1041
1.75
1070
    42
1041
1.5875
1070
    44
1041
2.0
1070
   140
1041
3.5
1070
   343
1005
0
1070
   344
1005
0
1002
}
0
DIMENSION
5
E0
100
AcDbEntity
8
SK2
62
256
6
ByLayer
370
13
48
1
60
0
100
AcDbDimension
2
DimnDraft3D2
10
30
20
-31.692985
30
0
11
-2.2686
21
-31.692985
31
0
70
32
71
5
72
1
41
1
210
0
220
0
230
1
3
Standard
100
AcDbAlignedDimension
13
-36
23
-4.5875
33
0
14
30
24
-1.5875
34
0
50
0
100
AcDbRotatedDimension
1001
ACAD
1000
DSTYLE
1002
{
1070
   279
1070
     0
1070
   172
1070
     1
1070
   173
1070
     1
1070
   340
1005
CA
1070
   271
1070
     2
1070
   272
1070
     2
1070
    77
1070
     1
1070
    73
1070
     0
1070
   171
1070
     3
1070
   274
1070
     4
1070
   177
1070
    35
1070
   176
1070
    35
1070
   178
1070
    35
1070
    48
1040
-0.005
1070
    41
1041
3.5
1070
   147
1041
1.75
1070
    42
1041
1.5875
1070
    44
1041
2.0
1070
   140
1041
3.5
1070
   343
1005
0
1070
   344
1005
0
1002
}
0
DIMENSION
5
EA
100
AcDbEntity
8
SK2
62
256
6
ByLayer
370
13
48
1
60
0
100
AcDbDimension
2
DimnDraft3D3
10
30
20
13.709119
30
0
11
23.4
21
13.709119
31
0
70
32
71
5
72
1
41
1
210
0
220
0
230
1
3
Standard
100
AcDbAlignedDimension
13
16.8
23
3.6875
33
0
14
30
24
1.5875
34
0
50
0
100
AcDbRotatedDimension
1001
ACAD
1000
DSTYLE
1002
{
1070
   279
1070
     0
1070
   172
1070
     1
1070
   173
1070
     1
1070
   340
1005
CA
1070
   271
1070
     2
1070
   272
1070
     2
1070
    77
1070
     1
1070
    73
1070
     0
1070
   171
1070
     3
1070
   274
1070
     4
1070
   177
1070
    35
1070
   176
1070
    35
1070
   178
1070
    35
1070
    48
1040
-0.005
1070
    41
1041
3.5
1070
   147
1041
1.75
1070
    42
1041
1.5875
1070
    44
1041
2.0
1070
   140
1041
3.5
1070
   343
1005
0
1070
   344
1005
0
1002
}
0
DIMENSION
5
F4
100
AcDbEntity
8
SK2
62
256
6
ByLayer
370
13
48
1
60
0
100
AcDbDimension
2
DimnDraft3D4
10
29.3901
20
-14.902503
30
0
11
39.981425
21
-14.902503
31
0
70
32
71
5
72
1
41
1
210
0
220
0
230
1
3
Standard
100
AcDbAlignedDimension
13
30
23
-1.5875
33
0
14
29.3901
24
-3.6875
34
0
50
0
100
AcDbRotatedDimension
1001
ACAD
1000
DSTYLE
1002
{
1070
   279
1070
     0
1070
   172
1070
     1
1070
   173
1070
     1
1070
   340
1005
CA
1070
   271
1070
     2
1070
   272
1070
     2
1070
    77
1070
     1
1070
    73
1070
     0
1070
   171
1070
     3
1070
   274
1070
     4
1070
   177
1070
    35
1070
   176
1070
    35
1070
   178
1070
    35
1070
    48
1040
-0.005
1070
    41
1041
3.5
1070
   147
1041
1.75
1070
    42
1041
1.5875
1070
    44
1041
2.0
1070
   140
1041
3.5
1070
   343
1005
0
1070
   344
1005
0
1002
}
0
DIMENSION
5
FE
100
AcDbEntity
8
SK2
62
256
6
ByLayer
370
13
48
1
60
0
100
AcDbDimension
2
DimnDraft3D5
10
29.3901
20
-21.343428
30
0
11
-5.349224
21
-21.343428
31
0
70
32
71
5
72
1
41
1
210
0
220
0
230
1
3
Standard
100
AcDbAlignedDimension
13
-36
23
-4.5875
33
0
14
29.3901
24
-3.6875
34
0
50
0
100
AcDbRotatedDimension
1001
ACAD
1000
DSTYLE
1002
{
1070
   279
1070
     0
1070
   172
1070
     1
1070
   173
1070
     1
1070
   340
1005
CA
1070
   271
1070
     2
1070
   272
1070
     2
1070
    77
1070
     1
1070
    73
1070
     0
1070
   171
1070
     3
1070
   274
1070
     4
1070
   177
1070
    35
1070
   176
1070
    35
1070
   178
1070
    35
1070
    48
1040
-0.005
1070
    41
1041
3.5
1070
   147
1041
1.75
1070
    42
1041
1.5875
1070
    44
1041
2.0
1070
   140
1041
3.5
1070
   343
1005
0
1070
   344
1005
0
1002
}
0
DIMENSION
5
109
100
AcDbEntity
8
SK2
62
256
6
ByLayer
370
13
48
1
60
0
100
AcDbDimension
2
DimnDraft3D6
10
-46.625163
20
3
30
0
11
-47.250163
21
21.47418
31
0
70
33
71
5
72
1
41
1
210
0
220
0
230
1
3
Standard
100
AcDbAlignedDimension
13
-37.5875
23
-3
33
0
14
-37.5875
24
3
34
0
1001
ACAD
1000
DSTYLE
1002
{
1070
   279
1070
     0
1070
    74
1070
     0
1070
   173
1070
     1
1070
   340
1005
CA
1070
   271
1070
     3
1070
   272
1070
     2
1070
    77
1070
     1
1070
    73
1070
     0
1070
   171
1070
     3
1070
   274
1070
     4
1070
   177
1070
    35
1070
   176
1070
    35
1070
   178
1070
    35
1070
    48
1040
-0.005
1070
    41
1041
3.5
1070
   147
1041
1.75
1070
    42
1041
1.5875
1070
    44
1041
2.0
1070
   140
1041
3.5
1070
   343
1005
0
1070
   344
1005
0
1002
}
0
DIMENSION
5
114
100
AcDbEntity
8
2
62
256
6
ByLayer
370
13
48
1
60
0
100
AcDbDimension
2
DimnDraft3D7
10
44.083343
20
2.1
30
0
11
39.458343
21
19.167266
31
0
70
33
71
5
72
1
41
1
210
0
220
0
230
1
3
Standard
100
AcDbAlignedDimension
13
30.9776
23
-2.1
33
0
14
30.9776
24
2.1
34
0
1001
ACAD
1000
DSTYLE
1002
{
1070
   279
1070
     0
1070
    74
1070
     0
1070
   173
1070
     1
1070
   340
1005
CA
1070
   271
1070
     3
1070
   272
1070
     2
1070
    77
1070
     1
1070
    73
1070
     0
1070
   171
1070
     3
1070
   274
1070
     4
1070
   177
1070
    35
1070
   176
1070
    35
1070
   178
1070
    35
1070
    48
1040
-0.005
1070
    41
1041
3.5
1070
   147
1041
1.75
1070
    42
1041
1.5875
1070
    44
1041
2.0
1070
   140
1041
3.5
1070
   343
1005
0
1070
   344
1005
0
1002
}
0
ENDSEC
0
SECTION
2
OBJECTS
0
DICTIONARY
5
17f
330
0
100
AcDbDictionary
280
0
281
1
3
ACAD_GROUP
350
180
3
ACAD_MLINESTYLE
350
181
0
DICTIONARY
5
180
330
0
100
AcDbDictionary
280
0
281
1
0
DICTIONARY
5
181
330
0
100
AcDbDictionary
280
0
281
1
3
Standard
350
18
0
MLINESTYLE
5
18
330
181
100
AcDbMlineStyle
2
Standard
70
0
3

62
256
51
90
52
90
71
2
49
-0.5
62
256
6
ByLayer
49
0.5
62
256
6
ByLayer
0
RASTERVARIABLES
5
16d
330

100
AcDbRasterVariables
90
0
70
1
71
1
72
1
0
ENDSEC
0
EOF
