0
SECTION
2
HEADER
9
$ACADVER
1
AC1015
9
$DWGCODEPAGE
3
ANSI_1252
9
$HANDSEED
5
196
9
$ANGBASE
50
0
9
$ANGDIR
70
0
9
$ATTMODE
70
1
9
$AUNITS
70
0
9
$AUPREC
70
0
9
$CECOLOR
62
256
9
$CELTSCALE
40
1
9
$CELTYPE
6
ByLayer
9
$CELWEIGHT
370
18
9
$CLAYER
8
0
9
$CMLJUST
70
0
9
$CMLSCALE
40
1
9
$CMLSTYLE
2
Standard
9
$DIMSTYLE
2
Standard
9
$TEXTSIZE
40
0.2
9
$TEXTSTYLE
7
Standard
9
$LUNITS
70
2
9
$LUPREC
70
4
9
$EXTNAMES
290
1
9
$INSUNITS
70
4
9
$LTSCALE
40
1
9
$LWDISPLAY
290
1
9
$PDMODE
70
0
9
$PDSIZE
40
0
9
$PLINEGEN
70
0
0
ENDSEC
0
SECTION
2
CLASSES
0
CLASS
1
RASTERVARIABLES
2
AcDbRasterVariables
3
ISM
90
0
280
0
281
0
0
ENDSEC
0
SECTION
2
TABLES
0
TABLE
2
VPORT
5
18c
100
AcDbSymbolTable
0
VPORT
5
1
100
AcDbSymbolTableRecord
100
AcDbViewportTableRecord
2
*Active
70
0
10
0
20
0
11
1
21
1
12
-1
22
1
13
0
23
0
14
0.5
24
0.5
15
10
25
10
16
0
26
0
36
1
17
0
27
0
37
0
0
ENDTAB
0
TABLE
2
LTYPE
5
18d
100
AcDbSymbolTable
0
LTYPE
5
14
100
AcDbSymbolTableRecord
100
AcDbLinetypeTableRecord
70
0
2
ByBlock
3

72
65
73
0
40
0
0
LTYPE
5
15
100
AcDbSymbolTableRecord
100
AcDbLinetypeTableRecord
70
0
2
ByLayer
3

72
65
73
0
40
0
0
LTYPE
5
16
100
AcDbSymbolTableRecord
100
AcDbLinetypeTableRecord
70
0
2
CONTINUOUS
3
Solid line
72
65
73
0
40
0
0
LTYPE
5
6A
100
AcDbSymbolTableRecord
100
AcDbLinetypeTableRecord
70
0
2
CENTER
3
____ _ ____ _ ____ _ ____
72
65
73
4
40
47.5
49
22
74
0
49
-8.5
74
0
49
8.5
74
0
49
-8.5
74
0
0
LTYPE
5
6B
100
AcDbSymbolTableRecord
100
AcDbLinetypeTableRecord
70
0
2
DASHED
3
__ __ __ __ __ __ __ __ __
72
65
73
2
40
25.72
49
12.86
74
0
49
-12.86
74
0
0
ENDTAB
0
TABLE
2
LAYER
5
18e
100
AcDbSymbolTable
0
LAYER
5
10
100
AcDbSymbolTableRecord
100
AcDbLayerTableRecord
2
0
70
0
62
7
6
CONTINUOUS
290
1
370
-3
390
0
0
LAYER
5
6D
100
AcDbSymbolTableRecord
100
AcDbLayerTableRecord
2
81
70
0
62
-3
6
CONTINUOUS
290
1
370
-3
390
0
0
LAYER
5
6F
100
AcDbSymbolTableRecord
100
AcDbLayerTableRecord
2
80
70
0
62
-6
6
CONTINUOUS
290
1
370
-3
390
0
0
LAYER
5
74
100
AcDbSymbolTableRecord
100
AcDbLayerTableRecord
2
2
70
0
62
7
6
CONTINUOUS
290
1
370
-3
390
0
0
LAYER
5
78
100
AcDbSymbolTableRecord
100
AcDbLayerTableRecord
2
1
70
0
62
4
6
CONTINUOUS
290
1
370
-3
390
0
0
LAYER
5
88
100
AcDbSymbolTableRecord
100
AcDbLayerTableRecord
2
4
70
0
62
-2
6
CENTER
290
1
370
-3
390
0
0
LAYER
5
178
100
AcDbSymbolTableRecord
100
AcDbLayerTableRecord
2
SK2
70
0
62
7
6
CONTINUOUS
290
1
370
-3
390
0
0
LAYER
5
179
100
AcDbSymbolTableRecord
100
AcDbLayerTableRecord
2
SK1
70
0
62
4
6
CONTINUOUS
290
1
370
-3
390
0
0
LAYER
5
17a
100
AcDbSymbolTableRecord
100
AcDbLayerTableRecord
2
SK4
70
0
62
2
6
CENTER
290
1
370
-3
390
0
0
LAYER
5
17b
100
AcDbSymbolTableRecord
100
AcDbLayerTableRecord
2
SK6
70
0
62
5
6
CONTINUOUS
290
1
370
-3
390
0
0
ENDTAB
0
TABLE
2
STYLE
5
18f
100
AcDbSymbolTable
0
STYLE
5
11
100
AcDbSymbolTableRecord
100
AcDbTextStyleTableRecord
2
Standard
3
txt
70
0
71
0
40
0
41
1
42
0
50
0
0
STYLE
5
D4
100
AcDbSymbolTableRecord
100
AcDbTextStyleTableRecord
2
iso_b_vert
3
simplex.shx
70
0
71
0
40
0
41
1
42
0
50
0
0
STYLE
5
D5
100
AcDbSymbolTableRecord
100
AcDbTextStyleTableRecord
2
DWGDirectTextStyle
3
simplex
70
0
71
0
40
0
41
1
42
0
50
0
0
ENDTAB
0
TABLE
2
DIMSTYLE
5
190
100
AcDbSymbolTable
100
AcDbDimStyleTable
0
DIMSTYLE
105
27
100
AcDbSymbolTableRecord
100
AcDbDimStyleTableRecord
2
Standard
70
0
3
<>
41
0.18
42
0.0625
44
0.18
140
0.18
147
0.09
73
0
74
0
77
1
271
2
275
0
278
52
280
0
340
11
0
ENDTAB
0
TABLE
2
VIEW
5
191
100
AcDbSymbolTable
0
ENDTAB
0
TABLE
2
UCS
5
192
100
AcDbSymbolTable
0
ENDTAB
0
TABLE
2
APPID
5
193
100
AcDbSymbolTable
0
APPID
5
12
100
AcDbSymbolTableRecord
100
AcDbRegAppTableRecord
2
ACAD
70
0
0
ENDTAB
0
TABLE
2
BLOCK_RECORD
5
194
100
AcDbSymbolTable
0
BLOCK_RECORD
5
1F
100
AcDbSymbolTableRecord
100
AcDbBlockTableRecord
2
*Model_Space
340
0
70
0
0
BLOCK_RECORD
5
1B
100
AcDbSymbolTableRecord
100
AcDbBlockTableRecord
2
*Paper_Space
340
0
70
0
0
BLOCK_RECORD
5
23
100
AcDbSymbolTableRecord
100
AcDbBlockTableRecord
2
*Paper_Space0
340
0
70
0
0
BLOCK_RECORD
5
D7
100
AcDbSymbolTableRecord
100
AcDbBlockTableRecord
2
DimnDraft3D1
340
0
70
0
0
BLOCK_RECORD
5
E1
100
AcDbSymbolTableRecord
100
AcDbBlockTableRecord
2
DimnDraft3D2
340
0
70
0
0
BLOCK_RECORD
5
EB
100
AcDbSymbolTableRecord
100
AcDbBlockTableRecord
2
DimnDraft3D3
340
0
70
0
0
BLOCK_RECORD
5
F5
100
AcDbSymbolTableRecord
100
AcDbBlockTableRecord
2
DimnDraft3D4
340
0
70
0
0
BLOCK_RECORD
5
FF
100
AcDbSymbolTableRecord
100
AcDbBlockTableRecord
2
DimnDraft3D5
340
0
70
0
0
BLOCK_RECORD
5
109
100
AcDbSymbolTableRecord
100
AcDbBlockTableRecord
2
DimnDraft3D6
340
0
70
0
0
BLOCK_RECORD
5
114
100
AcDbSymbolTableRecord
100
AcDbBlockTableRecord
2
DimnDraft3D7
340
0
70
0
0
ENDTAB
0
ENDSEC
0
SECTION
2
BLOCKS
0
BLOCK
5
20
100
AcDbEntity
8
0
100
AcDbBlockBegin
2
*Model_Space
70
0
10
0
20
0
30
0
3
*Model_Space
0
ENDBLK
5
21
100
AcDbEntity
8
0
100
AcDbBlockEnd
0
BLOCK
5
1C
100
AcDbEntity
8
0
100
AcDbBlockBegin
2
*Paper_Space
70
0
10
0
20
0
30
0
3
*Paper_Space
0
ENDBLK
5
1D
100
AcDbEntity
8
0
100
AcDbBlockEnd
0
BLOCK
5
24
100
AcDbEntity
8
0
100
AcDbBlockBegin
2
*Paper_Space0
70
0
10
0
20
0
30
0
3
*Paper_Space0
0
ENDBLK
5
25
100
AcDbEntity
8
0
100
AcDbBlockEnd
0
BLOCK
5
DE
100
AcDbEntity
8
0
100
AcDbBlockBegin
2
DimnDraft3D1
70
0
10
0
20
0
30
0
3
DimnDraft3D1
0
MTEXT
5
D8
100
AcDbEntity
8
SK2
62
256
6
ByLayer
370
13
48
1
60
0
100
AcDbMText
10
9.459764
20
-11.388398
30
0
210
0
220
0
230
1
1
\W0.7494;29,41
40
3.5
41
0
44
1.084337
50
0
71
7
72
5
7
iso_b_vert
0
LINE
5
D9
100
AcDbEntity
8
SK2
62
256
6
ByLayer
370
13
48
1
60
0
100
AcDbLine
10
0
20
-1.5875
30
0
11
0
21
-14.263398
31
0
39
0
210
0
220
0
230
1
0
LINE
5
DA
100
AcDbEntity
8
SK2
62
256
6
ByLayer
370
13
48
1
60
0
100
AcDbLine
10
29.4051
20
-3.6375
30
0
11
29.4051
21
-14.263398
31
0
39
0
210
0
220
0
230
1
0
LINE
5
DB
100
AcDbEntity
8
SK2
62
256
6
ByLayer
370
13
48
1
60
0
100
AcDbLine
10
0
20
-12.263398
30
0
11
29.4051
21
-12.263398
31
0
39
0
210
0
220
0
230
1
0
SOLID
5
DC
100
AcDbEntity
8
SK2
62
256
6
ByLayer
370
13
48
1
60
0
100
AcDbTrace
10
0
20
-12.263398
30
0
11
3.499998
21
-11.802615
31
0
12
3.500002
22
-12.724182
32
0
13
0
23
-12.263398
33
0
39
0
210
0
220
0
230
1
0
SOLID
5
DD
100
AcDbEntity
8
SK2
62
256
6
ByLayer
370
13
48
1
60
0
100
AcDbTrace
10
29.4051
20
-12.263398
30
0
11
25.905102
21
-12.724182
31
0
12
25.905098
22
-11.802615
32
0
13
29.4051
23
-12.263398
33
0
39
0
210
0
220
0
230
1
0
ENDBLK
5
DF
100
AcDbEntity
8
0
100
AcDbBlockEnd
0
BLOCK
5
E8
100
AcDbEntity
8
0
100
AcDbBlockBegin
2
DimnDraft3D2
70
0
10
0
20
0
30
0
3
DimnDraft3D2
0
MTEXT
5
E2
100
AcDbEntity
8
SK2
62
256
6
ByLayer
370
13
48
1
60
0
100
AcDbMText
10
-6.702284
20
-30.817985
30
0
210
0
220
0
230
1
1
\W0.7317;66,00
40
3.5
41
0
44
1.084337
50
0
71
7
72
5
7
iso_b_vert
0
LINE
5
E3
100
AcDbEntity
8
SK2
62
256
6
ByLayer
370
13
48
1
60
0
100
AcDbLine
10
-36
20
-4.5875
30
0
11
-36
21
-33.692985
31
0
39
0
210
0
220
0
230
1
0
LINE
5
E4
100
AcDbEntity
8
SK2
62
256
6
ByLayer
370
13
48
1
60
0
100
AcDbLine
10
30
20
-1.5875
30
0
11
30
21
-33.692985
31
0
39
0
210
0
220
0
230
1
0
LINE
5
E5
100
AcDbEntity
8
SK2
62
256
6
ByLayer
370
13
48
1
60
0
100
AcDbLine
10
-36
20
-31.692985
30
0
11
30
21
-31.692985
31
0
39
0
210
0
220
0
230
1
0
SOLID
5
E6
100
AcDbEntity
8
SK2
62
256
6
ByLayer
370
13
48
1
60
0
100
AcDbTrace
10
-36
20
-31.692985
30
0
11
-32.500002
21
-31.232202
31
0
12
-32.499998
22
-32.153769
32
0
13
-36
23
-31.692985
33
0
39
0
210
0
220
0
230
1
0
SOLID
5
E7
100
AcDbEntity
8
SK2
62
256
6
ByLayer
370
13
48
1
60
0
100
AcDbTrace
10
30
20
-31.692985
30
0
11
26.500002
21
-32.153769
31
0
12
26.499998
22
-31.232202
32
0
13
30
23
-31.692985
33
0
39
0
210
0
220
0
230
1
0
ENDBLK
5
E9
100
AcDbEntity
8
0
100
AcDbBlockEnd
0
BLOCK
5
F2
100
AcDbEntity
8
0
100
AcDbBlockBegin
2
DimnDraft3D3
70
0
10
0
20
0
30
0
3
DimnDraft3D3
0
MTEXT
5
EC
100
AcDbEntity
8
SK2
62
256
6
ByLayer
370
13
48
1
60
0
100
AcDbMText
10
19.543816
20
14.534119
30
0
210
0
220
0
230
1
1
\W0.6791;12,89
40
3.5
41
0
44
1.084337
50
0
71
7
72
5
7
iso_b_vert
0
LINE
5
ED
100
AcDbEntity
8
SK2
62
256
6
ByLayer
370
13
48
1
60
0
100
AcDbLine
10
17.11
20
3.6375
30
0
11
17.11
21
15.659119
31
0
39
0
210
0
220
0
230
1
0
LINE
5
EE
100
AcDbEntity
8
SK2
62
256
6
ByLayer
370
13
48
1
60
0
100
AcDbLine
10
30
20
1.5875
30
0
11
30
21
15.659119
31
0
39
0
210
0
220
0
230
1
0
LINE
5
EF
100
AcDbEntity
8
SK2
62
256
6
ByLayer
370
13
48
1
60
0
100
AcDbLine
10
17.11
20
13.659119
30
0
11
30
21
13.659119
31
0
39
0
210
0
220
0
230
1
0
SOLID
5
F0
100
AcDbEntity
8
SK2
62
256
6
ByLayer
370
13
48
1
60
0
100
AcDbTrace
10
17.11
20
13.659119
30
0
11
20.609998
21
14.119903
31
0
12
20.610002
22
13.198335
32
0
13
17.11
23
13.659119
33
0
39
0
210
0
220
0
230
1
0
SOLID
5
F1
100
AcDbEntity
8
SK2
62
256
6
ByLayer
370
13
48
1
60
0
100
AcDbTrace
10
30
20
13.659119
30
0
11
26.500002
21
13.198335
31
0
12
26.499998
22
14.119903
32
0
13
30
23
13.659119
33
0
39
0
210
0
220
0
230
1
0
ENDBLK
5
F3
100
AcDbEntity
8
0
100
AcDbBlockEnd
0
BLOCK
5
FC
100
AcDbEntity
8
0
100
AcDbBlockBegin
2
DimnDraft3D4
70
0
10
0
20
0
30
0
3
DimnDraft3D4
0
MTEXT
5
F6
100
AcDbEntity
8
SK2
62
256
6
ByLayer
370
13
48
1
60
0
100
AcDbMText
10
36.840636
20
-13.977503
30
0
210
0
220
0
230
1
1
\W0.7259;0,59
40
3.5
41
0
44
1.084337
50
0
71
7
72
5
7
iso_b_vert
0
LINE
5
F7
100
AcDbEntity
8
SK2
62
256
6
ByLayer
370
13
48
1
60
0
100
AcDbLine
10
30
20
-1.5875
30
0
11
30
21
-16.852503
31
0
39
0
210
0
220
0
230
1
0
LINE
5
F8
100
AcDbEntity
8
SK2
62
256
6
ByLayer
370
13
48
1
60
0
100
AcDbLine
10
29.4051
20
-3.6375
30
0
11
29.4051
21
-16.852503
31
0
39
0
210
0
220
0
230
1
0
LINE
5
F9
100
AcDbEntity
8
SK2
62
256
6
ByLayer
370
13
48
1
60
0
100
AcDbLine
10
20.6551
20
-14.852503
30
0
11
43.997215
21
-14.852503
31
0
39
0
210
0
220
0
230
1
0
SOLID
5
FA
100
AcDbEntity
8
SK2
62
256
6
ByLayer
370
13
48
1
60
0
100
AcDbTrace
10
30
20
-14.852503
30
0
11
33.499998
21
-14.391719
31
0
12
33.500002
22
-15.313287
32
0
13
30
23
-14.852503
33
0
39
0
210
0
220
0
230
1
0
SOLID
5
FB
100
AcDbEntity
8
SK2
62
256
6
ByLayer
370
13
48
1
60
0
100
AcDbTrace
10
29.4051
20
-14.852503
30
0
11
25.905102
21
-15.313287
31
0
12
25.905098
22
-14.391719
32
0
13
29.4051
23
-14.852503
33
0
39
0
210
0
220
0
230
1
0
ENDBLK
5
FD
100
AcDbEntity
8
0
100
AcDbBlockEnd
0
BLOCK
5
106
100
AcDbEntity
8
0
100
AcDbBlockBegin
2
DimnDraft3D5
70
0
10
0
20
0
30
0
3
DimnDraft3D5
0
MTEXT
5
100
100
AcDbEntity
8
SK2
62
256
6
ByLayer
370
13
48
1
60
0
100
AcDbMText
10
-9.529618
20
-20.468428
30
0
210
0
220
0
230
1
1
\W0.7494;65,41
40
3.5
41
0
44
1.084337
50
0
71
7
72
5
7
iso_b_vert
0
LINE
5
101
100
AcDbEntity
8
SK2
62
256
6
ByLayer
370
13
48
1
60
0
100
AcDbLine
10
-36
20
-4.5875
30
0
11
-36
21
-23.343428
31
0
39
0
210
0
220
0
230
1
0
LINE
5
102
100
AcDbEntity
8
SK2
62
256
6
ByLayer
370
13
48
1
60
0
100
AcDbLine
10
29.4051
20
-3.6375
30
0
11
29.4051
21
-23.343428
31
0
39
0
210
0
220
0
230
1
0
LINE
5
103
100
AcDbEntity
8
SK2
62
256
6
ByLayer
370
13
48
1
60
0
100
AcDbLine
10
-36
20
-21.343428
30
0
11
29.4051
21
-21.343428
31
0
39
0
210
0
220
0
230
1
0
SOLID
5
104
100
AcDbEntity
8
SK2
62
256
6
ByLayer
370
13
48
1
60
0
100
AcDbTrace
10
-36
20
-21.343428
30
0
11
-32.500002
21
-20.882645
31
0
12
-32.499998
22
-21.804212
32
0
13
-36
23
-21.343428
33
0
39
0
210
0
220
0
230
1
0
SOLID
5
105
100
AcDbEntity
8
SK2
62
256
6
ByLayer
370
13
48
1
60
0
100
AcDbTrace
10
29.4051
20
-21.343428
30
0
11
25.905102
21
-21.804212
31
0
12
25.905098
22
-20.882645
32
0
13
29.4051
23
-21.343428
33
0
39
0
210
0
220
0
230
1
0
ENDBLK
5
107
100
AcDbEntity
8
0
100
AcDbBlockEnd
0
BLOCK
5
111
100
AcDbEntity
8
0
100
AcDbBlockBegin
2
DimnDraft3D6
70
0
10
0
20
0
30
0
3
DimnDraft3D6
0
MTEXT
5
10A
100
AcDbEntity
8
SK2
62
256
6
ByLayer
370
13
48
1
60
0
100
AcDbMText
10
-46.375163
20
22.34918
30
0
210
0
220
0
230
1
1
\W0.7317;6,000
40
3.5
41
0
44
1.084337
50
90
71
7
72
5
7
iso_b_vert
0
MTEXT
5
10B
100
AcDbEntity
8
SK2
62
256
6
ByLayer
370
13
48
1
60
0
100
AcDbMText
10
-46.375163
20
17.126524
30
0
210
0
220
0
230
1
1
%%c
40
3.5
41
0
44
1.084337
50
90
71
7
72
5
7
iso_b_vert
0
LINE
5
10C
100
AcDbEntity
8
SK2
62
256
6
ByLayer
370
13
48
1
60
0
100
AcDbLine
10
-37.5875
20
-3
30
0
11
-46.625163
21
-3
31
0
39
0
210
0
220
0
230
1
0
LINE
5
10D
100
AcDbEntity
8
SK2
62
256
6
ByLayer
370
13
48
1
60
0
100
AcDbLine
10
-37.5875
20
3
30
0
11
-46.625163
21
3
31
0
39
0
210
0
220
0
230
1
0
LINE
5
10E
100
AcDbEntity
8
SK2
62
256
6
ByLayer
370
13
48
1
60
0
100
AcDbLine
10
-44.625163
20
32.121549
30
0
11
-44.625163
21
-11.75
31
0
39
0
210
0
220
0
230
1
0
SOLID
5
10F
100
AcDbEntity
8
SK2
62
256
6
ByLayer
370
13
48
1
60
0
100
AcDbTrace
10
-44.625163
20
-3
30
0
11
-44.164379
21
-6.499998
31
0
12
-45.085946
22
-6.500002
32
0
13
-44.625163
23
-3
33
0
39
0
210
0
220
0
230
1
0
SOLID
5
110
100
AcDbEntity
8
SK2
62
256
6
ByLayer
370
13
48
1
60
0
100
AcDbTrace
10
-44.625163
20
3
30
0
11
-45.085946
21
6.499998
31
0
12
-44.164379
22
6.500002
32
0
13
-44.625163
23
3
33
0
39
0
210
0
220
0
230
1
0
ENDBLK
5
112
100
AcDbEntity
8
0
100
AcDbBlockEnd
0
BLOCK
5
11C
100
AcDbEntity
8
0
100
AcDbBlockBegin
2
DimnDraft3D7
70
0
10
0
20
0
30
0
3
DimnDraft3D7
0
MTEXT
5
115
100
AcDbEntity
8
2
62
256
6
ByLayer
370
13
48
1
60
0
100
AcDbMText
10
40.333343
20
19.992266
30
0
210
0
220
0
230
1
1
\W0.6977;4,100
40
3.5
41
0
44
1.084337
50
90
71
7
72
5
7
iso_b_vert
0
MTEXT
5
116
100
AcDbEntity
8
2
62
256
6
ByLayer
370
13
48
1
60
0
100
AcDbMText
10
40.333343
20
14.76961
30
0
210
0
220
0
230
1
1
%%c
40
3.5
41
0
44
1.084337
50
90
71
7
72
5
7
iso_b_vert
0
LINE
5
117
100
AcDbEntity
8
2
62
256
6
ByLayer
370
13
48
1
60
0
100
AcDbLine
10
30.9926
20
-2.05
30
0
11
44.083343
21
-2.05
31
0
39
0
210
0
220
0
230
1
0
LINE
5
118
100
AcDbEntity
8
2
62
256
6
ByLayer
370
13
48
1
60
0
100
AcDbLine
10
30.9926
20
2.05
30
0
11
44.083343
21
2.05
31
0
39
0
210
0
220
0
230
1
0
LINE
5
119
100
AcDbEntity
8
2
62
256
6
ByLayer
370
13
48
1
60
0
100
AcDbLine
10
42.083343
20
29.258056
30
0
11
42.083343
21
-10.8
31
0
39
0
210
0
220
0
230
1
0
SOLID
5
11A
100
AcDbEntity
8
2
62
256
6
ByLayer
370
13
48
1
60
0
100
AcDbTrace
10
42.083343
20
-2.05
30
0
11
42.544126
21
-5.549998
31
0
12
41.622559
22
-5.550002
32
0
13
42.083343
23
-2.05
33
0
39
0
210
0
220
0
230
1
0
SOLID
5
11B
100
AcDbEntity
8
2
62
256
6
ByLayer
370
13
48
1
60
0
100
AcDbTrace
10
42.083343
20
2.05
30
0
11
41.622559
21
5.549998
31
0
12
42.544126
22
5.550002
32
0
13
42.083343
23
2.05
33
0
39
0
210
0
220
0
230
1
0
ENDBLK
5
11D
100
AcDbEntity
8
0
100
AcDbBlockEnd
0
ENDSEC
0
SECTION
2
ENTITIES
0
ELLIPSE
5
95
100
AcDbEntity
8
1
62
256
6
ByLayer
370
18
48
1
60
0
100
AcDbEllipse
10
7.676386
20
-2.184121
30
0
11
-0.25
21
3.06151588455594E-17
31
0
210
0
220
0
230
1
40
1
41
-1.57135049398494
42
-0.665888277451143
0
ELLIPSE
5
96
100
AcDbEntity
8
1
62
256
6
ByLayer
370
18
48
1
60
0
100
AcDbEllipse
10
7.676386
20
2.184121
30
0
11
-0.25
21
3.06151588455594E-17
31
0
210
0
220
0
230
1
40
1
41
0.664209462170867
42
1.23017346545013
0
POINT
5
6C
100
AcDbEntity
8
81
62
256
6
ByLayer
370
18
48
1
60
0
100
AcDbPoint
10
30
20
0
30
0
39
0
210
0
220
0
230
1
50
360
0
POINT
5
6E
100
AcDbEntity
8
80
62
256
6
ByLayer
370
18
48
1
60
0
100
AcDbPoint
10
0
20
0
30
0
39
0
210
0
220
0
230
1
50
360
0
POINT
5
70
100
AcDbEntity
8
SK2
62
256
6
ByLayer
370
18
48
1
60
1
100
AcDbPoint
10
-36
20
-3
30
0
39
0
210
0
220
0
230
1
50
360
0
POINT
5
72
100
AcDbEntity
8
SK2
62
256
6
ByLayer
370
18
48
1
60
1
100
AcDbPoint
10
-36
20
3
30
0
39
0
210
0
220
0
230
1
50
360
0
POINT
5
73
100
AcDbEntity
8
2
62
256
6
ByLayer
370
18
48
1
60
1
100
AcDbPoint
10
29.4051
20
-2.05
30
0
39
0
210
0
220
0
230
1
50
360
0
POINT
5
75
100
AcDbEntity
8
2
62
256
6
ByLayer
370
18
48
1
60
1
100
AcDbPoint
10
29.4051
20
2.05
30
0
39
0
210
0
220
0
230
1
50
360
0
SPLINE
5
97
100
AcDbEntity
8
1
62
256
6
ByLayer
370
18
48
1
60
0
100
AcDbSpline
70
4
71
3
72
18
73
14
40
0
40
0
40
0
40
0
40
0.102223201411123
40
0.201152252629976
40
0.275936975787725
40
0.351020736005726
40
0.427494056507158
40
0.504795858080452
40
0.597280484471449
40
0.681209664792145
40
0.766553663756545
40
0.889267292858686
40
1
40
1
40
1
40
1
41
1
10
7.67662771376607
20
-1.93394107737618
30
0
41
1
10
7.82622194103047
20
-1.9340658450478
30
0
41
1
10
8.12058771025292
20
-1.93432529414798
30
0
41
1
10
8.52430946461311
20
-1.93415785354185
30
0
41
1
10
8.88844361118228
20
-1.93492430690597
30
0
41
1
10
9.21969058166093
20
-1.93483019282544
30
0
41
1
10
9.55462708510322
20
-1.93446371644791
30
0
41
1
10
9.91502373663207
20
-1.93437846877231
30
0
41
1
10
10.2863356711473
20
-1.93574445945862
30
0
41
1
10
10.6694147300067
20
-1.93556838375673
30
0
41
1
10
11.0967302871265
20
-1.93499521529719
30
0
41
1
10
11.5632770182405
20
-1.93662725502358
30
0
41
1
10
11.9049189247083
20
-1.93627007827948
30
0
41
1
10
12.0669726350265
20
-1.93601554317149
30
0
0
SPLINE
5
98
100
AcDbEntity
8
1
62
256
6
ByLayer
370
18
48
1
60
0
100
AcDbSpline
70
4
71
3
72
17
73
13
40
0
40
0
40
0
40
0
40
0.0997168386088499
40
0.209929675064991
40
0.28144158365539
40
0.340537868296281
40
0.400174548621462
40
0.634465791228202
40
0.738259597607777
40
0.834780308472257
40
0.917896020725633
40
1
40
1
40
1
40
1
41
1
10
23.3204420877496
20
1.94283075637344
30
0
41
1
10
23.1697656048986
20
1.94222055733872
30
0
41
1
10
22.8525493533173
20
1.94113612591843
30
0
41
1
10
22.4272606456748
20
1.94426487315914
30
0
41
1
10
22.0633528189101
20
1.94169230900533
30
0
41
1
10
21.775866274157
20
1.94057204155248
30
0
41
1
10
21.2424016059835
20
1.94133293380227
30
0
41
1
10
20.6413844113589
20
1.94192189744893
30
0
41
1
10
19.9846341348155
20
1.94056632937676
30
0
41
1
10
19.5563284279531
20
1.94092085418035
30
0
41
1
10
19.1608028108618
20
1.94149908139542
30
0
41
1
10
18.9111367053206
20
1.940984317377
30
0
41
1
10
18.787071717041
20
1.94075783116918
30
0
0
SPLINE
5
99
100
AcDbEntity
8
1
62
256
6
ByLayer
370
18
48
1
60
0
100
AcDbSpline
70
4
71
2
72
6
73
3
40
0
40
0
40
0
40
1
40
1
40
1
41
1
10
28.9950899938379
20
-1.94426239932534
30
0
41
1
10
29.1491702586663
20
-1.94487982935897
30
0
41
1
10
29.303472027452
20
-1.9455685159746
30
0
0
SPLINE
5
9A
100
AcDbEntity
8
1
62
256
6
ByLayer
370
18
48
1
60
0
100
AcDbSpline
70
4
71
3
72
18
73
14
40
0
40
0
40
0
40
0
40
0.12690602928959
40
0.217440007250011
40
0.280984288231508
40
0.346789726060476
40
0.415458087296884
40
0.484179730198745
40
0.687208907193436
40
0.733838483850356
40
0.801096333535529
40
0.904015665335376
40
1
40
1
40
1
40
1
41
1
10
17.9470547381125
20
-1.9404828011904
30
0
41
1
10
18.1741852041892
20
-1.94027758262379
30
0
41
1
10
18.5633862651956
20
-1.94010934538528
30
0
41
1
10
19.0664907959779
20
-1.94143001334618
30
0
41
1
10
19.4601308155409
20
-1.94118099253501
30
0
41
1
10
19.8146679451795
20
-1.94043525979831
30
0
41
1
10
20.1784727600545
20
-1.94107103697817
30
0
41
1
10
20.787967116545
20
-1.94207196408132
30
0
41
1
10
21.3579982221344
20
-1.94105295527657
30
0
41
1
10
21.9254176576795
20
-1.94053964603768
30
0
41
1
10
22.3135772903681
20
-1.944632440476
30
0
41
1
10
22.7901108113628
20
-1.94124012442791
30
0
41
1
10
23.1462126728295
20
-1.94238538638626
30
0
41
1
10
23.3180543637058
20
-1.9429190765978
30
0
0
SPLINE
5
9B
100
AcDbEntity
8
1
62
256
6
ByLayer
370
18
48
1
60
0
100
AcDbSpline
70
4
71
3
72
18
73
14
40
0
40
0
40
0
40
0
40
0.0856316406000972
40
0.190675597180326
40
0.263220102625693
40
0.330509045690817
40
0.401556219038597
40
0.473906798491108
40
0.560738139413789
40
0.644041943440778
40
0.725226221399435
40
0.849088528335073
40
1
40
1
40
1
40
1
41
1
10
12.0591604011373
20
1.93606680788869
30
0
41
1
10
11.9341063533974
20
1.93630659841753
30
0
41
1
10
11.6556330365396
20
1.93662843975997
30
0
41
1
10
11.2709624521524
20
1.93525721197847
30
0
41
1
10
10.9133697830752
20
1.93524667244941
30
0
41
1
10
10.6053758406672
20
1.93560953873376
30
0
41
1
10
10.2975439634936
20
1.93568585349917
30
0
41
1
10
9.96118227899319
20
1.93453931087819
30
0
41
1
10
9.60690416342646
20
1.9343766849951
30
0
41
1
10
9.23973158385917
20
1.93484511253507
30
0
41
1
10
8.81841906894644
20
1.93487295529312
30
0
41
1
10
8.29858699578895
20
1.93395978235159
30
0
41
1
10
7.89711237123618
20
1.93389754643675
30
0
41
1
10
7.67659764841252
20
1.93390512140007
30
0
0
SPLINE
5
9C
100
AcDbEntity
8
1
62
256
6
ByLayer
370
18
48
1
60
0
100
AcDbSpline
70
4
71
3
72
38
73
34
40
0
40
0
40
0
40
0
40
0.117498454354979
40
0.117498454354979
40
0.176247681532468
40
0.176247681532468
40
0.234996908709958
40
0.234996908709958
40
0.352495363064942
40
0.352495363064942
40
0.411244590242434
40
0.411244590242434
40
0.469993817419927
40
0.469993817419927
40
0.528743044597419
40
0.528743044597419
40
0.558117658186164
40
0.558117658186164
40
0.587492271774909
40
0.587492271774909
40
0.704990726129893
40
0.704990726129893
40
0.763739953307384
40
0.763739953307384
40
0.793114566896131
40
0.793114566896131
40
0.822489180484877
40
0.822489180484877
40
0.93998763483986
40
0.93998763483986
40
0.998736862017351
40
0.998736862017351
40
1
40
1
40
1
40
1
41
1
10
29.3337031991339
20
-2.04222347909928
30
0
41
1
10
28.8793353195644
20
-2.06458041104494
30
0
41
1
10
28.4284565457377
20
-2.03707687460843
30
0
41
1
10
27.7465414164099
20
-1.92407341830077
30
0
41
1
10
27.5176643256214
20
-1.8740567582021
30
0
41
1
10
27.0641454679963
20
-1.75303453323218
30
0
41
1
10
26.8385349568452
20
-1.6820547975714
30
0
41
1
10
26.1626453368903
20
-1.44081273639196
30
0
41
1
10
25.7132897286515
20
-1.24214304912002
30
0
41
1
10
25.0287244785695
20
-0.902328751677118
30
0
41
1
10
24.8012960671023
20
-0.783300183638204
30
0
41
1
10
24.3493363007326
20
-0.538632430939202
30
0
41
1
10
24.1242093804638
20
-0.4128690962566
30
0
41
1
10
23.6736606980469
20
-0.158014992985329
30
0
41
1
10
23.4482705067026
20
-0.0288713639509979
30
0
41
1
10
23.1087443920422
20
0.165205407422036
30
0
41
1
10
22.9952746342122
20
0.229859703491513
30
0
41
1
10
22.7674963397825
20
0.358647742724798
30
0
41
1
10
22.6530736082202
20
0.422842257807986
30
0
41
1
10
22.0841959950045
20
0.738128139816439
30
0
41
1
10
21.6353277889363
20
0.975603699591318
30
0
41
1
10
20.9587208894939
20
1.29001562567328
30
0
41
1
10
20.7327029546539
20
1.3879747080897
30
0
41
1
10
20.3915356244792
20
1.52244591938827
30
0
41
1
10
20.2771426387815
20
1.56527609923259
30
0
41
1
10
20.0492238048546
20
1.64570874488447
30
0
41
1
10
19.9356690015744
20
1.68333722469546
30
0
41
1
10
19.3692406397874
20
1.85809687807139
30
0
41
1
10
18.9203727580851
20
1.95514927997382
30
0
41
1
10
18.2425061570715
20
2.02951178501235
30
0
41
1
10
18.0152670409385
20
2.04234534456569
30
0
41
1
10
17.7819015773101
20
2.04271759015805
30
0
41
1
10
17.7769905468448
20
2.04271967500444
30
0
41
1
10
17.7720803434326
20
2.04271601456088
30
0
0
SPLINE
5
9D
100
AcDbEntity
8
1
62
256
6
ByLayer
370
18
48
1
60
0
100
AcDbSpline
70
4
71
3
72
16
73
12
40
0
40
0
40
0
40
0
40
0.357029533264378
40
0.357029533264378
40
0.505042810935073
40
0.505042810935073
40
0.65305608860577
40
0.65305608860577
40
0.949082643947161
40
0.949082643947161
40
1
40
1
40
1
40
1
41
1
10
17.9760999453486
20
-1.94039116091525
30
0
41
1
10
17.7038217415902
20
-1.94024674312553
30
0
41
1
10
17.4321333243084
20
-1.9232382567848
30
0
41
1
10
17.0466339117959
20
-1.87584175809044
30
0
41
1
10
16.9334784256698
20
-1.85912746447562
30
0
41
1
10
16.7065599221075
20
-1.8200791399687
30
0
41
1
10
16.5926331924022
20
-1.7977019949183
30
0
41
1
10
16.2525042639875
20
-1.72285631546828
30
0
41
1
10
16.027208162136
20
-1.66253500714205
30
0
41
1
10
15.76373020205
20
-1.58099274580189
30
0
41
1
10
15.7250761398282
20
-1.56875290922494
30
0
41
1
10
15.6864314504272
20
-1.5562458551446
30
0
0
SPLINE
5
9E
100
AcDbEntity
8
1
62
256
6
ByLayer
370
13
48
1
60
0
100
AcDbSpline
70
4
71
3
72
24
73
20
40
0
40
0
40
0
40
0
40
0.194054712637023
40
0.194054712637023
40
0.247133212478999
40
0.247133212478999
40
0.300211712320975
40
0.300211712320975
40
0.406368712004927
40
0.406368712004927
40
0.618682711372831
40
0.618682711372831
40
0.830996710740736
40
0.830996710740736
40
0.937153710424689
40
0.937153710424689
40
0.990232210266667
40
0.990232210266667
40
1
40
1
40
1
40
1
41
1
10
15.6864314503517
20
-1.55624585512013
30
0
41
1
10
15.2757262452644
20
-1.42332430002756
30
0
41
1
10
14.8660796869535
20
-1.26022090762496
30
0
41
1
10
14.3388697138134
20
-1.02248770943004
30
0
41
1
10
14.2250515803866
20
-0.969516912065899
30
0
41
1
10
13.997918407502
20
-0.86105162497455
30
0
41
1
10
13.884728042922
20
-0.805633293153164
30
0
41
1
10
13.5459481013737
20
-0.636453285566944
30
0
41
1
10
13.3211341985233
20
-0.519807511895095
30
0
41
1
10
12.6472335230872
20
-0.162986800756727
30
0
41
1
10
12.1987348999569
20
0.0841940444841214
30
0
41
1
10
11.2883650761216
20
0.569199322798255
30
0
41
1
10
10.8396533671765
20
0.800379848298519
30
0
41
1
10
10.165606868705
20
1.11119251590012
30
0
41
1
10
9.94073590574052
20
1.20875246705555
30
0
41
1
10
9.60200600490546
20
1.34442061476298
30
0
41
1
10
9.4888367734298
20
1.38781940787695
30
0
41
1
10
9.35438050987756
20
1.43678994806891
30
0
41
1
10
9.3334705745294
20
1.44433154844327
30
0
41
1
10
9.31255352406123
20
1.45180065922943
30
0
0
SPLINE
5
9F
100
AcDbEntity
8
1
62
256
6
ByLayer
370
18
48
1
60
0
100
AcDbSpline
70
4
71
3
72
8
73
4
40
0
40
0
40
0
40
0
40
1
40
1
40
1
40
1
41
1
10
29.8987363130262
20
0.682223153333211
30
0
41
1
10
29.8907773504565
20
0.640197497639747
30
0
41
1
10
29.8817503982541
20
0.598391664649057
30
0
41
1
10
29.8717369712216
20
0.556790704059352
30
0
0
SPLINE
5
A0
100
AcDbEntity
8
1
62
256
6
ByLayer
370
18
48
1
60
0
100
AcDbSpline
70
4
71
3
72
30
73
26
40
0
40
0
40
0
40
0
40
0.249999999999997
40
0.249999999999997
40
0.374999999999996
40
0.374999999999996
40
0.499999999999995
40
0.499999999999995
40
0.624999999999993
40
0.624999999999993
40
0.749999999999992
40
0.749999999999992
40
0.812499999999991
40
0.812499999999991
40
0.828124999999991
40
0.828124999999991
40
0.843749999999991
40
0.843749999999991
40
0.851562499999991
40
0.851562499999991
40
0.859374999999991
40
0.859374999999991
40
0.87499999999999
40
0.87499999999999
40
1
40
1
40
1
40
1
41
1
10
27.3753342255724
20
0.827133707275692
30
0
41
1
10
27.5241708751553
20
0.686009302725807
30
0
41
1
10
27.6819941129333
20
0.56227725835177
30
0
41
1
10
27.932826068362
20
0.403962273397525
30
0
41
1
10
28.0177610945143
20
0.356465686522029
30
0
41
1
10
28.1882326021093
20
0.273387888264551
30
0
41
1
10
28.2741497228701
20
0.238149327050564
30
0
41
1
10
28.4473802748196
20
0.180583349429128
30
0
41
1
10
28.5346807968235
20
0.158136566760732
30
0
41
1
10
28.710899377631
20
0.128199741296754
30
0
41
1
10
28.7990975453983
20
0.121003272977532
30
0
41
1
10
28.9281904573937
20
0.12484586311038
30
0
41
1
10
28.970866728537
20
0.128549485540702
30
0
41
1
10
29.0235736608362
20
0.136542636234765
30
0
41
1
10
29.0340697781604
20
0.138307356369069
30
0
41
1
10
29.0549696581522
20
0.142175640846631
30
0
41
1
10
29.0656269118855
20
0.14365977894289
30
0
41
1
10
29.0806516694512
20
0.148314789990195
30
0
41
1
10
29.0853128259515
20
0.15103640424158
30
0
41
1
10
29.092383653816
20
0.159316851951132
30
0
41
1
10
29.094546856083
20
0.164948184546461
30
0
41
1
10
29.0988859006386
20
0.182545396140256
30
0
41
1
10
29.1016097659802
20
0.194381222674991
30
0
41
1
10
29.1246143900352
20
0.301571601707337
30
0
41
1
10
29.134431406338
20
0.401729848512105
30
0
41
1
10
29.1368519915078
20
0.503100562577004
30
0
0
SPLINE
5
A1
100
AcDbEntity
8
1
62
256
6
ByLayer
370
18
48
1
60
0
100
AcDbSpline
70
4
71
3
72
8
73
4
40
0
40
0
40
0
40
0
40
1
40
1
40
1
40
1
41
1
10
29.9960282093013
20
-0.127188220761042
30
0
41
1
10
29.9961047230522
20
-0.111166561197763
30
0
41
1
10
29.9959475131707
20
-0.0951507440342994
30
0
41
1
10
29.9955435819367
20
-0.0791410941751849
30
0
0
SPLINE
5
A2
100
AcDbEntity
8
1
62
256
6
ByLayer
370
18
48
1
60
0
100
AcDbSpline
70
4
71
3
72
14
73
10
40
0
40
0
40
0
40
0
40
0.250000000000001
40
0.250000000000001
40
0.5
40
0.5
40
0.75
40
0.75
40
1
40
1
40
1
40
1
41
1
10
29.3418307609502
20
-1.94643766224902
30
0
41
1
10
29.3453498144793
20
-1.94598566484078
30
0
41
1
10
29.3482577245254
20
-1.94704957879191
30
0
41
1
10
29.3524475311641
20
-1.95328798982388
30
0
41
1
10
29.3536861323009
20
-1.95851254956148
30
0
41
1
10
29.3533341870926
20
-1.97449313808025
30
0
41
1
10
29.3516524475658
20
-1.98531695798292
30
0
41
1
10
29.3452505309418
20
-2.01042138635415
30
0
41
1
10
29.3405813955178
20
-2.02450946573734
30
0
41
1
10
29.3353958323386
20
-2.03786527576295
30
0
0
SPLINE
5
A3
100
AcDbEntity
8
1
62
256
6
ByLayer
370
18
48
1
60
0
100
AcDbSpline
70
4
71
3
72
10
73
6
40
0
40
0
40
0
40
0
40
0.5
40
0.5
40
1
40
1
40
1
40
1
41
1
10
29.4266448800732
20
1.97306562096907
30
0
41
1
10
29.5022719094777
20
1.75596184332517
30
0
41
1
10
29.5797908674878
20
1.5401163666065
30
0
41
1
10
29.7375149028135
20
1.11007299007014
30
0
41
1
10
29.8177659270662
20
0.895910405495925
30
0
41
1
10
29.8987363130261
20
0.682223153333155
30
0
0
SPLINE
5
A4
100
AcDbEntity
8
1
62
256
6
ByLayer
370
18
48
1
60
0
100
AcDbSpline
70
4
71
3
72
41
73
37
40
0
40
0
40
0
40
0
40
0.0712019351716163
40
0.0712019351716163
40
0.146968256477366
40
0.146968256477366
40
0.222734577783117
40
0.222734577783117
40
0.298500899088867
40
0.298500899088867
40
0.450033541700367
40
0.450033541700367
40
0.525799863006117
40
0.525799863006117
40
0.563683023658992
40
0.58262460398543
40
0.58262460398543
40
0.592095394148649
40
0.592095394148649
40
0.601566184311867
40
0.601566184311867
40
0.606301579393477
40
0.606301579393477
40
0.611036974475086
40
0.620507764638305
40
0.639449344964743
40
0.639449344964743
40
0.677332505617618
40
0.677332505617618
40
0.753098826923369
40
0.753098826923369
40
0.82886514822912
40
0.82886514822912
40
0.90463146953487
40
0.90463146953487
40
1
40
1
40
1
40
1
41
1
10
10.2152059196752
20
0.752193959605847
30
0
41
1
10
10.2152059196752
20
0.726098916376941
30
0
41
1
10
10.2152059196752
20
0.696277184148812
30
0
41
1
10
10.2152059196752
20
0.62873215388592
30
0
41
1
10
10.2152059196752
20
0.590495056982633
30
0
41
1
10
10.2152059196752
20
0.507587360444319
30
0
41
1
10
10.2152059196752
20
0.462915292069283
30
0
41
1
10
10.2152059196752
20
0.367329026693227
30
0
41
1
10
10.2152059196753
20
0.31618223163224
30
0
41
1
10
10.2152059196753
20
0.15532023428301
30
0
41
1
10
10.2152059196752
20
0.0386102304174756
30
0
41
1
10
10.2152059196752
20
-0.149598798398472
30
0
41
1
10
10.2152059196753
20
-0.214562510135153
30
0
41
1
10
10.2152059196753
20
-0.315254529475396
30
0
41
1
10
10.2152059196753
20
-0.366259752204314
30
0
41
1
10
10.2152059196752
20
-0.418243141299058
30
0
41
1
10
10.2152059196752
20
-0.444397459897061
30
0
41
1
10
10.2152059196753
20
-0.453141787796739
30
0
41
1
10
10.2152059196753
20
-0.470674737235299
30
0
41
1
10
10.2152059196753
20
-0.48062671183078
30
0
41
1
10
10.2152059196753
20
-0.495906905845175
30
0
41
1
10
10.2152059196757
20
-0.501057400515549
30
0
41
1
10
10.2152059196757
20
-0.511338158333643
30
0
41
1
10
10.2152059196753
20
-0.526752332201596
30
0
41
1
10
10.2152059196752
20
-0.562669903619678
30
0
41
1
10
10.2152059196752
20
-0.593372336976103
30
0
41
1
10
10.2152059196752
20
-0.654664014652639
30
0
41
1
10
10.2152059196752
20
-0.695350045354871
30
0
41
1
10
10.2152059196752
20
-0.816270863106269
30
0
41
1
10
10.2152059196752
20
-0.895592567334006
30
0
41
1
10
10.2152059196752
20
-1.05158867577097
30
0
41
1
10
10.2152059196752
20
-1.12826367768747
30
0
41
1
10
10.2152059196752
20
-1.27881341354578
30
0
41
1
10
10.2152059196753
20
-1.35311570352621
30
0
41
1
10
10.2152059196753
20
-1.51478431752628
30
0
41
1
10
10.2152059196753
20
-1.60046375394032
30
0
41
1
10
10.2152059196753
20
-1.68151411652332
30
0
0
SPLINE
5
A5
100
AcDbEntity
8
1
62
256
6
ByLayer
370
18
48
1
60
0
100
AcDbSpline
70
4
71
3
72
24
73
20
40
0
40
0
40
0
40
0
40
0.12427615279351
40
0.12427615279351
40
0.197253140060717
40
0.197253140060717
40
0.270230127327925
40
0.270230127327925
40
0.41618410186234
40
0.41618410186234
40
0.562138076396755
40
0.562138076396755
40
0.70809205093117
40
0.70809205093117
40
0.781069038198377
40
0.781069038198377
40
0.854046025465585
40
0.854046025465585
40
1
40
1
40
1
40
1
41
1
10
7.47478521308324
20
-2.03627893822392
30
0
41
1
10
7.47478353552955
20
-2.03658631619098
30
0
41
1
10
7.47477824981837
20
-2.0275613980221
30
0
41
1
10
7.47476779238181
20
-1.99895096016772
30
0
41
1
10
7.47476346115664
20
-1.98524028773559
30
0
41
1
10
7.4747547073847
20
-1.95143478470837
30
0
41
1
10
7.47475027051993
20
-1.93121963119918
30
0
41
1
10
7.47473827670962
20
-1.86212887466198
30
0
41
1
10
7.47473200162909
20
-1.80469364636767
30
0
41
1
10
7.4747276961167
20
-1.6673718120463
30
0
41
1
10
7.47472980419485
20
-1.58659439555413
30
0
41
1
10
7.47474488825122
20
-1.40863465903067
30
0
41
1
10
7.474757764613
20
-1.31098693112094
30
0
41
1
10
7.47478513779353
20
-1.15130107380656
30
0
41
1
10
7.47479564337459
20
-1.09564953108415
30
0
41
1
10
7.47481862891973
20
-0.982219313261027
30
0
41
1
10
7.47483114523021
20
-0.924192026374584
30
0
41
1
10
7.47487107365077
20
-0.746249534887227
30
0
41
1
10
7.47490099531746
20
-0.622232126687464
30
0
41
1
10
7.47493155831796
20
-0.493438158948805
30
0
0
SPLINE
5
A6
100
AcDbEntity
8
1
62
256
6
ByLayer
370
18
48
1
60
0
100
AcDbSpline
70
4
71
3
72
68
73
64
40
0
40
0
40
0
40
0
40
0.0013478705770742
40
0.0013478705770742
40
0.0404155374478777
40
0.0404155374478777
40
0.0794832043186812
40
0.0794832043186812
40
0.118550871189485
40
0.118550871189485
40
0.157618538060288
40
0.157618538060288
40
0.17715237149569
40
0.17715237149569
40
0.196686204931092
40
0.196686204931092
40
0.235753871801894
40
0.235753871801894
40
0.255287705237296
40
0.255287705237296
40
0.274821538672697
40
0.274821538672697
40
0.313889205543501
40
0.313889205543501
40
0.352956872414305
40
0.352956872414305
40
0.392024539285108
40
0.392024539285108
40
0.411558372720509
40
0.411558372720509
40
0.43109220615591
40
0.43109220615591
40
0.470159873026713
40
0.470159873026713
40
0.509227539897515
40
0.509227539897515
40
0.548295206768317
40
0.548295206768317
40
0.58736287363912
40
0.58736287363912
40
0.626430540509922
40
0.626430540509922
40
0.665498207380725
40
0.665498207380725
40
0.704565874251527
40
0.704565874251527
40
0.743633541122329
40
0.743633541122329
40
0.782701207993132
40
0.782701207993132
40
0.821768874863934
40
0.821768874863934
40
0.841302708299335
40
0.841302708299335
40
0.860836541734737
40
0.860836541734737
40
0.899904208605539
40
0.899904208605539
40
0.938971875476341
40
0.938971875476341
40
0.978039542347143
40
0.978039542347143
40
1
40
1
40
1
40
1
41
1
10
25.7847837779246
20
-1.50207049132729
30
0
41
1
10
25.7786104987468
20
-1.50419182988469
30
0
41
1
10
25.7724369643484
20
-1.50630779317692
30
0
41
1
10
25.5873174505658
20
-1.56959499350197
30
0
41
1
10
25.4082156942834
20
-1.62545260805507
30
0
41
1
10
25.0508353102653
20
-1.72408137122522
30
0
41
1
10
24.8726223367185
20
-1.7669096696593
30
0
41
1
10
24.5149127976757
20
-1.83835188278067
30
0
41
1
10
24.3355993584934
20
-1.86841864385255
30
0
41
1
10
23.97828194712
20
-1.91357904366487
30
0
41
1
10
23.799829981559
20
-1.92920145627431
30
0
41
1
10
23.5318260571279
20
-1.94058801447906
30
0
41
1
10
23.4425312766218
20
-1.94202208902334
30
0
41
1
10
23.2636967878481
20
-1.94194429647067
30
0
41
1
10
23.1740662896616
20
-1.94046184005859
30
0
41
1
10
22.9054874112723
20
-1.93101302545094
30
0
41
1
10
22.7269924927724
20
-1.91806182709666
30
0
41
1
10
22.4593276799936
20
-1.88752176554388
30
0
41
1
10
22.3700824161863
20
-1.87554673682587
30
0
41
1
10
22.1913370768872
20
-1.84737805283515
30
0
41
1
10
22.1018010667389
20
-1.83090695331302
30
0
41
1
10
21.8329109619095
20
-1.77713339717022
30
0
41
1
10
21.6541338973823
20
-1.73578690719987
30
0
41
1
10
21.2966024977545
20
-1.64091734256618
30
0
41
1
10
21.1181430241465
20
-1.58730171545398
30
0
41
1
10
20.7604264903898
20
-1.46763295487639
30
0
41
1
10
20.5807419295921
20
-1.40137519965478
30
0
41
1
10
20.3123849597472
20
-1.29514733577017
30
0
41
1
10
20.2231558216735
20
-1.25834938393402
30
0
41
1
10
20.0443878027818
20
-1.18279861224892
30
0
41
1
10
19.9549425646968
20
-1.14392472826077
30
0
41
1
10
19.6865399257871
20
-1.02439472306165
30
0
41
1
10
19.5073331117995
20
-0.940540807881177
30
0
41
1
10
19.1494070750388
20
-0.766530499184711
30
0
41
1
10
18.9705658949503
20
-0.676934222829004
30
0
41
1
10
18.6134187035054
20
-0.491258606469927
30
0
41
1
10
18.4345198179396
20
-0.396792119416347
30
0
41
1
10
18.075982477521
20
-0.205205774402515
30
0
41
1
10
17.8974407451728
20
-0.108174631677485
30
0
41
1
10
17.5402243480677
20
0.0853876124414796
30
0
41
1
10
17.361246758733
20
0.181332045877269
30
0
41
1
10
17.0036430033732
20
0.373684283565268
30
0
41
1
10
16.8242736415081
20
0.468503681673667
30
0
41
1
10
16.466889807052
20
0.65405119384738
30
0
41
1
10
16.2886526854132
20
0.745191830535333
30
0
41
1
10
15.9308796519651
20
0.918708909745561
30
0
41
1
10
15.7513713237457
20
1.00300438768829
30
0
41
1
10
15.3938722268835
20
1.16366841929201
30
0
41
1
10
15.2151458626462
20
1.23973091140525
30
0
41
1
10
14.8577953567155
20
1.38241115470382
30
0
41
1
10
14.6788862864562
20
1.44885507142729
30
0
41
1
10
14.4101642902106
20
1.54013779347645
30
0
41
1
10
14.3206863287564
20
1.56913542468706
30
0
41
1
10
14.141852724696
20
1.62362696553427
30
0
41
1
10
14.0526108778888
20
1.64889243071684
30
0
41
1
10
13.7847075767064
20
1.72099307245404
30
0
41
1
10
13.6059198111895
20
1.76388886405914
30
0
41
1
10
13.2479284586763
20
1.83651404530434
30
0
41
1
10
13.0690920597511
20
1.86618459599413
30
0
41
1
10
12.711731830659
20
1.90845130261971
30
0
41
1
10
12.5332376311135
20
1.92227936123803
30
0
41
1
10
12.2540299928838
20
1.93404757914877
30
0
41
1
10
12.1533334596129
20
1.93619708731328
30
0
41
1
10
12.0527355898709
20
1.93608296350425
30
0
0
SPLINE
5
A7
100
AcDbEntity
8
1
62
256
6
ByLayer
370
18
48
1
60
0
100
AcDbSpline
70
4
71
3
72
40
73
36
40
0
40
0
40
0
40
0
40
0.0860693792735984
40
0.0860693792735984
40
0.172138758547197
40
0.172138758547197
40
0.258208137820795
40
0.258208137820795
40
0.344277517094394
40
0.344277517094394
40
0.430346896367992
40
0.430346896367992
40
0.51641627564159
40
0.51641627564159
40
0.559450965278388
40
0.559450965278388
40
0.602485654915186
40
0.602485654915186
40
0.645520344551984
40
0.645520344551984
40
0.688555034188782
40
0.688555034188782
40
0.73158972382558
40
0.73158972382558
40
0.774624413462378
40
0.774624413462378
40
0.817659103099177
40
0.817659103099177
40
0.860693792735975
40
0.860693792735975
40
0.946763172009573
40
0.946763172009573
40
0.989797861646371
40
0.989797861646371
40
1
40
1
40
1
40
1
41
1
10
10.2152059196752
20
0.752193959606331
30
0
41
1
10
10.4164130348568
20
0.644415609178509
30
0
41
1
10
10.6171560647938
20
0.535424678123093
30
0
41
1
10
11.017039826825
20
0.313877480231184
30
0
41
1
10
11.2154571197942
20
0.200024768029152
30
0
41
1
10
11.6138893173835
20
-0.0255461408057727
30
0
41
1
10
11.8125998157684
20
-0.139593836847069
30
0
41
1
10
12.211717817618
20
-0.365370424036655
30
0
41
1
10
12.4125351111776
20
-0.476352779378459
30
0
41
1
10
12.8149502326128
20
-0.697675695565607
30
0
41
1
10
13.0163508462475
20
-0.803613600119803
30
0
41
1
10
13.4158366928737
20
-1.00780055376518
30
0
41
1
10
13.6145543030533
20
-1.10567953849622
30
0
41
1
10
13.9133047339438
20
-1.2429815211022
30
0
41
1
10
14.0129043943857
20
-1.28732311813232
30
0
41
1
10
14.2117028939699
20
-1.37369794899539
30
0
41
1
10
14.3110767831333
20
-1.41547444563278
30
0
41
1
10
14.5105836554197
20
-1.49516197867399
30
0
41
1
10
14.6106414545555
20
-1.53318746060401
30
0
41
1
10
14.8109337071764
20
-1.60610023975394
30
0
41
1
10
14.9111489061726
20
-1.64099455259469
30
0
41
1
10
15.1122876266797
20
-1.70692785558603
30
0
41
1
10
15.2132303089044
20
-1.73791499332197
30
0
41
1
10
15.4142753286305
20
-1.79522241845518
30
0
41
1
10
15.5145853708538
20
-1.82166314526532
30
0
41
1
10
15.7144376154925
20
-1.87043477833203
30
0
41
1
10
15.8138775065771
20
-1.89280458651209
30
0
41
1
10
16.0130622603662
20
-1.93265544581124
30
0
41
1
10
16.1126992162179
20
-1.95024213814324
30
0
41
1
10
16.411358647064
20
-1.99630739402272
30
0
41
1
10
16.609652765127
20
-2.01816135128254
30
0
41
1
10
16.9087229809582
20
-2.03654220049199
30
0
41
1
10
17.0086685049909
20
-2.04031416743959
30
0
41
1
10
17.1324306197494
20
-2.04206180971033
30
0
41
1
10
17.1561432955515
20
-2.04226256590593
30
0
41
1
10
17.1798586056881
20
-2.04232847940673
30
0
0
SPLINE
5
A8
100
AcDbEntity
8
1
62
256
6
ByLayer
370
18
48
1
60
0
100
AcDbSpline
70
4
71
3
72
20
73
16
40
0
40
0
40
0
40
0
40
0.0149391093092101
40
0.0149391093092101
40
0.179115924424342
40
0.179115924424342
40
0.343292739539474
40
0.343292739539474
40
0.507469554654605
40
0.507469554654605
40
0.671646369769737
40
0.671646369769737
40
0.835823184884869
40
0.835823184884869
40
1
40
1
40
1
40
1
41
1
10
25.7690317827068
20
1.50283051187989
30
0
41
1
10
25.7872515494375
20
1.50992171978834
30
0
41
1
10
25.8054752253019
20
1.51696379349599
30
0
41
1
10
26.0240131875666
20
1.60081401056635
30
0
41
1
10
26.2259597486145
20
1.67076101747657
30
0
41
1
10
26.628332708653
20
1.79331967977541
30
0
41
1
10
26.828417957156
20
1.84697849377753
30
0
41
1
10
27.2309629377891
20
1.93533835101442
30
0
41
1
10
27.4326023466196
20
1.97094869977897
30
0
41
1
10
27.8329399261709
20
2.02259061759204
30
0
41
1
10
28.0328084464352
20
2.0387955482002
30
0
41
1
10
28.4299300163637
20
2.05256413661934
30
0
41
1
10
28.6290146735033
20
2.04989468162466
30
0
41
1
10
29.0270077896032
20
2.02570192350706
30
0
41
1
10
29.2260183455165
20
2.00397760522583
30
0
41
1
10
29.4266448800815
20
1.97306562096793
30
0
0
SPLINE
5
A9
100
AcDbEntity
8
1
62
256
6
ByLayer
370
18
48
1
60
0
100
AcDbSpline
70
4
71
3
72
8
73
4
40
0
40
0
40
0
40
0
40
1
40
1
40
1
40
1
41
1
10
29.9955435819367
20
-0.079141094175128
30
0
41
1
10
29.9952013598431
20
-0.0655772609470091
30
0
41
1
10
29.996825603499
20
-0.04884540034422
30
0
41
1
10
29.9997647721148
20
-0.0308797384769264
30
0
0
SPLINE
5
AA
100
AcDbEntity
8
1
62
256
6
ByLayer
370
18
48
1
60
0
100
AcDbSpline
70
4
71
3
72
22
73
18
40
0
40
0
40
0
40
0
40
0.125000000000019
40
0.125000000000019
40
0.187500000000026
40
0.187500000000026
40
0.250000000000033
40
0.250000000000033
40
0.375000000000034
40
0.375000000000034
40
0.500000000000034
40
0.500000000000034
40
0.750000000000017
40
0.750000000000017
40
0.875000000000009
40
0.875000000000009
40
1
40
1
40
1
40
1
41
1
10
29.6973675407297
20
-0.451464869880255
30
0
41
1
10
29.7009980059933
20
-0.482610867196087
30
0
41
1
10
29.6997074974095
20
-0.518967834849775
30
0
41
1
10
29.6904281684795
20
-0.578945049428967
30
0
41
1
10
29.6862124060997
20
-0.599309159671122
30
0
41
1
10
29.6757100165233
20
-0.64078875569561
30
0
41
1
10
29.669398709129
20
-0.661886386622626
30
0
41
1
10
29.6484711604987
20
-0.72327544699624
30
0
41
1
10
29.6314915416505
20
-0.762878528525079
30
0
41
1
10
29.5950688036463
20
-0.833694856604666
30
0
41
1
10
29.575668657473
20
-0.864963668780916
30
0
41
1
10
29.516224475208
20
-0.944244342925771
30
0
41
1
10
29.4760262014555
20
-0.976342018964402
30
0
41
1
10
29.4200434868923
20
-0.991874159110012
30
0
41
1
10
29.4019877937952
20
-0.991585553620638
30
0
41
1
10
29.3685930188835
20
-0.980080125266369
30
0
41
1
10
29.3527858116072
20
-0.968633507630727
30
0
41
1
10
29.3390492298758
20
-0.951815487191709
30
0
0
SPLINE
5
AB
100
AcDbEntity
8
1
62
256
6
ByLayer
370
18
48
1
60
0
100
AcDbSpline
70
4
71
3
72
8
73
4
40
0
40
0
40
0
40
0
40
1
40
1
40
1
40
1
41
1
10
29.9960282093014
20
0.127188220758143
30
0
41
1
10
29.9961047657476
20
0.111157620947551
30
0
41
1
10
29.9959472839289
20
0.0951416581302169
30
0
41
1
10
29.9955435819367
20
0.0791410941751849
30
0
0
SPLINE
5
AC
100
AcDbEntity
8
1
62
256
6
ByLayer
370
18
48
1
60
0
100
AcDbSpline
70
4
71
3
72
55
73
51
40
0
40
0
40
0
40
0
40
0.0625000000000012
40
0.0625000000000012
40
0.125000000000002
40
0.125000000000002
40
0.187500000000003
40
0.187500000000003
40
0.218750000000003
40
0.218750000000003
40
0.250000000000002
40
0.250000000000002
40
0.281250000000002
40
0.281250000000002
40
0.296875000000002
40
0.296875000000002
40
0.312500000000001
40
0.312500000000001
40
0.343750000000001
40
0.343750000000001
40
0.359375000000001
40
0.359375000000001
40
0.375000000000002
40
0.375000000000002
40
0.40625
40
0.40625
40
0.437499999999999
40
0.437499999999999
40
0.453124999999997
40
0.453124999999997
40
0.460937499999995
40
0.460937499999995
40
0.464843749999994
40
0.464843749999994
40
0.468749999999993
40
0.468749999999993
40
0.476562499999994
40
0.476562499999994
40
0.484374999999994
40
0.484374999999994
40
0.499999999999993
40
0.562499999999993
40
0.562499999999993
40
0.624999999999992
40
0.624999999999992
40
0.749999999999995
40
0.749999999999995
40
0.874999999999998
40
0.874999999999998
40
1
40
1
40
1
40
1
41
1
10
7.47493155831799
20
-0.493438158948805
30
0
41
1
10
7.35531048295826
20
-0.417745825385254
30
0
41
1
10
7.23566698414999
20
-0.339024071735196
30
0
41
1
10
6.999759681835
20
-0.175724837234384
30
0
41
1
10
6.8840376026277
20
-0.0915900378926722
30
0
41
1
10
6.65908507865962
20
0.0840066048980646
30
0
41
1
10
6.54976024040641
20
0.175359453799018
30
0
41
1
10
6.39416187628458
20
0.321967729034469
30
0
41
1
10
6.34371338566845
20
0.372456154544864
30
0
41
1
10
6.24710013444104
20
0.478351891109327
30
0
41
1
10
6.2010309986174
20
0.533691254211362
30
0
41
1
10
6.11873606692268
20
0.648317858014309
30
0
41
1
10
6.08181016026234
20
0.708631003043081
30
0
41
1
10
6.03975978240425
20
0.801512847945531
30
0
41
1
10
6.02793952078753
20
0.832902836326866
30
0
41
1
10
6.00989563886611
20
0.896837780929701
30
0
41
1
10
6.00375325245648
20
0.929446297014863
30
0
41
1
10
5.9962675928214
20
1.0252477648911
30
0
41
1
10
6.00639775430301
20
1.08862889655927
30
0
41
1
10
6.04314230521769
20
1.17345056645132
30
0
41
1
10
6.05907054050027
20
1.20060097841139
30
0
41
1
10
6.0959271059881
20
1.25076628051758
30
0
41
1
10
6.11684976555364
20
1.27395753865412
30
0
41
1
10
6.1856199642985
20
1.3391000733142
30
0
41
1
10
6.23945907079568
20
1.37652832649999
30
0
41
1
10
6.35297301463453
20
1.44123689423793
30
0
41
1
10
6.41335690293386
20
1.46905604860888
30
0
41
1
10
6.50768273029149
20
1.50635232438512
30
0
41
1
10
6.53973956792595
20
1.51801455951309
30
0
41
1
10
6.58836676464693
20
1.53446590561279
30
0
41
1
10
6.60467871682729
20
1.53978025023039
30
0
41
1
10
6.6292899333157
20
1.54751934823173
30
0
41
1
10
6.63745698983988
20
1.55019302826338
30
0
41
1
10
6.65409649713425
20
1.55486269171138
30
0
41
1
10
6.66289776211426
20
1.55616819167702
30
0
41
1
10
6.69029863616092
20
1.55797557868669
30
0
41
1
10
6.7086230170076
20
1.5565848834259
30
0
41
1
10
6.74505216873277
20
1.55479288605804
30
0
41
1
10
6.76326216331228
20
1.55385486596259
30
0
41
1
10
6.81787846232737
20
1.55091432480248
30
0
41
1
10
6.99987035431207
20
1.54026545807008
30
0
41
1
10
7.18100350668996
20
1.52540779994754
30
0
41
1
10
7.46975738318898
20
1.49597384993234
30
0
41
1
10
7.61381084836412
20
1.47839578322854
30
0
41
1
10
8.04196155095184
20
1.41691731517523
30
0
41
1
10
8.32255438758517
20
1.36417139628568
30
0
41
1
10
8.8753124433326
20
1.23316199933168
30
0
41
1
10
9.14744561445738
20
1.15478193398374
30
0
41
1
10
9.68533534162492
20
0.972138237727108
30
0
41
1
10
9.95109786211373
20
0.867849793965263
30
0
41
1
10
10.2152059196752
20
0.752193959606331
30
0
0
SPLINE
5
AD
100
AcDbEntity
8
1
62
256
6
ByLayer
370
18
48
1
60
0
100
AcDbSpline
70
4
71
3
72
8
73
4
40
0
40
0
40
0
40
0
40
1
40
1
40
1
40
1
41
1
10
29.3337031991338
20
2.04222347909928
30
0
41
1
10
29.2297614896568
20
2.04733787611013
30
0
41
1
10
29.1259782613099
20
2.04984407733886
30
0
41
1
10
29.0222668446544
20
2.04976283873177
30
0
0
SPLINE
5
AE
100
AcDbEntity
8
1
62
256
6
ByLayer
370
18
48
1
60
0
100
AcDbSpline
70
4
71
3
72
38
73
34
40
0
40
0
40
0
40
0
40
0.0259045106585875
40
0.0259045106585875
40
0.0563449947005073
40
0.0563449947005073
40
0.0867854787424271
40
0.0867854787424271
40
0.147666446826265
40
0.147666446826265
40
0.269428382993941
40
0.269428382993941
40
0.330309351077779
40
0.330309351077779
40
0.391190319161616
40
0.391190319161616
40
0.512952255329291
40
0.512952255329291
40
0.573833223413129
40
0.573833223413129
40
0.634714191496967
40
0.634714191496967
40
0.695595159580805
40
0.695595159580805
40
0.726035643622724
40
0.726035643622724
40
0.756476127664643
40
0.756476127664643
40
0.878238063832322
40
0.878238063832322
40
0.939119031916161
40
0.939119031916161
40
1
40
1
40
1
40
1
41
1
10
18.7573471490534
20
-1.96655921969548
30
0
41
1
10
18.6613627293498
20
-1.98137718017742
30
0
41
1
10
18.5652905858791
20
-1.99409299258582
30
0
41
1
10
18.3559797184684
20
-2.01707425845834
30
0
41
1
10
18.2426344058634
20
-2.02649874880558
30
0
41
1
10
18.0151676683178
20
-2.03922875731459
30
0
41
1
10
17.9007461116654
20
-2.04252977195534
30
0
41
1
10
17.5586577247414
20
-2.04307018249747
30
0
41
1
10
17.3322889645159
20
-2.03103455830575
30
0
41
1
10
16.6552878928367
20
-1.95909481644668
30
0
41
1
10
16.2060937087724
20
-1.86369533266122
30
0
41
1
10
15.5247112520072
20
-1.6554668596614
30
0
41
1
10
15.2954648586561
20
-1.57490591463625
30
0
41
1
10
14.8415338119083
20
-1.39740057031577
30
0
41
1
10
14.6158045800338
20
-1.30021467542412
30
0
41
1
10
13.9393774122345
20
-0.987783452878972
30
0
41
1
10
13.4896004076536
20
-0.751398671532399
30
0
41
1
10
12.8046008797533
20
-0.372968083120298
30
0
41
1
10
12.577037984514
20
-0.244092686355145
30
0
41
1
10
12.1247116314355
20
0.0133052701564509
30
0
41
1
10
11.8993690496395
20
0.142073329522361
30
0
41
1
10
11.4484282719538
20
0.396381611502932
30
0
41
1
10
11.2228791092287
20
0.52200898233076
30
0
41
1
10
10.883015612159
20
0.705625043119909
30
0
41
1
10
10.7694485718303
20
0.765986897915212
30
0
41
1
10
10.5414984392258
20
0.884567524863257
30
0
41
1
10
10.4269659624641
20
0.942854157137049
30
0
41
1
10
9.85753618267066
20
1.22497247320121
30
0
41
1
10
9.4081682897627
20
1.42354366548591
30
0
41
1
10
8.73098988684421
20
1.6651646282624
30
0
41
1
10
8.50481648142548
20
1.73644127585612
30
0
41
1
10
8.04968779871228
20
1.85807092166601
30
0
41
1
10
7.82054155259323
20
1.90820953215302
30
0
41
1
10
7.59188417309957
20
1.94626138736481
30
0
0
SPLINE
5
AF
100
AcDbEntity
8
1
62
256
6
ByLayer
370
18
48
1
60
0
100
AcDbSpline
70
4
71
3
72
8
73
4
40
0
40
0
40
0
40
0
40
1
40
1
40
1
40
1
41
1
10
7.59188417308141
20
1.94626138737129
30
0
41
1
10
7.57648833403221
20
1.94882347497875
30
0
41
1
10
7.56116677611217
20
1.95137195762274
30
0
41
1
10
7.54650066646769
20
1.95415924991016
30
0
0
SPLINE
5
B0
100
AcDbEntity
8
1
62
256
6
ByLayer
370
18
48
1
60
0
100
AcDbSpline
70
4
71
3
72
10
73
6
40
0
40
0
40
0
40
0
40
0.5
40
0.5
40
1
40
1
40
1
40
1
41
1
10
29.4266448800733
20
1.97306562096926
30
0
41
1
10
29.4114770013602
20
1.99056162505647
30
0
41
1
10
29.3960121330408
20
2.00520169245687
30
0
41
1
10
29.3650346283207
20
2.02822211730589
30
0
41
1
10
29.3494434492263
20
2.03670542155862
30
0
41
1
10
29.3337031991337
20
2.04222347909953
30
0
0
SPLINE
5
B1
100
AcDbEntity
8
1
62
256
6
ByLayer
370
18
48
1
60
0
100
AcDbSpline
70
4
71
3
72
72
73
68
40
0
40
0
40
0
40
0
40
0.0118670470064584
40
0.0118670470064584
40
0.0334822253789237
40
0.0334822253789237
40
0.0550974037513891
40
0.0550974037513891
40
0.0767125821238544
40
0.0767125821238544
40
0.0983277604963197
40
0.0983277604963197
40
0.119942938868785
40
0.119942938868785
40
0.163173295613717
40
0.163173295613717
40
0.184788473986183
40
0.184788473986183
40
0.206403652358649
40
0.206403652358649
40
0.228018830731115
40
0.228018830731115
40
0.24963400910358
40
0.24963400910358
40
0.292864365848511
40
0.292864365848511
40
0.336094722593442
40
0.336094722593442
40
0.379325079338372
40
0.379325079338372
40
0.422555436083303
40
0.422555436083303
40
0.465785792828234
40
0.465785792828234
40
0.509016149573164
40
0.509016149573164
40
0.530631327945629
40
0.530631327945629
40
0.552246506318094
40
0.552246506318094
40
0.573861684690558
40
0.573861684690558
40
0.595476863063023
40
0.595476863063023
40
0.638707219807951
40
0.638707219807951
40
0.660322398180416
40
0.660322398180416
40
0.68193757655288
40
0.68193757655288
40
0.725167933297808
40
0.725167933297808
40
0.746783111670272
40
0.746783111670272
40
0.768398290042737
40
0.768398290042737
40
0.811628646787666
40
0.811628646787666
40
0.854859003532596
40
0.854859003532596
40
0.898089360277526
40
0.898089360277526
40
0.941319717022455
40
0.941319717022455
40
0.984550073767385
40
0.984550073767385
40
1
40
1
40
1
40
1
41
1
10
14.5459581653296
20
1.50813849733782
30
0
41
1
10
14.6008508471328
20
1.52914072392505
30
0
41
1
10
14.6558059023454
20
1.5496287625717
30
0
41
1
10
14.8109337071764
20
1.60610023975394
30
0
41
1
10
14.9111489061726
20
1.64099455259469
30
0
41
1
10
15.1122876266797
20
1.70692785558603
30
0
41
1
10
15.2132303089045
20
1.73791499332197
30
0
41
1
10
15.4142753286305
20
1.79522241845518
30
0
41
1
10
15.5145853708539
20
1.82166314526532
30
0
41
1
10
15.7144376154925
20
1.87043477833203
30
0
41
1
10
15.8138775065771
20
1.89280458651209
30
0
41
1
10
16.0130622603662
20
1.93265544581124
30
0
41
1
10
16.1126992162179
20
1.95024213814327
30
0
41
1
10
16.4113586470641
20
1.99630739402272
30
0
41
1
10
16.6096527651271
20
2.01816135128254
30
0
41
1
10
16.9087229809583
20
2.03654220049199
30
0
41
1
10
17.008668504991
20
2.04031416743959
30
0
41
1
10
17.2087579693138
20
2.04313962663983
30
0
41
1
10
17.3087189523611
20
2.04216527845242
30
0
41
1
10
17.5095754042229
20
2.03533941740386
30
0
41
1
10
17.6106592606958
20
2.02949527206843
30
0
41
1
10
17.8119666262504
20
2.0131365192978
30
0
41
1
10
17.9122245237307
20
2.00258667143044
30
0
41
1
10
18.2120003387501
20
1.96386913319489
30
0
41
1
10
18.411135064639
20
1.9288872840693
30
0
41
1
10
18.8093203391832
20
1.84189674747199
30
0
41
1
10
19.0074245991286
20
1.78909414556668
30
0
41
1
10
19.4060991843531
20
1.6684785810854
30
0
41
1
10
19.6055186211377
20
1.59965916436852
30
0
41
1
10
20.0068215062827
20
1.44686662516671
30
0
41
1
10
20.2094763093436
20
1.36368667534075
30
0
41
1
10
20.6108020338594
20
1.1832020512721
30
0
41
1
10
20.8120252479768
20
1.08819439755948
30
0
41
1
10
21.2144209965183
20
0.887091570399662
30
0
41
1
10
21.4158348098787
20
0.780950859817438
30
0
41
1
10
21.7177321058769
20
0.618926258192232
30
0
41
1
10
21.8183426878578
20
0.564239389696269
30
0
41
1
10
22.0190954003127
20
0.452769380575887
30
0
41
1
10
22.1193547215284
20
0.396176804608132
30
0
41
1
10
22.3206023105217
20
0.282946858926493
30
0
41
1
10
22.4216054960987
20
0.226096555377239
30
0
41
1
10
22.6231727540229
20
0.111586239097164
30
0
41
1
10
22.7236293129176
20
0.0539091829423342
30
0
41
1
10
23.0248880913801
20
-0.11884791434062
30
0
41
1
10
23.2260698287225
20
-0.232799608493735
30
0
41
1
10
23.5278196145173
20
-0.402841650876695
30
0
41
1
10
23.6283874324364
20
-0.459776126020529
30
0
41
1
10
23.8295962656699
20
-0.571185901742638
30
0
41
1
10
23.9300366857639
20
-0.625811028270448
30
0
41
1
10
24.2304987300349
20
-0.787210553209235
30
0
41
1
10
24.4291898737098
20
-0.892230208116302
30
0
41
1
10
24.7276616752967
20
-1.04128858505371
30
0
41
1
10
24.8272078079614
20
-1.0896127280015
30
0
41
1
10
25.0260922327354
20
-1.18402786101558
30
0
41
1
10
25.1252454977747
20
-1.23037422152282
30
0
41
1
10
25.4234932085571
20
-1.36437764328738
30
0
41
1
10
25.6233914478561
20
-1.44710058023267
30
0
41
1
10
26.0240131875666
20
-1.60081401056638
30
0
41
1
10
26.2259597486146
20
-1.67076101747659
30
0
41
1
10
26.628332708653
20
-1.79331967977541
30
0
41
1
10
26.8284179571561
20
-1.84697849377753
30
0
41
1
10
27.2309629377892
20
-1.93533835101445
30
0
41
1
10
27.4326023466196
20
-1.970948699779
30
0
41
1
10
27.8329399261709
20
-2.02259061759204
30
0
41
1
10
28.0328084464352
20
-2.0387955482002
30
0
41
1
10
28.3023320850833
20
-2.0481401930918
30
0
41
1
10
28.3733618502282
20
-2.04938029320741
30
0
41
1
10
28.4444305921477
20
-2.04940593195084
30
0
0
SPLINE
5
B2
100
AcDbEntity
8
1
62
256
6
ByLayer
370
18
48
1
60
0
100
AcDbSpline
70
4
71
3
72
12
73
8
40
0
40
0
40
0
40
0
40
0.25
40
0.25
40
0.5
40
0.5
40
1
40
1
40
1
40
1
41
1
10
29.1368519915079
20
0.503100562577004
30
0
41
1
10
29.1370876079843
20
0.512967850354869
30
0
41
1
10
29.1401397191436
20
0.522743052865366
30
0
41
1
10
29.1513507506376
20
0.539504434570603
30
0
41
1
10
29.1594777071235
20
0.546487777497845
30
0
41
1
10
29.1865165814018
20
0.561785561401422
30
0
41
1
10
29.2076030428444
20
0.565234356027361
30
0
41
1
10
29.2282658622975
20
0.564846269251291
30
0
0
SPLINE
5
B3
100
AcDbEntity
8
1
62
256
6
ByLayer
370
18
48
1
60
0
100
AcDbSpline
70
4
71
3
72
10
73
6
40
0
40
0
40
0
40
0
40
0.5
40
0.5
40
1
40
1
40
1
40
1
41
1
10
29.999764772115
20
0.0308797384761874
30
0
41
1
10
29.9979352640335
20
0.0206102287305896
30
0
41
1
10
29.9951099423685
20
0.0096180011512104
30
0
41
1
10
29.9874656401477
20
-0.0115906472061056
30
0
41
1
10
29.9827053584715
20
-0.0214931445298419
30
0
41
1
10
29.9777874165412
20
-0.0292317043308685
30
0
0
SPLINE
5
B4
100
AcDbEntity
8
1
62
256
6
ByLayer
370
18
48
1
60
0
100
AcDbSpline
70
4
71
3
72
14
73
10
40
0
40
0
40
0
40
0
40
0.25
40
0.25
40
0.5
40
0.5
40
0.75
40
0.75
40
1
40
1
40
1
40
1
41
1
10
7.67670163521808
20
-0.553585025634675
30
0
41
1
10
7.88322484254584
20
-0.681057854376405
30
0
41
1
10
8.09183851602904
20
-0.800039325402651
30
0
41
1
10
8.5126100523359
20
-1.0238799958494
30
0
41
1
10
8.72375174434021
20
-1.12847263617948
30
0
41
1
10
9.14565253022491
20
-1.31884257129715
30
0
41
1
10
9.35693791868601
20
-1.40474878411999
30
0
41
1
10
9.7828115088335
20
-1.55747643836361
30
0
41
1
10
9.99740493321622
20
-1.62464986950312
30
0
41
1
10
10.2152059196753
20
-1.68151411652332
30
0
0
SPLINE
5
B5
100
AcDbEntity
8
1
62
256
6
ByLayer
370
18
48
1
60
0
100
AcDbSpline
70
4
71
3
72
10
73
6
40
0
40
0
40
0
40
0
40
0.5
40
0.5
40
1
40
1
40
1
40
1
41
1
10
29.8717369712216
20
0.556790704059352
30
0
41
1
10
29.9041234534813
20
0.486489157033816
30
0
41
1
10
29.9304580243444
20
0.415502954203248
30
0
41
1
10
29.9716239335093
20
0.272229182009482
30
0
41
1
10
29.9864971099235
20
0.199616570704336
30
0
41
1
10
29.9960282093014
20
0.127188220758143
30
0
0
SPLINE
5
B6
100
AcDbEntity
8
1
62
256
6
ByLayer
370
18
48
1
60
0
100
AcDbSpline
70
4
71
3
72
8
73
4
40
0
40
0
40
0
40
0
40
1
40
1
40
1
40
1
41
1
10
29.9997647721152
20
-0.0308797384770116
30
0
41
1
10
30.0000787460567
20
-0.0102650175145698
30
0
41
1
10
30.0000780147694
20
0.0103130319364482
30
0
41
1
10
29.9997647721149
20
0.0308797384760737
30
0
0
SPLINE
5
B7
100
AcDbEntity
8
1
62
256
6
ByLayer
370
18
48
1
60
0
100
AcDbSpline
70
4
71
3
72
10
73
6
40
0
40
0
40
0
40
0
40
0.5
40
0.5
40
1
40
1
40
1
40
1
41
1
10
29.4266448800733
20
-1.97306562096926
30
0
41
1
10
29.4114770013602
20
-1.99056162505647
30
0
41
1
10
29.3960121330408
20
-2.00520169245687
30
0
41
1
10
29.3650346283207
20
-2.02822211730589
30
0
41
1
10
29.3494434492263
20
-2.03670542155862
30
0
41
1
10
29.3337031991337
20
-2.04222347909953
30
0
0
SPLINE
5
B8
100
AcDbEntity
8
1
62
256
6
ByLayer
370
18
48
1
60
0
100
AcDbSpline
70
4
71
3
72
8
73
4
40
0
40
0
40
0
40
0
40
1
40
1
40
1
40
1
41
1
10
29.9777874165412
20
-0.0292317043308401
30
0
41
1
10
29.8867340919545
20
-0.172507409367768
30
0
41
1
10
29.7929820198517
20
-0.312960190297531
30
0
41
1
10
29.6973675407297
20
-0.451464869880255
30
0
0
SPLINE
5
B9
100
AcDbEntity
8
1
62
256
6
ByLayer
370
18
48
1
60
0
100
AcDbSpline
70
4
71
3
72
8
73
4
40
0
40
0
40
0
40
0
40
1
40
1
40
1
40
1
41
1
10
29.3353958323413
20
-2.03786527575801
30
0
41
1
10
29.3348317283003
20
-2.03931816836487
30
0
41
1
10
29.3342675172556
20
-2.04077090283093
30
0
41
1
10
29.3337031991338
20
-2.04222347909931
30
0
0
SPLINE
5
BA
100
AcDbEntity
8
1
62
256
6
ByLayer
370
18
48
1
60
0
100
AcDbSpline
70
4
71
3
72
26
73
22
40
0
40
0
40
0
40
0
40
0.124455482883805
40
0.124455482883805
40
0.248910965767609
40
0.248910965767609
40
0.373366448651414
40
0.373366448651414
40
0.497821931535219
40
0.497821931535219
40
0.622277414419024
40
0.622277414419024
40
0.746732897302828
40
0.746732897302828
40
0.871188380186633
40
0.871188380186633
40
0.933416121628535
40
0.933416121628535
40
0.995643863070438
40
0.995643863070438
40
1
40
1
40
1
40
1
41
1
10
10.2152059196753
20
-1.68151411652332
30
0
41
1
10
10.3947487671134
20
-1.72992971669345
30
0
41
1
10
10.573895603036
20
-1.77116066587396
30
0
41
1
10
10.9313554709493
20
-1.84050572559121
30
0
41
1
10
11.110024723851
20
-1.86844093117426
30
0
41
1
10
11.4684840452795
20
-1.91099326653608
30
0
41
1
10
11.6478400635897
20
-1.92548851949022
30
0
41
1
10
12.0054457912294
20
-1.93836994976291
30
0
41
1
10
12.1842313640262
20
-1.93719860722783
30
0
41
1
10
12.5419189039737
20
-1.92169407428312
30
0
41
1
10
12.7213848869115
20
-1.90759512282907
30
0
41
1
10
13.0794150040919
20
-1.86466175341761
30
0
41
1
10
13.2577426611032
20
-1.83474750301076
30
0
41
1
10
13.6149669788785
20
-1.7618168481832
30
0
41
1
10
13.7940391220172
20
-1.71866538933784
30
0
41
1
10
14.0626389054547
20
-1.64609398224926
30
0
41
1
10
14.1520337009581
20
-1.62065391558647
30
0
41
1
10
14.3308160603444
20
-1.56590409562671
30
0
41
1
10
14.4201306528596
20
-1.53685093577019
30
0
41
1
10
14.5156721661992
20
-1.50428464904343
30
0
41
1
10
14.5219225779862
20
-1.50214727716835
30
0
41
1
10
14.5281727931383
20
-1.5000031407173
30
0
0
SPLINE
5
BB
100
AcDbEntity
8
1
62
256
6
ByLayer
370
18
48
1
60
0
100
AcDbSpline
70
4
71
3
72
24
73
20
40
0
40
0
40
0
40
0
40
0.0085922292246767
40
0.0085922292246767
40
0.0746860806097003
40
0.0746860806097003
40
0.206873783379743
40
0.206873783379743
40
0.339061486149786
40
0.339061486149786
40
0.471249188919829
40
0.471249188919829
40
0.603436891689872
40
0.603436891689872
40
0.735624594459914
40
0.735624594459914
40
0.867812297229957
40
0.867812297229957
40
1
40
1
40
1
40
1
41
1
10
23.3211732085822
20
1.94190759895108
30
0
41
1
10
23.3327810421927
20
1.94195759035907
30
0
41
1
10
23.3443886405296
20
1.94198287731149
30
0
41
1
10
23.4452827140435
20
1.94199222677389
30
0
41
1
10
23.5345736923927
20
1.94051728777029
30
0
41
1
10
23.8031480090681
20
1.92896615992129
30
0
41
1
10
23.9820456991486
20
1.91319985913276
30
0
41
1
10
24.3389350226153
20
1.8678986130756
30
0
41
1
10
24.5173675176788
20
1.83791894073136
30
0
41
1
10
24.8749756123349
20
1.76638157700555
30
0
41
1
10
25.0538922660334
20
1.7233079809524
30
0
41
1
10
25.4111673310617
20
1.62456657319157
30
0
41
1
10
25.5895302896908
20
1.56887221560513
30
0
41
1
10
25.9465274918568
20
1.44675703025396
30
0
41
1
10
26.1257533193714
20
1.38091424376455
30
0
41
1
10
26.4830933845621
20
1.23764525372832
30
0
41
1
10
26.6610706399986
20
1.16027412406814
30
0
41
1
10
27.0179528943113
20
0.999186384933211
30
0
41
1
10
27.1965239314984
20
0.914674204858244
30
0
41
1
10
27.3753342255648
20
0.827133707279415
30
0
0
SPLINE
5
BC
100
AcDbEntity
8
1
62
256
6
ByLayer
370
18
48
1
60
0
100
AcDbSpline
70
4
71
3
72
8
73
4
40
0
40
0
40
0
40
0
40
1
40
1
40
1
40
1
41
1
10
29.2282658622975
20
0.564846269251092
30
0
41
1
10
29.4429653488064
20
0.560813807382402
30
0
41
1
10
29.6577266987325
20
0.556382779191154
30
0
41
1
10
29.8717369712217
20
0.556790704059352
30
0
0
SPLINE
5
BD
100
AcDbEntity
8
1
62
256
6
ByLayer
370
18
48
1
60
0
100
AcDbSpline
70
4
71
3
72
32
73
28
40
0
40
0
40
0
40
0
40
0.125000000000005
40
0.125000000000005
40
0.250000000000011
40
0.250000000000011
40
0.312500000000013
40
0.312500000000013
40
0.375000000000016
40
0.375000000000016
40
0.406250000000017
40
0.406250000000017
40
0.437500000000019
40
0.437500000000019
40
0.46875000000002
40
0.46875000000002
40
0.500000000000021
40
0.500000000000021
40
0.562500000000024
40
0.562500000000024
40
0.625000000000027
40
0.625000000000027
40
0.750000000000018
40
0.750000000000018
40
0.875000000000009
40
0.875000000000009
40
1
40
1
40
1
40
1
41
1
10
29.3390492298661
20
-0.95181548719188
30
0
41
1
10
29.2616757067317
20
-0.921735725495495
30
0
41
1
10
29.1857061075622
20
-0.885620202911838
30
0
41
1
10
29.037917363516
20
-0.800161088848085
30
0
41
1
10
28.9658368948921
20
-0.751153511923519
30
0
41
1
10
28.8625955693661
20
-0.660754351708675
30
0
41
1
10
28.8292101420402
20
-0.627851048276113
30
0
41
1
10
28.7684766976672
20
-0.555211542154154
30
0
41
1
10
28.7402197035354
20
-0.514811146013784
30
0
41
1
10
28.711076335304
20
-0.447218083511245
30
0
41
1
10
28.7038008669337
20
-0.423642420770364
30
0
41
1
10
28.6979093959594
20
-0.376399190358995
30
0
41
1
10
28.6996707173691
20
-0.353011801165991
30
0
41
1
10
28.7128780305816
20
-0.312620843670686
30
0
41
1
10
28.7240599570837
20
-0.295589581239483
30
0
41
1
10
28.7511858180155
20
-0.26817295553306
30
0
41
1
10
28.7668539675392
20
-0.257758514821063
30
0
41
1
10
28.8167488238116
20
-0.232893200064552
30
0
41
1
10
28.8537058711653
20
-0.224645721014355
30
0
41
1
10
28.9285622131869
20
-0.216227607469335
30
0
41
1
10
28.9672924341968
20
-0.216215700011702
30
0
41
1
10
29.0831744166715
20
-0.223912951821632
30
0
41
1
10
29.1607977965158
20
-0.239014110036578
30
0
41
1
10
29.3164778901952
20
-0.280932998137274
30
0
41
1
10
29.3946348468704
20
-0.308131602060229
30
0
41
1
10
29.547755436092
20
-0.372006288965963
30
0
41
1
10
29.6232278002178
20
-0.408775973260248
30
0
41
1
10
29.6973675407297
20
-0.451464869880255
30
0
0
SPLINE
5
BE
100
AcDbEntity
8
1
62
256
6
ByLayer
370
13
48
1
60
0
100
AcDbSpline
70
4
71
3
72
28
73
24
40
0
40
0
40
0
40
0
40
0.155321361737324
40
0.155321361737324
40
0.232982042605988
40
0.232982042605988
40
0.310642723474652
40
0.310642723474652
40
0.465964085211984
40
0.465964085211984
40
0.504794425646317
40
0.504794425646317
40
0.54362476608065
40
0.54362476608065
40
0.621285446949317
40
0.621285446949317
40
0.776606808686651
40
0.776606808686651
40
0.854267489555317
40
0.854267489555317
40
0.931928170423984
40
0.931928170423984
40
1
40
1
40
1
40
1
41
1
10
29.3418307609502
20
-1.94643766224902
30
0
41
1
10
28.8900248721942
20
-1.95440830125722
30
0
41
1
10
28.4423289471183
20
-1.91533273045701
30
0
41
1
10
27.7670885079703
20
-1.79116188249685
30
0
41
1
10
27.5414612081317
20
-1.73875235985949
30
0
41
1
10
27.0869574042559
20
-1.61285669149598
30
0
41
1
10
26.8610913232302
20
-1.54023024646293
30
0
41
1
10
26.1862928293399
20
-1.2972723010773
30
0
41
1
10
25.7395203406701
20
-1.10188624083926
30
0
41
1
10
25.1758314544632
20
-0.829108031237894
30
0
41
1
10
25.0628269088751
20
-0.773136457841986
30
0
41
1
10
24.8360906217318
20
-0.658629960389305
30
0
41
1
10
24.7222360092046
20
-0.600036100610794
30
0
41
1
10
24.3825295072058
20
-0.422747685978521
30
0
41
1
10
24.1574570671753
20
-0.302056568537239
30
0
41
1
10
23.4835617041545
20
0.0621059414848162
30
0
41
1
10
23.0364483479292
20
0.308393757874711
30
0
41
1
10
22.3576634742619
20
0.661793088999644
30
0
41
1
10
22.1296553545191
20
0.776963318849994
30
0
41
1
10
21.6782623239904
20
0.995038811083703
30
0
41
1
10
21.4536095871762
20
1.09822755105711
30
0
41
1
10
21.0323145336907
20
1.27832912058301
30
0
41
1
10
20.8356779759573
20
1.3569421253203
30
0
41
1
10
20.6385806494955
20
1.42920395661173
30
0
0
SPLINE
5
BF
100
AcDbEntity
8
1
62
256
6
ByLayer
370
18
48
1
60
0
100
AcDbSpline
70
4
71
3
72
16
73
12
40
0
40
0
40
0
40
0
40
0.249999999999998
40
0.249999999999998
40
0.375000000000001
40
0.375000000000001
40
0.500000000000003
40
0.500000000000003
40
0.750000000000002
40
0.750000000000002
40
1
40
1
40
1
40
1
41
1
10
28.9650360634917
20
-1.44474225305538
30
0
41
1
10
28.9938048811445
20
-1.52911970223599
30
0
41
1
10
29.0237291181284
20
-1.6031299101048
30
0
41
1
10
29.0699950729602
20
-1.69928563038096
30
0
41
1
10
29.0856518656026
20
-1.72884229412398
30
0
41
1
10
29.1174286777425
20
-1.78286296199505
30
0
41
1
10
29.1335734149875
20
-1.80732489544317
30
0
41
1
10
29.1817065423792
20
-1.87152166116491
30
0
41
1
10
29.2137163136428
20
-1.90275913574558
30
0
41
1
10
29.277826483532
20
-1.94232500834414
30
0
41
1
10
29.310091189261
20
-1.95051438459032
30
0
41
1
10
29.3418307609502
20
-1.94643766224902
30
0
0
SPLINE
5
C0
100
AcDbEntity
8
1
62
256
6
ByLayer
370
18
48
1
60
0
100
AcDbSpline
70
4
71
3
72
10
73
6
40
0
40
0
40
0
40
0
40
0.5
40
0.5
40
1
40
1
40
1
40
1
41
1
10
29.9955435819365
20
0.0791410941755544
30
0
41
1
10
29.9953730488689
20
0.0723820855316433
30
0
41
1
10
29.9957145532035
20
0.0646607091494218
30
0
41
1
10
29.9971770303841
20
0.0484387008688714
30
0
41
1
10
29.9982949240991
20
0.0398641813231961
30
0
41
1
10
29.9997647721149
20
0.0308797384760737
30
0
0
SPLINE
5
C1
100
AcDbEntity
8
1
62
256
6
ByLayer
370
13
48
1
60
0
100
AcDbSpline
70
4
71
3
72
28
73
24
40
0
40
0
40
0
40
0
40
0.0255811060489883
40
0.0255811060489883
40
0.100536405583682
40
0.100536405583682
40
0.250447004653068
40
0.250447004653068
40
0.325402304187761
40
0.325402304187761
40
0.400357603722454
40
0.400357603722454
40
0.550268202791841
40
0.550268202791841
40
0.625223502326534
40
0.625223502326534
40
0.700178801861227
40
0.700178801861227
40
0.850089400930614
40
0.850089400930614
40
0.925044700465307
40
0.925044700465307
40
1
40
1
40
1
40
1
41
1
10
7.6766325079281
20
-1.93405630383162
30
0
41
1
10
7.67662995924985
20
-1.93422783124106
30
0
41
1
10
7.67662730985353
20
-1.9340449876818
30
0
41
1
10
7.67661659134137
20
-1.93192540039311
30
0
41
1
10
7.67660796564451
20
-1.92732280798197
30
0
41
1
10
7.67658156696729
20
-1.90469946010992
30
0
41
1
10
7.6765632901774
20
-1.87794479187784
30
0
41
1
10
7.67653973090873
20
-1.81980813614089
30
0
41
1
10
7.67653255503953
20
-1.79743940957329
30
0
41
1
10
7.67652044283872
20
-1.74762702622939
30
0
41
1
10
7.67651546363857
20
-1.72008871272135
30
0
41
1
10
7.67650448168155
20
-1.62968503725952
30
0
41
1
10
7.67650249384292
20
-1.55868143460029
30
0
41
1
10
7.67650960381988
20
-1.43724542401301
30
0
41
1
10
7.67651361546135
20
-1.39454342215745
30
0
41
1
10
7.67652494371706
20
-1.30469786388522
30
0
41
1
10
7.67653228056994
20
-1.25751970160925
30
0
41
1
10
7.67655856306007
20
-1.11191794821897
30
0
41
1
10
7.6765819010817
20
-1.00867226362158
30
0
41
1
10
7.67662311652543
20
-0.844737817867752
30
0
41
1
10
7.67663788115129
20
-0.788571679869023
30
0
41
1
10
7.67666890779151
20
-0.673101871259405
30
0
41
1
10
7.6766852192018
20
-0.61362228109752
30
0
41
1
10
7.67670163436125
20
-0.553585025109641
30
0
0
SPLINE
5
C2
100
AcDbEntity
8
1
62
256
6
ByLayer
370
18
48
1
60
0
100
AcDbSpline
70
4
71
3
72
10
73
6
40
0
40
0
40
0
40
0
40
0.5
40
0.5
40
1
40
1
40
1
40
1
41
1
10
29.4266448800733
20
-1.97306562096904
30
0
41
1
10
29.5022757672178
20
-1.75595076884625
30
0
41
1
10
29.5797961633513
20
-1.54010173341638
30
0
41
1
10
29.7375198118108
20
-1.11005979915083
30
0
41
1
10
29.8177689352593
20
-0.895902466636187
30
0
41
1
10
29.8987363130261
20
-0.682223153333211
30
0
0
SPLINE
5
C3
100
AcDbEntity
8
1
62
256
6
ByLayer
370
18
48
1
60
0
100
AcDbSpline
70
4
71
3
72
34
73
30
40
0
40
0
40
0
40
0
40
0.002499636521153
40
0.002499636521153
40
0.0382080554442029
40
0.0382080554442029
40
0.109624893290301
40
0.109624893290301
40
0.252458568982495
40
0.252458568982495
40
0.39529224467469
40
0.39529224467469
40
0.466709082520786
40
0.466709082520786
40
0.502417501443834
40
0.502417501443834
40
0.538125920366883
40
0.538125920366883
40
0.680959596059077
40
0.680959596059077
40
0.752376433905175
40
0.752376433905175
40
0.788084852828224
40
0.788084852828224
40
0.823793271751273
40
0.823793271751273
40
0.966626947443466
40
0.966626947443466
40
1
40
1
40
1
40
1
41
1
10
9.30633875715793
20
1.44943831503932
30
0
41
1
10
9.31431058866502
20
1.44626664087156
30
0
41
1
10
9.32228071620889
20
1.44308474730167
30
0
41
1
10
9.44407686649919
20
1.39429470766561
30
0
41
1
10
9.55748502379487
20
1.34666082314504
30
0
41
1
10
9.89685278033835
20
1.19829566788599
30
0
41
1
10
10.122042885704
20
1.09223077534193
30
0
41
1
10
10.7971462239465
20
0.756613310864026
30
0
41
1
10
11.2466831641059
20
0.509363974415493
30
0
41
1
10
12.1592663773797
20
-0.0047804186123699
30
0
41
1
10
12.6082895815884
20
-0.264417703131471
30
0
41
1
10
13.2833015768225
20
-0.635794458294498
30
0
41
1
10
13.5085286815221
20
-0.756641270667501
30
0
41
1
10
13.8480454985372
20
-0.931153070696723
30
0
41
1
10
13.9614957961252
20
-0.98819504554416
30
0
41
1
10
14.1892206133348
20
-1.09954479971432
30
0
41
1
10
14.3032948935833
20
-1.15367439867592
30
0
41
1
10
14.8706089414545
20
-1.4137230737544
30
0
41
1
10
15.3189346426249
20
-1.59020885134996
30
0
41
1
10
15.994564824436
20
-1.79473496009621
30
0
41
1
10
16.2202993646793
20
-1.85282623400457
30
0
41
1
10
16.5613866917364
20
-1.92309258446545
30
0
41
1
10
16.6756372133947
20
-1.94375091558402
30
0
41
1
10
16.9030510235576
20
-1.9789691546998
30
0
41
1
10
17.0164353079413
20
-1.99357812055445
30
0
41
1
10
17.5823783008454
20
-2.05156097840649
30
0
41
1
10
18.0328181758696
20
-2.04961661741598
30
0
41
1
10
18.5941851324478
20
-1.98638474540232
30
0
41
1
10
18.7005993983118
20
-1.97176746582153
30
0
41
1
10
18.8069996695886
20
-1.95458093435252
30
0
0
SPLINE
5
C4
100
AcDbEntity
8
1
62
256
6
ByLayer
370
18
48
1
60
0
100
AcDbSpline
70
4
71
3
72
24
73
20
40
0
40
0
40
0
40
0
40
0.0624999999999976
40
0.0624999999999976
40
0.124999999999995
40
0.124999999999995
40
0.187499999999993
40
0.187499999999993
40
0.24999999999999
40
0.24999999999999
40
0.37499999999999
40
0.37499999999999
40
0.49999999999999
40
0.49999999999999
40
0.62499999999999
40
0.62499999999999
40
0.74999999999999
40
0.74999999999999
40
1
40
1
40
1
40
1
41
1
10
27.3753342255724
20
0.827133707275578
30
0
41
1
10
27.3658879107307
20
0.76957375753517
30
0
41
1
10
27.3605616418849
20
0.710356562804861
30
0
41
1
10
27.3585862898036
20
0.588431867072529
30
0
41
1
10
27.3620547051992
20
0.525649136474584
30
0
41
1
10
27.3773350458799
20
0.401484010494841
30
0
41
1
10
27.3891074768989
20
0.339484670824873
30
0
41
1
10
27.4204032891099
20
0.21564209485183
30
0
41
1
10
27.4401166033149
20
0.15340872548154
30
0
41
1
10
27.5082189614541
20
-0.0276340871963612
30
0
41
1
10
27.565626368185
20
-0.142415052760128
30
0
41
1
10
27.699407047268
20
-0.362634131911875
30
0
41
1
10
27.7742111091718
20
-0.465284994983108
30
0
41
1
10
27.9336014594374
20
-0.657162695635975
30
0
41
1
10
28.0185526443827
20
-0.746864047047154
30
0
41
1
10
28.1969257989517
20
-0.916213402683297
30
0
41
1
10
28.2885787511937
20
-0.994165606292142
30
0
41
1
10
28.5693656800401
20
-1.21213693398428
30
0
41
1
10
28.7642029310377
20
-1.33661092982192
30
0
41
1
10
28.9650360634917
20
-1.44474225305538
30
0
0
SPLINE
5
C5
100
AcDbEntity
8
1
62
256
6
ByLayer
370
18
48
1
60
0
100
AcDbSpline
70
4
71
3
72
22
73
18
40
0
40
0
40
0
40
0
40
0.157030454635961
40
0.157030454635961
40
0.273390117310584
40
0.273390117310584
40
0.389749779985207
40
0.389749779985207
40
0.622469105334454
40
0.622469105334454
40
0.738828768009075
40
0.738828768009075
40
0.797008599346385
40
0.797008599346385
40
0.855188430683694
40
0.855188430683694
40
1
40
1
40
1
40
1
41
1
10
20.2960527910801
20
1.55434426935378
30
0
41
1
10
20.6010185222416
20
1.4419823704865
30
0
41
1
10
20.9040262602669
20
1.31336978616747
30
0
41
1
10
21.4324212160239
20
1.06715811600108
30
0
41
1
10
21.6575015568725
20
0.955253613282679
30
0
41
1
10
22.1099519070786
20
0.719831301577671
30
0
41
1
10
22.3386751028664
20
0.596097781505051
30
0
41
1
10
23.0186603184773
20
0.219272514922778
30
0
41
1
10
23.4662204821331
20
-0.0407684678860676
30
0
41
1
10
24.1414297513135
20
-0.421652633184863
30
0
41
1
10
24.3670266418306
20
-0.547296977520659
30
0
41
1
10
24.7077450160285
20
-0.73104912371133
30
0
41
1
10
24.8219273738372
20
-0.791600177134001
30
0
41
1
10
25.0490591801793
20
-0.909403415049042
30
0
41
1
10
25.1622482775613
20
-0.96680003448796
30
0
41
1
10
25.5562000222389
20
-1.16139213321716
30
0
41
1
10
25.8355423300043
20
-1.29006830443652
30
0
41
1
10
26.1151265515376
20
-1.40602022053861
30
0
0
SPLINE
5
C6
100
AcDbEntity
8
1
62
256
6
ByLayer
370
13
48
1
60
0
100
AcDbSpline
70
4
71
3
72
14
73
10
40
0
40
0
40
0
40
0
40
0.158865927567071
40
0.158865927567071
40
0.369149445675306
40
0.369149445675306
40
0.57943296378354
40
0.57943296378354
40
1
40
1
40
1
40
1
41
1
10
26.1151256278643
20
-1.40601983746367
30
0
41
1
10
26.2848473302987
20
-1.47640850706537
30
0
41
1
10
26.4546581796228
20
-1.54210816066163
30
0
41
1
10
26.8504553837174
20
-1.68253423492891
30
0
41
1
10
27.0773367396441
20
-1.75344615429569
30
0
41
1
10
27.5325713580293
20
-1.87374460598477
30
0
41
1
10
27.7585006828913
20
-1.92241634857484
30
0
41
1
10
28.4346304018023
20
-2.03320838738111
30
0
41
1
10
28.882765775296
20
-2.06039136284269
30
0
41
1
10
29.335395832349
20
-2.03786527576244
30
0
0
SPLINE
5
C7
100
AcDbEntity
8
1
62
256
6
ByLayer
370
18
48
1
60
0
100
AcDbSpline
70
4
71
3
72
10
73
6
40
0
40
0
40
0
40
0
40
0.870498399774527
40
0.870498399774527
40
1
40
1
40
1
40
1
41
1
10
7.47476690494588
20
1.9843852022864
30
0
41
1
10
7.47478097174786
20
2.01404545726751
30
0
41
1
10
7.47478615881926
20
2.03106800859621
30
0
41
1
10
7.47478568843977
20
2.0358887693038
30
0
41
1
10
7.47478550510678
20
2.03622642136204
30
0
41
1
10
7.47478521165107
20
2.03627919819013
30
0
0
SPLINE
5
C8
100
AcDbEntity
8
1
62
256
6
ByLayer
370
18
48
1
60
0
100
AcDbSpline
70
4
71
3
72
8
73
4
40
0
40
0
40
0
40
0
40
1
40
1
40
1
40
1
41
1
10
29.9960282093014
20
0.127188220758143
30
0
41
1
10
29.9849770160374
20
0.305020703265228
30
0
41
1
10
29.9508215550352
20
0.485080483888254
30
0
41
1
10
29.8987363130264
20
0.682223153333382
30
0
0
SPLINE
5
C9
100
AcDbEntity
8
1
62
256
6
ByLayer
370
18
48
1
60
0
100
AcDbSpline
70
4
71
3
72
8
73
4
40
0
40
0
40
0
40
0
40
1
40
1
40
1
40
1
41
1
10
29.3390492298784
20
-0.951815487204783
30
0
41
1
10
29.2161321515466
20
-1.11801831181134
30
0
41
1
10
29.0912475742506
20
-1.28217236442956
30
0
41
1
10
28.9650360634917
20
-1.44474225305547
30
0
0
SPLINE
5
CA
100
AcDbEntity
8
1
62
256
6
ByLayer
370
18
48
1
60
0
100
AcDbSpline
70
4
71
3
72
10
73
6
40
0
40
0
40
0
40
0
40
0.5
40
0.5
40
1
40
1
40
1
40
1
41
1
10
7.54650066646752
20
1.95415924990993
30
0
41
1
10
7.52635079213869
20
1.95798873098371
30
0
41
1
10
7.50878971175632
20
1.96272901135342
30
0
41
1
10
7.48307563318491
20
1.97317030675626
30
0
41
1
10
7.47476429921178
20
1.97889094384209
30
0
41
1
10
7.47476690494432
20
1.984385202288
30
0
0
SPLINE
5
CB
100
AcDbEntity
8
1
62
256
6
ByLayer
370
18
48
1
60
0
100
AcDbSpline
70
4
71
3
72
8
73
4
40
0
40
0
40
0
40
0
40
1
40
1
40
1
40
1
41
1
10
29.8987363130261
20
-0.682223153333183
30
0
41
1
10
29.9504832037786
20
-0.486361143578279
30
0
41
1
10
29.9849121929691
20
-0.306063816614369
30
0
41
1
10
29.9960282093017
20
-0.12718822076107
30
0
0
SPLINE
5
CC
100
AcDbEntity
8
1
62
256
6
ByLayer
370
18
48
1
60
0
100
AcDbSpline
70
4
71
3
72
10
73
6
40
0
40
0
40
0
40
0
40
0.5
40
0.5
40
1
40
1
40
1
40
1
41
1
10
7.47493155831796
20
-0.493438158948777
30
0
41
1
10
7.50001464499275
20
-0.487953836807208
30
0
41
1
10
7.53317153344568
20
-0.491461267614824
30
0
41
1
10
7.60419979038696
20
-0.513616374294656
30
0
41
1
10
7.64093341236534
20
-0.531507717199247
30
0
41
1
10
7.67670163436753
20
-0.553585025109356
30
0
0
SPLINE
5
CD
100
AcDbEntity
8
SK1
62
256
6
ByLayer
370
18
48
1
60
0
100
AcDbSpline
70
4
71
3
72
14
73
10
40
0
40
0
40
0
40
0
40
0.5
40
0.5
40
0.749999999999999
40
0.749999999999999
40
0.874999999999999
40
0.874999999999999
40
1
40
1
40
1
40
1
41
1
10
-35.3999999999999
20
-2.7208642008367
30
0
41
1
10
-35.3787677796885
20
-2.75899724736081
30
0
41
1
10
-35.3584290958895
20
-2.79688354671345
30
0
41
1
10
-35.3303626450498
20
-2.85150805474581
30
0
41
1
10
-35.3215171954455
20
-2.86915488755952
30
0
41
1
10
-35.3102812516991
20
-2.8928584289057
30
0
41
1
10
-35.3068890218584
20
-2.90028023092521
30
0
41
1
10
-35.3017585680987
20
-2.91252926109766
30
0
41
1
10
-35.3
20
-2.91742858734324
30
0
41
1
10
-35.3
20
-2.91931184174646
30
0
0
SPLINE
5
CE
100
AcDbEntity
8
SK1
62
256
6
ByLayer
370
18
48
1
60
0
100
AcDbSpline
70
4
71
3
72
8
73
4
40
0
40
0
40
0
40
0
40
1
40
1
40
1
40
1
41
1
10
-35.4
20
-2.64532792165949
30
0
41
1
10
-35.6037666427143
20
-2.27936323437297
30
0
41
1
10
-35.8061169486243
20
-1.91257248525827
30
0
41
1
10
-35.9999999999999
20
-1.54136462892308
30
0
0
SPLINE
5
CF
100
AcDbEntity
8
SK1
62
256
6
ByLayer
370
18
48
1
60
0
100
AcDbSpline
70
4
71
3
72
14
73
10
40
0
40
0
40
0
40
0
40
0.500000000000004
40
0.500000000000004
40
0.750000000000003
40
0.750000000000003
40
0.875000000000002
40
0.875000000000002
40
1
40
1
40
1
40
1
41
1
10
-35.3999999999999
20
2.72086420083673
30
0
41
1
10
-35.3787677796885
20
2.75899724736081
30
0
41
1
10
-35.3584290958895
20
2.79688354671347
30
0
41
1
10
-35.3303626450498
20
2.85150805474581
30
0
41
1
10
-35.3215171954455
20
2.86915488755952
30
0
41
1
10
-35.3102812516991
20
2.8928584289057
30
0
41
1
10
-35.3068890218584
20
2.90028023092521
30
0
41
1
10
-35.3017585680987
20
2.91252926109766
30
0
41
1
10
-35.3
20
2.91742858734324
30
0
41
1
10
-35.3
20
2.91931184174646
30
0
0
SPLINE
5
D0
100
AcDbEntity
8
SK1
62
256
6
ByLayer
370
18
48
1
60
0
100
AcDbSpline
70
4
71
3
72
8
73
4
40
0
40
0
40
0
40
0
40
1
40
1
40
1
40
1
41
1
10
-36
20
-1.61690090810003
30
0
41
1
10
-35.806052785332
20
-1.98823161126489
30
0
41
1
10
-35.6037422715006
20
-2.35494328422564
30
0
41
1
10
-35.4
20
-2.72086420083659
30
0
0
SPLINE
5
D1
100
AcDbEntity
8
SK1
62
256
6
ByLayer
370
18
48
1
60
0
100
AcDbSpline
70
4
71
3
72
8
73
4
40
0
40
0
40
0
40
0
40
1
40
1
40
1
40
1
41
1
10
-36
20
1.61690090810003
30
0
41
1
10
-35.806052785332
20
1.98823161126489
30
0
41
1
10
-35.6037422715006
20
2.35494328422564
30
0
41
1
10
-35.4
20
2.72086420083662
30
0
0
SPLINE
5
D2
100
AcDbEntity
8
SK1
62
256
6
ByLayer
370
18
48
1
60
0
100
AcDbSpline
70
4
71
3
72
14
73
10
40
0
40
0
40
0
40
0
40
0.125000000000001
40
0.125000000000001
40
0.250000000000003
40
0.250000000000003
40
0.500000000000002
40
0.500000000000002
40
1
40
1
40
1
40
1
41
1
10
-35.3
20
-2.85384706645962
30
0
41
1
10
-35.3
20
-2.85088781259554
30
0
41
1
10
-35.3017593723636
20
-2.84497586501493
30
0
41
1
10
-35.3069353411979
20
-2.83091698656446
30
0
41
1
10
-35.3102739075534
20
-2.82290073464185
30
0
41
1
10
-35.3215583577555
20
-2.79718380962225
30
0
41
1
10
-35.3303095934911
20
-2.77882913402331
30
0
41
1
10
-35.358391202053
20
-2.72203079396368
30
0
41
1
10
-35.378655954467
20
-2.68366180617011
30
0
41
1
10
-35.4
20
-2.64532792165949
30
0
0
LINE
5
76
100
AcDbEntity
8
81
62
256
6
ByLayer
370
18
48
1
60
0
100
AcDbLine
10
30
20
0
30
0
11
35
21
0
31
0
39
0
210
0
220
0
230
1
0
LINE
5
77
100
AcDbEntity
8
1
62
256
6
ByLayer
370
18
48
1
60
0
100
AcDbLine
10
0
20
-3
30
0
11
0.95
21
-2.032202
31
0
39
0
210
0
220
0
230
1
0
LINE
5
79
100
AcDbEntity
8
1
62
256
6
ByLayer
370
18
48
1
60
0
100
AcDbLine
10
0.95
20
2.032202
30
0
11
0
21
3
31
0
39
0
210
0
220
0
230
1
0
LINE
5
7A
100
AcDbEntity
8
1
62
256
6
ByLayer
370
18
48
1
60
0
100
AcDbLine
10
7.474777
20
2.03628
30
0
11
0.95
21
2.032202
31
0
39
0
210
0
220
0
230
1
0
LINE
5
7B
100
AcDbEntity
8
1
62
256
6
ByLayer
370
18
48
1
60
0
100
AcDbLine
10
17.773296
20
2.042717
30
0
11
17.193694
21
2.042355
31
0
39
0
210
0
220
0
230
1
0
LINE
5
7C
100
AcDbEntity
8
1
62
256
6
ByLayer
370
18
48
1
60
0
100
AcDbLine
10
29.023363
20
2.049748
30
0
11
28.441616
21
2.049385
31
0
39
0
210
0
220
0
230
1
0
LINE
5
7D
100
AcDbEntity
8
1
62
256
6
ByLayer
370
18
48
1
60
0
100
AcDbLine
10
28.441616
20
-2.049385
30
0
11
29.023383
21
-2.049748
31
0
39
0
210
0
220
0
230
1
0
LINE
5
7E
100
AcDbEntity
8
1
62
256
6
ByLayer
370
18
48
1
60
0
100
AcDbLine
10
17.193694
20
-2.042355
30
0
11
17.773808
21
-2.042717
31
0
39
0
210
0
220
0
230
1
0
LINE
5
7F
100
AcDbEntity
8
1
62
256
6
ByLayer
370
18
48
1
60
0
100
AcDbLine
10
0.95
20
-2.032202
30
0
11
7.474777
21
-2.03628
31
0
39
0
210
0
220
0
230
1
0
LINE
5
80
100
AcDbEntity
8
SK1
62
256
6
ByLayer
370
18
48
1
60
0
100
AcDbLine
10
-35.278312
20
3
30
0
11
-35.3
21
2.962436
31
0
39
0
210
0
220
0
230
1
0
LINE
5
82
100
AcDbEntity
8
SK1
62
256
6
ByLayer
370
18
48
1
60
0
100
AcDbLine
10
-35.3
20
-2.962436
30
0
11
-35.278312
21
-3
31
0
39
0
210
0
220
0
230
1
0
LINE
5
83
100
AcDbEntity
8
SK1
62
256
6
ByLayer
370
18
48
1
60
0
100
AcDbLine
10
0
20
3
30
0
11
-35.278312
21
3
31
0
39
0
210
0
220
0
230
1
0
LINE
5
84
100
AcDbEntity
8
SK1
62
256
6
ByLayer
370
18
48
1
60
0
100
AcDbLine
10
-35.278312
20
-3
30
0
11
0
21
-3
31
0
39
0
210
0
220
0
230
1
0
LINE
5
85
100
AcDbEntity
8
SK4
62
256
6
ByLayer
370
18
48
0.05
60
0
100
AcDbLine
10
35
20
0
30
0
11
-41
21
0
31
0
39
0
210
0
220
0
230
1
0
LINE
5
87
100
AcDbEntity
8
4
62
256
6
ByLayer
370
18
48
0.05
60
0
100
AcDbLine
10
30
20
0
30
0
11
0
21
0
31
0
39
0
210
0
220
0
230
1
0
LINE
5
89
100
AcDbEntity
8
80
62
256
6
ByLayer
370
18
48
1
60
0
100
AcDbLine
10
0
20
0
30
0
11
-5
21
0
31
0
39
0
210
0
220
0
230
1
0
LINE
5
8A
100
AcDbEntity
8
1
62
256
6
ByLayer
370
18
48
1
60
0
100
AcDbLine
10
0
20
-3
30
0
11
0
21
3
31
0
39
0
210
0
220
0
230
1
0
LINE
5
8B
100
AcDbEntity
8
1
62
256
6
ByLayer
370
13
48
1
60
0
100
AcDbLine
10
29.228266
20
0.564846
30
0
11
29.995544
21
0.079141
31
0
39
0
210
0
220
0
230
1
0
LINE
5
8C
100
AcDbEntity
8
1
62
256
6
ByLayer
370
18
48
1
60
0
100
AcDbLine
10
0.95
20
2.032202
30
0
11
0.95
21
-2.032202
31
0
39
0
210
0
220
0
230
1
0
LINE
5
8D
100
AcDbEntity
8
1
62
256
6
ByLayer
370
13
48
1
60
0
100
AcDbLine
10
29.136852
20
0.503101
30
0
11
29.977787
21
-0.029232
31
0
39
0
210
0
220
0
230
1
0
LINE
5
8E
100
AcDbEntity
8
SK1
62
256
6
ByLayer
370
18
48
1
60
0
100
AcDbLine
10
-35.278312
20
3
30
0
11
-35.278312
21
-3
31
0
39
0
210
0
220
0
230
1
0
LINE
5
8F
100
AcDbEntity
8
SK1
62
256
6
ByLayer
370
18
48
1
60
0
100
AcDbLine
10
-35.3
20
2.962436
30
0
11
-35.3
21
2.919312
31
0
39
0
210
0
220
0
230
1
0
LINE
5
90
100
AcDbEntity
8
SK1
62
256
6
ByLayer
370
18
48
1
60
0
100
AcDbLine
10
-35.3
20
-2.962436
30
0
11
-35.3
21
-2.853847
31
0
39
0
210
0
220
0
230
1
0
LINE
5
91
100
AcDbEntity
8
SK1
62
256
6
ByLayer
370
18
48
1
60
0
100
AcDbLine
10
-36
20
-1.541349
30
0
11
-36
21
-1.616901
31
0
39
0
210
0
220
0
230
1
0
LINE
5
92
100
AcDbEntity
8
SK1
62
256
6
ByLayer
370
18
48
1
60
0
100
AcDbLine
10
0
20
-3
30
0
11
0
21
3
31
0
39
0
210
0
220
0
230
1
0
LINE
5
93
100
AcDbEntity
8
SK1
62
256
6
ByLayer
370
13
48
1
60
0
100
AcDbLine
10
-35.4
20
-2.645318
30
0
11
-35.4
21
-2.720864
31
0
39
0
210
0
220
0
230
1
0
LINE
5
94
100
AcDbEntity
8
SK1
62
256
6
ByLayer
370
18
48
1
60
0
100
AcDbLine
10
-36
20
1.616901
30
0
11
-36
21
-1.541365
31
0
39
0
210
0
220
0
230
1
0
MTEXT
5
D3
100
AcDbEntity
8
SK6
62
256
6
ByLayer
370
13
48
1
60
0
100
AcDbMText
10
-0.870831
20
34.432694
30
0
210
0
220
0
230
1
1
\W0.7371;460.1-0410-012A1-XM GC34
40
3.5
41
0
44
1.084337
50
0
71
8
72
5
7
iso_b_vert
0
DIMENSION
5
E0
100
AcDbEntity
8
SK2
62
256
6
ByLayer
370
13
48
1
60
0
100
AcDbDimension
2
DimnDraft3D1
10
29.4051
20
-12.263398
30
0
11
13.655159
21
-12.263398
31
0
70
32
71
5
72
1
41
1
210
0
220
0
230
1
3
Standard
100
AcDbAlignedDimension
13
0
23
-1.5875
33
0
14
29.4051
24
-3.6375
34
0
50
0
100
AcDbRotatedDimension
1001
ACAD
1000
DSTYLE
1002
{
1070
   279
1070
     0
1070
   172
1070
     1
1070
   173
1070
     1
1070
   340
1005
D4
1070
   271
1070
     2
1070
   272
1070
     2
1070
    77
1070
     1
1070
    73
1070
     0
1070
   171
1070
     3
1070
   274
1070
     4
1070
   177
1070
    35
1070
   176
1070
    35
1070
   178
1070
    35
1070
    48
1040
-0.005
1070
    41
1041
3.5
1070
   147
1041
1.75
1070
    42
1041
1.5875
1070
    44
1041
2.0
1070
   140
1041
3.5
1070
   343
1005
0
1070
   344
1005
0
1002
}
0
DIMENSION
5
EA
100
AcDbEntity
8
SK2
62
256
6
ByLayer
370
13
48
1
60
0
100
AcDbDimension
2
DimnDraft3D2
10
30
20
-31.692985
30
0
11
-2.2536
21
-31.692985
31
0
70
32
71
5
72
1
41
1
210
0
220
0
230
1
3
Standard
100
AcDbAlignedDimension
13
-36
23
-4.5875
33
0
14
30
24
-1.5875
34
0
50
0
100
AcDbRotatedDimension
1001
ACAD
1000
DSTYLE
1002
{
1070
   279
1070
     0
1070
   172
1070
     1
1070
   173
1070
     1
1070
   340
1005
D4
1070
   271
1070
     2
1070
   272
1070
     2
1070
    77
1070
     1
1070
    73
1070
     0
1070
   171
1070
     3
1070
   274
1070
     4
1070
   177
1070
    35
1070
   176
1070
    35
1070
   178
1070
    35
1070
    48
1040
-0.005
1070
    41
1041
3.5
1070
   147
1041
1.75
1070
    42
1041
1.5875
1070
    44
1041
2.0
1070
   140
1041
3.5
1070
   343
1005
0
1070
   344
1005
0
1002
}
0
DIMENSION
5
F4
100
AcDbEntity
8
SK2
62
256
6
ByLayer
370
13
48
1
60
0
100
AcDbDimension
2
DimnDraft3D3
10
30
20
13.659119
30
0
11
23.555
21
13.659119
31
0
70
32
71
5
72
1
41
1
210
0
220
0
230
1
3
Standard
100
AcDbAlignedDimension
13
17.11
23
3.6375
33
0
14
30
24
1.5875
34
0
50
0
100
AcDbRotatedDimension
1001
ACAD
1000
DSTYLE
1002
{
1070
   279
1070
     0
1070
   172
1070
     1
1070
   173
1070
     1
1070
   340
1005
D4
1070
   271
1070
     2
1070
   272
1070
     2
1070
    77
1070
     1
1070
    73
1070
     0
1070
   171
1070
     3
1070
   274
1070
     4
1070
   177
1070
    35
1070
   176
1070
    35
1070
   178
1070
    35
1070
    48
1040
-0.005
1070
    41
1041
3.5
1070
   147
1041
1.75
1070
    42
1041
1.5875
1070
    44
1041
2.0
1070
   140
1041
3.5
1070
   343
1005
0
1070
   344
1005
0
1002
}
0
DIMENSION
5
FE
100
AcDbEntity
8
SK2
62
256
6
ByLayer
370
13
48
1
60
0
100
AcDbDimension
2
DimnDraft3D4
10
29.4051
20
-14.852503
30
0
11
39.981425
21
-14.852503
31
0
70
32
71
5
72
1
41
1
210
0
220
0
230
1
3
Standard
100
AcDbAlignedDimension
13
30
23
-1.5875
33
0
14
29.4051
24
-3.6375
34
0
50
0
100
AcDbRotatedDimension
1001
ACAD
1000
DSTYLE
1002
{
1070
   279
1070
     0
1070
   172
1070
     1
1070
   173
1070
     1
1070
   340
1005
D4
1070
   271
1070
     2
1070
   272
1070
     2
1070
    77
1070
     1
1070
    73
1070
     0
1070
   171
1070
     3
1070
   274
1070
     4
1070
   177
1070
    35
1070
   176
1070
    35
1070
   178
1070
    35
1070
    48
1040
-0.005
1070
    41
1041
3.5
1070
   147
1041
1.75
1070
    42
1041
1.5875
1070
    44
1041
2.0
1070
   140
1041
3.5
1070
   343
1005
0
1070
   344
1005
0
1002
}
0
DIMENSION
5
108
100
AcDbEntity
8
SK2
62
256
6
ByLayer
370
13
48
1
60
0
100
AcDbDimension
2
DimnDraft3D5
10
29.4051
20
-21.343428
30
0
11
-5.334224
21
-21.343428
31
0
70
32
71
5
72
1
41
1
210
0
220
0
230
1
3
Standard
100
AcDbAlignedDimension
13
-36
23
-4.5875
33
0
14
29.4051
24
-3.6375
34
0
50
0
100
AcDbRotatedDimension
1001
ACAD
1000
DSTYLE
1002
{
1070
   279
1070
     0
1070
   172
1070
     1
1070
   173
1070
     1
1070
   340
1005
D4
1070
   271
1070
     2
1070
   272
1070
     2
1070
    77
1070
     1
1070
    73
1070
     0
1070
   171
1070
     3
1070
   274
1070
     4
1070
   177
1070
    35
1070
   176
1070
    35
1070
   178
1070
    35
1070
    48
1040
-0.005
1070
    41
1041
3.5
1070
   147
1041
1.75
1070
    42
1041
1.5875
1070
    44
1041
2.0
1070
   140
1041
3.5
1070
   343
1005
0
1070
   344
1005
0
1002
}
0
DIMENSION
5
113
100
AcDbEntity
8
SK2
62
256
6
ByLayer
370
13
48
1
60
0
100
AcDbDimension
2
DimnDraft3D6
10
-46.625163
20
3
30
0
11
-47.250163
21
21.47418
31
0
70
33
71
5
72
1
41
1
210
0
220
0
230
1
3
Standard
100
AcDbAlignedDimension
13
-37.5875
23
-3
33
0
14
-37.5875
24
3
34
0
1001
ACAD
1000
DSTYLE
1002
{
1070
   279
1070
     0
1070
    74
1070
     0
1070
   173
1070
     1
1070
   340
1005
D4
1070
   271
1070
     3
1070
   272
1070
     2
1070
    77
1070
     1
1070
    73
1070
     0
1070
   171
1070
     3
1070
   274
1070
     4
1070
   177
1070
    35
1070
   176
1070
    35
1070
   178
1070
    35
1070
    48
1040
-0.005
1070
    41
1041
3.5
1070
   147
1041
1.75
1070
    42
1041
1.5875
1070
    44
1041
2.0
1070
   140
1041
3.5
1070
   343
1005
0
1070
   344
1005
0
1002
}
0
DIMENSION
5
11E
100
AcDbEntity
8
2
62
256
6
ByLayer
370
13
48
1
60
0
100
AcDbDimension
2
DimnDraft3D7
10
44.083343
20
2.05
30
0
11
39.458343
21
19.117266
31
0
70
33
71
5
72
1
41
1
210
0
220
0
230
1
3
Standard
100
AcDbAlignedDimension
13
30.9926
23
-2.05
33
0
14
30.9926
24
2.05
34
0
1001
ACAD
1000
DSTYLE
1002
{
1070
   279
1070
     0
1070
    74
1070
     0
1070
   173
1070
     1
1070
   340
1005
D4
1070
   271
1070
     3
1070
   272
1070
     2
1070
    77
1070
     1
1070
    73
1070
     0
1070
   171
1070
     3
1070
   274
1070
     4
1070
   177
1070
    35
1070
   176
1070
    35
1070
   178
1070
    35
1070
    48
1040
-0.005
1070
    41
1041
3.5
1070
   147
1041
1.75
1070
    42
1041
1.5875
1070
    44
1041
2.0
1070
   140
1041
3.5
1070
   343
1005
0
1070
   344
1005
0
1002
}
0
ENDSEC
0
SECTION
2
OBJECTS
0
DICTIONARY
5
189
330
0
100
AcDbDictionary
280
0
281
1
3
ACAD_GROUP
350
18a
3
ACAD_MLINESTYLE
350
18b
0
DICTIONARY
5
18a
330
0
100
AcDbDictionary
280
0
281
1
0
DICTIONARY
5
18b
330
0
100
AcDbDictionary
280
0
281
1
3
Standard
350
18
0
MLINESTYLE
5
18
330
18b
100
AcDbMlineStyle
2
Standard
70
0
3

62
256
51
90
52
90
71
2
49
-0.5
62
256
6
ByLayer
49
0.5
62
256
6
ByLayer
0
RASTERVARIABLES
5
177
330

100
AcDbRasterVariables
90
0
70
1
71
1
72
1
0
ENDSEC
0
EOF
