0
SECTION
2
HEADER
9
$ACADVER
1
AC1015
9
$DWGCODEPAGE
3
ANSI_1252
9
$HANDSEED
5
197
9
$ANGBASE
50
0
9
$ANGDIR
70
0
9
$ATTMODE
70
1
9
$AUNITS
70
0
9
$AUPREC
70
0
9
$CECOLOR
62
256
9
$CELTSCALE
40
1
9
$CELTYPE
6
ByLayer
9
$CELWEIGHT
370
18
9
$CLAYER
8
0
9
$CMLJUST
70
0
9
$CMLSCALE
40
1
9
$CMLSTYLE
2
Standard
9
$DIMSTYLE
2
Standard
9
$TEXTSIZE
40
0.2
9
$TEXTSTYLE
7
Standard
9
$LUNITS
70
2
9
$LUPREC
70
4
9
$EXTNAMES
290
1
9
$INSUNITS
70
4
9
$LTSCALE
40
1
9
$LWDISPLAY
290
1
9
$PDMODE
70
0
9
$PDSIZE
40
0
9
$PLINEGEN
70
0
0
ENDSEC
0
SECTION
2
CLASSES
0
CLASS
1
RASTERVARIABLES
2
AcDbRasterVariables
3
ISM
90
0
280
0
281
0
0
ENDSEC
0
SECTION
2
TABLES
0
TABLE
2
VPORT
5
18d
100
AcDbSymbolTable
0
VPORT
5
1
100
AcDbSymbolTableRecord
100
AcDbViewportTableRecord
2
*Active
70
0
10
0
20
0
11
1
21
1
12
-1
22
1
13
0
23
0
14
0.5
24
0.5
15
10
25
10
16
0
26
0
36
1
17
0
27
0
37
0
0
ENDTAB
0
TABLE
2
LTYPE
5
18e
100
AcDbSymbolTable
0
LTYPE
5
14
100
AcDbSymbolTableRecord
100
AcDbLinetypeTableRecord
70
0
2
ByBlock
3

72
65
73
0
40
0
0
LTYPE
5
15
100
AcDbSymbolTableRecord
100
AcDbLinetypeTableRecord
70
0
2
ByLayer
3

72
65
73
0
40
0
0
LTYPE
5
16
100
AcDbSymbolTableRecord
100
AcDbLinetypeTableRecord
70
0
2
CONTINUOUS
3
Solid line
72
65
73
0
40
0
0
LTYPE
5
6A
100
AcDbSymbolTableRecord
100
AcDbLinetypeTableRecord
70
0
2
CENTER
3
____ _ ____ _ ____ _ ____
72
65
73
4
40
47.5
49
22
74
0
49
-8.5
74
0
49
8.5
74
0
49
-8.5
74
0
0
LTYPE
5
6B
100
AcDbSymbolTableRecord
100
AcDbLinetypeTableRecord
70
0
2
DASHED
3
__ __ __ __ __ __ __ __ __
72
65
73
2
40
25.72
49
12.86
74
0
49
-12.86
74
0
0
ENDTAB
0
TABLE
2
LAYER
5
18f
100
AcDbSymbolTable
0
LAYER
5
10
100
AcDbSymbolTableRecord
100
AcDbLayerTableRecord
2
0
70
0
62
7
6
CONTINUOUS
290
1
370
-3
390
0
0
LAYER
5
6D
100
AcDbSymbolTableRecord
100
AcDbLayerTableRecord
2
81
70
0
62
-3
6
CONTINUOUS
290
1
370
-3
390
0
0
LAYER
5
6F
100
AcDbSymbolTableRecord
100
AcDbLayerTableRecord
2
80
70
0
62
-6
6
CONTINUOUS
290
1
370
-3
390
0
0
LAYER
5
74
100
AcDbSymbolTableRecord
100
AcDbLayerTableRecord
2
2
70
0
62
7
6
CONTINUOUS
290
1
370
-3
390
0
0
LAYER
5
78
100
AcDbSymbolTableRecord
100
AcDbLayerTableRecord
2
1
70
0
62
4
6
CONTINUOUS
290
1
370
-3
390
0
0
LAYER
5
8A
100
AcDbSymbolTableRecord
100
AcDbLayerTableRecord
2
4
70
0
62
-2
6
CENTER
290
1
370
-3
390
0
0
LAYER
5
179
100
AcDbSymbolTableRecord
100
AcDbLayerTableRecord
2
SK2
70
0
62
7
6
CONTINUOUS
290
1
370
-3
390
0
0
LAYER
5
17a
100
AcDbSymbolTableRecord
100
AcDbLayerTableRecord
2
SK1
70
0
62
4
6
CONTINUOUS
290
1
370
-3
390
0
0
LAYER
5
17b
100
AcDbSymbolTableRecord
100
AcDbLayerTableRecord
2
SK4
70
0
62
2
6
CENTER
290
1
370
-3
390
0
0
LAYER
5
17c
100
AcDbSymbolTableRecord
100
AcDbLayerTableRecord
2
SK6
70
0
62
5
6
CONTINUOUS
290
1
370
-3
390
0
0
ENDTAB
0
TABLE
2
STYLE
5
190
100
AcDbSymbolTable
0
STYLE
5
11
100
AcDbSymbolTableRecord
100
AcDbTextStyleTableRecord
2
Standard
3
txt
70
0
71
0
40
0
41
1
42
0
50
0
0
STYLE
5
D5
100
AcDbSymbolTableRecord
100
AcDbTextStyleTableRecord
2
iso_b_vert
3
simplex.shx
70
0
71
0
40
0
41
1
42
0
50
0
0
STYLE
5
D6
100
AcDbSymbolTableRecord
100
AcDbTextStyleTableRecord
2
DWGDirectTextStyle
3
simplex
70
0
71
0
40
0
41
1
42
0
50
0
0
ENDTAB
0
TABLE
2
DIMSTYLE
5
191
100
AcDbSymbolTable
100
AcDbDimStyleTable
0
DIMSTYLE
105
27
100
AcDbSymbolTableRecord
100
AcDbDimStyleTableRecord
2
Standard
70
0
3
<>
41
0.18
42
0.0625
44
0.18
140
0.18
147
0.09
73
0
74
0
77
1
271
2
275
0
278
52
280
0
340
11
0
ENDTAB
0
TABLE
2
VIEW
5
192
100
AcDbSymbolTable
0
ENDTAB
0
TABLE
2
UCS
5
193
100
AcDbSymbolTable
0
ENDTAB
0
TABLE
2
APPID
5
194
100
AcDbSymbolTable
0
APPID
5
12
100
AcDbSymbolTableRecord
100
AcDbRegAppTableRecord
2
ACAD
70
0
0
ENDTAB
0
TABLE
2
BLOCK_RECORD
5
195
100
AcDbSymbolTable
0
BLOCK_RECORD
5
1F
100
AcDbSymbolTableRecord
100
AcDbBlockTableRecord
2
*Model_Space
340
0
70
0
0
BLOCK_RECORD
5
1B
100
AcDbSymbolTableRecord
100
AcDbBlockTableRecord
2
*Paper_Space
340
0
70
0
0
BLOCK_RECORD
5
23
100
AcDbSymbolTableRecord
100
AcDbBlockTableRecord
2
*Paper_Space0
340
0
70
0
0
BLOCK_RECORD
5
D8
100
AcDbSymbolTableRecord
100
AcDbBlockTableRecord
2
DimnDraft3D1
340
0
70
0
0
BLOCK_RECORD
5
E2
100
AcDbSymbolTableRecord
100
AcDbBlockTableRecord
2
DimnDraft3D2
340
0
70
0
0
BLOCK_RECORD
5
EC
100
AcDbSymbolTableRecord
100
AcDbBlockTableRecord
2
DimnDraft3D3
340
0
70
0
0
BLOCK_RECORD
5
F6
100
AcDbSymbolTableRecord
100
AcDbBlockTableRecord
2
DimnDraft3D4
340
0
70
0
0
BLOCK_RECORD
5
100
100
AcDbSymbolTableRecord
100
AcDbBlockTableRecord
2
DimnDraft3D5
340
0
70
0
0
BLOCK_RECORD
5
10A
100
AcDbSymbolTableRecord
100
AcDbBlockTableRecord
2
DimnDraft3D6
340
0
70
0
0
BLOCK_RECORD
5
115
100
AcDbSymbolTableRecord
100
AcDbBlockTableRecord
2
DimnDraft3D7
340
0
70
0
0
ENDTAB
0
ENDSEC
0
SECTION
2
BLOCKS
0
BLOCK
5
20
100
AcDbEntity
8
0
100
AcDbBlockBegin
2
*Model_Space
70
0
10
0
20
0
30
0
3
*Model_Space
0
ENDBLK
5
21
100
AcDbEntity
8
0
100
AcDbBlockEnd
0
BLOCK
5
1C
100
AcDbEntity
8
0
100
AcDbBlockBegin
2
*Paper_Space
70
0
10
0
20
0
30
0
3
*Paper_Space
0
ENDBLK
5
1D
100
AcDbEntity
8
0
100
AcDbBlockEnd
0
BLOCK
5
24
100
AcDbEntity
8
0
100
AcDbBlockBegin
2
*Paper_Space0
70
0
10
0
20
0
30
0
3
*Paper_Space0
0
ENDBLK
5
25
100
AcDbEntity
8
0
100
AcDbBlockEnd
0
BLOCK
5
DF
100
AcDbEntity
8
0
100
AcDbBlockBegin
2
DimnDraft3D1
70
0
10
0
20
0
30
0
3
DimnDraft3D1
0
MTEXT
5
D9
100
AcDbEntity
8
SK2
62
256
6
ByLayer
370
13
48
1
60
0
100
AcDbMText
10
13.067464
20
-11.238398
30
0
210
0
220
0
230
1
1
\W0.7581;37,45
40
3.5
41
0
44
1.084337
50
0
71
7
72
5
7
iso_b_vert
0
LINE
5
DA
100
AcDbEntity
8
SK2
62
256
6
ByLayer
370
13
48
1
60
0
100
AcDbLine
10
0
20
-1.5875
30
0
11
0
21
-14.113398
31
0
39
0
210
0
220
0
230
1
0
LINE
5
DB
100
AcDbEntity
8
SK2
62
256
6
ByLayer
370
13
48
1
60
0
100
AcDbLine
10
37.4503
20
-3.4875
30
0
11
37.4503
21
-14.113398
31
0
39
0
210
0
220
0
230
1
0
LINE
5
DC
100
AcDbEntity
8
SK2
62
256
6
ByLayer
370
13
48
1
60
0
100
AcDbLine
10
0
20
-12.113398
30
0
11
37.4503
21
-12.113398
31
0
39
0
210
0
220
0
230
1
0
SOLID
5
DD
100
AcDbEntity
8
SK2
62
256
6
ByLayer
370
13
48
1
60
0
100
AcDbTrace
10
0
20
-12.113398
30
0
11
3.499998
21
-11.652615
31
0
12
3.500002
22
-12.574182
32
0
13
0
23
-12.113398
33
0
39
0
210
0
220
0
230
1
0
SOLID
5
DE
100
AcDbEntity
8
SK2
62
256
6
ByLayer
370
13
48
1
60
0
100
AcDbTrace
10
37.4503
20
-12.113398
30
0
11
33.950302
21
-12.574182
31
0
12
33.950298
22
-11.652615
32
0
13
37.4503
23
-12.113398
33
0
39
0
210
0
220
0
230
1
0
ENDBLK
5
E0
100
AcDbEntity
8
0
100
AcDbBlockEnd
0
BLOCK
5
E9
100
AcDbEntity
8
0
100
AcDbBlockBegin
2
DimnDraft3D2
70
0
10
0
20
0
30
0
3
DimnDraft3D2
0
MTEXT
5
E3
100
AcDbEntity
8
SK2
62
256
6
ByLayer
370
13
48
1
60
0
100
AcDbMText
10
-2.841295
20
-30.817985
30
0
210
0
220
0
230
1
1
\W0.7581;74,00
40
3.5
41
0
44
1.084337
50
0
71
7
72
5
7
iso_b_vert
0
LINE
5
E4
100
AcDbEntity
8
SK2
62
256
6
ByLayer
370
13
48
1
60
0
100
AcDbLine
10
-36
20
-4.5875
30
0
11
-36
21
-33.692985
31
0
39
0
210
0
220
0
230
1
0
LINE
5
E5
100
AcDbEntity
8
SK2
62
256
6
ByLayer
370
13
48
1
60
0
100
AcDbLine
10
38
20
-1.5875
30
0
11
38
21
-33.692985
31
0
39
0
210
0
220
0
230
1
0
LINE
5
E6
100
AcDbEntity
8
SK2
62
256
6
ByLayer
370
13
48
1
60
0
100
AcDbLine
10
-36
20
-31.692985
30
0
11
38
21
-31.692985
31
0
39
0
210
0
220
0
230
1
0
SOLID
5
E7
100
AcDbEntity
8
SK2
62
256
6
ByLayer
370
13
48
1
60
0
100
AcDbTrace
10
-36
20
-31.692985
30
0
11
-32.500002
21
-31.232202
31
0
12
-32.499998
22
-32.153769
32
0
13
-36
23
-31.692985
33
0
39
0
210
0
220
0
230
1
0
SOLID
5
E8
100
AcDbEntity
8
SK2
62
256
6
ByLayer
370
13
48
1
60
0
100
AcDbTrace
10
38
20
-31.692985
30
0
11
34.500002
21
-32.153769
31
0
12
34.499998
22
-31.232202
32
0
13
38
23
-31.692985
33
0
39
0
210
0
220
0
230
1
0
ENDBLK
5
EA
100
AcDbEntity
8
0
100
AcDbBlockEnd
0
BLOCK
5
F3
100
AcDbEntity
8
0
100
AcDbBlockBegin
2
DimnDraft3D3
70
0
10
0
20
0
30
0
3
DimnDraft3D3
0
MTEXT
5
ED
100
AcDbEntity
8
SK2
62
256
6
ByLayer
370
13
48
1
60
0
100
AcDbMText
10
24.034605
20
14.384119
30
0
210
0
220
0
230
1
1
\W0.6898;19,54
40
3.5
41
0
44
1.084337
50
0
71
7
72
5
7
iso_b_vert
0
LINE
5
EE
100
AcDbEntity
8
SK2
62
256
6
ByLayer
370
13
48
1
60
0
100
AcDbLine
10
18.46
20
3.4875
30
0
11
18.46
21
15.509119
31
0
39
0
210
0
220
0
230
1
0
LINE
5
EF
100
AcDbEntity
8
SK2
62
256
6
ByLayer
370
13
48
1
60
0
100
AcDbLine
10
38
20
1.5875
30
0
11
38
21
15.509119
31
0
39
0
210
0
220
0
230
1
0
LINE
5
F0
100
AcDbEntity
8
SK2
62
256
6
ByLayer
370
13
48
1
60
0
100
AcDbLine
10
18.46
20
13.509119
30
0
11
38
21
13.509119
31
0
39
0
210
0
220
0
230
1
0
SOLID
5
F1
100
AcDbEntity
8
SK2
62
256
6
ByLayer
370
13
48
1
60
0
100
AcDbTrace
10
18.46
20
13.509119
30
0
11
21.959998
21
13.969903
31
0
12
21.960002
22
13.048335
32
0
13
18.46
23
13.509119
33
0
39
0
210
0
220
0
230
1
0
SOLID
5
F2
100
AcDbEntity
8
SK2
62
256
6
ByLayer
370
13
48
1
60
0
100
AcDbTrace
10
38
20
13.509119
30
0
11
34.500002
21
13.048335
31
0
12
34.499998
22
13.969903
32
0
13
38
23
13.509119
33
0
39
0
210
0
220
0
230
1
0
ENDBLK
5
F4
100
AcDbEntity
8
0
100
AcDbBlockEnd
0
BLOCK
5
FD
100
AcDbEntity
8
0
100
AcDbBlockBegin
2
DimnDraft3D4
70
0
10
0
20
0
30
0
3
DimnDraft3D4
0
MTEXT
5
F7
100
AcDbEntity
8
SK2
62
256
6
ByLayer
370
13
48
1
60
0
100
AcDbMText
10
44.840636
20
-13.827503
30
0
210
0
220
0
230
1
1
\W0.7150;0,55
40
3.5
41
0
44
1.084337
50
0
71
7
72
5
7
iso_b_vert
0
LINE
5
F8
100
AcDbEntity
8
SK2
62
256
6
ByLayer
370
13
48
1
60
0
100
AcDbLine
10
38
20
-1.5875
30
0
11
38
21
-16.702503
31
0
39
0
210
0
220
0
230
1
0
LINE
5
F9
100
AcDbEntity
8
SK2
62
256
6
ByLayer
370
13
48
1
60
0
100
AcDbLine
10
37.4503
20
-3.4875
30
0
11
37.4503
21
-16.702503
31
0
39
0
210
0
220
0
230
1
0
LINE
5
FA
100
AcDbEntity
8
SK2
62
256
6
ByLayer
370
13
48
1
60
0
100
AcDbLine
10
28.7003
20
-14.702503
30
0
11
51.997215
21
-14.702503
31
0
39
0
210
0
220
0
230
1
0
SOLID
5
FB
100
AcDbEntity
8
SK2
62
256
6
ByLayer
370
13
48
1
60
0
100
AcDbTrace
10
38
20
-14.702503
30
0
11
41.499998
21
-14.241719
31
0
12
41.500002
22
-15.163287
32
0
13
38
23
-14.702503
33
0
39
0
210
0
220
0
230
1
0
SOLID
5
FC
100
AcDbEntity
8
SK2
62
256
6
ByLayer
370
13
48
1
60
0
100
AcDbTrace
10
37.4503
20
-14.702503
30
0
11
33.950302
21
-15.163287
31
0
12
33.950298
22
-14.241719
32
0
13
37.4503
23
-14.702503
33
0
39
0
210
0
220
0
230
1
0
ENDBLK
5
FE
100
AcDbEntity
8
0
100
AcDbBlockEnd
0
BLOCK
5
107
100
AcDbEntity
8
0
100
AcDbBlockBegin
2
DimnDraft3D5
70
0
10
0
20
0
30
0
3
DimnDraft3D5
0
MTEXT
5
101
100
AcDbEntity
8
SK2
62
256
6
ByLayer
370
13
48
1
60
0
100
AcDbMText
10
-5.921918
20
-20.468428
30
0
210
0
220
0
230
1
1
\W0.7581;73,45
40
3.5
41
0
44
1.084337
50
0
71
7
72
5
7
iso_b_vert
0
LINE
5
102
100
AcDbEntity
8
SK2
62
256
6
ByLayer
370
13
48
1
60
0
100
AcDbLine
10
-36
20
-4.5875
30
0
11
-36
21
-23.343428
31
0
39
0
210
0
220
0
230
1
0
LINE
5
103
100
AcDbEntity
8
SK2
62
256
6
ByLayer
370
13
48
1
60
0
100
AcDbLine
10
37.4503
20
-3.4875
30
0
11
37.4503
21
-23.343428
31
0
39
0
210
0
220
0
230
1
0
LINE
5
104
100
AcDbEntity
8
SK2
62
256
6
ByLayer
370
13
48
1
60
0
100
AcDbLine
10
-36
20
-21.343428
30
0
11
37.4503
21
-21.343428
31
0
39
0
210
0
220
0
230
1
0
SOLID
5
105
100
AcDbEntity
8
SK2
62
256
6
ByLayer
370
13
48
1
60
0
100
AcDbTrace
10
-36
20
-21.343428
30
0
11
-32.500002
21
-20.882645
31
0
12
-32.499998
22
-21.804212
32
0
13
-36
23
-21.343428
33
0
39
0
210
0
220
0
230
1
0
SOLID
5
106
100
AcDbEntity
8
SK2
62
256
6
ByLayer
370
13
48
1
60
0
100
AcDbTrace
10
37.4503
20
-21.343428
30
0
11
33.950302
21
-21.804212
31
0
12
33.950298
22
-20.882645
32
0
13
37.4503
23
-21.343428
33
0
39
0
210
0
220
0
230
1
0
ENDBLK
5
108
100
AcDbEntity
8
0
100
AcDbBlockEnd
0
BLOCK
5
112
100
AcDbEntity
8
0
100
AcDbBlockBegin
2
DimnDraft3D6
70
0
10
0
20
0
30
0
3
DimnDraft3D6
0
MTEXT
5
10B
100
AcDbEntity
8
SK2
62
256
6
ByLayer
370
13
48
1
60
0
100
AcDbMText
10
-46.375163
20
22.34918
30
0
210
0
220
0
230
1
1
\W0.7317;6,000
40
3.5
41
0
44
1.084337
50
90
71
7
72
5
7
iso_b_vert
0
MTEXT
5
10C
100
AcDbEntity
8
SK2
62
256
6
ByLayer
370
13
48
1
60
0
100
AcDbMText
10
-46.375163
20
17.126524
30
0
210
0
220
0
230
1
1
%%c
40
3.5
41
0
44
1.084337
50
90
71
7
72
5
7
iso_b_vert
0
LINE
5
10D
100
AcDbEntity
8
SK2
62
256
6
ByLayer
370
13
48
1
60
0
100
AcDbLine
10
-37.5875
20
-3
30
0
11
-46.625163
21
-3
31
0
39
0
210
0
220
0
230
1
0
LINE
5
10E
100
AcDbEntity
8
SK2
62
256
6
ByLayer
370
13
48
1
60
0
100
AcDbLine
10
-37.5875
20
3
30
0
11
-46.625163
21
3
31
0
39
0
210
0
220
0
230
1
0
LINE
5
10F
100
AcDbEntity
8
SK2
62
256
6
ByLayer
370
13
48
1
60
0
100
AcDbLine
10
-44.625163
20
32.121549
30
0
11
-44.625163
21
-11.75
31
0
39
0
210
0
220
0
230
1
0
SOLID
5
110
100
AcDbEntity
8
SK2
62
256
6
ByLayer
370
13
48
1
60
0
100
AcDbTrace
10
-44.625163
20
-3
30
0
11
-44.164379
21
-6.499998
31
0
12
-45.085946
22
-6.500002
32
0
13
-44.625163
23
-3
33
0
39
0
210
0
220
0
230
1
0
SOLID
5
111
100
AcDbEntity
8
SK2
62
256
6
ByLayer
370
13
48
1
60
0
100
AcDbTrace
10
-44.625163
20
3
30
0
11
-45.085946
21
6.499998
31
0
12
-44.164379
22
6.500002
32
0
13
-44.625163
23
3
33
0
39
0
210
0
220
0
230
1
0
ENDBLK
5
113
100
AcDbEntity
8
0
100
AcDbBlockEnd
0
BLOCK
5
11D
100
AcDbEntity
8
0
100
AcDbBlockBegin
2
DimnDraft3D7
70
0
10
0
20
0
30
0
3
DimnDraft3D7
0
MTEXT
5
116
100
AcDbEntity
8
2
62
256
6
ByLayer
370
13
48
1
60
0
100
AcDbMText
10
48.333343
20
19.842266
30
0
210
0
220
0
230
1
1
\W0.7317;3,800
40
3.5
41
0
44
1.084337
50
90
71
7
72
5
7
iso_b_vert
0
MTEXT
5
117
100
AcDbEntity
8
2
62
256
6
ByLayer
370
13
48
1
60
0
100
AcDbMText
10
48.333343
20
14.61961
30
0
210
0
220
0
230
1
1
%%c
40
3.5
41
0
44
1.084337
50
90
71
7
72
5
7
iso_b_vert
0
LINE
5
118
100
AcDbEntity
8
2
62
256
6
ByLayer
370
13
48
1
60
0
100
AcDbLine
10
39.0378
20
-1.9
30
0
11
52.083343
21
-1.9
31
0
39
0
210
0
220
0
230
1
0
LINE
5
119
100
AcDbEntity
8
2
62
256
6
ByLayer
370
13
48
1
60
0
100
AcDbLine
10
39.0378
20
1.9
30
0
11
52.083343
21
1.9
31
0
39
0
210
0
220
0
230
1
0
LINE
5
11A
100
AcDbEntity
8
2
62
256
6
ByLayer
370
13
48
1
60
0
100
AcDbLine
10
50.083343
20
29.614635
30
0
11
50.083343
21
-10.65
31
0
39
0
210
0
220
0
230
1
0
SOLID
5
11B
100
AcDbEntity
8
2
62
256
6
ByLayer
370
13
48
1
60
0
100
AcDbTrace
10
50.083343
20
-1.9
30
0
11
50.544126
21
-5.399998
31
0
12
49.622559
22
-5.400002
32
0
13
50.083343
23
-1.9
33
0
39
0
210
0
220
0
230
1
0
SOLID
5
11C
100
AcDbEntity
8
2
62
256
6
ByLayer
370
13
48
1
60
0
100
AcDbTrace
10
50.083343
20
1.9
30
0
11
49.622559
21
5.399998
31
0
12
50.544126
22
5.400002
32
0
13
50.083343
23
1.9
33
0
39
0
210
0
220
0
230
1
0
ENDBLK
5
11E
100
AcDbEntity
8
0
100
AcDbBlockEnd
0
ENDSEC
0
SECTION
2
ENTITIES
0
ELLIPSE
5
93
100
AcDbEntity
8
1
62
256
6
ByLayer
370
13
48
1
60
0
100
AcDbEllipse
10
3.709566
20
-1.881789
30
0
11
-0.00249786733762254
21
0.0999687984261272
31
0
210
0
220
0
230
1
40
0.464776
41
-0.0568196610149508
42
1.44182267201602
0
ELLIPSE
5
94
100
AcDbEntity
8
1
62
256
6
ByLayer
370
13
48
1
60
0
100
AcDbEllipse
10
3.639091
20
-1.900725
30
0
11
0.0478946873373743
21
-0.0877843888448007
31
0
210
0
220
0
230
1
40
0.394682
41
3.11172720280865
42
-2.08794953924494
0
POINT
5
6C
100
AcDbEntity
8
81
62
256
6
ByLayer
370
18
48
1
60
0
100
AcDbPoint
10
38
20
0
30
0
39
0
210
0
220
0
230
1
50
360
0
POINT
5
6E
100
AcDbEntity
8
80
62
256
6
ByLayer
370
18
48
1
60
0
100
AcDbPoint
10
0
20
0
30
0
39
0
210
0
220
0
230
1
50
360
0
POINT
5
70
100
AcDbEntity
8
SK2
62
256
6
ByLayer
370
18
48
1
60
1
100
AcDbPoint
10
-36
20
-3
30
0
39
0
210
0
220
0
230
1
50
360
0
POINT
5
72
100
AcDbEntity
8
SK2
62
256
6
ByLayer
370
18
48
1
60
1
100
AcDbPoint
10
-36
20
3
30
0
39
0
210
0
220
0
230
1
50
360
0
POINT
5
73
100
AcDbEntity
8
2
62
256
6
ByLayer
370
18
48
1
60
1
100
AcDbPoint
10
37.4503
20
-1.9
30
0
39
0
210
0
220
0
230
1
50
360
0
POINT
5
75
100
AcDbEntity
8
2
62
256
6
ByLayer
370
18
48
1
60
1
100
AcDbPoint
10
37.4503
20
1.9
30
0
39
0
210
0
220
0
230
1
50
360
0
SPLINE
5
95
100
AcDbEntity
8
1
62
256
6
ByLayer
370
18
48
1
60
0
100
AcDbSpline
70
4
71
3
72
21
73
17
40
0
40
0
40
0
40
0
40
0.0882098017373486
40
0.181576733639187
40
0.240193181397672
40
0.293500587991667
40
0.346503701296578
40
0.399747478825168
40
0.45336591256913
40
0.509769248167265
40
0.582061897482144
40
0.662174883999252
40
0.746169868332434
40
0.831977309649762
40
0.914939594821581
40
1
40
1
40
1
40
1
41
1
10
8.79410077797741
20
1.78769474475428
30
0
41
1
10
8.66539633865108
20
1.78721075456326
30
0
41
1
10
8.40045488021082
20
1.78655834613343
30
0
41
1
10
8.04977601465691
20
1.78661654098306
30
0
41
1
10
7.75029963829277
20
1.78735718599634
30
0
41
1
10
7.50960456517225
20
1.78748725794912
30
0
41
1
10
7.27671272972586
20
1.78707428095217
30
0
41
1
10
7.04337769856096
20
1.78605296848625
30
0
41
1
10
6.80507599175607
20
1.78539075237995
30
0
41
1
10
6.53897224350072
20
1.78557479107667
30
0
41
1
10
6.2341982460191
20
1.78624212722528
30
0
41
1
10
5.88914997370165
20
1.78658641792302
30
0
41
1
10
5.52436400063442
20
1.78536891673915
30
0
41
1
10
5.15548477026582
20
1.78494894306402
30
0
41
1
10
4.78479805537836
20
1.78464844025046
30
0
41
1
10
4.54005135710904
20
1.78476090587239
30
0
41
1
10
4.41666995139991
20
1.78439994255621
30
0
0
SPLINE
5
96
100
AcDbEntity
8
1
62
256
6
ByLayer
370
18
48
1
60
0
100
AcDbSpline
70
4
71
3
72
22
73
18
40
0
40
0
40
0
40
0
40
0.118404361443334
40
0.202107646308144
40
0.274510868472159
40
0.349397128224472
40
0.422701612289013
40
0.492618181595327
40
0.555709750714931
40
0.604934325830759
40
0.65172844875689
40
0.698195600009256
40
0.74445271768724
40
0.790975399585906
40
0.842131411992492
40
0.923615024686372
40
1
40
1
40
1
40
1
41
1
10
3.78377855500372
20
-1.7787084091585
30
0
41
1
10
3.97777462744458
20
-1.781498320146
30
0
41
1
10
4.31085432402941
20
-1.78488377671147
30
0
41
1
10
4.76895313926337
20
-1.7846355953285
30
0
41
1
10
5.15548477025624
20
-1.78494894306439
30
0
41
1
10
5.52436400062288
20
-1.78536891673744
30
0
41
1
10
5.88914997368661
20
-1.7865864179285
30
0
41
1
10
6.23419824600788
20
-1.78624212720604
30
0
41
1
10
6.53897224347759
20
-1.78557479113454
30
0
41
1
10
6.80507599177685
20
-1.78539075221855
30
0
41
1
10
7.04337769845412
20
-1.78605296905798
30
0
41
1
10
7.27671273010662
20
-1.78707427883364
30
0
41
1
10
7.50960456375043
20
-1.78748726583734
30
0
41
1
10
7.75029964385845
20
-1.78735715511488
30
0
41
1
10
8.04977598573009
20
-1.78661670144928
30
0
41
1
10
8.39945485255774
20
-1.78655753893142
30
0
41
1
10
8.6633967764092
20
-1.78720776886863
30
0
41
1
10
8.79110169920185
20
-1.78768733930878
30
0
0
SPLINE
5
97
100
AcDbEntity
8
1
62
256
6
ByLayer
370
18
48
1
60
0
100
AcDbSpline
70
4
71
3
72
8
73
4
40
0
40
0
40
0
40
0
40
1
40
1
40
1
40
1
41
1
10
30.9486205038855
20
-0.0389851308837024
30
0
41
1
10
30.9097164287171
20
-0.0189611439603823
30
0
41
1
10
30.8708103442057
20
0.0015444605398045
30
0
41
1
10
30.8319012191119
20
0.022541601428145
30
0
0
SPLINE
5
98
100
AcDbEntity
8
1
62
256
6
ByLayer
370
18
48
1
60
0
100
AcDbSpline
70
4
71
1
72
4
73
2
40
0
40
0
40
1
40
1
41
1
10
37.1548430625873
20
-1.80420454560783
30
0
41
1
10
37.3635925074275
20
-1.80434317121879
30
0
0
SPLINE
5
99
100
AcDbEntity
8
1
62
256
6
ByLayer
370
18
48
1
60
0
100
AcDbSpline
70
4
71
3
72
21
73
17
40
0
40
0
40
0
40
0
40
0.0804061525112018
40
0.159626178987641
40
0.216540637329667
40
0.276929668200209
40
0.343386829096424
40
0.420515260034094
40
0.50529588268946
40
0.589038444600517
40
0.676473164630228
40
0.750120521021352
40
0.819510458801109
40
0.889716278889134
40
0.960496277713682
40
1
40
1
40
1
40
1
41
1
10
31.3037821907806
20
1.80049917385406
30
0
41
1
10
31.182758986903
20
1.80008503218832
30
0
41
1
10
30.9424989767887
20
1.79961354165258
30
0
41
1
10
30.6165734000574
20
1.80047927354798
30
0
41
1
10
30.3207854075703
20
1.80112116849281
30
0
41
1
10
30.0441947777984
20
1.80143245011925
30
0
41
1
10
29.73718884293
20
1.79938574743696
30
0
41
1
10
29.3934624194291
20
1.79867003766157
30
0
41
1
10
29.0237223151742
20
1.80075289504384
30
0
41
1
10
28.6384728664675
20
1.79839314496675
30
0
41
1
10
28.2699748663915
20
1.79915415258498
30
0
41
1
10
27.9230799371977
20
1.7994511262842
30
0
41
1
10
27.6021186007829
20
1.79807434204452
30
0
41
1
10
27.2854730319238
20
1.79842054535862
30
0
41
1
10
27.0138101276697
20
1.79863786908641
30
0
41
1
10
26.8478204312279
20
1.7985250293857
30
0
41
1
10
26.7883631593462
20
1.79847157440807
30
0
0
SPLINE
5
9A
100
AcDbEntity
8
1
62
256
6
ByLayer
370
18
48
1
60
0
100
AcDbSpline
70
4
71
3
72
21
73
17
40
0
40
0
40
0
40
0
40
0.10763061223839
40
0.183145033363346
40
0.232635738803138
40
0.282085898516279
40
0.333102834472461
40
0.381248756489182
40
0.426999742945789
40
0.472568269473939
40
0.569151285213052
40
0.688390348870166
40
0.747201692451064
40
0.815132684818116
40
0.911480245242795
40
1
40
1
40
1
40
1
41
1
10
14.7523414998574
20
-1.79063956483125
30
0
41
1
10
14.9423058120513
20
-1.790812050543
30
0
41
1
10
15.2655821677231
20
-1.79094281252128
30
0
41
1
10
15.6765555467513
20
-1.79162068102676
30
0
41
1
10
15.9844467724052
20
-1.79087701256475
30
0
41
1
10
16.2492771295543
20
-1.79118548071625
30
0
41
1
10
16.511737681372
20
-1.79282231261354
30
0
41
1
10
16.7676679864694
20
-1.79287044266715
30
0
41
1
10
17.0139748955472
20
-1.79265291671413
30
0
41
1
10
17.3458255020841
20
-1.79183139202169
30
0
41
1
10
17.8074639579681
20
-1.79168338280169
30
0
41
1
10
18.2924854158041
20
-1.79422722038277
30
0
41
1
10
18.7269080931171
20
-1.79286469102143
30
0
41
1
10
19.1208966654291
20
-1.7958345067629
30
0
41
1
10
19.5673531852135
20
-1.79279632470883
30
0
41
1
10
19.8938353192545
20
-1.79340737636656
30
0
41
1
10
20.0501637342958
20
-1.79371299338132
30
0
0
SPLINE
5
9B
100
AcDbEntity
8
1
62
256
6
ByLayer
370
18
48
1
60
0
100
AcDbSpline
70
4
71
3
72
20
73
16
40
0
40
0
40
0
40
0
40
0.108560702303369
40
0.18169915763962
40
0.241993330470802
40
0.30179838727254
40
0.36090843206839
40
0.423645172792564
40
0.498126724197056
40
0.605132645228291
40
0.706570233780267
40
0.789069043435119
40
0.847414421292974
40
0.917080251085862
40
1
40
1
40
1
40
1
41
1
10
26.0036440050758
20
-1.79784234704476
30
0
41
1
10
26.1954458096647
20
-1.79797132957455
30
0
41
1
10
26.5164726249275
20
-1.79813726642629
30
0
41
1
10
26.9440401584069
20
-1.79869328361804
30
0
41
1
10
27.2854730303405
20
-1.79842175351072
30
0
41
1
10
27.6021186066518
20
-1.79806986454753
30
0
41
1
10
27.9230799149902
20
-1.79946806065936
30
0
41
1
10
28.2699749620075
20
-1.7990812128771
30
0
41
1
10
28.7014973482646
20
-1.79865351300109
30
0
41
1
10
29.2013953078327
20
-1.80021058207518
30
0
41
1
10
29.7154662621161
20
-1.7988445949747
30
0
41
1
10
30.1435531488689
20
-1.8016909077779
30
0
41
1
10
30.5155029578776
20
-1.80069899197085
30
0
41
1
10
30.8881989820944
20
-1.79963609978915
30
0
41
1
10
31.1578030435406
20
-1.80007753240309
30
0
41
1
10
31.3043142831335
20
-1.80055730431405
30
0
0
SPLINE
5
9C
100
AcDbEntity
8
1
62
256
6
ByLayer
370
18
48
1
60
0
100
AcDbSpline
70
4
71
3
72
19
73
15
40
0
40
0
40
0
40
0
40
0.111494230196162
40
0.213877332130845
40
0.301384606343366
40
0.390291974794254
40
0.473564039237431
40
0.557352923328327
40
0.625048193359722
40
0.697828086851351
40
0.775916407328337
40
0.851338233109458
40
0.926141596454808
40
1
40
1
40
1
40
1
41
1
10
20.0416420533169
20
1.79370633116781
30
0
41
1
10
19.8742953700908
20
1.79334765839832
30
0
41
1
10
19.5532671571843
20
1.79276433033024
30
0
41
1
10
19.1002371517655
20
1.79558655989385
30
0
41
1
10
18.68221144565
20
1.79266293652401
30
0
41
1
10
18.2919401403541
20
1.79427395796276
30
0
41
1
10
17.9075195590169
20
1.79305231629482
30
0
41
1
10
17.5548674608534
20
1.79130668678118
30
0
41
1
10
17.2180033957009
20
1.79223608843873
30
0
41
1
10
16.8896858768695
20
1.79281670574926
30
0
41
1
10
16.5497628127864
20
1.79305500307979
30
0
41
1
10
16.2068028657978
20
1.79080401576152
30
0
41
1
10
15.8702030592312
20
1.7912543164725
30
0
41
1
10
15.6468912938948
20
1.79131412758053
30
0
41
1
10
15.5359476909833
20
1.79130351017551
30
0
0
SPLINE
5
9D
100
AcDbEntity
8
1
62
256
6
ByLayer
370
18
48
1
60
0
100
AcDbSpline
70
4
71
1
72
4
73
2
40
0
40
0
40
1
40
1
41
1
10
26.099906969668
20
-0.214459049122752
30
0
41
1
10
26.1782780242249
20
-0.249313211115606
30
0
0
SPLINE
5
9E
100
AcDbEntity
8
1
62
256
6
ByLayer
370
18
48
1
60
0
100
AcDbSpline
70
4
71
3
72
10
73
6
40
0
40
0
40
0
40
0
40
0.5
40
0.5
40
1
40
1
40
1
40
1
41
1
10
37.4593057031679
20
1.83202511744781
30
0
41
1
10
37.4468829447288
20
1.84708937908331
30
0
41
1
10
37.4342124783601
20
1.85970260110923
30
0
41
1
10
37.4082801828876
20
1.87995503293558
30
0
41
1
10
37.3949529513962
20
1.88760580962258
30
0
41
1
10
37.3815102669165
20
1.89261375927435
30
0
0
SPLINE
5
9F
100
AcDbEntity
8
1
62
256
6
ByLayer
370
18
48
1
60
0
100
AcDbSpline
70
4
71
3
72
16
73
12
40
0
40
0
40
0
40
0
40
0.250000000000005
40
0.250000000000005
40
0.375000000000004
40
0.375000000000004
40
0.500000000000003
40
0.500000000000003
40
0.750000000000002
40
0.750000000000002
40
1
40
1
40
1
40
1
41
1
10
37.0354515397446
20
-1.3408166882158
30
0
41
1
10
37.0641347827406
20
-1.41830274915375
30
0
41
1
10
37.093374539324
20
-1.48636638144976
30
0
41
1
10
37.1378817002692
20
-1.57489314139607
30
0
41
1
10
37.1528284538816
20
-1.60212418671785
30
0
41
1
10
37.1829469405678
20
-1.65193157501508
30
0
41
1
10
37.1981615752375
20
-1.67453957717899
30
0
41
1
10
37.2432417478404
20
-1.7339432183723
30
0
41
1
10
37.2728284065216
20
-1.76292599212778
30
0
41
1
10
37.3313517193554
20
-1.79983160067798
30
0
41
1
10
37.3604537320222
20
-1.80764928886592
30
0
41
1
10
37.3887503233717
20
-1.80413497323244
30
0
0
SPLINE
5
A0
100
AcDbEntity
8
1
62
256
6
ByLayer
370
18
48
1
60
0
100
AcDbSpline
70
4
71
3
72
12
73
8
40
0
40
0
40
0
40
0
40
0.25
40
0.25
40
0.5
40
0.5
40
1
40
1
40
1
40
1
41
1
10
37.1818243900779
20
0.470218395882938
30
0
41
1
10
37.1819809343344
20
0.48012419805309
30
0
41
1
10
37.1849641001591
20
0.48995621916302
30
0
41
1
10
37.196130282185
20
0.506807569764732
30
0
41
1
10
37.2042801264714
20
0.51381523408395
30
0
41
1
10
37.2313772869854
20
0.529082767869085
30
0
41
1
10
37.2525217641806
20
0.532437741746236
30
0
41
1
10
37.2732249458378
20
0.531972531290052
30
0
0
SPLINE
5
A1
100
AcDbEntity
8
1
62
256
6
ByLayer
370
18
48
1
60
0
100
AcDbSpline
70
4
71
3
72
10
73
6
40
0
40
0
40
0
40
0
40
0.5
40
0.5
40
1
40
1
40
1
40
1
41
1
10
3.58529492020401
20
1.8737554193344
30
0
41
1
10
3.56527862068037
20
1.87471189641622
30
0
41
1
10
3.5477540543111
20
1.8758034292363
30
0
41
1
10
3.5219334004791
20
1.87765365254344
30
0
41
1
10
3.51348676867613
20
1.87839505105541
30
0
41
1
10
3.51349608708193
20
1.87866569799547
30
0
0
SPLINE
5
A2
100
AcDbEntity
8
1
62
256
6
ByLayer
370
18
48
1
60
0
100
AcDbSpline
70
4
71
3
72
12
73
8
40
0
40
0
40
0
40
0
40
0.417014201867669
40
0.417014201867669
40
0.834028403735338
40
0.834028403735338
40
1
40
1
40
1
40
1
41
1
10
37.3887503233839
20
-1.80413497323252
30
0
41
1
10
37.0368302369178
20
-1.80940977687806
30
0
41
1
10
36.6858063968564
20
-1.788370899049
30
0
41
1
10
35.9800257201177
20
-1.69491554026874
30
0
41
1
10
35.6290087687059
20
-1.6230141227287
30
0
41
1
10
35.136833419524
20
-1.49126453074987
30
0
41
1
10
34.9962314869385
20
-1.45012158781955
30
0
41
1
10
34.8560039107049
20
-1.40586102672722
30
0
0
SPLINE
5
A3
100
AcDbEntity
8
1
62
256
6
ByLayer
370
13
48
1
60
0
100
AcDbSpline
70
4
71
3
72
26
73
22
40
0
40
0
40
0
40
0
40
0.0168692614022024
40
0.0168692614022024
40
0.0995617426373612
40
0.0995617426373612
40
0.264946705107679
40
0.264946705107679
40
0.347639186342838
40
0.347639186342838
40
0.430331667577996
40
0.430331667577996
40
0.595716630048309
40
0.595716630048309
40
0.761101592518621
40
0.761101592518621
40
0.843794073753777
40
0.843794073753777
40
0.926486554988933
40
0.926486554988933
40
1
40
1
40
1
40
1
41
1
10
34.85600373808
20
-1.40586097224096
30
0
41
1
10
34.8200660156352
20
-1.39451781208697
30
0
41
1
10
34.7841528810011
20
-1.38296988626593
30
0
41
1
10
34.5724252471049
20
-1.31365732952767
30
0
41
1
10
34.3973738471681
20
-1.25136239610109
30
0
41
1
10
33.8734307769379
20
-1.05220795036638
30
0
41
1
10
33.5256812323512
20
-0.903080590446251
30
0
41
1
10
33.0019453679928
20
-0.662791761518776
30
0
41
1
10
32.8270121880912
20
-0.579933718426332
30
0
41
1
10
32.4756915420451
20
-0.409958468495802
30
0
41
1
10
32.298787863091
20
-0.322577316825232
30
0
41
1
10
31.7716609890973
20
-0.0594030403029535
30
0
41
1
10
31.4231051430617
20
0.117602939431691
30
0
41
1
10
30.7261944455178
20
0.463657208209554
30
0
41
1
10
30.3776957774148
20
0.632439363980495
30
0
41
1
10
29.8504272797011
20
0.870265765905145
30
0
41
1
10
29.6734825393715
20
0.947145777034194
30
0
41
1
10
29.3220922656456
20
1.09267715489702
30
0
41
1
10
29.1470981307944
20
1.16146318105155
30
0
41
1
10
28.8171648771283
20
1.28270680298331
30
0
41
1
10
28.6621975914319
20
1.33622772322934
30
0
41
1
10
28.5072540846961
20
1.38585030087663
30
0
0
SPLINE
5
A4
100
AcDbEntity
8
1
62
256
6
ByLayer
370
18
48
1
60
0
100
AcDbSpline
70
4
71
3
72
8
73
4
40
0
40
0
40
0
40
0
40
1
40
1
40
1
40
1
41
1
10
28.5072540844817
20
1.38585030094532
30
0
41
1
10
28.4265589674763
20
1.4116939119067
30
0
41
1
10
28.3458703001871
20
1.43648015099598
30
0
41
1
10
28.2651482857637
20
1.46015820170541
30
0
0
SPLINE
5
A5
100
AcDbEntity
8
1
62
256
6
ByLayer
370
18
48
1
60
0
100
AcDbSpline
70
4
71
3
72
16
73
12
40
0
40
0
40
0
40
0
40
0.0055828657103324
40
0.0055828657103324
40
0.212327324547155
40
0.212327324547155
40
0.625816242220798
40
0.625816242220798
40
0.832560701057618
40
0.832560701057618
40
1
40
1
40
1
40
1
41
1
10
14.7770395285612
20
-1.79065821018577
30
0
41
1
10
14.7722744766302
20
-1.79065218194833
30
0
41
1
10
14.7675094655261
20
-1.7906413823487
30
0
41
1
10
14.5862891880208
20
-1.79004905518102
30
0
41
1
10
14.4107070932405
20
-1.78294896383858
30
0
41
1
10
13.8854375425819
20
-1.74288614643126
30
0
41
1
10
13.5371399678473
20
-1.69093013965181
30
0
41
1
10
13.0132428189703
20
-1.57774124898205
30
0
41
1
10
12.8383667355969
20
-1.53423949791468
30
0
41
1
10
12.5207168201832
20
-1.44559124545205
30
0
41
1
10
12.3778996668765
20
-1.40223597022003
30
0
41
1
10
12.2349099192628
20
-1.35559580601961
30
0
0
SPLINE
5
A6
100
AcDbEntity
8
1
62
256
6
ByLayer
370
13
48
1
60
0
100
AcDbSpline
70
4
71
3
72
24
73
20
40
0
40
0
40
0
40
0
40
0.0150568984379431
40
0.0150568984379431
40
0.173454946130721
40
0.173454946130721
40
0.252653969977111
40
0.252653969977111
40
0.3318529938235
40
0.3318529938235
40
0.490251041516279
40
0.490251041516279
40
0.569450065362668
40
0.569450065362668
40
0.648649089209057
40
0.648649089209057
40
0.965445184594614
40
0.965445184594614
40
1
40
1
40
1
40
1
41
1
10
12.2349099200246
20
-1.35559580626804
30
0
41
1
10
12.2013441145583
20
-1.34464736622806
30
0
41
1
10
12.1677687984284
20
-1.33351791515705
30
0
41
1
10
11.7809477098778
20
-1.2032817147022
30
0
41
1
10
11.4294020811199
20
-1.06524566026522
30
0
41
1
10
10.8997216174497
20
-0.837635731582282
30
0
41
1
10
10.7230211500284
20
-0.758450857862499
30
0
41
1
10
10.3717621419259
20
-0.596136606726191
30
0
41
1
10
10.1967839291521
20
-0.512796431352911
30
0
41
1
10
9.67267438663839
20
-0.258545651706527
30
0
41
1
10
9.32431795901203
20
-0.0834854545282155
30
0
41
1
10
8.79882933197706
20
0.178282551080571
30
0
41
1
10
8.62319860032338
20
0.265455072299716
30
0
41
1
10
8.27029701043563
20
0.438156104873201
30
0
41
1
10
8.09365478772895
20
0.523311203648547
30
0
41
1
10
7.2159028031943
20
0.935262649993263
30
0
41
1
10
6.52366689179811
20
1.22461882418466
30
0
41
1
10
5.74038254736985
20
1.45671281476117
30
0
41
1
10
5.66331707692598
20
1.47853503106492
30
0
41
1
10
5.58631731779244
20
1.49930659353384
30
0
0
SPLINE
5
A7
100
AcDbEntity
8
1
62
256
6
ByLayer
370
18
48
1
60
0
100
AcDbSpline
70
4
71
3
72
10
73
6
40
0
40
0
40
0
40
0
40
0.5
40
0.5
40
1
40
1
40
1
40
1
41
1
10
37.9997816046684
20
0.0265462423708982
30
0
41
1
10
37.9980396437622
20
0.016221240799382
30
0
41
1
10
37.995250981297
20
0.0051172459978659
30
0
41
1
10
37.9877167228245
20
-0.0160227115930809
30
0
41
1
10
37.982918060294
20
-0.0260385146366673
30
0
41
1
10
37.9779768703709
20
-0.0337651943217736
30
0
0
SPLINE
5
A8
100
AcDbEntity
8
1
62
256
6
ByLayer
370
18
48
1
60
0
100
AcDbSpline
70
4
71
3
72
34
73
30
40
0
40
0
40
0
40
0
40
0.0455186870684727
40
0.0455186870684727
40
0.0910373741369453
40
0.0910373741369453
40
0.182074748273891
40
0.182074748273891
40
0.273112122410836
40
0.273112122410836
40
0.364149496547781
40
0.364149496547781
40
0.455186870684727
40
0.455186870684727
40
0.500705557753198
40
0.500705557753198
40
0.546224244821669
40
0.546224244821669
40
0.637261618958612
40
0.637261618958612
40
0.682780306027083
40
0.682780306027083
40
0.728298993095554
40
0.728298993095554
40
0.910373741369428
40
0.910373741369428
40
0.955892428437897
40
0.955892428437897
40
1
40
1
40
1
40
1
41
1
10
37.3815102669165
20
-1.89261375927435
30
0
41
1
10
37.2047301528158
20
-1.90076320029706
30
0
41
1
10
37.0280606265366
20
-1.90193161337746
30
0
41
1
10
36.6741404615295
20
-1.89038276965343
30
0
41
1
10
36.4976731864135
20
-1.87767484432288
30
0
41
1
10
35.9709234664028
20
-1.81971965986642
30
0
41
1
10
35.6225302754361
20
-1.7544252556109
30
0
41
1
10
34.9239489610956
20
-1.57616072272867
30
0
41
1
10
34.5738045852057
20
-1.46328552684824
30
0
41
1
10
33.8659137216816
20
-1.19501679283391
30
0
41
1
10
33.5156689659599
20
-1.04275213857335
30
0
41
1
10
32.8168977902309
20
-0.714465869044233
30
0
41
1
10
32.4681710928805
20
-0.538392001238549
30
0
41
1
10
31.9416559801234
20
-0.2641908445122
30
0
41
1
10
31.7653014687469
20
-0.1711176049632
30
0
41
1
10
31.4113576544697
20
0.016100355762859
30
0
41
1
10
31.235364862595
20
0.109424563634121
30
0
41
1
10
30.7092532071477
20
0.386554381157737
30
0
41
1
10
30.3606664761344
20
0.566856368921492
30
0
41
1
10
29.8364114073353
20
0.822196887943306
30
0
41
1
10
29.6614748411602
20
0.904868948565195
30
0
41
1
10
29.3103362153828
20
1.06369210465391
30
0
41
1
10
29.1337380939223
20
1.13988730425797
30
0
41
1
10
28.2490568338429
20
1.49913632702297
30
0
41
1
10
27.5570698333996
20
1.70879062045822
30
0
41
1
10
26.6785689556096
20
1.84088706189459
30
0
41
1
10
26.5017765982809
20
1.86088482219165
30
0
41
1
10
26.1535117569404
20
1.88671680191408
30
0
41
1
10
25.9830328408062
20
1.89291978592979
30
0
41
1
10
25.8130777110044
20
1.89272004626835
30
0
0
SPLINE
5
A9
100
AcDbEntity
8
1
62
256
6
ByLayer
370
18
48
1
60
0
100
AcDbSpline
70
4
71
3
72
36
73
32
40
0
40
0
40
0
40
0
40
0.0240434577680452
40
0.0240434577680452
40
0.11276677978913
40
0.11276677978913
40
0.157128440799673
40
0.157128440799673
40
0.201490101810216
40
0.201490101810216
40
0.290213423831304
40
0.290213423831304
40
0.378936745852391
40
0.378936745852391
40
0.423298406862934
40
0.423298406862934
40
0.467660067873477
40
0.467660067873477
40
0.556383389894565
40
0.556383389894565
40
0.600745050905108
40
0.600745050905108
40
0.645106711915651
40
0.645106711915651
40
0.822553355957824
40
0.822553355957824
40
0.866915016968368
40
0.866915016968368
40
0.911276677978912
40
0.911276677978912
40
1
40
1
40
1
40
1
41
1
10
15.5501630661759
20
-1.8156034298365
30
0
41
1
10
15.4547536123873
20
-1.82918037371709
30
0
41
1
10
15.3595615966957
20
-1.84079554099688
30
0
41
1
10
14.91380903471
20
-1.88601986865331
30
0
41
1
10
14.5648635326656
20
-1.8946862676012
30
0
41
1
10
14.0398914151652
20
-1.86722783963916
30
0
41
1
10
13.864567256408
20
-1.85133311775306
30
0
41
1
10
13.5124577320763
20
-1.8061303689644
30
0
41
1
10
13.3350320558323
20
-1.77667295687422
30
0
41
1
10
12.8048113713394
20
-1.66929341024243
30
0
41
1
10
12.4547980780721
20
-1.57306925743342
30
0
41
1
10
11.755344072916
20
-1.33942183494989
30
0
41
1
10
11.4061916136259
20
-1.201572394746
30
0
41
1
10
10.8778743475852
20
-0.970457356629453
30
0
41
1
10
10.7003353410179
20
-0.889057870688362
30
0
41
1
10
10.3467178542698
20
-0.721015025479517
30
0
41
1
10
10.1708326840118
20
-0.634429037911133
30
0
41
1
10
9.64471531800092
20
-0.369334080982327
30
0
41
1
10
9.29578489175046
20
-0.185934111307006
30
0
41
1
10
8.77038654053877
20
0.0900273063470252
30
0
41
1
10
8.59495527373304
20
0.182226711978501
30
0
41
1
10
8.24269462457568
20
0.365501421254436
30
0
41
1
10
8.06514214052038
20
0.456820413800188
30
0
41
1
10
7.18124093998742
20
0.901046686194832
30
0
41
1
10
6.48826305467432
20
1.21688730865822
30
0
41
1
10
5.60697609265924
20
1.51023997958274
30
0
41
1
10
5.42943013244548
20
1.56405284187292
30
0
41
1
10
5.07552570171765
20
1.65958361128878
30
0
41
1
10
4.89913626108475
20
1.70128030886792
30
0
41
1
10
4.37028212989182
20
1.80722439578977
30
0
41
1
10
4.01809022440716
20
1.85232522545075
30
0
41
1
10
3.66316731757334
20
1.87008262868588
30
0
0
SPLINE
5
AA
100
AcDbEntity
8
1
62
256
6
ByLayer
370
18
48
1
60
0
100
AcDbSpline
70
4
71
3
72
10
73
6
40
0
40
0
40
0
40
0
40
0.5
40
0.5
40
1
40
1
40
1
40
1
41
1
10
37.4593057031692
20
-1.83202511744619
30
0
41
1
10
37.4468837997733
20
-1.84708834222732
30
0
41
1
10
37.4342118606335
20
-1.85970375418236
30
0
41
1
10
37.4082712213867
20
-1.87996136073613
30
0
41
1
10
37.3949427130818
20
-1.88760962381335
30
0
41
1
10
37.3815102669165
20
-1.89261375927435
30
0
0
SPLINE
5
AB
100
AcDbEntity
8
1
62
256
6
ByLayer
370
18
48
1
60
0
100
AcDbSpline
70
4
71
3
72
10
73
6
40
0
40
0
40
0
40
0
40
0.5
40
0.5
40
1
40
1
40
1
40
1
41
1
10
37.8506163534241
20
0.52072612029923
30
0
41
1
10
37.8888047402145
20
0.454235062384555
30
0
41
1
10
37.9201856557557
20
0.386326157030595
30
0
41
1
10
37.9689218121184
20
0.247587104901527
30
0
41
1
10
37.9859494651819
20
0.177505933163246
30
0
41
1
10
37.9964039908746
20
0.10801281071349
30
0
0
SPLINE
5
AC
100
AcDbEntity
8
1
62
256
6
ByLayer
370
18
48
1
60
0
100
AcDbSpline
70
4
71
3
72
10
73
6
40
0
40
0
40
0
40
0
40
0.5
40
0.5
40
1
40
1
40
1
40
1
41
1
10
37.4593057031612
20
1.83202511746873
30
0
41
1
10
37.5267152435204
20
1.6411966898271
30
0
41
1
10
37.5956365853022
20
1.45041753687644
30
0
41
1
10
37.7357873654559
20
1.0690123202242
30
0
41
1
10
37.8068679094055
20
0.878775268978728
30
0
41
1
10
37.8782259563577
20
0.689412249190752
30
0
0
SPLINE
5
AD
100
AcDbEntity
8
1
62
256
6
ByLayer
370
18
48
1
60
0
100
AcDbSpline
70
4
71
3
72
12
73
8
40
0
40
0
40
0
40
0
40
0.100774257523564
40
0.100774257523564
40
0.60440425888143
40
0.60440425888143
40
1
40
1
40
1
40
1
41
1
10
26.025865193136
20
-1.79785127989604
30
0
41
1
10
25.9552772203995
20
-1.79775643069436
30
0
41
1
10
25.8846733759129
20
-1.79662043785868
30
0
41
1
10
25.461328389238
20
-1.78357937352837
30
0
41
1
10
25.1119449894149
20
-1.74660952798783
30
0
41
1
10
24.4891614997333
20
-1.63792879603449
30
0
41
1
10
24.2154329195899
20
-1.57540590810461
30
0
41
1
10
23.9406140909242
20
-1.49927975239569
30
0
0
SPLINE
5
AE
100
AcDbEntity
8
1
62
256
6
ByLayer
370
13
48
1
60
0
100
AcDbSpline
70
4
71
3
72
28
73
24
40
0
40
0
40
0
40
0
40
0.0317135377678879
40
0.0317135377678879
40
0.105634019281464
40
0.105634019281464
40
0.179554500795041
40
0.179554500795041
40
0.327395463822194
40
0.327395463822194
40
0.401315945335769
40
0.401315945335769
40
0.475236426849345
40
0.475236426849345
40
0.623077389876496
40
0.623077389876496
40
0.69699787139007
40
0.69699787139007
40
0.770918352903644
40
0.770918352903644
40
0.918759315930793
40
0.918759315930793
40
1
40
1
40
1
40
1
41
1
10
23.9406140908594
20
-1.49927975237765
30
0
41
1
10
23.8655631088588
20
-1.47849026437285
30
0
41
1
10
23.7904308166082
20
-1.4566862507057
30
0
41
1
10
23.5398121930122
20
-1.38075556492055
30
0
41
1
10
23.3633063492807
20
-1.32214678007691
30
0
41
1
10
23.0106688617832
20
-1.19592459853843
30
0
41
1
10
22.8351703864194
20
-1.12854639474188
30
0
41
1
10
22.3101970845241
20
-0.915448519550949
30
0
41
1
10
21.9618761914014
20
-0.759212848779839
30
0
41
1
10
21.4379918999636
20
-0.510948880003156
30
0
41
1
10
21.2630687420392
20
-0.426010185092423
30
0
41
1
10
20.911837291721
20
-0.253190131244622
30
0
41
1
10
20.7349857958305
20
-0.165008676863579
30
0
41
1
10
20.2062473346557
20
0.0996640459772777
30
0
41
1
10
19.856217363129
20
0.276109972177324
30
0
41
1
10
19.3300960940104
20
0.531308114964588
30
0
41
1
10
19.154550854305
20
0.614810243942145
30
0
41
1
10
18.8023145052983
20
0.777089141945368
30
0
41
1
10
18.6254212318118
20
0.856141087719635
30
0
41
1
10
18.0966079984896
20
1.08260901722625
30
0
41
1
10
17.7444360362625
20
1.21893713827569
30
0
41
1
10
17.1974099695892
20
1.40139040571464
30
0
41
1
10
17.0044221653685
20
1.45978900305664
30
0
41
1
10
16.8119937987001
20
1.51143389437834
30
0
0
SPLINE
5
AF
100
AcDbEntity
8
1
62
256
6
ByLayer
370
13
48
1
60
0
100
AcDbSpline
70
4
71
3
72
8
73
4
40
0
40
0
40
0
40
0
40
1
40
1
40
1
40
1
41
1
10
3.80586857274605
20
-1.77899741629591
30
0
41
1
10
3.77383554867191
20
-1.78018608075018
30
0
41
1
10
3.74178361635399
20
-1.7811593006102
30
0
41
1
10
3.70971057330593
20
-1.78191554962697
30
0
0
SPLINE
5
B0
100
AcDbEntity
8
1
62
256
6
ByLayer
370
18
48
1
60
0
100
AcDbSpline
70
4
71
3
72
36
73
32
40
0
40
0
40
0
40
0
40
0.0628376873281964
40
0.0628376873281964
40
0.125675374656393
40
0.125675374656393
40
0.251350749312783
40
0.251350749312783
40
0.314188436640979
40
0.314188436640979
40
0.377026123969174
40
0.377026123969174
40
0.439863811297369
40
0.439863811297369
40
0.502701498625565
40
0.502701498625565
40
0.56553918595376
40
0.56553918595376
40
0.628376873281955
40
0.628376873281955
40
0.691214560610151
40
0.691214560610151
40
0.754052247938346
40
0.754052247938346
40
0.816889935266541
40
0.816889935266541
40
0.879727622594737
40
0.879727622594737
40
0.942565309922932
40
0.942565309922932
40
1
40
1
40
1
40
1
41
1
10
6.22632919702335
20
1.06175780945807
30
0
41
1
10
6.38991939926652
20
0.9895481303449
30
0
41
1
10
6.55342382669886
20
0.915663063861558
30
0
41
1
10
6.87961453899132
20
0.763670810741417
30
0
41
1
10
7.04207228466259
20
0.685146433096662
30
0
41
1
10
7.52743473408751
20
0.441702370856575
30
0
41
1
10
7.85193290694465
20
0.275697819923039
30
0
41
1
10
8.33855552360049
20
0.0181651382868324
30
0
41
1
10
8.50158212567572
20
-0.0674713505588898
30
0
41
1
10
8.82935323193593
20
-0.238130861742064
30
0
41
1
10
8.99378428262966
20
-0.323692789861383
30
0
41
1
10
9.31955354842887
20
-0.492311969612245
30
0
41
1
10
9.48221613232437
20
-0.574193921980111
30
0
41
1
10
9.80706749684364
20
-0.733444749651767
30
0
41
1
10
9.96897667472444
20
-0.81131572557436
30
0
41
1
10
10.2922132103409
20
-0.962591402588998
30
0
41
1
10
10.4542810454604
20
-1.03473967574618
30
0
41
1
10
10.7791612475553
20
-1.17246190888571
30
0
41
1
10
10.9416896623733
20
-1.23847266408254
30
0
41
1
10
11.2675476299209
20
-1.36355153365145
30
0
41
1
10
11.4321535586714
20
-1.42178155356859
30
0
41
1
10
11.7597057174973
20
-1.52847633929412
30
0
41
1
10
11.9224525322848
20
-1.57735853536121
30
0
41
1
10
12.2467056471587
20
-1.66513441452139
30
0
41
1
10
12.4088811973345
20
-1.70340610402855
30
0
41
1
10
12.7330020713218
20
-1.76946216466891
30
0
41
1
10
12.8946443905189
20
-1.79742173498408
30
0
41
1
10
13.2180426610957
20
-1.84223633899021
30
0
41
1
10
13.3804371276229
20
-1.8588226952694
30
0
41
1
10
13.6922104012488
20
-1.87975711262212
30
0
41
1
10
13.8412473298817
20
-1.88504773104791
30
0
41
1
10
13.9908880146289
20
-1.8853267935371
30
0
0
SPLINE
5
B1
100
AcDbEntity
8
1
62
256
6
ByLayer
370
18
48
1
60
0
100
AcDbSpline
70
4
71
3
72
66
73
62
40
0
40
0
40
0
40
0
40
0.0199645208681218
40
0.0199645208681218
40
0.0549333172080351
40
0.0549333172080351
40
0.0899021135479481
40
0.0899021135479481
40
0.124870909887861
40
0.124870909887861
40
0.159839706227775
40
0.159839706227775
40
0.194808502567688
40
0.194808502567688
40
0.229777298907601
40
0.229777298907601
40
0.264746095247515
40
0.264746095247515
40
0.299714891587429
40
0.299714891587429
40
0.334683687927343
40
0.334683687927343
40
0.369652484267258
40
0.369652484267258
40
0.404621280607172
40
0.404621280607172
40
0.439590076947086
40
0.439590076947086
40
0.474558873287
40
0.474558873287
40
0.509527669626914
40
0.509527669626914
40
0.544496465966829
40
0.544496465966829
40
0.579465262306743
40
0.579465262306743
40
0.614434058646657
40
0.614434058646657
40
0.649402854986571
40
0.649402854986571
40
0.684371651326485
40
0.684371651326485
40
0.719340447666399
40
0.719340447666399
40
0.754309244006314
40
0.754309244006314
40
0.789278040346228
40
0.789278040346228
40
0.824246836686142
40
0.824246836686142
40
0.859215633026056
40
0.859215633026056
40
0.89418442936597
40
0.89418442936597
40
0.929153225705884
40
0.929153225705884
40
0.964122022045799
40
0.964122022045799
40
0.999090818385713
40
0.999090818385713
40
1
40
1
40
1
40
1
41
1
10
22.5390812601735
20
1.37429831323198
30
0
41
1
10
22.6316579925137
20
1.40809346257836
30
0
41
1
10
22.7243171212957
20
1.44064003270239
30
0
41
1
10
22.9801687704059
20
1.52580156388837
30
0
41
1
10
23.1446569228627
20
1.57527703555672
30
0
41
1
10
23.472002407732
20
1.6643335346869
30
0
41
1
10
23.6342764593325
20
1.70417314638152
30
0
41
1
10
23.9587639880265
20
1.77208262537243
30
0
41
1
10
24.1209860863874
20
1.80029960022787
30
0
41
1
10
24.444691843271
20
1.84597087097092
30
0
41
1
10
24.6057805850205
20
1.86347866984394
30
0
41
1
10
24.9292429087326
20
1.88659270823399
30
0
41
1
10
25.0915804354499
20
1.89235912630491
30
0
41
1
10
25.4167657000069
20
1.89238231235575
30
0
41
1
10
25.5792354989054
20
1.88647792368681
30
0
41
1
10
25.9068255557822
20
1.86281229303117
30
0
41
1
10
26.0706899380134
20
1.84525934550763
30
0
41
1
10
26.3962240913443
20
1.79895122532815
30
0
41
1
10
26.5577755132662
20
1.76982116796822
30
0
41
1
10
26.8814167579326
20
1.70163663052631
30
0
41
1
10
27.0433779603483
20
1.66262380905764
30
0
41
1
10
27.3668833571712
20
1.57424071697847
30
0
41
1
10
27.5280534026902
20
1.5243523908031
30
0
41
1
10
27.8522604376995
20
1.41641545447254
30
0
41
1
10
28.0151308517399
20
1.35830565087198
30
0
41
1
10
28.3417322466995
20
1.23274536060393
30
0
41
1
10
28.5054869849603
20
1.16445825937569
30
0
41
1
10
28.8317271349153
20
1.02373450107058
30
0
41
1
10
28.994511416893
20
0.950870031245017
30
0
41
1
10
29.3187511453491
20
0.799112548304294
30
0
41
1
10
29.4798541310038
20
0.719553555363859
30
0
41
1
10
29.8031623796926
20
0.55866412515573
30
0
41
1
10
29.9651191591084
20
0.476934885356144
30
0
41
1
10
30.2889587289435
20
0.309637007824165
30
0
41
1
10
30.4505129591632
20
0.223388855650654
30
0
41
1
10
30.7760244788387
20
0.051724592749423
30
0
41
1
10
30.9401595413302
20
-0.034425669771565
30
0
41
1
10
31.267499853335
20
-0.207150452149193
30
0
41
1
10
31.4297322283785
20
-0.293937405223829
30
0
41
1
10
31.7544724262008
20
-0.462222368313007
30
0
41
1
10
31.9166816403647
20
-0.544364985884044
30
0
41
1
10
32.2400986875122
20
-0.705973150485249
30
0
41
1
10
32.4010326825046
20
-0.785873002096054
30
0
41
1
10
32.7244902361728
20
-0.938303771437461
30
0
41
1
10
32.8866856868283
20
-1.01146539520226
30
0
41
1
10
33.2113281154894
20
-1.1527522457682
30
0
41
1
10
33.3735410828065
20
-1.22118802023081
30
0
41
1
10
33.7008650213227
20
-1.34867590298146
30
0
41
1
10
33.8651488836729
20
-1.40812142082581
30
0
41
1
10
34.1919215388376
20
-1.51854801323
30
0
41
1
10
34.3545693485691
20
-1.56974757188098
30
0
41
1
10
34.6815326376786
20
-1.6606992852978
30
0
41
1
10
34.8457219942862
20
-1.7010173908229
30
0
41
1
10
35.1730506738917
20
-1.77145960449468
30
0
41
1
10
35.3357906786121
20
-1.80144548158518
30
0
41
1
10
35.6624518902331
20
-1.84919469300246
30
0
41
1
10
35.8259890607336
20
-1.86731914358956
30
0
41
1
10
36.1526588179588
20
-1.89221104685331
30
0
41
1
10
36.3161278615191
20
-1.89880732582472
30
0
41
1
10
36.4840437656479
20
-1.89937622280567
30
0
41
1
10
36.4882988478025
20
-1.89938668854785
30
0
41
1
10
36.4925538579487
20
-1.89939320176009
30
0
0
SPLINE
5
B2
100
AcDbEntity
8
1
62
256
6
ByLayer
370
18
48
1
60
0
100
AcDbSpline
70
4
71
3
72
26
73
22
40
0
40
0
40
0
40
0
40
0.125
40
0.125
40
0.1875
40
0.1875
40
0.25
40
0.25
40
0.375
40
0.375
40
0.5
40
0.5
40
0.562500000000001
40
0.562500000000001
40
0.625000000000001
40
0.625000000000001
40
0.75
40
0.75
40
0.875
40
0.875
40
1
40
1
40
1
40
1
41
1
10
3.51349608708517
20
-1.87866569799556
30
0
41
1
10
3.51354219420349
20
-1.88000484870901
30
0
41
1
10
3.51358151567942
20
-1.87005272630438
30
0
41
1
10
3.51363339251154
20
-1.83807508248168
30
0
41
1
10
3.51364946194042
20
-1.82453510438546
30
0
41
1
10
3.51367918630504
20
-1.79227328265122
30
0
41
1
10
3.51369292705769
20
-1.77350619656414
30
0
41
1
10
3.51373166764753
20
-1.70941661552379
30
0
41
1
10
3.51375429955729
20
-1.65609060741784
30
0
41
1
10
3.51379658162199
20
-1.52897412580677
30
0
41
1
10
3.51381580109646
20
-1.4567270547513
30
0
41
1
10
3.51384427062473
20
-1.33575537185661
30
0
41
1
10
3.51385368752386
20
-1.2933168980901
30
0
41
1
10
3.51387266098078
20
-1.20410908527722
30
0
41
1
10
3.51388223703839
20
-1.1572255363138
30
0
41
1
10
3.5139108531497
20
-1.01301424266757
30
0
41
1
10
3.51393003243186
20
-0.911257639649847
30
0
41
1
10
3.51396880775624
20
-0.696618196464215
30
0
41
1
10
3.51398853869585
20
-0.582805384194586
30
0
41
1
10
3.51402533889302
20
-0.35296728013671
30
0
41
1
10
3.51404259415617
20
-0.236016752059072
30
0
41
1
10
3.51405717763885
20
-0.117004487180225
30
0
0
SPLINE
5
B3
100
AcDbEntity
8
1
62
256
6
ByLayer
370
18
48
1
60
0
100
AcDbSpline
70
4
71
3
72
64
73
60
40
0
40
0
40
0
40
0
40
0.0215981351452457
40
0.0215981351452457
40
0.0565885451709704
40
0.0565885451709704
40
0.0915789551966951
40
0.0915789551966951
40
0.12656936522242
40
0.12656936522242
40
0.161559775248144
40
0.161559775248144
40
0.196550185273869
40
0.196550185273869
40
0.231540595299594
40
0.231540595299594
40
0.266531005325319
40
0.266531005325319
40
0.301521415351043
40
0.301521415351043
40
0.336511825376768
40
0.336511825376768
40
0.371502235402493
40
0.371502235402493
40
0.406492645428218
40
0.406492645428218
40
0.441483055453942
40
0.441483055453942
40
0.476473465479667
40
0.476473465479667
40
0.511463875505392
40
0.511463875505392
40
0.546454285531117
40
0.546454285531117
40
0.581444695556841
40
0.581444695556841
40
0.616435105582566
40
0.616435105582566
40
0.651425515608291
40
0.651425515608291
40
0.686415925634016
40
0.686415925634016
40
0.72140633565974
40
0.72140633565974
40
0.756396745685465
40
0.756396745685465
40
0.79138715571119
40
0.79138715571119
40
0.826377565736914
40
0.826377565736914
40
0.861367975762639
40
0.861367975762639
40
0.896358385788364
40
0.896358385788364
40
0.931348795814088
40
0.931348795814088
40
0.966339205839813
40
0.966339205839813
40
1
40
1
40
1
40
1
41
1
10
11.2922940176576
20
1.37089536271614
30
0
41
1
10
11.3934290375402
20
1.40741033979881
30
0
41
1
10
11.4948374275581
20
1.44219980385057
30
0
41
1
10
11.7597057174973
20
1.52847633929412
30
0
41
1
10
11.9224525322848
20
1.57735853536121
30
0
41
1
10
12.2467056471587
20
1.66513441452136
30
0
41
1
10
12.4088811973345
20
1.70340610402855
30
0
41
1
10
12.7330020713218
20
1.76946216466891
30
0
41
1
10
12.8946443905189
20
1.79742173498408
30
0
41
1
10
13.2180426610957
20
1.84223633899021
30
0
41
1
10
13.3804371276229
20
1.8588226952694
30
0
41
1
10
13.7062161952367
20
1.88069754966884
30
0
41
1
10
13.8692890950708
20
1.88600148011395
30
0
41
1
10
14.1969817501304
20
1.88454301073159
30
0
41
1
10
14.3606266903367
20
1.87786561821909
30
0
41
1
10
14.6865175034212
20
1.85320035728824
30
0
41
1
10
14.8485292041333
20
1.83503551777679
30
0
41
1
10
15.1720114299118
20
1.7874323643484
30
0
41
1
10
15.3340213060948
20
1.75836525616216
30
0
41
1
10
15.658054339285
20
1.68968162855347
30
0
41
1
10
15.8197430044036
20
1.64972040074815
30
0
41
1
10
16.1439374859032
20
1.55949224217562
30
0
41
1
10
16.3069424456474
20
1.50982734442735
30
0
41
1
10
16.6342150240052
20
1.40082770265124
30
0
41
1
10
16.7983760177745
20
1.34083254913418
30
0
41
1
10
17.1243562806959
20
1.21379460465218
30
0
41
1
10
17.2871596832063
20
1.14727967754988
30
0
41
1
10
17.6118321215229
20
1.00762313431801
30
0
41
1
10
17.7733336955856
20
0.933840896372061
30
0
41
1
10
18.0965109131432
20
0.78135066395285
30
0
41
1
10
18.2585627405424
20
0.703340801487627
30
0
41
1
10
18.5829700863877
20
0.542779943213276
30
0
41
1
10
18.7449584047589
20
0.459501218983092
30
0
41
1
10
19.0704759890818
20
0.290488072151163
30
0
41
1
10
19.2347137178168
20
0.205235391872407
30
0
41
1
10
19.5628304125338
20
0.0333850722941804
30
0
41
1
10
19.7259633420636
20
-0.0538046608348566
30
0
41
1
10
20.0526370220627
20
-0.226376860979514
30
0
41
1
10
20.2164341525745
20
-0.311282715217032
30
0
41
1
10
20.5442528563214
20
-0.479665784694646
30
0
41
1
10
20.7080615498691
20
-0.563970861162886
30
0
41
1
10
21.0341104456388
20
-0.726273454722389
30
0
41
1
10
21.1969229242538
20
-0.804250645397673
30
0
41
1
10
21.5214706231992
20
-0.955290355153323
30
0
41
1
10
21.6828038502188
20
-1.02896390033416
30
0
41
1
10
22.006122218094
20
-1.16835991887771
30
0
41
1
10
22.1682142789632
20
-1.23399713030258
30
0
41
1
10
22.4925664797731
20
-1.35827136641296
30
0
41
1
10
22.654434783613
20
-1.41737933885651
30
0
41
1
10
22.9801687704059
20
-1.52580156388837
30
0
41
1
10
23.1446569228627
20
-1.57527703555672
30
0
41
1
10
23.472002407732
20
-1.6643335346869
30
0
41
1
10
23.6342764593324
20
-1.70417314638155
30
0
41
1
10
23.9587639880265
20
-1.77208262537243
30
0
41
1
10
24.1209860863874
20
-1.80029960022787
30
0
41
1
10
24.444691843271
20
-1.84597087097092
30
0
41
1
10
24.6057805850205
20
-1.86347866984394
30
0
41
1
10
24.9230972157098
20
-1.88615354801644
30
0
41
1
10
25.0792438419232
20
-1.89191252364964
30
0
41
1
10
25.2356389068463
20
-1.89234446661919
30
0
0
SPLINE
5
B4
100
AcDbEntity
8
1
62
256
6
ByLayer
370
18
48
1
60
0
100
AcDbSpline
70
4
71
3
72
22
73
18
40
0
40
0
40
0
40
0
40
0.0675086931690156
40
0.0675086931690156
40
0.200721737002013
40
0.200721737002013
40
0.333934780835011
40
0.333934780835011
40
0.467147824668009
40
0.467147824668009
40
0.600360868501006
40
0.600360868501006
40
0.733573912334004
40
0.733573912334004
40
0.866786956167001
40
0.866786956167001
40
1
40
1
40
1
40
1
41
1
10
33.7796424111642
20
1.37612364263595
30
0
41
1
10
33.8627053471039
20
1.40628665660969
30
0
41
1
10
33.9457355308381
20
1.43535414271696
30
0
41
1
10
34.1919215388376
20
1.51854801323
30
0
41
1
10
34.3545693485691
20
1.56974757188098
30
0
41
1
10
34.6815326376787
20
1.66069928529782
30
0
41
1
10
34.8457219942862
20
1.7010173908229
30
0
41
1
10
35.1730506738917
20
1.77145960449468
30
0
41
1
10
35.3357906786121
20
1.80144548158518
30
0
41
1
10
35.6624518902332
20
1.84919469300246
30
0
41
1
10
35.8259890607336
20
1.86731914358956
30
0
41
1
10
36.1526588179587
20
1.89221104685331
30
0
41
1
10
36.3161278615191
20
1.89880732582472
30
0
41
1
10
36.6434493767509
20
1.8999162870204
30
0
41
1
10
36.8070149283573
20
1.89462653305969
30
0
41
1
10
37.1330850861769
20
1.87214359905389
30
0
41
1
10
37.2957343626645
20
1.85483687353718
30
0
41
1
10
37.4593057031692
20
1.83202511744619
30
0
0
SPLINE
5
B5
100
AcDbEntity
8
1
62
256
6
ByLayer
370
18
48
1
60
0
100
AcDbSpline
70
4
71
3
72
8
73
4
40
0
40
0
40
0
40
0
40
1
40
1
40
1
40
1
41
1
10
3.66316731757325
20
-1.87008262868588
30
0
41
1
10
3.63678402820844
20
-1.87140263001262
30
0
41
1
10
3.61021750928029
20
-1.87256449564603
30
0
41
1
10
3.58529492020438
20
-1.87375541933514
30
0
0
SPLINE
5
B6
100
AcDbEntity
8
1
62
256
6
ByLayer
370
18
48
1
60
0
100
AcDbSpline
70
4
71
3
72
10
73
6
40
0
40
0
40
0
40
0
40
0.5
40
0.5
40
1
40
1
40
1
40
1
41
1
10
3.58529492020389
20
-1.8737554193344
30
0
41
1
10
3.56527862068023
20
-1.87471189641622
30
0
41
1
10
3.54775405431098
20
-1.8758034292363
30
0
41
1
10
3.52193340047901
20
-1.87765365254344
30
0
41
1
10
3.51348676867605
20
-1.87839505105541
30
0
41
1
10
3.51349608708185
20
-1.87866569799547
30
0
0
SPLINE
5
B7
100
AcDbEntity
8
1
62
256
6
ByLayer
370
18
48
1
60
0
100
AcDbSpline
70
4
71
3
72
8
73
4
40
0
40
0
40
0
40
0
40
1
40
1
40
1
40
1
41
1
10
37.9964039908745
20
-0.108012810713518
30
0
41
1
10
37.9963758477176
20
-0.0968463350775153
30
0
41
1
10
37.9961992167403
20
-0.0856830213162425
30
0
41
1
10
37.9958666420699
20
-0.0745230281938518
30
0
0
SPLINE
5
B8
100
AcDbEntity
8
1
62
256
6
ByLayer
370
18
48
1
60
0
100
AcDbSpline
70
4
71
3
72
8
73
4
40
0
40
0
40
0
40
0
40
1
40
1
40
1
40
1
41
1
10
37.8782259563537
20
0.68941224919115
30
0
41
1
10
37.8714804040893
20
0.632601584555033
30
0
41
1
10
37.8621468689032
20
0.576389111442893
30
0
41
1
10
37.8506163534241
20
0.52072612029923
30
0
0
SPLINE
5
B9
100
AcDbEntity
8
1
62
256
6
ByLayer
370
18
48
1
60
0
100
AcDbSpline
70
4
71
3
72
10
73
6
40
0
40
0
40
0
40
0
40
0.5
40
0.5
40
1
40
1
40
1
40
1
41
1
10
37.9964039908745
20
0.108012810713518
30
0
41
1
10
37.990339031125
20
0.199627111529224
30
0
41
1
10
37.9764316874055
20
0.2931311317775
30
0
41
1
10
37.9359780156146
20
0.485353767038816
30
0
41
1
10
37.9095039331593
20
0.584594107723575
30
0
41
1
10
37.8782259563573
20
0.689412249190127
30
0
0
SPLINE
5
BA
100
AcDbEntity
8
1
62
256
6
ByLayer
370
18
48
1
60
0
100
AcDbSpline
70
4
71
3
72
8
73
4
40
0
40
0
40
0
40
0
40
1
40
1
40
1
40
1
41
1
10
3.51349608707807
20
-1.87866569800448
30
0
41
1
10
3.53428931767564
20
-1.85229066822095
30
0
41
1
10
3.5607475974075
20
-1.82939247374196
30
0
41
1
10
3.59225182314296
20
-1.81241577730557
30
0
0
SPLINE
5
BB
100
AcDbEntity
8
1
62
256
6
ByLayer
370
18
48
1
60
0
100
AcDbSpline
70
4
71
3
72
8
73
4
40
0
40
0
40
0
40
0
40
1
40
1
40
1
40
1
41
1
10
37.9964039908745
20
0.10801281071349
30
0
41
1
10
37.9963758408139
20
0.0968435959109399
30
0
41
1
10
37.9961991338569
20
0.0856802400501238
30
0
41
1
10
37.9958666420699
20
0.0745230281938234
30
0
0
SPLINE
5
BC
100
AcDbEntity
8
1
62
256
6
ByLayer
370
18
48
1
60
0
100
AcDbSpline
70
4
71
3
72
68
73
64
40
0
40
0
40
0
40
0
40
0.005197424979707
40
0.005197424979707
40
0.038514087364812
40
0.038514087364812
40
0.0718307497499171
40
0.0718307497499171
40
0.105147412135022
40
0.105147412135022
40
0.138464074520127
40
0.138464074520127
40
0.171780736905232
40
0.171780736905232
40
0.205097399290337
40
0.205097399290337
40
0.238414061675442
40
0.238414061675442
40
0.271730724060547
40
0.271730724060547
40
0.305047386445652
40
0.305047386445652
40
0.338364048830758
40
0.338364048830758
40
0.371680711215863
40
0.371680711215863
40
0.404997373600968
40
0.404997373600968
40
0.438314035986073
40
0.438314035986073
40
0.471630698371178
40
0.471630698371178
40
0.504947360756283
40
0.504947360756283
40
0.538264023141388
40
0.538264023141388
40
0.571580685526496
40
0.571580685526496
40
0.604897347911603
40
0.604897347911603
40
0.638214010296711
40
0.638214010296711
40
0.671530672681818
40
0.671530672681818
40
0.704847335066926
40
0.704847335066926
40
0.738163997452033
40
0.738163997452033
40
0.771480659837141
40
0.771480659837141
40
0.804797322222248
40
0.804797322222248
40
0.838113984607356
40
0.838113984607356
40
0.871430646992463
40
0.871430646992463
40
0.904747309377571
40
0.904747309377571
40
0.938063971762679
40
0.938063971762679
40
0.971380634147786
40
0.971380634147786
40
1
40
1
40
1
40
1
41
1
10
33.7881466332293
20
-1.38633128427682
30
0
41
1
10
33.7643242678929
20
-1.39388658272344
30
0
41
1
10
33.7404938904958
20
-1.40134774750155
30
0
41
1
10
33.5638385600166
20
-1.45594883644941
30
0
41
1
10
33.4106002922741
20
-1.49977920251175
30
0
41
1
10
33.1053315345584
20
-1.57996722606521
30
0
41
1
10
32.9529447023175
20
-1.61610040254064
30
0
41
1
10
32.6478892339543
20
-1.67886849766799
30
0
41
1
10
32.4952497685785
20
-1.70532437966381
30
0
41
1
10
32.1897897425765
20
-1.74844839255499
30
0
41
1
10
32.0367563062306
20
-1.76541025157084
30
0
41
1
10
31.731224178051
20
-1.78990182676128
30
0
41
1
10
31.578532587439
20
-1.79736062966774
30
0
41
1
10
31.2734676067009
20
-1.80192000058784
30
0
41
1
10
31.1209904139938
20
-1.79912972109221
30
0
41
1
10
30.8151717695419
20
-1.78471204097482
30
0
41
1
10
30.6619551176217
20
-1.77307731805587
30
0
41
1
10
30.3567276147828
20
-1.73991531151719
30
0
41
1
10
30.2045062259776
20
-1.71835188964781
30
0
41
1
10
29.8994609820477
20
-1.66522764976068
30
0
41
1
10
29.7465493420301
20
-1.63303613044007
30
0
41
1
10
29.4405352111937
20
-1.56188156956654
30
0
41
1
10
29.2878529383682
20
-1.52265147707391
30
0
41
1
10
28.9827551057268
20
-1.43585516436411
30
0
41
1
10
28.8301648787692
20
-1.38788652144064
30
0
41
1
10
28.524808554437
20
-1.28454329245162
30
0
41
1
10
28.3723294990442
20
-1.22959305201007
30
0
41
1
10
28.0664333079151
20
-1.1130738157099
30
0
41
1
10
27.9137150899611
20
-1.05178304824889
30
0
41
1
10
27.6084287471797
20
-0.923288335908325
30
0
41
1
10
27.4560881779374
20
-0.85634602552841
30
0
41
1
10
27.1511553031614
20
-0.718601787042928
30
0
41
1
10
26.9982895899239
20
-0.647681151820137
30
0
41
1
10
26.6922902465711
20
-0.502470276717844
30
0
41
1
10
26.5397586607178
20
-0.428092849456903
30
0
41
1
10
26.2349423549261
20
-0.277527266562743
30
0
41
1
10
26.0824280013085
20
-0.201568723022717
30
0
41
1
10
25.7770134544737
20
-0.0491739197464369
30
0
41
1
10
25.6240503601867
20
0.0277803319286249
30
0
41
1
10
25.3187275773259
20
0.181443817372553
30
0
41
1
10
25.1662732931458
20
0.257518237879623
30
0
41
1
10
24.8611519407886
20
0.407191950836335
30
0
41
1
10
24.708646444357
20
0.481276212915276
30
0
41
1
10
24.4036932533317
20
0.627584799995475
30
0
41
1
10
24.2507343529096
20
0.699409814817244
30
0
41
1
10
23.9451638318101
20
0.836927550066122
30
0
41
1
10
23.7925243399919
20
0.903449311246987
30
0
41
1
10
23.4878042450707
20
1.03288287929823
30
0
41
1
10
23.3355089763571
20
1.09500252332143
30
0
41
1
10
23.0300472168155
20
1.21211875425527
30
0
41
1
10
22.8767474086435
20
1.26714878372064
30
0
41
1
10
22.5714882466056
20
1.37163590687345
30
0
41
1
10
22.4192214062757
20
1.42044157381881
30
0
41
1
10
22.1142048960579
20
1.50841630151547
30
0
41
1
10
21.9614118295912
20
1.54728836927762
30
0
41
1
10
21.6557520916717
20
1.61840624661201
30
0
41
1
10
21.5029305029091
20
1.650921624413
30
0
41
1
10
21.197721854613
20
1.70600250686005
30
0
41
1
10
21.0451566244529
20
1.72890746438779
30
0
41
1
10
20.7401903309954
20
1.76482712723578
30
0
41
1
10
20.58783260505
20
1.77758244299653
30
0
41
1
10
20.3034607662085
20
1.79095521959786
30
0
41
1
10
20.1719240650981
20
1.79368732222923
30
0
41
1
10
20.0406072569702
20
1.79321490545271
30
0
0
SPLINE
5
BD
100
AcDbEntity
8
1
62
256
6
ByLayer
370
18
48
1
60
0
100
AcDbSpline
70
4
71
3
72
30
73
26
40
0
40
0
40
0
40
0
40
0.0060541967961599
40
0.0060541967961599
40
0.0964129061783272
40
0.0964129061783272
40
0.186771615560495
40
0.186771615560495
40
0.277130324942662
40
0.277130324942662
40
0.367489034324829
40
0.367489034324829
40
0.457847743706996
40
0.457847743706996
40
0.548206453089164
40
0.548206453089164
40
0.638565162471331
40
0.638565162471331
40
0.728923871853498
40
0.728923871853498
40
0.819282581235665
40
0.819282581235665
40
0.909641290617833
40
0.909641290617833
40
1
40
1
40
1
40
1
41
1
10
11.3069514174746
20
-1.36800473931822
30
0
41
1
10
11.2966848591301
20
-1.3712895389466
30
0
41
1
10
11.2864176681383
20
-1.3745618120856
30
0
41
1
10
11.1229038271787
20
-1.42647748502426
30
0
41
1
10
10.970101436789
20
-1.47199335604623
30
0
41
1
10
10.6646423131356
20
-1.55420091959829
30
0
41
1
10
10.5119073014551
20
-1.59101131884381
30
0
41
1
10
10.20622379056
20
-1.65506220080084
30
0
41
1
10
10.0532730855499
20
-1.68161768641366
30
0
41
1
10
9.74687691769884
20
-1.72706719587518
30
0
41
1
10
9.59385293095789
20
-1.74579314100745
30
0
41
1
10
9.28801615724029
20
-1.77329516717333
30
0
41
1
10
9.13539251575645
20
-1.78212527323254
30
0
41
1
10
8.82973744543278
20
-1.78964813241077
30
0
41
1
10
8.6763894653302
20
-1.7882798006942
30
0
41
1
10
8.36967484590582
20
-1.77527842516895
30
0
41
1
10
8.21669250291194
20
-1.76441334184449
30
0
41
1
10
7.91096744819637
20
-1.73363864021198
30
0
41
1
10
7.75802833813762
20
-1.71358614886591
30
0
41
1
10
7.45147734991963
20
-1.66363225538541
30
0
41
1
10
7.29796309555328
20
-1.63353410136682
30
0
41
1
10
6.99195823407527
20
-1.56407165212755
30
0
41
1
10
6.83907325180286
20
-1.52507098873591
30
0
41
1
10
6.53296713500248
20
-1.44018456015436
30
0
41
1
10
6.37971093791819
20
-1.39418479494447
30
0
41
1
10
6.22632919702315
20
-1.34404458074525
30
0
0
SPLINE
5
BE
100
AcDbEntity
8
1
62
256
6
ByLayer
370
18
48
1
60
0
100
AcDbSpline
70
4
71
3
72
8
73
4
40
0
40
0
40
0
40
0
40
1
40
1
40
1
40
1
41
1
10
3.70971057330604
20
-1.78191554962697
30
0
41
1
10
3.66879472412711
20
-1.7824708270139
30
0
41
1
10
3.62881264804884
20
-1.79271422897693
30
0
41
1
10
3.59225182314296
20
-1.81241577730557
30
0
0
SPLINE
5
BF
100
AcDbEntity
8
1
62
256
6
ByLayer
370
18
48
1
60
0
100
AcDbSpline
70
4
71
3
72
10
73
6
40
0
40
0
40
0
40
0
40
0.5
40
0.5
40
1
40
1
40
1
40
1
41
1
10
37.9958666420697
20
0.0745230281942781
30
0
41
1
10
37.9956666119013
20
0.0678107452038432
30
0
41
1
10
37.9959617656328
20
0.0601396666027085
30
0
41
1
10
37.9973196906651
20
0.0439994823488803
30
0
41
1
10
37.998377564741
20
0.0354736054933369
30
0
41
1
10
37.9997816046683
20
0.0265462423708414
30
0
0
SPLINE
5
C0
100
AcDbEntity
8
1
62
256
6
ByLayer
370
18
48
1
60
0
100
AcDbSpline
70
4
71
3
72
31
73
27
40
0
40
0
40
0
40
0
40
0.250000000000034
40
0.250000000000034
40
0.375000000000051
40
0.375000000000051
40
0.500000000000068
40
0.500000000000068
40
0.625000000000086
40
0.625000000000086
40
0.750000000000103
40
0.750000000000103
40
0.812500000000112
40
0.812500000000112
40
0.828125000000117
40
0.828125000000117
40
0.835937500000113
40
0.835937500000113
40
0.843750000000109
40
0.843750000000109
40
0.851562500000106
40
0.851562500000106
40
0.859375000000102
40
0.859375000000102
40
0.875000000000091
40
1
40
1
40
1
40
1
41
1
10
35.5480710049025
20
0.679105490306796
30
0
41
1
10
35.6917187358429
20
0.557365064593739
30
0
41
1
10
35.8419623932649
20
0.451102567421742
30
0
41
1
10
36.0780141533402
20
0.316785114571331
30
0
41
1
10
36.1583951873366
20
0.276469698009805
30
0
41
1
10
36.3190575240437
20
0.207299289056067
30
0
41
1
10
36.39980915811
20
0.178132344090983
30
0
41
1
10
36.5622150577471
20
0.131430060701177
30
0
41
1
10
36.6440827282599
20
0.113830652175665
30
0
41
1
10
36.8079530228206
20
0.0923683789996801
30
0
41
1
10
36.8888554244654
20
0.0886135889242041
30
0
41
1
10
37.0083411392892
20
0.0955992556800709
30
0
41
1
10
37.0479023481774
20
0.100085867367369
30
0
41
1
10
37.0964789970329
20
0.108581369946251
30
0
41
1
10
37.1062769794759
20
0.109973633908112
30
0
41
1
10
37.120665562775
20
0.113206886208701
30
0
41
1
10
37.1255014336647
20
0.114366084646548
30
0
41
1
10
37.1339570315503
20
0.119199563002297
30
0
41
1
10
37.1376247531507
20
0.122899719887329
30
0
41
1
10
37.1423487308727
20
0.132596222610999
30
0
41
1
10
37.1432304641647
20
0.1383017046264
30
0
41
1
10
37.1458176636633
20
0.149235636772005
30
0
41
1
10
37.1470741203697
20
0.154724478349721
30
0
41
1
10
37.1507334014744
20
0.171252486797073
30
0
41
1
10
37.1713410327866
20
0.271036311932392
30
0
41
1
10
37.180338151095
20
0.37617221578256
30
0
41
1
10
37.1818243900779
20
0.470218395882938
30
0
0
SPLINE
5
C1
100
AcDbEntity
8
1
62
256
6
ByLayer
370
18
48
1
60
0
100
AcDbSpline
70
4
71
3
72
8
73
4
40
0
40
0
40
0
40
0
40
1
40
1
40
1
40
1
41
1
10
37.2732249458379
20
0.531972531289824
30
0
41
1
10
37.4657858319335
20
0.527645595500701
30
0
41
1
10
37.6583662331332
20
0.523202447370778
30
0
41
1
10
37.8506163534241
20
0.52072612029923
30
0
0
SPLINE
5
C2
100
AcDbEntity
8
1
62
256
6
ByLayer
370
18
48
1
60
0
100
AcDbSpline
70
4
71
3
72
12
73
8
40
0
40
0
40
0
40
0
40
0.25
40
0.25
40
0.5
40
0.5
40
1
40
1
40
1
40
1
41
1
10
37.8782259563545
20
-0.689412249199449
30
0
41
1
10
37.8937947421283
20
-0.63723844013208
30
0
41
1
10
37.9082641096803
20
-0.586111458468167
30
0
41
1
10
37.9345702974662
20
-0.485495649168371
30
0
41
1
10
37.9464098634429
20
-0.43592949536577
30
0
41
1
10
37.976786113281
20
-0.291150918154784
30
0
41
1
10
37.9903777713111
20
-0.199041921320514
30
0
41
1
10
37.9964039908745
20
-0.108012810713518
30
0
0
SPLINE
5
C3
100
AcDbEntity
8
1
62
256
6
ByLayer
370
13
48
1
60
0
100
AcDbSpline
70
4
71
3
72
28
73
24
40
0
40
0
40
0
40
0
40
0.125
40
0.125
40
0.25
40
0.25
40
0.3125
40
0.3125
40
0.375
40
0.375
40
0.5
40
0.5
40
0.625
40
0.625
40
0.6875
40
0.6875
40
0.75
40
0.75
40
0.875
40
0.875
40
0.9375
40
0.9375
40
1
40
1
40
1
40
1
41
1
10
3.70971057330604
20
-1.78191554962697
30
0
41
1
10
3.70975369460282
20
-1.78762988891026
30
0
41
1
10
3.70979039740635
20
-1.78253534088822
30
0
41
1
10
3.70985510788566
20
-1.7507463803434
30
0
41
1
10
3.70988234318338
20
-1.72445120890566
30
0
41
1
10
3.70991897989029
20
-1.67005141454936
30
0
41
1
10
3.70993047844558
20
-1.64940797097515
30
0
41
1
10
3.70995252690571
20
-1.60300284930909
30
0
41
1
10
3.70996312368734
20
-1.57708967381254
30
0
41
1
10
3.70999356992985
20
-1.49302941286501
30
0
41
1
10
3.71001227382783
20
-1.42843337310512
30
0
41
1
10
3.71004942247416
20
-1.28244225862983
30
0
41
1
10
3.71006801944026
20
-1.20023187090399
30
0
41
1
10
3.71009600354679
20
-1.06774708715761
30
0
41
1
10
3.7101053568
20
-1.02198687107941
30
0
41
1
10
3.7101241600445
20
-0.927255570434795
30
0
41
1
10
3.71013365199062
20
-0.878052735772485
30
0
41
1
10
3.71016169813521
20
-0.728156964303679
30
0
41
1
10
3.71017997095913
20
-0.624737884928237
30
0
41
1
10
3.71020559100501
20
-0.464543409074707
30
0
41
1
10
3.71021382139546
20
-0.41029525259583
30
0
41
1
10
3.71022931767868
20
-0.300058033603705
30
0
41
1
10
3.71023661132367
20
-0.243815236318227
30
0
41
1
10
3.71024310206508
20
-0.187433287005916
30
0
0
SPLINE
5
C4
100
AcDbEntity
8
1
62
256
6
ByLayer
370
18
48
1
60
0
100
AcDbSpline
70
4
71
3
72
14
73
10
40
0
40
0
40
0
40
0
40
0.25
40
0.25
40
0.5
40
0.5
40
0.75
40
0.75
40
1
40
1
40
1
40
1
41
1
10
6.22632919702335
20
-1.34404458074494
30
0
41
1
10
6.01056708806456
20
-1.27747396785765
30
0
41
1
10
5.79705416286856
20
-1.20172035846502
30
0
41
1
10
5.37182100800374
20
-1.03293376400438
30
0
41
1
10
5.16018133534428
20
-0.940881948197784
30
0
41
1
10
4.74138463661834
20
-0.745042178549085
30
0
41
1
10
4.53362030055686
20
-0.641260566762043
30
0
41
1
10
4.12025777096059
20
-0.423004646869771
30
0
41
1
10
3.91466822443107
20
-0.308402632904148
30
0
41
1
10
3.71024310226619
20
-0.187433287005973
30
0
0
SPLINE
5
C5
100
AcDbEntity
8
1
62
256
6
ByLayer
370
18
48
1
60
0
100
AcDbSpline
70
4
71
3
72
68
73
64
40
0
40
0
40
0
40
0
40
0.0133664138308894
40
0.0133664138308894
40
0.0466783668138923
40
0.0466783668138923
40
0.0799903197968952
40
0.0799903197968952
40
0.113302272779898
40
0.113302272779898
40
0.146614225762901
40
0.146614225762901
40
0.179926178745904
40
0.179926178745904
40
0.213238131728907
40
0.213238131728907
40
0.24655008471191
40
0.24655008471191
40
0.279862037694913
40
0.279862037694913
40
0.313173990677915
40
0.313173990677915
40
0.346485943660918
40
0.346485943660918
40
0.379797896643921
40
0.379797896643921
40
0.413109849626924
40
0.413109849626924
40
0.446421802609927
40
0.446421802609927
40
0.47973375559293
40
0.47973375559293
40
0.513045708575933
40
0.513045708575933
40
0.546357661558936
40
0.546357661558936
40
0.579669614541938
40
0.579669614541938
40
0.612981567524941
40
0.612981567524941
40
0.646293520507944
40
0.646293520507944
40
0.679605473490947
40
0.679605473490947
40
0.71291742647395
40
0.71291742647395
40
0.746229379456953
40
0.746229379456953
40
0.779541332439956
40
0.779541332439956
40
0.812853285422959
40
0.812853285422959
40
0.846165238405961
40
0.846165238405961
40
0.879477191388964
40
0.879477191388964
40
0.912789144371967
40
0.912789144371967
40
0.94610109735497
40
0.94610109735497
40
0.979413050337973
40
0.979413050337973
40
1
40
1
40
1
40
1
41
1
10
8.79734886537375
20
1.78790218210926
30
0
41
1
10
8.85881611222561
20
1.78806678874594
30
0
41
1
10
8.92029256456865
20
1.78741227911524
30
0
41
1
10
9.13499638710661
20
1.7821525293385
30
0
41
1
10
9.28784479473777
20
1.77330813708221
30
0
41
1
10
9.59379681144137
20
1.74580062534918
30
0
41
1
10
9.74671068280082
20
1.72708478773379
30
0
41
1
10
10.05261449073
20
1.6817224272732
30
0
41
1
10
10.2058441123869
20
1.65514261425011
30
0
41
1
10
10.5123670962726
20
1.59091411806372
30
0
41
1
10
10.6653196141034
20
1.55403190720108
30
0
41
1
10
10.9708478509321
20
1.47177914505306
30
0
41
1
10
11.1234241710699
20
1.42631610085411
30
0
41
1
10
11.4294478322892
20
1.3291458778312
30
0
41
1
10
11.5829961153241
20
1.27762043444193
30
0
41
1
10
11.8891389341833
20
1.16736398977164
30
0
41
1
10
12.0416051867077
20
1.10792094374486
30
0
41
1
10
12.3469037637221
20
0.983562877256617
30
0
41
1
10
12.4996991999918
20
0.918628941928773
30
0
41
1
10
12.8054602184722
20
0.783776448578038
30
0
41
1
10
12.9585657612172
20
0.713703031961472
30
0
41
1
10
13.2644630444853
20
0.571652990503821
30
0
41
1
10
13.4173695162659
20
0.499433048552987
30
0
41
1
10
13.722763635664
20
0.35121765187418
30
0
41
1
10
13.875296930569
20
0.27545430350429
30
0
41
1
10
14.1811120160688
20
0.123181028629176
30
0
41
1
10
14.3345494990387
20
0.0469545516998267
30
0
41
1
10
14.6401442671086
20
-0.105691834637867
30
0
41
1
10
14.7925907653966
20
-0.182127752381263
30
0
41
1
10
15.0977467304576
20
-0.333549478044688
30
0
41
1
10
15.2506218859187
20
-0.408229643940928
30
0
41
1
10
15.5567714849465
20
-0.55567932926968
30
0
41
1
10
15.7096160567001
20
-0.628106239117699
30
0
41
1
10
16.0146028615642
20
-0.76850583552735
30
0
41
1
10
16.1672881830952
20
-0.836616749984273
30
0
41
1
10
16.4728428524809
20
-0.969617045097891
30
0
41
1
10
16.6255390529796
20
-1.03336539893678
30
0
41
1
10
16.9314311092502
20
-1.15509278340497
30
0
41
1
10
17.0837077061995
20
-1.21214559902111
30
0
41
1
10
17.3876430539896
20
-1.31887779441922
30
0
41
1
10
17.5391475300229
20
-1.36876866527015
30
0
41
1
10
17.8416314164318
20
-1.46238850018619
30
0
41
1
10
17.9927393933892
20
-1.50636868469456
30
0
41
1
10
18.2951192306888
20
-1.58337908526485
30
0
41
1
10
18.4463021949142
20
-1.61720648608966
30
0
41
1
10
18.7489801282043
20
-1.67718663534163
30
0
41
1
10
18.9004730688343
20
-1.70378069092564
30
0
41
1
10
19.2049193873029
20
-1.7463526167752
30
0
41
1
10
19.3580904412953
20
-1.76200073362366
30
0
41
1
10
19.6639934305804
20
-1.78428877117071
30
0
41
1
10
19.8165475778508
20
-1.7907466598902
30
0
41
1
10
20.122083369938
20
-1.79454254226181
30
0
41
1
10
20.2749328973203
20
-1.79213410443819
30
0
41
1
10
20.5806031660876
20
-1.77807767844425
30
0
41
1
10
20.7336816919471
20
-1.7654578264584
30
0
41
1
10
21.0395839809064
20
-1.72969446650899
30
0
41
1
10
21.1923993542959
20
-1.70685478970665
30
0
41
1
10
21.4976970626439
20
-1.65197068886101
30
0
41
1
10
21.6501647148325
20
-1.61963295472665
30
0
41
1
10
21.9558798508149
20
-1.54864617904562
30
0
41
1
10
22.1093480949477
20
-1.50972335627219
30
0
41
1
10
22.356651538018
20
-1.43854409988714
30
0
41
1
10
22.4509220048895
20
-1.40953651125579
30
0
41
1
10
22.545153743531
20
-1.3790354076535
30
0
0
SPLINE
5
C6
100
AcDbEntity
8
1
62
256
6
ByLayer
370
18
48
1
60
0
100
AcDbSpline
70
4
71
3
72
26
73
22
40
0
40
0
40
0
40
0
40
0.0293269192341067
40
0.0293269192341067
40
0.13717948376365
40
0.13717948376365
40
0.245032048293194
40
0.245032048293194
40
0.352884612822738
40
0.352884612822738
40
0.460737177352281
40
0.460737177352281
40
0.568589741881825
40
0.568589741881825
40
0.676442306411369
40
0.676442306411369
40
0.784294870940912
40
0.784294870940912
40
0.892147435470457
40
0.892147435470457
40
1
40
1
40
1
40
1
41
1
10
31.3038011222215
20
1.80039270695724
30
0
41
1
10
31.3453242002095
20
1.80049731657175
30
0
41
1
10
31.3868326373771
20
1.80023930992741
30
0
41
1
10
31.5809060517389
20
1.79727325403488
30
0
41
1
10
31.7335269326313
20
1.78976090600099
30
0
41
1
10
32.0386922951578
20
1.76521078213267
30
0
41
1
10
32.1912027984966
20
1.7482812366184
30
0
41
1
10
32.4969947424124
20
1.70504535793481
30
0
41
1
10
32.6497792756179
20
1.67851864177999
30
0
41
1
10
32.9548164865552
20
1.61567574210523
30
0
41
1
10
33.1070893040335
20
1.57953112696671
30
0
41
1
10
33.4119448930971
20
1.49940010849147
30
0
41
1
10
33.5648966844027
20
1.45564081939483
30
0
41
1
10
33.8707059423616
20
1.36108229385232
30
0
41
1
10
34.0231543652877
20
1.31000655553302
30
0
41
1
10
34.3276431551511
20
1.19962480903587
30
0
41
1
10
34.4799612598366
20
1.14090572946148
30
0
41
1
10
34.7851304962805
20
1.01786197944381
30
0
41
1
10
34.9380628509208
20
0.95316912965248
30
0
41
1
10
35.243170554694
20
0.818955456334834
30
0
41
1
10
35.3955658012757
20
0.749804621192339
30
0
41
1
10
35.5480710049023
20
0.679105490306597
30
0
0
SPLINE
5
C7
100
AcDbEntity
8
1
62
256
6
ByLayer
370
18
48
1
60
0
100
AcDbSpline
70
4
71
3
72
8
73
4
40
0
40
0
40
0
40
0
40
1
40
1
40
1
40
1
41
1
10
37.9997816046683
20
-0.0265462423707277
30
0
41
1
10
38.000072568977
20
-0.0088564569516336
30
0
41
1
10
38.000072964981
20
0.0088323810543329
30
0
41
1
10
37.9997816046683
20
0.0265462423707561
30
0
0
SPLINE
5
C8
100
AcDbEntity
8
1
62
256
6
ByLayer
370
18
48
1
60
0
100
AcDbSpline
70
4
71
3
72
10
73
6
40
0
40
0
40
0
40
0
40
0.5
40
0.5
40
1
40
1
40
1
40
1
41
1
10
37.4593057031693
20
-1.83202511744617
30
0
41
1
10
37.527146425321
20
-1.63997606520076
30
0
41
1
10
37.5961800090747
20
-1.4489262755306
30
0
41
1
10
37.736073545141
20
-1.06824597904838
30
0
41
1
10
37.806928583844
20
-0.878614257076094
30
0
41
1
10
37.8782259563544
20
-0.689412249199563
30
0
0
SPLINE
5
C9
100
AcDbEntity
8
1
62
256
6
ByLayer
370
18
48
1
60
0
100
AcDbSpline
70
4
71
3
72
8
73
4
40
0
40
0
40
0
40
0
40
1
40
1
40
1
40
1
41
1
10
37.9958666420699
20
-0.0745230281939087
30
0
41
1
10
37.9954660974134
20
-0.0610822102077861
30
0
41
1
10
37.9969613207738
20
-0.0444785660491505
30
0
41
1
10
37.9997816046683
20
-0.0265462423707277
30
0
0
SPLINE
5
CA
100
AcDbEntity
8
1
62
256
6
ByLayer
370
18
48
1
60
0
100
AcDbSpline
70
4
71
3
72
8
73
4
40
0
40
0
40
0
40
0
40
1
40
1
40
1
40
1
41
1
10
37.3815102669165
20
1.89261375927435
30
0
41
1
10
37.2756890469333
20
1.89749204434384
30
0
41
1
10
37.1697682343067
20
1.89984202318769
30
0
41
1
10
37.0638751041926
20
1.89970480412345
30
0
0
SPLINE
5
CB
100
AcDbEntity
8
1
62
256
6
ByLayer
370
18
48
1
60
0
100
AcDbSpline
70
4
71
3
72
38
73
34
40
0
40
0
40
0
40
0
40
0.0384330309458739
40
0.0384330309458739
40
0.0815178262348522
40
0.0815178262348522
40
0.167687416812809
40
0.167687416812809
40
0.210772212101787
40
0.210772212101787
40
0.253857007390765
40
0.253857007390765
40
0.340026597968722
40
0.340026597968722
40
0.426196188546679
40
0.426196188546679
40
0.469280983835658
40
0.469280983835658
40
0.512365779124637
40
0.512365779124637
40
0.598535369702595
40
0.598535369702595
40
0.641620164991575
40
0.641620164991575
40
0.684704960280555
40
0.684704960280555
40
0.857044141436477
40
0.857044141436477
40
0.900128936725458
40
0.900128936725458
40
0.943213732014438
40
0.943213732014438
40
1
40
1
40
1
40
1
41
1
10
26.7974019892784
20
-1.82278817274465
30
0
41
1
10
26.6403548869592
20
-1.84512974970454
30
0
41
1
10
26.4824350759383
20
-1.86232230609144
30
0
41
1
10
26.1480398054384
20
-1.88711946890356
30
0
41
1
10
25.9722413518001
20
-1.89330550176501
30
0
41
1
10
25.4463909011899
20
-1.89143469489841
30
0
41
1
10
25.0977569226347
20
-1.86297633448527
30
0
41
1
10
24.5732050512103
20
-1.78114045409268
30
0
41
1
10
24.3980551046797
20
-1.74734968919574
30
0
41
1
10
24.0463219451244
20
-1.66713696798592
30
0
41
1
10
23.8691254548094
20
-1.6205193902976
30
0
41
1
10
23.3390226804806
20
-1.46364792490957
30
0
41
1
10
22.9891365934101
20
-1.33745114716589
30
0
41
1
10
22.2903462177398
20
-1.05105207184494
30
0
41
1
10
21.9412557238573
20
-0.891128721312469
30
0
41
1
10
21.4135845170968
20
-0.633134559649903
30
0
41
1
10
21.2362970802448
20
-0.543907610957035
30
0
41
1
10
20.8828518756571
20
-0.362925945366271
30
0
41
1
10
20.7069948649623
20
-0.271329607354829
30
0
41
1
10
20.181064739659
20
0.0049285587123222
30
0
41
1
10
19.8325089614949
20
0.190807930988598
30
0
41
1
10
19.3075544221291
20
0.462104867046207
30
0
41
1
10
19.1322291647195
20
0.551310204667203
30
0
41
1
10
18.7801307916332
20
0.725790390775444
30
0
41
1
10
18.6027328542864
20
0.811462527265917
30
0
41
1
10
17.7196005167927
20
1.22193125544658
30
0
41
1
10
17.0266788336309
20
1.48989547842575
30
0
41
1
10
16.1464887845814
20
1.70806452786931
30
0
41
1
10
15.9690017256033
20
1.74590055769872
30
0
41
1
10
15.6156544740804
20
1.80815158202202
30
0
41
1
10
15.4398806643145
20
1.83264486073853
30
0
41
1
10
15.0335606638998
20
1.87387272888483
30
0
41
1
10
14.8032449853084
20
1.88563985743778
30
0
41
1
10
14.5728438188078
20
1.88570049787393
30
0
0
SPLINE
5
CC
100
AcDbEntity
8
1
62
256
6
ByLayer
370
18
48
1
60
0
100
AcDbSpline
70
4
71
3
72
8
73
4
40
0
40
0
40
0
40
0
40
1
40
1
40
1
40
1
41
1
10
4.41236301252783
20
-1.79215211810194
30
0
41
1
10
4.16329288733959
20
-1.83134352091221
30
0
41
1
10
3.91392618914455
20
-1.85753673122045
30
0
41
1
10
3.66316731757325
20
-1.87008262868588
30
0
0
SPLINE
5
CD
100
AcDbEntity
8
1
62
256
6
ByLayer
370
18
48
1
60
0
100
AcDbSpline
70
4
71
3
72
14
73
10
40
0
40
0
40
0
40
0
40
0.25
40
0.25
40
0.5
40
0.5
40
0.75
40
0.75
40
1
40
1
40
1
40
1
41
1
10
37.3887503233692
20
-1.80413497323275
30
0
41
1
10
37.3920206649475
20
-1.80372881079461
30
0
41
1
10
37.3946648191023
20
-1.80484467212989
30
0
41
1
10
37.398332277262
20
-1.81109427923866
30
0
41
1
10
37.3993150785823
20
-1.81626545432599
30
0
41
1
10
37.3986181733821
20
-1.83190650119235
30
0
41
1
10
37.396870893015
20
-1.84231391331164
30
0
41
1
10
37.3907494997602
20
-1.86620335365745
30
0
41
1
10
37.386385074083
20
-1.87965090162774
30
0
41
1
10
37.3815102669165
20
-1.89261375927441
30
0
0
SPLINE
5
CE
100
AcDbEntity
8
1
62
256
6
ByLayer
370
18
48
1
60
0
100
AcDbSpline
70
4
71
3
72
12
73
8
40
0
40
0
40
0
40
0
40
0.250000000000018
40
0.250000000000018
40
0.500000000000037
40
0.500000000000037
40
1
40
1
40
1
40
1
41
1
10
3.71024310206508
20
-0.187433286886943
30
0
41
1
10
3.69289203729719
20
-0.177165728117956
30
0
41
1
10
3.67547008415122
20
-0.167730853517526
30
0
41
1
10
3.640475210918
20
-0.150711552739665
30
0
41
1
10
3.62268078515282
20
-0.143054461230378
30
0
41
1
10
3.57136812078227
20
-0.124298819201897
30
0
41
1
10
3.53905049308392
20
-0.117252601386099
30
0
41
1
10
3.51405717763885
20
-0.117004487180225
30
0
0
SPLINE
5
CF
100
AcDbEntity
8
1
62
256
6
ByLayer
370
18
48
1
60
0
100
AcDbSpline
70
4
71
3
72
8
73
4
40
0
40
0
40
0
40
0
40
1
40
1
40
1
40
1
41
1
10
3.66316731757331
20
1.87008262868588
30
0
41
1
10
3.63678402820852
20
1.87140263001265
30
0
41
1
10
3.61021750928038
20
1.87256449564603
30
0
41
1
10
3.58529492020446
20
1.87375541933514
30
0
0
SPLINE
5
D0
100
AcDbEntity
8
1
62
256
6
ByLayer
370
18
48
1
60
0
100
AcDbSpline
70
4
71
3
72
29
73
25
40
0
40
0
40
0
40
0
40
0.133295585405476
40
0.133295585405476
40
0.296350038399843
40
0.296350038399843
40
0.45940449139421
40
0.45940449139421
40
0.540931717891393
40
0.540931717891393
40
0.581695331139985
40
0.591886234452133
40
0.591886234452133
40
0.602077137764281
40
0.602077137764281
40
0.612268041076429
40
0.612268041076429
40
0.622458944388576
40
0.622458944388576
40
0.785513397382944
40
0.785513397382944
40
0.948567850377312
40
0.948567850377312
40
1
40
1
40
1
40
1
41
1
10
6.22632919702335
20
1.06175780945807
30
0
41
1
10
6.22632919702335
20
0.986459299164096
30
0
41
1
10
6.22632919702335
20
0.901293399232372
30
0
41
1
10
6.22632919702335
20
0.697074714390169
30
0
41
1
10
6.22632919702332
20
0.573738590991894
30
0
41
1
10
6.22632919702332
20
0.30794551356459
30
0
41
1
10
6.22632919702332
20
0.16800627422603
30
0
41
1
10
6.22632919702332
20
-0.0517360068896267
30
0
41
1
10
6.22632919702332
20
-0.126767936860034
30
0
41
1
10
6.22632919702332
20
-0.241325309669833
30
0
41
1
10
6.22632919702335
20
-0.289420634742641
30
0
41
1
10
6.22632919702332
20
-0.337965766860123
30
0
41
1
10
6.22632919702332
20
-0.357407475501503
30
0
41
1
10
6.22632919702338
20
-0.368187520686149
30
0
41
1
10
6.22632919702338
20
-0.387512909723398
30
0
41
1
10
6.22632919702332
20
-0.396777697629659
30
0
41
1
10
6.22632919702332
20
-0.415606491004297
30
0
41
1
10
6.22632919702335
20
-0.424997177869216
30
0
41
1
10
6.22632919702335
20
-0.584234805501922
30
0
41
1
10
6.22632919702335
20
-0.72884840206541
30
0
41
1
10
6.22632919702335
20
-0.998228455217685
30
0
41
1
10
6.22632919702335
20
-1.1237091913433
30
0
41
1
10
6.22632919702335
20
-1.27527183334189
30
0
41
1
10
6.22632919702335
20
-1.31037650044607
30
0
41
1
10
6.22632919702335
20
-1.34404458074349
30
0
0
SPLINE
5
D1
100
AcDbEntity
8
1
62
256
6
ByLayer
370
18
48
1
60
0
100
AcDbSpline
70
4
71
3
72
24
73
20
40
0
40
0
40
0
40
0
40
0.0625000000000029
40
0.0625000000000029
40
0.125000000000006
40
0.125000000000006
40
0.187500000000009
40
0.187500000000009
40
0.250000000000011
40
0.250000000000011
40
0.375000000000011
40
0.375000000000011
40
0.500000000000011
40
0.500000000000011
40
0.625000000000011
40
0.625000000000011
40
0.750000000000011
40
0.750000000000011
40
1
40
1
40
1
40
1
41
1
10
35.5480710049025
20
0.679105490306597
30
0
41
1
10
35.5436482665023
20
0.625909100120623
30
0
41
1
10
35.5429304447702
20
0.571682439192301
30
0
41
1
10
35.5490106091192
20
0.461139106252915
30
0
41
1
10
35.5559372186323
20
0.404378227314709
30
0
41
1
10
35.5767011946323
20
0.292647535932474
30
0
41
1
10
35.5905016974395
20
0.237311131387912
30
0
41
1
10
35.6243095447908
20
0.127598696663
30
0
41
1
10
35.644453329676
20
0.0729183053278746
30
0
41
1
10
35.7126473641133
20
-0.0876008627213309
30
0
41
1
10
35.7674639142384
20
-0.188400073823288
30
0
41
1
10
35.891213956386
20
-0.380620916283533
30
0
41
1
10
35.9605727288168
20
-0.472197282800465
30
0
41
1
10
36.1060280170436
20
-0.641590237712535
30
0
41
1
10
36.1827023524551
20
-0.720377074137843
30
0
41
1
10
36.3422528104051
20
-0.868664402324981
30
0
41
1
10
36.4255407983632
20
-0.938435389702022
30
0
41
1
10
36.6801191373285
20
-1.13330410372009
30
0
41
1
10
36.8555821394071
20
-1.24431156544614
30
0
41
1
10
37.0354515397446
20
-1.3408166882158
30
0
0
SPLINE
5
D2
100
AcDbEntity
8
1
62
256
6
ByLayer
370
18
48
1
60
0
100
AcDbSpline
70
4
71
3
72
10
73
6
40
0
40
0
40
0
40
0
40
0.5
40
0.5
40
1
40
1
40
1
40
1
41
1
10
37.9779768703709
20
-0.033765194321802
30
0
41
1
10
37.8315294774937
20
-0.262769161603274
30
0
41
1
10
37.6771465835886
20
-0.483514511377677
30
0
41
1
10
37.3611043745949
20
-0.917432509572933
30
0
41
1
10
37.1992812909178
20
-1.13032752157253
30
0
41
1
10
37.0354515397446
20
-1.3408166882158
30
0
0
SPLINE
5
D3
100
AcDbEntity
8
1
62
256
6
ByLayer
370
18
48
1
60
0
100
AcDbSpline
70
4
71
3
72
50
73
46
40
0
40
0
40
0
40
0
40
0.0625000000000048
40
0.0625000000000048
40
0.12500000000001
40
0.12500000000001
40
0.187500000000014
40
0.187500000000014
40
0.218750000000017
40
0.218750000000017
40
0.250000000000019
40
0.250000000000019
40
0.281250000000022
40
0.281250000000022
40
0.296875000000023
40
0.296875000000023
40
0.312500000000024
40
0.312500000000024
40
0.328125000000025
40
0.328125000000025
40
0.343750000000026
40
0.343750000000026
40
0.359375000000028
40
0.359375000000028
40
0.375000000000029
40
0.375000000000029
40
0.406250000000033
40
0.406250000000033
40
0.437500000000038
40
0.437500000000038
40
0.453125000000039
40
0.453125000000039
40
0.460937500000038
40
0.460937500000038
40
0.468750000000037
40
0.468750000000037
40
0.500000000000033
40
0.500000000000033
40
0.625000000000025
40
0.625000000000025
40
0.750000000000017
40
0.750000000000017
40
0.875000000000008
40
0.875000000000008
40
1
40
1
40
1
40
1
41
1
10
3.51405717763887
20
-0.117004487180225
30
0
41
1
10
3.3923005102194
20
-0.0438012173844697
30
0
41
1
10
3.27099453119217
20
0.0313248636855974
30
0
41
1
10
3.02977695865542
20
0.186761909816084
30
0
41
1
10
2.91002957834772
20
0.266957261657438
30
0
41
1
10
2.6775684306179
20
0.432137952374518
30
0
41
1
10
2.5642772657549
20
0.517302162755868
30
0
41
1
10
2.40237300109493
20
0.652699339570717
30
0
41
1
10
2.34968270834605
20
0.699237422623753
30
0
41
1
10
2.2499824271955
20
0.794925968817694
30
0
41
1
10
2.20249655356474
20
0.844499376470083
30
0
41
1
10
2.11752330582101
20
0.946755519438824
30
0
41
1
10
2.07996827863678
20
0.999236270801873
30
0
41
1
10
2.03659607245294
20
1.08196489538142
30
0
41
1
10
2.02463340764183
20
1.10974779290964
30
0
41
1
10
2.00721164674891
20
1.16538002353536
30
0
41
1
10
2.00171501046904
20
1.19367346613555
30
0
41
1
10
1.99898021720375
20
1.24843928948144
30
0
41
1
10
2.00163763705348
20
1.27491107794432
30
0
41
1
10
2.01543307080684
20
1.3260769573246
30
0
41
1
10
2.02666577888186
20
1.35060217098064
30
0
41
1
10
2.05584145949649
20
1.39560992999799
30
0
41
1
10
2.07406581132341
20
1.41663299480859
30
0
41
1
10
2.11524036146849
20
1.45499488112571
30
0
41
1
10
2.13807604333002
20
1.47235394493722
30
0
41
1
10
2.21178664103096
20
1.52036976605106
30
0
41
1
10
2.26804872747672
20
1.54709511107157
30
0
41
1
10
2.38593540789532
20
1.59283866622812
30
0
41
1
10
2.44821650345784
20
1.61212372484073
30
0
41
1
10
2.54421739419169
20
1.63741561033865
30
0
41
1
10
2.57678456929216
20
1.64511563114689
30
0
41
1
10
2.62580979679035
20
1.65625715459885
30
0
41
1
10
2.64204863413025
20
1.66042900348671
30
0
41
1
10
2.67828719586876
20
1.66289830215183
30
0
41
1
10
2.69614828472282
20
1.66203891275404
30
0
41
1
10
2.78563340068149
20
1.65919679882307
30
0
41
1
10
2.85719029127068
20
1.65648920092195
30
0
41
1
10
3.21447838176005
20
1.64072032482346
30
0
41
1
10
3.49840196169598
20
1.62108687515013
30
0
41
1
10
4.06248934162187
20
1.56436847403558
30
0
41
1
10
4.34050589780188
20
1.52738539755992
30
0
41
1
10
4.88947290735254
20
1.43263076670544
30
0
41
1
10
5.1604026483339
20
1.37477487182161
30
0
41
1
10
5.69680381074051
20
1.23567712681555
30
0
41
1
10
5.9623093025962
20
1.15447011153228
30
0
41
1
10
6.22632919702332
20
1.06175780945807
30
0
0
LINE
5
76
100
AcDbEntity
8
81
62
256
6
ByLayer
370
18
48
1
60
0
100
AcDbLine
10
38
20
0
30
0
11
43
21
0
31
0
39
0
210
0
220
0
230
1
0
LINE
5
77
100
AcDbEntity
8
1
62
256
6
ByLayer
370
18
48
1
60
0
100
AcDbLine
10
0
20
-3
30
0
11
1.1
21
-1.877275
31
0
39
0
210
0
220
0
230
1
0
LINE
5
79
100
AcDbEntity
8
1
62
256
6
ByLayer
370
18
48
1
60
0
100
AcDbLine
10
1.1
20
1.877275
30
0
11
0
21
3
31
0
39
0
210
0
220
0
230
1
0
LINE
5
7A
100
AcDbEntity
8
1
62
256
6
ByLayer
370
18
48
1
60
0
100
AcDbLine
10
3.513502
20
1.878784
30
0
11
1.1
21
1.877275
31
0
39
0
210
0
220
0
230
1
0
LINE
5
7B
100
AcDbEntity
8
1
62
256
6
ByLayer
370
18
48
1
60
0
100
AcDbLine
10
14.567599
20
1.885693
30
0
11
13.9993
21
1.885337
31
0
39
0
210
0
220
0
230
1
0
LINE
5
7C
100
AcDbEntity
8
1
62
256
6
ByLayer
370
18
48
1
60
0
100
AcDbLine
10
25.816886
20
1.892723
30
0
11
25.249687
21
1.892369
31
0
39
0
210
0
220
0
230
1
0
LINE
5
7D
100
AcDbEntity
8
1
62
256
6
ByLayer
370
18
48
1
60
0
100
AcDbLine
10
37.066998
20
1.899755
30
0
11
36.497443
21
1.899399
31
0
39
0
210
0
220
0
230
1
0
LINE
5
7E
100
AcDbEntity
8
1
62
256
6
ByLayer
370
18
48
1
60
0
100
AcDbLine
10
36.497443
20
-1.899399
30
0
11
37.066976
21
-1.899755
31
0
39
0
210
0
220
0
230
1
0
LINE
5
7F
100
AcDbEntity
8
1
62
256
6
ByLayer
370
18
48
1
60
0
100
AcDbLine
10
25.249687
20
-1.892369
30
0
11
25.816693
21
-1.892723
31
0
39
0
210
0
220
0
230
1
0
LINE
5
80
100
AcDbEntity
8
1
62
256
6
ByLayer
370
18
48
1
60
0
100
AcDbLine
10
13.9993
20
-1.885337
30
0
11
14.567306
21
-1.885692
31
0
39
0
210
0
220
0
230
1
0
LINE
5
81
100
AcDbEntity
8
1
62
256
6
ByLayer
370
18
48
1
60
0
100
AcDbLine
10
1.1
20
-1.877275
30
0
11
3.513502
21
-1.878784
31
0
39
0
210
0
220
0
230
1
0
LINE
5
82
100
AcDbEntity
8
SK1
62
256
6
ByLayer
370
18
48
1
60
0
100
AcDbLine
10
-35.278312
20
3
30
0
11
-36
21
1.75
31
0
39
0
210
0
220
0
230
1
0
LINE
5
84
100
AcDbEntity
8
SK1
62
256
6
ByLayer
370
18
48
1
60
0
100
AcDbLine
10
-36
20
-1.75
30
0
11
-35.278312
21
-3
31
0
39
0
210
0
220
0
230
1
0
LINE
5
85
100
AcDbEntity
8
SK1
62
256
6
ByLayer
370
18
48
1
60
0
100
AcDbLine
10
0
20
3
30
0
11
-35.278312
21
3
31
0
39
0
210
0
220
0
230
1
0
LINE
5
86
100
AcDbEntity
8
SK1
62
256
6
ByLayer
370
18
48
1
60
0
100
AcDbLine
10
-35.278312
20
-3
30
0
11
0
21
-3
31
0
39
0
210
0
220
0
230
1
0
LINE
5
87
100
AcDbEntity
8
SK4
62
256
6
ByLayer
370
18
48
0.05
60
0
100
AcDbLine
10
43
20
0
30
0
11
-41
21
0
31
0
39
0
210
0
220
0
230
1
0
LINE
5
89
100
AcDbEntity
8
4
62
256
6
ByLayer
370
18
48
0.05
60
0
100
AcDbLine
10
38
20
0
30
0
11
0
21
0
31
0
39
0
210
0
220
0
230
1
0
LINE
5
8B
100
AcDbEntity
8
80
62
256
6
ByLayer
370
18
48
1
60
0
100
AcDbLine
10
0
20
0
30
0
11
-5
21
0
31
0
39
0
210
0
220
0
230
1
0
LINE
5
8C
100
AcDbEntity
8
1
62
256
6
ByLayer
370
13
48
1
60
0
100
AcDbLine
10
37.273225
20
0.531973
30
0
11
37.995867
21
0.074523
31
0
39
0
210
0
220
0
230
1
0
LINE
5
8D
100
AcDbEntity
8
1
62
256
6
ByLayer
370
18
48
1
60
0
100
AcDbLine
10
0
20
-3
30
0
11
0
21
3
31
0
39
0
210
0
220
0
230
1
0
LINE
5
8E
100
AcDbEntity
8
1
62
256
6
ByLayer
370
13
48
1
60
0
100
AcDbLine
10
37.181824
20
0.470218
30
0
11
37.977977
21
-0.033765
31
0
39
0
210
0
220
0
230
1
0
LINE
5
8F
100
AcDbEntity
8
1
62
256
6
ByLayer
370
18
48
1
60
0
100
AcDbLine
10
1.1
20
1.877275
30
0
11
1.1
21
-1.877275
31
0
39
0
210
0
220
0
230
1
0
LINE
5
90
100
AcDbEntity
8
SK1
62
256
6
ByLayer
370
18
48
1
60
0
100
AcDbLine
10
-36
20
1.75
30
0
11
-36
21
-1.75
31
0
39
0
210
0
220
0
230
1
0
LINE
5
91
100
AcDbEntity
8
SK1
62
256
6
ByLayer
370
18
48
1
60
0
100
AcDbLine
10
0
20
-3
30
0
11
0
21
3
31
0
39
0
210
0
220
0
230
1
0
LINE
5
92
100
AcDbEntity
8
SK1
62
256
6
ByLayer
370
18
48
1
60
0
100
AcDbLine
10
-35.278312
20
3
30
0
11
-35.278312
21
-3
31
0
39
0
210
0
220
0
230
1
0
MTEXT
5
D4
100
AcDbEntity
8
SK6
62
256
6
ByLayer
370
13
48
1
60
0
100
AcDbMText
10
3.129169
20
34.282694
30
0
210
0
220
0
230
1
1
\W0.7538;460.1-0380-019A0-XM GC34
40
3.5
41
0
44
1.084337
50
0
71
8
72
5
7
iso_b_vert
0
DIMENSION
5
E1
100
AcDbEntity
8
SK2
62
256
6
ByLayer
370
13
48
1
60
0
100
AcDbDimension
2
DimnDraft3D1
10
37.4503
20
-12.113398
30
0
11
17.700359
21
-12.113398
31
0
70
32
71
5
72
1
41
1
210
0
220
0
230
1
3
Standard
100
AcDbAlignedDimension
13
0
23
-1.5875
33
0
14
37.4503
24
-3.4875
34
0
50
0
100
AcDbRotatedDimension
1001
ACAD
1000
DSTYLE
1002
{
1070
   279
1070
     0
1070
   172
1070
     1
1070
   173
1070
     1
1070
   340
1005
D5
1070
   271
1070
     2
1070
   272
1070
     2
1070
    77
1070
     1
1070
    73
1070
     0
1070
   171
1070
     3
1070
   274
1070
     4
1070
   177
1070
    35
1070
   176
1070
    35
1070
   178
1070
    35
1070
    48
1040
-0.005
1070
    41
1041
3.5
1070
   147
1041
1.75
1070
    42
1041
1.5875
1070
    44
1041
2.0
1070
   140
1041
3.5
1070
   343
1005
0
1070
   344
1005
0
1002
}
0
DIMENSION
5
EB
100
AcDbEntity
8
SK2
62
256
6
ByLayer
370
13
48
1
60
0
100
AcDbDimension
2
DimnDraft3D2
10
38
20
-31.692985
30
0
11
1.7916
21
-31.692985
31
0
70
32
71
5
72
1
41
1
210
0
220
0
230
1
3
Standard
100
AcDbAlignedDimension
13
-36
23
-4.5875
33
0
14
38
24
-1.5875
34
0
50
0
100
AcDbRotatedDimension
1001
ACAD
1000
DSTYLE
1002
{
1070
   279
1070
     0
1070
   172
1070
     1
1070
   173
1070
     1
1070
   340
1005
D5
1070
   271
1070
     2
1070
   272
1070
     2
1070
    77
1070
     1
1070
    73
1070
     0
1070
   171
1070
     3
1070
   274
1070
     4
1070
   177
1070
    35
1070
   176
1070
    35
1070
   178
1070
    35
1070
    48
1040
-0.005
1070
    41
1041
3.5
1070
   147
1041
1.75
1070
    42
1041
1.5875
1070
    44
1041
2.0
1070
   140
1041
3.5
1070
   343
1005
0
1070
   344
1005
0
1002
}
0
DIMENSION
5
F5
100
AcDbEntity
8
SK2
62
256
6
ByLayer
370
13
48
1
60
0
100
AcDbDimension
2
DimnDraft3D3
10
38
20
13.509119
30
0
11
28.23
21
13.509119
31
0
70
32
71
5
72
1
41
1
210
0
220
0
230
1
3
Standard
100
AcDbAlignedDimension
13
18.46
23
3.4875
33
0
14
38
24
1.5875
34
0
50
0
100
AcDbRotatedDimension
1001
ACAD
1000
DSTYLE
1002
{
1070
   279
1070
     0
1070
   172
1070
     1
1070
   173
1070
     1
1070
   340
1005
D5
1070
   271
1070
     2
1070
   272
1070
     2
1070
    77
1070
     1
1070
    73
1070
     0
1070
   171
1070
     3
1070
   274
1070
     4
1070
   177
1070
    35
1070
   176
1070
    35
1070
   178
1070
    35
1070
    48
1040
-0.005
1070
    41
1041
3.5
1070
   147
1041
1.75
1070
    42
1041
1.5875
1070
    44
1041
2.0
1070
   140
1041
3.5
1070
   343
1005
0
1070
   344
1005
0
1002
}
0
DIMENSION
5
FF
100
AcDbEntity
8
SK2
62
256
6
ByLayer
370
13
48
1
60
0
100
AcDbDimension
2
DimnDraft3D4
10
37.4503
20
-14.702503
30
0
11
47.981425
21
-14.702503
31
0
70
32
71
5
72
1
41
1
210
0
220
0
230
1
3
Standard
100
AcDbAlignedDimension
13
38
23
-1.5875
33
0
14
37.4503
24
-3.4875
34
0
50
0
100
AcDbRotatedDimension
1001
ACAD
1000
DSTYLE
1002
{
1070
   279
1070
     0
1070
   172
1070
     1
1070
   173
1070
     1
1070
   340
1005
D5
1070
   271
1070
     2
1070
   272
1070
     2
1070
    77
1070
     1
1070
    73
1070
     0
1070
   171
1070
     3
1070
   274
1070
     4
1070
   177
1070
    35
1070
   176
1070
    35
1070
   178
1070
    35
1070
    48
1040
-0.005
1070
    41
1041
3.5
1070
   147
1041
1.75
1070
    42
1041
1.5875
1070
    44
1041
2.0
1070
   140
1041
3.5
1070
   343
1005
0
1070
   344
1005
0
1002
}
0
DIMENSION
5
109
100
AcDbEntity
8
SK2
62
256
6
ByLayer
370
13
48
1
60
0
100
AcDbDimension
2
DimnDraft3D5
10
37.4503
20
-21.343428
30
0
11
-1.289024
21
-21.343428
31
0
70
32
71
5
72
1
41
1
210
0
220
0
230
1
3
Standard
100
AcDbAlignedDimension
13
-36
23
-4.5875
33
0
14
37.4503
24
-3.4875
34
0
50
0
100
AcDbRotatedDimension
1001
ACAD
1000
DSTYLE
1002
{
1070
   279
1070
     0
1070
   172
1070
     1
1070
   173
1070
     1
1070
   340
1005
D5
1070
   271
1070
     2
1070
   272
1070
     2
1070
    77
1070
     1
1070
    73
1070
     0
1070
   171
1070
     3
1070
   274
1070
     4
1070
   177
1070
    35
1070
   176
1070
    35
1070
   178
1070
    35
1070
    48
1040
-0.005
1070
    41
1041
3.5
1070
   147
1041
1.75
1070
    42
1041
1.5875
1070
    44
1041
2.0
1070
   140
1041
3.5
1070
   343
1005
0
1070
   344
1005
0
1002
}
0
DIMENSION
5
114
100
AcDbEntity
8
SK2
62
256
6
ByLayer
370
13
48
1
60
0
100
AcDbDimension
2
DimnDraft3D6
10
-46.625163
20
3
30
0
11
-47.250163
21
21.47418
31
0
70
33
71
5
72
1
41
1
210
0
220
0
230
1
3
Standard
100
AcDbAlignedDimension
13
-37.5875
23
-3
33
0
14
-37.5875
24
3
34
0
1001
ACAD
1000
DSTYLE
1002
{
1070
   279
1070
     0
1070
    74
1070
     0
1070
   173
1070
     1
1070
   340
1005
D5
1070
   271
1070
     3
1070
   272
1070
     2
1070
    77
1070
     1
1070
    73
1070
     0
1070
   171
1070
     3
1070
   274
1070
     4
1070
   177
1070
    35
1070
   176
1070
    35
1070
   178
1070
    35
1070
    48
1040
-0.005
1070
    41
1041
3.5
1070
   147
1041
1.75
1070
    42
1041
1.5875
1070
    44
1041
2.0
1070
   140
1041
3.5
1070
   343
1005
0
1070
   344
1005
0
1002
}
0
DIMENSION
5
11F
100
AcDbEntity
8
2
62
256
6
ByLayer
370
13
48
1
60
0
100
AcDbDimension
2
DimnDraft3D7
10
52.083343
20
1.9
30
0
11
47.458343
21
18.967266
31
0
70
33
71
5
72
1
41
1
210
0
220
0
230
1
3
Standard
100
AcDbAlignedDimension
13
39.0378
23
-1.9
33
0
14
39.0378
24
1.9
34
0
1001
ACAD
1000
DSTYLE
1002
{
1070
   279
1070
     0
1070
    74
1070
     0
1070
   173
1070
     1
1070
   340
1005
D5
1070
   271
1070
     3
1070
   272
1070
     2
1070
    77
1070
     1
1070
    73
1070
     0
1070
   171
1070
     3
1070
   274
1070
     4
1070
   177
1070
    35
1070
   176
1070
    35
1070
   178
1070
    35
1070
    48
1040
-0.005
1070
    41
1041
3.5
1070
   147
1041
1.75
1070
    42
1041
1.5875
1070
    44
1041
2.0
1070
   140
1041
3.5
1070
   343
1005
0
1070
   344
1005
0
1002
}
0
ENDSEC
0
SECTION
2
OBJECTS
0
DICTIONARY
5
18a
330
0
100
AcDbDictionary
280
0
281
1
3
ACAD_GROUP
350
18b
3
ACAD_MLINESTYLE
350
18c
0
DICTIONARY
5
18b
330
0
100
AcDbDictionary
280
0
281
1
0
DICTIONARY
5
18c
330
0
100
AcDbDictionary
280
0
281
1
3
Standard
350
18
0
MLINESTYLE
5
18
330
18c
100
AcDbMlineStyle
2
Standard
70
0
3

62
256
51
90
52
90
71
2
49
-0.5
62
256
6
ByLayer
49
0.5
62
256
6
ByLayer
0
RASTERVARIABLES
5
178
330

100
AcDbRasterVariables
90
0
70
1
71
1
72
1
0
ENDSEC
0
EOF
