0
SECTION
2
HEADER
9
$ACADVER
1
AC1015
9
$DWGCODEPAGE
3
ANSI_1252
9
$HANDSEED
5
197
9
$ANGBASE
50
0
9
$ANGDIR
70
0
9
$ATTMODE
70
1
9
$AUNITS
70
0
9
$AUPREC
70
0
9
$CECOLOR
62
256
9
$CELTSCALE
40
1
9
$CELTYPE
6
ByLayer
9
$CELWEIGHT
370
18
9
$CLAYER
8
0
9
$CMLJUST
70
0
9
$CMLSCALE
40
1
9
$CMLSTYLE
2
Standard
9
$DIMSTYLE
2
Standard
9
$TEXTSIZE
40
0.2
9
$TEXTSTYLE
7
Standard
9
$LUNITS
70
2
9
$LUPREC
70
4
9
$EXTNAMES
290
1
9
$INSUNITS
70
4
9
$LTSCALE
40
1
9
$LWDISPLAY
290
1
9
$PDMODE
70
0
9
$PDSIZE
40
0
9
$PLINEGEN
70
0
0
ENDSEC
0
SECTION
2
CLASSES
0
CLASS
1
RASTERVARIABLES
2
AcDbRasterVariables
3
ISM
90
0
280
0
281
0
0
ENDSEC
0
SECTION
2
TABLES
0
TABLE
2
VPORT
5
18d
100
AcDbSymbolTable
0
VPORT
5
1
100
AcDbSymbolTableRecord
100
AcDbViewportTableRecord
2
*Active
70
0
10
0
20
0
11
1
21
1
12
-1
22
1
13
0
23
0
14
0.5
24
0.5
15
10
25
10
16
0
26
0
36
1
17
0
27
0
37
0
0
ENDTAB
0
TABLE
2
LTYPE
5
18e
100
AcDbSymbolTable
0
LTYPE
5
14
100
AcDbSymbolTableRecord
100
AcDbLinetypeTableRecord
70
0
2
ByBlock
3

72
65
73
0
40
0
0
LTYPE
5
15
100
AcDbSymbolTableRecord
100
AcDbLinetypeTableRecord
70
0
2
ByLayer
3

72
65
73
0
40
0
0
LTYPE
5
16
100
AcDbSymbolTableRecord
100
AcDbLinetypeTableRecord
70
0
2
CONTINUOUS
3
Solid line
72
65
73
0
40
0
0
LTYPE
5
6A
100
AcDbSymbolTableRecord
100
AcDbLinetypeTableRecord
70
0
2
CENTER
3
____ _ ____ _ ____ _ ____
72
65
73
4
40
47.5
49
22
74
0
49
-8.5
74
0
49
8.5
74
0
49
-8.5
74
0
0
LTYPE
5
6B
100
AcDbSymbolTableRecord
100
AcDbLinetypeTableRecord
70
0
2
DASHED
3
__ __ __ __ __ __ __ __ __
72
65
73
2
40
25.72
49
12.86
74
0
49
-12.86
74
0
0
ENDTAB
0
TABLE
2
LAYER
5
18f
100
AcDbSymbolTable
0
LAYER
5
10
100
AcDbSymbolTableRecord
100
AcDbLayerTableRecord
2
0
70
0
62
7
6
CONTINUOUS
290
1
370
-3
390
0
0
LAYER
5
6D
100
AcDbSymbolTableRecord
100
AcDbLayerTableRecord
2
81
70
0
62
-3
6
CONTINUOUS
290
1
370
-3
390
0
0
LAYER
5
6F
100
AcDbSymbolTableRecord
100
AcDbLayerTableRecord
2
80
70
0
62
-6
6
CONTINUOUS
290
1
370
-3
390
0
0
LAYER
5
74
100
AcDbSymbolTableRecord
100
AcDbLayerTableRecord
2
2
70
0
62
7
6
CONTINUOUS
290
1
370
-3
390
0
0
LAYER
5
78
100
AcDbSymbolTableRecord
100
AcDbLayerTableRecord
2
1
70
0
62
4
6
CONTINUOUS
290
1
370
-3
390
0
0
LAYER
5
88
100
AcDbSymbolTableRecord
100
AcDbLayerTableRecord
2
4
70
0
62
-2
6
CENTER
290
1
370
-3
390
0
0
LAYER
5
179
100
AcDbSymbolTableRecord
100
AcDbLayerTableRecord
2
SK2
70
0
62
7
6
CONTINUOUS
290
1
370
-3
390
0
0
LAYER
5
17a
100
AcDbSymbolTableRecord
100
AcDbLayerTableRecord
2
SK1
70
0
62
4
6
CONTINUOUS
290
1
370
-3
390
0
0
LAYER
5
17b
100
AcDbSymbolTableRecord
100
AcDbLayerTableRecord
2
SK4
70
0
62
2
6
CENTER
290
1
370
-3
390
0
0
LAYER
5
17c
100
AcDbSymbolTableRecord
100
AcDbLayerTableRecord
2
SK6
70
0
62
5
6
CONTINUOUS
290
1
370
-3
390
0
0
ENDTAB
0
TABLE
2
STYLE
5
190
100
AcDbSymbolTable
0
STYLE
5
11
100
AcDbSymbolTableRecord
100
AcDbTextStyleTableRecord
2
Standard
3
txt
70
0
71
0
40
0
41
1
42
0
50
0
0
STYLE
5
D5
100
AcDbSymbolTableRecord
100
AcDbTextStyleTableRecord
2
iso_b_vert
3
simplex.shx
70
0
71
0
40
0
41
1
42
0
50
0
0
STYLE
5
D6
100
AcDbSymbolTableRecord
100
AcDbTextStyleTableRecord
2
DWGDirectTextStyle
3
simplex
70
0
71
0
40
0
41
1
42
0
50
0
0
ENDTAB
0
TABLE
2
DIMSTYLE
5
191
100
AcDbSymbolTable
100
AcDbDimStyleTable
0
DIMSTYLE
105
27
100
AcDbSymbolTableRecord
100
AcDbDimStyleTableRecord
2
Standard
70
0
3
<>
41
0.18
42
0.0625
44
0.18
140
0.18
147
0.09
73
0
74
0
77
1
271
2
275
0
278
52
280
0
340
11
0
ENDTAB
0
TABLE
2
VIEW
5
192
100
AcDbSymbolTable
0
ENDTAB
0
TABLE
2
UCS
5
193
100
AcDbSymbolTable
0
ENDTAB
0
TABLE
2
APPID
5
194
100
AcDbSymbolTable
0
APPID
5
12
100
AcDbSymbolTableRecord
100
AcDbRegAppTableRecord
2
ACAD
70
0
0
ENDTAB
0
TABLE
2
BLOCK_RECORD
5
195
100
AcDbSymbolTable
0
BLOCK_RECORD
5
1F
100
AcDbSymbolTableRecord
100
AcDbBlockTableRecord
2
*Model_Space
340
0
70
0
0
BLOCK_RECORD
5
1B
100
AcDbSymbolTableRecord
100
AcDbBlockTableRecord
2
*Paper_Space
340
0
70
0
0
BLOCK_RECORD
5
23
100
AcDbSymbolTableRecord
100
AcDbBlockTableRecord
2
*Paper_Space0
340
0
70
0
0
BLOCK_RECORD
5
D8
100
AcDbSymbolTableRecord
100
AcDbBlockTableRecord
2
DimnDraft3D1
340
0
70
0
0
BLOCK_RECORD
5
E2
100
AcDbSymbolTableRecord
100
AcDbBlockTableRecord
2
DimnDraft3D2
340
0
70
0
0
BLOCK_RECORD
5
EC
100
AcDbSymbolTableRecord
100
AcDbBlockTableRecord
2
DimnDraft3D3
340
0
70
0
0
BLOCK_RECORD
5
F6
100
AcDbSymbolTableRecord
100
AcDbBlockTableRecord
2
DimnDraft3D4
340
0
70
0
0
BLOCK_RECORD
5
100
100
AcDbSymbolTableRecord
100
AcDbBlockTableRecord
2
DimnDraft3D5
340
0
70
0
0
BLOCK_RECORD
5
10A
100
AcDbSymbolTableRecord
100
AcDbBlockTableRecord
2
DimnDraft3D6
340
0
70
0
0
BLOCK_RECORD
5
115
100
AcDbSymbolTableRecord
100
AcDbBlockTableRecord
2
DimnDraft3D7
340
0
70
0
0
ENDTAB
0
ENDSEC
0
SECTION
2
BLOCKS
0
BLOCK
5
20
100
AcDbEntity
8
0
100
AcDbBlockBegin
2
*Model_Space
70
0
10
0
20
0
30
0
3
*Model_Space
0
ENDBLK
5
21
100
AcDbEntity
8
0
100
AcDbBlockEnd
0
BLOCK
5
1C
100
AcDbEntity
8
0
100
AcDbBlockBegin
2
*Paper_Space
70
0
10
0
20
0
30
0
3
*Paper_Space
0
ENDBLK
5
1D
100
AcDbEntity
8
0
100
AcDbBlockEnd
0
BLOCK
5
24
100
AcDbEntity
8
0
100
AcDbBlockBegin
2
*Paper_Space0
70
0
10
0
20
0
30
0
3
*Paper_Space0
0
ENDBLK
5
25
100
AcDbEntity
8
0
100
AcDbBlockEnd
0
BLOCK
5
DF
100
AcDbEntity
8
0
100
AcDbBlockBegin
2
DimnDraft3D1
70
0
10
0
20
0
30
0
3
DimnDraft3D1
0
MTEXT
5
D9
100
AcDbEntity
8
SK2
62
256
6
ByLayer
370
13
48
1
60
0
100
AcDbMText
10
9.067464
20
-11.238398
30
0
210
0
220
0
230
1
1
\W0.7581;29,45
40
3.5
41
0
44
1.084337
50
0
71
7
72
5
7
iso_b_vert
0
LINE
5
DA
100
AcDbEntity
8
SK2
62
256
6
ByLayer
370
13
48
1
60
0
100
AcDbLine
10
0
20
-1.5875
30
0
11
0
21
-14.113398
31
0
39
0
210
0
220
0
230
1
0
LINE
5
DB
100
AcDbEntity
8
SK2
62
256
6
ByLayer
370
13
48
1
60
0
100
AcDbLine
10
29.4503
20
-3.4875
30
0
11
29.4503
21
-14.113398
31
0
39
0
210
0
220
0
230
1
0
LINE
5
DC
100
AcDbEntity
8
SK2
62
256
6
ByLayer
370
13
48
1
60
0
100
AcDbLine
10
0
20
-12.113398
30
0
11
29.4503
21
-12.113398
31
0
39
0
210
0
220
0
230
1
0
SOLID
5
DD
100
AcDbEntity
8
SK2
62
256
6
ByLayer
370
13
48
1
60
0
100
AcDbTrace
10
0
20
-12.113398
30
0
11
3.499998
21
-11.652615
31
0
12
3.500002
22
-12.574182
32
0
13
0
23
-12.113398
33
0
39
0
210
0
220
0
230
1
0
SOLID
5
DE
100
AcDbEntity
8
SK2
62
256
6
ByLayer
370
13
48
1
60
0
100
AcDbTrace
10
29.4503
20
-12.113398
30
0
11
25.950302
21
-12.574182
31
0
12
25.950298
22
-11.652615
32
0
13
29.4503
23
-12.113398
33
0
39
0
210
0
220
0
230
1
0
ENDBLK
5
E0
100
AcDbEntity
8
0
100
AcDbBlockEnd
0
BLOCK
5
E9
100
AcDbEntity
8
0
100
AcDbBlockBegin
2
DimnDraft3D2
70
0
10
0
20
0
30
0
3
DimnDraft3D2
0
MTEXT
5
E3
100
AcDbEntity
8
SK2
62
256
6
ByLayer
370
13
48
1
60
0
100
AcDbMText
10
-6.657084
20
-30.817985
30
0
210
0
220
0
230
1
1
\W0.7317;66,00
40
3.5
41
0
44
1.084337
50
0
71
7
72
5
7
iso_b_vert
0
LINE
5
E4
100
AcDbEntity
8
SK2
62
256
6
ByLayer
370
13
48
1
60
0
100
AcDbLine
10
-36
20
-4.5875
30
0
11
-36
21
-33.692985
31
0
39
0
210
0
220
0
230
1
0
LINE
5
E5
100
AcDbEntity
8
SK2
62
256
6
ByLayer
370
13
48
1
60
0
100
AcDbLine
10
30
20
-1.5875
30
0
11
30
21
-33.692985
31
0
39
0
210
0
220
0
230
1
0
LINE
5
E6
100
AcDbEntity
8
SK2
62
256
6
ByLayer
370
13
48
1
60
0
100
AcDbLine
10
-36
20
-31.692985
30
0
11
30
21
-31.692985
31
0
39
0
210
0
220
0
230
1
0
SOLID
5
E7
100
AcDbEntity
8
SK2
62
256
6
ByLayer
370
13
48
1
60
0
100
AcDbTrace
10
-36
20
-31.692985
30
0
11
-32.500002
21
-31.232202
31
0
12
-32.499998
22
-32.153769
32
0
13
-36
23
-31.692985
33
0
39
0
210
0
220
0
230
1
0
SOLID
5
E8
100
AcDbEntity
8
SK2
62
256
6
ByLayer
370
13
48
1
60
0
100
AcDbTrace
10
30
20
-31.692985
30
0
11
26.500002
21
-32.153769
31
0
12
26.499998
22
-31.232202
32
0
13
30
23
-31.692985
33
0
39
0
210
0
220
0
230
1
0
ENDBLK
5
EA
100
AcDbEntity
8
0
100
AcDbBlockEnd
0
BLOCK
5
F3
100
AcDbEntity
8
0
100
AcDbBlockBegin
2
DimnDraft3D3
70
0
10
0
20
0
30
0
3
DimnDraft3D3
0
MTEXT
5
ED
100
AcDbEntity
8
SK2
62
256
6
ByLayer
370
13
48
1
60
0
100
AcDbMText
10
20.272105
20
14.384119
30
0
210
0
220
0
230
1
1
\W0.6301;11,94
40
3.5
41
0
44
1.084337
50
0
71
7
72
5
7
iso_b_vert
0
LINE
5
EE
100
AcDbEntity
8
SK2
62
256
6
ByLayer
370
13
48
1
60
0
100
AcDbLine
10
18.06
20
3.4875
30
0
11
18.06
21
15.509119
31
0
39
0
210
0
220
0
230
1
0
LINE
5
EF
100
AcDbEntity
8
SK2
62
256
6
ByLayer
370
13
48
1
60
0
100
AcDbLine
10
30
20
1.5875
30
0
11
30
21
15.509119
31
0
39
0
210
0
220
0
230
1
0
LINE
5
F0
100
AcDbEntity
8
SK2
62
256
6
ByLayer
370
13
48
1
60
0
100
AcDbLine
10
18.06
20
13.509119
30
0
11
30
21
13.509119
31
0
39
0
210
0
220
0
230
1
0
SOLID
5
F1
100
AcDbEntity
8
SK2
62
256
6
ByLayer
370
13
48
1
60
0
100
AcDbTrace
10
18.06
20
13.509119
30
0
11
21.559998
21
13.969903
31
0
12
21.560002
22
13.048335
32
0
13
18.06
23
13.509119
33
0
39
0
210
0
220
0
230
1
0
SOLID
5
F2
100
AcDbEntity
8
SK2
62
256
6
ByLayer
370
13
48
1
60
0
100
AcDbTrace
10
30
20
13.509119
30
0
11
26.500002
21
13.048335
31
0
12
26.499998
22
13.969903
32
0
13
30
23
13.509119
33
0
39
0
210
0
220
0
230
1
0
ENDBLK
5
F4
100
AcDbEntity
8
0
100
AcDbBlockEnd
0
BLOCK
5
FD
100
AcDbEntity
8
0
100
AcDbBlockBegin
2
DimnDraft3D4
70
0
10
0
20
0
30
0
3
DimnDraft3D4
0
MTEXT
5
F7
100
AcDbEntity
8
SK2
62
256
6
ByLayer
370
13
48
1
60
0
100
AcDbMText
10
36.840636
20
-13.827503
30
0
210
0
220
0
230
1
1
\W0.7150;0,55
40
3.5
41
0
44
1.084337
50
0
71
7
72
5
7
iso_b_vert
0
LINE
5
F8
100
AcDbEntity
8
SK2
62
256
6
ByLayer
370
13
48
1
60
0
100
AcDbLine
10
30
20
-1.5875
30
0
11
30
21
-16.702503
31
0
39
0
210
0
220
0
230
1
0
LINE
5
F9
100
AcDbEntity
8
SK2
62
256
6
ByLayer
370
13
48
1
60
0
100
AcDbLine
10
29.4503
20
-3.4875
30
0
11
29.4503
21
-16.702503
31
0
39
0
210
0
220
0
230
1
0
LINE
5
FA
100
AcDbEntity
8
SK2
62
256
6
ByLayer
370
13
48
1
60
0
100
AcDbLine
10
20.7003
20
-14.702503
30
0
11
43.997215
21
-14.702503
31
0
39
0
210
0
220
0
230
1
0
SOLID
5
FB
100
AcDbEntity
8
SK2
62
256
6
ByLayer
370
13
48
1
60
0
100
AcDbTrace
10
30
20
-14.702503
30
0
11
33.499998
21
-14.241719
31
0
12
33.500002
22
-15.163287
32
0
13
30
23
-14.702503
33
0
39
0
210
0
220
0
230
1
0
SOLID
5
FC
100
AcDbEntity
8
SK2
62
256
6
ByLayer
370
13
48
1
60
0
100
AcDbTrace
10
29.4503
20
-14.702503
30
0
11
25.950302
21
-15.163287
31
0
12
25.950298
22
-14.241719
32
0
13
29.4503
23
-14.702503
33
0
39
0
210
0
220
0
230
1
0
ENDBLK
5
FE
100
AcDbEntity
8
0
100
AcDbBlockEnd
0
BLOCK
5
107
100
AcDbEntity
8
0
100
AcDbBlockBegin
2
DimnDraft3D5
70
0
10
0
20
0
30
0
3
DimnDraft3D5
0
MTEXT
5
101
100
AcDbEntity
8
SK2
62
256
6
ByLayer
370
13
48
1
60
0
100
AcDbMText
10
-9.921918
20
-20.468428
30
0
210
0
220
0
230
1
1
\W0.7581;65,45
40
3.5
41
0
44
1.084337
50
0
71
7
72
5
7
iso_b_vert
0
LINE
5
102
100
AcDbEntity
8
SK2
62
256
6
ByLayer
370
13
48
1
60
0
100
AcDbLine
10
-36
20
-4.5875
30
0
11
-36
21
-23.343428
31
0
39
0
210
0
220
0
230
1
0
LINE
5
103
100
AcDbEntity
8
SK2
62
256
6
ByLayer
370
13
48
1
60
0
100
AcDbLine
10
29.4503
20
-3.4875
30
0
11
29.4503
21
-23.343428
31
0
39
0
210
0
220
0
230
1
0
LINE
5
104
100
AcDbEntity
8
SK2
62
256
6
ByLayer
370
13
48
1
60
0
100
AcDbLine
10
-36
20
-21.343428
30
0
11
29.4503
21
-21.343428
31
0
39
0
210
0
220
0
230
1
0
SOLID
5
105
100
AcDbEntity
8
SK2
62
256
6
ByLayer
370
13
48
1
60
0
100
AcDbTrace
10
-36
20
-21.343428
30
0
11
-32.500002
21
-20.882645
31
0
12
-32.499998
22
-21.804212
32
0
13
-36
23
-21.343428
33
0
39
0
210
0
220
0
230
1
0
SOLID
5
106
100
AcDbEntity
8
SK2
62
256
6
ByLayer
370
13
48
1
60
0
100
AcDbTrace
10
29.4503
20
-21.343428
30
0
11
25.950302
21
-21.804212
31
0
12
25.950298
22
-20.882645
32
0
13
29.4503
23
-21.343428
33
0
39
0
210
0
220
0
230
1
0
ENDBLK
5
108
100
AcDbEntity
8
0
100
AcDbBlockEnd
0
BLOCK
5
112
100
AcDbEntity
8
0
100
AcDbBlockBegin
2
DimnDraft3D6
70
0
10
0
20
0
30
0
3
DimnDraft3D6
0
MTEXT
5
10B
100
AcDbEntity
8
SK2
62
256
6
ByLayer
370
13
48
1
60
0
100
AcDbMText
10
-46.375163
20
22.34918
30
0
210
0
220
0
230
1
1
\W0.7317;6,000
40
3.5
41
0
44
1.084337
50
90
71
7
72
5
7
iso_b_vert
0
MTEXT
5
10C
100
AcDbEntity
8
SK2
62
256
6
ByLayer
370
13
48
1
60
0
100
AcDbMText
10
-46.375163
20
17.126524
30
0
210
0
220
0
230
1
1
%%c
40
3.5
41
0
44
1.084337
50
90
71
7
72
5
7
iso_b_vert
0
LINE
5
10D
100
AcDbEntity
8
SK2
62
256
6
ByLayer
370
13
48
1
60
0
100
AcDbLine
10
-37.5875
20
-3
30
0
11
-46.625163
21
-3
31
0
39
0
210
0
220
0
230
1
0
LINE
5
10E
100
AcDbEntity
8
SK2
62
256
6
ByLayer
370
13
48
1
60
0
100
AcDbLine
10
-37.5875
20
3
30
0
11
-46.625163
21
3
31
0
39
0
210
0
220
0
230
1
0
LINE
5
10F
100
AcDbEntity
8
SK2
62
256
6
ByLayer
370
13
48
1
60
0
100
AcDbLine
10
-44.625163
20
32.121549
30
0
11
-44.625163
21
-11.75
31
0
39
0
210
0
220
0
230
1
0
SOLID
5
110
100
AcDbEntity
8
SK2
62
256
6
ByLayer
370
13
48
1
60
0
100
AcDbTrace
10
-44.625163
20
-3
30
0
11
-44.164379
21
-6.499998
31
0
12
-45.085946
22
-6.500002
32
0
13
-44.625163
23
-3
33
0
39
0
210
0
220
0
230
1
0
SOLID
5
111
100
AcDbEntity
8
SK2
62
256
6
ByLayer
370
13
48
1
60
0
100
AcDbTrace
10
-44.625163
20
3
30
0
11
-45.085946
21
6.499998
31
0
12
-44.164379
22
6.500002
32
0
13
-44.625163
23
3
33
0
39
0
210
0
220
0
230
1
0
ENDBLK
5
113
100
AcDbEntity
8
0
100
AcDbBlockEnd
0
BLOCK
5
11D
100
AcDbEntity
8
0
100
AcDbBlockBegin
2
DimnDraft3D7
70
0
10
0
20
0
30
0
3
DimnDraft3D7
0
MTEXT
5
116
100
AcDbEntity
8
2
62
256
6
ByLayer
370
13
48
1
60
0
100
AcDbMText
10
40.333343
20
19.842266
30
0
210
0
220
0
230
1
1
\W0.7317;3,800
40
3.5
41
0
44
1.084337
50
90
71
7
72
5
7
iso_b_vert
0
MTEXT
5
117
100
AcDbEntity
8
2
62
256
6
ByLayer
370
13
48
1
60
0
100
AcDbMText
10
40.333343
20
14.61961
30
0
210
0
220
0
230
1
1
%%c
40
3.5
41
0
44
1.084337
50
90
71
7
72
5
7
iso_b_vert
0
LINE
5
118
100
AcDbEntity
8
2
62
256
6
ByLayer
370
13
48
1
60
0
100
AcDbLine
10
31.0378
20
-1.9
30
0
11
44.083343
21
-1.9
31
0
39
0
210
0
220
0
230
1
0
LINE
5
119
100
AcDbEntity
8
2
62
256
6
ByLayer
370
13
48
1
60
0
100
AcDbLine
10
31.0378
20
1.9
30
0
11
44.083343
21
1.9
31
0
39
0
210
0
220
0
230
1
0
LINE
5
11A
100
AcDbEntity
8
2
62
256
6
ByLayer
370
13
48
1
60
0
100
AcDbLine
10
42.083343
20
29.614635
30
0
11
42.083343
21
-10.65
31
0
39
0
210
0
220
0
230
1
0
SOLID
5
11B
100
AcDbEntity
8
2
62
256
6
ByLayer
370
13
48
1
60
0
100
AcDbTrace
10
42.083343
20
-1.9
30
0
11
42.544126
21
-5.399998
31
0
12
41.622559
22
-5.400002
32
0
13
42.083343
23
-1.9
33
0
39
0
210
0
220
0
230
1
0
SOLID
5
11C
100
AcDbEntity
8
2
62
256
6
ByLayer
370
13
48
1
60
0
100
AcDbTrace
10
42.083343
20
1.9
30
0
11
41.622559
21
5.399998
31
0
12
42.544126
22
5.400002
32
0
13
42.083343
23
1.9
33
0
39
0
210
0
220
0
230
1
0
ENDBLK
5
11E
100
AcDbEntity
8
0
100
AcDbBlockEnd
0
ENDSEC
0
SECTION
2
ENTITIES
0
ELLIPSE
5
96
100
AcDbEntity
8
1
62
256
6
ByLayer
370
18
48
1
60
0
100
AcDbEllipse
10
7.709349
20
-2.041647
30
0
11
0.25
21
0
31
0
210
0
220
0
230
1
40
1
41
1.58182530729317
42
2.4676362869412
0
ELLIPSE
5
97
100
AcDbEntity
8
1
62
256
6
ByLayer
370
18
48
1
60
0
100
AcDbEllipse
10
7.709349
20
2.041647
30
0
11
0.25
21
0
31
0
210
0
220
0
230
1
40
1
41
-2.46794424091157
42
-2.03115616776999
0
ELLIPSE
5
98
100
AcDbEntity
8
1
62
256
6
ByLayer
370
13
48
1
60
0
100
AcDbEllipse
10
7.638915
20
-1.854386
30
0
11
-0.0537488660072445
21
0.084327097678832
31
0
210
0
220
0
230
1
40
0.295269
41
-0.221766013288448
42
0.85998909569617
0
POINT
5
6C
100
AcDbEntity
8
81
62
256
6
ByLayer
370
18
48
1
60
0
100
AcDbPoint
10
30
20
0
30
0
39
0
210
0
220
0
230
1
50
360
0
POINT
5
6E
100
AcDbEntity
8
80
62
256
6
ByLayer
370
18
48
1
60
0
100
AcDbPoint
10
0
20
0
30
0
39
0
210
0
220
0
230
1
50
360
0
POINT
5
70
100
AcDbEntity
8
SK2
62
256
6
ByLayer
370
18
48
1
60
1
100
AcDbPoint
10
-36
20
-3
30
0
39
0
210
0
220
0
230
1
50
360
0
POINT
5
72
100
AcDbEntity
8
SK2
62
256
6
ByLayer
370
18
48
1
60
1
100
AcDbPoint
10
-36
20
3
30
0
39
0
210
0
220
0
230
1
50
360
0
POINT
5
73
100
AcDbEntity
8
2
62
256
6
ByLayer
370
18
48
1
60
1
100
AcDbPoint
10
29.4503
20
-1.9
30
0
39
0
210
0
220
0
230
1
50
360
0
POINT
5
75
100
AcDbEntity
8
2
62
256
6
ByLayer
370
18
48
1
60
1
100
AcDbPoint
10
29.4503
20
1.9
30
0
39
0
210
0
220
0
230
1
50
360
0
SPLINE
5
99
100
AcDbEntity
8
1
62
256
6
ByLayer
370
18
48
1
60
0
100
AcDbSpline
70
4
71
3
72
17
73
13
40
0
40
0
40
0
40
0
40
0.10210551273837
40
0.200390824423375
40
0.274252398281408
40
0.348511612748977
40
0.424180009315414
40
0.500670524869373
40
0.613821499730064
40
0.713766487131888
40
0.84759558851126
40
1
40
1
40
1
40
1
41
1
10
7.70958064284468
20
-1.79147112937125
30
0
41
1
10
7.85727531920367
20
-1.79161050305689
30
0
41
1
10
8.1471363890966
20
-1.79189354933874
30
0
41
1
10
8.54376093030095
20
-1.79169967834451
30
0
41
1
10
8.90021814481375
20
-1.7925001091009
30
0
41
1
10
9.22393711351867
20
-1.79248807358715
30
0
41
1
10
9.55146436199121
20
-1.79215003149832
30
0
41
1
10
9.93524542396545
20
-1.79189543046425
30
0
41
1
10
10.3541459673552
20
-1.79357006606307
30
0
41
1
10
10.8559898331121
20
-1.79279171736593
30
0
41
1
10
11.414607099866
20
-1.79353204345543
30
0
41
1
10
11.8286566815644
20
-1.7934133093444
30
0
41
1
10
12.0491168091421
20
-1.79335285248948
30
0
0
SPLINE
5
9A
100
AcDbEntity
8
1
62
256
6
ByLayer
370
18
48
1
60
0
100
AcDbSpline
70
4
71
3
72
21
73
17
40
0
40
0
40
0
40
0
40
0.113352372474559
40
0.195822462629351
40
0.249801199158199
40
0.2970678561174
40
0.343122569892777
40
0.3884974924342
40
0.434587054096484
40
0.481468085389877
40
0.580660066037181
40
0.686406587200931
40
0.73585449020516
40
0.800817486728527
40
0.900761825997036
40
1
40
1
40
1
40
1
41
1
10
18.0032060407334
20
-1.79789322819505
30
0
41
1
10
18.2033132096119
20
-1.79779623124094
30
0
41
1
10
18.549044903609
20
-1.79776127625954
30
0
41
1
10
18.9902283020117
20
-1.7985412574769
30
0
41
1
10
19.3146478042995
20
-1.7986169143573
30
0
41
1
10
19.5747768316608
20
-1.79820870545842
30
0
41
1
10
19.8197164317591
20
-1.7978844913446
30
0
41
1
10
20.0625773497818
20
-1.79824779260738
30
0
41
1
10
20.3068975994687
20
-1.79855838569725
30
0
41
1
10
20.6462546131444
20
-1.7989923303337
30
0
41
1
10
21.0909628792666
20
-1.7995884765312
30
0
41
1
10
21.5402102061279
20
-1.79836293223579
30
0
41
1
10
21.9290122982701
20
-1.79792752669113
30
0
41
1
10
22.3075560821212
20
-1.80148572223513
30
0
41
1
10
22.7740355694815
20
-1.7990395205164
30
0
41
1
10
23.1257831567336
20
-1.79968842567038
30
0
41
1
10
23.3010327559935
20
-1.79990787640423
30
0
0
SPLINE
5
9B
100
AcDbEntity
8
1
62
256
6
ByLayer
370
18
48
1
60
0
100
AcDbSpline
70
4
71
3
72
17
73
13
40
0
40
0
40
0
40
0
40
0.106604049996376
40
0.215626639771828
40
0.296273114645162
40
0.381033180990772
40
0.468755829472845
40
0.556475139850123
40
0.640687316641349
40
0.722657438333258
40
0.847592275479719
40
1
40
1
40
1
40
1
41
1
10
12.0450194336928
20
1.79348734778114
30
0
41
1
10
11.8909878155233
20
1.79379200552086
30
0
41
1
10
11.5794249024777
20
1.79419090003398
30
0
41
1
10
11.1511573561584
20
1.79261333764001
30
0
41
1
10
10.754716282024
20
1.79311201201702
30
0
41
1
10
10.3888629563371
20
1.79344574769871
30
0
41
1
10
10.0128109067567
20
1.7921695200512
30
0
41
1
10
9.63754146906967
20
1.79200383210261
30
0
41
1
10
9.27059609426777
20
1.79248916111737
30
0
41
1
10
8.84983287518372
20
1.79246727954063
30
0
41
1
10
8.33072518904794
20
1.7915267643217
30
0
41
1
10
7.92987264086941
20
1.79143840464951
30
0
41
1
10
7.70957889411102
20
1.79143395088823
30
0
0
SPLINE
5
9C
100
AcDbEntity
8
1
62
256
6
ByLayer
370
18
48
1
60
0
100
AcDbSpline
70
4
71
2
72
6
73
3
40
0
40
0
40
0
40
1
40
1
40
1
41
1
10
29.0477021052037
20
-1.80186678808599
30
0
41
1
10
29.2014070368937
20
-1.80243179265662
30
0
41
1
10
29.3553143789373
20
-1.80322608776388
30
0
0
SPLINE
5
9D
100
AcDbEntity
8
1
62
256
6
ByLayer
370
18
48
1
60
0
100
AcDbSpline
70
4
71
3
72
18
73
14
40
0
40
0
40
0
40
0
40
0.126813700474501
40
0.242181401975474
40
0.313918333500152
40
0.381846837159727
40
0.515756841953764
40
0.635398588330056
40
0.710242901402769
40
0.78197760018895
40
0.851066869013711
40
0.921192050797596
40
1
40
1
40
1
40
1
41
1
10
23.3012056562038
20
1.79994628450874
30
0
41
1
10
23.1100963229348
20
1.7998215544709
30
0
41
1
10
22.7451263316129
20
1.79928002489214
30
0
41
1
10
22.2720467039005
20
1.80112456563032
30
0
41
1
10
21.8877070523851
20
1.79780727174929
30
0
41
1
10
21.4754203386651
20
1.79847564622733
30
0
41
1
10
20.9909384359377
20
1.79988978734062
30
0
41
1
10
20.4960337784663
20
1.79867391508091
30
0
41
1
10
20.0948289188281
20
1.79833188091914
30
0
41
1
10
19.7698080019304
20
1.79782687035194
30
0
41
1
10
19.4518990561654
20
1.79845853493461
30
0
41
1
10
19.1233322697363
20
1.79871538370537
30
0
41
1
10
18.8988855402677
20
1.79835168617848
30
0
41
1
10
18.7801230598136
20
1.79818377622718
30
0
0
SPLINE
5
9E
100
AcDbEntity
8
1
62
256
6
ByLayer
370
18
48
1
60
0
100
AcDbSpline
70
4
71
1
72
4
73
2
40
0
40
0
40
1
40
1
41
1
10
22.8921403773451
20
-0.0066467874864031
30
0
41
1
10
22.8311140130168
20
0.0220374939407009
30
0
0
SPLINE
5
9F
100
AcDbEntity
8
1
62
256
6
ByLayer
370
18
48
1
60
0
100
AcDbSpline
70
4
71
1
72
4
73
2
40
0
40
0
40
1
40
1
41
1
10
18.0970822835308
20
-0.212643221999968
30
0
41
1
10
18.1733995243362
20
-0.247676825330046
30
0
0
SPLINE
5
A0
100
AcDbEntity
8
1
62
256
6
ByLayer
370
18
48
1
60
0
100
AcDbSpline
70
4
71
3
72
38
73
34
40
0
40
0
40
0
40
0
40
0.0857668088921098
40
0.0857668088921098
40
0.17153361778422
40
0.17153361778422
40
0.257300426676329
40
0.257300426676329
40
0.343067235568439
40
0.343067235568439
40
0.385950640014495
40
0.385950640014495
40
0.428834044460551
40
0.428834044460551
40
0.514600853352663
40
0.514600853352663
40
0.600367662244775
40
0.600367662244775
40
0.64325106669083
40
0.64325106669083
40
0.686134471136885
40
0.686134471136885
40
0.771901280028995
40
0.771901280028995
40
0.814784684475049
40
0.814784684475049
40
0.857668088921102
40
0.857668088921102
40
0.94343489781321
40
0.94343489781321
40
0.986318302259265
40
0.986318302259265
40
1
40
1
40
1
40
1
41
1
10
10.2420980327304
20
0.710450483881232
30
0
41
1
10
10.4434933424102
20
0.61080676320509
30
0
41
1
10
10.6444304849056
20
0.510036691552273
30
0
41
1
10
11.0446770363751
20
0.304910362031421
30
0
41
1
10
11.2433953973267
20
0.199408356473555
30
0
41
1
10
11.6420873359854
20
-0.0096193326992022
30
0
41
1
10
11.8408969248876
20
-0.115395042574136
30
0
41
1
10
12.2399183447726
20
-0.324679871392533
30
0
41
1
10
12.4404532944247
20
-0.4275554293597
30
0
41
1
10
12.7416919772916
20
-0.581375330513822
30
0
41
1
10
12.8427483255982
20
-0.631972579011972
30
0
41
1
10
13.044328814935
20
-0.730876348479256
30
0
41
1
10
13.1448949569479
20
-0.779253628095375
30
0
41
1
10
13.4454105475575
20
-0.922122381205099
30
0
41
1
10
13.6446721982616
20
-1.01337810389515
30
0
41
1
10
14.043556320334
20
-1.18401267897789
30
0
41
1
10
14.242072794061
20
-1.2651043889407
30
0
41
1
10
14.5410915037522
20
-1.37644850466313
30
0
41
1
10
14.6409801053862
20
-1.4118670156073
30
0
41
1
10
14.8407448653967
20
-1.47987026245261
30
0
41
1
10
14.9406445547729
20
-1.51240832240035
30
0
41
1
10
15.2411623275341
20
-1.60460469282367
30
0
41
1
10
15.4438841503912
20
-1.65864258275835
30
0
41
1
10
15.7451586989786
20
-1.72788919628852
30
0
41
1
10
15.8451182832713
20
-1.74903182373549
30
0
41
1
10
16.0451344707684
20
-1.7867177954588
30
0
41
1
10
16.1450995603755
20
-1.80336383713836
30
0
41
1
10
16.4443616709855
20
-1.84713077960245
30
0
41
1
10
16.6428186743644
20
-1.8680149250344
30
0
41
1
10
16.9415175256004
20
-1.88598251748664
30
0
41
1
10
17.0412114001953
20
-1.8897980407792
30
0
41
1
10
17.1726555370805
20
-1.89196874737073
30
0
41
1
10
17.2044301722599
20
-1.89226960923236
30
0
41
1
10
17.2362052092832
20
-1.89234561219951
30
0
0
SPLINE
5
A1
100
AcDbEntity
8
1
62
256
6
ByLayer
370
18
48
1
60
0
100
AcDbSpline
70
4
71
3
72
24
73
20
40
0
40
0
40
0
40
0
40
0.0178489251579786
40
0.0178489251579786
40
0.181540770964977
40
0.181540770964977
40
0.263386693868477
40
0.263386693868477
40
0.345232616771977
40
0.345232616771977
40
0.508924462578984
40
0.508924462578984
40
0.590770385482484
40
0.590770385482484
40
0.672616308385984
40
0.672616308385984
40
0.836308154192991
40
0.836308154192991
40
1
40
1
40
1
40
1
41
1
10
25.7898153422791
20
1.38038037641689
30
0
41
1
10
25.8117821047616
20
1.38839139749123
30
0
41
1
10
25.8337476737752
20
1.39633261654947
30
0
41
1
10
26.0571357715081
20
1.47639310064733
30
0
41
1
10
26.2584010142507
20
1.54112016051619
30
0
41
1
10
26.5599821229262
20
1.62734770641848
30
0
41
1
10
26.6602147235499
20
1.65448904879608
30
0
41
1
10
26.8612688254903
20
1.70440113615967
30
0
41
1
10
26.9620315875478
20
1.7272538956519
30
0
41
1
10
27.2647967264
20
1.78974514880053
30
0
41
1
10
27.4649825145633
20
1.82328473882802
30
0
41
1
10
27.7646519696342
20
1.86003622135462
30
0
41
1
10
27.8644891310307
20
1.87006879051893
30
0
41
1
10
28.0637882996491
20
1.88585490946889
30
0
41
1
10
28.1630768421757
20
1.89162806847068
30
0
41
1
10
28.4611255243834
20
1.90222993975829
30
0
41
1
10
28.6603885348167
20
1.90051199251593
30
0
41
1
10
29.058654402544
20
1.87941874018799
30
0
41
1
10
29.2583295157069
20
1.86001363460875
30
0
41
1
10
29.4593431927846
20
1.83197964788883
30
0
0
SPLINE
5
A2
100
AcDbEntity
8
1
62
256
6
ByLayer
370
18
48
1
60
0
100
AcDbSpline
70
4
71
3
72
16
73
12
40
0
40
0
40
0
40
0
40
0.351936277221896
40
0.351936277221896
40
0.494996799775002
40
0.494996799775002
40
0.638057322328109
40
0.638057322328109
40
0.924178367434322
40
0.924178367434322
40
1
40
1
40
1
40
1
41
1
10
18.033350088186
20
-1.79781700583544
30
0
41
1
10
17.7553266642836
20
-1.79775750067341
30
0
41
1
10
17.4779344829584
20
-1.78146183496511
30
0
41
1
10
17.0866126652976
20
-1.73606950699113
30
0
41
1
10
16.9733643368606
20
-1.72033314411166
30
0
41
1
10
16.7463591448099
20
-1.68366978406243
30
0
41
1
10
16.6323947804117
20
-1.66269502224358
30
0
41
1
10
16.2918808132015
20
-1.59254879385821
30
0
41
1
10
16.066281544108
20
-1.53604780407511
30
0
41
1
10
15.7815972613366
20
-1.4538202024948
30
0
41
1
10
15.7219952296436
20
-1.43600168314322
30
0
41
1
10
15.662414414846
20
-1.41760864236204
30
0
0
SPLINE
5
A3
100
AcDbEntity
8
1
62
256
6
ByLayer
370
13
48
1
60
0
100
AcDbSpline
70
4
71
3
72
22
73
18
40
0
40
0
40
0
40
0
40
0.16798554916481
40
0.16798554916481
40
0.264807104661202
40
0.264807104661202
40
0.361628660157593
40
0.361628660157593
40
0.555271771150378
40
0.555271771150378
40
0.652093326646768
40
0.652093326646768
40
0.748914882143159
40
0.748914882143159
40
0.94255799313594
40
0.94255799313594
40
1
40
1
40
1
40
1
41
1
10
15.6624144148506
20
-1.41760864236349
30
0
41
1
10
15.2723260673952
20
-1.29718546743092
30
0
41
1
10
14.8831472036263
20
-1.15213485014658
30
0
41
1
10
14.2649447490191
20
-0.89285883817243
30
0
41
1
10
14.0368329689623
20
-0.791248993246825
30
0
41
1
10
13.5835982512007
20
-0.581195656870108
30
0
41
1
10
13.3581981064087
20
-0.472668186005194
30
0
41
1
10
12.6833096169791
20
-0.141245518099225
30
0
41
1
10
12.2351612023283
20
0.0875706983773625
30
0
41
1
10
11.5558261720775
20
0.422609910072396
30
0
41
1
10
11.3275067174987
20
0.5331812853847
30
0
41
1
10
10.874911764324
20
0.745060559336849
30
0
41
1
10
10.6497059577523
20
0.846636371335677
30
0
41
1
10
9.97492640507141
20
1.1338547327947
30
0
41
1
10
9.52642302175724
20
1.30245807904106
30
0
41
1
10
8.93814846313953
20
1.47800671429363
30
0
41
1
10
8.8031058548811
20
1.51515568850226
30
0
41
1
10
8.66811611098385
20
1.54902247848045
30
0
0
SPLINE
5
A4
100
AcDbEntity
8
1
62
256
6
ByLayer
370
18
48
1
60
0
100
AcDbSpline
70
4
71
3
72
10
73
6
40
0
40
0
40
0
40
0
40
0.5
40
0.5
40
1
40
1
40
1
40
1
41
1
10
7.5136771442952
20
-0.508525612760536
30
0
41
1
10
7.53856014575251
20
-0.502153497546885
30
0
41
1
10
7.57067650353679
20
-0.503712320060572
30
0
41
1
10
7.6392260262661
20
-0.52114706552365
30
0
41
1
10
7.67505360853099
20
-0.536572604099803
30
0
41
1
10
7.7096975097798
20
-0.556168274036935
30
0
0
SPLINE
5
A5
100
AcDbEntity
8
1
62
256
6
ByLayer
370
18
48
1
60
0
100
AcDbSpline
70
4
71
3
72
22
73
18
40
0
40
0
40
0
40
0
40
0.125525618955099
40
0.125525618955099
40
0.251051237910197
40
0.251051237910197
40
0.376576856865295
40
0.376576856865295
40
0.502102475820394
40
0.502102475820394
40
0.627628094775492
40
0.627628094775492
40
0.753153713730591
40
0.753153713730591
40
0.878679332685689
40
0.878679332685689
40
1
40
1
40
1
40
1
41
1
10
10.2420980327304
20
-1.56891274351187
30
0
41
1
10
10.4229861157628
20
-1.61314373555461
30
0
41
1
10
10.6034918693358
20
-1.65054459769101
30
0
41
1
10
10.9637059411434
20
-1.71292872751445
30
0
41
1
10
11.1437651366704
20
-1.73771010776625
30
0
41
1
10
11.5047750911475
20
-1.77489480124831
30
0
41
1
10
11.6855853511109
20
-1.78708560611273
30
0
41
1
10
12.046094866439
20
-1.79603101236793
30
0
41
1
10
12.2262619979976
20
-1.79329569946094
30
0
41
1
10
12.5865057086438
20
-1.77573771078605
30
0
41
1
10
12.7671332993315
20
-1.76130052324763
30
0
41
1
10
13.1282653032203
20
-1.71817673132486
30
0
41
1
10
13.3080299533684
20
-1.68849122766943
30
0
41
1
10
13.667928986294
20
-1.61696189033398
30
0
41
1
10
13.8480423887681
20
-1.57519011701308
30
0
41
1
10
14.2023824177484
20
-1.48226828537639
30
0
41
1
10
14.3770477174385
20
-1.43173587147649
30
0
41
1
10
14.5511097439225
20
-1.37616415564793
30
0
0
SPLINE
5
A6
100
AcDbEntity
8
1
62
256
6
ByLayer
370
18
48
1
60
0
100
AcDbSpline
70
4
71
3
72
22
73
18
40
0
40
0
40
0
40
0
40
0.109020245471668
40
0.109020245471668
40
0.236303067547145
40
0.236303067547145
40
0.363585889622622
40
0.363585889622622
40
0.490868711698099
40
0.490868711698099
40
0.618151533773576
40
0.618151533773576
40
0.745434355849053
40
0.745434355849053
40
0.872717177924526
40
0.872717177924526
40
1
40
1
40
1
40
1
41
1
10
23.2997391298646
20
1.79912443597882
30
0
41
1
10
23.4542959263385
20
1.79967660725842
30
0
41
1
10
23.6085873891686
20
1.7960281274876
30
0
41
1
10
23.9429501324747
20
1.774717271947
30
0
41
1
10
24.1228274264566
20
1.75620079323534
30
0
41
1
10
24.4835354285634
20
1.70566490413597
30
0
41
1
10
24.6644220259719
20
1.67421207117792
30
0
41
1
10
25.0246977979219
20
1.59954211450312
30
0
41
1
10
25.204655470942
20
1.55542146131927
30
0
41
1
10
25.565106670156
20
1.45568764588688
30
0
41
1
10
25.7456903968238
20
1.39971639889967
30
0
41
1
10
26.106567323507
20
1.27907801846209
30
0
41
1
10
26.2867956498683
20
1.21440501571507
30
0
41
1
10
26.6466122389471
20
1.07366072057613
30
0
41
1
10
26.8269041768037
20
0.999200679509897
30
0
41
1
10
27.1881612804473
20
0.843051946433263
30
0
41
1
10
27.3684071361906
20
0.761734099441753
30
0
41
1
10
27.5485603500238
20
0.678204992838118
30
0
0
SPLINE
5
A7
100
AcDbEntity
8
1
62
256
6
ByLayer
370
18
48
1
60
0
100
AcDbSpline
70
4
71
3
72
10
73
6
40
0
40
0
40
0
40
0
40
0.859439348064703
40
0.859439348064703
40
1
40
1
40
1
40
1
41
1
10
7.5134422893974
20
1.84046946129303
30
0
41
1
10
7.51346274743042
20
1.86671498932671
30
0
41
1
10
7.5134753645429
20
1.88171680901422
30
0
41
1
10
7.51348413006676
20
1.88599953554947
30
0
41
1
10
7.51348522395466
20
1.88629273317054
30
0
41
1
10
7.5134861919783
20
1.88627956552483
30
0
0
SPLINE
5
A8
100
AcDbEntity
8
1
62
256
6
ByLayer
370
18
48
1
60
0
100
AcDbSpline
70
4
71
3
72
8
73
4
40
0
40
0
40
0
40
0
40
1
40
1
40
1
40
1
41
1
10
29.3326584352291
20
-0.952452005872203
30
0
41
1
10
29.2347216408997
20
-1.08287187408482
30
0
41
1
10
29.1356833523132
20
-1.21203315598811
30
0
41
1
10
29.0358577241145
20
-1.34029481009017
30
0
0
SPLINE
5
A9
100
AcDbEntity
8
1
62
256
6
ByLayer
370
18
48
1
60
0
100
AcDbSpline
70
4
71
3
72
10
73
6
40
0
40
0
40
0
40
0
40
0.5
40
0.5
40
1
40
1
40
1
40
1
41
1
10
29.8501460649759
20
0.521544289205394
30
0
41
1
10
29.8884670044124
20
0.45493086032306
30
0
41
1
10
29.9199600331208
20
0.386885049712731
30
0
41
1
10
29.9688624789623
20
0.247838921808011
30
0
41
1
10
29.9859291421615
20
0.177641023958898
30
0
41
1
10
29.9964039908741
20
0.108012810725256
30
0
0
SPLINE
5
AA
100
AcDbEntity
8
1
62
256
6
ByLayer
370
18
48
1
60
0
100
AcDbSpline
70
4
71
3
72
60
73
56
40
0
40
0
40
0
40
0
40
0.0281894656676306
40
0.0281894656676306
40
0.0675857625511054
40
0.0675857625511054
40
0.10698205943458
40
0.10698205943458
40
0.146378356318055
40
0.146378356318055
40
0.18577465320153
40
0.18577465320153
40
0.225170950085005
40
0.225170950085005
40
0.26456724696848
40
0.26456724696848
40
0.303963543851955
40
0.303963543851955
40
0.34335984073543
40
0.34335984073543
40
0.382756137618904
40
0.382756137618904
40
0.422152434502379
40
0.422152434502379
40
0.500945028269329
40
0.500945028269329
40
0.540341325152804
40
0.540341325152804
40
0.57973762203628
40
0.57973762203628
40
0.619133918919755
40
0.619133918919755
40
0.658530215803231
40
0.658530215803231
40
0.697926512686706
40
0.697926512686706
40
0.717624661128444
40
0.717624661128444
40
0.737322809570182
40
0.737322809570182
40
0.776719106453658
40
0.776719106453658
40
0.796417254895397
40
0.796417254895397
40
0.816115403337135
40
0.816115403337135
40
0.85551170022061
40
0.85551170022061
40
0.894907997104086
40
0.894907997104086
40
0.934304293987561
40
0.934304293987561
40
0.973700590871037
40
0.973700590871037
40
1
40
1
40
1
40
1
41
1
10
25.772651413064
20
-1.38960979041633
30
0
41
1
10
25.6437194731338
20
-1.43084134545308
30
0
41
1
10
25.514700093336
20
-1.46962555128059
30
0
41
1
10
25.2048705894217
20
-1.55537470588371
30
0
41
1
10
25.0248008719038
20
-1.59951371683383
30
0
41
1
10
24.6648834359267
20
-1.67412346413568
30
0
41
1
10
24.4847436508971
20
-1.70546354147251
30
0
41
1
10
24.124212938544
20
-1.75603853863265
30
0
41
1
10
23.9435953910094
20
-1.77466077746789
30
0
41
1
10
23.5832059860458
20
-1.79766115129888
30
0
41
1
10
23.4033310685569
20
-1.80070719403812
30
0
41
1
10
23.0432039956869
20
-1.79632802543517
30
0
41
1
10
22.8626255256403
20
-1.78811638313348
30
0
41
1
10
22.5019892521144
20
-1.75774295768483
30
0
41
1
10
22.3221806197168
20
-1.73574690212996
30
0
41
1
10
21.962084335215
20
-1.67556509213389
30
0
41
1
10
21.7823080726474
20
-1.64007422082395
30
0
41
1
10
21.4217375911942
20
-1.55763655395657
30
0
41
1
10
21.2411687791084
20
-1.51061099653163
30
0
41
1
10
20.8814006938107
20
-1.40495007334351
30
0
41
1
10
20.7016066449244
20
-1.34604604607341
30
0
41
1
10
20.3414047178502
20
-1.21890953781872
30
0
41
1
10
20.1610666484401
20
-1.15000953765855
30
0
41
1
10
19.6201147537435
20
-0.93222300045889
30
0
41
1
10
19.2612926204085
20
-0.772308000726383
30
0
41
1
10
18.7195247542729
20
-0.516174494371199
30
0
41
1
10
18.5394171199974
20
-0.42803562093394
30
0
41
1
10
18.1791672807295
20
-0.250830473070494
30
0
41
1
10
17.9993073722888
20
-0.160795149691381
30
0
41
1
10
17.638909674381
20
0.0201619870793763
30
0
41
1
10
17.4579049178837
20
0.110657155105429
30
0
41
1
10
17.0972069333471
20
0.29012616218813
30
0
41
1
10
16.9173460281627
20
0.379536039440296
30
0
41
1
10
16.5569771714835
20
0.554238228313096
30
0
41
1
10
16.3766648218745
20
0.640698632855646
30
0
41
1
10
16.1056506445878
20
0.764066348753374
30
0
41
1
10
16.0153595611727
20
0.804258184329854
30
0
41
1
10
15.8348630296811
20
0.883561849660964
30
0
41
1
10
15.7446112190281
20
0.922465049104005
30
0
41
1
10
15.4744713992457
20
1.0376879359689
30
0
41
1
10
15.2942434875094
20
1.11086785817238
30
0
41
1
10
15.0233978716313
20
1.21392614842131
30
0
41
1
10
14.932964177831
20
1.2472871412098
30
0
41
1
10
14.752449991122
20
1.31036117376499
30
0
41
1
10
14.6622811658786
20
1.34043067168636
30
0
41
1
10
14.3917849139259
20
1.42743559447575
30
0
41
1
10
14.2114510810562
20
1.47982760751484
30
0
41
1
10
13.8510444523745
20
1.57446433975031
30
0
41
1
10
13.6700734708098
20
1.61649780065932
30
0
41
1
10
13.3091965147661
20
1.6882969064722
30
0
41
1
10
13.1293328866441
20
1.71800809301953
30
0
41
1
10
12.7689516318577
20
1.76112421800636
30
0
41
1
10
12.5886253380388
20
1.77559612518118
30
0
41
1
10
12.2874918261506
20
1.79033666710197
30
0
41
1
10
12.1669341952071
20
1.79352623690988
30
0
41
1
10
12.0464649954238
20
1.79366964648912
30
0
0
SPLINE
5
AB
100
AcDbEntity
8
1
62
256
6
ByLayer
370
18
48
1
60
0
100
AcDbSpline
70
4
71
3
72
10
73
6
40
0
40
0
40
0
40
0
40
0.5
40
0.5
40
1
40
1
40
1
40
1
41
1
10
29.9958666420688
20
0.0745230282011278
30
0
41
1
10
29.9956666130299
20
0.0678107831090813
30
0
41
1
10
29.9959617559504
20
0.0601397469446283
30
0
41
1
10
29.9973197175123
20
0.0439991979833394
30
0
41
1
10
29.9983776061787
20
0.0354733420194293
30
0
41
1
10
29.9997816046683
20
0.0265462423727172
30
0
0
SPLINE
5
AC
100
AcDbEntity
8
1
62
256
6
ByLayer
370
18
48
1
60
0
100
AcDbSpline
70
4
71
3
72
8
73
4
40
0
40
0
40
0
40
0
40
1
40
1
40
1
40
1
41
1
10
29.8776538752249
20
0.691328204189176
30
0
41
1
10
29.8709700959802
20
0.634152021646827
30
0
41
1
10
29.8616673492754
20
0.577574133662836
30
0
41
1
10
29.8501460649759
20
0.521544289205394
30
0
0
SPLINE
5
AD
100
AcDbEntity
8
1
62
256
6
ByLayer
370
18
48
1
60
0
100
AcDbSpline
70
4
71
3
72
10
73
6
40
0
40
0
40
0
40
0
40
0.5
40
0.5
40
1
40
1
40
1
40
1
41
1
10
29.9964039908738
20
0.108012810724944
30
0
41
1
10
29.990320560343
20
0.199906122074538
30
0
41
1
10
29.9763466974869
20
0.293697694111899
30
0
41
1
10
29.9356930519456
20
0.486543614087083
30
0
41
1
10
29.9090864157549
20
0.586122885945031
30
0
41
1
10
29.8776538752287
20
0.691328204188096
30
0
0
SPLINE
5
AE
100
AcDbEntity
8
1
62
256
6
ByLayer
370
18
48
1
60
0
100
AcDbSpline
70
4
71
3
72
10
73
6
40
0
40
0
40
0
40
0
40
0.5
40
0.5
40
1
40
1
40
1
40
1
41
1
10
29.4593431927846
20
-1.83197964788883
30
0
41
1
10
29.4469135666167
20
-1.84705778644974
30
0
41
1
10
29.4342336210282
20
-1.85968488554892
30
0
41
1
10
29.4082762131357
20
-1.87995933610984
30
0
41
1
10
29.394938864293
20
-1.88761274506564
30
0
41
1
10
29.3814974321227
20
-1.89261853995387
30
0
0
SPLINE
5
AF
100
AcDbEntity
8
1
62
256
6
ByLayer
370
18
48
1
60
0
100
AcDbSpline
70
4
71
3
72
24
73
20
40
0
40
0
40
0
40
0
40
0.0625000000000015
40
0.0625000000000015
40
0.125000000000003
40
0.125000000000003
40
0.187500000000005
40
0.187500000000005
40
0.250000000000006
40
0.250000000000006
40
0.375000000000003
40
0.375000000000003
40
0.5
40
0.5
40
0.624999999999998
40
0.624999999999998
40
0.749999999999995
40
0.749999999999995
40
1
40
1
40
1
40
1
41
1
10
27.5485603500255
20
0.678204992837237
30
0
41
1
10
27.5441728290531
20
0.625032065420015
30
0
41
1
10
27.5434764102253
20
0.570832211188474
30
0
41
1
10
27.5495732752318
20
0.46034874123751
30
0
41
1
10
27.5564941597832
20
0.403627754769872
30
0
41
1
10
27.5772295885733
20
0.29198042606518
30
0
41
1
10
27.5910087550997
20
0.236682178148612
30
0
41
1
10
27.6247862174646
20
0.127043524498532
30
0
41
1
10
27.6449238769038
20
0.0723922066516707
30
0
41
1
10
27.7131530958032
20
-0.0879786680439452
30
0
41
1
10
27.7680946316389
20
-0.188607389579687
30
0
41
1
10
27.8922086433745
20
-0.380405229902465
30
0
41
1
10
27.9617309795229
20
-0.471654706820857
30
0
41
1
10
28.1072736089849
20
-0.640669716687654
30
0
41
1
10
28.1839091152438
20
-0.719397635171504
30
0
41
1
10
28.3433346631707
20
-0.867648268619007
30
0
41
1
10
28.4265349859489
20
-0.937436304116687
30
0
41
1
10
28.6808591104178
20
-1.13244918471983
30
0
41
1
10
28.8561400165607
20
-1.24365117943086
30
0
41
1
10
29.0358577241146
20
-1.34029481009017
30
0
0
SPLINE
5
B0
100
AcDbEntity
8
1
62
256
6
ByLayer
370
18
48
1
60
0
100
AcDbSpline
70
4
71
3
72
57
73
53
40
0
40
0
40
0
40
0
40
0.0624999999999919
40
0.0624999999999919
40
0.124999999999984
40
0.124999999999984
40
0.187499999999976
40
0.187499999999976
40
0.218749999999972
40
0.218749999999972
40
0.249999999999968
40
0.249999999999968
40
0.281249999999963
40
0.281249999999963
40
0.296874999999961
40
0.296874999999961
40
0.312499999999959
40
0.312499999999959
40
0.328124999999957
40
0.328124999999957
40
0.343749999999955
40
0.343749999999955
40
0.359374999999953
40
0.359374999999953
40
0.374999999999951
40
0.374999999999951
40
0.406249999999947
40
0.406249999999947
40
0.437499999999943
40
0.437499999999943
40
0.453124999999942
40
0.453124999999942
40
0.457031249999942
40
0.457031249999942
40
0.460937499999942
40
0.460937499999942
40
0.464843749999942
40
0.464843749999942
40
0.468749999999942
40
0.468749999999942
40
0.476562499999941
40
0.476562499999941
40
0.484374999999941
40
0.49999999999994
40
0.49999999999994
40
0.624999999999955
40
0.624999999999955
40
0.74999999999997
40
0.74999999999997
40
0.874999999999985
40
0.874999999999985
40
1
40
1
40
1
40
1
41
1
10
7.51367714429517
20
-0.508525612760735
30
0
41
1
10
7.39269931892136
20
-0.438252512618902
30
0
41
1
10
7.27215326309192
20
-0.365262425453409
30
0
41
1
10
7.03240769777113
20
-0.21221633328031
30
0
41
1
10
6.9134896016476
20
-0.132347810594268
30
0
41
1
10
6.68249299625154
20
0.0345703546247194
30
0
41
1
10
6.56987394905133
20
0.121755293708191
30
0
41
1
10
6.40875579966331
20
0.262673219743448
30
0
41
1
10
6.3562646893179
20
0.311501341299333
30
0
41
1
10
6.25677123775534
20
0.412847249554687
30
0
41
1
10
6.20932793434832
20
0.465771179585801
30
0
41
1
10
6.12391438721556
20
0.576315512727945
30
0
41
1
10
6.08595987705351
20
0.633629250960041
30
0
41
1
10
6.04133153041735
20
0.725150831625569
30
0
41
1
10
6.02874651954519
20
0.756298388240964
30
0
41
1
10
6.00986336066683
20
0.819032728146937
30
0
41
1
10
6.00346654306662
20
0.851157461069022
30
0
41
1
10
5.9986230419037
20
0.914531796347262
30
0
41
1
10
6.00012823815109
20
0.945485185759281
30
0
41
1
10
6.01143196524572
20
1.00594489139209
30
0
41
1
10
6.02141741085734
20
1.03556183081855
30
0
41
1
10
6.04828037125662
20
1.09045331848497
30
0
41
1
10
6.06532007796929
20
1.11632469787145
30
0
41
1
10
6.10470312068881
20
1.16445450459378
30
0
41
1
10
6.12672584081812
20
1.18644250181941
30
0
41
1
10
6.19813411074364
20
1.24777119768092
30
0
41
1
10
6.2532654905589
20
1.28273098817692
30
0
41
1
10
6.36854477981123
20
1.34315144822006
30
0
41
1
10
6.42915924838218
20
1.36895290612844
30
0
41
1
10
6.5230707415526
20
1.40346523252936
30
0
41
1
10
6.55488605572216
20
1.41425000603206
30
0
41
1
10
6.59520305236796
20
1.42698227495799
30
0
41
1
10
6.60332061501805
20
1.42946318173256
30
0
41
1
10
6.61949476787396
20
1.43447242314045
30
0
41
1
10
6.62747548055495
20
1.43715047184034
30
0
41
1
10
6.64384799828576
20
1.44173110641253
30
0
41
1
10
6.6522687687785
20
1.44357121941499
30
0
41
1
10
6.67010320694379
20
1.44538546933452
30
0
41
1
10
6.67936265462865
20
1.44563468586858
30
0
41
1
10
6.70659071597069
20
1.4451135258472
30
0
41
1
10
6.72465583088166
20
1.44398406574101
30
0
41
1
10
6.76085251256129
20
1.44232003713478
30
0
41
1
10
6.81513534419307
20
1.43971103852058
30
0
41
1
10
6.86938174492343
20
1.4367619721281
30
0
41
1
10
7.19471566124275
20
1.41769567168154
30
0
41
1
10
7.4818531248014
20
1.39115154298983
30
0
41
1
10
8.05217125707725
20
1.31649017424306
30
0
41
1
10
8.33426449739736
20
1.26833936134403
30
0
41
1
10
8.89002123113454
20
1.148949879345
30
0
41
1
10
9.16417049780483
20
1.07755919910826
30
0
41
1
10
9.70673968377093
20
0.91105066934179
30
0
41
1
10
9.97519792643524
20
0.815999963695418
30
0
41
1
10
10.2420980327303
20
0.71045048388126
30
0
0
SPLINE
5
B1
100
AcDbEntity
8
1
62
256
6
ByLayer
370
18
48
1
60
0
100
AcDbSpline
70
4
71
3
72
12
73
8
40
0
40
0
40
0
40
0
40
0.250000000000002
40
0.250000000000002
40
0.500000000000005
40
0.500000000000005
40
1
40
1
40
1
40
1
41
1
10
29.8776538752257
20
-0.691328204198157
30
0
41
1
10
29.893297375016
20
-0.63896910925061
30
0
41
1
10
29.9078370631718
20
-0.587665860678584
30
0
41
1
10
29.9342723316669
20
-0.486712132145953
30
0
41
1
10
29.9461725136378
20
-0.436976652280464
30
0
41
1
10
29.9767026452253
20
-0.291714642195188
30
0
41
1
10
29.9903593343185
20
-0.199320421455838
30
0
41
1
10
29.9964039908735
20
-0.108012810728837
30
0
0
SPLINE
5
B2
100
AcDbEntity
8
1
62
256
6
ByLayer
370
18
48
1
60
0
100
AcDbSpline
70
4
71
3
72
28
73
24
40
0
40
0
40
0
40
0
40
0.250000000000027
40
0.250000000000027
40
0.375000000000034
40
0.375000000000034
40
0.500000000000041
40
0.500000000000041
40
0.750000000000041
40
0.750000000000041
40
0.812500000000048
40
0.812500000000048
40
0.828125000000043
40
0.828125000000043
40
0.843750000000038
40
0.843750000000038
40
0.851562500000035
40
0.851562500000035
40
0.859375000000033
40
0.859375000000033
40
0.875000000000028
40
0.875000000000028
40
1
40
1
40
1
40
1
41
1
10
27.5485603500254
20
0.678204992837351
30
0
41
1
10
27.691651657251
20
0.556876799928773
30
0
41
1
10
27.8414034357792
20
0.451203506093577
30
0
41
1
10
28.0764515143745
20
0.317185898091992
30
0
41
1
10
28.1565140752213
20
0.276943093499313
30
0
41
1
10
28.3165744219182
20
0.208171678542328
30
0
41
1
10
28.3970128591417
20
0.179057460994301
30
0
41
1
10
28.6396433319501
20
0.10869612635841
30
0
41
1
10
28.8047411699097
20
0.084047788709654
30
0
41
1
10
29.0030973408639
20
0.0953525834671609
30
0
41
1
10
29.0425070933027
20
0.099728097908212
30
0
41
1
10
29.0909302427423
20
0.108007887220339
30
0
41
1
10
29.1006371140203
20
0.109580050479394
30
0
41
1
10
29.1198971559373
20
0.113303445303131
30
0
41
1
10
29.1300481519897
20
0.115428457693753
30
0
41
1
10
29.1394902619655
20
0.127562141656313
30
0
41
1
10
29.1410611591909
20
0.133081969949472
30
0
41
1
10
29.1437425811455
20
0.144170415772749
30
0
41
1
10
29.1450442246038
20
0.149735322443348
30
0
41
1
10
29.14883433379
20
0.166490832949393
30
0
41
1
10
29.1512088991313
20
0.177746979621844
30
0
41
1
10
29.1712331299383
20
0.279648057311931
30
0
41
1
10
29.1795259434398
20
0.374797545830717
30
0
41
1
10
29.1810335653971
20
0.470719006854836
30
0
0
SPLINE
5
B3
100
AcDbEntity
8
1
62
256
6
ByLayer
370
18
48
1
60
0
100
AcDbSpline
70
4
71
3
72
29
73
25
40
0
40
0
40
0
40
0
40
0.135162341728618
40
0.135162341728618
40
0.297437292591539
40
0.297437292591539
40
0.45971224345446
40
0.45971224345446
40
0.54084971888592
40
0.54084971888592
40
0.58141845660165
40
0.591560641030583
40
0.591560641030583
40
0.601702825459515
40
0.601702825459515
40
0.611845009888448
40
0.611845009888448
40
0.62198719431738
40
0.62198719431738
40
0.784262145180301
40
0.784262145180301
40
0.946537096043222
40
0.946537096043222
40
1
40
1
40
1
40
1
41
1
10
10.2420980327304
20
0.710450483881232
30
0
41
1
10
10.2420980327304
20
0.659547230205817
30
0
41
1
10
10.2420980327304
20
0.597424323065582
30
0
41
1
10
10.2420980327304
20
0.44173192602139
30
0
41
1
10
10.2420980327304
20
0.343759102181707
30
0
41
1
10
10.2420980327304
20
0.124417514846897
30
0
41
1
10
10.2420980327304
20
0.0051447789352039
30
0
41
1
10
10.2420980327304
20
-0.18717110681456
30
0
41
1
10
10.2420980327304
20
-0.253647442984658
30
0
41
1
10
10.2420980327304
20
-0.356323781399055
30
0
41
1
10
10.2420980327303
20
-0.399672290325043
30
0
41
1
10
10.2420980327304
20
-0.443723322979224
30
0
41
1
10
10.2420980327304
20
-0.461388723038766
30
0
41
1
10
10.2420980327304
20
-0.47176664275824
30
0
41
1
10
10.2420980327304
20
-0.491788073851183
30
0
41
1
10
10.2420980327303
20
-0.501733943240339
30
0
41
1
10
10.2420980327303
20
-0.521663511034802
30
0
41
1
10
10.2420980327303
20
-0.531616391724953
30
0
41
1
10
10.2420980327303
20
-0.700612515890583
30
0
41
1
10
10.2420980327303
20
-0.857525130177777
30
0
41
1
10
10.2420980327303
20
-1.15728752176992
30
0
41
1
10
10.2420980327304
20
-1.30084634797052
30
0
41
1
10
10.2420980327304
20
-1.48233612434132
30
0
41
1
10
10.2420980327304
20
-1.52627597296342
30
0
41
1
10
10.2420980327304
20
-1.56891274350966
30
0
0
SPLINE
5
B4
100
AcDbEntity
8
1
62
256
6
ByLayer
370
13
48
1
60
0
100
AcDbSpline
70
4
71
3
72
26
73
22
40
0
40
0
40
0
40
0
40
0.0955170824116963
40
0.0955170824116963
40
0.170890658877388
40
0.170890658877388
40
0.24626423534308
40
0.24626423534308
40
0.397011388274464
40
0.397011388274464
40
0.547758541205848
40
0.547758541205848
40
0.62313211767154
40
0.62313211767154
40
0.698505694137232
40
0.698505694137232
40
0.849252847068616
40
0.849252847068616
40
0.924626423534308
40
0.924626423534308
40
1
40
1
40
1
40
1
41
1
10
7.7096188458263
20
-1.79166322232615
30
0
41
1
10
7.70961389098204
20
-1.79162951302763
30
0
41
1
10
7.70960777265992
20
-1.78729348913475
30
0
41
1
10
7.70959607047092
20
-1.77202672361929
30
0
41
1
10
7.70959063631398
20
-1.76266157048053
30
0
41
1
10
7.70957987695306
20
-1.73855687022487
30
0
41
1
10
7.70957453451831
20
-1.72372654618073
30
0
41
1
10
7.70955991245796
20
-1.67197010327536
30
0
41
1
10
7.70955197522778
20
-1.62772376792392
30
0
41
1
10
7.7095434138576
20
-1.52004212763234
30
0
41
1
10
7.70954286706933
20
-1.45593671781475
30
0
41
1
10
7.7095492651448
20
-1.34803602847288
30
0
41
1
10
7.70955256890502
20
-1.31005064410209
30
0
41
1
10
7.70956158469539
20
-1.23002291273542
30
0
41
1
10
7.70956733454264
20
-1.18777072913321
30
0
41
1
10
7.70958779099649
20
-1.05709443575563
30
0
41
1
10
7.70960573498621
20
-0.964441408859358
30
0
41
1
10
7.70963732247
20
-0.817427612405169
30
0
41
1
10
7.70964862313951
20
-0.767074952311333
30
0
41
1
10
7.70967236376225
20
-0.663609490979582
30
0
41
1
10
7.70968486206246
20
-0.610251836649297
30
0
41
1
10
7.7096975097798
20
-0.556168274039806
30
0
0
SPLINE
5
B5
100
AcDbEntity
8
1
62
256
6
ByLayer
370
18
48
1
60
0
100
AcDbSpline
70
4
71
3
72
12
73
8
40
0
40
0
40
0
40
0
40
0.25
40
0.25
40
0.499999999999999
40
0.499999999999999
40
1
40
1
40
1
40
1
41
1
10
29.181033565397
20
0.470719006854807
30
0
41
1
10
29.1811894478841
20
0.48063692814975
30
0
41
1
10
29.1841843805291
20
0.490478975495506
30
0
41
1
10
29.1953942786161
20
0.507330386884718
30
0
41
1
10
29.203573724367
20
0.514325945336594
30
0
41
1
10
29.2307364397718
20
0.529536332943366
30
0
41
1
10
29.2519140446581
20
0.532843094271755
30
0
41
1
10
29.2726444320372
20
0.532340010437082
30
0
0
SPLINE
5
B6
100
AcDbEntity
8
1
62
256
6
ByLayer
370
18
48
1
60
0
100
AcDbSpline
70
4
71
3
72
20
73
16
40
0
40
0
40
0
40
0
40
0.125000000000005
40
0.125000000000005
40
0.18750000000001
40
0.18750000000001
40
0.250000000000015
40
0.250000000000015
40
0.50000000000001
40
0.50000000000001
40
0.750000000000005
40
0.750000000000005
40
0.875000000000003
40
0.875000000000003
40
1
40
1
40
1
40
1
41
1
10
29.6948667627943
20
-0.454798574380874
30
0
41
1
10
29.6991301387659
20
-0.485897131577787
30
0
41
1
10
29.6982795307732
20
-0.523157097130479
30
0
41
1
10
29.6894828810163
20
-0.582823885677925
30
0
41
1
10
29.6852581029829
20
-0.603749680081563
30
0
41
1
10
29.6748588103371
20
-0.645288634429193
30
0
41
1
10
29.6686980069326
20
-0.666008258310711
30
0
41
1
10
29.633472143925
20
-0.769431132324058
30
0
41
1
10
29.5942620237923
20
-0.842870196288004
30
0
41
1
10
29.5151216348432
20
-0.946530982451037
30
0
41
1
10
29.4740748481307
20
-0.978319570431495
30
0
41
1
10
29.4169906085268
20
-0.992872530616069
30
0
41
1
10
29.3986172032878
20
-0.992380718457525
30
0
41
1
10
29.3636083381369
20
-0.980428868850311
30
0
41
1
10
29.3474529717942
20
-0.969222641128908
30
0
41
1
10
29.3326584352291
20
-0.952452005872232
30
0
0
SPLINE
5
B7
100
AcDbEntity
8
1
62
256
6
ByLayer
370
18
48
1
60
0
100
AcDbSpline
70
4
71
3
72
14
73
10
40
0
40
0
40
0
40
0
40
0.25
40
0.25
40
0.5
40
0.5
40
0.75
40
0.75
40
1
40
1
40
1
40
1
41
1
10
29.3887349687921
20
-1.80414443337023
30
0
41
1
10
29.392004726975
20
-1.80374023715356
30
0
41
1
10
29.3946487447597
20
-1.80485682806298
30
0
41
1
10
29.3983166913743
20
-1.811105775128
30
0
41
1
10
29.3993002101911
20
-1.81627544790999
30
0
41
1
10
29.3986050025269
20
-1.83191331971952
30
0
41
1
10
29.3968585258237
20
-1.84231956411512
30
0
41
1
10
29.3907374331718
20
-1.86620842892131
30
0
41
1
10
29.3863724765154
20
-1.8796564990013
30
0
41
1
10
29.3814974321227
20
-1.8926185399539
30
0
0
SPLINE
5
B8
100
AcDbEntity
8
1
62
256
6
ByLayer
370
18
48
1
60
0
100
AcDbSpline
70
4
71
3
72
10
73
6
40
0
40
0
40
0
40
0
40
0.5
40
0.5
40
1
40
1
40
1
40
1
41
1
10
29.4593431927832
20
1.83197964789054
30
0
41
1
10
29.4469127081937
20
1.8470588277857
30
0
41
1
10
29.4342342348506
20
1.85968373511065
30
0
41
1
10
29.4082851766717
20
1.87995300575076
30
0
41
1
10
29.3949491056954
20
1.88760893101076
30
0
41
1
10
29.3814974321227
20
1.89261853995387
30
0
0
SPLINE
5
B9
100
AcDbEntity
8
1
62
256
6
ByLayer
370
18
48
1
60
0
100
AcDbSpline
70
4
71
3
72
8
73
4
40
0
40
0
40
0
40
0
40
1
40
1
40
1
40
1
41
1
10
29.9779768703715
20
-0.0337651943159472
30
0
41
1
10
29.8863808052361
20
-0.176996575163628
30
0
41
1
10
29.7915896267637
20
-0.316902744553516
30
0
41
1
10
29.6948667627957
20
-0.454798574382494
30
0
0
SPLINE
5
BA
100
AcDbEntity
8
1
62
256
6
ByLayer
370
18
48
1
60
0
100
AcDbSpline
70
4
71
3
72
8
73
4
40
0
40
0
40
0
40
0
40
1
40
1
40
1
40
1
41
1
10
29.4593431927763
20
1.83197964791231
30
0
41
1
10
29.5939245513387
20
1.45097003925315
30
0
41
1
10
29.735163116689
20
1.06943383864657
30
0
41
1
10
29.8776538752292
20
0.691328204188778
30
0
0
SPLINE
5
BB
100
AcDbEntity
8
1
62
256
6
ByLayer
370
18
48
1
60
0
100
AcDbSpline
70
4
71
3
72
8
73
4
40
0
40
0
40
0
40
0
40
1
40
1
40
1
40
1
41
1
10
29.9964039908735
20
-0.108012810728837
30
0
41
1
10
29.9963758478008
20
-0.0968463684640142
30
0
41
1
10
29.9961992177498
20
-0.085683055229822
30
0
41
1
10
29.995866642069
20
-0.074523028200673
30
0
0
SPLINE
5
BC
100
AcDbEntity
8
1
62
256
6
ByLayer
370
13
48
1
60
0
100
AcDbSpline
70
4
71
3
72
30
73
26
40
0
40
0
40
0
40
0
40
0.0748615001583845
40
0.0748615001583845
40
0.149723000316769
40
0.149723000316769
40
0.299446000633538
40
0.299446000633538
40
0.33687675071273
40
0.33687675071273
40
0.374307500791922
40
0.374307500791922
40
0.449169000950309
40
0.449169000950309
40
0.598892001267083
40
0.598892001267083
40
0.67375350142547
40
0.67375350142547
40
0.748615001583857
40
0.748615001583857
40
0.89833800190063
40
0.89833800190063
40
0.973199502059016
40
0.973199502059016
40
1
40
1
40
1
40
1
41
1
10
29.3887349688097
20
-1.80414443336997
30
0
41
1
10
29.1617089877302
20
-1.8075631865332
30
0
41
1
10
28.9340940917626
20
-1.79990497849107
30
0
41
1
10
28.4807033898755
20
-1.76320765034626
30
0
41
1
10
28.2553472099063
20
-1.73427347416853
30
0
41
1
10
27.5810275577093
20
-1.61784504374555
30
0
41
1
10
27.133917980073
20
-1.50026687739521
30
0
41
1
10
26.5697329837372
20
-1.31164162854318
30
0
41
1
10
26.4566401189285
20
-1.27183663200194
30
0
41
1
10
26.2297804422463
20
-1.18819671883327
30
0
41
1
10
26.1159466730013
20
-1.14433457448425
30
0
41
1
10
25.776183074891
20
-1.00853445475042
30
0
41
1
10
25.5509641433402
20
-0.911989870877733
30
0
41
1
10
24.8767578232556
20
-0.608888780625534
30
0
41
1
10
24.4294131218521
20
-0.388423892031312
30
0
41
1
10
23.7518645223972
20
-0.0490312327369793
30
0
41
1
10
23.5239005702779
20
0.0660599402273192
30
0
41
1
10
23.0711318425207
20
0.292908353724442
30
0
41
1
10
22.8459309782048
20
0.404557521446463
30
0
41
1
10
22.1714731130332
20
0.729465929180861
30
0
41
1
10
21.7236681361906
20
0.933105405314478
30
0
41
1
10
21.0448524043926
20
1.20120517596467
30
0
41
1
10
20.816768951106
20
1.2844589957563
30
0
41
1
10
20.5094083864467
20
1.38556001948592
30
0
41
1
10
20.4285013512084
20
1.41112126272603
30
0
41
1
10
20.3476763017466
20
1.4355601107427
30
0
0
SPLINE
5
BD
100
AcDbEntity
8
1
62
256
6
ByLayer
370
18
48
1
60
0
100
AcDbSpline
70
4
71
3
72
24
73
20
40
0
40
0
40
0
40
0
40
0.049226342642009
40
0.049226342642009
40
0.122362777823393
40
0.122362777823393
40
0.268635648186161
40
0.268635648186161
40
0.414908518548929
40
0.414908518548929
40
0.488044953730312
40
0.488044953730312
40
0.561181388911696
40
0.561181388911696
40
0.707454259274464
40
0.707454259274464
40
0.853727129637232
40
0.853727129637232
40
1
40
1
40
1
40
1
41
1
10
7.51348619043358
20
-1.88627958627586
30
0
41
1
10
7.51348818262599
20
-1.88625316162739
30
0
41
1
10
7.51348964185706
20
-1.88492952226676
30
0
41
1
10
7.51349221145855
20
-1.87846722950704
30
0
41
1
10
7.513492827774
20
-1.87180268658577
30
0
41
1
10
7.5134930590323
20
-1.84352877438937
30
0
41
1
10
7.51349106172952
20
-1.81352141129602
30
0
41
1
10
7.51348827777383
20
-1.73126959949158
30
0
41
1
10
7.5134875658606
20
-1.68005178934104
30
0
41
1
10
7.51349063951704
20
-1.58858393527012
30
0
41
1
10
7.51349234239646
20
-1.55563776421522
30
0
41
1
10
7.51349751032885
20
-1.48471285473204
30
0
41
1
10
7.51350099507846
20
-1.44663538848624
30
0
41
1
10
7.51351425300919
20
-1.3272266237696
30
0
41
1
10
7.51352690926367
20
-1.24006079601804
30
0
41
1
10
7.51356003364609
20
-1.05074798099739
30
0
41
1
10
7.51358073337786
20
-0.947701605021763
30
0
41
1
10
7.51362648148273
20
-0.734586301101615
30
0
41
1
10
7.51365164140677
20
-0.623734882908167
30
0
41
1
10
7.513677144295
20
-0.508525612760678
30
0
0
SPLINE
5
BE
100
AcDbEntity
8
1
62
256
6
ByLayer
370
18
48
1
60
0
100
AcDbSpline
70
4
71
3
72
14
73
10
40
0
40
0
40
0
40
0
40
0.25
40
0.25
40
0.5
40
0.5
40
0.75
40
0.75
40
1
40
1
40
1
40
1
41
1
10
7.70969751044314
20
-0.556168274412556
30
0
41
1
10
7.91579163827447
20
-0.672741534317851
30
0
41
1
10
8.12387749359101
20
-0.78091661981864
30
0
41
1
10
8.54352546329338
20
-0.983364166622607
30
0
41
1
10
8.7538711262826
20
-1.07738928333794
30
0
41
1
10
9.17490958624506
20
-1.2478257445122
30
0
41
1
10
9.38592880414703
20
-1.3242605644424
30
0
41
1
10
9.81108864078917
20
-1.45957016578757
30
0
41
1
10
10.0252218412109
20
-1.51883896029952
30
0
41
1
10
10.2420980327304
20
-1.56891274351187
30
0
0
SPLINE
5
BF
100
AcDbEntity
8
1
62
256
6
ByLayer
370
18
48
1
60
0
100
AcDbSpline
70
4
71
3
72
38
73
34
40
0
40
0
40
0
40
0
40
0.0586751154093743
40
0.0586751154093743
40
0.117350230818749
40
0.117350230818749
40
0.234700461637497
40
0.234700461637497
40
0.264038019342184
40
0.264038019342184
40
0.29337557704687
40
0.29337557704687
40
0.352050692456244
40
0.352050692456244
40
0.469400923274993
40
0.469400923274993
40
0.528076038684368
40
0.528076038684368
40
0.586751154093743
40
0.586751154093743
40
0.704101384912493
40
0.704101384912493
40
0.762776500321868
40
0.762776500321868
40
0.821451615731243
40
0.821451615731243
40
0.938801846549993
40
0.938801846549993
40
0.968139404254681
40
0.968139404254681
40
0.997476961959369
40
0.997476961959369
40
1
40
1
40
1
40
1
41
1
10
29.3814974321227
20
-1.89261853995396
30
0
41
1
10
29.1535915854582
20
-1.90313309030179
30
0
41
1
10
28.9256441882872
20
-1.90199946577863
30
0
41
1
10
28.4696567640535
20
-1.87676066376812
30
0
41
1
10
28.243209587594
20
-1.85277626635781
30
0
41
1
10
27.5661039114253
20
-1.74872203343264
30
0
41
1
10
27.1178773418384
20
-1.63621805003726
30
0
41
1
10
26.5521755920129
20
-1.44971555590564
30
0
41
1
10
26.4387748373041
20
-1.41012234894438
30
0
41
1
10
26.2112960009607
20
-1.32645968044486
30
0
41
1
10
26.0970210839966
20
-1.28229089604508
30
0
41
1
10
25.7559089038516
20
-1.14488415416787
30
0
41
1
10
25.529889577198
20
-1.04647893957082
30
0
41
1
10
24.8534115614278
20
-0.735455272947121
30
0
41
1
10
24.4047876894946
20
-0.50654796850111
30
0
41
1
10
23.724633171215
20
-0.150122773430013
30
0
41
1
10
23.4957199441803
20
-0.0285746764942587
30
0
41
1
10
23.0419151184866
20
0.211787865263574
30
0
41
1
10
22.8162350642258
20
0.330562750871422
30
0
41
1
10
22.1402656199125
20
0.677939454819011
30
0
41
1
10
21.6915192734936
20
0.898424737662026
30
0
41
1
10
21.0101418244623
20
1.19235947195597
30
0
41
1
10
20.7812327132375
20
1.28436387131282
30
0
41
1
10
20.3279519653553
20
1.45016169957532
30
0
41
1
10
20.1024878856112
20
1.52442791795846
30
0
41
1
10
19.4269459940158
20
1.71861389186398
30
0
41
1
10
18.9774011799822
20
1.80967744360467
30
0
41
1
10
18.4085844460142
20
1.8682427351018
30
0
41
1
10
18.2942266079484
20
1.87717773439036
30
0
41
1
10
18.0666256026902
20
1.88923116103294
30
0
41
1
10
17.9531818255847
20
1.89238245911508
30
0
41
1
10
17.8302615587474
20
1.89272552767488
30
0
41
1
10
17.8205294868119
20
1.8927317012506
30
0
41
1
10
17.8107993158177
20
1.89271690579665
30
0
0
SPLINE
5
C0
100
AcDbEntity
8
1
62
256
6
ByLayer
370
18
48
1
60
0
100
AcDbSpline
70
4
71
3
72
8
73
4
40
0
40
0
40
0
40
0
40
1
40
1
40
1
40
1
41
1
10
7.77599804977095
20
-1.7799288258789
30
0
41
1
10
7.73837498686177
20
-1.78646658594022
30
0
41
1
10
7.70070509984694
20
-1.79271664626259
30
0
41
1
10
7.66298426091009
20
-1.7986741818122
30
0
0
SPLINE
5
C1
100
AcDbEntity
8
1
62
256
6
ByLayer
370
18
48
1
60
0
100
AcDbSpline
70
4
71
3
72
32
73
28
40
0
40
0
40
0
40
0
40
0.124999999999988
40
0.124999999999988
40
0.249999999999976
40
0.249999999999976
40
0.31249999999997
40
0.31249999999997
40
0.374999999999963
40
0.374999999999963
40
0.40624999999996
40
0.40624999999996
40
0.437499999999957
40
0.437499999999957
40
0.468749999999954
40
0.468749999999954
40
0.499999999999951
40
0.499999999999951
40
0.562499999999957
40
0.562499999999957
40
0.624999999999964
40
0.624999999999964
40
0.749999999999976
40
0.749999999999976
40
0.874999999999988
40
0.874999999999988
40
1
40
1
40
1
40
1
41
1
10
29.3326584352291
20
-0.952452005872232
30
0
41
1
10
29.2549397696853
20
-0.922376725710052
30
0
41
1
10
29.1785474824229
20
-0.886171716498296
30
0
41
1
10
29.0300544790745
20
-0.800465299979322
30
0
41
1
10
28.9576440294489
20
-0.751286504761396
30
0
41
1
10
28.8539648638646
20
-0.660510996672883
30
0
41
1
10
28.8204086212603
20
-0.627428121498525
30
0
41
1
10
28.7594393900513
20
-0.554384895782931
30
0
41
1
10
28.7310840291387
20
-0.513730628461872
30
0
41
1
10
28.7020532135002
20
-0.445726261616784
30
0
41
1
10
28.6948604681722
20
-0.4219837040296
30
0
41
1
10
28.6893101253208
20
-0.374569470205103
30
0
41
1
10
28.6913218939087
20
-0.351152828329163
30
0
41
1
10
28.7050476247291
20
-0.310845867066604
30
0
41
1
10
28.7164582791158
20
-0.293954498945737
30
0
41
1
10
28.7440080335537
20
-0.266753540109733
30
0
41
1
10
28.7598126186416
20
-0.256477780261292
30
0
41
1
10
28.810159431538
20
-0.231927489539061
30
0
41
1
10
28.8473301708936
20
-0.223866637094488
30
0
41
1
10
28.9226292703977
20
-0.215786444033682
30
0
41
1
10
28.961566115772
20
-0.215936195162755
30
0
41
1
10
29.0780271275261
20
-0.224112747292366
30
0
41
1
10
29.1560181648706
20
-0.239532404267408
30
0
41
1
10
29.3124136649764
20
-0.282134614609475
30
0
41
1
10
29.3909123407154
20
-0.309692394183998
30
0
41
1
10
29.544678130998
20
-0.374360037770657
30
0
41
1
10
29.6204571850288
20
-0.411560448535965
30
0
41
1
10
29.6948667627942
20
-0.454798574380789
30
0
0
SPLINE
5
C2
100
AcDbEntity
8
1
62
256
6
ByLayer
370
18
48
1
60
0
100
AcDbSpline
70
4
71
3
72
16
73
12
40
0
40
0
40
0
40
0
40
0.250000000000006
40
0.250000000000006
40
0.375000000000005
40
0.375000000000005
40
0.500000000000004
40
0.500000000000004
40
0.750000000000002
40
0.750000000000002
40
1
40
1
40
1
40
1
41
1
10
29.0358577241145
20
-1.34029481009017
30
0
41
1
10
29.0644866524989
20
-1.41782263040938
30
0
41
1
10
29.0936770606115
20
-1.48593351508865
30
0
41
1
10
29.1381164966858
20
-1.57453726593204
30
0
41
1
10
29.1530417559878
20
-1.60179496081929
30
0
41
1
10
29.1831196203592
20
-1.65165671379432
30
0
41
1
10
29.1983142142404
20
-1.67429108090525
30
0
41
1
10
29.2433376132273
20
-1.73377063982011
30
0
41
1
10
29.2728922263936
20
-1.7628027049347
30
0
41
1
10
29.3313659600671
20
-1.7997909472721
30
0
41
1
10
29.3604499622442
20
-1.80764092821715
30
0
41
1
10
29.3887349687951
20
-1.80414443336986
30
0
0
SPLINE
5
C3
100
AcDbEntity
8
1
62
256
6
ByLayer
370
18
48
1
60
0
100
AcDbSpline
70
4
71
3
72
8
73
4
40
0
40
0
40
0
40
0
40
1
40
1
40
1
40
1
41
1
10
29.995866642069
20
-0.0745230282007299
30
0
41
1
10
29.9954660974126
20
-0.0610822102144937
30
0
41
1
10
29.996961320773
20
-0.044478566055858
30
0
41
1
10
29.9997816046676
20
-0.0265462423772362
30
0
0
SPLINE
5
C4
100
AcDbEntity
8
1
62
256
6
ByLayer
370
18
48
1
60
0
100
AcDbSpline
70
4
71
3
72
8
73
4
40
0
40
0
40
0
40
0
40
1
40
1
40
1
40
1
41
1
10
29.3814974321225
20
1.89261853995697
30
0
41
1
10
29.2758078802309
20
1.89749458035203
30
0
41
1
10
29.1700619535189
20
1.89986357130039
30
0
41
1
10
29.0643169560403
20
1.89974407846302
30
0
0
SPLINE
5
C5
100
AcDbEntity
8
1
62
256
6
ByLayer
370
18
48
1
60
0
100
AcDbSpline
70
4
71
3
72
36
73
32
40
0
40
0
40
0
40
0
40
0.0235560857184744
40
0.0235560857184744
40
0.0540699580397728
40
0.0540699580397728
40
0.0845838303610714
40
0.0845838303610714
40
0.145611575003667
40
0.145611575003667
40
0.267667064288858
40
0.267667064288858
40
0.328694808931453
40
0.328694808931453
40
0.389722553574048
40
0.389722553574048
40
0.450750298216644
40
0.450750298216644
40
0.511778042859239
40
0.511778042859239
40
0.633833532144429
40
0.633833532144429
40
0.694861276787024
40
0.694861276787024
40
0.725375149108321
40
0.725375149108321
40
0.755889021429618
40
0.755889021429618
40
0.877944510714809
40
0.877944510714809
40
1
40
1
40
1
40
1
41
1
10
18.7849053850929
20
-1.82455280235007
30
0
41
1
10
18.6973922571103
20
-1.83685008210793
30
0
41
1
10
18.609711872452
20
-1.84754140574555
30
0
41
1
10
18.4079643584147
20
-1.86829782466762
30
0
41
1
10
18.2936231894608
20
-1.87721849325209
30
0
41
1
10
18.0661738310579
20
-1.88924624261185
30
0
41
1
10
17.9527930315533
20
-1.89238918249131
30
0
41
1
10
17.6133858917908
20
-1.8933195224578
30
0
41
1
10
17.3881324181186
20
-1.88259580501654
30
0
41
1
10
16.712663926544
20
-1.81729093991578
30
0
41
1
10
16.2625585324361
20
-1.72972147775002
30
0
41
1
10
15.5779343009449
20
-1.5366232325741
30
0
41
1
10
15.3506793601104
20
-1.46287048699463
30
0
41
1
10
14.8984693606643
20
-1.29978866980946
30
0
41
1
10
14.6733056928147
20
-1.21018265554773
30
0
41
1
10
14.2229083542422
20
-1.01777820116075
30
0
41
1
10
13.9976708871795
20
-0.914993142321975
30
0
41
1
10
13.5453683827047
20
-0.699063158109141
30
0
41
1
10
13.3177789200245
20
-0.585599413552046
30
0
41
1
10
12.6332911818166
20
-0.23557345033268
30
0
41
1
10
12.1834935475197
20
0.0060089133237966
30
0
41
1
10
11.5075491740309
20
0.359371950165553
30
0
41
1
10
11.2820931980071
20
0.475790795224697
30
0
41
1
10
10.9424748567986
20
0.646006910724225
30
0
41
1
10
10.829010341569
20
0.701973646300672
30
0
41
1
10
10.6013313144899
20
0.811917012022462
30
0
41
1
10
10.4868763205749
20
0.866002739789536
30
0
41
1
10
9.9175980731433
20
1.12795803727153
30
0
41
1
10
9.46877372685009
20
1.31224988746339
30
0
41
1
10
8.56989942966453
20
1.61127397080961
30
0
41
1
10
8.12023094611922
20
1.72645777679963
30
0
41
1
10
7.66298426091004
20
1.7986741818122
30
0
0
SPLINE
5
C6
100
AcDbEntity
8
1
62
256
6
ByLayer
370
18
48
1
60
0
100
AcDbSpline
70
4
71
3
72
72
73
68
40
0
40
0
40
0
40
0
40
0.0143148094933747
40
0.0143148094933747
40
0.0358405701677723
40
0.0358405701677723
40
0.0788920915165674
40
0.0788920915165674
40
0.100417852190965
40
0.100417852190965
40
0.121943612865362
40
0.121943612865362
40
0.164995134214156
40
0.164995134214156
40
0.186520894888554
40
0.186520894888554
40
0.208046655562951
40
0.208046655562951
40
0.251098176911747
40
0.251098176911747
40
0.294149698260542
40
0.294149698260542
40
0.315675458934939
40
0.315675458934939
40
0.337201219609337
40
0.337201219609337
40
0.380252740958132
40
0.380252740958132
40
0.423304262306927
40
0.423304262306927
40
0.466355783655722
40
0.466355783655722
40
0.509407305004517
40
0.509407305004517
40
0.552458826353312
40
0.552458826353312
40
0.57398458702771
40
0.57398458702771
40
0.595510347702108
40
0.595510347702108
40
0.638561869050906
40
0.638561869050906
40
0.660087629725305
40
0.660087629725305
40
0.681613390399703
40
0.681613390399703
40
0.724664911748499
40
0.724664911748499
40
0.746190672422897
40
0.746190672422897
40
0.767716433097294
40
0.767716433097294
40
0.81076795444609
40
0.81076795444609
40
0.853819475794884
40
0.853819475794884
40
0.875345236469283
40
0.875345236469283
40
0.896870997143681
40
0.896870997143681
40
0.939922518492479
40
0.939922518492479
40
0.96144827916688
40
0.96144827916688
40
0.98297403984128
40
0.98297403984128
40
1
40
1
40
1
40
1
41
1
10
14.5416516607909
20
1.376072616073
30
0
41
1
10
14.608014510684
20
1.40001931678697
30
0
41
1
10
14.674439873752
20
1.42325727727029
30
0
41
1
10
14.8407448653967
20
1.47987026245261
30
0
41
1
10
14.9406445547729
20
1.51240832240035
30
0
41
1
10
15.2411623275341
20
1.60460469282367
30
0
41
1
10
15.4438841503911
20
1.65864258275838
30
0
41
1
10
15.7451586989786
20
1.72788919628849
30
0
41
1
10
15.8451182832713
20
1.74903182373549
30
0
41
1
10
16.0451344707684
20
1.7867177954588
30
0
41
1
10
16.1450995603754
20
1.80336383713836
30
0
41
1
10
16.4443616709855
20
1.84713077960245
30
0
41
1
10
16.6428186743643
20
1.8680149250344
30
0
41
1
10
16.9415175256004
20
1.88598251748664
30
0
41
1
10
17.0412114001953
20
1.8897980407792
30
0
41
1
10
17.2405135093119
20
1.89308937360099
30
0
41
1
10
17.3399833348468
20
1.89253266060811
30
0
41
1
10
17.639590358487
20
1.88419251314357
30
0
41
1
10
17.8405701877443
20
1.86991829649651
30
0
41
1
10
18.243860991663
20
1.82309045124475
30
0
41
1
10
18.444489645844
20
1.79115386669474
30
0
41
1
10
18.7443436396158
20
1.73126063946393
30
0
41
1
10
18.8438507470723
20
1.7090754162698
30
0
41
1
10
19.0428984369478
20
1.660986464811
30
0
41
1
10
19.1424658661853
20
1.6351286922214
30
0
41
1
10
19.4412426191843
20
1.55220022315848
30
0
41
1
10
19.6397977595444
20
1.48893695038123
30
0
41
1
10
20.0384797143677
20
1.34945609555126
30
0
41
1
10
20.2386999834696
20
1.27353310236686
30
0
41
1
10
20.640004989769
20
1.10743487294914
30
0
41
1
10
20.8426187667391
20
1.01944522320508
30
0
41
1
10
21.2448259157019
20
0.833575213220229
30
0
41
1
10
21.4455630551813
20
0.736155063527264
30
0
41
1
10
21.8485450445915
20
0.536331320109809
30
0
41
1
10
22.0501490662193
20
0.431647374967639
30
0
41
1
10
22.3511797762205
20
0.275195862329412
30
0
41
1
10
22.4513800847337
20
0.222990073871841
30
0
41
1
10
22.6510854296797
20
0.117662772256864
30
0
41
1
10
22.7506477060964
20
0.06465584287605
30
0
41
1
10
23.0492432611576
20
-0.0938765154491534
30
0
41
1
10
23.2485854555182
20
-0.198155905974602
30
0
41
1
10
23.5467956490213
20
-0.354808067761951
30
0
41
1
10
23.646160423592
20
-0.406877212903339
30
0
41
1
10
23.8455743233498
20
-0.509275268554035
30
0
41
1
10
23.9455569103777
20
-0.559733269953455
30
0
41
1
10
24.2457213283209
20
-0.710028509879379
30
0
41
1
10
24.4467043057087
20
-0.808957224354771
30
0
41
1
10
24.7491652039578
20
-0.949430365034374
30
0
41
1
10
24.8499275983091
20
-0.99501045138976
30
0
41
1
10
25.0509790567603
20
-1.0842527790777
30
0
41
1
10
25.1511916512483
20
-1.12801199706723
30
0
41
1
10
25.4526719896821
20
-1.25396011475417
30
0
41
1
10
25.6542862093427
20
-1.33201508188583
30
0
41
1
10
26.057135771508
20
-1.47639310064733
30
0
41
1
10
26.2584010142507
20
-1.54112016051619
30
0
41
1
10
26.5599821229262
20
-1.62734770641848
30
0
41
1
10
26.6602147235498
20
-1.65448904879608
30
0
41
1
10
26.8612688254902
20
-1.70440113615967
30
0
41
1
10
26.9620315875478
20
-1.7272538956519
30
0
41
1
10
27.2647967264
20
-1.78974514880053
30
0
41
1
10
27.4649825145633
20
-1.82328473882802
30
0
41
1
10
27.7646519696342
20
-1.86003622135459
30
0
41
1
10
27.8644891310307
20
-1.87006879051893
30
0
41
1
10
28.0637882996491
20
-1.88585490946889
30
0
41
1
10
28.1630768421757
20
-1.89162806847068
30
0
41
1
10
28.3410076752978
20
-1.89795723515877
30
0
41
1
10
28.4196771418408
20
-1.89937830605714
30
0
41
1
10
28.4983918778446
20
-1.89942258981944
30
0
0
SPLINE
5
C7
100
AcDbEntity
8
1
62
256
6
ByLayer
370
18
48
1
60
0
100
AcDbSpline
70
4
71
3
72
8
73
4
40
0
40
0
40
0
40
0
40
1
40
1
40
1
40
1
41
1
10
29.9964039908735
20
0.108012810725285
30
0
41
1
10
29.9963758409049
20
0.0968436323636013
30
0
41
1
10
29.9961991349581
20
0.0856802770431671
30
0
41
1
10
29.995866642069
20
0.074523028200673
30
0
0
SPLINE
5
C8
100
AcDbEntity
8
1
62
256
6
ByLayer
370
18
48
1
60
0
100
AcDbSpline
70
4
71
3
72
10
73
6
40
0
40
0
40
0
40
0
40
0.5
40
0.5
40
1
40
1
40
1
40
1
41
1
10
29.9997816046684
20
0.0265462423726888
30
0
41
1
10
29.9980387800798
20
0.0162161215591539
30
0
41
1
10
29.9952659879455
20
0.0051693637569485
30
0
41
1
10
29.9877370549638
20
-0.0159756273372693
30
0
41
1
10
29.9829459441899
20
-0.0259949117883878
30
0
41
1
10
29.9779768703715
20
-0.033765194316004
30
0
0
SPLINE
5
C9
100
AcDbEntity
8
1
62
256
6
ByLayer
370
18
48
1
60
0
100
AcDbSpline
70
4
71
3
72
8
73
4
40
0
40
0
40
0
40
0
40
1
40
1
40
1
40
1
41
1
10
29.4593431927846
20
-1.8319796478888
30
0
41
1
10
29.5947959537032
20
-1.44850303581862
30
0
41
1
10
29.7352926000021
20
-1.0690902488536
30
0
41
1
10
29.8776538752256
20
-0.691328204198271
30
0
0
SPLINE
5
CA
100
AcDbEntity
8
1
62
256
6
ByLayer
370
18
48
1
60
0
100
AcDbSpline
70
4
71
3
72
8
73
4
40
0
40
0
40
0
40
0
40
1
40
1
40
1
40
1
41
1
10
7.66298426091006
20
1.7986741818122
30
0
41
1
10
7.63655349317386
20
1.80284859157695
30
0
41
1
10
7.60993474276884
20
1.806800110728
30
0
41
1
10
7.58497704206223
20
1.81139406662092
30
0
0
SPLINE
5
CB
100
AcDbEntity
8
1
62
256
6
ByLayer
370
18
48
1
60
0
100
AcDbSpline
70
4
71
3
72
8
73
4
40
0
40
0
40
0
40
0
40
1
40
1
40
1
40
1
41
1
10
29.9997816046683
20
-0.0265462423760425
30
0
41
1
10
30.000072568977
20
-0.0088564569545326
30
0
41
1
10
30.0000729649811
20
0.0088323810538213
30
0
41
1
10
29.9997816046683
20
0.0265462423726603
30
0
0
SPLINE
5
CC
100
AcDbEntity
8
1
62
256
6
ByLayer
370
18
48
1
60
0
100
AcDbSpline
70
4
71
3
72
10
73
6
40
0
40
0
40
0
40
0
40
0.5
40
0.5
40
1
40
1
40
1
40
1
41
1
10
7.58497704206175
20
1.81139406662041
30
0
41
1
10
7.56502752285002
20
1.8150661681662
30
0
41
1
10
7.54756827081621
20
1.81962371175751
30
0
41
1
10
7.52184825125869
20
1.82968158274318
30
0
41
1
10
7.51343817764459
20
1.835194513696
30
0
41
1
10
7.51344228939416
20
1.84046946129141
30
0
0
SPLINE
5
CD
100
AcDbEntity
8
1
62
256
6
ByLayer
370
18
48
1
60
0
100
AcDbSpline
70
4
71
3
72
10
73
6
40
0
40
0
40
0
40
0
40
0.5
40
0.5
40
1
40
1
40
1
40
1
41
1
10
29.2726444320373
20
0.532340010436855
30
0
41
1
10
29.3689724118351
20
0.530002328628171
30
0
41
1
10
29.4653108929564
20
0.527591888730996
30
0
41
1
10
29.6578802751986
20
0.523516373569635
30
0
41
1
10
29.7540336652849
20
0.522388331058295
30
0
41
1
10
29.8501460649759
20
0.521544289205394
30
0
0
SPLINE
5
CE
100
AcDbEntity
8
SK1
62
256
6
ByLayer
370
18
48
1
60
0
100
AcDbSpline
70
4
71
3
72
8
73
4
40
0
40
0
40
0
40
0
40
1
40
1
40
1
40
1
41
1
10
-36
20
1.61554130092128
30
0
41
1
10
-35.8060527951061
20
1.98690915700348
30
0
41
1
10
-35.6037422778489
20
2.35365754652699
30
0
41
1
10
-35.4
20
2.71961510463282
30
0
0
SPLINE
5
CF
100
AcDbEntity
8
SK1
62
256
6
ByLayer
370
18
48
1
60
0
100
AcDbSpline
70
4
71
3
72
8
73
4
40
0
40
0
40
0
40
0
40
1
40
1
40
1
40
1
41
1
10
-36
20
-1.61554130092128
30
0
41
1
10
-35.8060527951061
20
-1.98690915700345
30
0
41
1
10
-35.6037422778489
20
-2.35365754652696
30
0
41
1
10
-35.4
20
-2.71961510463279
30
0
0
SPLINE
5
D0
100
AcDbEntity
8
SK1
62
256
6
ByLayer
370
18
48
1
60
0
100
AcDbSpline
70
4
71
3
72
14
73
10
40
0
40
0
40
0
40
0
40
0.125000000000001
40
0.125000000000001
40
0.250000000000003
40
0.250000000000003
40
0.500000000000002
40
0.500000000000002
40
1
40
1
40
1
40
1
41
1
10
-35.3
20
-2.85545135069509
30
0
41
1
10
-35.3
20
-2.85251363308416
30
0
41
1
10
-35.3017593723636
20
-2.84662120619589
30
0
41
1
10
-35.306935341198
20
-2.83259535807727
30
0
41
1
10
-35.3102739075535
20
-2.8245927215909
30
0
41
1
10
-35.3215583577555
20
-2.79891174106979
30
0
41
1
10
-35.3303095934912
20
-2.78057332960273
30
0
41
1
10
-35.358391202053
20
-2.72381239774023
30
0
41
1
10
-35.378655954467
20
-2.68545191623039
30
0
41
1
10
-35.4
20
-2.64711419435036
30
0
0
SPLINE
5
D1
100
AcDbEntity
8
SK1
62
256
6
ByLayer
370
18
48
1
60
0
100
AcDbSpline
70
4
71
3
72
14
73
10
40
0
40
0
40
0
40
0
40
0.499999999999998
40
0.499999999999998
40
0.749999999999998
40
0.749999999999998
40
0.874999999999999
40
0.874999999999999
40
1
40
1
40
1
40
1
41
1
10
-35.4
20
-2.71961510463291
30
0
41
1
10
-35.3787677796885
20
-2.75775196842176
30
0
41
1
10
-35.3584290958895
20
-2.79565438529374
30
0
41
1
10
-35.3303626450498
20
-2.85032737827797
30
0
41
1
10
-35.3215171954455
20
-2.8679943088772
30
0
41
1
10
-35.3102812516991
20
-2.89173859141752
30
0
41
1
10
-35.3068890218585
20
-2.89917583309739
30
0
41
1
10
-35.3017585680987
20
-2.91146032354521
30
0
41
1
10
-35.3
20
-2.91638010533328
30
0
41
1
10
-35.3
20
-2.91828547293986
30
0
0
SPLINE
5
D2
100
AcDbEntity
8
SK1
62
256
6
ByLayer
370
18
48
1
60
0
100
AcDbSpline
70
4
71
3
72
14
73
10
40
0
40
0
40
0
40
0
40
0.499999999999998
40
0.499999999999998
40
0.749999999999997
40
0.749999999999997
40
0.874999999999998
40
0.874999999999998
40
1
40
1
40
1
40
1
41
1
10
-35.4
20
2.71961510463294
30
0
41
1
10
-35.3787677796885
20
2.75775196842176
30
0
41
1
10
-35.3584290958895
20
2.79565438529374
30
0
41
1
10
-35.3303626450498
20
2.85032737827797
30
0
41
1
10
-35.3215171954455
20
2.8679943088772
30
0
41
1
10
-35.3102812516991
20
2.89173859141752
30
0
41
1
10
-35.3068890218584
20
2.89917583309739
30
0
41
1
10
-35.3017585680987
20
2.91146032354521
30
0
41
1
10
-35.3
20
2.91638010533328
30
0
41
1
10
-35.3
20
2.91828547293986
30
0
0
SPLINE
5
D3
100
AcDbEntity
8
SK1
62
256
6
ByLayer
370
18
48
1
60
0
100
AcDbSpline
70
4
71
3
72
8
73
4
40
0
40
0
40
0
40
0
40
1
40
1
40
1
40
1
41
1
10
-35.4
20
-2.64711419435036
30
0
41
1
10
-35.6037666091218
20
-2.28111293292818
30
0
41
1
10
-35.8061170629378
20
-1.91428518742313
30
0
41
1
10
-35.9999999999999
20
-1.54304039063899
30
0
0
LINE
5
76
100
AcDbEntity
8
81
62
256
6
ByLayer
370
18
48
1
60
0
100
AcDbLine
10
30
20
0
30
0
11
35
21
0
31
0
39
0
210
0
220
0
230
1
0
LINE
5
77
100
AcDbEntity
8
1
62
256
6
ByLayer
370
18
48
1
60
0
100
AcDbLine
10
0
20
-3
30
0
11
1.1
21
-1.882275
31
0
39
0
210
0
220
0
230
1
0
LINE
5
79
100
AcDbEntity
8
1
62
256
6
ByLayer
370
18
48
1
60
0
100
AcDbLine
10
1.1
20
1.882275
30
0
11
0
21
3
31
0
39
0
210
0
220
0
230
1
0
LINE
5
7A
100
AcDbEntity
8
1
62
256
6
ByLayer
370
18
48
1
60
0
100
AcDbLine
10
7.513485
20
1.886284
30
0
11
1.1
21
1.882275
31
0
39
0
210
0
220
0
230
1
0
LINE
5
7B
100
AcDbEntity
8
1
62
256
6
ByLayer
370
18
48
1
60
0
100
AcDbLine
10
17.817436
20
1.892724
30
0
11
17.24679
21
1.892367
31
0
39
0
210
0
220
0
230
1
0
LINE
5
7C
100
AcDbEntity
8
1
62
256
6
ByLayer
370
18
48
1
60
0
100
AcDbLine
10
29.067321
20
1.899755
30
0
11
28.496479
21
1.899398
31
0
39
0
210
0
220
0
230
1
0
LINE
5
7D
100
AcDbEntity
8
1
62
256
6
ByLayer
370
18
48
1
60
0
100
AcDbLine
10
28.496479
20
-1.899398
30
0
11
29.067304
21
-1.899755
31
0
39
0
210
0
220
0
230
1
0
LINE
5
7E
100
AcDbEntity
8
1
62
256
6
ByLayer
370
18
48
1
60
0
100
AcDbLine
10
17.24679
20
-1.892367
30
0
11
17.817234
21
-1.892724
31
0
39
0
210
0
220
0
230
1
0
LINE
5
7F
100
AcDbEntity
8
1
62
256
6
ByLayer
370
18
48
1
60
0
100
AcDbLine
10
1.1
20
-1.882275
30
0
11
7.513485
21
-1.886284
31
0
39
0
210
0
220
0
230
1
0
LINE
5
80
100
AcDbEntity
8
SK1
62
256
6
ByLayer
370
18
48
1
60
0
100
AcDbLine
10
-35.278312
20
3
30
0
11
-35.3
21
2.962436
31
0
39
0
210
0
220
0
230
1
0
LINE
5
82
100
AcDbEntity
8
SK1
62
256
6
ByLayer
370
18
48
1
60
0
100
AcDbLine
10
-35.3
20
-2.962436
30
0
11
-35.278312
21
-3
31
0
39
0
210
0
220
0
230
1
0
LINE
5
83
100
AcDbEntity
8
SK1
62
256
6
ByLayer
370
18
48
1
60
0
100
AcDbLine
10
0
20
3
30
0
11
-35.278312
21
3
31
0
39
0
210
0
220
0
230
1
0
LINE
5
84
100
AcDbEntity
8
SK1
62
256
6
ByLayer
370
18
48
1
60
0
100
AcDbLine
10
-35.278312
20
-3
30
0
11
0
21
-3
31
0
39
0
210
0
220
0
230
1
0
LINE
5
85
100
AcDbEntity
8
SK4
62
256
6
ByLayer
370
18
48
0.05
60
0
100
AcDbLine
10
35
20
0
30
0
11
-41
21
0
31
0
39
0
210
0
220
0
230
1
0
LINE
5
87
100
AcDbEntity
8
4
62
256
6
ByLayer
370
18
48
0.05
60
0
100
AcDbLine
10
30
20
0
30
0
11
0
21
0
31
0
39
0
210
0
220
0
230
1
0
LINE
5
89
100
AcDbEntity
8
80
62
256
6
ByLayer
370
18
48
1
60
0
100
AcDbLine
10
0
20
0
30
0
11
-5
21
0
31
0
39
0
210
0
220
0
230
1
0
LINE
5
8A
100
AcDbEntity
8
1
62
256
6
ByLayer
370
13
48
1
60
0
100
AcDbLine
10
29.272644
20
0.53234
30
0
11
29.995867
21
0.074523
31
0
39
0
210
0
220
0
230
1
0
LINE
5
8B
100
AcDbEntity
8
1
62
256
6
ByLayer
370
18
48
1
60
0
100
AcDbLine
10
1.1
20
1.882275
30
0
11
1.1
21
-1.882275
31
0
39
0
210
0
220
0
230
1
0
LINE
5
8C
100
AcDbEntity
8
1
62
256
6
ByLayer
370
13
48
1
60
0
100
AcDbLine
10
7.663103
20
-1.795959
30
0
11
7.662984
21
-1.798674
31
0
39
0
210
0
220
0
230
1
0
LINE
5
8D
100
AcDbEntity
8
1
62
256
6
ByLayer
370
18
48
1
60
0
100
AcDbLine
10
0
20
-3
30
0
11
0
21
3
31
0
39
0
210
0
220
0
230
1
0
LINE
5
8E
100
AcDbEntity
8
1
62
256
6
ByLayer
370
13
48
1
60
0
100
AcDbLine
10
29.181034
20
0.470719
30
0
11
29.977977
21
-0.033765
31
0
39
0
210
0
220
0
230
1
0
LINE
5
8F
100
AcDbEntity
8
SK1
62
256
6
ByLayer
370
13
48
1
60
0
100
AcDbLine
10
-35.4
20
-2.64708
30
0
11
-35.4
21
-2.719615
31
0
39
0
210
0
220
0
230
1
0
LINE
5
90
100
AcDbEntity
8
SK1
62
256
6
ByLayer
370
18
48
1
60
0
100
AcDbLine
10
0
20
-3
30
0
11
0
21
3
31
0
39
0
210
0
220
0
230
1
0
LINE
5
91
100
AcDbEntity
8
SK1
62
256
6
ByLayer
370
18
48
1
60
0
100
AcDbLine
10
-35.278312
20
3
30
0
11
-35.278312
21
-3
31
0
39
0
210
0
220
0
230
1
0
LINE
5
92
100
AcDbEntity
8
SK1
62
256
6
ByLayer
370
18
48
1
60
0
100
AcDbLine
10
-35.3
20
-2.962436
30
0
11
-35.3
21
-2.855451
31
0
39
0
210
0
220
0
230
1
0
LINE
5
93
100
AcDbEntity
8
SK1
62
256
6
ByLayer
370
18
48
1
60
0
100
AcDbLine
10
-36
20
1.615541
30
0
11
-36
21
-1.54304
31
0
39
0
210
0
220
0
230
1
0
LINE
5
94
100
AcDbEntity
8
SK1
62
256
6
ByLayer
370
18
48
1
60
0
100
AcDbLine
10
-36
20
-1.542993
30
0
11
-36
21
-1.615541
31
0
39
0
210
0
220
0
230
1
0
LINE
5
95
100
AcDbEntity
8
SK1
62
256
6
ByLayer
370
18
48
1
60
0
100
AcDbLine
10
-35.3
20
2.962436
30
0
11
-35.3
21
2.918285
31
0
39
0
210
0
220
0
230
1
0
MTEXT
5
D4
100
AcDbEntity
8
SK6
62
256
6
ByLayer
370
13
48
1
60
0
100
AcDbMText
10
-0.870831
20
34.282694
30
0
210
0
220
0
230
1
1
\W0.7324;460.1-0380-011A1-XM GC34
40
3.5
41
0
44
1.084337
50
0
71
8
72
5
7
iso_b_vert
0
DIMENSION
5
E1
100
AcDbEntity
8
SK2
62
256
6
ByLayer
370
13
48
1
60
0
100
AcDbDimension
2
DimnDraft3D1
10
29.4503
20
-12.113398
30
0
11
13.700359
21
-12.113398
31
0
70
32
71
5
72
1
41
1
210
0
220
0
230
1
3
Standard
100
AcDbAlignedDimension
13
0
23
-1.5875
33
0
14
29.4503
24
-3.4875
34
0
50
0
100
AcDbRotatedDimension
1001
ACAD
1000
DSTYLE
1002
{
1070
   279
1070
     0
1070
   172
1070
     1
1070
   173
1070
     1
1070
   340
1005
D5
1070
   271
1070
     2
1070
   272
1070
     2
1070
    77
1070
     1
1070
    73
1070
     0
1070
   171
1070
     3
1070
   274
1070
     4
1070
   177
1070
    35
1070
   176
1070
    35
1070
   178
1070
    35
1070
    48
1040
-0.005
1070
    41
1041
3.5
1070
   147
1041
1.75
1070
    42
1041
1.5875
1070
    44
1041
2.0
1070
   140
1041
3.5
1070
   343
1005
0
1070
   344
1005
0
1002
}
0
DIMENSION
5
EB
100
AcDbEntity
8
SK2
62
256
6
ByLayer
370
13
48
1
60
0
100
AcDbDimension
2
DimnDraft3D2
10
30
20
-31.692985
30
0
11
-2.2084
21
-31.692985
31
0
70
32
71
5
72
1
41
1
210
0
220
0
230
1
3
Standard
100
AcDbAlignedDimension
13
-36
23
-4.5875
33
0
14
30
24
-1.5875
34
0
50
0
100
AcDbRotatedDimension
1001
ACAD
1000
DSTYLE
1002
{
1070
   279
1070
     0
1070
   172
1070
     1
1070
   173
1070
     1
1070
   340
1005
D5
1070
   271
1070
     2
1070
   272
1070
     2
1070
    77
1070
     1
1070
    73
1070
     0
1070
   171
1070
     3
1070
   274
1070
     4
1070
   177
1070
    35
1070
   176
1070
    35
1070
   178
1070
    35
1070
    48
1040
-0.005
1070
    41
1041
3.5
1070
   147
1041
1.75
1070
    42
1041
1.5875
1070
    44
1041
2.0
1070
   140
1041
3.5
1070
   343
1005
0
1070
   344
1005
0
1002
}
0
DIMENSION
5
F5
100
AcDbEntity
8
SK2
62
256
6
ByLayer
370
13
48
1
60
0
100
AcDbDimension
2
DimnDraft3D3
10
30
20
13.509119
30
0
11
24.03
21
13.509119
31
0
70
32
71
5
72
1
41
1
210
0
220
0
230
1
3
Standard
100
AcDbAlignedDimension
13
18.06
23
3.4875
33
0
14
30
24
1.5875
34
0
50
0
100
AcDbRotatedDimension
1001
ACAD
1000
DSTYLE
1002
{
1070
   279
1070
     0
1070
   172
1070
     1
1070
   173
1070
     1
1070
   340
1005
D5
1070
   271
1070
     2
1070
   272
1070
     2
1070
    77
1070
     1
1070
    73
1070
     0
1070
   171
1070
     3
1070
   274
1070
     4
1070
   177
1070
    35
1070
   176
1070
    35
1070
   178
1070
    35
1070
    48
1040
-0.005
1070
    41
1041
3.5
1070
   147
1041
1.75
1070
    42
1041
1.5875
1070
    44
1041
2.0
1070
   140
1041
3.5
1070
   343
1005
0
1070
   344
1005
0
1002
}
0
DIMENSION
5
FF
100
AcDbEntity
8
SK2
62
256
6
ByLayer
370
13
48
1
60
0
100
AcDbDimension
2
DimnDraft3D4
10
29.4503
20
-14.702503
30
0
11
39.981425
21
-14.702503
31
0
70
32
71
5
72
1
41
1
210
0
220
0
230
1
3
Standard
100
AcDbAlignedDimension
13
30
23
-1.5875
33
0
14
29.4503
24
-3.4875
34
0
50
0
100
AcDbRotatedDimension
1001
ACAD
1000
DSTYLE
1002
{
1070
   279
1070
     0
1070
   172
1070
     1
1070
   173
1070
     1
1070
   340
1005
D5
1070
   271
1070
     2
1070
   272
1070
     2
1070
    77
1070
     1
1070
    73
1070
     0
1070
   171
1070
     3
1070
   274
1070
     4
1070
   177
1070
    35
1070
   176
1070
    35
1070
   178
1070
    35
1070
    48
1040
-0.005
1070
    41
1041
3.5
1070
   147
1041
1.75
1070
    42
1041
1.5875
1070
    44
1041
2.0
1070
   140
1041
3.5
1070
   343
1005
0
1070
   344
1005
0
1002
}
0
DIMENSION
5
109
100
AcDbEntity
8
SK2
62
256
6
ByLayer
370
13
48
1
60
0
100
AcDbDimension
2
DimnDraft3D5
10
29.4503
20
-21.343428
30
0
11
-5.289024
21
-21.343428
31
0
70
32
71
5
72
1
41
1
210
0
220
0
230
1
3
Standard
100
AcDbAlignedDimension
13
-36
23
-4.5875
33
0
14
29.4503
24
-3.4875
34
0
50
0
100
AcDbRotatedDimension
1001
ACAD
1000
DSTYLE
1002
{
1070
   279
1070
     0
1070
   172
1070
     1
1070
   173
1070
     1
1070
   340
1005
D5
1070
   271
1070
     2
1070
   272
1070
     2
1070
    77
1070
     1
1070
    73
1070
     0
1070
   171
1070
     3
1070
   274
1070
     4
1070
   177
1070
    35
1070
   176
1070
    35
1070
   178
1070
    35
1070
    48
1040
-0.005
1070
    41
1041
3.5
1070
   147
1041
1.75
1070
    42
1041
1.5875
1070
    44
1041
2.0
1070
   140
1041
3.5
1070
   343
1005
0
1070
   344
1005
0
1002
}
0
DIMENSION
5
114
100
AcDbEntity
8
SK2
62
256
6
ByLayer
370
13
48
1
60
0
100
AcDbDimension
2
DimnDraft3D6
10
-46.625163
20
3
30
0
11
-47.250163
21
21.47418
31
0
70
33
71
5
72
1
41
1
210
0
220
0
230
1
3
Standard
100
AcDbAlignedDimension
13
-37.5875
23
-3
33
0
14
-37.5875
24
3
34
0
1001
ACAD
1000
DSTYLE
1002
{
1070
   279
1070
     0
1070
    74
1070
     0
1070
   173
1070
     1
1070
   340
1005
D5
1070
   271
1070
     3
1070
   272
1070
     2
1070
    77
1070
     1
1070
    73
1070
     0
1070
   171
1070
     3
1070
   274
1070
     4
1070
   177
1070
    35
1070
   176
1070
    35
1070
   178
1070
    35
1070
    48
1040
-0.005
1070
    41
1041
3.5
1070
   147
1041
1.75
1070
    42
1041
1.5875
1070
    44
1041
2.0
1070
   140
1041
3.5
1070
   343
1005
0
1070
   344
1005
0
1002
}
0
DIMENSION
5
11F
100
AcDbEntity
8
2
62
256
6
ByLayer
370
13
48
1
60
0
100
AcDbDimension
2
DimnDraft3D7
10
44.083343
20
1.9
30
0
11
39.458343
21
18.967266
31
0
70
33
71
5
72
1
41
1
210
0
220
0
230
1
3
Standard
100
AcDbAlignedDimension
13
31.0378
23
-1.9
33
0
14
31.0378
24
1.9
34
0
1001
ACAD
1000
DSTYLE
1002
{
1070
   279
1070
     0
1070
    74
1070
     0
1070
   173
1070
     1
1070
   340
1005
D5
1070
   271
1070
     3
1070
   272
1070
     2
1070
    77
1070
     1
1070
    73
1070
     0
1070
   171
1070
     3
1070
   274
1070
     4
1070
   177
1070
    35
1070
   176
1070
    35
1070
   178
1070
    35
1070
    48
1040
-0.005
1070
    41
1041
3.5
1070
   147
1041
1.75
1070
    42
1041
1.5875
1070
    44
1041
2.0
1070
   140
1041
3.5
1070
   343
1005
0
1070
   344
1005
0
1002
}
0
ENDSEC
0
SECTION
2
OBJECTS
0
DICTIONARY
5
18a
330
0
100
AcDbDictionary
280
0
281
1
3
ACAD_GROUP
350
18b
3
ACAD_MLINESTYLE
350
18c
0
DICTIONARY
5
18b
330
0
100
AcDbDictionary
280
0
281
1
0
DICTIONARY
5
18c
330
0
100
AcDbDictionary
280
0
281
1
3
Standard
350
18
0
MLINESTYLE
5
18
330
18c
100
AcDbMlineStyle
2
Standard
70
0
3

62
256
51
90
52
90
71
2
49
-0.5
62
256
6
ByLayer
49
0.5
62
256
6
ByLayer
0
RASTERVARIABLES
5
178
330

100
AcDbRasterVariables
90
0
70
1
71
1
72
1
0
ENDSEC
0
EOF
