0
SECTION
2
HEADER
9
$ACADVER
1
AC1015
9
$DWGCODEPAGE
3
ANSI_1252
9
$HANDSEED
5
1a3
9
$ANGBASE
50
0
9
$ANGDIR
70
0
9
$ATTMODE
70
1
9
$AUNITS
70
0
9
$AUPREC
70
0
9
$CECOLOR
62
256
9
$CELTSCALE
40
1
9
$CELTYPE
6
ByLayer
9
$CELWEIGHT
370
18
9
$CLAYER
8
0
9
$CMLJUST
70
0
9
$CMLSCALE
40
1
9
$CMLSTYLE
2
Standard
9
$DIMSTYLE
2
Standard
9
$TEXTSIZE
40
0.2
9
$TEXTSTYLE
7
Standard
9
$LUNITS
70
2
9
$LUPREC
70
4
9
$EXTNAMES
290
1
9
$INSUNITS
70
4
9
$LTSCALE
40
1
9
$LWDISPLAY
290
1
9
$PDMODE
70
0
9
$PDSIZE
40
0
9
$PLINEGEN
70
0
0
ENDSEC
0
SECTION
2
CLASSES
0
CLASS
1
RASTERVARIABLES
2
AcDbRasterVariables
3
ISM
90
0
280
0
281
0
0
ENDSEC
0
SECTION
2
TABLES
0
TABLE
2
VPORT
5
199
100
AcDbSymbolTable
0
VPORT
5
1
100
AcDbSymbolTableRecord
100
AcDbViewportTableRecord
2
*Active
70
0
10
0
20
0
11
1
21
1
12
-1
22
1
13
0
23
0
14
0.5
24
0.5
15
10
25
10
16
0
26
0
36
1
17
0
27
0
37
0
0
ENDTAB
0
TABLE
2
LTYPE
5
19a
100
AcDbSymbolTable
0
LTYPE
5
14
100
AcDbSymbolTableRecord
100
AcDbLinetypeTableRecord
70
0
2
ByBlock
3

72
65
73
0
40
0
0
LTYPE
5
15
100
AcDbSymbolTableRecord
100
AcDbLinetypeTableRecord
70
0
2
ByLayer
3

72
65
73
0
40
0
0
LTYPE
5
16
100
AcDbSymbolTableRecord
100
AcDbLinetypeTableRecord
70
0
2
CONTINUOUS
3
Solid line
72
65
73
0
40
0
0
LTYPE
5
6A
100
AcDbSymbolTableRecord
100
AcDbLinetypeTableRecord
70
0
2
CENTER
3
____ _ ____ _ ____ _ ____
72
65
73
4
40
47.5
49
22
74
0
49
-8.5
74
0
49
8.5
74
0
49
-8.5
74
0
0
LTYPE
5
6B
100
AcDbSymbolTableRecord
100
AcDbLinetypeTableRecord
70
0
2
DASHED
3
__ __ __ __ __ __ __ __ __
72
65
73
2
40
25.72
49
12.86
74
0
49
-12.86
74
0
0
ENDTAB
0
TABLE
2
LAYER
5
19b
100
AcDbSymbolTable
0
LAYER
5
10
100
AcDbSymbolTableRecord
100
AcDbLayerTableRecord
2
0
70
0
62
7
6
CONTINUOUS
290
1
370
-3
390
0
0
LAYER
5
6D
100
AcDbSymbolTableRecord
100
AcDbLayerTableRecord
2
81
70
0
62
-3
6
CONTINUOUS
290
1
370
-3
390
0
0
LAYER
5
6F
100
AcDbSymbolTableRecord
100
AcDbLayerTableRecord
2
80
70
0
62
-6
6
CONTINUOUS
290
1
370
-3
390
0
0
LAYER
5
74
100
AcDbSymbolTableRecord
100
AcDbLayerTableRecord
2
2
70
0
62
7
6
CONTINUOUS
290
1
370
-3
390
0
0
LAYER
5
78
100
AcDbSymbolTableRecord
100
AcDbLayerTableRecord
2
1
70
0
62
4
6
CONTINUOUS
290
1
370
-3
390
0
0
LAYER
5
8A
100
AcDbSymbolTableRecord
100
AcDbLayerTableRecord
2
4
70
0
62
-2
6
CENTER
290
1
370
-3
390
0
0
LAYER
5
185
100
AcDbSymbolTableRecord
100
AcDbLayerTableRecord
2
SK2
70
0
62
7
6
CONTINUOUS
290
1
370
-3
390
0
0
LAYER
5
186
100
AcDbSymbolTableRecord
100
AcDbLayerTableRecord
2
SK1
70
0
62
4
6
CONTINUOUS
290
1
370
-3
390
0
0
LAYER
5
187
100
AcDbSymbolTableRecord
100
AcDbLayerTableRecord
2
SK4
70
0
62
2
6
CENTER
290
1
370
-3
390
0
0
LAYER
5
188
100
AcDbSymbolTableRecord
100
AcDbLayerTableRecord
2
SK6
70
0
62
5
6
CONTINUOUS
290
1
370
-3
390
0
0
ENDTAB
0
TABLE
2
STYLE
5
19c
100
AcDbSymbolTable
0
STYLE
5
11
100
AcDbSymbolTableRecord
100
AcDbTextStyleTableRecord
2
Standard
3
txt
70
0
71
0
40
0
41
1
42
0
50
0
0
STYLE
5
E1
100
AcDbSymbolTableRecord
100
AcDbTextStyleTableRecord
2
iso_b_vert
3
simplex.shx
70
0
71
0
40
0
41
1
42
0
50
0
0
STYLE
5
E2
100
AcDbSymbolTableRecord
100
AcDbTextStyleTableRecord
2
DWGDirectTextStyle
3
simplex
70
0
71
0
40
0
41
1
42
0
50
0
0
ENDTAB
0
TABLE
2
DIMSTYLE
5
19d
100
AcDbSymbolTable
100
AcDbDimStyleTable
0
DIMSTYLE
105
27
100
AcDbSymbolTableRecord
100
AcDbDimStyleTableRecord
2
Standard
70
0
3
<>
41
0.18
42
0.0625
44
0.18
140
0.18
147
0.09
73
0
74
0
77
1
271
2
275
0
278
52
280
0
340
11
0
ENDTAB
0
TABLE
2
VIEW
5
19e
100
AcDbSymbolTable
0
ENDTAB
0
TABLE
2
UCS
5
19f
100
AcDbSymbolTable
0
ENDTAB
0
TABLE
2
APPID
5
1a0
100
AcDbSymbolTable
0
APPID
5
12
100
AcDbSymbolTableRecord
100
AcDbRegAppTableRecord
2
ACAD
70
0
0
ENDTAB
0
TABLE
2
BLOCK_RECORD
5
1a1
100
AcDbSymbolTable
0
BLOCK_RECORD
5
1F
100
AcDbSymbolTableRecord
100
AcDbBlockTableRecord
2
*Model_Space
340
0
70
0
0
BLOCK_RECORD
5
1B
100
AcDbSymbolTableRecord
100
AcDbBlockTableRecord
2
*Paper_Space
340
0
70
0
0
BLOCK_RECORD
5
23
100
AcDbSymbolTableRecord
100
AcDbBlockTableRecord
2
*Paper_Space0
340
0
70
0
0
BLOCK_RECORD
5
E4
100
AcDbSymbolTableRecord
100
AcDbBlockTableRecord
2
DimnDraft3D1
340
0
70
0
0
BLOCK_RECORD
5
EE
100
AcDbSymbolTableRecord
100
AcDbBlockTableRecord
2
DimnDraft3D2
340
0
70
0
0
BLOCK_RECORD
5
F8
100
AcDbSymbolTableRecord
100
AcDbBlockTableRecord
2
DimnDraft3D3
340
0
70
0
0
BLOCK_RECORD
5
102
100
AcDbSymbolTableRecord
100
AcDbBlockTableRecord
2
DimnDraft3D4
340
0
70
0
0
BLOCK_RECORD
5
10C
100
AcDbSymbolTableRecord
100
AcDbBlockTableRecord
2
DimnDraft3D5
340
0
70
0
0
BLOCK_RECORD
5
116
100
AcDbSymbolTableRecord
100
AcDbBlockTableRecord
2
DimnDraft3D6
340
0
70
0
0
BLOCK_RECORD
5
121
100
AcDbSymbolTableRecord
100
AcDbBlockTableRecord
2
DimnDraft3D7
340
0
70
0
0
ENDTAB
0
ENDSEC
0
SECTION
2
BLOCKS
0
BLOCK
5
20
100
AcDbEntity
8
0
100
AcDbBlockBegin
2
*Model_Space
70
0
10
0
20
0
30
0
3
*Model_Space
0
ENDBLK
5
21
100
AcDbEntity
8
0
100
AcDbBlockEnd
0
BLOCK
5
1C
100
AcDbEntity
8
0
100
AcDbBlockBegin
2
*Paper_Space
70
0
10
0
20
0
30
0
3
*Paper_Space
0
ENDBLK
5
1D
100
AcDbEntity
8
0
100
AcDbBlockEnd
0
BLOCK
5
24
100
AcDbEntity
8
0
100
AcDbBlockBegin
2
*Paper_Space0
70
0
10
0
20
0
30
0
3
*Paper_Space0
0
ENDBLK
5
25
100
AcDbEntity
8
0
100
AcDbBlockEnd
0
BLOCK
5
EB
100
AcDbEntity
8
0
100
AcDbBlockBegin
2
DimnDraft3D1
70
0
10
0
20
0
30
0
3
DimnDraft3D1
0
MTEXT
5
E5
100
AcDbEntity
8
SK2
62
256
6
ByLayer
370
13
48
1
60
0
100
AcDbMText
10
9.749475
20
-11.038398
30
0
210
0
220
0
230
1
1
\W0.7211;29,51
40
3.5
41
0
44
1.084337
50
0
71
7
72
5
7
iso_b_vert
0
LINE
5
E6
100
AcDbEntity
8
SK2
62
256
6
ByLayer
370
13
48
1
60
0
100
AcDbLine
10
0
20
-1.5875
30
0
11
0
21
-13.913398
31
0
39
0
210
0
220
0
230
1
0
LINE
5
E7
100
AcDbEntity
8
SK2
62
256
6
ByLayer
370
13
48
1
60
0
100
AcDbLine
10
29.5106
20
-3.2875
30
0
11
29.5106
21
-13.913398
31
0
39
0
210
0
220
0
230
1
0
LINE
5
E8
100
AcDbEntity
8
SK2
62
256
6
ByLayer
370
13
48
1
60
0
100
AcDbLine
10
0
20
-11.913398
30
0
11
29.5106
21
-11.913398
31
0
39
0
210
0
220
0
230
1
0
SOLID
5
E9
100
AcDbEntity
8
SK2
62
256
6
ByLayer
370
13
48
1
60
0
100
AcDbTrace
10
0
20
-11.913398
30
0
11
3.499998
21
-11.452615
31
0
12
3.500002
22
-12.374182
32
0
13
0
23
-11.913398
33
0
39
0
210
0
220
0
230
1
0
SOLID
5
EA
100
AcDbEntity
8
SK2
62
256
6
ByLayer
370
13
48
1
60
0
100
AcDbTrace
10
29.5106
20
-11.913398
30
0
11
26.010602
21
-12.374182
31
0
12
26.010598
22
-11.452615
32
0
13
29.5106
23
-11.913398
33
0
39
0
210
0
220
0
230
1
0
ENDBLK
5
EC
100
AcDbEntity
8
0
100
AcDbBlockEnd
0
BLOCK
5
F5
100
AcDbEntity
8
0
100
AcDbBlockBegin
2
DimnDraft3D2
70
0
10
0
20
0
30
0
3
DimnDraft3D2
0
MTEXT
5
EF
100
AcDbEntity
8
SK2
62
256
6
ByLayer
370
13
48
1
60
0
100
AcDbMText
10
-6.596784
20
-30.817985
30
0
210
0
220
0
230
1
1
\W0.7317;66,00
40
3.5
41
0
44
1.084337
50
0
71
7
72
5
7
iso_b_vert
0
LINE
5
F0
100
AcDbEntity
8
SK2
62
256
6
ByLayer
370
13
48
1
60
0
100
AcDbLine
10
-36
20
-4.5875
30
0
11
-36
21
-33.692985
31
0
39
0
210
0
220
0
230
1
0
LINE
5
F1
100
AcDbEntity
8
SK2
62
256
6
ByLayer
370
13
48
1
60
0
100
AcDbLine
10
30
20
-1.5875
30
0
11
30
21
-33.692985
31
0
39
0
210
0
220
0
230
1
0
LINE
5
F2
100
AcDbEntity
8
SK2
62
256
6
ByLayer
370
13
48
1
60
0
100
AcDbLine
10
-36
20
-31.692985
30
0
11
30
21
-31.692985
31
0
39
0
210
0
220
0
230
1
0
SOLID
5
F3
100
AcDbEntity
8
SK2
62
256
6
ByLayer
370
13
48
1
60
0
100
AcDbTrace
10
-36
20
-31.692985
30
0
11
-32.500002
21
-31.232202
31
0
12
-32.499998
22
-32.153769
32
0
13
-36
23
-31.692985
33
0
39
0
210
0
220
0
230
1
0
SOLID
5
F4
100
AcDbEntity
8
SK2
62
256
6
ByLayer
370
13
48
1
60
0
100
AcDbTrace
10
30
20
-31.692985
30
0
11
26.500002
21
-32.153769
31
0
12
26.499998
22
-31.232202
32
0
13
30
23
-31.692985
33
0
39
0
210
0
220
0
230
1
0
ENDBLK
5
F6
100
AcDbEntity
8
0
100
AcDbBlockEnd
0
BLOCK
5
FF
100
AcDbEntity
8
0
100
AcDbBlockBegin
2
DimnDraft3D3
70
0
10
0
20
0
30
0
3
DimnDraft3D3
0
MTEXT
5
F9
100
AcDbEntity
8
SK2
62
256
6
ByLayer
370
13
48
1
60
0
100
AcDbMText
10
17.064605
20
14.184119
30
0
210
0
220
0
230
1
1
\W0.6977;17,48
40
3.5
41
0
44
1.084337
50
0
71
7
72
5
7
iso_b_vert
0
LINE
5
FA
100
AcDbEntity
8
SK2
62
256
6
ByLayer
370
13
48
1
60
0
100
AcDbLine
10
12.52
20
3.2875
30
0
11
12.52
21
15.309119
31
0
39
0
210
0
220
0
230
1
0
LINE
5
FB
100
AcDbEntity
8
SK2
62
256
6
ByLayer
370
13
48
1
60
0
100
AcDbLine
10
30
20
1.5875
30
0
11
30
21
15.309119
31
0
39
0
210
0
220
0
230
1
0
LINE
5
FC
100
AcDbEntity
8
SK2
62
256
6
ByLayer
370
13
48
1
60
0
100
AcDbLine
10
12.52
20
13.309119
30
0
11
30
21
13.309119
31
0
39
0
210
0
220
0
230
1
0
SOLID
5
FD
100
AcDbEntity
8
SK2
62
256
6
ByLayer
370
13
48
1
60
0
100
AcDbTrace
10
12.52
20
13.309119
30
0
11
16.019998
21
13.769903
31
0
12
16.020002
22
12.848335
32
0
13
12.52
23
13.309119
33
0
39
0
210
0
220
0
230
1
0
SOLID
5
FE
100
AcDbEntity
8
SK2
62
256
6
ByLayer
370
13
48
1
60
0
100
AcDbTrace
10
30
20
13.309119
30
0
11
26.500002
21
12.848335
31
0
12
26.499998
22
13.769903
32
0
13
30
23
13.309119
33
0
39
0
210
0
220
0
230
1
0
ENDBLK
5
100
100
AcDbEntity
8
0
100
AcDbBlockEnd
0
BLOCK
5
109
100
AcDbEntity
8
0
100
AcDbBlockBegin
2
DimnDraft3D4
70
0
10
0
20
0
30
0
3
DimnDraft3D4
0
MTEXT
5
103
100
AcDbEntity
8
SK2
62
256
6
ByLayer
370
13
48
1
60
0
100
AcDbMText
10
36.656425
20
-13.627503
30
0
210
0
220
0
230
1
1
\W0.7607;0,49
40
3.5
41
0
44
1.084337
50
0
71
7
72
5
7
iso_b_vert
0
LINE
5
104
100
AcDbEntity
8
SK2
62
256
6
ByLayer
370
13
48
1
60
0
100
AcDbLine
10
30
20
-1.5875
30
0
11
30
21
-16.502503
31
0
39
0
210
0
220
0
230
1
0
LINE
5
105
100
AcDbEntity
8
SK2
62
256
6
ByLayer
370
13
48
1
60
0
100
AcDbLine
10
29.5106
20
-3.2875
30
0
11
29.5106
21
-16.502503
31
0
39
0
210
0
220
0
230
1
0
LINE
5
106
100
AcDbEntity
8
SK2
62
256
6
ByLayer
370
13
48
1
60
0
100
AcDbLine
10
20.7606
20
-14.502503
30
0
11
44.181425
21
-14.502503
31
0
39
0
210
0
220
0
230
1
0
SOLID
5
107
100
AcDbEntity
8
SK2
62
256
6
ByLayer
370
13
48
1
60
0
100
AcDbTrace
10
30
20
-14.502503
30
0
11
33.499998
21
-14.041719
31
0
12
33.500002
22
-14.963287
32
0
13
30
23
-14.502503
33
0
39
0
210
0
220
0
230
1
0
SOLID
5
108
100
AcDbEntity
8
SK2
62
256
6
ByLayer
370
13
48
1
60
0
100
AcDbTrace
10
29.5106
20
-14.502503
30
0
11
26.010602
21
-14.963287
31
0
12
26.010598
22
-14.041719
32
0
13
29.5106
23
-14.502503
33
0
39
0
210
0
220
0
230
1
0
ENDBLK
5
10A
100
AcDbEntity
8
0
100
AcDbBlockEnd
0
BLOCK
5
113
100
AcDbEntity
8
0
100
AcDbBlockBegin
2
DimnDraft3D5
70
0
10
0
20
0
30
0
3
DimnDraft3D5
0
MTEXT
5
10D
100
AcDbEntity
8
SK2
62
256
6
ByLayer
370
13
48
1
60
0
100
AcDbMText
10
-9.239908
20
-20.468428
30
0
210
0
220
0
230
1
1
\W0.7211;65,51
40
3.5
41
0
44
1.084337
50
0
71
7
72
5
7
iso_b_vert
0
LINE
5
10E
100
AcDbEntity
8
SK2
62
256
6
ByLayer
370
13
48
1
60
0
100
AcDbLine
10
-36
20
-4.5875
30
0
11
-36
21
-23.343428
31
0
39
0
210
0
220
0
230
1
0
LINE
5
10F
100
AcDbEntity
8
SK2
62
256
6
ByLayer
370
13
48
1
60
0
100
AcDbLine
10
29.5106
20
-3.2875
30
0
11
29.5106
21
-23.343428
31
0
39
0
210
0
220
0
230
1
0
LINE
5
110
100
AcDbEntity
8
SK2
62
256
6
ByLayer
370
13
48
1
60
0
100
AcDbLine
10
-36
20
-21.343428
30
0
11
29.5106
21
-21.343428
31
0
39
0
210
0
220
0
230
1
0
SOLID
5
111
100
AcDbEntity
8
SK2
62
256
6
ByLayer
370
13
48
1
60
0
100
AcDbTrace
10
-36
20
-21.343428
30
0
11
-32.500002
21
-20.882645
31
0
12
-32.499998
22
-21.804212
32
0
13
-36
23
-21.343428
33
0
39
0
210
0
220
0
230
1
0
SOLID
5
112
100
AcDbEntity
8
SK2
62
256
6
ByLayer
370
13
48
1
60
0
100
AcDbTrace
10
29.5106
20
-21.343428
30
0
11
26.010602
21
-21.804212
31
0
12
26.010598
22
-20.882645
32
0
13
29.5106
23
-21.343428
33
0
39
0
210
0
220
0
230
1
0
ENDBLK
5
114
100
AcDbEntity
8
0
100
AcDbBlockEnd
0
BLOCK
5
11E
100
AcDbEntity
8
0
100
AcDbBlockBegin
2
DimnDraft3D6
70
0
10
0
20
0
30
0
3
DimnDraft3D6
0
MTEXT
5
117
100
AcDbEntity
8
SK2
62
256
6
ByLayer
370
13
48
1
60
0
100
AcDbMText
10
-46.375163
20
22.34918
30
0
210
0
220
0
230
1
1
\W0.7317;6,000
40
3.5
41
0
44
1.084337
50
90
71
7
72
5
7
iso_b_vert
0
MTEXT
5
118
100
AcDbEntity
8
SK2
62
256
6
ByLayer
370
13
48
1
60
0
100
AcDbMText
10
-46.375163
20
17.126524
30
0
210
0
220
0
230
1
1
%%c
40
3.5
41
0
44
1.084337
50
90
71
7
72
5
7
iso_b_vert
0
LINE
5
119
100
AcDbEntity
8
SK2
62
256
6
ByLayer
370
13
48
1
60
0
100
AcDbLine
10
-37.5875
20
-3
30
0
11
-46.625163
21
-3
31
0
39
0
210
0
220
0
230
1
0
LINE
5
11A
100
AcDbEntity
8
SK2
62
256
6
ByLayer
370
13
48
1
60
0
100
AcDbLine
10
-37.5875
20
3
30
0
11
-46.625163
21
3
31
0
39
0
210
0
220
0
230
1
0
LINE
5
11B
100
AcDbEntity
8
SK2
62
256
6
ByLayer
370
13
48
1
60
0
100
AcDbLine
10
-44.625163
20
32.121549
30
0
11
-44.625163
21
-11.75
31
0
39
0
210
0
220
0
230
1
0
SOLID
5
11C
100
AcDbEntity
8
SK2
62
256
6
ByLayer
370
13
48
1
60
0
100
AcDbTrace
10
-44.625163
20
-3
30
0
11
-44.164379
21
-6.499998
31
0
12
-45.085946
22
-6.500002
32
0
13
-44.625163
23
-3
33
0
39
0
210
0
220
0
230
1
0
SOLID
5
11D
100
AcDbEntity
8
SK2
62
256
6
ByLayer
370
13
48
1
60
0
100
AcDbTrace
10
-44.625163
20
3
30
0
11
-45.085946
21
6.499998
31
0
12
-44.164379
22
6.500002
32
0
13
-44.625163
23
3
33
0
39
0
210
0
220
0
230
1
0
ENDBLK
5
11F
100
AcDbEntity
8
0
100
AcDbBlockEnd
0
BLOCK
5
129
100
AcDbEntity
8
0
100
AcDbBlockBegin
2
DimnDraft3D7
70
0
10
0
20
0
30
0
3
DimnDraft3D7
0
MTEXT
5
122
100
AcDbEntity
8
2
62
256
6
ByLayer
370
13
48
1
60
0
100
AcDbMText
10
40.333343
20
19.642266
30
0
210
0
220
0
230
1
1
\W0.7581;3,400
40
3.5
41
0
44
1.084337
50
90
71
7
72
5
7
iso_b_vert
0
MTEXT
5
123
100
AcDbEntity
8
2
62
256
6
ByLayer
370
13
48
1
60
0
100
AcDbMText
10
40.333343
20
14.41961
30
0
210
0
220
0
230
1
1
%%c
40
3.5
41
0
44
1.084337
50
90
71
7
72
5
7
iso_b_vert
0
LINE
5
124
100
AcDbEntity
8
2
62
256
6
ByLayer
370
13
48
1
60
0
100
AcDbLine
10
31.0981
20
-1.7
30
0
11
44.083343
21
-1.7
31
0
39
0
210
0
220
0
230
1
0
LINE
5
125
100
AcDbEntity
8
2
62
256
6
ByLayer
370
13
48
1
60
0
100
AcDbLine
10
31.0981
20
1.7
30
0
11
44.083343
21
1.7
31
0
39
0
210
0
220
0
230
1
0
LINE
5
126
100
AcDbEntity
8
2
62
256
6
ByLayer
370
13
48
1
60
0
100
AcDbLine
10
42.083343
20
29.783056
30
0
11
42.083343
21
-10.45
31
0
39
0
210
0
220
0
230
1
0
SOLID
5
127
100
AcDbEntity
8
2
62
256
6
ByLayer
370
13
48
1
60
0
100
AcDbTrace
10
42.083343
20
-1.7
30
0
11
42.544126
21
-5.199998
31
0
12
41.622559
22
-5.200002
32
0
13
42.083343
23
-1.7
33
0
39
0
210
0
220
0
230
1
0
SOLID
5
128
100
AcDbEntity
8
2
62
256
6
ByLayer
370
13
48
1
60
0
100
AcDbTrace
10
42.083343
20
1.7
30
0
11
41.622559
21
5.199998
31
0
12
42.544126
22
5.200002
32
0
13
42.083343
23
1.7
33
0
39
0
210
0
220
0
230
1
0
ENDBLK
5
12A
100
AcDbEntity
8
0
100
AcDbBlockEnd
0
ENDSEC
0
SECTION
2
ENTITIES
0
ELLIPSE
5
97
100
AcDbEntity
8
1
62
256
6
ByLayer
370
18
48
1
60
0
100
AcDbEllipse
10
4.772606
20
-1.850389
30
0
11
0.25
21
0
31
0
210
0
220
0
230
1
40
1
41
1.56981658006081
42
2.36669352302448
0
ELLIPSE
5
98
100
AcDbEntity
8
1
62
256
6
ByLayer
370
18
48
1
60
0
100
AcDbEllipse
10
4.772606
20
1.850389
30
0
11
0.25
21
0
31
0
210
0
220
0
230
1
40
1
41
-2.34707560748478
42
-1.56458591439467
0
ELLIPSE
5
99
100
AcDbEntity
8
1
62
256
6
ByLayer
370
13
48
1
60
0
100
AcDbEllipse
10
4.695434
20
1.203582
30
0
11
0.0637556360919688
21
0.077040371666474
31
0
210
0
220
0
230
1
40
0.023346
41
2.48103970226822
42
-3.14142628412677
0
POINT
5
6C
100
AcDbEntity
8
81
62
256
6
ByLayer
370
18
48
1
60
0
100
AcDbPoint
10
30
20
0
30
0
39
0
210
0
220
0
230
1
50
360
0
POINT
5
6E
100
AcDbEntity
8
80
62
256
6
ByLayer
370
18
48
1
60
0
100
AcDbPoint
10
0
20
0
30
0
39
0
210
0
220
0
230
1
50
360
0
POINT
5
70
100
AcDbEntity
8
SK2
62
256
6
ByLayer
370
18
48
1
60
1
100
AcDbPoint
10
-36
20
-3
30
0
39
0
210
0
220
0
230
1
50
360
0
POINT
5
72
100
AcDbEntity
8
SK2
62
256
6
ByLayer
370
18
48
1
60
1
100
AcDbPoint
10
-36
20
3
30
0
39
0
210
0
220
0
230
1
50
360
0
POINT
5
73
100
AcDbEntity
8
2
62
256
6
ByLayer
370
18
48
1
60
1
100
AcDbPoint
10
29.5106
20
-1.7
30
0
39
0
210
0
220
0
230
1
50
360
0
POINT
5
75
100
AcDbEntity
8
2
62
256
6
ByLayer
370
18
48
1
60
1
100
AcDbPoint
10
29.5106
20
1.7
30
0
39
0
210
0
220
0
230
1
50
360
0
SPLINE
5
9A
100
AcDbEntity
8
1
62
256
6
ByLayer
370
18
48
1
60
0
100
AcDbSpline
70
4
71
2
72
6
73
3
40
0
40
0
40
0
40
1
40
1
40
1
41
1
10
6.75771790207955
20
1.60188768323246
30
0
41
1
10
5.76563141825295
20
1.60078825575977
30
0
41
1
10
4.77351286858232
20
1.59990008223059
30
0
0
SPLINE
5
9B
100
AcDbEntity
8
1
62
256
6
ByLayer
370
18
48
1
60
0
100
AcDbSpline
70
4
71
3
72
8
73
4
40
0
40
0
40
0
40
0
40
1
40
1
40
1
40
1
41
1
10
6.4368457850413
20
-0.113162438519083
30
0
41
1
10
6.40865292237652
20
-0.0985385719337444
30
0
41
1
10
6.38052046359994
20
-0.083552031070667
30
0
41
1
10
6.3524497669946
20
-0.0681995811852687
30
0
0
SPLINE
5
9C
100
AcDbEntity
8
1
62
256
6
ByLayer
370
18
48
1
60
0
100
AcDbSpline
70
4
71
3
72
15
73
11
40
0
40
0
40
0
40
0
40
0.162144926439112
40
0.277158701846787
40
0.355654306533525
40
0.434157836933503
40
0.517281842001997
40
0.638081052756489
40
0.808599924131831
40
1
40
1
40
1
40
1
41
1
10
20.3926374888053
20
-1.60960870337297
30
0
41
1
10
20.6284305079482
20
-1.60972202856047
30
0
41
1
10
21.0314690021137
20
-1.60988656857816
30
0
41
1
10
21.5486520086894
20
-1.61049405934702
30
0
41
1
10
21.9441732676763
20
-1.61033215753969
30
0
41
1
10
22.2933708627241
20
-1.61118864278592
30
0
41
1
10
22.7040902529253
20
-1.61039058459912
30
0
41
1
10
23.2485817722935
20
-1.61166960072501
30
0
41
1
10
23.950513964205
20
-1.61105762881007
30
0
41
1
10
24.4768221240482
20
-1.61167405822994
30
0
41
1
10
24.7551647040995
20
-1.61201584869878
30
0
0
SPLINE
5
9D
100
AcDbEntity
8
1
62
256
6
ByLayer
370
18
48
1
60
0
100
AcDbSpline
70
4
71
3
72
16
73
12
40
0
40
0
40
0
40
0
40
0.207896183818859
40
0.356740252264898
40
0.422845813804547
40
0.469798082781783
40
0.515952955543048
40
0.58515534557592
40
0.675176982708723
40
0.822704307989852
40
1
40
1
40
1
40
1
41
1
10
11.3903393891135
20
-1.60372496178118
30
0
41
1
10
11.6925280923678
20
-1.60377462304004
30
0
41
1
10
12.2111834502752
20
-1.60391842938213
30
0
41
1
10
12.8266316806652
20
-1.60541943471694
30
0
41
1
10
13.2075085790113
20
-1.60531006339315
30
0
41
1
10
13.4390096184448
20
-1.60499017754878
30
0
41
1
10
13.6749825314187
20
-1.60635390675463
30
0
41
1
10
13.9735271047118
20
-1.60588374728732
30
0
41
1
10
14.419762133571
20
-1.60549281311
30
0
41
1
10
15.0235156004205
20
-1.6063891411541
30
0
41
1
10
15.4959489184102
20
-1.60685332984863
30
0
41
1
10
15.7537783828311
20
-1.60719997614288
30
0
0
SPLINE
5
9E
100
AcDbEntity
8
1
62
256
6
ByLayer
370
18
48
1
60
0
100
AcDbSpline
70
4
71
3
72
17
73
13
40
0
40
0
40
0
40
0
40
0.206525725809394
40
0.378480946145743
40
0.455461929959319
40
0.510289492828232
40
0.564073272189137
40
0.617870569063945
40
0.672597296752676
40
0.749648760801199
40
0.923138753497784
40
1
40
1
40
1
40
1
41
1
10
15.7533030348843
20
1.60719940831046
30
0
41
1
10
15.4956319717175
20
1.60685298576902
30
0
41
1
10
15.0233472412764
20
1.60618870131177
30
0
41
1
10
14.4546786659481
20
1.60598655819547
30
0
41
1
10
14.0754955771018
20
1.605183960831
30
0
41
1
10
13.8440294524663
20
1.6066351062311
30
0
41
1
10
13.6414525330638
20
1.60602846695639
30
0
41
1
10
13.4390111331622
20
1.60502568281242
30
0
41
1
10
13.2075079932658
20
1.60529633321266
30
0
41
1
10
12.8266321132858
20
1.60542957535157
30
0
41
1
10
12.4177959313373
20
1.6044221587955
30
0
41
1
10
12.1053852830248
20
1.60406545251428
30
0
41
1
10
12.0094865337261
20
1.60398354903987
30
0
0
SPLINE
5
9F
100
AcDbEntity
8
1
62
256
6
ByLayer
370
18
48
1
60
0
100
AcDbSpline
70
4
71
1
72
4
73
2
40
0
40
0
40
1
40
1
41
1
10
24.1719971688018
20
0.0519141293535199
30
0
41
1
10
24.1180371137793
20
0.0804511756698219
30
0
0
SPLINE
5
A0
100
AcDbEntity
8
1
62
256
6
ByLayer
370
18
48
1
60
0
100
AcDbSpline
70
4
71
1
72
4
73
2
40
0
40
0
40
1
40
1
41
1
10
29.2960561405187
20
-1.61402559273626
30
0
41
1
10
29.4153769276354
20
-1.61119289378885
30
0
0
SPLINE
5
A1
100
AcDbEntity
8
1
62
256
6
ByLayer
370
18
48
1
60
0
100
AcDbSpline
70
4
71
3
72
17
73
13
40
0
40
0
40
0
40
0
40
0.136987662748348
40
0.27041692012833
40
0.366877805661207
40
0.430790925241468
40
0.490213846800374
40
0.549555044296758
40
0.640486522684107
40
0.770635586848777
40
0.953618520437894
40
1
40
1
40
1
40
1
41
1
10
24.7527709540767
20
1.61204513368489
30
0
41
1
10
24.5852886705589
20
1.61192623631999
30
0
41
1
10
24.254662562303
20
1.61162505963435
30
0
41
1
10
23.8060253877952
20
1.61194596810222
30
0
41
1
10
23.446781420928
20
1.61082957395391
30
0
41
1
10
23.1780297676792
20
1.6111925091493
30
0
41
1
10
22.9546773352645
20
1.61187636476856
30
0
41
1
10
22.6982963760126
20
1.61077397486468
30
0
41
1
10
22.3553954580887
20
1.61085591111632
30
0
41
1
10
21.8615932606342
20
1.6101400856964
30
0
41
1
10
21.4218917809319
20
1.61013164076232
30
0
41
1
10
21.1414974666714
20
1.61002546001518
30
0
41
1
10
21.0848014123401
20
1.61000083518138
30
0
0
SPLINE
5
A2
100
AcDbEntity
8
1
62
256
6
ByLayer
370
18
48
1
60
0
100
AcDbSpline
70
4
71
2
72
6
73
3
40
0
40
0
40
0
40
1
40
1
40
1
41
1
10
4.77351286858232
20
-1.59990008223059
30
0
41
1
10
5.76549761720008
20
-1.6007881285079
30
0
41
1
10
6.75745030429843
20
-1.60188740023793
30
0
0
SPLINE
5
A3
100
AcDbEntity
8
1
62
256
6
ByLayer
370
18
48
1
60
0
100
AcDbSpline
70
4
71
3
72
8
73
4
40
0
40
0
40
0
40
0
40
1
40
1
40
1
40
1
41
1
10
29.9997347318819
20
-0.0292577108882881
30
0
41
1
10
30.0000887354077
20
-0.0097269630641676
30
0
41
1
10
30.0000880146719
20
0.0097667268221358
30
0
41
1
10
29.9997347318819
20
0.0292577108922671
30
0
0
SPLINE
5
A4
100
AcDbEntity
8
1
62
256
6
ByLayer
370
18
48
1
60
0
100
AcDbSpline
70
4
71
3
72
38
73
34
40
0
40
0
40
0
40
0
40
0.0418462567260042
40
0.0418462567260042
40
0.0836925134520083
40
0.0836925134520083
40
0.167385026904017
40
0.167385026904017
40
0.251077540356025
40
0.251077540356025
40
0.292923797082029
40
0.292923797082029
40
0.334770053808033
40
0.334770053808033
40
0.41846256726004
40
0.41846256726004
40
0.460308823986042
40
0.460308823986042
40
0.502155080712045
40
0.502155080712045
40
0.669540107616053
40
0.669540107616053
40
0.711386364342056
40
0.711386364342056
40
0.753232621068058
40
0.753232621068058
40
0.836925134520065
40
0.836925134520065
40
0.878771391246068
40
0.878771391246068
40
0.920617647972071
40
0.920617647972071
40
1
40
1
40
1
40
1
41
1
10
29.4453722280469
20
-1.69476858341602
30
0
41
1
10
29.3158279225991
20
-1.70071099000395
30
0
41
1
10
29.1864021310848
20
-1.70139298332251
30
0
41
1
10
28.9272695213082
20
-1.69235536906652
30
0
41
1
10
28.7972485135638
20
-1.68258542432602
30
0
41
1
10
28.4095556631343
20
-1.63815645519008
30
0
41
1
10
28.1535971160204
20
-1.58845484980719
30
0
41
1
10
27.6416647948875
20
-1.45277467088783
30
0
41
1
10
27.3857907682998
20
-1.36672394554262
30
0
41
1
10
26.9984093046465
20
-1.2132391787558
30
0
41
1
10
26.8682826262383
20
-1.15781476668499
30
0
41
1
10
26.6099422139559
20
-1.04101917557048
30
0
41
1
10
26.4813883677942
20
-0.979523713610746
30
0
41
1
10
26.0966065970937
20
-0.787242180983725
30
0
41
1
10
25.8412709221023
20
-0.64865047303843
30
0
41
1
10
25.4565898818523
20
-0.430509167033762
30
0
41
1
10
25.3280386088747
20
-0.35615884564271
30
0
41
1
10
25.0696698261001
20
-0.205164771522732
30
0
41
1
10
24.9395147317019
20
-0.128312268874709
30
0
41
1
10
24.293545002834
20
0.253531251986914
30
0
41
1
10
23.78611815468
20
0.555909950266937
30
0
41
1
10
23.1399571124505
20
0.890432180834807
30
0
41
1
10
23.0098284422205
20
0.955202133781938
30
0
41
1
10
22.7515620381327
20
1.07741572327834
30
0
41
1
10
22.6229824944427
20
1.13512941571892
30
0
41
1
10
22.2382549041022
20
1.29742855028087
30
0
41
1
10
21.982671046215
20
1.39064130888852
30
0
41
1
10
21.5976154391053
20
1.50475012465955
30
0
41
1
10
21.468931217342
20
1.53844342619021
30
0
41
1
10
21.210248857675
20
1.59648411611192
30
0
41
1
10
21.0800708712713
20
1.62083008749263
30
0
41
1
10
20.7061524455624
20
1.67636432725112
30
0
41
1
10
20.4631755648563
20
1.69440247093343
30
0
41
1
10
20.220291493207
20
1.6941862565327
30
0
0
SPLINE
5
A5
100
AcDbEntity
8
1
62
256
6
ByLayer
370
18
48
1
60
0
100
AcDbSpline
70
4
71
3
72
32
73
28
40
0
40
0
40
0
40
0
40
0.0438749065363265
40
0.0438749065363265
40
0.0969929672843071
40
0.0969929672843071
40
0.150111028032288
40
0.150111028032288
40
0.256347149528249
40
0.256347149528249
40
0.309465210276231
40
0.309465210276231
40
0.362583271024213
40
0.362583271024213
40
0.575055514016143
40
0.575055514016143
40
0.628173574764125
40
0.628173574764125
40
0.681291635512106
40
0.681291635512106
40
0.78752775700807
40
0.78752775700807
40
0.840645817756052
40
0.840645817756052
40
0.893763878504034
40
0.893763878504034
40
1
40
1
40
1
40
1
41
1
10
12.0061842627319
20
-1.62608746335118
30
0
41
1
10
11.8998447672598
20
-1.64298645565063
30
0
41
1
10
11.7932117168875
20
-1.65656708618468
30
0
41
1
10
11.5564265786477
20
-1.67894797469208
30
0
41
1
10
11.426403809224
20
-1.68607988220728
30
0
41
1
10
11.168379596456
20
-1.68995244518825
30
0
41
1
10
11.0398499656858
20
-1.68673757919942
30
0
41
1
10
10.6548427792973
20
-1.6620079700696
30
0
41
1
10
10.3991177395105
20
-1.62534188884106
30
0
41
1
10
10.0131065288844
20
-1.54145972084413
30
0
41
1
10
9.88406307783831
20
-1.50867522366798
30
0
41
1
10
9.62467702585212
20
-1.43360023681353
30
0
41
1
10
9.49470489433634
20
-1.39145918721306
30
0
41
1
10
8.84944426152407
20
-1.16191461339019
30
0
41
1
10
8.34139935484444
20
-0.915627633879211
30
0
41
1
10
7.69261481360795
20
-0.561171188229082
30
0
41
1
10
7.56269995319696
20
-0.488264915280752
30
0
41
1
10
7.30464012440081
20
-0.340982642523613
30
0
41
1
10
7.17609499322035
20
-0.266387569944385
30
0
41
1
10
6.79105286557589
20
-0.0412319426213799
30
0
41
1
10
6.5351353100784
20
0.11067541390338
30
0
41
1
10
6.14880582570294
20
0.334973919405655
30
0
41
1
10
6.01963176302479
20
0.409165769307208
30
0
41
1
10
5.76002782730734
20
0.555605822032845
30
0
41
1
10
5.63005828548575
20
0.627434837508474
30
0
41
1
10
5.24143293951363
20
0.835550135308324
30
0
41
1
10
4.98291596372962
20
0.965135689790429
30
0
41
1
10
4.7226801082183
20
1.0821698662385
30
0
0
SPLINE
5
A6
100
AcDbEntity
8
1
62
256
6
ByLayer
370
18
48
1
60
0
100
AcDbSpline
70
4
71
3
72
8
73
4
40
0
40
0
40
0
40
0
40
1
40
1
40
1
40
1
41
1
10
29.4635342107908
20
-0.773475188818651
30
0
41
1
10
29.3575580543679
20
-0.917416949366839
30
0
41
1
10
29.2500317931268
20
-1.05960286624142
30
0
41
1
10
29.1414556426714
20
-1.20059954654755
30
0
0
SPLINE
5
A7
100
AcDbEntity
8
1
62
256
6
ByLayer
370
18
48
1
60
0
100
AcDbSpline
70
4
71
3
72
16
73
12
40
0
40
0
40
0
40
0
40
0.250000000000006
40
0.250000000000006
40
0.375000000000005
40
0.375000000000005
40
0.500000000000004
40
0.500000000000004
40
0.750000000000002
40
0.750000000000002
40
1
40
1
40
1
40
1
41
1
10
29.1414556426714
20
-1.20059954654755
30
0
41
1
10
29.1652871548759
20
-1.26824532577174
30
0
41
1
10
29.1898672032625
20
-1.32780488845592
30
0
41
1
10
29.2276450987606
20
-1.4055436303907
30
0
41
1
10
29.2403921751287
20
-1.42950951046703
30
0
41
1
10
29.2661933988017
20
-1.47347745329034
30
0
41
1
10
29.2793010452954
20
-1.49353607305815
30
0
41
1
10
29.3183596034556
20
-1.54657127733208
30
0
41
1
10
29.344230726289
20
-1.57285826162342
30
0
41
1
10
29.3958338061574
20
-1.60761004205469
30
0
41
1
10
29.4217256170727
20
-1.61602260947828
30
0
41
1
10
29.4472005828388
20
-1.61488315400879
30
0
0
SPLINE
5
A8
100
AcDbEntity
8
1
62
256
6
ByLayer
370
18
48
1
60
0
100
AcDbSpline
70
4
71
3
72
10
73
6
40
0
40
0
40
0
40
0
40
0.5
40
0.5
40
1
40
1
40
1
40
1
41
1
10
29.9959184964243
20
0.0763076728408407
30
0
41
1
10
29.9957317220376
20
0.0697106075730858
30
0
41
1
10
29.9960218378044
20
0.0621880329204316
30
0
41
1
10
29.9973458540692
20
0.0463516046738732
30
0
41
1
10
29.9983741170498
20
0.037996103731075
30
0
41
1
10
29.9997347318811
20
0.0292577108932051
30
0
0
SPLINE
5
A9
100
AcDbEntity
8
1
62
256
6
ByLayer
370
18
48
1
60
0
100
AcDbSpline
70
4
71
3
72
33
73
29
40
0
40
0
40
0
40
0
40
0.249999999999989
40
0.249999999999989
40
0.374999999999991
40
0.374999999999991
40
0.499999999999993
40
0.499999999999993
40
0.624999999999995
40
0.624999999999995
40
0.749999999999997
40
0.749999999999997
40
0.812499999999998
40
0.812499999999998
40
0.843749999999999
40
0.859375000000006
40
0.859375000000006
40
0.875000000000014
40
0.875000000000014
40
0.882812500000012
40
0.882812500000012
40
0.89062500000001
40
0.89062500000001
40
0.90625000000001
40
0.90625000000001
40
0.937500000000006
40
0.937500000000006
40
1
40
1
40
1
40
1
41
1
10
27.8362190333474
20
0.769559541964213
30
0
41
1
10
27.9535545394397
20
0.650217020002174
30
0
41
1
10
28.0786161221087
20
0.54449276196155
30
0
41
1
10
28.2786784551018
20
0.407886378713243
30
0
41
1
10
28.3469566251117
20
0.366403296455047
30
0
41
1
10
28.4840478347742
20
0.293535357621721
30
0
41
1
10
28.5532582021041
20
0.261909335050092
30
0
41
1
10
28.6930785951477
20
0.208780428798974
30
0
41
1
10
28.7636915205061
20
0.187298517026022
30
0
41
1
10
28.9066010986902
20
0.156512384279949
30
0
41
1
10
28.9783791860767
20
0.147377879744141
30
0
41
1
10
29.0839588526726
20
0.144675405254787
30
0
41
1
10
29.1189443597505
20
0.145609010903371
30
0
41
1
10
29.1709484625687
20
0.150121576226184
30
0
41
1
10
29.1967561088306
20
0.153148405060705
30
0
41
1
10
29.2222580628411
20
0.157386878738549
30
0
41
1
10
29.2391900665936
20
0.160487201749845
30
0
41
1
10
29.2480003922652
20
0.161755866316525
30
0
41
1
10
29.2581031235252
20
0.169878279836468
30
0
41
1
10
29.2604717110921
20
0.174017197464451
30
0
41
1
10
29.2631889868599
20
0.183338098394927
30
0
41
1
10
29.263851676133
20
0.188364057080349
30
0
41
1
10
29.2668054748404
20
0.202934736811244
30
0
41
1
10
29.2686463446333
20
0.212718988449694
30
0
41
1
10
29.2737901206307
20
0.242216566987594
30
0
41
1
10
29.2767179686609
20
0.262088963211824
30
0
41
1
10
29.2841336318896
20
0.322271883696658
30
0
41
1
10
29.2872506370539
20
0.363230542178769
30
0
41
1
10
29.2888250683239
20
0.404301873269304
30
0
0
SPLINE
5
AA
100
AcDbEntity
8
1
62
256
6
ByLayer
370
18
48
1
60
0
100
AcDbSpline
70
4
71
3
72
18
73
14
40
0
40
0
40
0
40
0
40
0.0028399668831468
40
0.0028399668831468
40
0.25212997516236
40
0.25212997516236
40
0.501419983441574
40
0.501419983441574
40
0.62606498758118
40
0.62606498758118
40
0.750709991720787
40
0.750709991720787
40
1
40
1
40
1
40
1
41
1
10
4.58565036602027
20
-1.6844141571798
30
0
41
1
10
4.58565071216868
20
-1.68441321755178
30
0
41
1
10
4.58565097681642
20
-1.68441107559781
30
0
41
1
10
4.58567714836138
20
-1.6840937719831
30
0
41
1
10
4.58570363387423
20
-1.67282597087092
30
0
41
1
10
4.58575733447242
20
-1.62944684105489
30
0
41
1
10
4.58578474184827
20
-1.59751658026209
30
0
41
1
10
4.58582619268924
20
-1.53404853358512
30
0
41
1
10
4.58584009775512
20
-1.51015292411824
30
0
41
1
10
4.58586705122337
20
-1.45806971122667
30
0
41
1
10
4.58588016228165
20
-1.42980629565525
30
0
41
1
10
4.58591767984802
20
-1.33848485126637
30
0
41
1
10
4.58594040936401
20
-1.26879368648935
30
0
41
1
10
4.58595777176106
20
-1.1903964340375
30
0
0
SPLINE
5
AB
100
AcDbEntity
8
1
62
256
6
ByLayer
370
18
48
1
60
0
100
AcDbSpline
70
4
71
3
72
8
73
4
40
0
40
0
40
0
40
0
40
1
40
1
40
1
40
1
41
1
10
29.380822572765
20
0.465678125862155
30
0
41
1
10
29.5482826742432
20
0.462825237531717
30
0
41
1
10
29.715567599687
20
0.461389868670011
30
0
41
1
10
29.8826566697838
20
0.461470477735276
30
0
0
SPLINE
5
AC
100
AcDbEntity
8
1
62
256
6
ByLayer
370
18
48
1
60
0
100
AcDbSpline
70
4
71
3
72
10
73
6
40
0
40
0
40
0
40
0
40
0.5
40
0.5
40
1
40
1
40
1
40
1
41
1
10
29.9067804417
20
-0.590207852933872
30
0
41
1
10
29.9303364039122
20
-0.504946363674662
30
0
41
1
10
29.9501925404672
20
-0.423132610063618
30
0
41
1
10
29.9806902241764
20
-0.263360307738481
30
0
41
1
10
29.9913065832477
20
-0.185011744751392
30
0
41
1
10
29.9964039908745
20
-0.10801281071403
30
0
0
SPLINE
5
AD
100
AcDbEntity
8
1
62
256
6
ByLayer
370
18
48
1
60
0
100
AcDbSpline
70
4
71
3
72
10
73
6
40
0
40
0
40
0
40
0
40
0.5
40
0.5
40
1
40
1
40
1
40
1
41
1
10
29.8826566697837
20
0.461470477735247
30
0
41
1
10
29.9118229236962
20
0.403980273337623
30
0
41
1
10
29.9358150257846
20
0.345711677109932
30
0
41
1
10
29.9736213264372
20
0.227643335739742
30
0
41
1
10
29.9874537750747
20
0.167506513327339
30
0
41
1
10
29.9964039908745
20
0.108012810713973
30
0
0
SPLINE
5
AE
100
AcDbEntity
8
1
62
256
6
ByLayer
370
13
48
1
60
0
100
AcDbSpline
70
4
71
3
72
16
73
12
40
0
40
0
40
0
40
0
40
0.199523886288663
40
0.199523886288663
40
0.332936571907219
40
0.332936571907219
40
0.466349257525776
40
0.466349257525776
40
0.733174628762888
40
0.733174628762888
40
1
40
1
40
1
40
1
41
1
10
4.77351124329894
20
-1.60038639230612
30
0
41
1
10
4.77353292165228
20
-1.60040833307804
30
0
41
1
10
4.7735546663038
20
-1.59480960995518
30
0
41
1
10
4.77359103523244
20
-1.57634961331277
30
0
41
1
10
4.77360565553187
20
-1.56650257067326
30
0
41
1
10
4.77363490212178
20
-1.54182812773456
30
0
41
1
10
4.77364958262075
20
-1.52691316499883
30
0
41
1
10
4.77369236971353
20
-1.47557492051223
30
0
41
1
10
4.77371955681781
20
-1.43247069131755
30
0
41
1
10
4.77376795946449
20
-1.32890997369276
30
0
41
1
10
4.77378931387244
20
-1.26779875782967
30
0
41
1
10
4.77380439943408
20
-1.19911716173377
30
0
0
SPLINE
5
AF
100
AcDbEntity
8
1
62
256
6
ByLayer
370
18
48
1
60
0
100
AcDbSpline
70
4
71
3
72
8
73
4
40
0
40
0
40
0
40
0
40
1
40
1
40
1
40
1
41
1
10
29.4453722280471
20
1.69476858341548
30
0
41
1
10
29.3702709058966
20
1.69821360239922
30
0
41
1
10
29.2951924237838
20
1.69989140683924
30
0
41
1
10
29.2200863251818
20
1.69981124273579
30
0
0
SPLINE
5
B0
100
AcDbEntity
8
1
62
256
6
ByLayer
370
18
48
1
60
0
100
AcDbSpline
70
4
71
3
72
40
73
36
40
0
40
0
40
0
40
0
40
0.0094317965102689
40
0.0094317965102689
40
0.0880817376091234
40
0.0880817376091234
40
0.166731678707978
40
0.166731678707978
40
0.206056649257406
40
0.206056649257406
40
0.245381619806834
40
0.245381619806834
40
0.32403156090569
40
0.32403156090569
40
0.363356531455117
40
0.363356531455117
40
0.402681502004544
40
0.402681502004544
40
0.559981384202253
40
0.559981384202253
40
0.59930635475168
40
0.59930635475168
40
0.638631325301106
40
0.638631325301106
40
0.717281266399959
40
0.717281266399959
40
0.756606236949384
40
0.756606236949384
40
0.79593120749881
40
0.79593120749881
40
0.874581148597661
40
0.874581148597661
40
0.953231089696513
40
0.953231089696513
40
1
40
1
40
1
40
1
41
1
10
21.0440716421996
20
-1.62531531040779
30
0
41
1
10
21.0130566806618
20
-1.63049417327056
30
0
41
1
10
20.9820818365158
20
-1.63538235368125
30
0
41
1
10
20.6933706683863
20
-1.67827125676831
30
0
41
1
10
20.4374540269224
20
-1.69628070984854
30
0
41
1
10
19.9252300532684
20
-1.69170951683566
30
0
41
1
10
19.6686444173306
20
-1.66913443539485
30
0
41
1
10
19.2798740160686
20
-1.60457048938918
30
0
41
1
10
19.1500610551877
20
-1.5779832712212
30
0
41
1
10
18.892211569075
20
-1.51584527239001
30
0
41
1
10
18.7637550571403
20
-1.48023292012559
30
0
41
1
10
18.379109611681
20
-1.36051650740507
30
0
41
1
10
18.1234778380983
20
-1.26366834485862
30
0
41
1
10
17.7376900857986
20
-1.09651419437572
30
0
41
1
10
17.6087097582084
20
-1.0371403080446
30
0
41
1
10
17.3493326700511
20
-0.911764514256021
30
0
41
1
10
17.2195608379529
20
-0.846051434277911
30
0
41
1
10
16.5750668465508
20
-0.507826216603121
30
0
41
1
10
16.0672497099791
20
-0.203760930550715
30
0
41
1
10
15.4184931891682
20
0.178600937969236
30
0
41
1
10
15.2888061878288
20
0.254684588829235
30
0
41
1
10
15.031021454986
20
0.403892594953902
30
0
41
1
10
14.9026104474574
20
0.477214858134943
30
0
41
1
10
14.51792860766
20
0.691924654184106
30
0
41
1
10
14.2622249907192
20
0.828075713503324
30
0
41
1
10
13.8761077894245
20
1.01600995152381
30
0
41
1
10
13.7469992403648
20
1.07597465604729
30
0
41
1
10
13.4873015877425
20
1.18949136680723
30
0
41
1
10
13.3576639610685
20
1.24263461210586
30
0
41
1
10
12.9710671658305
20
1.3895677255652
30
0
41
1
10
12.7152274696122
20
1.47108897399738
30
0
41
1
10
12.2023637006843
20
1.59733031630336
30
0
41
1
10
11.9455465120879
20
1.6421882944305
30
0
41
1
10
11.5312229677323
20
1.68131837946436
30
0
41
1
10
11.3775468196662
20
1.68854581015089
30
0
41
1
10
11.2244017300136
20
1.68854643484923
30
0
0
SPLINE
5
B1
100
AcDbEntity
8
1
62
256
6
ByLayer
370
18
48
1
60
0
100
AcDbSpline
70
4
71
3
72
10
73
6
40
0
40
0
40
0
40
0
40
0.5
40
0.5
40
1
40
1
40
1
40
1
41
1
10
29.5225471168115
20
1.63904781310538
30
0
41
1
10
29.5100573984814
20
1.65335690029244
30
0
41
1
10
29.4972580674727
20
1.66529598187844
30
0
41
1
10
29.471470070614
20
1.68389961211636
30
0
41
1
10
29.4584854971537
20
1.69059831361042
30
0
41
1
10
29.4453722280471
20
1.69476858341557
30
0
0
SPLINE
5
B2
100
AcDbEntity
8
1
62
256
6
ByLayer
370
18
48
1
60
0
100
AcDbSpline
70
4
71
3
72
8
73
4
40
0
40
0
40
0
40
0
40
1
40
1
40
1
40
1
41
1
10
29.9067804417001
20
0.590207852933389
30
0
41
1
10
29.9001900297623
20
0.546940609802164
30
0
41
1
10
29.8920938198893
20
0.504036361724104
30
0
41
1
10
29.8826566697852
20
0.461470477734792
30
0
0
SPLINE
5
B3
100
AcDbEntity
8
1
62
256
6
ByLayer
370
18
48
1
60
0
100
AcDbSpline
70
4
71
3
72
32
73
28
40
0
40
0
40
0
40
0
40
0.125
40
0.125
40
0.25
40
0.25
40
0.3125
40
0.3125
40
0.375
40
0.375
40
0.40625
40
0.40625
40
0.4375
40
0.4375
40
0.46875
40
0.46875
40
0.5
40
0.5
40
0.5625
40
0.5625
40
0.625
40
0.625
40
0.75
40
0.75
40
0.875
40
0.875
40
1
40
1
40
1
40
1
41
1
10
29.4635342107771
20
-0.773475188803133
30
0
41
1
10
29.4073068004404
20
-0.751439189846309
30
0
41
1
10
29.3522274603785
20
-0.725273699878471
30
0
41
1
10
29.2447460260365
20
-0.663612334317236
30
0
41
1
10
29.1922552452022
20
-0.628383688861902
30
0
41
1
10
29.1168721080056
20
-0.563742904912289
30
0
41
1
10
29.092348104463
20
-0.540168107624908
30
0
41
1
10
29.0475252266494
20
-0.488157454334044
30
0
41
1
10
29.0265899421346
20
-0.459372703956717
30
0
41
1
10
29.0044061019505
20
-0.410637453257152
30
0
41
1
10
28.9987466469436
20
-0.3935826627729
30
0
41
1
10
28.9938701063631
20
-0.359247890237725
30
0
41
1
10
28.9949656597673
20
-0.342177401671847
30
0
41
1
10
29.0046160547471
20
-0.312827435049996
30
0
41
1
10
29.0129000696962
20
-0.300625976862079
30
0
41
1
10
29.0329975014166
20
-0.281103342341368
30
0
41
1
10
29.0444395051246
20
-0.27387554152304
30
0
41
1
10
29.0811532382446
20
-0.256533907314463
30
0
41
1
10
29.1079748341708
20
-0.251042930551051
30
0
41
1
10
29.1626063041991
20
-0.245610591432893
30
0
41
1
10
29.190754113649
20
-0.245870712662054
30
0
41
1
10
29.2746614315677
20
-0.251991825277656
30
0
41
1
10
29.330826845483
20
-0.263009171081677
30
0
41
1
10
29.4434231657969
20
-0.293149498189166
30
0
41
1
10
29.5001130917838
20
-0.312585218255407
30
0
41
1
10
29.6116933534909
20
-0.358230727344221
30
0
41
1
10
29.6667822985525
20
-0.384447269489357
30
0
41
1
10
29.7210214794961
20
-0.414776728581728
30
0
0
SPLINE
5
B4
100
AcDbEntity
8
1
62
256
6
ByLayer
370
18
48
1
60
0
100
AcDbSpline
70
4
71
3
72
16
73
12
40
0
40
0
40
0
40
0
40
0.115080958416334
40
0.115080958416334
40
0.322031217311816
40
0.322031217311816
40
0.5289814762073
40
0.5289814762073
40
0.942881993998256
40
0.942881993998256
40
1
40
1
40
1
40
1
41
1
10
20.4239199221043
20
-1.60959030685078
30
0
41
1
10
20.3526132520813
20
-1.60966871061075
30
0
41
1
10
20.2812142881217
20
-1.60825070190259
30
0
41
1
10
20.0810327113719
20
-1.60005962471772
30
0
41
1
10
19.9515208589194
20
-1.58990655773499
30
0
41
1
10
19.6929406805462
20
-1.55993048678073
30
0
41
1
10
19.564249789804
20
-1.5401510458168
30
0
41
1
10
19.1793707859462
20
-1.46740910652574
30
0
41
1
10
18.9240067573498
20
-1.40103555246841
30
0
41
1
10
18.6325725202853
20
-1.30710426022347
30
0
41
1
10
18.5972170311532
20
-1.295409502741
30
0
41
1
10
18.5618403286024
20
-1.28341570750396
30
0
0
SPLINE
5
B5
100
AcDbEntity
8
1
62
256
6
ByLayer
370
13
48
1
60
0
100
AcDbSpline
70
4
71
3
72
26
73
22
40
0
40
0
40
0
40
0
40
0.0529201682368726
40
0.0529201682368726
40
0.12601419375122
40
0.12601419375122
40
0.199108219265567
40
0.199108219265567
40
0.272202244779915
40
0.272202244779915
40
0.564578346837305
40
0.564578346837305
40
0.637672372351653
40
0.637672372351653
40
0.710766397866001
40
0.710766397866001
40
0.856954448894697
40
0.856954448894697
40
0.930048474409044
40
0.930048474409044
40
1
40
1
40
1
40
1
41
1
10
18.5618403286412
20
-1.28341570751709
30
0
41
1
10
18.4690399769672
20
-1.25195352094718
30
0
41
1
10
18.3760936513941
20
-1.21843359405926
30
0
41
1
10
18.1541432645437
20
-1.13393706292337
30
0
41
1
10
18.0246000651141
20
-1.08101087194518
30
0
41
1
10
17.7656821387116
20
-0.968884135732935
30
0
41
1
10
17.636412947286
20
-0.909774083411577
30
0
41
1
10
17.3776329895139
20
-0.786328653230186
30
0
41
1
10
17.2478386098365
20
-0.721813379538787
30
0
41
1
10
16.60248357033
20
-0.390901082985636
30
0
41
1
10
16.094940430993
20
-0.0992876913697955
30
0
41
1
10
15.4498833486261
20
0.260082179173622
30
0
41
1
10
15.3200008205942
20
0.331837911531466
30
0
41
1
10
15.0619784614732
20
0.471818649003012
30
0
41
1
10
14.9334972008345
20
0.540291516376442
30
0
41
1
10
14.5488814586035
20
0.739937449569538
30
0
41
1
10
14.2934488647572
20
0.865101003746048
30
0
41
1
10
13.9085787691841
20
1.0359242718398
30
0
41
1
10
13.780012501623
20
1.09006185935024
30
0
41
1
10
13.5271844592048
20
1.18946607239636
30
0
41
1
10
13.4028940399332
20
1.23510253396771
30
0
41
1
10
13.2794446046064
20
1.27696607210183
30
0
0
SPLINE
5
B6
100
AcDbEntity
8
1
62
256
6
ByLayer
370
18
48
1
60
0
100
AcDbSpline
70
4
71
3
72
10
73
6
40
0
40
0
40
0
40
0
40
0.13736821758592
40
0.13736821758592
40
1
40
1
40
1
40
1
41
1
10
13.279445551808
20
1.27696575089163
30
0
41
1
10
13.2738993977054
20
1.27884653497222
30
0
41
1
10
13.2683549410307
20
1.28071970381663
30
0
41
1
10
13.228006279435
20
1.29429985484194
30
0
41
1
10
13.1932367672266
20
1.30571716066561
30
0
41
1
10
13.1584983774433
20
1.31683302640141
30
0
0
SPLINE
5
B7
100
AcDbEntity
8
1
62
256
6
ByLayer
370
18
48
1
60
0
100
AcDbSpline
70
4
71
3
72
66
73
62
40
0
40
0
40
0
40
0
40
0.0173270005033355
40
0.0173270005033355
40
0.0787248798415241
40
0.0787248798415241
40
0.109423819510618
40
0.109423819510618
40
0.140122759179713
40
0.140122759179713
40
0.2015206385179
40
0.2015206385179
40
0.232219578186993
40
0.232219578186993
40
0.262918517856086
40
0.262918517856086
40
0.324316397194273
40
0.324316397194273
40
0.355015336863367
40
0.355015336863367
40
0.385714276532461
40
0.385714276532461
40
0.416413216201556
40
0.416413216201556
40
0.44711215587065
40
0.44711215587065
40
0.477811095539744
40
0.477811095539744
40
0.508510035208838
40
0.508510035208838
40
0.539208974877933
40
0.539208974877933
40
0.569907914547027
40
0.569907914547027
40
0.600606854216121
40
0.600606854216121
40
0.631305793885215
40
0.631305793885215
40
0.66200473355431
40
0.66200473355431
40
0.692703673223404
40
0.692703673223404
40
0.723402612892498
40
0.723402612892498
40
0.754101552561593
40
0.754101552561593
40
0.784800492230687
40
0.784800492230687
40
0.815499431899781
40
0.815499431899781
40
0.876897311237971
40
0.876897311237971
40
0.907596250907066
40
0.907596250907066
40
0.93829519057616
40
0.93829519057616
40
0.968994130245254
40
0.968994130245254
40
0.999693069914349
40
0.999693069914349
40
1
40
1
40
1
40
1
41
1
10
26.6829226915311
20
-1.26325272161796
30
0
41
1
10
26.6197431284235
20
-1.28542221895043
30
0
41
1
10
26.5565726279222
20
-1.30666815758897
30
0
41
1
10
26.2697132683504
20
-1.39866071858231
30
0
41
1
10
26.0465081661457
20
-1.45809199653254
30
0
41
1
10
25.7106303057093
20
-1.52535216778929
30
0
41
1
10
25.5984030239792
20
-1.54411979045463
30
0
41
1
10
25.3744297446285
20
-1.57515516828011
30
0
41
1
10
25.2626378884985
20
-1.5874878121835
30
0
41
1
10
24.927193298796
20
-1.61390179453744
30
0
41
1
10
24.7024425466155
20
-1.61746429197717
30
0
41
1
10
24.368309603149
20
-1.59880631207446
30
0
41
1
10
24.2573595760593
20
-1.58816691636835
30
0
41
1
10
24.0356601524998
20
-1.56104037904314
30
0
41
1
10
23.9249204809089
20
-1.54464784902336
30
0
41
1
10
23.593011529728
20
-1.48475785833162
30
0
41
1
10
23.3716368088911
20
-1.42974100837392
30
0
41
1
10
23.0377677949515
20
-1.33032660992441
30
0
41
1
10
22.9260474877223
20
-1.29391365172594
30
0
41
1
10
22.7018177344276
20
-1.21403726814358
30
0
41
1
10
22.5898968536813
20
-1.17121308698398
30
0
41
1
10
22.3661579689297
20
-1.08162189211842
30
0
41
1
10
22.2544405465422
20
-1.03431569647208
30
0
41
1
10
22.0307100688875
20
-0.934600994895618
30
0
41
1
10
21.9185748455627
20
-0.881900447423334
30
0
41
1
10
21.6942085121674
20
-0.773864393796089
30
0
41
1
10
21.5823005528884
20
-0.718204725371066
30
0
41
1
10
21.3586083564837
20
-0.603580432757525
30
0
41
1
10
21.2468522839401
20
-0.544513277978751
30
0
41
1
10
21.0228447472415
20
-0.424332623761245
30
0
41
1
10
20.9105311915786
20
-0.36322906411462
30
0
41
1
10
20.6864198796554
20
-0.239497369144061
30
0
41
1
10
20.5746002635331
20
-0.176999040072104
30
0
41
1
10
20.3509642803534
20
-0.0515418303369302
30
0
41
1
10
20.2390398430952
20
0.0111913316561925
30
0
41
1
10
20.0151315331418
20
0.136913194187656
30
0
41
1
10
19.9028563978176
20
0.199818770636114
30
0
41
1
10
19.6789202103795
20
0.324060450426032
30
0
41
1
10
19.5670385515369
20
0.385164969485999
30
0
41
1
10
19.3433257101183
20
0.505815774884752
30
0
41
1
10
19.2315345876639
20
0.565292987771443
30
0
41
1
10
19.0075545864431
20
0.681353402312766
30
0
41
1
10
18.8952929199804
20
0.737890620559142
30
0
41
1
10
18.67120217172
20
0.847006779969661
30
0
41
1
10
18.559385168491
20
0.900154351515198
30
0
41
1
10
18.3356954225118
20
1.0016822383603
30
0
41
1
10
18.2238692459807
20
1.05007759720524
30
0
41
1
10
17.9995634798042
20
1.14174178079142
30
0
41
1
10
17.8872516725072
20
1.18534599835797
30
0
41
1
10
17.551368221127
20
1.30784418368057
30
0
41
1
10
17.3278430751518
20
1.37662625889908
30
0
41
1
10
16.9913513199507
20
1.4625884063509
30
0
41
1
10
16.8792447471153
20
1.48806650994553
30
0
41
1
10
16.6555031541264
20
1.53094000249072
30
0
41
1
10
16.5436003515674
20
1.54849103259053
30
0
41
1
10
16.3197775941779
20
1.57769032850467
30
0
41
1
10
16.2078553785738
20
1.58923294669441
30
0
41
1
10
15.9834767849616
20
1.60409033963944
30
0
41
1
10
15.8715479176391
20
1.60722517239881
30
0
41
1
10
15.7584929015516
20
1.60700779424002
30
0
41
1
10
15.7573737749799
20
1.60700533313263
30
0
41
1
10
15.7562546640447
20
1.60700256199564
30
0
0
SPLINE
5
B8
100
AcDbEntity
8
1
62
256
6
ByLayer
370
18
48
1
60
0
100
AcDbSpline
70
4
71
3
72
18
73
14
40
0
40
0
40
0
40
0
40
0.132196589859181
40
0.132196589859181
40
0.276830491549318
40
0.276830491549318
40
0.421464393239457
40
0.421464393239457
40
0.710732196619731
40
0.710732196619731
40
0.855366098309866
40
0.855366098309866
40
1
40
1
40
1
40
1
41
1
10
8.6751341296945
20
-1.25703729446917
30
0
41
1
10
8.57278588567138
20
-1.29271213508471
30
0
41
1
10
8.47028678237851
20
-1.32618653065097
30
0
41
1
10
8.25563832298286
20
-1.38981320750597
30
0
41
1
10
8.143704508989
20
-1.41953898805036
30
0
41
1
10
7.92004210571099
20
-1.47340949846057
30
0
41
1
10
7.80832072444434
20
-1.49716658481464
30
0
41
1
10
7.47262411039591
20
-1.55712691264426
30
0
41
1
10
7.24777630240212
20
-1.58348445317989
30
0
41
1
10
6.9124188322395
20
-1.60094831765829
30
0
41
1
10
6.80073341514193
20
-1.60289956455722
30
0
41
1
10
6.57687789425478
20
-1.59973779056003
30
0
41
1
10
6.46475536923339
20
-1.59474955938364
30
0
41
1
10
6.3524497669946
20
-1.58595651467627
30
0
0
SPLINE
5
B9
100
AcDbEntity
8
1
62
256
6
ByLayer
370
18
48
1
60
0
100
AcDbSpline
70
4
71
3
72
10
73
6
40
0
40
0
40
0
40
0
40
0.5
40
0.5
40
1
40
1
40
1
40
1
41
1
10
4.77380439943713
20
-1.19911716169526
30
0
41
1
10
4.74031826049256
20
-1.18503569564999
30
0
41
1
10
4.70720424623227
20
-1.17648196451665
30
0
41
1
10
4.64217280972701
20
-1.17248100792446
30
0
41
1
10
4.61120637266478
20
-1.17755892840825
30
0
41
1
10
4.58595777176112
20
-1.19039643403755
30
0
0
SPLINE
5
BA
100
AcDbEntity
8
1
62
256
6
ByLayer
370
13
48
1
60
0
100
AcDbSpline
70
4
71
3
72
30
73
26
40
0
40
0
40
0
40
0
40
0.107839979698649
40
0.107839979698649
40
0.215679959397298
40
0.215679959397298
40
0.269599949246624
40
0.269599949246624
40
0.323519939095951
40
0.323519939095951
40
0.431359918794604
40
0.431359918794604
40
0.539199898493257
40
0.539199898493257
40
0.64703987819191
40
0.64703987819191
40
0.754879857890563
40
0.754879857890563
40
0.80879984773989
40
0.80879984773989
40
0.862719837589216
40
0.862719837589216
40
0.970559817287872
40
0.970559817287872
40
1
40
1
40
1
40
1
41
1
10
29.4472005828389
20
-1.61488315400879
30
0
41
1
10
29.1896565465705
20
-1.61647711542395
30
0
41
1
10
28.9341419050391
20
-1.59831159176542
30
0
41
1
10
28.4236674612379
20
-1.52485910967397
30
0
41
1
10
28.1686378342631
20
-1.46962136984075
30
0
41
1
10
27.7829708846639
20
-1.36051451585396
30
0
41
1
10
27.6534655725628
20
-1.31961398161812
30
0
41
1
10
27.3952020508579
20
-1.23025975992684
30
0
41
1
10
27.2667095949699
20
-1.18194036082025
30
0
41
1
10
26.882322786899
20
-1.02729997781515
30
0
41
1
10
26.6275580006487
20
-0.911252141725356
30
0
41
1
10
26.1166680286758
20
-0.659802534815441
30
0
41
1
10
25.8604368818911
20
-0.524205289080612
30
0
41
1
10
25.3427114491576
20
-0.240629441965382
30
0
41
1
10
25.0864830155289
20
-0.0958204887306522
30
0
41
1
10
24.574778600417
20
0.19169028389922
30
0
41
1
10
24.3192868907833
20
0.334350235910961
30
0
41
1
10
23.933857273338
20
0.541806652095488
30
0
41
1
10
23.804733744812
20
0.60986011268443
30
0
41
1
10
23.5459152443969
20
0.741936243521963
30
0
41
1
10
23.4171489646881
20
0.805475615520123
30
0
41
1
10
23.0321272585523
20
0.98812787357457
30
0
41
1
10
22.7767692974107
20
1.09845173852548
30
0
41
1
10
22.4510542200697
20
1.22125109329511
30
0
41
1
10
22.3811515805162
20
1.24654522155251
30
0
41
1
10
22.3111467727098
20
1.27072499425429
30
0
0
SPLINE
5
BB
100
AcDbEntity
8
1
62
256
6
ByLayer
370
18
48
1
60
0
100
AcDbSpline
70
4
71
3
72
16
73
12
40
0
40
0
40
0
40
0
40
0.0419287050724845
40
0.0419287050724845
40
0.237054332040902
40
0.237054332040902
40
0.627305585977734
40
0.627305585977734
40
0.822431212946151
40
0.822431212946151
40
1
40
1
40
1
40
1
41
1
10
11.4177033274094
20
-1.60375071340431
30
0
41
1
10
11.3899332514183
20
-1.60374534656916
30
0
41
1
10
11.3621918961529
20
-1.60351534137834
30
0
41
1
10
11.2055983913893
20
-1.60094808899603
30
0
41
1
10
11.0771855497313
20
-1.59397608959381
30
0
41
1
10
10.692589015034
20
-1.55881348655234
30
0
41
1
10
10.4371001556024
20
-1.51644739049686
30
0
41
1
10
10.0518552090515
20
-1.42611822020476
30
0
41
1
10
9.92311665042502
20
-1.39151019403406
30
0
41
1
10
9.67608967747054
20
-1.31724119249958
30
0
41
1
10
9.55800741096877
20
-1.27830434577297
30
0
41
1
10
9.44058603534484
20
-1.2364725978787
30
0
0
SPLINE
5
BC
100
AcDbEntity
8
1
62
256
6
ByLayer
370
13
48
1
60
0
100
AcDbSpline
70
4
71
3
72
22
73
18
40
0
40
0
40
0
40
0
40
0.0074420898160761
40
0.0074420898160761
40
0.338294726544052
40
0.338294726544052
40
0.421007885726045
40
0.421007885726045
40
0.503721044908039
40
0.503721044908039
40
0.669147363272027
40
0.669147363272027
40
0.751860522454021
40
0.751860522454021
40
0.834573681636015
40
0.834573681636015
40
1
40
1
40
1
40
1
41
1
10
9.44058509388242
20
-1.23647226247957
30
0
41
1
10
9.42897555066381
20
-1.23233632320307
30
0
41
1
10
9.41737246796649
20
-1.22817208503395
30
0
41
1
10
8.89027140828415
20
-1.03762097997381
30
0
41
1
10
8.38243019014644
20
-0.794629215163525
30
0
41
1
10
7.73546238108375
20
-0.452234962077796
30
0
41
1
10
7.60574329242172
20
-0.382010419909648
30
0
41
1
10
7.34805219549045
20
-0.240685385962109
30
0
41
1
10
7.21967105975091
20
-0.169344458070725
30
0
41
1
10
6.83511334394876
20
0.0452401251072843
30
0
41
1
10
6.57948383652629
20
0.188973831269607
30
0
41
1
10
6.19386944321167
20
0.399609404053877
30
0
41
1
10
6.06495586672273
20
0.468967289166415
30
0
41
1
10
5.80600538493246
20
0.605302419826756
30
0
41
1
10
5.67634694646176
20
0.671961604747452
30
0
41
1
10
5.28896376222647
20
0.864179461681601
30
0
41
1
10
5.03161606204156
20
0.982687473802002
30
0
41
1
10
4.77305831714688
20
1.08818444580152
30
0
0
SPLINE
5
BD
100
AcDbEntity
8
1
62
256
6
ByLayer
370
18
48
1
60
0
100
AcDbSpline
70
4
71
3
72
12
73
8
40
0
40
0
40
0
40
0
40
0.250000000000002
40
0.250000000000002
40
0.500000000000005
40
0.500000000000005
40
1
40
1
40
1
40
1
41
1
10
6.3524497669946
20
-1.58595651467627
30
0
41
1
10
6.21785726670262
20
-1.57565580845693
30
0
41
1
10
6.08452974666682
20
-1.55952826673334
30
0
41
1
10
5.81914424230357
20
-1.5169236408384
30
0
41
1
10
5.68683186017307
20
-1.49034552115822
30
0
41
1
10
5.29222720817748
20
-1.39389591549931
30
0
41
1
10
5.03256423367844
20
-1.30792988045386
30
0
41
1
10
4.77380439954251
20
-1.19911716173416
30
0
0
SPLINE
5
BE
100
AcDbEntity
8
1
62
256
6
ByLayer
370
18
48
1
60
0
100
AcDbSpline
70
4
71
3
72
10
73
6
40
0
40
0
40
0
40
0
40
0.5
40
0.5
40
1
40
1
40
1
40
1
41
1
10
29.9997347318828
20
0.0292577108932619
30
0
41
1
10
29.9980260433197
20
0.0188030942296109
30
0
41
1
10
29.9952380024096
20
0.0075317871861671
30
0
41
1
10
29.9876846483374
20
-0.0138362476652958
30
0
41
1
10
29.9828391039849
20
-0.0239997090909014
30
0
41
1
10
29.9778150122395
20
-0.031845264552544
30
0
0
SPLINE
5
BF
100
AcDbEntity
8
1
62
256
6
ByLayer
370
18
48
1
60
0
100
AcDbSpline
70
4
71
3
72
64
73
60
40
0
40
0
40
0
40
0
40
0.0197059355205514
40
0.0197059355205514
40
0.0523845844235752
40
0.0523845844235752
40
0.0850632333265991
40
0.0850632333265991
40
0.117741882229623
40
0.117741882229623
40
0.150420531132647
40
0.150420531132647
40
0.183099180035671
40
0.183099180035671
40
0.215777828938695
40
0.215777828938695
40
0.248456477841719
40
0.248456477841719
40
0.281135126744742
40
0.281135126744742
40
0.313813775647766
40
0.313813775647766
40
0.34649242455079
40
0.34649242455079
40
0.379171073453814
40
0.379171073453814
40
0.411849722356838
40
0.411849722356838
40
0.444528371259862
40
0.444528371259862
40
0.477207020162886
40
0.477207020162886
40
0.509885669065909
40
0.509885669065909
40
0.542564317968933
40
0.542564317968933
40
0.575242966871957
40
0.575242966871957
40
0.607921615774981
40
0.607921615774981
40
0.640600264678005
40
0.640600264678005
40
0.673278913581029
40
0.673278913581029
40
0.705957562484053
40
0.705957562484053
40
0.7713148602901
40
0.7713148602901
40
0.803993509193124
40
0.803993509193124
40
0.836672158096148
40
0.836672158096148
40
0.902029455902196
40
0.902029455902196
40
0.934708104805219
40
0.934708104805219
40
0.967386753708242
40
0.967386753708242
40
1
40
1
40
1
40
1
41
1
10
8.67139280200487
20
1.26071249504923
30
0
41
1
10
8.74412333919102
20
1.28929497156528
30
0
41
1
10
8.8167557875104
20
1.31656111415703
30
0
41
1
10
9.00987881827282
20
1.38527539777002
30
0
41
1
10
9.13019944100006
20
1.42449184565046
30
0
41
1
10
9.37027863073291
20
1.4957699743004
30
0
41
1
10
9.49026635286478
20
1.52758692746605
30
0
41
1
10
9.73136539620512
20
1.58269407992321
30
0
41
1
10
9.85230655161314
20
1.60615227280775
30
0
41
1
10
10.0945804217593
20
1.64483702444483
30
0
41
1
10
10.2164725655217
20
1.65992170049952
30
0
41
1
10
10.4592329266495
20
1.68068201691221
30
0
41
1
10
10.5802479107772
20
1.68653642219235
30
0
41
1
10
10.8210463278424
20
1.68934608372547
30
0
41
1
10
10.9409631510416
20
1.68622340385772
30
0
41
1
10
11.1813313778692
20
1.67119229662305
30
0
41
1
10
11.3016911482332
20
1.65934131104461
30
0
41
1
10
11.5421829293247
20
1.62670807433369
30
0
41
1
10
11.6623772667848
20
1.60587256202877
30
0
41
1
10
11.9042402737469
20
1.55585921275576
30
0
41
1
10
12.0261869025216
20
1.52664967688523
30
0
41
1
10
12.2694597389233
20
1.45972746196318
30
0
41
1
10
12.3901850568881
20
1.42211849268017
30
0
41
1
10
12.6314466023022
20
1.34027612155359
30
0
41
1
10
12.7520008162343
20
1.29611809215865
30
0
41
1
10
12.9923968500846
20
1.2008173866609
30
0
41
1
10
13.11215257495
20
1.1495197784449
30
0
41
1
10
13.3523689297076
20
1.04156198758437
30
0
41
1
10
13.4729006237376
20
0.985048076568148
30
0
41
1
10
13.7143216695594
20
0.866245373383777
30
0
41
1
10
13.8350655710267
20
0.803690359731519
30
0
41
1
10
14.0781613437681
20
0.674430918281047
30
0
41
1
10
14.2000122400898
20
0.608283687322569
30
0
41
1
10
14.4419569729084
20
0.473483183542896
30
0
41
1
10
14.5621649838749
20
0.404337457803564
30
0
41
1
10
14.8024481493585
20
0.264916126287744
30
0
41
1
10
14.9226846433285
20
0.194921102318432
30
0
41
1
10
15.1630948174035
20
0.0539464920372268
30
0
41
1
10
15.2830445040732
20
-0.0174243557734712
30
0
41
1
10
15.5236518403678
20
-0.159842993611932
30
0
41
1
10
15.6445102190649
20
-0.230535809733794
30
0
41
1
10
15.8872718918589
20
-0.37100382839472
30
0
41
1
10
16.0091922356588
20
-0.441354800915065
30
0
41
1
10
16.2512211766323
20
-0.578262597845168
30
0
41
1
10
16.3719468748661
20
-0.644662262011934
30
0
41
1
10
16.7334294481236
20
-0.837707888145559
30
0
41
1
10
16.972450713306
20
-0.959672848615185
30
0
41
1
10
17.3336182301881
20
-1.124386614375
30
0
41
1
10
17.4540669361497
20
-1.17679734280318
30
0
41
1
10
17.695621474633
20
-1.27574918296506
30
0
41
1
10
17.8174103464747
20
-1.32208897338683
30
0
41
1
10
18.1822237547318
20
-1.44925457407197
30
0
41
1
10
18.4221790432815
20
-1.51929519450417
30
0
41
1
10
18.7828269686621
20
-1.59835047327968
30
0
41
1
10
18.9029117507592
20
-1.62060368335258
30
0
41
1
10
19.1428721093791
20
-1.65670142470816
30
0
41
1
10
19.2630173588839
20
-1.67039789773662
30
0
41
1
10
19.5043263179971
20
-1.68880987910811
30
0
41
1
10
19.6252747975889
20
-1.6936308658122
30
0
41
1
10
19.7465814260173
20
-1.69388480009914
30
0
0
SPLINE
5
C0
100
AcDbEntity
8
1
62
256
6
ByLayer
370
18
48
1
60
0
100
AcDbSpline
70
4
71
3
72
18
73
14
40
0
40
0
40
0
40
0
40
0.11077331793219
40
0.11077331793219
40
0.237805701084734
40
0.237805701084734
40
0.364838084237278
40
0.364838084237278
40
0.491870467389822
40
0.491870467389822
40
0.745935233694911
40
0.745935233694911
40
1
40
1
40
1
40
1
41
1
10
26.6644286935498
20
1.266686878184
30
0
41
1
10
26.7690209216135
20
1.30813079828576
30
0
41
1
10
26.8738741491619
20
1.34689032211941
30
0
41
1
10
27.0995704469207
20
1.42432916009477
30
0
41
1
10
27.2202471417701
20
1.46239980938472
30
0
41
1
10
27.4626961658252
20
1.53084750669098
30
0
41
1
10
27.5845030896853
20
1.56093815607488
30
0
41
1
10
27.8274127010703
20
1.61232889707588
30
0
41
1
10
27.948546612257
20
1.63386830914126
30
0
41
1
10
28.3119620338603
20
1.68525346069953
30
0
41
1
10
28.5560887526779
20
1.70142732400458
30
0
41
1
10
29.0389562312416
20
1.69725597591406
30
0
41
1
10
29.2805812579286
20
1.67718725348359
30
0
41
1
10
29.5225471168126
20
1.63904781310399
30
0
0
SPLINE
5
C1
100
AcDbEntity
8
1
62
256
6
ByLayer
370
18
48
1
60
0
100
AcDbSpline
70
4
71
3
72
62
73
58
40
0
40
0
40
0
40
0
40
0.0244223743057933
40
0.0244223743057933
40
0.0860177747777553
40
0.0860177747777553
40
0.116815475013736
40
0.116815475013736
40
0.147613175249717
40
0.147613175249717
40
0.209208575721681
40
0.209208575721681
40
0.270803976193644
40
0.270803976193644
40
0.301601676429625
40
0.301601676429625
40
0.332399376665607
40
0.332399376665607
40
0.363197076901589
40
0.363197076901589
40
0.393994777137571
40
0.393994777137571
40
0.424792477373552
40
0.424792477373552
40
0.455590177609534
40
0.455590177609534
40
0.486387877845516
40
0.486387877845516
40
0.517185578081497
40
0.517185578081497
40
0.547983278317479
40
0.547983278317479
40
0.57878097855346
40
0.57878097855346
40
0.609578678789442
40
0.609578678789442
40
0.640376379025424
40
0.640376379025424
40
0.671174079261405
40
0.671174079261405
40
0.701971779497387
40
0.701971779497387
40
0.763567179969352
40
0.763567179969352
40
0.794364880205334
40
0.794364880205334
40
0.825162580441317
40
0.825162580441317
40
0.855960280677299
40
0.855960280677299
40
0.886757980913281
40
0.886757980913281
40
0.917555681149264
40
0.917555681149264
40
0.948353381385246
40
0.948353381385246
40
1
40
1
40
1
40
1
41
1
10
6.75856270942774
20
1.60184360802398
30
0
41
1
10
6.84733233565541
20
1.60192147256015
30
0
41
1
10
6.93600706839305
20
1.59972991932915
30
0
41
1
10
7.24860118954677
20
1.58341624708783
30
0
41
1
10
7.47356551090354
20
1.55700356445931
30
0
41
1
10
7.80938102461025
20
1.49695464629852
30
0
41
1
10
7.92120267994193
20
1.47315445545704
30
0
41
1
10
8.14517135536039
20
1.41916091109636
30
0
41
1
10
8.25743697482773
20
1.38932132064829
30
0
41
1
10
8.59416852998589
20
1.28938156409148
30
0
41
1
10
8.81741105130476
20
1.20919593084125
30
0
41
1
10
9.2655851914738
20
1.03139576672012
30
0
41
1
10
9.48995731202237
20
0.929816787170495
30
0
41
1
10
9.82587879726222
20
0.76923200185027
30
0
41
1
10
9.93781757263497
20
0.713882618621625
30
0
41
1
10
10.161838106131
20
0.599069811621575
30
0
41
1
10
10.2742059971817
20
0.540049741729661
30
0
41
1
10
10.4984580042116
20
0.420374135199665
30
0
41
1
10
10.610532221036
20
0.359877094166876
30
0
41
1
10
10.8343203246704
20
0.236551434961996
30
0
41
1
10
10.9462210024685
20
0.174127204699289
30
0
41
1
10
11.1704744476007
20
0.0488143717924459
30
0
41
1
10
11.2829324028064
20
-0.0140386805098842
30
0
41
1
10
11.5070610246123
20
-0.139351559147713
30
0
41
1
10
11.6188183049986
20
-0.201924072324204
30
0
41
1
10
11.842629120231
20
-0.32558554622176
30
0
41
1
10
11.9546004496976
20
-0.386810962231976
30
0
41
1
10
12.1790175804232
20
-0.50750958965358
30
0
41
1
10
12.2911507331158
20
-0.56701739666741
30
0
41
1
10
12.5149655120437
20
-0.682474781300016
30
0
41
1
10
12.6267838332875
20
-0.738716105636371
30
0
41
1
10
12.8506780337091
20
-0.847893832391208
30
0
41
1
10
12.9626327462885
20
-0.901040845707968
30
0
41
1
10
13.1869709144555
20
-1.00221960771952
30
0
41
1
10
13.299005439206
20
-1.05031766238952
30
0
41
1
10
13.522942068107
20
-1.14202452854582
30
0
41
1
10
13.6349397920253
20
-1.18587988883792
30
0
41
1
10
13.8587831473093
20
-1.26741231983576
30
0
41
1
10
13.9709826143612
20
-1.30464836458606
30
0
41
1
10
14.1952600903923
20
-1.37366107845651
30
0
41
1
10
14.3070854277746
20
-1.40520508873359
30
0
41
1
10
14.6415065108688
20
-1.49130887291514
30
0
41
1
10
14.8628569252922
20
-1.5330513166648
30
0
41
1
10
15.1956855686456
20
-1.57730326766327
30
0
41
1
10
15.3065497706888
20
-1.58863339881563
30
0
41
1
10
15.5288778016788
20
-1.603176199318
30
0
41
1
10
15.6402880462773
20
-1.60662839887996
30
0
41
1
10
15.8639813866423
20
-1.60735288835701
30
0
41
1
10
15.976407163115
20
-1.60437377906376
30
0
41
1
10
16.2004812714473
20
-1.58989438740716
30
0
41
1
10
16.3123169661643
20
-1.57852117325967
30
0
41
1
10
16.5360965928591
20
-1.54960319406496
30
0
41
1
10
16.6480474920975
20
-1.53219759528994
30
0
41
1
10
16.872030240515
20
-1.48960917058236
30
0
41
1
10
16.9843759795188
20
-1.46423598283036
30
0
41
1
10
17.2843790889127
20
-1.38794419178495
30
0
41
1
10
17.471885090427
20
-1.33207415565784
30
0
41
1
10
17.6596928853095
20
-1.26722163129648
30
0
0
SPLINE
5
C2
100
AcDbEntity
8
1
62
256
6
ByLayer
370
18
48
1
60
0
100
AcDbSpline
70
4
71
3
72
18
73
14
40
0
40
0
40
0
40
0
40
0.020989677331612
40
0.020989677331612
40
0.129768602072543
40
0.129768602072543
40
0.34732645155441
40
0.34732645155441
40
0.564884301036277
40
0.564884301036277
40
0.782442150518138
40
0.782442150518138
40
1
40
1
40
1
40
1
41
1
10
24.7600329686076
20
1.6123532704232
30
0
41
1
10
24.781626108796
20
1.61229567172182
30
0
41
1
10
24.8032022957364
20
1.6120983535929
30
0
41
1
10
24.9364493506227
20
1.61003345638969
30
0
41
1
10
25.0476341979516
20
1.60457546296917
30
0
41
1
10
25.3808033106926
20
1.5778505817492
30
0
41
1
10
25.6022679677736
20
1.54711115762615
30
0
41
1
10
26.0456732609469
20
1.45819958930272
30
0
41
1
10
26.2680168756495
20
1.39915512423832
30
0
41
1
10
26.7161946685011
20
1.25552848436502
30
0
41
1
10
26.940228819753
20
1.17131107937638
30
0
41
1
10
27.3877177606072
20
0.984166541886424
30
0
41
1
10
27.6123328332269
20
0.880165103641616
30
0
41
1
10
27.8362190333474
20
0.769559541964213
30
0
0
SPLINE
5
C3
100
AcDbEntity
8
1
62
256
6
ByLayer
370
18
48
1
60
0
100
AcDbSpline
70
4
71
3
72
54
73
50
40
0
40
0
40
0
40
0
40
0.062500000000017
40
0.062500000000017
40
0.125000000000034
40
0.125000000000034
40
0.187500000000051
40
0.187500000000051
40
0.250000000000068
40
0.250000000000068
40
0.281250000000078
40
0.281250000000078
40
0.312500000000087
40
0.312500000000087
40
0.343750000000097
40
0.343750000000097
40
0.359375000000101
40
0.359375000000101
40
0.375000000000106
40
0.375000000000106
40
0.39062500000011
40
0.39062500000011
40
0.406250000000114
40
0.406250000000114
40
0.437500000000125
40
0.437500000000125
40
0.468750000000135
40
0.468750000000135
40
0.500000000000145
40
0.500000000000145
40
0.507812500000145
40
0.507812500000145
40
0.511718750000145
40
0.511718750000145
40
0.515625000000145
40
0.515625000000145
40
0.523437500000142
40
0.523437500000142
40
0.531250000000139
40
0.531250000000139
40
0.562500000000129
40
0.562500000000129
40
0.625000000000111
40
0.625000000000111
40
0.750000000000074
40
0.750000000000074
40
0.875000000000037
40
0.875000000000037
40
1
40
1
40
1
40
1
41
1
10
4.58595777176106
20
-1.19039643403747
30
0
41
1
10
4.48015119522722
20
-1.14244765076089
30
0
41
1
10
4.3746033297611
20
-1.09109450602114
30
0
41
1
10
4.16416164664395
20
-0.980794135716053
30
0
41
1
10
4.05899016053854
20
-0.921706866013835
30
0
41
1
10
3.85098455415468
20
-0.794816649607526
30
0
41
1
10
3.74894923957299
20
-0.727572101378513
30
0
41
1
10
3.55069176588256
20
-0.582742865614648
30
0
41
1
10
3.45435703702225
20
-0.50532575935415
30
0
41
1
10
3.31767176633565
20
-0.376341837021812
30
0
41
1
10
3.2732155223614
20
-0.330917876507471
30
0
41
1
10
3.18949369246681
20
-0.234713887450084
30
0
41
1
10
3.1504761340988
20
-0.184337178848807
30
0
41
1
10
3.08141302634255
20
-0.0765015921412839
30
0
41
1
10
3.05131937789892
20
-0.0187665049820396
30
0
41
1
10
3.01989527663193
20
0.0721259745024838
30
0
41
1
10
3.01160439977656
20
0.103613918040168
30
0
41
1
10
3.00120288755795
20
0.166964106459687
30
0
41
1
10
2.99903811184126
20
0.198742393031097
30
0
41
1
10
3.00175092337423
20
0.262561029228124
30
0
41
1
10
3.0067382782178
20
0.294378964602203
30
0
41
1
10
3.02343821774102
20
0.355004669714162
30
0
41
1
10
3.03528393286271
20
0.384471260531768
30
0
41
1
10
3.07934726549459
20
0.468175715335803
30
0
41
1
10
3.11909875760355
20
0.516774916101525
30
0
41
1
10
3.2100286870994
20
0.602847226678676
30
0
41
1
10
3.26013374861404
20
0.639508996929948
30
0
41
1
10
3.36609972501026
20
0.705152557139826
30
0
41
1
10
3.42218946660594
20
0.73407617345984
30
0
41
1
10
3.49388365067992
20
0.766325044452969
30
0
41
1
10
3.50831638256375
20
0.772584978346117
30
0
41
1
10
3.53009565246657
20
0.781713864156472
30
0
41
1
10
3.53724540727728
20
0.784948030494377
30
0
41
1
10
3.55248027389717
20
0.789739524655431
30
0
41
1
10
3.56075605292102
20
0.79126446005381
30
0
41
1
10
3.5847718622083
20
0.79239465266329
30
0
41
1
10
3.60040884589347
20
0.789826294197411
30
0
41
1
10
3.63189829433745
20
0.78660193253296
30
0
41
1
10
3.64763724458737
20
0.784936945717561
30
0
41
1
10
3.72630322680959
20
0.776347503663317
30
0
41
1
10
3.78915961312038
20
0.768627810561924
30
0
41
1
10
3.97713152786295
20
0.742958877749174
30
0
41
1
10
4.10174914897215
20
0.722486010178017
30
0
41
1
10
4.47361640521262
20
0.650933008271977
30
0
41
1
10
4.718742033502
20
0.589447306323706
30
0
41
1
10
5.19823246038061
20
0.441851534465741
30
0
41
1
10
5.4333910037509
20
0.355485278592397
30
0
41
1
10
5.89705078045432
20
0.162343825633485
30
0
41
1
10
6.12553693940964
20
0.055516973336978
30
0
41
1
10
6.35244976699488
20
-0.0576815692229502
30
0
0
SPLINE
5
C4
100
AcDbEntity
8
1
62
256
6
ByLayer
370
18
48
1
60
0
100
AcDbSpline
70
4
71
3
72
10
73
6
40
0
40
0
40
0
40
0
40
0.5
40
0.5
40
1
40
1
40
1
40
1
41
1
10
29.9964039908745
20
0.108012810713973
30
0
41
1
10
29.991341183291
20
0.184489093505363
30
0
41
1
10
29.9809531748495
20
0.261633932310133
30
0
41
1
10
29.9506359538817
20
0.421150449369975
30
0
41
1
10
29.9305978738115
20
0.503999965781645
30
0
41
1
10
29.9067804417001
20
0.590207852933418
30
0
0
SPLINE
5
C5
100
AcDbEntity
8
1
62
256
6
ByLayer
370
18
48
1
60
0
100
AcDbSpline
70
4
71
3
72
12
73
8
40
0
40
0
40
0
40
0
40
0.25
40
0.25
40
0.5
40
0.5
40
1
40
1
40
1
40
1
41
1
10
29.2888250683239
20
0.404301873269304
30
0
41
1
10
29.2892017944503
20
0.414129322559887
30
0
41
1
10
29.2924190801418
20
0.423819805129057
30
0
41
1
10
29.3038347208663
20
0.440407749482915
30
0
41
1
10
29.3119965384556
20
0.447313274238042
30
0
41
1
10
29.3390976507363
20
0.462525256899312
30
0
41
1
10
29.3601613235717
20
0.466030115597135
30
0
41
1
10
29.380822572765
20
0.465678125862297
30
0
0
SPLINE
5
C6
100
AcDbEntity
8
1
62
256
6
ByLayer
370
18
48
1
60
0
100
AcDbSpline
70
4
71
3
72
8
73
4
40
0
40
0
40
0
40
0
40
1
40
1
40
1
40
1
41
1
10
4.72268010821836
20
1.08216986623847
30
0
41
1
10
4.6915971348177
20
1.09614860943032
30
0
41
1
10
4.66056382039756
20
1.11003525216734
30
0
41
1
10
4.63341734726711
20
1.127889058596
30
0
0
SPLINE
5
C7
100
AcDbEntity
8
1
62
256
6
ByLayer
370
18
48
1
60
0
100
AcDbSpline
70
4
71
3
72
8
73
4
40
0
40
0
40
0
40
0
40
1
40
1
40
1
40
1
41
1
10
29.9964039908745
20
0.108012810713973
30
0
41
1
10
29.9963773397889
20
0.0974383503783827
30
0
41
1
10
29.9962175308746
20
0.0868698801025687
30
0
41
1
10
29.9959184964246
20
0.0763076728403291
30
0
0
SPLINE
5
C8
100
AcDbEntity
8
1
62
256
6
ByLayer
370
13
48
1
60
0
100
AcDbSpline
70
4
71
3
72
8
73
4
40
0
40
0
40
0
40
0
40
1
40
1
40
1
40
1
41
1
10
4.58520988231987
20
1.19690288497313
30
0
41
1
10
4.60188889481594
20
1.17629798824794
30
0
41
1
10
4.62133915012441
20
1.1584261317503
30
0
41
1
10
4.64398516163803
20
1.14366033086333
30
0
0
SPLINE
5
C9
100
AcDbEntity
8
1
62
256
6
ByLayer
370
18
48
1
60
0
100
AcDbSpline
70
4
71
3
72
30
73
26
40
0
40
0
40
0
40
0
40
0.0624999999999981
40
0.0624999999999981
40
0.124999999999996
40
0.124999999999996
40
0.187499999999994
40
0.187499999999994
40
0.249999999999992
40
0.249999999999992
40
0.31249999999999
40
0.31249999999999
40
0.374999999999988
40
0.374999999999988
40
0.499999999999977
40
0.499999999999977
40
0.562499999999976
40
0.562499999999976
40
0.624999999999974
40
0.624999999999974
40
0.749999999999983
40
0.749999999999983
40
0.874999999999991
40
0.874999999999991
40
1
40
1
40
1
40
1
41
1
10
27.8362190333475
20
0.769559541964185
30
0
41
1
10
27.8239853210663
20
0.722118196780713
30
0
41
1
10
27.8152187672237
20
0.672840829209349
30
0
41
1
10
27.8052623285414
20
0.570273893827334
30
0
41
1
10
27.8041970534762
20
0.517345229051415
30
0
41
1
10
27.8098151373252
20
0.411592520284216
30
0
41
1
10
27.8164413499085
20
0.358293512769649
30
0
41
1
10
27.83711454239
20
0.2508738392863
30
0
41
1
10
27.8512112558003
20
0.196873161684522
30
0
41
1
10
27.8853180027753
20
0.0916615748769516
30
0
41
1
10
27.9054087057409
20
0.0399700307020225
30
0
41
1
10
27.9510198243168
20
-0.0617786908021571
30
0
41
1
10
27.9764975764799
20
-0.111649333204554
30
0
41
1
10
28.0581542873106
20
-0.255543950233545
30
0
41
1
10
28.1200610396066
20
-0.345263427650565
30
0
41
1
10
28.2215357040042
20
-0.472679842319025
30
0
41
1
10
28.2568536293751
20
-0.513948358973465
30
0
41
1
10
28.3288772991434
20
-0.592968152123149
30
0
41
1
10
28.3657357874931
20
-0.630920068247093
30
0
41
1
10
28.4785209100813
20
-0.740709686390716
30
0
41
1
10
28.5566389107299
20
-0.80851491684254
30
0
41
1
10
28.7176411780357
20
-0.935354670996929
30
0
41
1
10
28.8008486772144
20
-0.994559042698626
30
0
41
1
10
28.9694646214143
20
-1.10394577294389
30
0
41
1
10
29.0549408618073
20
-1.15423168032012
30
0
41
1
10
29.1414556426714
20
-1.20059954654755
30
0
0
SPLINE
5
CA
100
AcDbEntity
8
1
62
256
6
ByLayer
370
13
48
1
60
0
100
AcDbSpline
70
4
71
3
72
10
73
6
40
0
40
0
40
0
40
0
40
0.5
40
0.5
40
1
40
1
40
1
40
1
41
1
10
4.64398516163803
20
1.14366033086333
30
0
41
1
10
4.66367130511065
20
1.13082444254042
30
0
41
1
10
4.68494031294341
20
1.11957862763191
30
0
41
1
10
4.72830782831039
20
1.10106736266121
30
0
41
1
10
4.75046258963064
20
1.09370575522465
30
0
41
1
10
4.77305831714722
20
1.08818444580137
30
0
0
SPLINE
5
CB
100
AcDbEntity
8
1
62
256
6
ByLayer
370
13
48
1
60
0
100
AcDbSpline
70
4
71
3
72
18
73
14
40
0
40
0
40
0
40
0
40
0.234933497115858
40
0.234933497115858
40
0.352400245673787
40
0.352400245673787
40
0.469866994231716
40
0.469866994231716
40
0.704800491347575
40
0.704800491347575
40
0.939733988463433
40
0.939733988463433
40
1
40
1
40
1
40
1
41
1
10
4.77305831714722
20
1.08818444580137
30
0
41
1
10
4.7731125486292
20
1.16450407251148
30
0
41
1
10
4.77315867353835
20
1.23302532572421
30
0
41
1
10
4.77322051786291
20
1.32433010613579
30
0
41
1
10
4.77323999063225
20
1.35296951202653
30
0
41
1
10
4.77327660228261
20
1.40544834982862
30
0
41
1
10
4.77329376592814
20
1.42932794391359
30
0
41
1
10
4.77334300916016
20
1.49411226901023
30
0
41
1
10
4.77337288495124
20
1.52822456351538
30
0
41
1
10
4.77343158432265
20
1.57794382052023
30
0
41
1
10
4.7734604010225
20
1.5933156471755
30
0
41
1
10
4.77349675037087
20
1.59975407956719
30
0
41
1
10
4.77350417963882
20
1.60040082675238
30
0
41
1
10
4.77351161669847
20
1.60038621441353
30
0
0
SPLINE
5
CC
100
AcDbEntity
8
1
62
256
6
ByLayer
370
18
48
1
60
0
100
AcDbSpline
70
4
71
3
72
10
73
6
40
0
40
0
40
0
40
0
40
0.5
40
0.5
40
1
40
1
40
1
40
1
41
1
10
29.5225471168126
20
-1.63904781310424
30
0
41
1
10
29.5100550574063
20
-1.65335958239055
30
0
41
1
10
29.4972524310355
20
-1.66530054510531
30
0
41
1
10
29.4714685141951
20
-1.68390023772451
30
0
41
1
10
29.4584851424293
20
-1.69059842641957
30
0
41
1
10
29.4453722280471
20
-1.6947685834156
30
0
0
SPLINE
5
CD
100
AcDbEntity
8
1
62
256
6
ByLayer
370
18
48
1
60
0
100
AcDbSpline
70
4
71
3
72
8
73
4
40
0
40
0
40
0
40
0
40
1
40
1
40
1
40
1
41
1
10
29.9964039908745
20
-0.10801281071403
30
0
41
1
10
29.9963773455327
20
-0.097440629372386
30
0
41
1
10
29.9962175963148
20
-0.0868721915183812
30
0
41
1
10
29.9959184964246
20
-0.0763076728403291
30
0
0
SPLINE
5
CE
100
AcDbEntity
8
1
62
256
6
ByLayer
370
18
48
1
60
0
100
AcDbSpline
70
4
71
3
72
20
73
16
40
0
40
0
40
0
40
0
40
0.125
40
0.125
40
0.25
40
0.25
40
0.375
40
0.375
40
0.5
40
0.5
40
0.75
40
0.75
40
0.875
40
0.875
40
1
40
1
40
1
40
1
41
1
10
29.7210214794963
20
-0.414776728581813
30
0
41
1
10
29.7244973998305
20
-0.436858122132435
30
0
41
1
10
29.7244445166691
20
-0.462736766558635
30
0
41
1
10
29.7169153008035
20
-0.520395338583825
30
0
41
1
10
29.7094780986895
20
-0.551284404443493
30
0
41
1
10
29.6897881437093
20
-0.610854005575845
30
0
41
1
10
29.677551143567
20
-0.639640375676521
30
0
41
1
10
29.6510134034153
20
-0.691033577398628
30
0
41
1
10
29.6368413491447
20
-0.713520377596382
30
0
41
1
10
29.5932425907191
20
-0.770407402923468
30
0
41
1
10
29.5638840131451
20
-0.792927014246118
30
0
41
1
10
29.5226938466034
20
-0.803453425835727
30
0
41
1
10
29.5095681237722
20
-0.803012979530621
30
0
41
1
10
29.4850848325983
20
-0.79427530664438
30
0
41
1
10
29.4735366339406
20
-0.785803492049126
30
0
41
1
10
29.4635342107823
20
-0.773475188803047
30
0
0
SPLINE
5
CF
100
AcDbEntity
8
1
62
256
6
ByLayer
370
18
48
1
60
0
100
AcDbSpline
70
4
71
3
72
8
73
4
40
0
40
0
40
0
40
0
40
1
40
1
40
1
40
1
41
1
10
29.995918496424
20
-0.0763076728414376
30
0
41
1
10
29.9955449966723
20
-0.0631152738033336
30
0
41
1
10
29.9970222787682
20
-0.0466781301823289
30
0
41
1
10
29.9997347318817
20
-0.0292577108884586
30
0
0
SPLINE
5
D0
100
AcDbEntity
8
1
62
256
6
ByLayer
370
18
48
1
60
0
100
AcDbSpline
70
4
71
3
72
17
73
13
40
0
40
0
40
0
40
0
40
0.250618235252795
40
0.250618235252795
40
0.375927352879193
40
0.375927352879193
40
0.501236470505591
40
0.626545588131988
40
0.626545588131988
40
0.751854705758386
40
0.751854705758386
40
1
40
1
40
1
40
1
41
1
10
4.58520988231999
20
1.19690288497338
30
0
41
1
10
4.58527107842394
20
1.2744256843408
30
0
41
1
10
4.58532235674252
20
1.34361705928629
30
0
41
1
10
4.58538938015295
20
1.43489161072591
30
0
41
1
10
4.58541013113864
20
1.46330350029552
30
0
41
1
10
4.58544842202281
20
1.514840974539
30
0
41
1
10
4.58548368700733
20
1.56134406747066
30
0
41
1
10
4.58551471829261
20
1.59793711138906
30
0
41
1
10
4.58554443401391
20
1.62951103563393
30
0
41
1
10
4.58555870043131
20
1.64282809319494
30
0
41
1
10
4.58559960403892
20
1.67423005858399
30
0
41
1
10
4.58562489104148
20
1.68451724367446
30
0
41
1
10
4.58565050570627
20
1.68441369307001
30
0
0
SPLINE
5
D1
100
AcDbEntity
8
1
62
256
6
ByLayer
370
18
48
1
60
0
100
AcDbSpline
70
4
71
3
72
10
73
6
40
0
40
0
40
0
40
0
40
0.5
40
0.5
40
1
40
1
40
1
40
1
41
1
10
29.5225471168126
20
-1.63904781310393
30
0
41
1
10
29.5842751049674
20
-1.46269151849057
30
0
41
1
10
29.6475034944215
20
-1.2873722682757
30
0
41
1
10
29.7759087888341
20
-0.937980001916515
30
0
41
1
10
29.8410870817989
20
-0.763914052513371
30
0
41
1
10
29.9067804416998
20
-0.590207852933958
30
0
0
SPLINE
5
D2
100
AcDbEntity
8
1
62
256
6
ByLayer
370
18
48
1
60
0
100
AcDbSpline
70
4
71
3
72
30
73
26
40
0
40
0
40
0
40
0
40
0.0823248771312791
40
0.0823248771312791
40
0.164649754262558
40
0.164649754262558
40
0.329299508525116
40
0.329299508525116
40
0.411624385656395
40
0.411624385656395
40
0.493949262787674
40
0.493949262787674
40
0.576274139918953
40
0.576274139918953
40
0.658599017050232
40
0.658599017050232
40
0.740923894181511
40
0.740923894181511
40
0.82324877131279
40
0.82324877131279
40
0.905573648444069
40
0.905573648444069
40
0.987898525575349
40
0.987898525575349
40
1
40
1
40
1
40
1
41
1
10
6.35244976699462
20
-0.0576815692228081
30
0
41
1
10
6.47381332951744
20
-0.130351924935837
30
0
41
1
10
6.59514427214674
20
-0.201321544097453
30
0
41
1
10
6.83720997277902
20
-0.341078893533734
30
0
41
1
10
6.9577567742389
20
-0.410182438952944
30
0
41
1
10
7.31821862067147
20
-0.614637953668705
30
0
41
1
10
7.55881864201885
20
-0.744113927970119
30
0
41
1
10
7.92034815170729
20
-0.927689223281732
30
0
41
1
10
8.04123801702048
20
-0.986663912313134
30
0
41
1
10
8.28463805564832
20
-1.09890909830858
30
0
41
1
10
8.40668739139966
20
-1.1523808429113
30
0
41
1
10
8.64850030237631
20
-1.2527813079148
30
0
41
1
10
8.76893008166198
20
-1.29954445331296
30
0
41
1
10
9.00987881827282
20
-1.38527539777002
30
0
41
1
10
9.13019944100006
20
-1.42449184565049
30
0
41
1
10
9.37027863073294
20
-1.4957699743004
30
0
41
1
10
9.49026635286481
20
-1.52758692746605
30
0
41
1
10
9.73136539620515
20
-1.58269407992321
30
0
41
1
10
9.85230655161314
20
-1.60615227280775
30
0
41
1
10
10.0945804217593
20
-1.64483702444483
30
0
41
1
10
10.2164725655217
20
-1.65992170049952
30
0
41
1
10
10.4592329266496
20
-1.68068201691221
30
0
41
1
10
10.5802479107772
20
-1.68653642219235
30
0
41
1
10
10.7183453897911
20
-1.68814775826067
30
0
41
1
10
10.7360332368943
20
-1.68825643315293
30
0
41
1
10
10.7537130418144
20
-1.68826770528295
30
0
0
SPLINE
5
D3
100
AcDbEntity
8
1
62
256
6
ByLayer
370
18
48
1
60
0
100
AcDbSpline
70
4
71
3
72
64
73
60
40
0
40
0
40
0
40
0
40
0.0255806691200579
40
0.0255806691200579
40
0.0908267384817119
40
0.0908267384817119
40
0.123449773162538
40
0.123449773162538
40
0.156072807843364
40
0.156072807843364
40
0.188695842524191
40
0.188695842524191
40
0.221318877205017
40
0.221318877205017
40
0.253941911885843
40
0.253941911885843
40
0.286564946566669
40
0.286564946566669
40
0.319187981247496
40
0.319187981247496
40
0.351811015928322
40
0.351811015928322
40
0.384434050609148
40
0.384434050609148
40
0.417057085289975
40
0.417057085289975
40
0.449680119970801
40
0.449680119970801
40
0.482303154651627
40
0.482303154651627
40
0.514926189332454
40
0.514926189332454
40
0.54754922401328
40
0.54754922401328
40
0.580172258694106
40
0.580172258694106
40
0.612795293374932
40
0.612795293374932
40
0.645418328055759
40
0.645418328055759
40
0.678041362736585
40
0.678041362736585
40
0.710664397417411
40
0.710664397417411
40
0.743287432098238
40
0.743287432098238
40
0.775910466779064
40
0.775910466779064
40
0.80853350145989
40
0.80853350145989
40
0.841156536140716
40
0.841156536140716
40
0.873779570821543
40
0.873779570821543
40
0.906402605502369
40
0.906402605502369
40
0.939025640183195
40
0.939025640183195
40
1
40
1
40
1
40
1
41
1
10
17.6531905092154
20
1.25786787148564
30
0
41
1
10
17.7481942408986
20
1.2955718827042
30
0
41
1
10
17.8436612190821
20
1.3312394264899
30
0
41
1
10
18.1822237547318
20
1.449254574072
30
0
41
1
10
18.4221790432815
20
1.51929519450417
30
0
41
1
10
18.7828269686621
20
1.59835047327968
30
0
41
1
10
18.9029117507592
20
1.62060368335258
30
0
41
1
10
19.1428721093791
20
1.65670142470816
30
0
41
1
10
19.2630173588839
20
1.67039789773662
30
0
41
1
10
19.504568036146
20
1.68882832231083
30
0
41
1
10
19.6257598994723
20
1.69365018423002
30
0
41
1
10
19.868862571239
20
1.69412236120246
30
0
41
1
10
19.9899736726421
20
1.68971137704523
30
0
41
1
10
20.2316501279692
20
1.67211843512112
30
0
41
1
10
20.3521620340482
20
1.65894634846319
30
0
41
1
10
20.5922145056173
20
1.62373031306137
30
0
41
1
10
20.7119662234345
20
1.60172190177403
30
0
41
1
10
20.9522153859855
20
1.54973586779099
30
0
41
1
10
21.0725597048649
20
1.51972129531566
30
0
41
1
10
21.313222379912
20
1.45111311297626
30
0
41
1
10
21.4337016022832
20
1.41258686766685
30
0
41
1
10
21.6764186868691
20
1.32837703776326
30
0
41
1
10
21.7985949001829
20
1.28258704163298
30
0
41
1
10
22.040449987717
20
1.18434226744586
30
0
41
1
10
22.1606639594877
20
1.13182085211903
30
0
41
1
10
22.4012174063952
20
1.02208937009246
30
0
41
1
10
22.5214907405602
20
0.964832160977636
30
0
41
1
10
22.7614436705689
20
0.844723061660545
30
0
41
1
10
22.8811447771257
20
0.781860378577022
30
0
41
1
10
23.1215972710246
20
0.652915992391655
30
0
41
1
10
23.2423448976925
20
0.586871007738921
30
0
41
1
10
23.4843192075238
20
0.450636830698784
30
0
41
1
10
23.6059283331667
20
0.380046879231458
30
0
41
1
10
23.8484031326446
20
0.238741241084426
30
0
41
1
10
23.9693694505154
20
0.168104389929965
30
0
41
1
10
24.2102520922084
20
0.0259455295979762
30
0
41
1
10
24.3300451636948
20
-0.0457828400029427
30
0
41
1
10
24.5698974742078
20
-0.18783625431638
30
0
41
1
10
24.6900573500242
20
-0.257996000122546
30
0
41
1
10
24.9304125477972
20
-0.397326636848845
30
0
41
1
10
25.0504318446839
20
-0.466788821972784
30
0
41
1
10
25.2915962327448
20
-0.602852050300328
30
0
41
1
10
25.4130268671403
20
-0.669286588034453
30
0
41
1
10
25.6564576694599
20
-0.798948880068906
30
0
41
1
10
25.7772183837455
20
-0.86195446474693
30
0
41
1
10
26.0181305092992
20
-0.982356689838895
30
0
41
1
10
26.1384719811484
20
-1.03951201112758
30
0
41
1
10
26.3787936364932
20
-1.14810769246421
30
0
41
1
10
26.4985334128014
20
-1.19983367101017
30
0
41
1
10
26.7382466853681
20
-1.29669482551012
30
0
41
1
10
26.8584430185854
20
-1.34159573451495
30
0
41
1
10
27.0995704469206
20
-1.42432916009477
30
0
41
1
10
27.2202471417701
20
-1.46239980938469
30
0
41
1
10
27.4626961658252
20
-1.53084750669098
30
0
41
1
10
27.5845030896853
20
-1.56093815607488
30
0
41
1
10
27.8274127010703
20
-1.61232889707588
30
0
41
1
10
27.948546612257
20
-1.63386830914123
30
0
41
1
10
28.2960999787164
20
-1.68301064418944
30
0
41
1
10
28.5241303594601
20
-1.69923198293668
30
0
41
1
10
28.7500685881463
20
-1.69951654736514
30
0
0
SPLINE
5
D4
100
AcDbEntity
8
1
62
256
6
ByLayer
370
18
48
1
60
0
100
AcDbSpline
70
4
71
3
72
10
73
6
40
0
40
0
40
0
40
0
40
0.5
40
0.5
40
1
40
1
40
1
40
1
41
1
10
4.63341734726703
20
1.12788905859603
30
0
41
1
10
4.61960963725767
20
1.13697017128959
30
0
41
1
10
4.60792057574213
20
1.14741050901733
30
0
41
1
10
4.59060000524644
20
1.17097838655795
30
0
41
1
10
4.58519958805377
20
1.18386218049017
30
0
41
1
10
4.58520988231959
20
1.19690288497333
30
0
0
SPLINE
5
D5
100
AcDbEntity
8
1
62
256
6
ByLayer
370
18
48
1
60
0
100
AcDbSpline
70
4
71
3
72
10
73
6
40
0
40
0
40
0
40
0
40
0.5
40
0.5
40
1
40
1
40
1
40
1
41
1
10
29.5225471168083
20
1.63904781311661
30
0
41
1
10
29.5838383598777
20
1.46393929519621
30
0
41
1
10
29.6469858141285
20
1.2887936870319
30
0
41
1
10
29.7756861481238
20
0.938573078461758
30
0
41
1
10
29.8410429093388
20
0.764030853209789
30
0
41
1
10
29.9067804417001
20
0.590207852933389
30
0
0
SPLINE
5
D6
100
AcDbEntity
8
1
62
256
6
ByLayer
370
18
48
1
60
0
100
AcDbSpline
70
4
71
3
72
10
73
6
40
0
40
0
40
0
40
0
40
0.910947874699081
40
0.910947874699081
40
1
40
1
40
1
40
1
41
1
10
6.3524497669946
20
-0.0576815692256503
30
0
41
1
10
6.3524497669946
20
-0.0492242771488804
30
0
41
1
10
6.3524497669946
20
-0.0533867207581977
30
0
41
1
10
6.35244976699457
20
-0.0709022231567076
30
0
41
1
10
6.3524497669946
20
-0.0725717939423305
30
0
41
1
10
6.3524497669946
20
-0.074349675583619
30
0
0
SPLINE
5
D7
100
AcDbEntity
8
1
62
256
6
ByLayer
370
18
48
1
60
0
100
AcDbSpline
70
4
71
3
72
28
73
24
40
0
40
0
40
0
40
0
40
0.053031549073922
40
0.053031549073922
40
0.26747756109063
40
0.26747756109063
40
0.374700567098985
40
0.374700567098985
40
0.401506318601073
40
0.414909194352117
40
0.414909194352117
40
0.428312070103162
40
0.428312070103162
40
0.441714945854206
40
0.441714945854206
40
0.45511782160525
40
0.481923573107339
40
0.481923573107339
40
0.696369585124045
40
0.696369585124045
40
0.910815597140752
40
0.910815597140752
40
1
40
1
40
1
40
1
41
1
10
6.3524497669946
20
-0.13116751467328
30
0
41
1
10
6.3524497669946
20
-0.1403007994505
30
0
41
1
10
6.3524497669946
20
-0.150178826455487
30
0
41
1
10
6.3524497669946
20
-0.203600965860886
30
0
41
1
10
6.3524497669946
20
-0.258266674753685
30
0
41
1
10
6.3524497669946
20
-0.357289883784489
30
0
41
1
10
6.3524497669946
20
-0.392869418196625
30
0
41
1
10
6.3524497669946
20
-0.440469591009105
30
0
41
1
10
6.3524497669946
20
-0.454987651533145
30
0
41
1
10
6.3524497669946
20
-0.469841199037688
30
0
41
1
10
6.3524497669946
20
-0.479818490227245
30
0
41
1
10
6.3524497669946
20
-0.484350487873343
30
0
41
1
10
6.3524497669946
20
-0.497266717136256
30
0
41
1
10
6.35244976699465
20
-0.505519466211098
30
0
41
1
10
6.35244976699465
20
-0.522363407503263
30
0
41
1
10
6.3524497669946
20
-0.547666749528588
30
0
41
1
10
6.3524497669946
20
-0.573082872896578
30
0
41
1
10
6.3524497669946
20
-0.726035574384468
30
0
41
1
10
6.3524497669946
20
-0.86532458908323
30
0
41
1
10
6.3524497669946
20
-1.14222384486945
30
0
41
1
10
6.3524497669946
20
-1.28010667782718
30
0
41
1
10
6.3524497669946
20
-1.47441893980962
30
0
41
1
10
6.3524497669946
20
-1.53067559437776
30
0
41
1
10
6.3524497669946
20
-1.58595651467499
30
0
0
SPLINE
5
D8
100
AcDbEntity
8
1
62
256
6
ByLayer
370
18
48
1
60
0
100
AcDbSpline
70
4
71
3
72
8
73
4
40
0
40
0
40
0
40
0
40
1
40
1
40
1
40
1
41
1
10
29.9778150122395
20
-0.031845264552544
30
0
41
1
10
29.894542309111
20
-0.161882820380356
30
0
41
1
10
29.8086188664773
20
-0.289191437947238
30
0
41
1
10
29.7210214794961
20
-0.414776728583291
30
0
0
SPLINE
5
D9
100
AcDbEntity
8
1
62
256
6
ByLayer
370
18
48
1
60
0
100
AcDbSpline
70
4
71
3
72
14
73
10
40
0
40
0
40
0
40
0
40
0.25
40
0.25
40
0.5
40
0.5
40
0.75
40
0.75
40
1
40
1
40
1
40
1
41
1
10
29.4472005828388
20
-1.61488315400879
30
0
41
1
10
29.4504318735945
20
-1.61473862341515
30
0
41
1
10
29.4531468759906
20
-1.61583427814239
30
0
41
1
10
29.4572421343678
20
-1.62130384180779
30
0
41
1
10
29.4586036755516
20
-1.62571180502982
30
0
41
1
10
29.4590896746821
20
-1.6390029447235
30
0
41
1
10
29.4581408933402
20
-1.64804660920475
30
0
41
1
10
29.4535057149184
20
-1.66966548394538
30
0
41
1
10
29.4498109561473
20
-1.68224770103447
30
0
41
1
10
29.4453722280472
20
-1.69476858341531
30
0
0
SPLINE
5
DA
100
AcDbEntity
8
SK1
62
256
6
ByLayer
370
18
48
1
60
0
100
AcDbSpline
70
4
71
3
72
14
73
10
40
0
40
0
40
0
40
0
40
0.125000000000002
40
0.125000000000002
40
0.250000000000003
40
0.250000000000003
40
0.500000000000002
40
0.500000000000002
40
1
40
1
40
1
40
1
41
1
10
-35.3
20
0.271852705995286
30
0
41
1
10
-35.3
20
0.282837201264073
30
0
41
1
10
-35.3017593723636
20
0.29336768628167
30
0
41
1
10
-35.306935341198
20
0.311906775013199
30
0
41
1
10
-35.3102739075535
20
0.319943530089176
30
0
41
1
10
-35.3215583577554
20
0.341969847063893
30
0
41
1
10
-35.3303095934913
20
0.353130368597135
30
0
41
1
10
-35.3583912020529
20
0.381391733963511
30
0
41
1
10
-35.3786559544672
20
0.39234208797788
30
0
41
1
10
-35.4
20
0.397291821664226
30
0
0
SPLINE
5
DB
100
AcDbEntity
8
SK1
62
256
6
ByLayer
370
18
48
1
60
0
100
AcDbSpline
70
4
71
3
72
14
73
10
40
0
40
0
40
0
40
0
40
0.499999999999998
40
0.499999999999998
40
0.749999999999998
40
0.749999999999998
40
0.874999999999999
40
0.874999999999999
40
1
40
1
40
1
40
1
41
1
10
-35.4
20
-1.09018330019896
30
0
41
1
10
-35.3787677796885
20
-1.095107101357
30
0
41
1
10
-35.3584290958895
20
-1.09401374117712
30
0
41
1
10
-35.3303626450498
20
-1.08017691791287
30
0
41
1
10
-35.3215171954455
20
-1.07355339079916
30
0
41
1
10
-35.3102812516991
20
-1.05798140339758
30
0
41
1
10
-35.3068890218585
20
-1.05180263537767
30
0
41
1
10
-35.3017585680987
20
-1.03675932985644
30
0
41
1
10
-35.3
20
-1.02769639520403
30
0
41
1
10
-35.3
20
-1.01729239961878
30
0
0
SPLINE
5
DC
100
AcDbEntity
8
SK1
62
256
6
ByLayer
370
18
48
1
60
0
100
AcDbSpline
70
4
71
3
72
8
73
4
40
0
40
0
40
0
40
0
40
1
40
1
40
1
40
1
41
1
10
-35.9999999999999
20
-0.947637759395661
30
0
41
1
10
-35.8060560742233
20
-0.995583772322334
30
0
41
1
10
-35.6037444076865
20
-1.04293449928156
30
0
41
1
10
-35.4
20
-1.09018330019816
30
0
0
SPLINE
5
DD
100
AcDbEntity
8
SK1
62
256
6
ByLayer
370
18
48
1
60
0
100
AcDbSpline
70
4
71
3
72
8
73
4
40
0
40
0
40
0
40
0
40
1
40
1
40
1
40
1
41
1
10
-35.4
20
0.397291821664226
30
0
41
1
10
-35.6037647113639
20
0.444545331050733
30
0
41
1
10
-35.806122823311
20
0.491907850972694
30
0
41
1
10
-35.9999999999998
20
0.539837362466699
30
0
0
SPLINE
5
DE
100
AcDbEntity
8
SK1
62
256
6
ByLayer
370
18
48
1
60
0
100
AcDbSpline
70
4
71
3
72
14
73
10
40
0
40
0
40
0
40
0
40
0.124999999999999
40
0.124999999999999
40
0.249999999999998
40
0.249999999999998
40
0.5
40
0.5
40
1
40
1
40
1
40
1
41
1
10
-35.3
20
-0.271852705995315
30
0
41
1
10
-35.3
20
-0.282837201264073
30
0
41
1
10
-35.3017593723636
20
-0.293367686281698
30
0
41
1
10
-35.306935341198
20
-0.311906775013227
30
0
41
1
10
-35.3102739075535
20
-0.319943530089205
30
0
41
1
10
-35.3215583577554
20
-0.341969847063922
30
0
41
1
10
-35.3303095934913
20
-0.353130368597164
30
0
41
1
10
-35.3583912020529
20
-0.381391733963511
30
0
41
1
10
-35.3786559544672
20
-0.39234208797788
30
0
41
1
10
-35.4
20
-0.397291821664254
30
0
0
SPLINE
5
DF
100
AcDbEntity
8
SK1
62
256
6
ByLayer
370
18
48
1
60
0
100
AcDbSpline
70
4
71
3
72
8
73
4
40
0
40
0
40
0
40
0
40
1
40
1
40
1
40
1
41
1
10
-35.4
20
-0.397291821664254
30
0
41
1
10
-35.6037647113639
20
-0.444545331050733
30
0
41
1
10
-35.806122823311
20
-0.491907850972694
30
0
41
1
10
-35.9999999999998
20
-0.539837362466727
30
0
0
LINE
5
76
100
AcDbEntity
8
81
62
256
6
ByLayer
370
18
48
1
60
0
100
AcDbLine
10
30
20
0
30
0
11
35
21
0
31
0
39
0
210
0
220
0
230
1
0
LINE
5
77
100
AcDbEntity
8
1
62
256
6
ByLayer
370
18
48
1
60
0
100
AcDbLine
10
0
20
-3
30
0
11
1.3
21
-1.682361
31
0
39
0
210
0
220
0
230
1
0
LINE
5
79
100
AcDbEntity
8
1
62
256
6
ByLayer
370
18
48
1
60
0
100
AcDbLine
10
1.3
20
1.682361
30
0
11
0
21
3
31
0
39
0
210
0
220
0
230
1
0
LINE
5
7A
100
AcDbEntity
8
1
62
256
6
ByLayer
370
18
48
1
60
0
100
AcDbLine
10
4.585637
20
1.684414
30
0
11
1.3
21
1.682361
31
0
39
0
210
0
220
0
230
1
0
LINE
5
7B
100
AcDbEntity
8
1
62
256
6
ByLayer
370
18
48
1
60
0
100
AcDbLine
10
11.221504
20
1.688562
30
0
11
10.753636
21
1.688269
31
0
39
0
210
0
220
0
230
1
0
LINE
5
7C
100
AcDbEntity
8
1
62
256
6
ByLayer
370
18
48
1
60
0
100
AcDbLine
10
20.221638
20
1.694187
30
0
11
19.7537
21
1.693894
31
0
39
0
210
0
220
0
230
1
0
LINE
5
7D
100
AcDbEntity
8
1
62
256
6
ByLayer
370
18
48
1
60
0
100
AcDbLine
10
29.221914
20
1.699812
30
0
11
28.752629
21
1.699519
31
0
39
0
210
0
220
0
230
1
0
LINE
5
7E
100
AcDbEntity
8
1
62
256
6
ByLayer
370
18
48
1
60
0
100
AcDbLine
10
28.752629
20
-1.699519
30
0
11
29.221937
21
-1.699812
31
0
39
0
210
0
220
0
230
1
0
LINE
5
7F
100
AcDbEntity
8
1
62
256
6
ByLayer
370
18
48
1
60
0
100
AcDbLine
10
19.7537
20
-1.693894
30
0
11
20.222045
21
-1.694187
31
0
39
0
210
0
220
0
230
1
0
LINE
5
80
100
AcDbEntity
8
1
62
256
6
ByLayer
370
18
48
1
60
0
100
AcDbLine
10
10.753636
20
-1.688269
30
0
11
11.221765
21
-1.688562
31
0
39
0
210
0
220
0
230
1
0
LINE
5
81
100
AcDbEntity
8
1
62
256
6
ByLayer
370
18
48
1
60
0
100
AcDbLine
10
1.3
20
-1.682361
30
0
11
4.585637
21
-1.684414
31
0
39
0
210
0
220
0
230
1
0
LINE
5
82
100
AcDbEntity
8
SK1
62
256
6
ByLayer
370
18
48
1
60
0
100
AcDbLine
10
0
20
3
30
0
11
-35.278312
21
3
31
0
39
0
210
0
220
0
230
1
0
LINE
5
84
100
AcDbEntity
8
SK1
62
256
6
ByLayer
370
18
48
1
60
0
100
AcDbLine
10
-35.278312
20
-3
30
0
11
0
21
-3
31
0
39
0
210
0
220
0
230
1
0
LINE
5
85
100
AcDbEntity
8
SK1
62
256
6
ByLayer
370
18
48
1
60
0
100
AcDbLine
10
-35.278312
20
3
30
0
11
-36
21
1.75
31
0
39
0
210
0
220
0
230
1
0
LINE
5
86
100
AcDbEntity
8
SK1
62
256
6
ByLayer
370
18
48
1
60
0
100
AcDbLine
10
-36
20
-1.75
30
0
11
-35.278312
21
-3
31
0
39
0
210
0
220
0
230
1
0
LINE
5
87
100
AcDbEntity
8
SK4
62
256
6
ByLayer
370
18
48
0.05
60
0
100
AcDbLine
10
35
20
0
30
0
11
-41
21
0
31
0
39
0
210
0
220
0
230
1
0
LINE
5
89
100
AcDbEntity
8
4
62
256
6
ByLayer
370
18
48
0.05
60
0
100
AcDbLine
10
30
20
0
30
0
11
0
21
0
31
0
39
0
210
0
220
0
230
1
0
LINE
5
8B
100
AcDbEntity
8
80
62
256
6
ByLayer
370
18
48
1
60
0
100
AcDbLine
10
0
20
0
30
0
11
-5
21
0
31
0
39
0
210
0
220
0
230
1
0
LINE
5
8C
100
AcDbEntity
8
1
62
256
6
ByLayer
370
13
48
1
60
0
100
AcDbLine
10
29.288825
20
0.404302
30
0
11
29.977815
21
-0.031845
31
0
39
0
210
0
220
0
230
1
0
LINE
5
8D
100
AcDbEntity
8
1
62
256
6
ByLayer
370
18
48
1
60
0
100
AcDbLine
10
0
20
-3
30
0
11
0
21
3
31
0
39
0
210
0
220
0
230
1
0
LINE
5
8E
100
AcDbEntity
8
1
62
256
6
ByLayer
370
13
48
1
60
0
100
AcDbLine
10
29.380823
20
0.465678
30
0
11
29.995918
21
0.076308
31
0
39
0
210
0
220
0
230
1
0
LINE
5
8F
100
AcDbEntity
8
1
62
256
6
ByLayer
370
18
48
1
60
0
100
AcDbLine
10
1.3
20
1.682361
30
0
11
1.3
21
-1.682361
31
0
39
0
210
0
220
0
230
1
0
LINE
5
90
100
AcDbEntity
8
SK1
62
256
6
ByLayer
370
18
48
1
60
0
100
AcDbLine
10
-36
20
-0.539837
30
0
11
-36
21
-0.947638
31
0
39
0
210
0
220
0
230
1
0
LINE
5
91
100
AcDbEntity
8
SK1
62
256
6
ByLayer
370
18
48
1
60
0
100
AcDbLine
10
-35.3
20
-1.017292
30
0
11
-35.3
21
0.271853
31
0
39
0
210
0
220
0
230
1
0
LINE
5
92
100
AcDbEntity
8
SK1
62
256
6
ByLayer
370
18
48
1
60
0
100
AcDbLine
10
-36
20
-1.75
30
0
11
-36
21
-0.947638
31
0
39
0
210
0
220
0
230
1
0
LINE
5
93
100
AcDbEntity
8
SK1
62
256
6
ByLayer
370
18
48
1
60
0
100
AcDbLine
10
0
20
-3
30
0
11
0
21
3
31
0
39
0
210
0
220
0
230
1
0
LINE
5
94
100
AcDbEntity
8
SK1
62
256
6
ByLayer
370
18
48
1
60
0
100
AcDbLine
10
-35.278312
20
3
30
0
11
-35.278312
21
-3
31
0
39
0
210
0
220
0
230
1
0
LINE
5
95
100
AcDbEntity
8
SK1
62
256
6
ByLayer
370
13
48
1
60
0
100
AcDbLine
10
-35.4
20
-0.397292
30
0
11
-35.4
21
-1.090183
31
0
39
0
210
0
220
0
230
1
0
LINE
5
96
100
AcDbEntity
8
SK1
62
256
6
ByLayer
370
18
48
1
60
0
100
AcDbLine
10
-36
20
1.75
30
0
11
-36
21
0.539837
31
0
39
0
210
0
220
0
230
1
0
MTEXT
5
E0
100
AcDbEntity
8
SK6
62
256
6
ByLayer
370
13
48
1
60
0
100
AcDbMText
10
-0.870831
20
34.082694
30
0
210
0
220
0
230
1
1
\W0.7478;460.1-0340-017A1-XM GC34
40
3.5
41
0
44
1.084337
50
0
71
8
72
5
7
iso_b_vert
0
DIMENSION
5
ED
100
AcDbEntity
8
SK2
62
256
6
ByLayer
370
13
48
1
60
0
100
AcDbDimension
2
DimnDraft3D1
10
29.5106
20
-11.913398
30
0
11
13.760659
21
-11.913398
31
0
70
32
71
5
72
1
41
1
210
0
220
0
230
1
3
Standard
100
AcDbAlignedDimension
13
0
23
-1.5875
33
0
14
29.5106
24
-3.2875
34
0
50
0
100
AcDbRotatedDimension
1001
ACAD
1000
DSTYLE
1002
{
1070
   279
1070
     0
1070
   172
1070
     1
1070
   173
1070
     1
1070
   340
1005
E1
1070
   271
1070
     2
1070
   272
1070
     2
1070
    77
1070
     1
1070
    73
1070
     0
1070
   171
1070
     3
1070
   274
1070
     4
1070
   177
1070
    35
1070
   176
1070
    35
1070
   178
1070
    35
1070
    48
1040
-0.005
1070
    41
1041
3.5
1070
   147
1041
1.75
1070
    42
1041
1.5875
1070
    44
1041
2.0
1070
   140
1041
3.5
1070
   343
1005
0
1070
   344
1005
0
1002
}
0
DIMENSION
5
F7
100
AcDbEntity
8
SK2
62
256
6
ByLayer
370
13
48
1
60
0
100
AcDbDimension
2
DimnDraft3D2
10
30
20
-31.692985
30
0
11
-2.1481
21
-31.692985
31
0
70
32
71
5
72
1
41
1
210
0
220
0
230
1
3
Standard
100
AcDbAlignedDimension
13
-36
23
-4.5875
33
0
14
30
24
-1.5875
34
0
50
0
100
AcDbRotatedDimension
1001
ACAD
1000
DSTYLE
1002
{
1070
   279
1070
     0
1070
   172
1070
     1
1070
   173
1070
     1
1070
   340
1005
E1
1070
   271
1070
     2
1070
   272
1070
     2
1070
    77
1070
     1
1070
    73
1070
     0
1070
   171
1070
     3
1070
   274
1070
     4
1070
   177
1070
    35
1070
   176
1070
    35
1070
   178
1070
    35
1070
    48
1040
-0.005
1070
    41
1041
3.5
1070
   147
1041
1.75
1070
    42
1041
1.5875
1070
    44
1041
2.0
1070
   140
1041
3.5
1070
   343
1005
0
1070
   344
1005
0
1002
}
0
DIMENSION
5
101
100
AcDbEntity
8
SK2
62
256
6
ByLayer
370
13
48
1
60
0
100
AcDbDimension
2
DimnDraft3D3
10
30
20
13.309119
30
0
11
21.26
21
13.309119
31
0
70
32
71
5
72
1
41
1
210
0
220
0
230
1
3
Standard
100
AcDbAlignedDimension
13
12.52
23
3.2875
33
0
14
30
24
1.5875
34
0
50
0
100
AcDbRotatedDimension
1001
ACAD
1000
DSTYLE
1002
{
1070
   279
1070
     0
1070
   172
1070
     1
1070
   173
1070
     1
1070
   340
1005
E1
1070
   271
1070
     2
1070
   272
1070
     2
1070
    77
1070
     1
1070
    73
1070
     0
1070
   171
1070
     3
1070
   274
1070
     4
1070
   177
1070
    35
1070
   176
1070
    35
1070
   178
1070
    35
1070
    48
1040
-0.005
1070
    41
1041
3.5
1070
   147
1041
1.75
1070
    42
1041
1.5875
1070
    44
1041
2.0
1070
   140
1041
3.5
1070
   343
1005
0
1070
   344
1005
0
1002
}
0
DIMENSION
5
10B
100
AcDbEntity
8
SK2
62
256
6
ByLayer
370
13
48
1
60
0
100
AcDbDimension
2
DimnDraft3D4
10
29.5106
20
-14.502503
30
0
11
39.981425
21
-14.502503
31
0
70
32
71
5
72
1
41
1
210
0
220
0
230
1
3
Standard
100
AcDbAlignedDimension
13
30
23
-1.5875
33
0
14
29.5106
24
-3.2875
34
0
50
0
100
AcDbRotatedDimension
1001
ACAD
1000
DSTYLE
1002
{
1070
   279
1070
     0
1070
   172
1070
     1
1070
   173
1070
     1
1070
   340
1005
E1
1070
   271
1070
     2
1070
   272
1070
     2
1070
    77
1070
     1
1070
    73
1070
     0
1070
   171
1070
     3
1070
   274
1070
     4
1070
   177
1070
    35
1070
   176
1070
    35
1070
   178
1070
    35
1070
    48
1040
-0.005
1070
    41
1041
3.5
1070
   147
1041
1.75
1070
    42
1041
1.5875
1070
    44
1041
2.0
1070
   140
1041
3.5
1070
   343
1005
0
1070
   344
1005
0
1002
}
0
DIMENSION
5
115
100
AcDbEntity
8
SK2
62
256
6
ByLayer
370
13
48
1
60
0
100
AcDbDimension
2
DimnDraft3D5
10
29.5106
20
-21.343428
30
0
11
-5.228724
21
-21.343428
31
0
70
32
71
5
72
1
41
1
210
0
220
0
230
1
3
Standard
100
AcDbAlignedDimension
13
-36
23
-4.5875
33
0
14
29.5106
24
-3.2875
34
0
50
0
100
AcDbRotatedDimension
1001
ACAD
1000
DSTYLE
1002
{
1070
   279
1070
     0
1070
   172
1070
     1
1070
   173
1070
     1
1070
   340
1005
E1
1070
   271
1070
     2
1070
   272
1070
     2
1070
    77
1070
     1
1070
    73
1070
     0
1070
   171
1070
     3
1070
   274
1070
     4
1070
   177
1070
    35
1070
   176
1070
    35
1070
   178
1070
    35
1070
    48
1040
-0.005
1070
    41
1041
3.5
1070
   147
1041
1.75
1070
    42
1041
1.5875
1070
    44
1041
2.0
1070
   140
1041
3.5
1070
   343
1005
0
1070
   344
1005
0
1002
}
0
DIMENSION
5
120
100
AcDbEntity
8
SK2
62
256
6
ByLayer
370
13
48
1
60
0
100
AcDbDimension
2
DimnDraft3D6
10
-46.625163
20
3
30
0
11
-47.250163
21
21.47418
31
0
70
33
71
5
72
1
41
1
210
0
220
0
230
1
3
Standard
100
AcDbAlignedDimension
13
-37.5875
23
-3
33
0
14
-37.5875
24
3
34
0
1001
ACAD
1000
DSTYLE
1002
{
1070
   279
1070
     0
1070
    74
1070
     0
1070
   173
1070
     1
1070
   340
1005
E1
1070
   271
1070
     3
1070
   272
1070
     2
1070
    77
1070
     1
1070
    73
1070
     0
1070
   171
1070
     3
1070
   274
1070
     4
1070
   177
1070
    35
1070
   176
1070
    35
1070
   178
1070
    35
1070
    48
1040
-0.005
1070
    41
1041
3.5
1070
   147
1041
1.75
1070
    42
1041
1.5875
1070
    44
1041
2.0
1070
   140
1041
3.5
1070
   343
1005
0
1070
   344
1005
0
1002
}
0
DIMENSION
5
12B
100
AcDbEntity
8
2
62
256
6
ByLayer
370
13
48
1
60
0
100
AcDbDimension
2
DimnDraft3D7
10
44.083343
20
1.7
30
0
11
39.458343
21
18.767266
31
0
70
33
71
5
72
1
41
1
210
0
220
0
230
1
3
Standard
100
AcDbAlignedDimension
13
31.0981
23
-1.7
33
0
14
31.0981
24
1.7
34
0
1001
ACAD
1000
DSTYLE
1002
{
1070
   279
1070
     0
1070
    74
1070
     0
1070
   173
1070
     1
1070
   340
1005
E1
1070
   271
1070
     3
1070
   272
1070
     2
1070
    77
1070
     1
1070
    73
1070
     0
1070
   171
1070
     3
1070
   274
1070
     4
1070
   177
1070
    35
1070
   176
1070
    35
1070
   178
1070
    35
1070
    48
1040
-0.005
1070
    41
1041
3.5
1070
   147
1041
1.75
1070
    42
1041
1.5875
1070
    44
1041
2.0
1070
   140
1041
3.5
1070
   343
1005
0
1070
   344
1005
0
1002
}
0
ENDSEC
0
SECTION
2
OBJECTS
0
DICTIONARY
5
196
330
0
100
AcDbDictionary
280
0
281
1
3
ACAD_GROUP
350
197
3
ACAD_MLINESTYLE
350
198
0
DICTIONARY
5
197
330
0
100
AcDbDictionary
280
0
281
1
0
DICTIONARY
5
198
330
0
100
AcDbDictionary
280
0
281
1
3
Standard
350
18
0
MLINESTYLE
5
18
330
198
100
AcDbMlineStyle
2
Standard
70
0
3

62
256
51
90
52
90
71
2
49
-0.5
62
256
6
ByLayer
49
0.5
62
256
6
ByLayer
0
RASTERVARIABLES
5
184
330

100
AcDbRasterVariables
90
0
70
1
71
1
72
1
0
ENDSEC
0
EOF
