0
SECTION
2
HEADER
9
$ACADVER
1
AC1015
9
$DWGCODEPAGE
3
ANSI_1252
9
$HANDSEED
5
196
9
$ANGBASE
50
0
9
$ANGDIR
70
0
9
$ATTMODE
70
1
9
$AUNITS
70
0
9
$AUPREC
70
0
9
$CECOLOR
62
256
9
$CELTSCALE
40
1
9
$CELTYPE
6
ByLayer
9
$CELWEIGHT
370
18
9
$CLAYER
8
0
9
$CMLJUST
70
0
9
$CMLSCALE
40
1
9
$CMLSTYLE
2
Standard
9
$DIMSTYLE
2
Standard
9
$TEXTSIZE
40
0.2
9
$TEXTSTYLE
7
Standard
9
$LUNITS
70
2
9
$LUPREC
70
4
9
$EXTNAMES
290
1
9
$INSUNITS
70
4
9
$LTSCALE
40
1
9
$LWDISPLAY
290
1
9
$PDMODE
70
0
9
$PDSIZE
40
0
9
$PLINEGEN
70
0
0
ENDSEC
0
SECTION
2
CLASSES
0
CLASS
1
RASTERVARIABLES
2
AcDbRasterVariables
3
ISM
90
0
280
0
281
0
0
ENDSEC
0
SECTION
2
TABLES
0
TABLE
2
VPORT
5
18c
100
AcDbSymbolTable
0
VPORT
5
1
100
AcDbSymbolTableRecord
100
AcDbViewportTableRecord
2
*Active
70
0
10
0
20
0
11
1
21
1
12
-1
22
1
13
0
23
0
14
0.5
24
0.5
15
10
25
10
16
0
26
0
36
1
17
0
27
0
37
0
0
ENDTAB
0
TABLE
2
LTYPE
5
18d
100
AcDbSymbolTable
0
LTYPE
5
14
100
AcDbSymbolTableRecord
100
AcDbLinetypeTableRecord
70
0
2
ByBlock
3

72
65
73
0
40
0
0
LTYPE
5
15
100
AcDbSymbolTableRecord
100
AcDbLinetypeTableRecord
70
0
2
ByLayer
3

72
65
73
0
40
0
0
LTYPE
5
16
100
AcDbSymbolTableRecord
100
AcDbLinetypeTableRecord
70
0
2
CONTINUOUS
3
Solid line
72
65
73
0
40
0
0
LTYPE
5
6A
100
AcDbSymbolTableRecord
100
AcDbLinetypeTableRecord
70
0
2
CENTER
3
____ _ ____ _ ____ _ ____
72
65
73
4
40
47.5
49
22
74
0
49
-8.5
74
0
49
8.5
74
0
49
-8.5
74
0
0
LTYPE
5
6B
100
AcDbSymbolTableRecord
100
AcDbLinetypeTableRecord
70
0
2
DASHED
3
__ __ __ __ __ __ __ __ __
72
65
73
2
40
25.72
49
12.86
74
0
49
-12.86
74
0
0
ENDTAB
0
TABLE
2
LAYER
5
18e
100
AcDbSymbolTable
0
LAYER
5
10
100
AcDbSymbolTableRecord
100
AcDbLayerTableRecord
2
0
70
0
62
7
6
CONTINUOUS
290
1
370
-3
390
0
0
LAYER
5
6D
100
AcDbSymbolTableRecord
100
AcDbLayerTableRecord
2
81
70
0
62
-3
6
CONTINUOUS
290
1
370
-3
390
0
0
LAYER
5
6F
100
AcDbSymbolTableRecord
100
AcDbLayerTableRecord
2
80
70
0
62
-6
6
CONTINUOUS
290
1
370
-3
390
0
0
LAYER
5
74
100
AcDbSymbolTableRecord
100
AcDbLayerTableRecord
2
2
70
0
62
7
6
CONTINUOUS
290
1
370
-3
390
0
0
LAYER
5
78
100
AcDbSymbolTableRecord
100
AcDbLayerTableRecord
2
1
70
0
62
4
6
CONTINUOUS
290
1
370
-3
390
0
0
LAYER
5
88
100
AcDbSymbolTableRecord
100
AcDbLayerTableRecord
2
4
70
0
62
-2
6
CENTER
290
1
370
-3
390
0
0
LAYER
5
178
100
AcDbSymbolTableRecord
100
AcDbLayerTableRecord
2
SK2
70
0
62
7
6
CONTINUOUS
290
1
370
-3
390
0
0
LAYER
5
179
100
AcDbSymbolTableRecord
100
AcDbLayerTableRecord
2
SK1
70
0
62
4
6
CONTINUOUS
290
1
370
-3
390
0
0
LAYER
5
17a
100
AcDbSymbolTableRecord
100
AcDbLayerTableRecord
2
SK4
70
0
62
2
6
CENTER
290
1
370
-3
390
0
0
LAYER
5
17b
100
AcDbSymbolTableRecord
100
AcDbLayerTableRecord
2
SK6
70
0
62
5
6
CONTINUOUS
290
1
370
-3
390
0
0
ENDTAB
0
TABLE
2
STYLE
5
18f
100
AcDbSymbolTable
0
STYLE
5
11
100
AcDbSymbolTableRecord
100
AcDbTextStyleTableRecord
2
Standard
3
txt
70
0
71
0
40
0
41
1
42
0
50
0
0
STYLE
5
D4
100
AcDbSymbolTableRecord
100
AcDbTextStyleTableRecord
2
iso_b_vert
3
simplex.shx
70
0
71
0
40
0
41
1
42
0
50
0
0
STYLE
5
D5
100
AcDbSymbolTableRecord
100
AcDbTextStyleTableRecord
2
DWGDirectTextStyle
3
simplex
70
0
71
0
40
0
41
1
42
0
50
0
0
ENDTAB
0
TABLE
2
DIMSTYLE
5
190
100
AcDbSymbolTable
100
AcDbDimStyleTable
0
DIMSTYLE
105
27
100
AcDbSymbolTableRecord
100
AcDbDimStyleTableRecord
2
Standard
70
0
3
<>
41
0.18
42
0.0625
44
0.18
140
0.18
147
0.09
73
0
74
0
77
1
271
2
275
0
278
52
280
0
340
11
0
ENDTAB
0
TABLE
2
VIEW
5
191
100
AcDbSymbolTable
0
ENDTAB
0
TABLE
2
UCS
5
192
100
AcDbSymbolTable
0
ENDTAB
0
TABLE
2
APPID
5
193
100
AcDbSymbolTable
0
APPID
5
12
100
AcDbSymbolTableRecord
100
AcDbRegAppTableRecord
2
ACAD
70
0
0
ENDTAB
0
TABLE
2
BLOCK_RECORD
5
194
100
AcDbSymbolTable
0
BLOCK_RECORD
5
1F
100
AcDbSymbolTableRecord
100
AcDbBlockTableRecord
2
*Model_Space
340
0
70
0
0
BLOCK_RECORD
5
1B
100
AcDbSymbolTableRecord
100
AcDbBlockTableRecord
2
*Paper_Space
340
0
70
0
0
BLOCK_RECORD
5
23
100
AcDbSymbolTableRecord
100
AcDbBlockTableRecord
2
*Paper_Space0
340
0
70
0
0
BLOCK_RECORD
5
D7
100
AcDbSymbolTableRecord
100
AcDbBlockTableRecord
2
DimnDraft3D1
340
0
70
0
0
BLOCK_RECORD
5
E1
100
AcDbSymbolTableRecord
100
AcDbBlockTableRecord
2
DimnDraft3D2
340
0
70
0
0
BLOCK_RECORD
5
EB
100
AcDbSymbolTableRecord
100
AcDbBlockTableRecord
2
DimnDraft3D3
340
0
70
0
0
BLOCK_RECORD
5
F5
100
AcDbSymbolTableRecord
100
AcDbBlockTableRecord
2
DimnDraft3D4
340
0
70
0
0
BLOCK_RECORD
5
FF
100
AcDbSymbolTableRecord
100
AcDbBlockTableRecord
2
DimnDraft3D5
340
0
70
0
0
BLOCK_RECORD
5
109
100
AcDbSymbolTableRecord
100
AcDbBlockTableRecord
2
DimnDraft3D6
340
0
70
0
0
BLOCK_RECORD
5
114
100
AcDbSymbolTableRecord
100
AcDbBlockTableRecord
2
DimnDraft3D7
340
0
70
0
0
ENDTAB
0
ENDSEC
0
SECTION
2
BLOCKS
0
BLOCK
5
20
100
AcDbEntity
8
0
100
AcDbBlockBegin
2
*Model_Space
70
0
10
0
20
0
30
0
3
*Model_Space
0
ENDBLK
5
21
100
AcDbEntity
8
0
100
AcDbBlockEnd
0
BLOCK
5
1C
100
AcDbEntity
8
0
100
AcDbBlockBegin
2
*Paper_Space
70
0
10
0
20
0
30
0
3
*Paper_Space
0
ENDBLK
5
1D
100
AcDbEntity
8
0
100
AcDbBlockEnd
0
BLOCK
5
24
100
AcDbEntity
8
0
100
AcDbBlockBegin
2
*Paper_Space0
70
0
10
0
20
0
30
0
3
*Paper_Space0
0
ENDBLK
5
25
100
AcDbEntity
8
0
100
AcDbBlockEnd
0
BLOCK
5
DE
100
AcDbEntity
8
0
100
AcDbBlockBegin
2
DimnDraft3D1
70
0
10
0
20
0
30
0
3
DimnDraft3D1
0
MTEXT
5
D8
100
AcDbEntity
8
SK2
62
256
6
ByLayer
370
13
48
1
60
0
100
AcDbMText
10
7.160964
20
-10.925898
30
0
210
0
220
0
230
1
1
\W0.7495;25,54
40
3.5
41
0
44
1.084337
50
0
71
7
72
5
7
iso_b_vert
0
LINE
5
D9
100
AcDbEntity
8
SK2
62
256
6
ByLayer
370
13
48
1
60
0
100
AcDbLine
10
0
20
-1.5875
30
0
11
0
21
-13.800898
31
0
39
0
210
0
220
0
230
1
0
LINE
5
DA
100
AcDbEntity
8
SK2
62
256
6
ByLayer
370
13
48
1
60
0
100
AcDbLine
10
25.5438
20
-3.175
30
0
11
25.5438
21
-13.800898
31
0
39
0
210
0
220
0
230
1
0
LINE
5
DB
100
AcDbEntity
8
SK2
62
256
6
ByLayer
370
13
48
1
60
0
100
AcDbLine
10
0
20
-11.800898
30
0
11
25.5438
21
-11.800898
31
0
39
0
210
0
220
0
230
1
0
SOLID
5
DC
100
AcDbEntity
8
SK2
62
256
6
ByLayer
370
13
48
1
60
0
100
AcDbTrace
10
0
20
-11.800898
30
0
11
3.499998
21
-11.340115
31
0
12
3.500002
22
-12.261682
32
0
13
0
23
-11.800898
33
0
39
0
210
0
220
0
230
1
0
SOLID
5
DD
100
AcDbEntity
8
SK2
62
256
6
ByLayer
370
13
48
1
60
0
100
AcDbTrace
10
25.5438
20
-11.800898
30
0
11
22.043802
21
-12.261682
31
0
12
22.043798
22
-11.340115
32
0
13
25.5438
23
-11.800898
33
0
39
0
210
0
220
0
230
1
0
ENDBLK
5
DF
100
AcDbEntity
8
0
100
AcDbBlockEnd
0
BLOCK
5
E8
100
AcDbEntity
8
0
100
AcDbBlockBegin
2
DimnDraft3D2
70
0
10
0
20
0
30
0
3
DimnDraft3D2
0
MTEXT
5
E2
100
AcDbEntity
8
SK2
62
256
6
ByLayer
370
13
48
1
60
0
100
AcDbMText
10
-8.563584
20
-30.817985
30
0
210
0
220
0
230
1
1
\W0.7317;62,00
40
3.5
41
0
44
1.084337
50
0
71
7
72
5
7
iso_b_vert
0
LINE
5
E3
100
AcDbEntity
8
SK2
62
256
6
ByLayer
370
13
48
1
60
0
100
AcDbLine
10
-36
20
-4.5875
30
0
11
-36
21
-33.692985
31
0
39
0
210
0
220
0
230
1
0
LINE
5
E4
100
AcDbEntity
8
SK2
62
256
6
ByLayer
370
13
48
1
60
0
100
AcDbLine
10
26
20
-1.5875
30
0
11
26
21
-33.692985
31
0
39
0
210
0
220
0
230
1
0
LINE
5
E5
100
AcDbEntity
8
SK2
62
256
6
ByLayer
370
13
48
1
60
0
100
AcDbLine
10
-36
20
-31.692985
30
0
11
26
21
-31.692985
31
0
39
0
210
0
220
0
230
1
0
SOLID
5
E6
100
AcDbEntity
8
SK2
62
256
6
ByLayer
370
13
48
1
60
0
100
AcDbTrace
10
-36
20
-31.692985
30
0
11
-32.500002
21
-31.232202
31
0
12
-32.499998
22
-32.153769
32
0
13
-36
23
-31.692985
33
0
39
0
210
0
220
0
230
1
0
SOLID
5
E7
100
AcDbEntity
8
SK2
62
256
6
ByLayer
370
13
48
1
60
0
100
AcDbTrace
10
26
20
-31.692985
30
0
11
22.500002
21
-32.153769
31
0
12
22.499998
22
-31.232202
32
0
13
26
23
-31.692985
33
0
39
0
210
0
220
0
230
1
0
ENDBLK
5
E9
100
AcDbEntity
8
0
100
AcDbBlockEnd
0
BLOCK
5
F2
100
AcDbEntity
8
0
100
AcDbBlockBegin
2
DimnDraft3D3
70
0
10
0
20
0
30
0
3
DimnDraft3D3
0
MTEXT
5
EC
100
AcDbEntity
8
SK2
62
256
6
ByLayer
370
13
48
1
60
0
100
AcDbMText
10
17.864211
20
14.071619
30
0
210
0
220
0
230
1
1
\W0.7259;9,99
40
3.5
41
0
44
1.084337
50
0
71
7
72
5
7
iso_b_vert
0
LINE
5
ED
100
AcDbEntity
8
SK2
62
256
6
ByLayer
370
13
48
1
60
0
100
AcDbLine
10
16.01
20
3.175
30
0
11
16.01
21
15.196619
31
0
39
0
210
0
220
0
230
1
0
LINE
5
EE
100
AcDbEntity
8
SK2
62
256
6
ByLayer
370
13
48
1
60
0
100
AcDbLine
10
26
20
1.5875
30
0
11
26
21
15.196619
31
0
39
0
210
0
220
0
230
1
0
LINE
5
EF
100
AcDbEntity
8
SK2
62
256
6
ByLayer
370
13
48
1
60
0
100
AcDbLine
10
16.01
20
13.196619
30
0
11
26
21
13.196619
31
0
39
0
210
0
220
0
230
1
0
SOLID
5
F0
100
AcDbEntity
8
SK2
62
256
6
ByLayer
370
13
48
1
60
0
100
AcDbTrace
10
16.01
20
13.196619
30
0
11
19.509998
21
13.657403
31
0
12
19.510002
22
12.735835
32
0
13
16.01
23
13.196619
33
0
39
0
210
0
220
0
230
1
0
SOLID
5
F1
100
AcDbEntity
8
SK2
62
256
6
ByLayer
370
13
48
1
60
0
100
AcDbTrace
10
26
20
13.196619
30
0
11
22.500002
21
12.735835
31
0
12
22.499998
22
13.657403
32
0
13
26
23
13.196619
33
0
39
0
210
0
220
0
230
1
0
ENDBLK
5
F3
100
AcDbEntity
8
0
100
AcDbBlockEnd
0
BLOCK
5
FC
100
AcDbEntity
8
0
100
AcDbBlockBegin
2
DimnDraft3D4
70
0
10
0
20
0
30
0
3
DimnDraft3D4
0
MTEXT
5
F6
100
AcDbEntity
8
SK2
62
256
6
ByLayer
370
13
48
1
60
0
100
AcDbMText
10
32.656425
20
-13.515003
30
0
210
0
220
0
230
1
1
\W0.7493;0,46
40
3.5
41
0
44
1.084337
50
0
71
7
72
5
7
iso_b_vert
0
LINE
5
F7
100
AcDbEntity
8
SK2
62
256
6
ByLayer
370
13
48
1
60
0
100
AcDbLine
10
26
20
-1.5875
30
0
11
26
21
-16.390003
31
0
39
0
210
0
220
0
230
1
0
LINE
5
F8
100
AcDbEntity
8
SK2
62
256
6
ByLayer
370
13
48
1
60
0
100
AcDbLine
10
25.5438
20
-3.175
30
0
11
25.5438
21
-16.390003
31
0
39
0
210
0
220
0
230
1
0
LINE
5
F9
100
AcDbEntity
8
SK2
62
256
6
ByLayer
370
13
48
1
60
0
100
AcDbLine
10
16.7938
20
-14.390003
30
0
11
40.181425
21
-14.390003
31
0
39
0
210
0
220
0
230
1
0
SOLID
5
FA
100
AcDbEntity
8
SK2
62
256
6
ByLayer
370
13
48
1
60
0
100
AcDbTrace
10
26
20
-14.390003
30
0
11
29.499998
21
-13.929219
31
0
12
29.500002
22
-14.850787
32
0
13
26
23
-14.390003
33
0
39
0
210
0
220
0
230
1
0
SOLID
5
FB
100
AcDbEntity
8
SK2
62
256
6
ByLayer
370
13
48
1
60
0
100
AcDbTrace
10
25.5438
20
-14.390003
30
0
11
22.043802
21
-14.850787
31
0
12
22.043798
22
-13.929219
32
0
13
25.5438
23
-14.390003
33
0
39
0
210
0
220
0
230
1
0
ENDBLK
5
FD
100
AcDbEntity
8
0
100
AcDbBlockEnd
0
BLOCK
5
106
100
AcDbEntity
8
0
100
AcDbBlockBegin
2
DimnDraft3D5
70
0
10
0
20
0
30
0
3
DimnDraft3D5
0
MTEXT
5
100
100
AcDbEntity
8
SK2
62
256
6
ByLayer
370
13
48
1
60
0
100
AcDbMText
10
-11.390918
20
-20.468428
30
0
210
0
220
0
230
1
1
\W0.6898;61,54
40
3.5
41
0
44
1.084337
50
0
71
7
72
5
7
iso_b_vert
0
LINE
5
101
100
AcDbEntity
8
SK2
62
256
6
ByLayer
370
13
48
1
60
0
100
AcDbLine
10
-36
20
-4.5875
30
0
11
-36
21
-23.343428
31
0
39
0
210
0
220
0
230
1
0
LINE
5
102
100
AcDbEntity
8
SK2
62
256
6
ByLayer
370
13
48
1
60
0
100
AcDbLine
10
25.5438
20
-3.175
30
0
11
25.5438
21
-23.343428
31
0
39
0
210
0
220
0
230
1
0
LINE
5
103
100
AcDbEntity
8
SK2
62
256
6
ByLayer
370
13
48
1
60
0
100
AcDbLine
10
-36
20
-21.343428
30
0
11
25.5438
21
-21.343428
31
0
39
0
210
0
220
0
230
1
0
SOLID
5
104
100
AcDbEntity
8
SK2
62
256
6
ByLayer
370
13
48
1
60
0
100
AcDbTrace
10
-36
20
-21.343428
30
0
11
-32.500002
21
-20.882645
31
0
12
-32.499998
22
-21.804212
32
0
13
-36
23
-21.343428
33
0
39
0
210
0
220
0
230
1
0
SOLID
5
105
100
AcDbEntity
8
SK2
62
256
6
ByLayer
370
13
48
1
60
0
100
AcDbTrace
10
25.5438
20
-21.343428
30
0
11
22.043802
21
-21.804212
31
0
12
22.043798
22
-20.882645
32
0
13
25.5438
23
-21.343428
33
0
39
0
210
0
220
0
230
1
0
ENDBLK
5
107
100
AcDbEntity
8
0
100
AcDbBlockEnd
0
BLOCK
5
111
100
AcDbEntity
8
0
100
AcDbBlockBegin
2
DimnDraft3D6
70
0
10
0
20
0
30
0
3
DimnDraft3D6
0
MTEXT
5
10A
100
AcDbEntity
8
SK2
62
256
6
ByLayer
370
13
48
1
60
0
100
AcDbMText
10
-46.375163
20
22.34918
30
0
210
0
220
0
230
1
1
\W0.7317;6,000
40
3.5
41
0
44
1.084337
50
90
71
7
72
5
7
iso_b_vert
0
MTEXT
5
10B
100
AcDbEntity
8
SK2
62
256
6
ByLayer
370
13
48
1
60
0
100
AcDbMText
10
-46.375163
20
17.126524
30
0
210
0
220
0
230
1
1
%%c
40
3.5
41
0
44
1.084337
50
90
71
7
72
5
7
iso_b_vert
0
LINE
5
10C
100
AcDbEntity
8
SK2
62
256
6
ByLayer
370
13
48
1
60
0
100
AcDbLine
10
-37.5875
20
-3
30
0
11
-46.625163
21
-3
31
0
39
0
210
0
220
0
230
1
0
LINE
5
10D
100
AcDbEntity
8
SK2
62
256
6
ByLayer
370
13
48
1
60
0
100
AcDbLine
10
-37.5875
20
3
30
0
11
-46.625163
21
3
31
0
39
0
210
0
220
0
230
1
0
LINE
5
10E
100
AcDbEntity
8
SK2
62
256
6
ByLayer
370
13
48
1
60
0
100
AcDbLine
10
-44.625163
20
32.121549
30
0
11
-44.625163
21
-11.75
31
0
39
0
210
0
220
0
230
1
0
SOLID
5
10F
100
AcDbEntity
8
SK2
62
256
6
ByLayer
370
13
48
1
60
0
100
AcDbTrace
10
-44.625163
20
-3
30
0
11
-44.164379
21
-6.499998
31
0
12
-45.085946
22
-6.500002
32
0
13
-44.625163
23
-3
33
0
39
0
210
0
220
0
230
1
0
SOLID
5
110
100
AcDbEntity
8
SK2
62
256
6
ByLayer
370
13
48
1
60
0
100
AcDbTrace
10
-44.625163
20
3
30
0
11
-45.085946
21
6.499998
31
0
12
-44.164379
22
6.500002
32
0
13
-44.625163
23
3
33
0
39
0
210
0
220
0
230
1
0
ENDBLK
5
112
100
AcDbEntity
8
0
100
AcDbBlockEnd
0
BLOCK
5
11C
100
AcDbEntity
8
0
100
AcDbBlockBegin
2
DimnDraft3D7
70
0
10
0
20
0
30
0
3
DimnDraft3D7
0
MTEXT
5
115
100
AcDbEntity
8
2
62
256
6
ByLayer
370
13
48
1
60
0
100
AcDbMText
10
36.333343
20
19.529766
30
0
210
0
220
0
230
1
1
\W0.6713;3,175
40
3.5
41
0
44
1.084337
50
90
71
7
72
5
7
iso_b_vert
0
MTEXT
5
116
100
AcDbEntity
8
2
62
256
6
ByLayer
370
13
48
1
60
0
100
AcDbMText
10
36.333343
20
14.30711
30
0
210
0
220
0
230
1
1
%%c
40
3.5
41
0
44
1.084337
50
90
71
7
72
5
7
iso_b_vert
0
LINE
5
117
100
AcDbEntity
8
2
62
256
6
ByLayer
370
13
48
1
60
0
100
AcDbLine
10
27.1313
20
-1.5875
30
0
11
40.083343
21
-1.5875
31
0
39
0
210
0
220
0
230
1
0
LINE
5
118
100
AcDbEntity
8
2
62
256
6
ByLayer
370
13
48
1
60
0
100
AcDbLine
10
27.1313
20
1.5875
30
0
11
40.083343
21
1.5875
31
0
39
0
210
0
220
0
230
1
0
LINE
5
119
100
AcDbEntity
8
2
62
256
6
ByLayer
370
13
48
1
60
0
100
AcDbLine
10
38.083343
20
28.427135
30
0
11
38.083343
21
-10.3375
31
0
39
0
210
0
220
0
230
1
0
SOLID
5
11A
100
AcDbEntity
8
2
62
256
6
ByLayer
370
13
48
1
60
0
100
AcDbTrace
10
38.083343
20
-1.5875
30
0
11
38.544126
21
-5.087498
31
0
12
37.622559
22
-5.087502
32
0
13
38.083343
23
-1.5875
33
0
39
0
210
0
220
0
230
1
0
SOLID
5
11B
100
AcDbEntity
8
2
62
256
6
ByLayer
370
13
48
1
60
0
100
AcDbTrace
10
38.083343
20
1.5875
30
0
11
37.622559
21
5.087498
31
0
12
38.544126
22
5.087502
32
0
13
38.083343
23
1.5875
33
0
39
0
210
0
220
0
230
1
0
ENDBLK
5
11D
100
AcDbEntity
8
0
100
AcDbBlockEnd
0
ENDSEC
0
SECTION
2
ENTITIES
0
ELLIPSE
5
96
100
AcDbEntity
8
1
62
256
6
ByLayer
370
18
48
1
60
0
100
AcDbEllipse
10
7.805593
20
-1.747195
30
0
11
-0.25
21
3.06151588455594E-17
31
0
210
0
220
0
230
1
40
0.999966
41
-1.56323148055397
42
-0.782334686064671
0
ELLIPSE
5
97
100
AcDbEntity
8
1
62
256
6
ByLayer
370
13
48
1
60
0
100
AcDbEllipse
10
7.805756
20
-1.586051
30
0
11
-0.00646378468721982
21
0.0997908787791613
31
0
210
0
220
0
230
1
40
0.483085
41
-0.135523172139668
42
1.20254919588275
0
ELLIPSE
5
98
100
AcDbEntity
8
1
62
256
6
ByLayer
370
13
48
1
60
0
100
AcDbEllipse
10
7.732056
20
-1.60946
30
0
11
-0.0520613241487351
21
0.0853792628679841
31
0
210
0
220
0
230
1
40
0.377779
41
0.345745645289852
42
0.766706553607918
0
POINT
5
6C
100
AcDbEntity
8
81
62
256
6
ByLayer
370
18
48
1
60
0
100
AcDbPoint
10
26
20
0
30
0
39
0
210
0
220
0
230
1
50
360
0
POINT
5
6E
100
AcDbEntity
8
80
62
256
6
ByLayer
370
18
48
1
60
0
100
AcDbPoint
10
0
20
0
30
0
39
0
210
0
220
0
230
1
50
360
0
POINT
5
70
100
AcDbEntity
8
SK2
62
256
6
ByLayer
370
18
48
1
60
1
100
AcDbPoint
10
-36
20
-3
30
0
39
0
210
0
220
0
230
1
50
360
0
POINT
5
72
100
AcDbEntity
8
SK2
62
256
6
ByLayer
370
18
48
1
60
1
100
AcDbPoint
10
-36
20
3
30
0
39
0
210
0
220
0
230
1
50
360
0
POINT
5
73
100
AcDbEntity
8
2
62
256
6
ByLayer
370
18
48
1
60
1
100
AcDbPoint
10
25.5438
20
-1.5875
30
0
39
0
210
0
220
0
230
1
50
360
0
POINT
5
75
100
AcDbEntity
8
2
62
256
6
ByLayer
370
18
48
1
60
1
100
AcDbPoint
10
25.5438
20
1.5875
30
0
39
0
210
0
220
0
230
1
50
360
0
SPLINE
5
99
100
AcDbEntity
8
1
62
256
6
ByLayer
370
18
48
1
60
0
100
AcDbSpline
70
4
71
3
72
17
73
13
40
0
40
0
40
0
40
0
40
0.135999417148757
40
0.247956845646271
40
0.321429517965663
40
0.396821023239001
40
0.475585890454235
40
0.666666170835613
40
0.715339075292314
40
0.789820214245676
40
0.892677851997448
40
1
40
1
40
1
40
1
41
1
10
7.80579563526771
20
-1.49647665366518
30
0
41
1
10
7.98432403507653
20
-1.49683865426994
30
0
41
1
10
8.31010083734319
20
-1.49736146855295
30
0
41
1
10
8.73338270542087
20
-1.49795591920801
30
0
41
1
10
9.07683567158435
20
-1.49791766792745
30
0
41
1
10
9.37658143845894
20
-1.49747526750591
30
0
41
1
10
9.83119502430591
20
-1.49819200689512
30
0
41
1
10
10.2506247108658
20
-1.49824380188383
30
0
41
1
10
10.6644131463955
20
-1.49817679957499
30
0
41
1
10
10.9620184927963
20
-1.49936776840937
30
0
41
1
10
11.3368655529335
20
-1.49842675959511
30
0
41
1
10
11.6136200832367
20
-1.49889138673822
30
0
41
1
10
11.7549352297128
20
-1.49914860160158
30
0
0
SPLINE
5
9A
100
AcDbEntity
8
1
62
256
6
ByLayer
370
18
48
1
60
0
100
AcDbSpline
70
4
71
3
72
19
73
15
40
0
40
0
40
0
40
0
40
0.133956005690949
40
0.221618342780055
40
0.279857873061615
40
0.338791184501427
40
0.398982390433997
40
0.4602459474417
40
0.522489450404448
40
0.610440440697315
40
0.694415273207173
40
0.76906357968493
40
0.873875104840367
40
1
40
1
40
1
40
1
41
1
10
16.445157124386
20
-1.50244375203283
30
0
41
1
10
16.6376848418424
20
-1.50270421072861
30
0
41
1
10
16.9562168037685
20
-1.50289765183732
30
0
41
1
10
17.3584811984221
20
-1.50299172854648
30
0
41
1
10
17.6529209829449
20
-1.50240015139695
30
0
41
1
10
17.9078683299276
20
-1.50280813094457
30
0
41
1
10
18.1671639097737
20
-1.50298807138287
30
0
41
1
10
18.4312161070898
20
-1.50371406379904
30
0
41
1
10
18.7351745792025
20
-1.50360736856425
30
0
41
1
10
19.071773521323
20
-1.50274090709445
30
0
41
1
10
19.4262090079851
20
-1.50228723332256
30
0
41
1
10
19.8048741389063
20
-1.50576216193528
30
0
41
1
10
20.2441087691282
20
-1.5024480621907
30
0
41
1
10
20.5760551903667
20
-1.50383025751839
30
0
41
1
10
20.7573463143606
20
-1.50471743667771
30
0
0
SPLINE
5
9B
100
AcDbEntity
8
1
62
256
6
ByLayer
370
18
48
1
60
0
100
AcDbSpline
70
4
71
3
72
19
73
15
40
0
40
0
40
0
40
0
40
0.132253622341091
40
0.242985887613805
40
0.312091426005611
40
0.374873732602603
40
0.43801032023899
40
0.500995291716366
40
0.563277807877014
40
0.647496342692807
40
0.720979616024918
40
0.801190794685241
40
0.926376552468918
40
1
40
1
40
1
40
1
41
1
10
11.7561466577122
20
1.49918115558145
30
0
41
1
10
11.5932881889505
20
1.49902412960461
30
0
41
1
10
11.2940714718548
20
1.49868324818391
30
0
41
1
10
10.9097564508889
20
1.49910089787403
30
0
41
1
10
10.6109843958956
20
1.49811829966677
30
0
41
1
10
10.3708258336738
20
1.49821721226533
30
0
41
1
10
10.1382024679137
20
1.4985019761958
30
0
41
1
10
9.90619326377302
20
1.49855319187566
30
0
41
1
10
9.64822419834024
20
1.49772700223448
30
0
41
1
10
9.37732613076551
20
1.4975364512506
30
0
41
1
10
9.08435083426463
20
1.49788687451601
30
0
41
1
10
8.74092426572162
20
1.49798214339901
30
0
41
1
10
8.39733283684512
20
1.49748625106841
30
0
41
1
10
8.15290457361851
20
1.49710563217923
30
0
41
1
10
8.06243218233175
20
1.49695241214695
30
0
0
SPLINE
5
9C
100
AcDbEntity
8
1
62
256
6
ByLayer
370
18
48
1
60
0
100
AcDbSpline
70
4
71
2
72
6
73
3
40
0
40
0
40
0
40
1
40
1
40
1
41
1
10
25.234775082183
20
-1.50397921570163
30
0
41
1
10
25.3459765112596
20
-1.50474534827651
30
0
41
1
10
25.4573347280978
20
-1.50545229888053
30
0
0
SPLINE
5
9D
100
AcDbEntity
8
1
62
256
6
ByLayer
370
18
48
1
60
0
100
AcDbSpline
70
4
71
3
72
16
73
12
40
0
40
0
40
0
40
0
40
0.124770431795646
40
0.229644997236845
40
0.3196961172498
40
0.416017201849519
40
0.513136314808037
40
0.752730585848423
40
0.807909774950617
40
0.885396356490885
40
1
40
1
40
1
40
1
41
1
10
20.7663503083671
20
1.50467530098857
30
0
41
1
10
20.6120213208494
20
1.50372457219984
30
0
41
1
10
20.3279666869082
20
1.50257444134894
30
0
41
1
10
19.9324990792576
20
1.5047513609008
30
0
41
1
10
19.5722303698232
20
1.50412756438578
30
0
41
1
10
19.2215281754874
20
1.50211120003166
30
0
41
1
10
18.6858369684367
20
1.50401180650832
30
0
41
1
10
18.2010476493157
20
1.50325687229935
30
0
41
1
10
17.7405174864585
20
1.50246531157649
30
0
41
1
10
17.4347024702979
20
1.50278616696912
30
0
41
1
10
17.1970662350135
20
1.5028908278272
30
0
41
1
10
17.0553045323427
20
1.5028849114168
30
0
0
SPLINE
5
9E
100
AcDbEntity
8
1
62
256
6
ByLayer
370
18
48
1
60
0
100
AcDbSpline
70
4
71
3
72
8
73
4
40
0
40
0
40
0
40
0
40
1
40
1
40
1
40
1
41
1
10
25.9192032838364
20
-0.54423199059093
30
0
41
1
10
25.9598116654924
20
-0.390345280658579
30
0
41
1
10
25.9871019200235
20
-0.248525320662395
30
0
41
1
10
25.9964039908744
20
-0.1080128107142
30
0
0
SPLINE
5
9F
100
AcDbEntity
8
1
62
256
6
ByLayer
370
18
48
1
60
0
100
AcDbSpline
70
4
71
3
72
8
73
4
40
0
40
0
40
0
40
0
40
1
40
1
40
1
40
1
41
1
10
25.4210662322933
20
0.441269587522584
30
0
41
1
10
25.5794950674527
20
0.438323211665335
30
0
41
1
10
25.7379824964425
20
0.434944744138363
30
0
41
1
10
25.8961268259909
20
0.434096413474009
30
0
0
SPLINE
5
A0
100
AcDbEntity
8
1
62
256
6
ByLayer
370
18
48
1
60
0
100
AcDbSpline
70
4
71
3
72
12
73
8
40
0
40
0
40
0
40
0
40
0.516599265963973
40
0.516599265963973
40
0.824737699949744
40
0.824737699949744
40
1
40
1
40
1
40
1
41
1
10
16.4708988141511
20
-1.50242486458532
30
0
41
1
10
16.1615604688832
20
-1.50247535276156
30
0
41
1
10
15.8548159586052
20
-1.47625919683188
30
0
41
1
10
15.3639363606253
20
-1.39480617448672
30
0
41
1
10
15.1802201068814
20
-1.35565112643721
30
0
41
1
10
14.8903907100405
20
-1.28093692495071
30
0
41
1
10
14.7848673779802
20
-1.25100895467605
30
0
41
1
10
14.6794701546456
20
-1.21864911857165
30
0
0
SPLINE
5
A1
100
AcDbEntity
8
1
62
256
6
ByLayer
370
13
48
1
60
0
100
AcDbSpline
70
4
71
3
72
24
73
20
40
0
40
0
40
0
40
0
40
0.0388140158490893
40
0.0388140158490893
40
0.218832649786313
40
0.218832649786313
40
0.308841966754923
40
0.308841966754923
40
0.398851283723533
40
0.398851283723533
40
0.578869917660751
40
0.578869917660751
40
0.66887923462936
40
0.66887923462936
40
0.758888551597969
40
0.758888551597969
40
0.938907185535186
40
0.938907185535186
40
1
40
1
40
1
40
1
41
1
10
14.6794701547153
20
-1.21864911859302
30
0
41
1
10
14.599562635732
20
-1.19411532030205
30
0
41
1
10
14.5197276040769
20
-1.16818368490596
30
0
41
1
10
14.0714249383989
20
-1.0151022234877
30
0
41
1
10
13.7059019792476
20
-0.862528529761818
30
0
41
1
10
13.1544540309934
20
-0.605824099080735
30
0
41
1
10
12.9700034856053
20
-0.515779149565105
30
0
41
1
10
12.5985620072957
20
-0.329054256596294
30
0
41
1
10
12.4140761119755
20
-0.233701583723757
30
0
41
1
10
11.8625081379189
20
0.0539039768092096
30
0
41
1
10
11.4972354062977
20
0.24791053613589
30
0
41
1
10
10.9440274613169
20
0.524963722786822
30
0
41
1
10
10.757847714996
20
0.615309500915657
30
0
41
1
10
10.3880445071375
20
0.78637516866209
30
0
41
1
10
10.2041771359134
20
0.867058995234657
30
0
41
1
10
9.65342002095304
20
1.09095557677688
30
0
41
1
10
9.28760341891743
20
1.21640170650792
30
0
41
1
10
8.79148334773694
20
1.34195217368821
30
0
41
1
10
8.66540111641359
20
1.36994271402182
30
0
41
1
10
8.53951451164693
20
1.39390244081898
30
0
0
SPLINE
5
A2
100
AcDbEntity
8
1
62
256
6
ByLayer
370
18
48
1
60
0
100
AcDbSpline
70
4
71
3
72
10
73
6
40
0
40
0
40
0
40
0
40
0.5
40
0.5
40
1
40
1
40
1
40
1
41
1
10
25.8961268259909
20
0.434096413473981
30
0
41
1
10
25.9215277611158
20
0.38083259886352
30
0
41
1
10
25.9424785988183
20
0.327002188319085
30
0
41
1
10
25.9757584889915
20
0.218243623070379
30
0
41
1
10
25.9881256371709
20
0.16304052450127
30
0
41
1
10
25.9964039908744
20
0.108012810713859
30
0
0
SPLINE
5
A3
100
AcDbEntity
8
1
62
256
6
ByLayer
370
18
48
1
60
0
100
AcDbSpline
70
4
71
3
72
10
73
6
40
0
40
0
40
0
40
0
40
0.5
40
0.5
40
1
40
1
40
1
40
1
41
1
10
7.67218451776711
20
1.56161450620908
30
0
41
1
10
7.65825159111364
20
1.56322704369768
30
0
41
1
10
7.64640757775589
20
1.56498075803759
30
0
41
1
10
7.62873483066534
20
1.56849320925073
30
0
41
1
10
7.62316377171254
20
1.57019724597214
30
0
41
1
10
7.62316737396105
20
1.57161458547213
30
0
0
SPLINE
5
A4
100
AcDbEntity
8
1
62
256
6
ByLayer
370
18
48
1
60
0
100
AcDbSpline
70
4
71
3
72
14
73
10
40
0
40
0
40
0
40
0
40
0.25
40
0.25
40
0.5
40
0.5
40
0.75
40
0.75
40
1
40
1
40
1
40
1
41
1
10
25.4826481282803
20
-1.50808143221036
30
0
41
1
10
25.4857694804479
20
-1.5080137886126
30
0
41
1
10
25.4883984798316
20
-1.50912487296242
30
0
41
1
10
25.4924147015971
20
-1.51437850133158
30
0
41
1
10
25.4937913752223
20
-1.51858611631104
30
0
41
1
10
25.4945219220396
20
-1.53093995379612
30
0
41
1
10
25.4938413202178
20
-1.53923532291307
30
0
41
1
10
25.4899498923498
20
-1.55935916944713
30
0
41
1
10
25.4867501003892
20
-1.57106072432512
30
0
41
1
10
25.4828057213894
20
-1.58286231943191
30
0
0
SPLINE
5
A5
100
AcDbEntity
8
1
62
256
6
ByLayer
370
18
48
1
60
0
100
AcDbSpline
70
4
71
3
72
10
73
6
40
0
40
0
40
0
40
0
40
0.5
40
0.5
40
1
40
1
40
1
40
1
41
1
10
25.5556722889817
20
-1.53279991301901
30
0
41
1
10
25.5437683601419
20
-1.54571179534784
30
0
41
1
10
25.5316230693988
20
-1.55645281583543
30
0
41
1
10
25.5073201738933
20
-1.57312753827719
30
0
41
1
10
25.4951098209638
20
-1.57913402881905
30
0
41
1
10
25.4828057213893
20
-1.58286231943208
30
0
0
SPLINE
5
A6
100
AcDbEntity
8
1
62
256
6
ByLayer
370
18
48
1
60
0
100
AcDbSpline
70
4
71
3
72
8
73
4
40
0
40
0
40
0
40
0
40
1
40
1
40
1
40
1
41
1
10
25.4828057213894
20
1.58286231943191
30
0
41
1
10
25.4097236935501
20
1.58590954527165
30
0
41
1
10
25.336672793278
20
1.58739206941084
30
0
41
1
10
25.2636056521835
20
1.58731783988784
30
0
0
SPLINE
5
A7
100
AcDbEntity
8
1
62
256
6
ByLayer
370
18
48
1
60
0
100
AcDbSpline
70
4
71
3
72
34
73
30
40
0
40
0
40
0
40
0
40
0.0482211721118849
40
0.0482211721118849
40
0.167193525597906
40
0.167193525597906
40
0.226679702340915
40
0.226679702340915
40
0.256422790712419
40
0.256422790712419
40
0.286165879083923
40
0.286165879083923
40
0.405138232569936
40
0.405138232569936
40
0.464624409312942
40
0.464624409312942
40
0.524110586055948
40
0.524110586055948
40
0.643082939541961
40
0.643082939541961
40
0.702569116284967
40
0.702569116284967
40
0.762055293027973
40
0.762055293027973
40
0.881027646513986
40
0.881027646513986
40
0.940513823256993
40
0.940513823256993
40
1
40
1
40
1
40
1
41
1
10
17.0753817725647
20
-1.51931425245425
30
0
41
1
10
16.9250600459724
20
-1.54234464057481
30
0
41
1
10
16.773898211351
20
-1.55923299167492
30
0
41
1
10
16.253311417
20
-1.59487013005403
30
0
41
1
10
15.8872639477089
20
-1.58047823850615
30
0
41
1
10
15.3357111285583
20
-1.50172321062823
30
0
41
1
10
15.1513423810228
20
-1.46599158416944
30
0
41
1
10
14.872884521043
20
-1.39860374598408
30
0
41
1
10
14.7795404132928
20
-1.37378534945614
30
0
41
1
10
14.5939201893671
20
-1.32003937677482
30
0
41
1
10
14.5014502997519
20
-1.2911100887857
30
0
41
1
10
14.040086814254
20
-1.1370927889742
30
0
41
1
10
13.6740771585438
20
-0.984077570193961
30
0
41
1
10
13.1211774133108
20
-0.721834399195387
30
0
41
1
10
12.9356874195212
20
-0.628917366069544
30
0
41
1
10
12.563482892768
20
-0.435674132284191
30
0
41
1
10
12.3787608640818
20
-0.33644043881111
30
0
41
1
10
11.8263380988243
20
-0.035343805641844
30
0
41
1
10
11.4605561260977
20
0.170240207975524
30
0
41
1
10
10.9056042726161
20
0.467315335987962
30
0
41
1
10
10.7187119735111
20
0.564950694114117
30
0
41
1
10
10.3482533464034
20
0.750523871703393
30
0
41
1
10
10.1641071988828
20
0.838567312852916
30
0
41
1
10
9.61245797482331
20
1.08497566100081
30
0
41
1
10
9.24606803215892
20
1.22604919997582
30
0
41
1
10
8.68867109782292
20
1.38910518741576
30
0
41
1
10
8.50209711346761
20
1.4351486948988
30
0
41
1
10
8.13062251292416
20
1.50834574987113
30
0
41
1
10
7.94494161120664
20
1.53559619404024
30
0
41
1
10
7.75845331966602
20
1.55304159145422
30
0
0
SPLINE
5
A8
100
AcDbEntity
8
1
62
256
6
ByLayer
370
18
48
1
60
0
100
AcDbSpline
70
4
71
3
72
8
73
4
40
0
40
0
40
0
40
0
40
1
40
1
40
1
40
1
41
1
10
25.9964039908744
20
0.108012810713831
30
0
41
1
10
25.9871522879591
20
0.247764487384444
30
0
41
1
10
25.9600577496459
20
0.389412737198541
30
0
41
1
10
25.9192032838366
20
0.54423199059076
30
0
0
SPLINE
5
A9
100
AcDbEntity
8
1
62
256
6
ByLayer
370
18
48
1
60
0
100
AcDbSpline
70
4
71
3
72
20
73
16
40
0
40
0
40
0
40
0
40
0.125000000000001
40
0.125000000000001
40
0.250000000000003
40
0.250000000000003
40
0.375000000000004
40
0.375000000000004
40
0.500000000000006
40
0.500000000000006
40
0.750000000000009
40
0.750000000000009
40
0.875000000000004
40
0.875000000000004
40
1
40
1
40
1
40
1
41
1
10
25.7208035032942
20
-0.413553841732181
30
0
41
1
10
25.7243886518139
20
-0.435369914676528
30
0
41
1
10
25.7245030169505
20
-0.461417042118455
30
0
41
1
10
25.7171258197808
20
-0.519345429691128
30
0
41
1
10
25.7097115491072
20
-0.550412440102377
30
0
41
1
10
25.6899668413181
20
-0.610404909141408
30
0
41
1
10
25.6776674640773
20
-0.639370173634319
30
0
41
1
10
25.651128610027
20
-0.690833238686167
30
0
41
1
10
25.6368188795734
20
-0.71355250990689
30
0
41
1
10
25.5931705027916
20
-0.77048214127791
30
0
41
1
10
25.5634152596255
20
-0.793193417741065
30
0
41
1
10
25.5222730974754
20
-0.803437647653624
30
0
41
1
10
25.5089782941598
20
-0.802883383853015
30
0
41
1
10
25.4844938638376
20
-0.793839257727313
30
0
41
1
10
25.4729348279402
20
-0.78518496191387
30
0
41
1
10
25.4629206262314
20
-0.772580069268116
30
0
0
SPLINE
5
AA
100
AcDbEntity
8
1
62
256
6
ByLayer
370
18
48
1
60
0
100
AcDbSpline
70
4
71
3
72
10
73
6
40
0
40
0
40
0
40
0
40
0.5
40
0.5
40
1
40
1
40
1
40
1
41
1
10
25.9997049102558
20
0.0308592475115574
30
0
41
1
10
25.9980286898203
20
0.0204010315832761
30
0
41
1
10
25.9952870338555
20
0.0091412864805136
30
0
41
1
10
25.9876848086566
20
-0.0125167964897059
30
0
41
1
10
25.9828203096994
20
-0.0227571696530617
30
0
41
1
10
25.9777185780855
20
-0.0307175573282166
30
0
0
SPLINE
5
AB
100
AcDbEntity
8
1
62
256
6
ByLayer
370
18
48
1
60
0
100
AcDbSpline
70
4
71
3
72
10
73
6
40
0
40
0
40
0
40
0
40
0.5
40
0.5
40
1
40
1
40
1
40
1
41
1
10
25.5556722889817
20
-1.53279991301886
30
0
41
1
10
25.6141126861081
20
-1.36645221225177
30
0
41
1
10
25.673886483129
20
-1.2011223326574
30
0
41
1
10
25.7953115487147
20
-0.871786968892224
30
0
41
1
10
25.8569840982851
20
-0.707801457821091
30
0
41
1
10
25.9192032838363
20
-0.544231990590959
30
0
0
SPLINE
5
AC
100
AcDbEntity
8
1
62
256
6
ByLayer
370
18
48
1
60
0
100
AcDbSpline
70
4
71
3
72
10
73
6
40
0
40
0
40
0
40
0
40
0.5
40
0.5
40
1
40
1
40
1
40
1
41
1
10
7.62335873917391
20
-0.173109351719234
30
0
41
1
10
7.64814779177328
20
-0.178898407064508
30
0
41
1
10
7.67806328057731
20
-0.18907271419846
30
0
41
1
10
7.74072634071163
20
-0.215855366977422
30
0
41
1
10
7.77348235485729
20
-0.232387220161627
30
0
41
1
10
7.8058383205958
20
-0.251005900478333
30
0
0
SPLINE
5
AD
100
AcDbEntity
8
1
62
256
6
ByLayer
370
18
48
1
60
0
100
AcDbSpline
70
4
71
3
72
8
73
4
40
0
40
0
40
0
40
0
40
1
40
1
40
1
40
1
41
1
10
25.9964039908744
20
0.108012810713859
30
0
41
1
10
25.9963782148793
20
0.0977855636072036
30
0
41
1
10
25.996227885121
20
0.0875664579211275
30
0
41
1
10
25.995947714409
20
0.0773558392512825
30
0
0
SPLINE
5
AE
100
AcDbEntity
8
1
62
256
6
ByLayer
370
18
48
1
60
0
100
AcDbSpline
70
4
71
3
72
8
73
4
40
0
40
0
40
0
40
0
40
1
40
1
40
1
40
1
41
1
10
7.75845331966619
20
-1.55304159145351
30
0
41
1
10
7.72831176564222
20
-1.55586123972355
30
0
41
1
10
7.69849116121765
20
-1.55856988752856
30
0
41
1
10
7.67218451776708
20
-1.56161450620908
30
0
0
SPLINE
5
AF
100
AcDbEntity
8
1
62
256
6
ByLayer
370
18
48
1
60
0
100
AcDbSpline
70
4
71
3
72
8
73
4
40
0
40
0
40
0
40
0
40
1
40
1
40
1
40
1
41
1
10
7.75845331966622
20
1.55304159145351
30
0
41
1
10
7.72831176564227
20
1.55586123972355
30
0
41
1
10
7.6984911612177
20
1.55856988752856
30
0
41
1
10
7.67218451776714
20
1.56161450620908
30
0
0
SPLINE
5
B0
100
AcDbEntity
8
1
62
256
6
ByLayer
370
18
48
1
60
0
100
AcDbSpline
70
4
71
3
72
8
73
4
40
0
40
0
40
0
40
0
40
1
40
1
40
1
40
1
41
1
10
25.9777185780873
20
-0.0307175573301208
30
0
41
1
10
25.8943887635475
20
-0.160739612356281
30
0
41
1
10
25.8084264184487
20
-0.288013487275663
30
0
41
1
10
25.7208035032942
20
-0.413553841732209
30
0
0
SPLINE
5
B1
100
AcDbEntity
8
1
62
256
6
ByLayer
370
18
48
1
60
0
100
AcDbSpline
70
4
71
3
72
8
73
4
40
0
40
0
40
0
40
0
40
1
40
1
40
1
40
1
41
1
10
25.9959477144091
20
-0.0773558392512825
30
0
41
1
10
25.9955881929318
20
-0.0642533394147335
30
0
41
1
10
25.9970210516973
20
-0.0482013450703676
30
0
41
1
10
25.9997049102455
20
-0.0308592475620912
30
0
0
SPLINE
5
B2
100
AcDbEntity
8
1
62
256
6
ByLayer
370
18
48
1
60
0
100
AcDbSpline
70
4
71
3
72
8
73
4
40
0
40
0
40
0
40
0
40
1
40
1
40
1
40
1
41
1
10
25.9192032838365
20
0.544231990590674
30
0
41
1
10
25.9125377735036
20
0.507229937230875
30
0
41
1
10
25.9048105327321
20
0.470523886615865
30
0
41
1
10
25.8961268259922
20
0.434096413473469
30
0
0
SPLINE
5
B3
100
AcDbEntity
8
1
62
256
6
ByLayer
370
18
48
1
60
0
100
AcDbSpline
70
4
71
3
72
12
73
8
40
0
40
0
40
0
40
0
40
0.249999999999964
40
0.249999999999964
40
0.499999999999927
40
0.499999999999927
40
1
40
1
40
1
40
1
41
1
10
25.3295206891404
20
0.37960723260835
30
0
41
1
10
25.3298259895414
20
0.389448766747449
30
0
41
1
10
25.3329505474119
20
0.399177622169901
30
0
41
1
10
25.3442209336948
20
0.415868988610839
30
0
41
1
10
25.3523349584758
20
0.422836238117725
30
0
41
1
10
25.3793538088729
20
0.438162288940049
30
0
41
1
10
25.4004152534736
20
0.44165364352699
30
0
41
1
10
25.4210662322934
20
0.441269587522527
30
0
0
SPLINE
5
B4
100
AcDbEntity
8
1
62
256
6
ByLayer
370
18
48
1
60
0
100
AcDbSpline
70
4
71
3
72
24
73
20
40
0
40
0
40
0
40
0
40
0.0624999999999996
40
0.0624999999999996
40
0.124999999999999
40
0.124999999999999
40
0.187499999999999
40
0.187499999999999
40
0.249999999999998
40
0.249999999999998
40
0.374999999999998
40
0.374999999999998
40
0.499999999999997
40
0.499999999999997
40
0.624999999999996
40
0.624999999999996
40
0.749999999999995
40
0.749999999999995
40
1
40
1
40
1
40
1
41
1
10
23.9691031151539
20
0.656059679804656
30
0
41
1
10
23.96097922083
20
0.611417136717051
30
0
41
1
10
23.9560757226736
20
0.565415413621508
30
0
41
1
10
23.9530820679489
20
0.470536371636342
30
0
41
1
10
23.9550848920279
20
0.421603641869154
30
0
41
1
10
23.9657336496366
20
0.324696254855894
30
0
41
1
10
23.9743411590895
20
0.276238816861792
30
0
41
1
10
23.9977538584361
20
0.179316872274285
30
0
41
1
10
24.0127012707596
20
0.130572582262602
30
0
41
1
10
24.0647345661928
20
-0.0111907503066391
30
0
41
1
10
24.1091142994706
20
-0.101177960717592
30
0
41
1
10
24.2131643909937
20
-0.274017905017161
30
0
41
1
10
24.2711846865321
20
-0.354138747800846
30
0
41
1
10
24.3954029074964
20
-0.504510729204867
30
0
41
1
10
24.4619874375658
20
-0.575114590483338
30
0
41
1
10
24.6009208228695
20
-0.707437410533515
30
0
41
1
10
24.672397309068
20
-0.768378732027685
30
0
41
1
10
24.8915947688231
20
-0.938818644322623
30
0
41
1
10
25.0439814598475
20
-1.03619884700171
30
0
41
1
10
25.2013303623344
20
-1.12069057007255
30
0
0
SPLINE
5
B5
100
AcDbEntity
8
1
62
256
6
ByLayer
370
18
48
1
60
0
100
AcDbSpline
70
4
71
3
72
8
73
4
40
0
40
0
40
0
40
0
40
1
40
1
40
1
40
1
41
1
10
25.4629206262323
20
-0.772580069268031
30
0
41
1
10
25.3766740586582
20
-0.88965469020448
30
0
41
1
10
25.2893697217736
20
-1.00560353724754
30
0
41
1
10
25.2013303623371
20
-1.12069057006573
30
0
0
SPLINE
5
B6
100
AcDbEntity
8
1
62
256
6
ByLayer
370
18
48
1
60
0
100
AcDbSpline
70
4
71
3
72
56
73
52
40
0
40
0
40
0
40
0
40
0.124999999999983
40
0.124999999999983
40
0.187499999999975
40
0.187499999999975
40
0.249999999999967
40
0.249999999999967
40
0.281249999999964
40
0.281249999999964
40
0.312499999999961
40
0.312499999999961
40
0.328124999999959
40
0.328124999999959
40
0.343749999999956
40
0.343749999999956
40
0.359374999999954
40
0.359374999999954
40
0.374999999999951
40
0.374999999999951
40
0.390624999999949
40
0.390624999999949
40
0.406249999999947
40
0.406249999999947
40
0.421874999999944
40
0.421874999999944
40
0.437499999999942
40
0.437499999999942
40
0.468749999999937
40
0.468749999999937
40
0.499999999999933
40
0.499999999999933
40
0.507812499999933
40
0.507812499999933
40
0.511718749999935
40
0.511718749999935
40
0.515624999999936
40
0.515624999999936
40
0.52343749999994
40
0.52343749999994
40
0.531249999999943
40
0.531249999999943
40
0.562499999999947
40
0.562499999999947
40
0.624999999999955
40
0.624999999999955
40
0.74999999999997
40
0.74999999999997
40
0.874999999999985
40
0.874999999999985
40
1
40
1
40
1
40
1
41
1
10
7.62335873917334
20
-0.173109351720882
30
0
41
1
10
7.41063146976802
20
-0.0472510033638684
30
0
41
1
10
7.19909236552516
20
0.0829414566226205
30
0
41
1
10
6.88501971802447
20
0.288292200841852
30
0
41
1
10
6.78096103224067
20
0.358464483768785
30
0
41
1
10
6.57923069918473
20
0.501474724502373
30
0
41
1
10
6.48100054640059
20
0.574515145179674
30
0
41
1
10
6.34087776053127
20
0.689191486701219
30
0
41
1
10
6.29514244823645
20
0.72852613791278
30
0
41
1
10
6.20874958172757
20
0.808893299693437
30
0
41
1
10
6.16824072732533
20
0.849704082878787
30
0
41
1
10
6.11377206589188
20
0.91270991003671
30
0
41
1
10
6.09667914839059
20
0.934015542184028
30
0
41
1
10
6.06531957113651
20
0.977494330617617
30
0
41
1
10
6.05093506882935
20
0.999871212382544
30
0
41
1
10
6.02675719167942
20
1.04484731545679
30
0
41
1
10
6.01700250799638
20
1.06732648204223
30
0
41
1
10
6.00347943456779
20
1.11237759849897
30
0
41
1
10
5.99983588946395
20
1.13490654263882
30
0
41
1
10
6.00011747548317
20
1.17786054168693
30
0
41
1
10
6.00400614897652
20
1.19872825913993
30
0
41
1
10
6.01956625099041
20
1.2382034719038
30
0
41
1
10
6.03095141489055
20
1.25630440107881
30
0
41
1
10
6.05988981221526
20
1.28984687542979
30
0
41
1
10
6.07743517363735
20
1.30518879641753
30
0
41
1
10
6.11609806367872
20
1.33271623139513
30
0
41
1
10
6.13738978544717
20
1.34508515941835
30
0
41
1
10
6.20585214972539
20
1.37907212475648
30
0
41
1
10
6.25673297699089
20
1.39722012200605
30
0
41
1
10
6.36258760361997
20
1.42786140839166
30
0
41
1
10
6.41805674322546
20
1.44046388719534
30
0
41
1
10
6.48959697863907
20
1.45409715227683
30
0
41
1
10
6.50400008459667
20
1.45669710794471
30
0
41
1
10
6.52566589304286
20
1.46048575150604
30
0
41
1
10
6.53290203630536
20
1.46172635024132
30
0
41
1
10
6.54749513655133
20
1.46408669128854
30
0
41
1
10
6.55557785851238
20
1.46473501685995
30
0
41
1
10
6.57948964555342
20
1.46552866939288
30
0
41
1
10
6.59520083904783
20
1.46465354868482
30
0
41
1
10
6.62668876004832
20
1.46329587622296
30
0
41
1
10
6.64244405314395
20
1.46267513042824
30
0
41
1
10
6.72116647415601
20
1.4593488830908
30
0
41
1
10
6.78402506982172
20
1.45632570044538
30
0
41
1
10
6.97224926654397
20
1.4460795359704
30
0
41
1
10
7.09735868905057
20
1.43767397419396
30
0
41
1
10
7.46978101793624
20
1.40701390670429
30
0
41
1
10
7.71459250659214
20
1.37925784533871
30
0
41
1
10
8.19829226945683
20
1.30398207284057
30
0
41
1
10
8.4376098019257
20
1.25623565024088
30
0
41
1
10
8.90997521055832
20
1.13739313863917
30
0
41
1
10
9.14248041962722
20
1.06648176563061
30
0
41
1
10
9.37291471758465
20
0.984035514389973
30
0
0
SPLINE
5
B7
100
AcDbEntity
8
1
62
256
6
ByLayer
370
18
48
1
60
0
100
AcDbSpline
70
4
71
3
72
8
73
4
40
0
40
0
40
0
40
0
40
1
40
1
40
1
40
1
41
1
10
25.9964039908744
20
-0.1080128107142
30
0
41
1
10
25.9963782250081
20
-0.0977895824353254
30
0
41
1
10
25.9962279968394
20
-0.0875705294176612
30
0
41
1
10
25.995947714409
20
-0.077355839251311
30
0
0
SPLINE
5
B8
100
AcDbEntity
8
1
62
256
6
ByLayer
370
18
48
1
60
0
100
AcDbSpline
70
4
71
3
72
16
73
12
40
0
40
0
40
0
40
0
40
0.25
40
0.25
40
0.375
40
0.375
40
0.5
40
0.5
40
0.75
40
0.75
40
1
40
1
40
1
40
1
41
1
10
25.2013303623331
20
-1.12069057007312
30
0
41
1
10
25.2226864580034
20
-1.1835011242319
30
0
41
1
10
25.2448920385033
20
-1.23883792985163
30
0
41
1
10
25.2792431317957
20
-1.31114325821912
30
0
41
1
10
25.2908704943088
20
-1.33344921642501
30
0
41
1
10
25.3144754029556
20
-1.37440993248438
30
0
41
1
10
25.3265038827575
20
-1.39312053052345
30
0
41
1
10
25.3624579242772
20
-1.44268170407167
30
0
41
1
10
25.3864085786172
20
-1.46736509828625
30
0
41
1
10
25.4344355755875
20
-1.50034525262109
30
0
41
1
10
25.4586606531566
20
-1.50860127073952
30
0
41
1
10
25.4826481282827
20
-1.5080814322103
30
0
0
SPLINE
5
B9
100
AcDbEntity
8
1
62
256
6
ByLayer
370
18
48
1
60
0
100
AcDbSpline
70
4
71
3
72
32
73
28
40
0
40
0
40
0
40
0
40
0.124999999999997
40
0.124999999999997
40
0.249999999999994
40
0.249999999999994
40
0.312499999999988
40
0.312499999999988
40
0.374999999999982
40
0.374999999999982
40
0.406249999999981
40
0.406249999999981
40
0.437499999999981
40
0.437499999999981
40
0.46874999999998
40
0.46874999999998
40
0.499999999999979
40
0.499999999999979
40
0.562499999999978
40
0.562499999999978
40
0.624999999999977
40
0.624999999999977
40
0.749999999999985
40
0.749999999999985
40
0.874999999999992
40
0.874999999999992
40
1
40
1
40
1
40
1
41
1
10
25.4629206262324
20
-0.772580069268116
30
0
41
1
10
25.4070283021864
20
-0.750487008072895
30
0
41
1
10
25.3522854349151
20
-0.724328535429493
30
0
41
1
10
25.2454282413379
20
-0.662714937354878
30
0
41
1
10
25.1932363443613
20
-0.627534164729354
30
0
41
1
10
25.1182922948869
20
-0.562936631110802
30
0
41
1
10
25.0939635283079
20
-0.539418835091197
30
0
41
1
10
25.0495072032484
20
-0.487491777163171
30
0
41
1
10
25.0287466318746
20
-0.458703046665846
30
0
41
1
10
25.0069603684651
20
-0.410158956120114
30
0
41
1
10
25.0014303850444
20
-0.393134333267398
30
0
41
1
10
24.9968355577323
20
-0.359016914428821
30
0
41
1
10
24.9980589364488
20
-0.342081571352054
30
0
41
1
10
25.0078615774245
20
-0.312989916216509
30
0
41
1
10
25.016164859254
20
-0.300918007332655
30
0
41
1
10
25.0362076248876
20
-0.281598447365496
30
0
41
1
10
25.0476024892779
20
-0.274428788842414
30
0
41
1
10
25.0841558343288
20
-0.257214359340594
30
0
41
1
10
25.1108235944278
20
-0.251745835294457
30
0
41
1
10
25.1651704467614
20
-0.246307333435794
30
0
41
1
10
25.1931665093691
20
-0.246539151292723
30
0
41
1
10
25.2766284521819
20
-0.25253377818521
30
0
41
1
10
25.3325037738221
20
-0.263412193127607
30
0
41
1
10
25.4445278606084
20
-0.293210155386589
30
0
41
1
10
25.5009333190045
20
-0.312440062327511
30
0
41
1
10
25.6119724777723
20
-0.357611207679298
30
0
41
1
10
25.6668025370191
20
-0.38356032663603
30
0
41
1
10
25.7208035032943
20
-0.413553841732181
30
0
0
SPLINE
5
BA
100
AcDbEntity
8
1
62
256
6
ByLayer
370
18
48
1
60
0
100
AcDbSpline
70
4
71
3
72
34
73
30
40
0
40
0
40
0
40
0
40
0.0786994237132609
40
0.0786994237132609
40
0.157398847426522
40
0.157398847426522
40
0.236098271139783
40
0.236098271139783
40
0.275447982996412
40
0.275447982996412
40
0.314797694853041
40
0.314797694853041
40
0.3934971185663
40
0.3934971185663
40
0.472196542279558
40
0.472196542279558
40
0.550895965992816
40
0.550895965992816
40
0.629595389706075
40
0.629595389706075
40
0.708294813419333
40
0.708294813419333
40
0.786994237132592
40
0.786994237132592
40
0.86569366084585
40
0.86569366084585
40
0.944393084559109
40
0.944393084559109
40
1
40
1
40
1
40
1
41
1
10
9.37291471758425
20
0.984035514390115
30
0
41
1
10
9.54267699788232
20
0.90999564150772
30
0
41
1
10
9.71208595866588
20
0.83254628146409
30
0
41
1
10
10.0494145809744
20
0.669987450217633
30
0
41
1
10
10.2168466265933
20
0.583986111073187
30
0
41
1
10
10.5530910776731
20
0.409160237362386
30
0
41
1
10
10.7207026310932
20
0.318240557591991
30
0
41
1
10
10.9735432469137
20
0.180476925195421
30
0
41
1
10
11.0581048172871
20
0.134418626767769
30
0
41
1
10
11.227538826129
20
0.0415425265815088
30
0
41
1
10
11.3123578386663
20
-0.0056239160922189
30
0
41
1
10
11.5673254360829
20
-0.146719955221613
30
0
41
1
10
11.7367266101727
20
-0.238695136313282
30
0
41
1
10
12.0732762000682
20
-0.42076323758846
30
0
41
1
10
12.2411496702924
20
-0.509478973447557
30
0
41
1
10
12.577177283367
20
-0.680504528253664
30
0
41
1
10
12.7445969227668
20
-0.764019800535124
30
0
41
1
10
13.0820356969659
20
-0.920730704142301
30
0
41
1
10
13.2512217838153
20
-0.995885004910519
30
0
41
1
10
13.5913594819175
20
-1.13455662901697
30
0
41
1
10
13.7605129372529
20
-1.197489533496
30
0
41
1
10
14.0967662326725
20
-1.31109635874796
30
0
41
1
10
14.2649939156835
20
-1.36053156151735
30
0
41
1
10
14.6004054987185
20
-1.44611299241095
30
0
41
1
10
14.768236021873
20
-1.48158089050506
30
0
41
1
10
15.1055610414185
20
-1.53693221011085
30
0
41
1
10
15.2745568141457
20
-1.55718541439617
30
0
41
1
10
15.5650053209709
20
-1.57719991386972
30
0
41
1
10
15.684472836743
20
-1.58135330981258
30
0
41
1
10
15.8035868362107
20
-1.58139545564367
30
0
0
SPLINE
5
BB
100
AcDbEntity
8
1
62
256
6
ByLayer
370
18
48
1
60
0
100
AcDbSpline
70
4
71
3
72
20
73
16
40
0
40
0
40
0
40
0
40
0.114247197080245
40
0.114247197080245
40
0.202822477372223
40
0.202822477372223
40
0.291397757664201
40
0.291397757664201
40
0.46854831824815
40
0.46854831824815
40
0.6456988788321
40
0.6456988788321
40
0.82284943941605
40
0.82284943941605
40
1
40
1
40
1
40
1
41
1
10
22.7013957595813
20
1.17810462869716
30
0
41
1
10
22.8095438532564
20
1.21832640791791
30
0
41
1
10
22.9177090048455
20
1.2561858680447
30
0
41
1
10
23.1106242406567
20
1.31812018572032
30
0
41
1
10
23.1951271904598
20
1.34346562474826
30
0
41
1
10
23.3642744965426
20
1.39106275150118
30
0
41
1
10
23.4491392145983
20
1.41327226640124
30
0
41
1
10
23.7038132576719
20
1.47393293060617
30
0
41
1
10
23.8730288812703
20
1.5061709117295
30
0
41
1
10
24.2088018019288
20
1.5555605219505
30
0
41
1
10
24.3767591551876
20
1.57198019450388
30
0
41
1
10
24.7120627187432
20
1.58889895935133
30
0
41
1
10
24.8795230729301
20
1.58919704094356
30
0
41
1
10
25.2166776610441
20
1.57346003076788
30
0
41
1
10
25.3855602215735
20
1.55717155737176
30
0
41
1
10
25.555672288993
20
1.5327999130173
30
0
0
SPLINE
5
BC
100
AcDbEntity
8
1
62
256
6
ByLayer
370
13
48
1
60
0
100
AcDbSpline
70
4
71
3
72
28
73
24
40
0
40
0
40
0
40
0
40
0.15467864113855
40
0.15467864113855
40
0.232017961707825
40
0.232017961707825
40
0.270687621992463
40
0.270687621992463
40
0.3093572822771
40
0.3093572822771
40
0.46403592341565
40
0.46403592341565
40
0.541375243984925
40
0.541375243984925
40
0.6187145645542
40
0.6187145645542
40
0.773393205692748
40
0.773393205692748
40
0.850732526262023
40
0.850732526262023
40
0.928071846831298
40
0.928071846831298
40
1
40
1
40
1
40
1
41
1
10
25.4826481282926
20
-1.5080814322103
30
0
41
1
10
25.1124395936004
20
-1.50912166348761
30
0
41
1
10
24.7470455846773
20
-1.4719997565463
30
0
41
1
10
24.1982141910563
20
-1.36500787154017
30
0
41
1
10
24.0152171583832
20
-1.32069270148469
30
0
41
1
10
23.739354794525
20
-1.24210607287472
30
0
41
1
10
23.6471730028343
20
-1.2138967421576
30
0
41
1
10
23.4621808690142
20
-1.15359914038086
30
0
41
1
10
23.3692560467487
20
-1.12146094610216
30
0
41
1
10
22.907150522432
20
-0.953206815536618
30
0
41
1
10
22.5423278545462
20
-0.792952878599522
30
0
41
1
10
21.9931619061813
20
-0.529649265944499
30
0
41
1
10
21.8098275403877
20
-0.437972243380756
30
0
41
1
10
21.4412231311757
20
-0.249264721932178
30
0
41
1
10
21.2551898166241
20
-0.151856862960585
30
0
41
1
10
20.7016316426239
20
0.138705916012725
30
0
41
1
10
20.3366536873483
20
0.331905263730704
30
0
41
1
10
19.7860554098312
20
0.603573787129307
30
0
41
1
10
19.6019817385687
20
0.691032100659044
30
0
41
1
10
19.2316837889403
20
0.857800925480234
30
0
41
1
10
19.0464611393625
20
0.936292823874737
30
0
41
1
10
18.6914739165686
20
1.07450471667701
30
0
41
1
10
18.5210147113431
20
1.13541343176791
30
0
41
1
10
18.3505813138121
20
1.1899928659945
30
0
0
SPLINE
5
BD
100
AcDbEntity
8
1
62
256
6
ByLayer
370
18
48
1
60
0
100
AcDbSpline
70
4
71
3
72
8
73
4
40
0
40
0
40
0
40
0
40
1
40
1
40
1
40
1
41
1
10
18.3505813205255
20
1.18999286384457
30
0
41
1
10
18.2770042212311
20
1.21355512641699
30
0
41
1
10
18.2034319317172
20
1.23593780114447
30
0
41
1
10
18.1298182542368
20
1.25708961738974
30
0
0
SPLINE
5
BE
100
AcDbEntity
8
1
62
256
6
ByLayer
370
18
48
1
60
0
100
AcDbSpline
70
4
71
3
72
10
73
6
40
0
40
0
40
0
40
0
40
0.5
40
0.5
40
1
40
1
40
1
40
1
41
1
10
25.9959477144087
20
0.077355839251851
30
0
41
1
10
25.9957685818895
20
0.0708274843341883
30
0
41
1
10
25.9960556850519
20
0.0633931977986606
30
0
41
1
10
25.9973590671512
20
0.0477416809381168
30
0
41
1
10
25.9983695869447
20
0.0394876109623397
30
0
41
1
10
25.9997049102532
20
0.0308592475118417
30
0
0
SPLINE
5
BF
100
AcDbEntity
8
1
62
256
6
ByLayer
370
18
48
1
60
0
100
AcDbSpline
70
4
71
3
72
26
73
22
40
0
40
0
40
0
40
0
40
0.105457425289104
40
0.105457425289104
40
0.210914850578207
40
0.210914850578207
40
0.316372275867311
40
0.316372275867311
40
0.421829701156414
40
0.421829701156414
40
0.527287126445518
40
0.527287126445518
40
0.632744551734621
40
0.632744551734621
40
0.738201977023725
40
0.738201977023725
40
0.843659402312829
40
0.843659402312829
40
0.949116827601932
40
0.949116827601932
40
1
40
1
40
1
40
1
41
1
10
9.37291471758425
20
-1.00788893874983
30
0
41
1
10
9.5254800274673
20
-1.06668778094544
30
0
41
1
10
9.677825469374
20
-1.12122390414098
30
0
41
1
10
9.98162375547906
20
-1.22131449089002
30
0
41
1
10
10.1334960087624
20
-1.26582353013811
30
0
41
1
10
10.438133385314
20
-1.34373403804489
30
0
41
1
10
10.590596738058
20
-1.3773847991003
30
0
41
1
10
10.894834785934
20
-1.43330682759384
30
0
41
1
10
11.0468720342667
20
-1.45533243649081
30
0
41
1
10
11.3508762484279
20
-1.48583239223041
30
0
41
1
10
11.503691666107
20
-1.49447659650315
30
0
41
1
10
11.8082572925272
20
-1.50068913632683
30
0
41
1
10
11.9602055308987
20
-1.4986161296778
30
0
41
1
10
12.2644653606578
20
-1.4798302090976
30
0
41
1
10
12.4168642778506
20
-1.4629138163277
30
0
41
1
10
12.7216499835329
20
-1.41722441323031
30
0
41
1
10
12.8739282973563
20
-1.38851884025621
30
0
41
1
10
13.1782474158356
20
-1.32127395845501
30
0
41
1
10
13.3304374566314
20
-1.28165264181547
30
0
41
1
10
13.5567676165746
20
-1.21588156380722
30
0
41
1
10
13.6303205590396
20
-1.19337199609836
30
0
41
1
10
13.7036796521431
20
-1.16910931149727
30
0
0
SPLINE
5
C0
100
AcDbEntity
8
1
62
256
6
ByLayer
370
18
48
1
60
0
100
AcDbSpline
70
4
71
3
72
22
73
18
40
0
40
0
40
0
40
0
40
0.0068100133931214
40
0.0068100133931214
40
0.148694297194104
40
0.148694297194104
40
0.290578580995087
40
0.290578580995087
40
0.432462864796069
40
0.432462864796069
40
0.574347148597052
40
0.574347148597052
40
0.716231432398035
40
0.716231432398035
40
0.858115716199017
40
0.858115716199017
40
1
40
1
40
1
40
1
41
1
10
20.7600427074413
20
1.50467105508011
30
0
41
1
10
20.7673303807312
20
1.50470484763389
30
0
41
1
10
20.7746167406172
20
1.50472046327363
30
0
41
1
10
20.9336815608713
20
1.50464645105998
30
0
41
1
10
21.085246273816
20
1.4973363312865
30
0
41
1
10
21.3885893833476
20
1.47063784301329
30
0
41
1
10
21.5405821491969
20
1.45059595366502
30
0
41
1
10
21.8446168763706
20
1.40047448793837
30
0
41
1
10
21.9961017283806
20
1.36914410494754
30
0
41
1
10
22.2992990641756
20
1.29463337465646
30
0
41
1
10
22.4511913386656
20
1.25181311183854
30
0
41
1
10
22.7552096392387
20
1.15613661548949
30
0
41
1
10
22.9069362658595
20
1.10406611522134
30
0
41
1
10
23.2101564277994
20
0.98950831946712
30
0
41
1
10
23.3615953311998
20
0.927306705181223
30
0
41
1
10
23.665560426699
20
0.796309632016175
30
0
41
1
10
23.8176524208601
20
0.727660012276971
30
0
41
1
10
23.9691031151518
20
0.656059679805708
30
0
0
SPLINE
5
C1
100
AcDbEntity
8
1
62
256
6
ByLayer
370
18
48
1
60
0
100
AcDbSpline
70
4
71
3
72
62
73
58
40
0
40
0
40
0
40
0
40
0.0084428587337075
40
0.0084428587337075
40
0.0501443466574855
40
0.0501443466574855
40
0.0918458345812635
40
0.0918458345812635
40
0.133547322505041
40
0.133547322505041
40
0.175248810428819
40
0.175248810428819
40
0.196099554390708
40
0.196099554390708
40
0.216950298352597
40
0.216950298352597
40
0.258651786276377
40
0.258651786276377
40
0.279502530238266
40
0.279502530238266
40
0.300353274200156
40
0.300353274200156
40
0.342054762123937
40
0.342054762123937
40
0.383756250047718
40
0.383756250047718
40
0.425457737971499
40
0.425457737971499
40
0.46715922589528
40
0.46715922589528
40
0.508860713819061
40
0.508860713819061
40
0.550562201742842
40
0.550562201742842
40
0.592263689666623
40
0.592263689666623
40
0.633965177590404
40
0.633965177590404
40
0.675666665514185
40
0.675666665514185
40
0.717368153437965
40
0.717368153437965
40
0.759069641361746
40
0.759069641361746
40
0.800771129285527
40
0.800771129285527
40
0.821621873247418
40
0.821621873247418
40
0.842472617209308
40
0.842472617209308
40
0.884174105133089
40
0.884174105133089
40
0.92587559305687
40
0.92587559305687
40
0.967577080980651
40
0.967577080980651
40
1
40
1
40
1
40
1
41
1
10
22.6930585715949
20
-1.17518854650547
30
0
41
1
10
22.662280215477
20
-1.18522643369104
30
0
41
1
10
22.6314956981293
20
-1.19508092149277
30
0
41
1
10
22.4486115080391
20
-1.25256925529817
30
0
41
1
10
22.296040298009
20
-1.29552108559776
30
0
41
1
10
21.9921795238004
20
-1.37001904012925
30
0
41
1
10
21.8404862943378
20
-1.40125953177502
30
0
41
1
10
21.5362904478337
20
-1.45119643579281
30
0
41
1
10
21.3839277289883
20
-1.47119009052957
30
0
41
1
10
21.0798799126721
20
-1.49766192925819
30
0
41
1
10
20.9281023354591
20
-1.5048356411769
30
0
41
1
10
20.700332927042
20
-1.50465643196031
30
0
41
1
10
20.6243249117569
20
-1.50255165676913
30
0
41
1
10
20.4721297115336
20
-1.49612069196914
30
0
41
1
10
20.3958841125498
20
-1.49160605069986
30
0
41
1
10
20.1675110664189
20
-1.47368993987899
30
0
41
1
10
20.0159221079562
20
-1.45580121696384
30
0
41
1
10
19.7881682979542
20
-1.41947882864386
30
0
41
1
10
19.7122393668386
20
-1.40574197884456
30
0
41
1
10
19.5601994666847
20
-1.37444436524746
30
0
41
1
10
19.4840910710439
20
-1.3569210886736
30
0
41
1
10
19.2555460152767
20
-1.30169510795343
30
0
41
1
10
19.1034003092224
20
-1.26023345511916
30
0
41
1
10
18.7995479657408
20
-1.16680672258076
30
0
41
1
10
18.6478912406673
20
-1.11487253374449
30
0
41
1
10
18.3433093290065
20
-1.00110819494688
30
0
41
1
10
18.1909227237934
20
-0.939268317051074
30
0
41
1
10
17.8868081179092
20
-0.809309131157733
30
0
41
1
10
17.7346303008183
20
-0.740883092262408
30
0
41
1
10
17.4306091424566
20
-0.597701295341892
30
0
41
1
10
17.2779489133841
20
-0.523651908227436
30
0
41
1
10
16.9738630420818
20
-0.371479091006535
30
0
41
1
10
16.8221411897534
20
-0.2932646239164
30
0
41
1
10
16.5179757499862
20
-0.135650529697131
30
0
41
1
10
16.3655147806889
20
-0.0556519178940391
30
0
41
1
10
16.0613781119445
20
0.104097258015287
30
0
41
1
10
15.9094670272276
20
0.183295789725577
30
0
41
1
10
15.605652178541
20
0.339885181408363
30
0
41
1
10
15.4534897455017
20
0.41724871803774
30
0
41
1
10
15.1488652112465
20
0.568032036287747
30
0
41
1
10
14.9972116635333
20
0.641713268489781
30
0
41
1
10
14.6935619464559
20
0.781815871842213
30
0
41
1
10
14.5414694711851
20
0.847277627490172
30
0
41
1
10
14.2370324724949
20
0.973980473246456
30
0
41
1
10
14.0849184903132
20
1.03397060726385
30
0
41
1
10
13.8571253288033
20
1.11678231218934
30
0
41
1
10
13.7813295944274
20
1.14337964173825
30
0
41
1
10
13.6296088052977
20
1.19365598372755
30
0
41
1
10
13.5535914744223
20
1.21685424319835
30
0
41
1
10
13.3252764181288
20
1.28304732387369
30
0
41
1
10
13.1728894718041
20
1.32257698074218
30
0
41
1
10
12.8689395114685
20
1.38949799034231
30
0
41
1
10
12.7169427573593
20
1.41803434746109
30
0
41
1
10
12.4130092473549
20
1.4633844404519
30
0
41
1
10
12.2606286653327
20
1.48018851195081
30
0
41
1
10
11.9903905657051
20
1.49665532895281
30
0
41
1
10
11.8723794665351
20
1.49945396415981
30
0
41
1
10
11.754300402191
20
1.49885022741083
30
0
0
SPLINE
5
C2
100
AcDbEntity
8
1
62
256
6
ByLayer
370
18
48
1
60
0
100
AcDbSpline
70
4
71
3
72
38
73
34
40
0
40
0
40
0
40
0
40
0.0600637511874294
40
0.0600637511874294
40
0.120127502374859
40
0.120127502374859
40
0.240255004749716
40
0.240255004749716
40
0.27028688034343
40
0.27028688034343
40
0.300318755937145
40
0.300318755937145
40
0.360382507124571
40
0.360382507124571
40
0.480510009499425
40
0.480510009499425
40
0.540573760686851
40
0.540573760686851
40
0.600637511874277
40
0.600637511874277
40
0.720765014249127
40
0.720765014249127
40
0.780828765436551
40
0.780828765436551
40
0.840892516623976
40
0.840892516623976
40
0.9009562678114
40
0.9009562678114
40
0.930988143405113
40
0.930988143405113
40
0.961020018998826
40
0.961020018998826
40
1
40
1
40
1
40
1
41
1
10
25.4828057213894
20
-1.58286231943191
30
0
41
1
10
25.2969793799707
20
-1.59061052847886
30
0
41
1
10
25.1114684906304
20
-1.58823771586896
30
0
41
1
10
24.7395215726359
20
-1.56358478085445
30
0
41
1
10
24.553834598152
20
-1.54129827113817
30
0
41
1
10
24.0007686770043
20
-1.44685928794325
30
0
41
1
10
23.6354890957088
20
-1.34669908750425
30
0
41
1
10
23.1745376662384
20
-1.1827156320243
30
0
41
1
10
23.0821416374845
20
-1.14797750098026
30
0
41
1
10
22.8968064989972
20
-1.07470609977594
30
0
41
1
10
22.8036344524229
20
-1.03605393331907
30
0
41
1
10
22.5252640407513
20
-0.915910191051069
30
0
41
1
10
22.3409227566617
20
-0.83020330148355
30
0
41
1
10
21.7892683938107
20
-0.560326199183635
30
0
41
1
10
21.4235864485675
20
-0.362934133671757
30
0
41
1
10
20.8684161718298
20
-0.057566636185669
30
0
41
1
10
20.6816632994917
20
0.0460722601667669
30
0
41
1
10
20.3121338144307
20
0.249916235680217
30
0
41
1
10
20.1283091636936
20
0.350198994925591
30
0
41
1
10
19.5772987367373
20
0.642077358565928
30
0
41
1
10
19.2110608228701
20
0.825514548618315
30
0
41
1
10
18.653186650765
20
1.06638909458687
30
0
41
1
10
18.4676528555026
20
1.1401777106243
30
0
41
1
10
18.0991231254427
20
1.27191427159815
30
0
41
1
10
17.9155992163148
20
1.33004245270675
30
0
41
1
10
17.5484523253816
20
1.42930339803692
30
0
41
1
10
17.3647628867049
20
1.47037806763618
30
0
41
1
10
17.0879009299782
20
1.51817135277446
30
0
41
1
10
16.9953890479376
20
1.5317986693149
30
0
41
1
10
16.8097627851859
20
1.55429323255373
30
0
41
1
10
16.7164725868456
20
1.56316506868259
30
0
41
1
10
16.5032823591661
20
1.57775693849311
30
0
41
1
10
16.3833760635325
20
1.58179562687195
30
0
41
1
10
16.2637723517377
20
1.58169669590879
30
0
0
SPLINE
5
C3
100
AcDbEntity
8
1
62
256
6
ByLayer
370
18
48
1
60
0
100
AcDbSpline
70
4
71
3
72
8
73
4
40
0
40
0
40
0
40
0
40
1
40
1
40
1
40
1
41
1
10
8.07649507917347
20
-1.51377222790745
30
0
41
1
10
7.97061894615945
20
-1.52998954839663
30
0
41
1
10
7.86465828104539
20
-1.54310644891365
30
0
41
1
10
7.75845331966599
20
-1.55304159145422
30
0
0
SPLINE
5
C4
100
AcDbEntity
8
1
62
256
6
ByLayer
370
18
48
1
60
0
100
AcDbSpline
70
4
71
3
72
30
73
26
40
0
40
0
40
0
40
0
40
0.249999999999997
40
0.249999999999997
40
0.374999999999996
40
0.374999999999996
40
0.499999999999994
40
0.499999999999994
40
0.749999999999999
40
0.749999999999999
40
0.812500000000001
40
0.812500000000001
40
0.843750000000002
40
0.843750000000002
40
0.859375000000002
40
0.859375000000002
40
0.875000000000002
40
0.875000000000002
40
0.890625000000003
40
0.890625000000003
40
0.906250000000003
40
0.906250000000003
40
0.937500000000002
40
0.937500000000002
40
1
40
1
40
1
40
1
41
1
10
23.9691031151539
20
0.656059679804741
30
0
41
1
10
24.082583637791
20
0.551169648839704
30
0
41
1
10
24.2023728994727
20
0.459399467397787
30
0
41
1
10
24.3915500877927
20
0.341486747820767
30
0
41
1
10
24.456298298513
20
0.305561338813391
30
0
41
1
10
24.5859307297129
20
0.242843548943796
30
0
41
1
10
24.6512120970181
20
0.215803043848069
30
0
41
1
10
24.8485821781436
20
0.148848461713499
30
0
41
1
10
24.9836475438523
20
0.122589031419267
30
0
41
1
10
25.1473206991059
20
0.121740468606163
30
0
41
1
10
25.1799283108817
20
0.1231869622153
30
0
41
1
10
25.2282003359656
20
0.128033179821728
30
0
41
1
10
25.2441803899215
20
0.130112274656824
30
0
41
1
10
25.2679840796308
20
0.133928376926235
30
0
41
1
10
25.2759019715844
20
0.135260129438109
30
0
41
1
10
25.291577436202
20
0.138448731645354
30
0
41
1
10
25.299534861
20
0.142052679080137
30
0
41
1
10
25.3062593749208
20
0.158591840046142
30
0
41
1
10
25.3070304958908
20
0.168600306597284
30
0
41
1
10
25.3105171276312
20
0.187221570241945
30
0
41
1
10
25.3121422700239
20
0.196589149954889
30
0
41
1
10
25.3166730739396
20
0.224818592177741
30
0
41
1
10
25.3192373350903
20
0.243820572921493
30
0
41
1
10
25.3256779831979
20
0.301326937558144
30
0
41
1
10
25.3283050902205
20
0.3404217017993
30
0
41
1
10
25.3295206891404
20
0.37960723260835
30
0
0
SPLINE
5
C5
100
AcDbEntity
8
1
62
256
6
ByLayer
370
18
48
1
60
0
100
AcDbSpline
70
4
71
3
72
8
73
4
40
0
40
0
40
0
40
0
40
1
40
1
40
1
40
1
41
1
10
25.9997049102538
20
-0.0308592475477383
30
0
41
1
10
26.0000988995787
20
-0.0102485558403487
30
0
41
1
10
26.0000977070883
20
0.0103109383417177
30
0
41
1
10
25.9997049102544
20
0.0308592475103922
30
0
0
SPLINE
5
C6
100
AcDbEntity
8
1
62
256
6
ByLayer
370
18
48
1
60
0
100
AcDbSpline
70
4
71
3
72
54
73
50
40
0
40
0
40
0
40
0
40
0.021071271622685
40
0.021071271622685
40
0.066590383253056
40
0.066590383253056
40
0.112109494883427
40
0.112109494883427
40
0.157628606513798
40
0.157628606513798
40
0.203147718144169
40
0.203147718144169
40
0.24866682977454
40
0.24866682977454
40
0.294185941404911
40
0.294185941404911
40
0.339705053035282
40
0.339705053035282
40
0.385224164665653
40
0.385224164665653
40
0.430743276296024
40
0.430743276296024
40
0.476262387926395
40
0.476262387926395
40
0.521781499556766
40
0.521781499556766
40
0.567300611187137
40
0.567300611187137
40
0.612819722817508
40
0.612819722817508
40
0.658338834447879
40
0.658338834447879
40
0.70385794607825
40
0.70385794607825
40
0.749377057708621
40
0.749377057708621
40
0.794896169338992
40
0.794896169338992
40
0.840415280969363
40
0.840415280969363
40
0.863174836784549
40
0.863174836784549
40
0.885934392599734
40
0.885934392599734
40
0.931453504230104
40
0.931453504230104
40
0.976972615860473
40
0.976972615860473
40
1
40
1
40
1
40
1
41
1
10
13.6945078076931
20
1.17144075364746
30
0
41
1
10
13.7727643961974
20
1.20038969687491
30
0
41
1
10
13.8508120058645
20
1.22799805385228
30
0
41
1
10
14.0967662326729
20
1.31109635874805
30
0
41
1
10
14.2649939156838
20
1.36053156151743
30
0
41
1
10
14.6004054987188
20
1.446112992411
30
0
41
1
10
14.7682360218733
20
1.48158089050511
30
0
41
1
10
15.1055610414188
20
1.53693221011091
30
0
41
1
10
15.2745568141461
20
1.5571854143962
30
0
41
1
10
15.6149447697627
20
1.58064118847798
30
0
41
1
10
15.7835623435448
20
1.58409015625105
30
0
41
1
10
16.1201024702301
20
1.57455479550629
30
0
41
1
10
16.2881846873748
20
1.56175873471085
30
0
41
1
10
16.6232423539037
20
1.51983459829665
30
0
41
1
10
16.7915151817825
20
1.49128091675851
30
0
41
1
10
17.1282517996515
20
1.41818241466015
30
0
41
1
10
17.2976091387761
20
1.37377910601631
30
0
41
1
10
17.6379215870184
20
1.27120794528975
30
0
41
1
10
17.8062465892714
20
1.21252589664675
30
0
41
1
10
18.1430880085962
20
1.0852379930011
30
0
41
1
10
18.3106152734088
20
1.01541680128617
30
0
41
1
10
18.6460030619161
20
0.86632029512964
30
0
41
1
10
18.8142100729769
20
0.787668859459018
30
0
41
1
10
19.150492832256
20
0.620055449006941
30
0
41
1
10
19.3203060011023
20
0.533318027360252
30
0
41
1
10
19.6600882914874
20
0.352682765210346
30
0
41
1
10
19.828727893753
20
0.260507428766488
30
0
41
1
10
20.1655638774823
20
0.0762487023791039
30
0
41
1
10
20.3327593856172
20
-0.0176910101369288
30
0
41
1
10
20.668470063985
20
-0.202228331945491
30
0
41
1
10
20.8361273948285
20
-0.294412192306169
30
0
41
1
10
21.1727701769786
20
-0.475426922199205
30
0
41
1
10
21.3425892737423
20
-0.563495535947879
30
0
41
1
10
21.6818970899055
20
-0.736089147189205
30
0
41
1
10
21.8510531012378
20
-0.817187990027861
30
0
41
1
10
22.1873593507376
20
-0.971188307360649
30
0
41
1
10
22.3548027422938
20
-1.04350678239737
30
0
41
1
10
22.690586560721
20
-1.17573516066329
30
0
41
1
10
22.8578782732584
20
-1.2369775586476
30
0
41
1
10
23.1106242406574
20
-1.31812018572054
30
0
41
1
10
23.1951271904606
20
-1.34346562474849
30
0
41
1
10
23.3642744965434
20
-1.39106275150138
30
0
41
1
10
23.4491392145991
20
-1.41327226640146
30
0
41
1
10
23.7038132576727
20
-1.47393293060634
30
0
41
1
10
23.8730288812711
20
-1.50617091172964
30
0
41
1
10
24.2088018019296
20
-1.55556052195061
30
0
41
1
10
24.3767591551885
20
-1.57198019450397
30
0
41
1
10
24.6292232683672
20
-1.58471904200675
30
0
41
1
10
24.7139866099091
20
-1.58690987933949
30
0
41
1
10
24.7988703494278
20
-1.58701140459331
30
0
0
SPLINE
5
C7
100
AcDbEntity
8
1
62
256
6
ByLayer
370
13
48
1
60
0
100
AcDbSpline
70
4
71
3
72
24
73
20
40
0
40
0
40
0
40
0
40
0.0707980800417346
40
0.0707980800417346
40
0.203541211464344
40
0.203541211464344
40
0.336284342886954
40
0.336284342886954
40
0.402655908598258
40
0.402655908598258
40
0.469027474309563
40
0.469027474309563
40
0.601770605732172
40
0.601770605732172
40
0.734513737154781
40
0.734513737154781
40
0.867256868577391
40
0.867256868577391
40
1
40
1
40
1
40
1
41
1
10
7.80585697153387
20
-1.49662321761417
30
0
41
1
10
7.80585266290015
20
-1.49811349989309
30
0
41
1
10
7.80584686882949
20
-1.49701763839971
30
0
41
1
10
7.80582720205749
20
-1.48651195831522
30
0
41
1
10
7.80581061898636
20
-1.47041296745738
30
0
41
1
10
7.80577697323886
20
-1.4214347917046
30
0
41
1
10
7.80575977164924
20
-1.38854732116909
30
0
41
1
10
7.80573714684283
20
-1.32635618992202
30
0
41
1
10
7.80573011067906
20
-1.30334630484631
30
0
41
1
10
7.80571791048064
20
-1.25390260555869
30
0
41
1
10
7.80571270841071
20
-1.22739711468137
30
0
41
1
10
7.80570033748114
20
-1.14264148920651
30
0
41
1
10
7.80569642767298
20
-1.0792003740622
30
0
41
1
10
7.80569945072276
20
-0.937890870196668
30
0
41
1
10
7.80570645767125
20
-0.860978722618427
30
0
41
1
10
7.80573063359935
20
-0.698497590229408
30
0
41
1
10
7.80574759788229
20
-0.613738321287627
30
0
41
1
10
7.80578861553994
20
-0.437402156034238
30
0
41
1
10
7.80581289845313
20
-0.345066504048731
30
0
41
1
10
7.80583832058917
20
-0.251005900477622
30
0
0
SPLINE
5
C8
100
AcDbEntity
8
1
62
256
6
ByLayer
370
18
48
1
60
0
100
AcDbSpline
70
4
71
3
72
10
73
6
40
0
40
0
40
0
40
0
40
0.5
40
0.5
40
1
40
1
40
1
40
1
41
1
10
25.5556722889771
20
1.53279991303205
30
0
41
1
10
25.6137475703188
20
1.36749149629219
30
0
41
1
10
25.6734467646135
20
1.20232622815877
30
0
41
1
10
25.7951284678688
20
0.872272319659572
30
0
41
1
10
25.8569551650039
20
0.707877521198668
30
0
41
1
10
25.9192032838364
20
0.544231990590674
30
0
0
SPLINE
5
C9
100
AcDbEntity
8
1
62
256
6
ByLayer
370
18
48
1
60
0
100
AcDbSpline
70
4
71
3
72
34
73
30
40
0
40
0
40
0
40
0
40
0.120993508830361
40
0.120993508830361
40
0.2048106580524
40
0.2048106580524
40
0.288627807274439
40
0.288627807274439
40
0.456262105718518
40
0.456262105718518
40
0.540079254940557
40
0.540079254940557
40
0.561033542246066
40
0.561033542246066
40
0.571510685898821
40
0.571510685898821
40
0.581987829551576
40
0.581987829551576
40
0.592464973204331
40
0.592464973204331
40
0.602942116857086
40
0.602942116857086
40
0.623896404162595
40
0.623896404162595
40
0.791530702606673
40
0.791530702606673
40
0.959165001050751
40
0.959165001050751
40
1
40
1
40
1
40
1
41
1
10
9.37291471758425
20
0.984035514393753
30
0
41
1
10
9.37291471758425
20
0.922506609770807
30
0
41
1
10
9.37291471758425
20
0.855036784474152
30
0
41
1
10
9.37291471758425
20
0.731325220093908
30
0
41
1
10
9.37291471758422
20
0.677904623743615
30
0
41
1
10
9.37291471758422
20
0.568187780473352
30
0
41
1
10
9.37291471758425
20
0.511608029791233
30
0
41
1
10
9.37291471758425
20
0.337001697698327
30
0
41
1
10
9.37291471758425
20
0.214150531704263
30
0
41
1
10
9.37291471758425
20
0.0204890203975197
30
0
41
1
10
9.37291471758425
20
-0.0453819308413586
30
0
41
1
10
9.37291471758425
20
-0.128714448829555
30
0
41
1
10
9.37291471758425
20
-0.145440536356659
30
0
41
1
10
9.37291471758425
20
-0.170616679599647
30
0
41
1
10
9.37291471758425
20
-0.1790204822139
30
0
41
1
10
9.37291471758425
20
-0.195851526693104
30
0
41
1
10
9.37291471758425
20
-0.204153769959845
30
0
41
1
10
9.37291471758425
20
-0.221331303532992
30
0
41
1
10
9.37291471758576
20
-0.230536249795023
30
0
41
1
10
9.37291471758576
20
-0.246285788604155
30
0
41
1
10
9.37291471758428
20
-0.254066184838308
30
0
41
1
10
9.37291471758428
20
-0.277447229097333
30
0
41
1
10
9.37291471758425
20
-0.29294849210936
30
0
41
1
10
9.37291471758425
20
-0.431572110012212
30
0
41
1
10
9.37291471758425
20
-0.548637080654288
30
0
41
1
10
9.37291471758425
20
-0.764181044796288
30
0
41
1
10
9.37291471758425
20
-0.861394098872154
30
0
41
1
10
9.37291471758425
20
-0.968106119678453
30
0
41
1
10
9.37291471758425
20
-0.988382025055159
30
0
41
1
10
9.37291471758425
20
-1.00788893874986
30
0
0
SPLINE
5
CA
100
AcDbEntity
8
1
62
256
6
ByLayer
370
18
48
1
60
0
100
AcDbSpline
70
4
71
3
72
12
73
8
40
0
40
0
40
0
40
0
40
0.25
40
0.25
40
0.5
40
0.5
40
1
40
1
40
1
40
1
41
1
10
7.80583832086086
20
-0.251005900630986
30
0
41
1
10
7.93442326822287
20
-0.324997882439391
30
0
41
1
10
8.06344046617465
20
-0.396756335526732
30
0
41
1
10
8.3226908989401
20
-0.535561403978164
30
0
41
1
10
8.45307657756365
20
-0.602709376944915
30
0
41
1
10
8.84444645122008
20
-0.794793366866315
30
0
41
1
10
9.10627392839245
20
-0.909566755311801
30
0
41
1
10
9.372914717584
20
-1.00788893874972
30
0
0
SPLINE
5
CB
100
AcDbEntity
8
1
62
256
6
ByLayer
370
18
48
1
60
0
100
AcDbSpline
70
4
71
3
72
10
73
6
40
0
40
0
40
0
40
0
40
0.5
40
0.5
40
1
40
1
40
1
40
1
41
1
10
25.5556722889805
20
1.53279991302028
30
0
41
1
10
25.5437683601409
20
1.54571179534878
30
0
41
1
10
25.531623069398
20
1.55645281583608
30
0
41
1
10
25.5073201738929
20
1.57312753827739
30
0
41
1
10
25.4951098209636
20
1.57913402881914
30
0
41
1
10
25.4828057213893
20
1.58286231943208
30
0
0
SPLINE
5
CC
100
AcDbEntity
8
1
62
256
6
ByLayer
370
18
48
1
60
0
100
AcDbSpline
70
4
71
3
72
24
73
20
40
0
40
0
40
0
40
0
40
0.0759457491416613
40
0.0759457491416613
40
0.207953499264281
40
0.207953499264281
40
0.339961249386901
40
0.339961249386901
40
0.471968999509521
40
0.471968999509521
40
0.537972874570831
40
0.537972874570831
40
0.603976749632141
40
0.603976749632141
40
0.735984499754761
40
0.735984499754761
40
0.86799224987738
40
0.86799224987738
40
1
40
1
40
1
40
1
41
1
10
7.62318723243294
20
-1.5762922974358
30
0
41
1
10
7.62319390201023
20
-1.57603545437206
30
0
41
1
10
7.62319763562269
20
-1.57257228253792
30
0
41
1
10
7.62320178535862
20
-1.55434370081332
30
0
41
1
10
7.62319758319052
20
-1.53279215720269
30
0
41
1
10
7.62318390826283
20
-1.47177005717273
30
0
41
1
10
7.62317447817736
20
-1.43227011686477
30
0
41
1
10
7.62315782028176
20
-1.33475967629246
30
0
41
1
10
7.62315085544418
20
-1.27778245363558
30
0
41
1
10
7.62314672805607
20
-1.18155245819264
30
0
41
1
10
7.6231463793147
20
-1.1476154541995
30
0
41
1
10
7.62314825752659
20
-1.07595949343011
30
0
41
1
10
7.62315050993627
20
-1.03801735892134
30
0
41
1
10
7.62316157624764
20
-0.920267790881155
30
0
41
1
10
7.62317467678287
20
-0.836646054088675
30
0
41
1
10
7.62321227849196
20
-0.659393615548055
30
0
41
1
10
7.62323714026616
20
-0.564706001110011
30
0
41
1
10
7.62329397375618
20
-0.371965943473867
30
0
41
1
10
7.62332593178346
20
-0.27355977795338
30
0
41
1
10
7.62335873916834
20
-0.173109351720484
30
0
0
SPLINE
5
CD
100
AcDbEntity
8
SK1
62
256
6
ByLayer
370
18
48
1
60
0
100
AcDbSpline
70
4
71
3
72
14
73
10
40
0
40
0
40
0
40
0
40
0.124999999999999
40
0.124999999999999
40
0.249999999999998
40
0.249999999999998
40
0.499999999999999
40
0.499999999999999
40
1
40
1
40
1
40
1
41
1
10
-35.3
20
-2.85790924101917
30
0
41
1
10
-35.3
20
-2.85500485221667
30
0
41
1
10
-35.3017593723636
20
-2.84914266102388
30
0
41
1
10
-35.3069353411979
20
-2.83516800652546
30
0
41
1
10
-35.3102739075534
20
-2.82718649051785
30
0
41
1
10
-35.3215583577555
20
-2.80156130447705
30
0
41
1
10
-35.3303095934911
20
-2.78324819314341
30
0
41
1
10
-35.358391202053
20
-2.72654557052482
30
0
41
1
10
-35.378655954467
20
-2.6881985537359
30
0
41
1
10
-35.4
20
-2.64985520736388
30
0
0
SPLINE
5
CE
100
AcDbEntity
8
SK1
62
256
6
ByLayer
370
18
48
1
60
0
100
AcDbSpline
70
4
71
3
72
14
73
10
40
0
40
0
40
0
40
0
40
0.5
40
0.5
40
0.749999999999999
40
0.749999999999999
40
0.875
40
0.875
40
1
40
1
40
1
40
1
41
1
10
-35.3999999999999
20
2.71766143955119
30
0
41
1
10
-35.378767123003
20
2.755805078062
30
0
41
1
10
-35.358448284781
20
2.79369320500845
30
0
41
1
10
-35.3303465818655
20
2.84850994820482
30
0
41
1
10
-35.3214424277382
20
2.86633268091515
30
0
41
1
10
-35.3102874140369
20
2.88997141322071
30
0
41
1
10
-35.3068904565005
20
2.89744026445956
30
0
41
1
10
-35.3017488400275
20
2.90980788791239
30
0
41
1
10
-35.3
20
2.91472642699603
30
0
41
1
10
-35.3
20
2.91667464224807
30
0
0
SPLINE
5
CF
100
AcDbEntity
8
SK1
62
256
6
ByLayer
370
18
48
1
60
0
100
AcDbSpline
70
4
71
3
72
8
73
4
40
0
40
0
40
0
40
0
40
1
40
1
40
1
40
1
41
1
10
-36
20
-1.61342565818472
30
0
41
1
10
-35.8060528115596
20
-1.98484796579481
30
0
41
1
10
-35.6037422885354
20
-2.35165017294994
30
0
41
1
10
-35.4
20
-2.71766143955108
30
0
0
SPLINE
5
D0
100
AcDbEntity
8
SK1
62
256
6
ByLayer
370
18
48
1
60
0
100
AcDbSpline
70
4
71
3
72
8
73
4
40
0
40
0
40
0
40
0
40
1
40
1
40
1
40
1
41
1
10
-36
20
1.61342565818472
30
0
41
1
10
-35.8060528115596
20
1.98484796579481
30
0
41
1
10
-35.6037422885354
20
2.35165017294994
30
0
41
1
10
-35.4
20
2.71766143955108
30
0
0
SPLINE
5
D1
100
AcDbEntity
8
SK1
62
256
6
ByLayer
370
18
48
1
60
0
100
AcDbSpline
70
4
71
3
72
14
73
10
40
0
40
0
40
0
40
0
40
0.5
40
0.5
40
0.750000000000002
40
0.750000000000002
40
0.875000000000001
40
0.875000000000001
40
1
40
1
40
1
40
1
41
1
10
-35.3999999999999
20
-2.71766143955119
30
0
41
1
10
-35.3787671230029
20
-2.75580507806205
30
0
41
1
10
-35.358448284781
20
-2.79369320500839
30
0
41
1
10
-35.3303465818655
20
-2.84850994820482
30
0
41
1
10
-35.3214424277381
20
-2.86633268091515
30
0
41
1
10
-35.3102874140369
20
-2.88997141322071
30
0
41
1
10
-35.3068904565005
20
-2.89744026445956
30
0
41
1
10
-35.3017488400275
20
-2.90980788791239
30
0
41
1
10
-35.3
20
-2.91472642699603
30
0
41
1
10
-35.3
20
-2.91667464224807
30
0
0
SPLINE
5
D2
100
AcDbEntity
8
SK1
62
256
6
ByLayer
370
18
48
1
60
0
100
AcDbSpline
70
4
71
3
72
8
73
4
40
0
40
0
40
0
40
0
40
1
40
1
40
1
40
1
41
1
10
-35.4
20
-2.64985520736388
30
0
41
1
10
-35.6037665575601
20
-2.28380034285993
30
0
41
1
10
-35.8061172374636
20
-1.91691835353643
30
0
41
1
10
-35.9999999999999
20
-1.54561942599764
30
0
0
LINE
5
76
100
AcDbEntity
8
81
62
256
6
ByLayer
370
18
48
1
60
0
100
AcDbLine
10
26
20
0
30
0
11
31
21
0
31
0
39
0
210
0
220
0
230
1
0
LINE
5
77
100
AcDbEntity
8
1
62
256
6
ByLayer
370
18
48
1
60
0
100
AcDbLine
10
0
20
-3
30
0
11
1.4125
21
-1.572411
31
0
39
0
210
0
220
0
230
1
0
LINE
5
79
100
AcDbEntity
8
1
62
256
6
ByLayer
370
18
48
1
60
0
100
AcDbLine
10
1.4125
20
1.572411
30
0
11
0
21
3
31
0
39
0
210
0
220
0
230
1
0
LINE
5
7A
100
AcDbEntity
8
1
62
256
6
ByLayer
370
18
48
1
60
0
100
AcDbLine
10
7.623169
20
1.576292
30
0
11
1.4125
21
1.572411
31
0
39
0
210
0
220
0
230
1
0
LINE
5
7B
100
AcDbEntity
8
1
62
256
6
ByLayer
370
18
48
1
60
0
100
AcDbLine
10
16.264684
20
1.581693
30
0
11
15.80132
21
1.581404
31
0
39
0
210
0
220
0
230
1
0
LINE
5
7C
100
AcDbEntity
8
1
62
256
6
ByLayer
370
18
48
1
60
0
100
AcDbLine
10
25.265342
20
1.587319
30
0
11
24.801043
21
1.587028
31
0
39
0
210
0
220
0
230
1
0
LINE
5
7D
100
AcDbEntity
8
1
62
256
6
ByLayer
370
18
48
1
60
0
100
AcDbLine
10
24.801043
20
-1.587028
30
0
11
25.265367
21
-1.587319
31
0
39
0
210
0
220
0
230
1
0
LINE
5
7E
100
AcDbEntity
8
1
62
256
6
ByLayer
370
18
48
1
60
0
100
AcDbLine
10
15.80132
20
-1.581404
30
0
11
16.264324
21
-1.581693
31
0
39
0
210
0
220
0
230
1
0
LINE
5
7F
100
AcDbEntity
8
1
62
256
6
ByLayer
370
18
48
1
60
0
100
AcDbLine
10
1.4125
20
-1.572411
30
0
11
7.623169
21
-1.576292
31
0
39
0
210
0
220
0
230
1
0
LINE
5
80
100
AcDbEntity
8
SK1
62
256
6
ByLayer
370
18
48
1
60
0
100
AcDbLine
10
-35.278312
20
3
30
0
11
-35.3
21
2.962436
31
0
39
0
210
0
220
0
230
1
0
LINE
5
82
100
AcDbEntity
8
SK1
62
256
6
ByLayer
370
18
48
1
60
0
100
AcDbLine
10
-35.3
20
-2.962436
30
0
11
-35.278312
21
-3
31
0
39
0
210
0
220
0
230
1
0
LINE
5
83
100
AcDbEntity
8
SK1
62
256
6
ByLayer
370
18
48
1
60
0
100
AcDbLine
10
0
20
3
30
0
11
-35.278312
21
3
31
0
39
0
210
0
220
0
230
1
0
LINE
5
84
100
AcDbEntity
8
SK1
62
256
6
ByLayer
370
18
48
1
60
0
100
AcDbLine
10
-35.278312
20
-3
30
0
11
0
21
-3
31
0
39
0
210
0
220
0
230
1
0
LINE
5
85
100
AcDbEntity
8
SK4
62
256
6
ByLayer
370
18
48
0.05
60
0
100
AcDbLine
10
31
20
0
30
0
11
-41
21
0
31
0
39
0
210
0
220
0
230
1
0
LINE
5
87
100
AcDbEntity
8
4
62
256
6
ByLayer
370
18
48
0.05
60
0
100
AcDbLine
10
26
20
0
30
0
11
0
21
0
31
0
39
0
210
0
220
0
230
1
0
LINE
5
89
100
AcDbEntity
8
80
62
256
6
ByLayer
370
18
48
1
60
0
100
AcDbLine
10
0
20
0
30
0
11
-5
21
0
31
0
39
0
210
0
220
0
230
1
0
LINE
5
8A
100
AcDbEntity
8
1
62
256
6
ByLayer
370
18
48
1
60
0
100
AcDbLine
10
0
20
-3
30
0
11
0
21
3
31
0
39
0
210
0
220
0
230
1
0
LINE
5
8B
100
AcDbEntity
8
1
62
256
6
ByLayer
370
13
48
1
60
0
100
AcDbLine
10
25.421066
20
0.44127
30
0
11
25.995948
21
0.077356
31
0
39
0
210
0
220
0
230
1
0
LINE
5
8C
100
AcDbEntity
8
1
62
256
6
ByLayer
370
13
48
1
60
0
100
AcDbLine
10
25.329521
20
0.379607
30
0
11
25.977719
21
-0.030718
31
0
39
0
210
0
220
0
230
1
0
LINE
5
8D
100
AcDbEntity
8
1
62
256
6
ByLayer
370
18
48
1
60
0
100
AcDbLine
10
7.623167
20
1.571615
30
0
11
7.623187
21
1.576292
31
0
39
0
210
0
220
0
230
1
0
LINE
5
8E
100
AcDbEntity
8
1
62
256
6
ByLayer
370
18
48
1
60
0
100
AcDbLine
10
1.4125
20
1.572411
30
0
11
1.4125
21
-1.572411
31
0
39
0
210
0
220
0
230
1
0
LINE
5
8F
100
AcDbEntity
8
SK1
62
256
6
ByLayer
370
13
48
1
60
0
100
AcDbLine
10
-35.4
20
-2.649813
30
0
11
-35.4
21
-2.717661
31
0
39
0
210
0
220
0
230
1
0
LINE
5
90
100
AcDbEntity
8
SK1
62
256
6
ByLayer
370
18
48
1
60
0
100
AcDbLine
10
-35.3
20
-2.962436
30
0
11
-35.3
21
-2.857909
31
0
39
0
210
0
220
0
230
1
0
LINE
5
91
100
AcDbEntity
8
SK1
62
256
6
ByLayer
370
18
48
1
60
0
100
AcDbLine
10
0
20
-3
30
0
11
0
21
3
31
0
39
0
210
0
220
0
230
1
0
LINE
5
92
100
AcDbEntity
8
SK1
62
256
6
ByLayer
370
18
48
1
60
0
100
AcDbLine
10
-36
20
1.613426
30
0
11
-36
21
-1.545619
31
0
39
0
210
0
220
0
230
1
0
LINE
5
93
100
AcDbEntity
8
SK1
62
256
6
ByLayer
370
18
48
1
60
0
100
AcDbLine
10
-36
20
-1.545605
30
0
11
-36
21
-1.613426
31
0
39
0
210
0
220
0
230
1
0
LINE
5
94
100
AcDbEntity
8
SK1
62
256
6
ByLayer
370
18
48
1
60
0
100
AcDbLine
10
-35.278312
20
3
30
0
11
-35.278312
21
-3
31
0
39
0
210
0
220
0
230
1
0
LINE
5
95
100
AcDbEntity
8
SK1
62
256
6
ByLayer
370
18
48
1
60
0
100
AcDbLine
10
-35.3
20
2.962436
30
0
11
-35.3
21
2.916675
31
0
39
0
210
0
220
0
230
1
0
MTEXT
5
D3
100
AcDbEntity
8
SK6
62
256
6
ByLayer
370
13
48
1
60
0
100
AcDbMText
10
-2.870831
20
33.970194
30
0
210
0
220
0
230
1
1
\W0.7324;460.1-0318-010A1-XM GC34
40
3.5
41
0
44
1.084337
50
0
71
8
72
5
7
iso_b_vert
0
DIMENSION
5
E0
100
AcDbEntity
8
SK2
62
256
6
ByLayer
370
13
48
1
60
0
100
AcDbDimension
2
DimnDraft3D1
10
25.5438
20
-11.800898
30
0
11
11.793859
21
-11.800898
31
0
70
32
71
5
72
1
41
1
210
0
220
0
230
1
3
Standard
100
AcDbAlignedDimension
13
0
23
-1.5875
33
0
14
25.5438
24
-3.175
34
0
50
0
100
AcDbRotatedDimension
1001
ACAD
1000
DSTYLE
1002
{
1070
   279
1070
     0
1070
   172
1070
     1
1070
   173
1070
     1
1070
   340
1005
D4
1070
   271
1070
     2
1070
   272
1070
     2
1070
    77
1070
     1
1070
    73
1070
     0
1070
   171
1070
     3
1070
   274
1070
     4
1070
   177
1070
    35
1070
   176
1070
    35
1070
   178
1070
    35
1070
    48
1040
-0.005
1070
    41
1041
3.5
1070
   147
1041
1.75
1070
    42
1041
1.5875
1070
    44
1041
2.0
1070
   140
1041
3.5
1070
   343
1005
0
1070
   344
1005
0
1002
}
0
DIMENSION
5
EA
100
AcDbEntity
8
SK2
62
256
6
ByLayer
370
13
48
1
60
0
100
AcDbDimension
2
DimnDraft3D2
10
26
20
-31.692985
30
0
11
-4.1149
21
-31.692985
31
0
70
32
71
5
72
1
41
1
210
0
220
0
230
1
3
Standard
100
AcDbAlignedDimension
13
-36
23
-4.5875
33
0
14
26
24
-1.5875
34
0
50
0
100
AcDbRotatedDimension
1001
ACAD
1000
DSTYLE
1002
{
1070
   279
1070
     0
1070
   172
1070
     1
1070
   173
1070
     1
1070
   340
1005
D4
1070
   271
1070
     2
1070
   272
1070
     2
1070
    77
1070
     1
1070
    73
1070
     0
1070
   171
1070
     3
1070
   274
1070
     4
1070
   177
1070
    35
1070
   176
1070
    35
1070
   178
1070
    35
1070
    48
1040
-0.005
1070
    41
1041
3.5
1070
   147
1041
1.75
1070
    42
1041
1.5875
1070
    44
1041
2.0
1070
   140
1041
3.5
1070
   343
1005
0
1070
   344
1005
0
1002
}
0
DIMENSION
5
F4
100
AcDbEntity
8
SK2
62
256
6
ByLayer
370
13
48
1
60
0
100
AcDbDimension
2
DimnDraft3D3
10
26
20
13.196619
30
0
11
21.005
21
13.196619
31
0
70
32
71
5
72
1
41
1
210
0
220
0
230
1
3
Standard
100
AcDbAlignedDimension
13
16.01
23
3.175
33
0
14
26
24
1.5875
34
0
50
0
100
AcDbRotatedDimension
1001
ACAD
1000
DSTYLE
1002
{
1070
   279
1070
     0
1070
   172
1070
     1
1070
   173
1070
     1
1070
   340
1005
D4
1070
   271
1070
     2
1070
   272
1070
     2
1070
    77
1070
     1
1070
    73
1070
     0
1070
   171
1070
     3
1070
   274
1070
     4
1070
   177
1070
    35
1070
   176
1070
    35
1070
   178
1070
    35
1070
    48
1040
-0.005
1070
    41
1041
3.5
1070
   147
1041
1.75
1070
    42
1041
1.5875
1070
    44
1041
2.0
1070
   140
1041
3.5
1070
   343
1005
0
1070
   344
1005
0
1002
}
0
DIMENSION
5
FE
100
AcDbEntity
8
SK2
62
256
6
ByLayer
370
13
48
1
60
0
100
AcDbDimension
2
DimnDraft3D4
10
25.5438
20
-14.390003
30
0
11
35.981425
21
-14.390003
31
0
70
32
71
5
72
1
41
1
210
0
220
0
230
1
3
Standard
100
AcDbAlignedDimension
13
26
23
-1.5875
33
0
14
25.5438
24
-3.175
34
0
50
0
100
AcDbRotatedDimension
1001
ACAD
1000
DSTYLE
1002
{
1070
   279
1070
     0
1070
   172
1070
     1
1070
   173
1070
     1
1070
   340
1005
D4
1070
   271
1070
     2
1070
   272
1070
     2
1070
    77
1070
     1
1070
    73
1070
     0
1070
   171
1070
     3
1070
   274
1070
     4
1070
   177
1070
    35
1070
   176
1070
    35
1070
   178
1070
    35
1070
    48
1040
-0.005
1070
    41
1041
3.5
1070
   147
1041
1.75
1070
    42
1041
1.5875
1070
    44
1041
2.0
1070
   140
1041
3.5
1070
   343
1005
0
1070
   344
1005
0
1002
}
0
DIMENSION
5
108
100
AcDbEntity
8
SK2
62
256
6
ByLayer
370
13
48
1
60
0
100
AcDbDimension
2
DimnDraft3D5
10
25.5438
20
-21.343428
30
0
11
-7.195524
21
-21.343428
31
0
70
32
71
5
72
1
41
1
210
0
220
0
230
1
3
Standard
100
AcDbAlignedDimension
13
-36
23
-4.5875
33
0
14
25.5438
24
-3.175
34
0
50
0
100
AcDbRotatedDimension
1001
ACAD
1000
DSTYLE
1002
{
1070
   279
1070
     0
1070
   172
1070
     1
1070
   173
1070
     1
1070
   340
1005
D4
1070
   271
1070
     2
1070
   272
1070
     2
1070
    77
1070
     1
1070
    73
1070
     0
1070
   171
1070
     3
1070
   274
1070
     4
1070
   177
1070
    35
1070
   176
1070
    35
1070
   178
1070
    35
1070
    48
1040
-0.005
1070
    41
1041
3.5
1070
   147
1041
1.75
1070
    42
1041
1.5875
1070
    44
1041
2.0
1070
   140
1041
3.5
1070
   343
1005
0
1070
   344
1005
0
1002
}
0
DIMENSION
5
113
100
AcDbEntity
8
SK2
62
256
6
ByLayer
370
13
48
1
60
0
100
AcDbDimension
2
DimnDraft3D6
10
-46.625163
20
3
30
0
11
-47.250163
21
21.47418
31
0
70
33
71
5
72
1
41
1
210
0
220
0
230
1
3
Standard
100
AcDbAlignedDimension
13
-37.5875
23
-3
33
0
14
-37.5875
24
3
34
0
1001
ACAD
1000
DSTYLE
1002
{
1070
   279
1070
     0
1070
    74
1070
     0
1070
   173
1070
     1
1070
   340
1005
D4
1070
   271
1070
     3
1070
   272
1070
     2
1070
    77
1070
     1
1070
    73
1070
     0
1070
   171
1070
     3
1070
   274
1070
     4
1070
   177
1070
    35
1070
   176
1070
    35
1070
   178
1070
    35
1070
    48
1040
-0.005
1070
    41
1041
3.5
1070
   147
1041
1.75
1070
    42
1041
1.5875
1070
    44
1041
2.0
1070
   140
1041
3.5
1070
   343
1005
0
1070
   344
1005
0
1002
}
0
DIMENSION
5
11E
100
AcDbEntity
8
2
62
256
6
ByLayer
370
13
48
1
60
0
100
AcDbDimension
2
DimnDraft3D7
10
40.083343
20
1.5875
30
0
11
35.458343
21
18.654766
31
0
70
33
71
5
72
1
41
1
210
0
220
0
230
1
3
Standard
100
AcDbAlignedDimension
13
27.1313
23
-1.5875
33
0
14
27.1313
24
1.5875
34
0
1001
ACAD
1000
DSTYLE
1002
{
1070
   279
1070
     0
1070
    74
1070
     0
1070
   173
1070
     1
1070
   340
1005
D4
1070
   271
1070
     3
1070
   272
1070
     2
1070
    77
1070
     1
1070
    73
1070
     0
1070
   171
1070
     3
1070
   274
1070
     4
1070
   177
1070
    35
1070
   176
1070
    35
1070
   178
1070
    35
1070
    48
1040
-0.005
1070
    41
1041
3.5
1070
   147
1041
1.75
1070
    42
1041
1.5875
1070
    44
1041
2.0
1070
   140
1041
3.5
1070
   343
1005
0
1070
   344
1005
0
1002
}
0
ENDSEC
0
SECTION
2
OBJECTS
0
DICTIONARY
5
189
330
0
100
AcDbDictionary
280
0
281
1
3
ACAD_GROUP
350
18a
3
ACAD_MLINESTYLE
350
18b
0
DICTIONARY
5
18a
330
0
100
AcDbDictionary
280
0
281
1
0
DICTIONARY
5
18b
330
0
100
AcDbDictionary
280
0
281
1
3
Standard
350
18
0
MLINESTYLE
5
18
330
18b
100
AcDbMlineStyle
2
Standard
70
0
3

62
256
51
90
52
90
71
2
49
-0.5
62
256
6
ByLayer
49
0.5
62
256
6
ByLayer
0
RASTERVARIABLES
5
177
330

100
AcDbRasterVariables
90
0
70
1
71
1
72
1
0
ENDSEC
0
EOF
