0
SECTION
2
HEADER
9
$ACADVER
1
AC1015
9
$DWGCODEPAGE
3
ANSI_1252
9
$HANDSEED
5
1b1
9
$ANGBASE
50
0
9
$ANGDIR
70
0
9
$ATTMODE
70
1
9
$AUNITS
70
0
9
$AUPREC
70
0
9
$CECOLOR
62
256
9
$CELTSCALE
40
1
9
$CELTYPE
6
ByLayer
9
$CELWEIGHT
370
18
9
$CLAYER
8
0
9
$CMLJUST
70
0
9
$CMLSCALE
40
1
9
$CMLSTYLE
2
Standard
9
$DIMSTYLE
2
Standard
9
$TEXTSIZE
40
0.2
9
$TEXTSTYLE
7
Standard
9
$LUNITS
70
2
9
$LUPREC
70
4
9
$EXTNAMES
290
1
9
$INSUNITS
70
4
9
$LTSCALE
40
1
9
$LWDISPLAY
290
1
9
$PDMODE
70
0
9
$PDSIZE
40
0
9
$PLINEGEN
70
0
0
ENDSEC
0
SECTION
2
CLASSES
0
CLASS
1
RASTERVARIABLES
2
AcDbRasterVariables
3
ISM
90
0
280
0
281
0
0
ENDSEC
0
SECTION
2
TABLES
0
TABLE
2
VPORT
5
1a7
100
AcDbSymbolTable
0
VPORT
5
1
100
AcDbSymbolTableRecord
100
AcDbViewportTableRecord
2
*Active
70
0
10
0
20
0
11
1
21
1
12
-1
22
1
13
0
23
0
14
0.5
24
0.5
15
10
25
10
16
0
26
0
36
1
17
0
27
0
37
0
0
ENDTAB
0
TABLE
2
LTYPE
5
1a8
100
AcDbSymbolTable
0
LTYPE
5
14
100
AcDbSymbolTableRecord
100
AcDbLinetypeTableRecord
70
0
2
ByBlock
3

72
65
73
0
40
0
0
LTYPE
5
15
100
AcDbSymbolTableRecord
100
AcDbLinetypeTableRecord
70
0
2
ByLayer
3

72
65
73
0
40
0
0
LTYPE
5
16
100
AcDbSymbolTableRecord
100
AcDbLinetypeTableRecord
70
0
2
CONTINUOUS
3
Solid line
72
65
73
0
40
0
0
LTYPE
5
6A
100
AcDbSymbolTableRecord
100
AcDbLinetypeTableRecord
70
0
2
CENTER
3
____ _ ____ _ ____ _ ____
72
65
73
4
40
47.5
49
22
74
0
49
-8.5
74
0
49
8.5
74
0
49
-8.5
74
0
0
LTYPE
5
6B
100
AcDbSymbolTableRecord
100
AcDbLinetypeTableRecord
70
0
2
DASHED
3
__ __ __ __ __ __ __ __ __
72
65
73
2
40
25.72
49
12.86
74
0
49
-12.86
74
0
0
ENDTAB
0
TABLE
2
LAYER
5
1a9
100
AcDbSymbolTable
0
LAYER
5
10
100
AcDbSymbolTableRecord
100
AcDbLayerTableRecord
2
0
70
0
62
7
6
CONTINUOUS
290
1
370
-3
390
0
0
LAYER
5
6D
100
AcDbSymbolTableRecord
100
AcDbLayerTableRecord
2
81
70
0
62
-3
6
CONTINUOUS
290
1
370
-3
390
0
0
LAYER
5
6F
100
AcDbSymbolTableRecord
100
AcDbLayerTableRecord
2
80
70
0
62
-6
6
CONTINUOUS
290
1
370
-3
390
0
0
LAYER
5
74
100
AcDbSymbolTableRecord
100
AcDbLayerTableRecord
2
2
70
0
62
7
6
CONTINUOUS
290
1
370
-3
390
0
0
LAYER
5
78
100
AcDbSymbolTableRecord
100
AcDbLayerTableRecord
2
1
70
0
62
4
6
CONTINUOUS
290
1
370
-3
390
0
0
LAYER
5
8E
100
AcDbSymbolTableRecord
100
AcDbLayerTableRecord
2
4
70
0
62
-2
6
CENTER
290
1
370
-3
390
0
0
LAYER
5
193
100
AcDbSymbolTableRecord
100
AcDbLayerTableRecord
2
SK2
70
0
62
7
6
CONTINUOUS
290
1
370
-3
390
0
0
LAYER
5
194
100
AcDbSymbolTableRecord
100
AcDbLayerTableRecord
2
SK1
70
0
62
4
6
CONTINUOUS
290
1
370
-3
390
0
0
LAYER
5
195
100
AcDbSymbolTableRecord
100
AcDbLayerTableRecord
2
SK4
70
0
62
2
6
CENTER
290
1
370
-3
390
0
0
LAYER
5
196
100
AcDbSymbolTableRecord
100
AcDbLayerTableRecord
2
SK6
70
0
62
5
6
CONTINUOUS
290
1
370
-3
390
0
0
ENDTAB
0
TABLE
2
STYLE
5
1aa
100
AcDbSymbolTable
0
STYLE
5
11
100
AcDbSymbolTableRecord
100
AcDbTextStyleTableRecord
2
Standard
3
txt
70
0
71
0
40
0
41
1
42
0
50
0
0
STYLE
5
EF
100
AcDbSymbolTableRecord
100
AcDbTextStyleTableRecord
2
iso_b_vert
3
simplex.shx
70
0
71
0
40
0
41
1
42
0
50
0
0
STYLE
5
F0
100
AcDbSymbolTableRecord
100
AcDbTextStyleTableRecord
2
DWGDirectTextStyle
3
simplex
70
0
71
0
40
0
41
1
42
0
50
0
0
ENDTAB
0
TABLE
2
DIMSTYLE
5
1ab
100
AcDbSymbolTable
100
AcDbDimStyleTable
0
DIMSTYLE
105
27
100
AcDbSymbolTableRecord
100
AcDbDimStyleTableRecord
2
Standard
70
0
3
<>
41
0.18
42
0.0625
44
0.18
140
0.18
147
0.09
73
0
74
0
77
1
271
2
275
0
278
52
280
0
340
11
0
ENDTAB
0
TABLE
2
VIEW
5
1ac
100
AcDbSymbolTable
0
ENDTAB
0
TABLE
2
UCS
5
1ad
100
AcDbSymbolTable
0
ENDTAB
0
TABLE
2
APPID
5
1ae
100
AcDbSymbolTable
0
APPID
5
12
100
AcDbSymbolTableRecord
100
AcDbRegAppTableRecord
2
ACAD
70
0
0
ENDTAB
0
TABLE
2
BLOCK_RECORD
5
1af
100
AcDbSymbolTable
0
BLOCK_RECORD
5
1F
100
AcDbSymbolTableRecord
100
AcDbBlockTableRecord
2
*Model_Space
340
0
70
0
0
BLOCK_RECORD
5
1B
100
AcDbSymbolTableRecord
100
AcDbBlockTableRecord
2
*Paper_Space
340
0
70
0
0
BLOCK_RECORD
5
23
100
AcDbSymbolTableRecord
100
AcDbBlockTableRecord
2
*Paper_Space0
340
0
70
0
0
BLOCK_RECORD
5
F2
100
AcDbSymbolTableRecord
100
AcDbBlockTableRecord
2
DimnDraft3D1
340
0
70
0
0
BLOCK_RECORD
5
FC
100
AcDbSymbolTableRecord
100
AcDbBlockTableRecord
2
DimnDraft3D2
340
0
70
0
0
BLOCK_RECORD
5
106
100
AcDbSymbolTableRecord
100
AcDbBlockTableRecord
2
DimnDraft3D3
340
0
70
0
0
BLOCK_RECORD
5
110
100
AcDbSymbolTableRecord
100
AcDbBlockTableRecord
2
DimnDraft3D4
340
0
70
0
0
BLOCK_RECORD
5
11A
100
AcDbSymbolTableRecord
100
AcDbBlockTableRecord
2
DimnDraft3D5
340
0
70
0
0
BLOCK_RECORD
5
124
100
AcDbSymbolTableRecord
100
AcDbBlockTableRecord
2
DimnDraft3D6
340
0
70
0
0
BLOCK_RECORD
5
12F
100
AcDbSymbolTableRecord
100
AcDbBlockTableRecord
2
DimnDraft3D7
340
0
70
0
0
ENDTAB
0
ENDSEC
0
SECTION
2
BLOCKS
0
BLOCK
5
20
100
AcDbEntity
8
0
100
AcDbBlockBegin
2
*Model_Space
70
0
10
0
20
0
30
0
3
*Model_Space
0
ENDBLK
5
21
100
AcDbEntity
8
0
100
AcDbBlockEnd
0
BLOCK
5
1C
100
AcDbEntity
8
0
100
AcDbBlockBegin
2
*Paper_Space
70
0
10
0
20
0
30
0
3
*Paper_Space
0
ENDBLK
5
1D
100
AcDbEntity
8
0
100
AcDbBlockEnd
0
BLOCK
5
24
100
AcDbEntity
8
0
100
AcDbBlockBegin
2
*Paper_Space0
70
0
10
0
20
0
30
0
3
*Paper_Space0
0
ENDBLK
5
25
100
AcDbEntity
8
0
100
AcDbBlockEnd
0
BLOCK
5
F9
100
AcDbEntity
8
0
100
AcDbBlockBegin
2
DimnDraft3D1
70
0
10
0
20
0
30
0
3
DimnDraft3D1
0
MTEXT
5
F3
100
AcDbEntity
8
SK2
62
256
6
ByLayer
370
13
48
1
60
0
100
AcDbMText
10
24.453309
20
-33.252398
30
0
210
0
220
0
230
1
1
\W0.6713;59,18
40
3.5
41
0
44
1.084337
50
0
71
7
72
5
7
iso_b_vert
0
LINE
5
F4
100
AcDbEntity
8
SK2
62
256
6
ByLayer
370
13
48
1
60
0
100
AcDbLine
10
0
20
-1.5875
30
0
11
0
21
-36.127398
31
0
39
0
210
0
220
0
230
1
0
LINE
5
F5
100
AcDbEntity
8
SK2
62
256
6
ByLayer
370
13
48
1
60
0
100
AcDbLine
10
59.184434
20
-4.0015
30
0
11
59.184434
21
-36.127398
31
0
39
0
210
0
220
0
230
1
0
LINE
5
F6
100
AcDbEntity
8
SK2
62
256
6
ByLayer
370
13
48
1
60
0
100
AcDbLine
10
0
20
-34.127398
30
0
11
59.184434
21
-34.127398
31
0
39
0
210
0
220
0
230
1
0
SOLID
5
F7
100
AcDbEntity
8
SK2
62
256
6
ByLayer
370
13
48
1
60
0
100
AcDbTrace
10
0
20
-34.127398
30
0
11
3.499998
21
-33.666615
31
0
12
3.500002
22
-34.588182
32
0
13
0
23
-34.127398
33
0
39
0
210
0
220
0
230
1
0
SOLID
5
F8
100
AcDbEntity
8
SK2
62
256
6
ByLayer
370
13
48
1
60
0
100
AcDbTrace
10
59.184434
20
-34.127398
30
0
11
55.684436
21
-34.588182
31
0
12
55.684433
22
-33.666615
32
0
13
59.184434
23
-34.127398
33
0
39
0
210
0
220
0
230
1
0
ENDBLK
5
FA
100
AcDbEntity
8
0
100
AcDbBlockEnd
0
BLOCK
5
103
100
AcDbEntity
8
0
100
AcDbBlockBegin
2
DimnDraft3D2
70
0
10
0
20
0
30
0
3
DimnDraft3D2
0
MTEXT
5
FD
100
AcDbEntity
8
SK2
62
256
6
ByLayer
370
13
48
1
60
0
100
AcDbMText
10
4.844155
20
-50.231985
30
0
210
0
220
0
230
1
1
\W0.6440;101,60
40
3.5
41
0
44
1.084337
50
0
71
7
72
5
7
iso_b_vert
0
LINE
5
FE
100
AcDbEntity
8
SK2
62
256
6
ByLayer
370
13
48
1
60
0
100
AcDbLine
10
-41.66
20
-4.0015
30
0
11
-41.66
21
-53.106985
31
0
39
0
210
0
220
0
230
1
0
LINE
5
FF
100
AcDbEntity
8
SK2
62
256
6
ByLayer
370
13
48
1
60
0
100
AcDbLine
10
59.94
20
-1.5875
30
0
11
59.94
21
-53.106985
31
0
39
0
210
0
220
0
230
1
0
LINE
5
100
100
AcDbEntity
8
SK2
62
256
6
ByLayer
370
13
48
1
60
0
100
AcDbLine
10
-41.66
20
-51.106985
30
0
11
59.94
21
-51.106985
31
0
39
0
210
0
220
0
230
1
0
SOLID
5
101
100
AcDbEntity
8
SK2
62
256
6
ByLayer
370
13
48
1
60
0
100
AcDbTrace
10
-41.66
20
-51.106985
30
0
11
-38.160002
21
-50.646202
31
0
12
-38.159998
22
-51.567769
32
0
13
-41.66
23
-51.106985
33
0
39
0
210
0
220
0
230
1
0
SOLID
5
102
100
AcDbEntity
8
SK2
62
256
6
ByLayer
370
13
48
1
60
0
100
AcDbTrace
10
59.94
20
-51.106985
30
0
11
56.440002
21
-51.567769
31
0
12
56.439998
22
-50.646202
32
0
13
59.94
23
-51.106985
33
0
39
0
210
0
220
0
230
1
0
ENDBLK
5
104
100
AcDbEntity
8
0
100
AcDbBlockEnd
0
BLOCK
5
10D
100
AcDbEntity
8
0
100
AcDbBlockBegin
2
DimnDraft3D3
70
0
10
0
20
0
30
0
3
DimnDraft3D3
0
MTEXT
5
107
100
AcDbEntity
8
SK2
62
256
6
ByLayer
370
13
48
1
60
0
100
AcDbMText
10
31.807105
20
-22.929881
30
0
210
0
220
0
230
1
1
\W0.7581;47,00
40
3.5
41
0
44
1.084337
50
0
71
7
72
5
7
iso_b_vert
0
LINE
5
108
100
AcDbEntity
8
SK2
62
256
6
ByLayer
370
13
48
1
60
0
100
AcDbLine
10
12.94
20
-4.0015
30
0
11
12.94
21
-25.804881
31
0
39
0
210
0
220
0
230
1
0
LINE
5
109
100
AcDbEntity
8
SK2
62
256
6
ByLayer
370
13
48
1
60
0
100
AcDbLine
10
59.94
20
-1.5875
30
0
11
59.94
21
-25.804881
31
0
39
0
210
0
220
0
230
1
0
LINE
5
10A
100
AcDbEntity
8
SK2
62
256
6
ByLayer
370
13
48
1
60
0
100
AcDbLine
10
12.94
20
-23.804881
30
0
11
59.94
21
-23.804881
31
0
39
0
210
0
220
0
230
1
0
SOLID
5
10B
100
AcDbEntity
8
SK2
62
256
6
ByLayer
370
13
48
1
60
0
100
AcDbTrace
10
12.94
20
-23.804881
30
0
11
16.439998
21
-23.344097
31
0
12
16.440002
22
-24.265665
32
0
13
12.94
23
-23.804881
33
0
39
0
210
0
220
0
230
1
0
SOLID
5
10C
100
AcDbEntity
8
SK2
62
256
6
ByLayer
370
13
48
1
60
0
100
AcDbTrace
10
59.94
20
-23.804881
30
0
11
56.440002
21
-24.265665
31
0
12
56.439998
22
-23.344097
32
0
13
59.94
23
-23.804881
33
0
39
0
210
0
220
0
230
1
0
ENDBLK
5
10E
100
AcDbEntity
8
0
100
AcDbBlockEnd
0
BLOCK
5
117
100
AcDbEntity
8
0
100
AcDbBlockBegin
2
DimnDraft3D4
70
0
10
0
20
0
30
0
3
DimnDraft3D4
0
MTEXT
5
111
100
AcDbEntity
8
SK2
62
256
6
ByLayer
370
13
48
1
60
0
100
AcDbMText
10
70.796425
20
-14.341503
30
0
210
0
220
0
230
1
1
\W0.7150;0,76
40
3.5
41
0
44
1.084337
50
0
71
7
72
5
7
iso_b_vert
0
LINE
5
112
100
AcDbEntity
8
SK2
62
256
6
ByLayer
370
13
48
1
60
0
100
AcDbLine
10
59.94
20
-1.5875
30
0
11
59.94
21
-13.716503
31
0
39
0
210
0
220
0
230
1
0
LINE
5
113
100
AcDbEntity
8
SK2
62
256
6
ByLayer
370
13
48
1
60
0
100
AcDbLine
10
59.184434
20
-4.0015
30
0
11
59.184434
21
-13.716503
31
0
39
0
210
0
220
0
230
1
0
LINE
5
114
100
AcDbEntity
8
SK2
62
256
6
ByLayer
370
13
48
1
60
0
100
AcDbLine
10
50.434434
20
-11.716503
30
0
11
68.421425
21
-11.716503
31
0
39
0
210
0
220
0
230
1
0
SOLID
5
115
100
AcDbEntity
8
SK2
62
256
6
ByLayer
370
13
48
1
60
0
100
AcDbTrace
10
59.94
20
-11.716503
30
0
11
63.439998
21
-11.255719
31
0
12
63.440002
22
-12.177287
32
0
13
59.94
23
-11.716503
33
0
39
0
210
0
220
0
230
1
0
SOLID
5
116
100
AcDbEntity
8
SK2
62
256
6
ByLayer
370
13
48
1
60
0
100
AcDbTrace
10
59.184434
20
-11.716503
30
0
11
55.684436
21
-12.177287
31
0
12
55.684433
22
-11.255719
32
0
13
59.184434
23
-11.716503
33
0
39
0
210
0
220
0
230
1
0
ENDBLK
5
118
100
AcDbEntity
8
0
100
AcDbBlockEnd
0
BLOCK
5
121
100
AcDbEntity
8
0
100
AcDbBlockBegin
2
DimnDraft3D5
70
0
10
0
20
0
30
0
3
DimnDraft3D5
0
MTEXT
5
11B
100
AcDbEntity
8
SK2
62
256
6
ByLayer
370
13
48
1
60
0
100
AcDbMText
10
1.141821
20
-41.882428
30
0
210
0
220
0
230
1
1
\W0.7079;100,84
40
3.5
41
0
44
1.084337
50
0
71
7
72
5
7
iso_b_vert
0
LINE
5
11C
100
AcDbEntity
8
SK2
62
256
6
ByLayer
370
13
48
1
60
0
100
AcDbLine
10
-41.66
20
-4.0015
30
0
11
-41.66
21
-44.757428
31
0
39
0
210
0
220
0
230
1
0
LINE
5
11D
100
AcDbEntity
8
SK2
62
256
6
ByLayer
370
13
48
1
60
0
100
AcDbLine
10
59.184434
20
-4.0015
30
0
11
59.184434
21
-44.757428
31
0
39
0
210
0
220
0
230
1
0
LINE
5
11E
100
AcDbEntity
8
SK2
62
256
6
ByLayer
370
13
48
1
60
0
100
AcDbLine
10
-41.66
20
-42.757428
30
0
11
59.184434
21
-42.757428
31
0
39
0
210
0
220
0
230
1
0
SOLID
5
11F
100
AcDbEntity
8
SK2
62
256
6
ByLayer
370
13
48
1
60
0
100
AcDbTrace
10
-41.66
20
-42.757428
30
0
11
-38.160002
21
-42.296645
31
0
12
-38.159998
22
-43.218212
32
0
13
-41.66
23
-42.757428
33
0
39
0
210
0
220
0
230
1
0
SOLID
5
120
100
AcDbEntity
8
SK2
62
256
6
ByLayer
370
13
48
1
60
0
100
AcDbTrace
10
59.184434
20
-42.757428
30
0
11
55.684436
21
-43.218212
31
0
12
55.684433
22
-42.296645
32
0
13
59.184434
23
-42.757428
33
0
39
0
210
0
220
0
230
1
0
ENDBLK
5
122
100
AcDbEntity
8
0
100
AcDbBlockEnd
0
BLOCK
5
12C
100
AcDbEntity
8
0
100
AcDbBlockBegin
2
DimnDraft3D6
70
0
10
0
20
0
30
0
3
DimnDraft3D6
0
MTEXT
5
125
100
AcDbEntity
8
SK2
62
256
6
ByLayer
370
13
48
1
60
0
100
AcDbMText
10
-49.410163
20
21.76318
30
0
210
0
220
0
230
1
1
\W0.7581;4,828
40
3.5
41
0
44
1.084337
50
90
71
7
72
5
7
iso_b_vert
0
MTEXT
5
126
100
AcDbEntity
8
SK2
62
256
6
ByLayer
370
13
48
1
60
0
100
AcDbMText
10
-49.410163
20
16.540524
30
0
210
0
220
0
230
1
1
%%c
40
3.5
41
0
44
1.084337
50
90
71
7
72
5
7
iso_b_vert
0
LINE
5
127
100
AcDbEntity
8
SK2
62
256
6
ByLayer
370
13
48
1
60
0
100
AcDbLine
10
-43.2475
20
-2.414
30
0
11
-54.035163
21
-2.414
31
0
39
0
210
0
220
0
230
1
0
LINE
5
128
100
AcDbEntity
8
SK2
62
256
6
ByLayer
370
13
48
1
60
0
100
AcDbLine
10
-43.2475
20
2.414
30
0
11
-54.035163
21
2.414
31
0
39
0
210
0
220
0
230
1
0
LINE
5
129
100
AcDbEntity
8
SK2
62
256
6
ByLayer
370
13
48
1
60
0
100
AcDbLine
10
-52.035163
20
12.38818
30
0
11
-52.035163
21
-11.164
31
0
39
0
210
0
220
0
230
1
0
SOLID
5
12A
100
AcDbEntity
8
SK2
62
256
6
ByLayer
370
13
48
1
60
0
100
AcDbTrace
10
-52.035163
20
-2.414
30
0
11
-51.574379
21
-5.913998
31
0
12
-52.495946
22
-5.914002
32
0
13
-52.035163
23
-2.414
33
0
39
0
210
0
220
0
230
1
0
SOLID
5
12B
100
AcDbEntity
8
SK2
62
256
6
ByLayer
370
13
48
1
60
0
100
AcDbTrace
10
-52.035163
20
2.414
30
0
11
-52.495946
21
5.913998
31
0
12
-51.574379
22
5.914002
32
0
13
-52.035163
23
2.414
33
0
39
0
210
0
220
0
230
1
0
ENDBLK
5
12D
100
AcDbEntity
8
0
100
AcDbBlockEnd
0
BLOCK
5
137
100
AcDbEntity
8
0
100
AcDbBlockBegin
2
DimnDraft3D7
70
0
10
0
20
0
30
0
3
DimnDraft3D7
0
MTEXT
5
130
100
AcDbEntity
8
2
62
256
6
ByLayer
370
13
48
1
60
0
100
AcDbMText
10
72.898343
20
20.356266
30
0
210
0
220
0
230
1
1
\W0.7581;4,828
40
3.5
41
0
44
1.084337
50
90
71
7
72
5
7
iso_b_vert
0
MTEXT
5
131
100
AcDbEntity
8
2
62
256
6
ByLayer
370
13
48
1
60
0
100
AcDbMText
10
72.898343
20
15.13361
30
0
210
0
220
0
230
1
1
%%c
40
3.5
41
0
44
1.084337
50
90
71
7
72
5
7
iso_b_vert
0
LINE
5
132
100
AcDbEntity
8
2
62
256
6
ByLayer
370
13
48
1
60
0
100
AcDbLine
10
60.771934
20
-2.414
30
0
11
72.273343
21
-2.414
31
0
39
0
210
0
220
0
230
1
0
LINE
5
133
100
AcDbEntity
8
2
62
256
6
ByLayer
370
13
48
1
60
0
100
AcDbLine
10
60.771934
20
2.414
30
0
11
72.273343
21
2.414
31
0
39
0
210
0
220
0
230
1
0
LINE
5
134
100
AcDbEntity
8
2
62
256
6
ByLayer
370
13
48
1
60
0
100
AcDbLine
10
70.273343
20
10.981266
30
0
11
70.273343
21
-11.164
31
0
39
0
210
0
220
0
230
1
0
SOLID
5
135
100
AcDbEntity
8
2
62
256
6
ByLayer
370
13
48
1
60
0
100
AcDbTrace
10
70.273343
20
-2.414
30
0
11
70.734126
21
-5.913998
31
0
12
69.812559
22
-5.914002
32
0
13
70.273343
23
-2.414
33
0
39
0
210
0
220
0
230
1
0
SOLID
5
136
100
AcDbEntity
8
2
62
256
6
ByLayer
370
13
48
1
60
0
100
AcDbTrace
10
70.273343
20
2.414
30
0
11
69.812559
21
5.913998
31
0
12
70.734126
22
5.914002
32
0
13
70.273343
23
2.414
33
0
39
0
210
0
220
0
230
1
0
ENDBLK
5
138
100
AcDbEntity
8
0
100
AcDbBlockEnd
0
ENDSEC
0
SECTION
2
ENTITIES
0
ELLIPSE
5
97
100
AcDbEntity
8
1
62
256
6
ByLayer
370
18
48
1
60
0
100
AcDbEllipse
10
12.939972
20
-3E-06
30
0
11
0.00475274375431938
21
-2.38509683592682
31
0
210
0
220
0
230
-1
40
0.00339
41
1.63384669779032
42
1.80359375043842
0
ELLIPSE
5
98
100
AcDbEntity
8
1
62
256
6
ByLayer
370
18
48
1
60
0
100
AcDbEllipse
10
2.539997
20
6E-06
30
0
11
0.00924829837670802
21
2.37859722662545
31
0
210
0
220
0
230
-1
40
0.003403
41
-0.851347199436826
42
-0.169780594684572
0
ELLIPSE
5
99
100
AcDbEntity
8
1
62
256
6
ByLayer
370
18
48
1
60
0
100
AcDbEllipse
10
12.939972
20
-3E-06
30
0
11
0.00475274485987282
21
-2.38509731183699
31
0
210
0
220
0
230
-1
40
0.00339
41
0.528459372951381
42
0.722281661485743
0
ELLIPSE
5
9A
100
AcDbEntity
8
1
62
256
6
ByLayer
370
18
48
1
60
0
100
AcDbEllipse
10
57.613261
20
1.740751
30
0
11
2.88681096433529
21
4.58884066949543
31
0
210
0
220
0
230
-1
40
0.533569
41
1.62336186878307
42
2.01361719008639
0
ELLIPSE
5
9B
100
AcDbEntity
8
1
62
256
6
ByLayer
370
18
48
1
60
0
100
AcDbEllipse
10
59.968208
20
-0.000644
30
0
11
3.56529855971754
21
-1.09747072615854
31
0
210
0
220
0
230
-1
40
0.603219
41
2.03495788649141
42
2.35035789157318
0
ELLIPSE
5
9C
100
AcDbEntity
8
1
62
256
6
ByLayer
370
13
48
1
60
0
100
AcDbEllipse
10
59.852522
20
1.104895
30
0
11
1.42004653083488
21
-0.431648773555417
31
0
210
0
220
0
230
-1
40
0.59729
41
2.15671004127854
42
2.33045201651415
0
ELLIPSE
5
9D
100
AcDbEntity
8
1
62
256
6
ByLayer
370
18
48
1
60
0
100
AcDbEllipse
10
39.428544
20
-7.467183
30
0
11
20.3388186854621
21
8.51815235165946
31
0
210
0
220
0
230
-1
40
0.311421
41
0.140570858144979
42
0.143646927562759
0
POINT
5
6C
100
AcDbEntity
8
81
62
256
6
ByLayer
370
18
48
1
60
0
100
AcDbPoint
10
59.94
20
0
30
0
39
0
210
0
220
0
230
1
50
360
0
POINT
5
6E
100
AcDbEntity
8
80
62
256
6
ByLayer
370
18
48
1
60
0
100
AcDbPoint
10
0
20
0
30
0
39
0
210
0
220
0
230
1
50
360
0
POINT
5
70
100
AcDbEntity
8
SK2
62
256
6
ByLayer
370
18
48
1
60
1
100
AcDbPoint
10
-41.66
20
-2.414
30
0
39
0
210
0
220
0
230
1
50
360
0
POINT
5
72
100
AcDbEntity
8
SK2
62
256
6
ByLayer
370
18
48
1
60
1
100
AcDbPoint
10
-41.66
20
2.414
30
0
39
0
210
0
220
0
230
1
50
360
0
POINT
5
73
100
AcDbEntity
8
2
62
256
6
ByLayer
370
18
48
1
60
1
100
AcDbPoint
10
59.184434
20
-2.414
30
0
39
0
210
0
220
0
230
1
50
360
0
POINT
5
75
100
AcDbEntity
8
2
62
256
6
ByLayer
370
18
48
1
60
1
100
AcDbPoint
10
59.184434
20
2.414
30
0
39
0
210
0
220
0
230
1
50
360
0
SPLINE
5
9E
100
AcDbEntity
8
1
62
256
6
ByLayer
370
18
48
1
60
0
100
AcDbSpline
70
4
71
1
72
4
73
2
40
0
40
0
40
1
40
1
41
1
10
53.5762250299176
20
-0.0058609924124085
30
0
41
1
10
53.576237064046
20
-0.0058646531153101
30
0
0
SPLINE
5
9F
100
AcDbEntity
8
1
62
256
6
ByLayer
370
18
48
1
60
0
100
AcDbSpline
70
4
71
3
72
17
73
13
40
0
40
0
40
0
40
0
40
0.210997454262226
40
0.365950400737169
40
0.464830445846256
40
0.519941241300071
40
0.58593508564928
40
0.66933872548281
40
0.765339442862823
40
0.848573076511147
40
0.947667356885687
40
1
40
1
40
1
40
1
41
1
10
22.1935757332348
20
2.18099806632122
30
0
41
1
10
21.9898873116632
20
2.18182032726475
30
0
41
1
10
21.636600076234
20
2.18310897251712
30
0
41
1
10
21.1878430464758
20
2.18397553500759
30
0
41
1
10
20.8895485274604
20
2.18492078534763
30
0
41
1
10
20.6772130618281
20
2.18562731166958
30
0
41
1
10
20.479769712894
20
2.18627383666271
30
0
41
1
10
20.2428452358177
20
2.18700636310123
30
0
41
1
10
19.9892970060913
20
2.18768528156482
30
0
41
1
10
19.7205274123115
20
2.18827559109124
30
0
41
1
10
19.4941904022078
20
2.18863925157032
30
0
41
1
10
19.3478437952801
20
2.18899605678672
30
0
41
1
10
19.2973225737397
20
2.18911613052359
30
0
0
SPLINE
5
A0
100
AcDbEntity
8
1
62
256
6
ByLayer
370
18
48
1
60
0
100
AcDbSpline
70
4
71
2
72
6
73
3
40
0
40
0
40
0
40
1
40
1
40
1
41
1
10
32.7461861070655
20
-0.0156906230769494
30
0
41
1
10
32.746386694582
20
-0.0157556932743717
30
0
41
1
10
32.746587279352
20
-0.0158270244356231
30
0
0
SPLINE
5
A1
100
AcDbEntity
8
1
62
256
6
ByLayer
370
18
48
1
60
0
100
AcDbSpline
70
4
71
3
72
12
73
8
40
0
40
0
40
0
40
0
40
0.36109789147255
40
0.644939918612488
40
0.851576564590357
40
0.981066242890422
40
1
40
1
40
1
40
1
41
1
10
38.7070962205716
20
-2.17773323253473
30
0
41
1
10
38.8903727904984
20
-2.17749367808105
30
0
41
1
10
39.217731161113
20
-2.17702354429292
30
0
41
1
10
39.6500132859656
20
-2.17626739234976
30
0
41
1
10
39.9647473018683
20
-2.17570658982743
30
0
41
1
10
40.1449868503626
20
-2.17544172343858
30
0
41
1
10
40.2203116828228
20
-2.17534014872558
30
0
41
1
10
40.2299203037097
20
-2.17532730022845
30
0
0
SPLINE
5
A2
100
AcDbEntity
8
1
62
256
6
ByLayer
370
18
48
1
60
0
100
AcDbSpline
70
4
71
3
72
12
73
8
40
0
40
0
40
0
40
0
40
0.253065893190297
40
0.500663008784576
40
0.725369524768444
40
0.889370541676104
40
1
40
1
40
1
40
1
41
1
10
17.8723804509525
20
-2.1917906201553
30
0
41
1
10
18.021062298861
20
-2.19123682913912
30
0
41
1
10
18.3156258676444
20
-2.19034835520361
30
0
41
1
10
18.7475383126249
20
-2.1899471282876
30
0
41
1
10
19.1207712206391
20
-2.18959741907864
30
0
41
1
10
19.4173858476026
20
-2.18879578285319
30
0
41
1
10
19.5801659941675
20
-2.18850609909848
30
0
41
1
10
19.6457376791053
20
-2.1883873505667
30
0
0
SPLINE
5
A3
100
AcDbEntity
8
1
62
256
6
ByLayer
370
18
48
1
60
0
100
AcDbSpline
70
4
71
3
72
15
73
11
40
0
40
0
40
0
40
0
40
0.222939956965299
40
0.399256118674499
40
0.530597672682576
40
0.68796017723701
40
0.813094273326378
40
0.888112284640451
40
0.958414630641814
40
1
40
1
40
1
40
1
41
1
10
43.0265891583071
20
2.16988330386269
30
0
41
1
10
42.8431490441499
20
2.17041772674068
30
0
41
1
10
42.5145868476818
20
2.17124621006232
30
0
41
1
10
42.0776211542979
20
2.17175209858073
30
0
41
1
10
41.6949101818579
20
2.17243083778703
30
0
41
1
10
41.3543577685542
20
2.1732229967013
30
0
41
1
10
41.0599588546944
20
2.17390756969829
30
0
41
1
10
40.8372778269844
20
2.17438029109735
30
0
41
1
10
40.6833834828979
20
2.17467190058969
30
0
41
1
10
40.5912577726982
20
2.17482056074493
30
0
41
1
10
40.5570173828809
20
2.17487351200688
30
0
0
SPLINE
5
A4
100
AcDbEntity
8
1
62
256
6
ByLayer
370
18
48
1
60
0
100
AcDbSpline
70
4
71
3
72
10
73
6
40
0
40
0
40
0
40
0
40
0.5
40
0.5
40
1
40
1
40
1
40
1
41
1
10
59.8271228848246
20
-0.654125049250183
30
0
41
1
10
59.8138611507962
20
-0.696327465275346
30
0
41
1
10
59.7989319552393
20
-0.740168151021265
30
0
41
1
10
59.7664544472942
20
-0.830949119222453
30
0
41
1
10
59.7487622547684
20
-0.8782460551285
30
0
41
1
10
59.7302256487309
20
-0.926276614205278
30
0
0
SPLINE
5
A5
100
AcDbEntity
8
1
62
256
6
ByLayer
370
18
48
1
60
0
100
AcDbSpline
70
4
71
3
72
34
73
30
40
0
40
0
40
0
40
0
40
0.0629517154010917
40
0.0629517154010917
40
0.140669906437287
40
0.140669906437287
40
0.218388097473483
40
0.218388097473483
40
0.296106288509679
40
0.296106288509679
40
0.373824479545875
40
0.373824479545875
40
0.45154267058207
40
0.45154267058207
40
0.529260861618265
40
0.529260861618265
40
0.606979052654461
40
0.606979052654461
40
0.684697243690657
40
0.684697243690657
40
0.762415434726852
40
0.762415434726852
40
0.840133625763048
40
0.840133625763048
40
0.917851816799243
40
0.917851816799243
40
0.995570007835439
40
0.995570007835439
40
1
40
1
40
1
40
1
41
1
10
32.7831699426834
20
-0.0281068151444401
30
0
41
1
10
32.5475110970688
20
0.0508714900597909
30
0
41
1
10
32.3119817691611
20
0.129838435297131
30
0
41
1
10
31.7857106939623
20
0.305430585325098
30
0
41
1
10
31.4949801684049
20
0.401873954437917
30
0
41
1
10
30.913019987879
20
0.592091194591859
30
0
41
1
10
30.6217172372148
20
0.686021759836905
30
0
41
1
10
30.0401469602296
20
0.868734909789453
30
0
41
1
10
29.7496638569666
20
0.957716244197428
30
0
41
1
10
29.1687894727839
20
1.12996705622584
30
0
41
1
10
28.8783632606447
20
1.21315760147502
30
0
41
1
10
28.2971637136721
20
1.37196503811904
30
0
41
1
10
28.0062351772632
20
1.44773936065096
30
0
41
1
10
27.4240177582468
20
1.59084152641444
30
0
41
1
10
27.1332878277056
20
1.65805587902324
30
0
41
1
10
26.5522858483731
20
1.78201562422572
30
0
41
1
10
26.261974020239
20
1.83896726226567
30
0
41
1
10
25.6810966259179
20
1.94249414170238
30
0
41
1
10
25.3905568169351
20
1.98902302317279
30
0
41
1
10
24.80885664805
20
2.06979897914638
30
0
41
1
10
24.5175357929358
20
2.10430841908553
30
0
41
1
10
23.9369912265621
20
2.1614218457361
30
0
41
1
10
23.6473902433563
20
2.18396906719994
30
0
41
1
10
23.0692888090421
20
2.21562119249256
30
0
41
1
10
22.7807296898848
20
2.22506851323854
30
0
41
1
10
22.2039223817713
20
2.23217724006992
30
0
41
1
10
21.9157287211339
20
2.22960101999544
30
0
41
1
10
21.6111517437879
20
2.2197084042229
30
0
41
1
10
21.5947269025351
20
2.21915389228141
30
0
41
1
10
21.5783020378075
20
2.21857849538904
30
0
0
SPLINE
5
A6
100
AcDbEntity
8
1
62
256
6
ByLayer
370
13
48
1
60
0
100
AcDbSpline
70
4
71
3
72
8
73
4
40
0
40
0
40
0
40
0
40
1
40
1
40
1
40
1
41
1
10
21.5783030374405
20
2.21857853040825
30
0
41
1
10
21.4287530337336
20
2.21333949300424
30
0
41
1
10
21.2792010839943
20
2.2063690342257
30
0
41
1
10
21.1296041547405
20
2.19777996812743
30
0
0
SPLINE
5
A7
100
AcDbEntity
8
1
62
256
6
ByLayer
370
18
48
1
60
0
100
AcDbSpline
70
4
71
3
72
14
73
10
40
0
40
0
40
0
40
0
40
0.250000000000001
40
0.250000000000001
40
0.375000000000001
40
0.375000000000001
40
0.500000000000001
40
0.500000000000001
40
1
40
1
40
1
40
1
41
1
10
58.5885936104459
20
-1.61726672558399
30
0
41
1
10
58.6217190708412
20
-1.69498401973641
30
0
41
1
10
58.6561196170645
20
-1.76478137757533
30
0
41
1
10
58.7089108020258
20
-1.85802163298558
30
0
41
1
10
58.7267119237441
20
-1.88718101109268
30
0
41
1
10
58.7626590727194
20
-1.94159712592338
30
0
41
1
10
58.7808588481884
20
-1.96690540799759
30
0
41
1
10
58.8710561246373
20
-2.0814689875975
30
0
41
1
10
58.9415620092567
20
-2.13754684922165
30
0
41
1
10
59.0108325926976
20
-2.1568865043603
30
0
0
SPLINE
5
A8
100
AcDbEntity
8
1
62
256
6
ByLayer
370
18
48
1
60
0
100
AcDbSpline
70
4
71
2
72
9
73
6
40
0
40
0
40
0
40
0.153951802592393
40
0.449610848888277
40
0.74526989518416
40
1
40
1
40
1
41
1
10
2.54091992693887
20
1.57943231890013
30
0
41
1
10
2.54141667513773
20
1.64631098048204
30
0
41
1
10
2.5428704515607
20
1.82514783537317
30
0
41
1
10
2.54470339907624
20
2.00688740528275
30
0
41
1
10
2.54626165550107
20
2.11910983909354
30
0
41
1
10
2.5469095460351
20
2.14790692889366
30
0
0
SPLINE
5
A9
100
AcDbEntity
8
1
62
256
6
ByLayer
370
18
48
1
60
0
100
AcDbSpline
70
4
71
3
72
48
73
44
40
0
40
0
40
0
40
0
40
0.0122452478325457
40
0.0122452478325457
40
0.0853687602169127
40
0.0853687602169127
40
0.121930516409095
40
0.121930516409095
40
0.158492272601278
40
0.158492272601278
40
0.231615784985645
40
0.231615784985645
40
0.268177541177829
40
0.268177541177829
40
0.304739297370012
40
0.304739297370012
40
0.377862809754379
40
0.377862809754379
40
0.414424565946564
40
0.414424565946564
40
0.450986322138748
40
0.450986322138748
40
0.524109834523116
40
0.524109834523116
40
0.560671590715301
40
0.560671590715301
40
0.597233346907487
40
0.597233346907487
40
0.670356859291855
40
0.670356859291855
40
0.743480371676224
40
0.743480371676224
40
0.780042127868407
40
0.780042127868407
40
0.816603884060591
40
0.816603884060591
40
0.889727396444958
40
0.889727396444958
40
0.926289152637141
40
0.926289152637141
40
0.962850908829325
40
0.962850908829325
40
1
40
1
40
1
40
1
41
1
10
19.5313819726609
20
2.18822396582266
30
0
41
1
10
19.627836057506
20
2.20222206235601
30
0
41
1
10
19.724249972429
20
2.21552542998302
30
0
41
1
10
20.3959846480013
20
2.30330603336546
30
0
41
1
10
20.9704825472463
20
2.35307173483397
30
0
41
1
10
21.8336905029805
20
2.38764851215584
30
0
41
1
10
22.1220491208748
20
2.39245999821742
30
0
41
1
10
22.6986817389129
20
2.38856803609079
30
0
41
1
10
22.9864510865597
20
2.37985738542645
30
0
41
1
10
23.8491409833111
20
2.33371220252374
30
0
41
1
10
24.4236114590117
20
2.27638935136758
30
0
41
1
10
25.287130249287
20
2.15259060536818
30
0
41
1
10
25.5757365106251
20
2.10509226653252
30
0
41
1
10
26.1519201567931
20
1.99855635411959
30
0
41
1
10
26.4395381460111
20
1.9394913607378
30
0
41
1
10
27.3019357384307
20
1.74648406610328
30
0
41
1
10
27.8764290810807
20
1.5970587552502
30
0
41
1
10
28.7403211667136
20
1.34725513237859
30
0
41
1
10
29.0289416051138
20
1.25992558354247
30
0
41
1
10
29.6047193840064
20
1.0788443736412
30
0
41
1
10
29.8922027853148
20
0.985014602963616
30
0
41
1
10
30.7544733728969
20
0.696321098121558
30
0
41
1
10
31.3289123683429
20
0.493803901857376
30
0
41
1
10
32.1933069926151
20
0.183919111732678
30
0
41
1
10
32.4816870045952
20
0.0798809615646121
30
0
41
1
10
33.0570727279843
20
-0.128002701879609
30
0
41
1
10
33.3444824768187
20
-0.231700332258043
30
0
41
1
10
34.2065294192773
20
-0.540205535871024
30
0
41
1
10
34.7811306913394
20
-0.742010002517361
30
0
41
1
10
35.934388576616
20
-1.12626440030286
30
0
41
1
10
36.509050042139
20
-1.3070039303793
30
0
41
1
10
37.3709981232642
20
-1.55363210689549
30
0
41
1
10
37.6583858142191
20
-1.63162351966008
30
0
41
1
10
38.2337503046026
20
-1.77823004515682
30
0
41
1
10
38.5219515071694
20
-1.84704578315916
30
0
41
1
10
39.386200126139
20
-2.03697375530467
30
0
41
1
10
39.9605970757248
20
-2.1413986756595
30
0
41
1
10
40.8225079065788
20
-2.26084376744723
30
0
41
1
10
41.1099693755158
20
-2.29435985286554
30
0
41
1
10
41.685557733347
20
-2.34845890920033
30
0
41
1
10
41.9739693247648
20
-2.36905561194419
30
0
41
1
10
42.5542987206399
20
-2.39686686160522
30
0
41
1
10
42.8463904997082
20
-2.40390108307562
30
0
41
1
10
43.13835000625
20
-2.40396795674061
30
0
0
SPLINE
5
AA
100
AcDbEntity
8
1
62
256
6
ByLayer
370
18
48
1
60
0
100
AcDbSpline
70
4
71
3
72
8
73
4
40
0
40
0
40
0
40
0
40
1
40
1
40
1
40
1
41
1
10
56.3513897985437
20
-0.5348648201321
30
0
41
1
10
56.564423477671
20
-0.610308358527163
30
0
41
1
10
56.7780632036599
20
-0.685098542888994
30
0
41
1
10
56.9924388918132
20
-0.758980686978276
30
0
0
SPLINE
5
AB
100
AcDbEntity
8
1
62
256
6
ByLayer
370
18
48
1
60
0
100
AcDbSpline
70
4
71
3
72
10
73
6
40
0
40
0
40
0
40
0
40
0.5
40
0.5
40
1
40
1
40
1
40
1
41
1
10
59.9376300020062
20
0.0565136649177305
30
0
41
1
10
59.9371296690319
20
0.0434214597779601
30
0
41
1
10
59.934467953987
20
0.0272663412990823
30
0
41
1
10
59.9237539307379
20
-0.0072063130178321
30
0
41
1
10
59.9154264750099
20
-0.0254460104284533
30
0
41
1
10
59.9066671615753
20
-0.0385395136294164
30
0
0
SPLINE
5
AC
100
AcDbEntity
8
1
62
256
6
ByLayer
370
18
48
1
60
0
100
AcDbSpline
70
4
71
3
72
10
73
6
40
0
40
0
40
0
40
0
40
0.5
40
0.5
40
1
40
1
40
1
40
1
41
1
10
58.8524745440626
20
0.636871597354514
30
0
41
1
10
58.8578314995715
20
0.649336079540348
30
0
41
1
10
58.8656945368156
20
0.662984540293451
30
0
41
1
10
58.8837806779129
20
0.688048126091758
30
0
41
1
10
58.8941652446964
20
0.699718458070123
30
0
41
1
10
58.9043086588142
20
0.708699674847452
30
0
0
SPLINE
5
AD
100
AcDbEntity
8
1
62
256
6
ByLayer
370
18
48
1
60
0
100
AcDbSpline
70
4
71
3
72
10
73
6
40
0
40
0
40
0
40
0
40
0.5
40
0.5
40
1
40
1
40
1
40
1
41
1
10
59.8271228848261
20
0.654125049245295
30
0
41
1
10
59.8138611507976
20
0.696327465271168
30
0
41
1
10
59.7989319552405
20
0.740168151017826
30
0
41
1
10
59.7664544472949
20
0.830949119220662
30
0
41
1
10
59.7487622547687
20
0.878246055127562
30
0
41
1
10
59.7302256487309
20
0.926276614205278
30
0
0
SPLINE
5
AE
100
AcDbEntity
8
1
62
256
6
ByLayer
370
18
48
1
60
0
100
AcDbSpline
70
4
71
3
72
8
73
4
40
0
40
0
40
0
40
0
40
1
40
1
40
1
40
1
41
1
10
59.8271228848248
20
-0.654125049250212
30
0
41
1
10
59.8795292156595
20
-0.463201266197899
30
0
41
1
10
59.9185174305029
20
-0.271739406118883
30
0
41
1
10
59.9384132355672
20
-0.0795119253601229
30
0
0
SPLINE
5
AF
100
AcDbEntity
8
1
62
256
6
ByLayer
370
18
48
1
60
0
100
AcDbSpline
70
4
71
3
72
28
73
24
40
0
40
0
40
0
40
0
40
0.0637729022664532
40
0.0637729022664532
40
0.187604272685409
40
0.187604272685409
40
0.311435643104365
40
0.311435643104365
40
0.43526701352332
40
0.43526701352332
40
0.559098383942276
40
0.559098383942276
40
0.682929754361232
40
0.682929754361232
40
0.744845439570709
40
0.744845439570709
40
0.806761124780187
40
0.806761124780187
40
0.93059249519914
40
0.93059249519914
40
0.992508180408615
40
0.992508180408615
40
1
40
1
40
1
40
1
41
1
10
38.7410318761001
20
-2.17763884519903
30
0
41
1
10
38.4380732458289
20
-2.17816999171129
30
0
41
1
10
38.1358474227625
20
-2.17189712551087
30
0
41
1
10
37.2481721641127
20
-2.1337094058502
30
0
41
1
10
36.6640331812809
20
-2.08319079275037
30
0
41
1
10
35.4955378495965
20
-1.93512078668675
30
0
41
1
10
34.9111721796522
20
-1.8375436833922
30
0
41
1
10
33.738417406364
20
-1.60098464463743
30
0
41
1
10
33.1494913317673
20
-1.46182222271924
30
0
41
1
10
31.9660360146305
20
-1.1504606660049
30
0
41
1
10
31.3750508494649
20
-0.97921124865843
30
0
41
1
10
30.1916880458936
20
-0.616975587313675
30
0
41
1
10
29.6016979578003
20
-0.426714493006528
30
0
41
1
10
28.716183590496
20
-0.136816167323133
30
0
41
1
10
28.4209241657721
20
-0.0394325028217111
30
0
41
1
10
27.8297136622548
20
0.155265849311917
30
0
41
1
10
27.5337291461828
20
0.252592926157661
30
0
41
1
10
26.6474790462993
20
0.540991607989497
30
0
41
1
10
26.0577542397985
20
0.728794135537981
30
0
41
1
10
25.1717709954661
20
0.994904217739759
30
0
41
1
10
24.8758343321127
20
1.08110218432486
30
0
41
1
10
24.5445761310156
20
1.17371274069313
30
0
41
1
10
24.5088319711815
20
1.18365544214222
30
0
41
1
10
24.473099103932
20
1.19354346263165
30
0
0
SPLINE
5
B0
100
AcDbEntity
8
1
62
256
6
ByLayer
370
18
48
1
60
0
100
AcDbSpline
70
4
71
3
72
8
73
4
40
0
40
0
40
0
40
0
40
1
40
1
40
1
40
1
41
1
10
57.7801478995979
20
-1.43244528209451
30
0
41
1
10
57.8838493748731
20
-1.42460807004355
30
0
41
1
10
57.9869506580991
20
-1.41206034469116
30
0
41
1
10
58.0893638099835
20
-1.39411192827231
30
0
0
SPLINE
5
B1
100
AcDbEntity
8
1
62
256
6
ByLayer
370
18
48
1
60
0
100
AcDbSpline
70
4
71
3
72
10
73
6
40
0
40
0
40
0
40
0
40
0.30909382864292
40
0.30909382864292
40
1
40
1
40
1
40
1
41
1
10
9.61233910031527
20
-1.59481921175424
30
0
41
1
10
9.4175148393808
20
-1.64679306394268
30
0
41
1
10
9.22245626207012
20
-1.69698068670002
30
0
41
1
10
8.58982950519061
20
-1.85169261276152
30
0
41
1
10
8.14944215022726
20
-1.94705047762415
30
0
41
1
10
7.70974136960515
20
-2.02974898132356
30
0
0
SPLINE
5
B2
100
AcDbEntity
8
1
62
256
6
ByLayer
370
18
48
1
60
0
100
AcDbSpline
70
4
71
3
72
8
73
4
40
0
40
0
40
0
40
0
40
1
40
1
40
1
40
1
41
1
10
56.9924388914667
20
-0.75898068712624
30
0
41
1
10
56.9106363049658
20
-0.58137462403613
30
0
41
1
10
56.8376482527477
20
-0.39981900302638
30
0
41
1
10
56.7718651406224
20
-0.215859951764401
30
0
0
SPLINE
5
B3
100
AcDbEntity
8
1
62
256
6
ByLayer
370
18
48
1
60
0
100
AcDbSpline
70
4
71
3
72
8
73
4
40
0
40
0
40
0
40
0
40
1
40
1
40
1
40
1
41
1
10
56.3513897985437
20
-0.5348648201321
30
0
41
1
10
56.5647453909637
20
-0.610464223393848
30
0
41
1
10
56.7779430851027
20
-0.685177891035835
30
0
41
1
10
56.9910794480773
20
-0.758750223572719
30
0
0
SPLINE
5
B4
100
AcDbEntity
8
1
62
256
6
ByLayer
370
18
48
1
60
0
100
AcDbSpline
70
4
71
3
72
28
73
24
40
0
40
0
40
0
40
0
40
0.10417216797919
40
0.10417216797919
40
0.20834433595838
40
0.20834433595838
40
0.312516503937571
40
0.312516503937571
40
0.416688671916761
40
0.416688671916761
40
0.468774755906356
40
0.468774755906356
40
0.520860839895952
40
0.520860839895952
40
0.625033007875142
40
0.625033007875142
40
0.729205175854331
40
0.729205175854331
40
0.83337734383352
40
0.83337734383352
40
0.937549511812709
40
0.937549511812709
40
1
40
1
40
1
40
1
41
1
10
12.9316037389621
20
0.150262630813415
30
0
41
1
10
13.387604670388
20
-0.0069879352818703
30
0
41
1
10
13.8421672355158
20
-0.168426915716139
30
0
41
1
10
14.749837320269
20
-0.491879354264228
30
0
41
1
10
15.2008809884757
20
-0.65284122141361
30
0
41
1
10
16.1011718167691
20
-0.962039835711579
30
0
41
1
10
16.5505492822886
20
-1.10999757878093
30
0
41
1
10
17.4502871640235
20
-1.38677846951021
30
0
41
1
10
17.9006441892235
20
-1.51567323905442
30
0
41
1
10
18.5777645305036
20
-1.69293162903028
30
0
41
1
10
18.8037100990678
20
-1.74938645473083
30
0
41
1
10
19.2562024710404
20
-1.85666296027992
30
0
41
1
10
19.48302986658
20
-1.90747400428032
30
0
41
1
10
20.1630557260375
20
-2.04958727352118
30
0
41
1
10
20.6153595141574
20
-2.13041445722391
30
0
41
1
10
21.5204334963077
20
-2.26080344653837
30
0
41
1
10
21.9736933952977
20
-2.31054458970399
30
0
41
1
10
22.8799086807137
20
-2.37643480744077
30
0
41
1
10
23.3323234680414
20
-2.39254785095215
30
0
41
1
10
24.2379291383434
20
-2.39111374537066
30
0
41
1
10
24.6917502890301
20
-2.37351304557495
30
0
41
1
10
25.4162045225556
20
-2.31869262248546
30
0
41
1
10
25.6873740632283
20
-2.29221408596848
30
0
41
1
10
25.9584394214103
20
-2.26006560525545
30
0
0
SPLINE
5
B5
100
AcDbEntity
8
1
62
256
6
ByLayer
370
18
48
1
60
0
100
AcDbSpline
70
4
71
3
72
26
73
22
40
0
40
0
40
0
40
0
40
0.0849740531140982
40
0.0849740531140982
40
0.199352296474837
40
0.199352296474837
40
0.313730539835575
40
0.313730539835575
40
0.428108783196314
40
0.428108783196314
40
0.485297904876683
40
0.485297904876683
40
0.542487026557052
40
0.542487026557052
40
0.771243513278526
40
0.771243513278526
40
0.828432634958896
40
0.828432634958896
40
0.885621756639265
40
0.885621756639265
40
1
40
1
40
1
40
1
41
1
10
44.4977139452615
20
2.40481096029274
30
0
41
1
10
44.8341367676605
20
2.40498008220314
30
0
41
1
10
45.1700060206397
20
2.39579751789276
30
0
41
1
10
45.9572904357746
20
2.35240813777051
30
0
41
1
10
46.4088516910321
20
2.31074387457923
30
0
41
1
10
47.3140277610173
20
2.19588961526563
30
0
41
1
10
47.7678938617803
20
2.1224334805533
30
0
41
1
10
48.672455759951
20
1.94703341276713
30
0
41
1
10
49.1241279912843
20
1.84525861121372
30
0
41
1
10
49.8023674482861
20
1.67447364664108
30
0
41
1
10
50.028558614903
20
1.61451391200279
30
0
41
1
10
50.481309724347
20
1.48876668268565
30
0
41
1
10
50.7080608354634
20
1.42285398836734
30
0
41
1
10
51.8398486223058
20
1.08110296594967
30
0
41
1
10
52.7404902813929
20
0.76945665920681
30
0
41
1
10
53.8722941280642
20
0.362602304755626
30
0
41
1
10
54.0989812578465
20
0.280394930067843
30
0
41
1
10
54.551002437402
20
0.116074620701966
30
0
41
1
10
54.7766232031604
20
0.0338594969346957
30
0
41
1
10
55.452674317983
20
-0.211958911264162
30
0
41
1
10
55.9023141219859
20
-0.374695043545444
30
0
41
1
10
56.3513897985436
20
-0.5348648201321
30
0
0
SPLINE
5
B6
100
AcDbEntity
8
1
62
256
6
ByLayer
370
18
48
1
60
0
100
AcDbSpline
70
4
71
3
72
8
73
4
40
0
40
0
40
0
40
0
40
1
40
1
40
1
40
1
41
1
10
59.0542078940133
20
-2.38977657568469
30
0
41
1
10
59.0336935755206
20
-2.35661209187501
30
0
41
1
10
59.0043956955743
20
-2.32323405274786
30
0
41
1
10
58.9671373390115
20
-2.2880122350501
30
0
0
SPLINE
5
B7
100
AcDbEntity
8
1
62
256
6
ByLayer
370
18
48
1
60
0
100
AcDbSpline
70
4
71
3
72
8
73
4
40
0
40
0
40
0
40
0
40
1
40
1
40
1
40
1
41
1
10
59.9384132355672
20
-0.0795119253601229
30
0
41
1
10
59.9405248776667
20
-0.0265504130460101
30
0
41
1
10
59.9405321110447
20
0.0263689946911541
30
0
41
1
10
59.9384132355672
20
0.0795119253603218
30
0
0
SPLINE
5
B8
100
AcDbEntity
8
1
62
256
6
ByLayer
370
18
48
1
60
0
100
AcDbSpline
70
4
71
3
72
8
73
4
40
0
40
0
40
0
40
0
40
1
40
1
40
1
40
1
41
1
10
59.1843802044215
20
-2.26139351994078
30
0
41
1
10
59.1433016576305
20
-2.32204235734849
30
0
41
1
10
59.0996175853042
20
-2.36550239852576
30
0
41
1
10
59.0542078940133
20
-2.38977657568481
30
0
0
SPLINE
5
B9
100
AcDbEntity
8
1
62
256
6
ByLayer
370
18
48
1
60
0
100
AcDbSpline
70
4
71
1
72
4
73
2
40
0
40
0
40
1
40
1
41
1
10
2.54727957666475
20
2.2054073599565
30
0
41
1
10
2.54774520660914
20
2.34440852686078
30
0
0
SPLINE
5
BA
100
AcDbEntity
8
1
62
256
6
ByLayer
370
18
48
1
60
0
100
AcDbSpline
70
4
71
3
72
40
73
36
40
0
40
0
40
0
40
0
40
0.0875428360519528
40
0.0875428360519528
40
0.131314254077929
40
0.131314254077929
40
0.175085672103905
40
0.175085672103905
40
0.262628508155857
40
0.262628508155857
40
0.306399926181833
40
0.306399926181833
40
0.350171344207809
40
0.350171344207809
40
0.393942762233786
40
0.393942762233786
40
0.437714180259762
40
0.437714180259762
40
0.481485598285739
40
0.481485598285739
40
0.525257016311715
40
0.525257016311715
40
0.612799852363669
40
0.612799852363669
40
0.656571270389646
40
0.656571270389646
40
0.700342688415623
40
0.700342688415623
40
0.787885524467576
40
0.787885524467576
40
0.875428360519528
40
0.875428360519528
40
0.962971196571481
40
0.962971196571481
40
1
40
1
40
1
40
1
41
1
10
2.54774520660911
20
2.34440852686072
30
0
41
1
10
3.12423930152656
20
2.30946843343841
30
0
41
1
10
3.6993505612235
20
2.24799521192835
30
0
41
1
10
4.56226514040208
20
2.11959025334045
30
0
41
1
10
4.84994547999764
20
2.07073958380749
30
0
41
1
10
5.42581082319864
20
1.96144175825896
30
0
41
1
10
5.71422919787543
20
1.90090319284192
30
0
41
1
10
6.57928438090781
20
1.70322757365727
30
0
41
1
10
7.15435424586667
20
1.55153455810381
30
0
41
1
10
8.01723803169841
20
1.30018598527823
30
0
41
1
10
8.30494270205548
20
1.21250603358877
30
0
41
1
10
8.88088469642238
20
1.0301813200085
30
0
41
1
10
9.169439955824
20
0.935321630637731
30
0
41
1
10
9.74572718390993
20
0.741392198189459
30
0
41
1
10
10.0333838482884
20
0.642010912510415
30
0
41
1
10
10.6088143636534
20
0.441420878035274
30
0
41
1
10
10.8964221131766
20
0.339762449618945
30
0
41
1
10
11.4718054013153
20
0.134782870971463
30
0
41
1
10
11.7596195663535
20
0.031570193156
30
0
41
1
10
12.3358759673446
20
-0.175241397377761
30
0
41
1
10
12.6244538763923
20
-0.27909715659743
30
0
41
1
10
13.4881758940648
20
-0.586614563239948
30
0
41
1
10
14.0628335333346
20
-0.785867920393031
30
0
41
1
10
14.9258209449005
20
-1.06893689723128
30
0
41
1
10
15.2136965897806
20
-1.16053906454547
30
0
41
1
10
15.7902802466864
20
-1.33718315444818
30
0
41
1
10
16.0787328790472
20
-1.42226343565395
30
0
41
1
10
16.9421598019287
20
-1.66419555606356
30
0
41
1
10
17.516707580643
20
-1.80773957018295
30
0
41
1
10
18.6673728535725
20
-2.05228490424562
30
0
41
1
10
19.2449067060965
20
-2.15287648303675
30
0
41
1
10
20.3956484813632
20
-2.30327166914006
30
0
41
1
10
20.9701357346686
20
-2.35304667349857
30
0
41
1
10
21.7890041361193
20
-2.38586326832433
30
0
41
1
10
22.0328571545633
20
-2.39081325006254
30
0
41
1
10
22.276753932757
20
-2.39093224595314
30
0
0
SPLINE
5
BB
100
AcDbEntity
8
1
62
256
6
ByLayer
370
18
48
1
60
0
100
AcDbSpline
70
4
71
3
72
34
73
30
40
0
40
0
40
0
40
0
40
0.0084771429756242
40
0.0084771429756242
40
0.0580532858268429
40
0.0580532858268429
40
0.107629428678062
40
0.107629428678062
40
0.206781714380499
40
0.206781714380499
40
0.256357857231719
40
0.256357857231719
40
0.305934000082939
40
0.305934000082939
40
0.405086285785376
40
0.405086285785376
40
0.504238571487813
40
0.504238571487813
40
0.603390857190251
40
0.603390857190251
40
0.702543142892688
40
0.702543142892688
40
0.801695428595125
40
0.801695428595125
40
0.851271571446344
40
0.851271571446344
40
0.900847714297563
40
0.900847714297563
40
1
40
1
40
1
40
1
41
1
10
40.3871149425069
20
2.19995835734002
30
0
41
1
10
40.4362388859494
20
2.20712890075561
30
0
41
1
10
40.4853631183151
20
2.2141198496185
30
0
41
1
10
40.821786796419
20
2.26075433444032
30
0
41
1
10
41.1092424563193
20
2.29428045969476
30
0
41
1
10
41.684818793815
20
2.34840049940715
30
0
41
1
10
41.9732247970071
20
2.36900818875918
30
0
41
1
10
42.8367681839385
20
2.41042714630851
30
0
41
1
10
43.4109720211322
20
2.41098815385553
30
0
41
1
10
44.2729285779215
20
2.37142165920454
30
0
41
1
10
44.5604924919646
20
2.35156418071435
30
0
41
1
10
45.1363414907559
20
2.29858771244847
30
0
41
1
10
45.4246587720575
20
2.26540301178011
30
0
41
1
10
46.2876633379844
20
2.14733445388865
30
0
41
1
10
46.8616405466815
20
2.04367417315476
30
0
41
1
10
48.011193181286
20
1.79251176932434
30
0
41
1
10
48.5881173355055
20
1.64472894149156
30
0
41
1
10
49.73809666984
20
1.31615321553713
30
0
41
1
10
50.3120166686849
20
1.13560560543908
30
0
41
1
10
51.4618677266794
20
0.751924961901409
30
0
41
1
10
52.03872303794
20
0.548721048990473
30
0
41
1
10
53.1881552084785
20
0.135759690388767
30
0
41
1
10
53.7620307006647
20
-0.0741828315297255
30
0
41
1
10
54.6247624934247
20
-0.385447331271507
30
0
41
1
10
54.9131255784437
20
-0.488616753454664
30
0
41
1
10
55.4885365357079
20
-0.691405752947588
30
0
41
1
10
55.7755179530738
20
-0.791117864781796
30
0
41
1
10
56.6355658677529
20
-1.08182043343524
30
0
41
1
10
57.2076181521239
20
-1.26474896220068
30
0
41
1
10
57.7801478995979
20
-1.43244528209451
30
0
0
SPLINE
5
BC
100
AcDbEntity
8
1
62
256
6
ByLayer
370
18
48
1
60
0
100
AcDbSpline
70
4
71
3
72
8
73
4
40
0
40
0
40
0
40
0
40
1
40
1
40
1
40
1
41
1
10
59.827122884825
20
0.654125049248478
30
0
41
1
10
59.8795907974158
20
0.462976915022153
30
0
41
1
10
59.9185436327344
20
0.271486247781667
30
0
41
1
10
59.9384132355672
20
0.0795119253603218
30
0
0
SPLINE
5
BD
100
AcDbEntity
8
1
62
256
6
ByLayer
370
18
48
1
60
0
100
AcDbSpline
70
4
71
3
72
12
73
8
40
0
40
0
40
0
40
0
40
0.250000000000039
40
0.250000000000039
40
0.500000000000079
40
0.500000000000079
40
1
40
1
40
1
40
1
41
1
10
58.0893638099659
20
-1.39411192826776
30
0
41
1
10
58.1042793979205
20
-1.39149789697578
30
0
41
1
10
58.1196433553961
20
-1.39321241952908
30
0
41
1
10
58.1505692718414
20
-1.39855296902988
30
0
41
1
10
58.16593455214
20
-1.40259656283189
30
0
41
1
10
58.2115004151199
20
-1.41722261454976
30
0
41
1
10
58.2414030976593
20
-1.43012159183092
30
0
41
1
10
58.2706811019348
20
-1.44716474891163
30
0
0
SPLINE
5
BE
100
AcDbEntity
8
1
62
256
6
ByLayer
370
18
48
1
60
0
100
AcDbSpline
70
4
71
3
72
10
73
6
40
0
40
0
40
0
40
0
40
0.5
40
0.5
40
1
40
1
40
1
40
1
41
1
10
2.54727957666475
20
2.2054073599565
30
0
41
1
10
2.5472353407898
20
2.19220194154093
30
0
41
1
10
2.54716900538031
20
2.17847461389354
30
0
41
1
10
2.54703298009068
20
2.15756103262004
30
0
41
1
10
2.54696361813598
20
2.15032206860585
30
0
41
1
10
2.54690959903164
20
2.14792315812278
30
0
0
SPLINE
5
BF
100
AcDbEntity
8
1
62
256
6
ByLayer
370
18
48
1
60
0
100
AcDbSpline
70
4
71
3
72
8
73
4
40
0
40
0
40
0
40
0
40
1
40
1
40
1
40
1
41
1
10
12.9382841844243
20
-1.6992223071974
30
0
41
1
10
12.9382538739833
20
-1.72933202651254
30
0
41
1
10
12.9382235613222
20
-1.75944136462292
30
0
41
1
10
12.9381932464404
20
-1.78955032142989
30
0
0
SPLINE
5
C0
100
AcDbEntity
8
1
62
256
6
ByLayer
370
18
48
1
60
0
100
AcDbSpline
70
4
71
3
72
34
73
30
40
0
40
0
40
0
40
0
40
0.0603552272026683
40
0.0603552272026683
40
0.135611114984028
40
0.135611114984028
40
0.210867002765387
40
0.210867002765387
40
0.286122890546747
40
0.286122890546747
40
0.361378778328106
40
0.361378778328106
40
0.436634666109466
40
0.436634666109466
40
0.511890553890825
40
0.511890553890825
40
0.587146441672185
40
0.587146441672185
40
0.662402329453544
40
0.662402329453544
40
0.737658217234904
40
0.737658217234904
40
0.812914105016263
40
0.812914105016263
40
0.888169992797623
40
0.888169992797623
40
0.963425880578982
40
0.963425880578982
40
1
40
1
40
1
40
1
41
1
10
53.5672302844705
20
-0.0028627843180118
30
0
41
1
10
53.3363289233436
20
0.0741033358481218
30
0
41
1
10
53.1058332531069
20
0.150892946119427
30
0
41
1
10
52.5887267619771
20
0.322396892653643
30
0
41
1
10
52.3023387713489
20
0.416855144218971
30
0
41
1
10
51.730063957994
20
0.602762466121845
30
0
41
1
10
51.4441404683819
20
0.694198434135018
30
0
41
1
10
50.8724569547178
20
0.872646388743533
30
0
41
1
10
50.5867051547173
20
0.959660248145724
30
0
41
1
10
50.0148314915264
20
1.12814065968536
30
0
41
1
10
49.7287021059089
20
1.20961539818637
30
0
41
1
10
49.1556676352113
20
1.36543316284695
30
0
41
1
10
48.8687673194184
20
1.43974290346242
30
0
41
1
10
48.2937451660372
20
1.58043859271237
30
0
41
1
10
48.0056219060281
20
1.64687266332703
30
0
41
1
10
47.4276634491016
20
1.77013346153868
30
0
41
1
10
47.1378212535051
20
1.8268747624459
30
0
41
1
10
46.5560677395549
20
1.93025895153411
30
0
41
1
10
46.2647389070416
20
1.97687711086777
30
0
41
1
10
45.6837905081992
20
2.05786625040329
30
0
41
1
10
45.3937706500695
20
2.09217336588958
30
0
41
1
10
44.8139664821209
20
2.14913320337735
30
0
41
1
10
44.5241539274686
20
2.17195821175486
30
0
41
1
10
43.9443933592652
20
2.20447356142
30
0
41
1
10
43.6544696934456
20
2.21396153044287
30
0
41
1
10
43.0738480967662
20
2.22112580101336
30
0
41
1
10
42.7831829751803
20
2.21873020677273
30
0
41
1
10
42.3503968974691
20
2.20515772860082
30
0
41
1
10
42.2089452459741
20
2.19908247299284
30
0
41
1
10
42.0675370519731
20
2.19151377619949
30
0
0
SPLINE
5
C1
100
AcDbEntity
8
1
62
256
6
ByLayer
370
18
48
1
60
0
100
AcDbSpline
70
4
71
3
72
20
73
16
40
0
40
0
40
0
40
0
40
0.0750193946206431
40
0.0750193946206431
40
0.167517455158579
40
0.167517455158579
40
0.260015515696515
40
0.260015515696515
40
0.445011636772386
40
0.445011636772386
40
0.630007757848257
40
0.630007757848257
40
0.815003878924128
40
0.815003878924128
40
1
40
1
40
1
40
1
41
1
10
11.9434501666849
20
-0.0339578716109088
30
0
41
1
10
11.7082219369044
20
0.0451249666028559
30
0
41
1
10
11.4723732320191
20
0.124389535893727
30
0
41
1
10
10.9456700011699
20
0.300772045515942
30
0
41
1
10
10.6553056983964
20
0.39745934364916
30
0
41
1
10
10.0751237443347
20
0.587922970650595
30
0
41
1
10
9.78545654257493
20
0.682051098119246
30
0
41
1
10
8.91611927074752
20
0.956768357109468
30
0
41
1
10
8.33602317359504
20
1.13152192370845
30
0
41
1
10
7.17288268383243
20
1.45213649556962
30
0
41
1
10
6.59420909949793
20
1.59705548100553
30
0
41
1
10
5.43933456658945
20
1.84551660897765
30
0
41
1
10
4.86256858356941
20
1.95118450639146
30
0
41
1
10
3.70726859787203
20
2.11596955042566
30
0
41
1
10
3.12866943349701
20
2.17429006454489
30
0
41
1
10
2.54727957666472
20
2.2054073599565
30
0
0
SPLINE
5
C2
100
AcDbEntity
8
1
62
256
6
ByLayer
370
13
48
1
60
0
100
AcDbSpline
70
4
71
3
72
8
73
4
40
0
40
0
40
0
40
0
40
1
40
1
40
1
40
1
41
1
10
58.7306457725049
20
0.854269161680207
30
0
41
1
10
58.7852375457389
20
0.801000025813579
30
0
41
1
10
58.843467952599
20
0.752964086646102
30
0
41
1
10
58.9043086588142
20
0.708699674847452
30
0
0
SPLINE
5
C3
100
AcDbEntity
8
1
62
256
6
ByLayer
370
18
48
1
60
0
100
AcDbSpline
70
4
71
3
72
14
73
10
40
0
40
0
40
0
40
0
40
0.25
40
0.25
40
0.5
40
0.5
40
0.75
40
0.75
40
1
40
1
40
1
40
1
41
1
10
58.6876377734903
20
0.787168037563958
30
0
41
1
10
58.6862733200074
20
0.794790989678148
30
0
41
1
10
58.6855874449481
20
0.802460313126232
30
0
41
1
10
58.6864658222759
20
0.817954009018081
30
0
41
1
10
58.6880745057623
20
0.825785135832632
30
0
41
1
10
58.6951900875181
20
0.839691864633068
30
0
41
1
10
58.7008726740233
20
0.845557833627879
30
0
41
1
10
58.7149227620896
20
0.852752179825842
30
0
41
1
10
58.7227995870834
20
0.854134364171216
30
0
41
1
10
58.7306457725045
20
0.854269161682879
30
0
0
SPLINE
5
C4
100
AcDbEntity
8
1
62
256
6
ByLayer
370
18
48
1
60
0
100
AcDbSpline
70
4
71
3
72
8
73
4
40
0
40
0
40
0
40
0
40
1
40
1
40
1
40
1
41
1
10
59.0044041402615
20
-2.209800503113
30
0
41
1
10
58.992014908263
20
-2.23592509455975
30
0
41
1
10
58.9795929992274
20
-2.26199590302897
30
0
41
1
10
58.9671373390115
20
-2.28801223505008
30
0
0
SPLINE
5
C5
100
AcDbEntity
8
1
62
256
6
ByLayer
370
18
48
1
60
0
100
AcDbSpline
70
4
71
3
72
22
73
18
40
0
40
0
40
0
40
0
40
0.041852293457348
40
0.041852293457348
40
0.18793366376431
40
0.18793366376431
40
0.334015034071272
40
0.334015034071272
40
0.480096404378234
40
0.480096404378234
40
0.77225914499216
40
0.77225914499216
40
0.918340515299124
40
0.918340515299124
40
0.991381200452605
40
0.991381200452605
40
1
40
1
40
1
40
1
41
1
10
7.32651431437267
20
-0.0055646658470323
30
0
41
1
10
7.49544801574879
20
-0.0628310382789437
30
0
41
1
10
7.6645836232525
20
-0.120156866700228
30
0
41
1
10
8.42518679214561
20
-0.377191958632238
30
0
41
1
10
9.01513484595546
20
-0.574447529329376
30
0
41
1
10
10.1939757220801
20
-0.949815072055372
30
0
41
1
10
10.7833551769467
20
-1.12810870326521
30
0
41
1
10
11.9661249435798
20
-1.45528419145648
30
0
41
1
10
12.5545343641614
20
-1.60266189293824
30
0
41
1
10
14.3115311046458
20
-1.981096946995
30
0
41
1
10
15.4743481455548
20
-2.14888872685305
30
0
41
1
10
17.2296599182629
20
-2.24411922159871
30
0
41
1
10
17.8166043778851
20
-2.25006558490145
30
0
41
1
10
18.7028027246278
20
-2.2187782094928
30
0
41
1
10
18.9986877548046
20
-2.20168640117797
30
0
41
1
10
19.3280863429968
20
-2.17545733604047
30
0
41
1
10
19.3628432872431
20
-2.17259969373671
30
0
41
1
10
19.3975910353009
20
-2.16965330312215
30
0
0
SPLINE
5
C6
100
AcDbEntity
8
1
62
256
6
ByLayer
370
18
48
1
60
0
100
AcDbSpline
70
4
71
3
72
20
73
16
40
0
40
0
40
0
40
0
40
0.118165655254564
40
0.118165655254564
40
0.294532524203653
40
0.294532524203653
40
0.470899393152742
40
0.470899393152742
40
0.647266262101832
40
0.647266262101832
40
0.735449696576375
40
0.735449696576375
40
0.823633131050918
40
0.823633131050918
40
1
40
1
40
1
40
1
41
1
10
49.0313149712647
20
-0.0171889322836307
30
0
41
1
10
49.4234181005251
20
-0.148451489799498
30
0
41
1
10
49.8143110947417
20
-0.279177699419563
30
0
41
1
10
50.7870367610301
20
-0.59906223718761
30
0
41
1
10
51.3680846427791
20
-0.78528755207887
30
0
41
1
10
52.5311460596833
20
-1.13564493107981
30
0
41
1
10
53.1131642379029
20
-1.29972217931797
30
0
41
1
10
54.2819561652441
20
-1.59522291225511
30
0
41
1
10
54.8687374870227
20
-1.72658114467725
30
0
41
1
10
55.7553101864246
20
-1.89182016239758
30
0
41
1
10
56.0517269250623
20
-1.94152631325315
30
0
41
1
10
56.6427649601393
20
-2.02875442165762
30
0
41
1
10
56.9379363991456
20
-2.06640656182401
30
0
41
1
10
57.8231825748227
20
-2.16071514882296
30
0
41
1
10
58.4129969514832
20
-2.19872790877915
30
0
41
1
10
59.004404140257
20
-2.20980050311076
30
0
0
SPLINE
5
C7
100
AcDbEntity
8
1
62
256
6
ByLayer
370
18
48
1
60
0
100
AcDbSpline
70
4
71
3
72
18
73
14
40
0
40
0
40
0
40
0
40
0.125
40
0.125
40
0.249999999999999
40
0.249999999999999
40
0.499999999999998
40
0.499999999999998
40
0.624999999999998
40
0.624999999999998
40
0.749999999999997
40
0.749999999999997
40
1
40
1
40
1
40
1
41
1
10
12.9310087799216
20
0.550224217557599
30
0
41
1
10
12.7144020131762
20
0.625941654178945
30
0
41
1
10
12.4981144786885
20
0.701113982606614
30
0
41
1
10
12.0654870936161
20
0.848405932574963
30
0
41
1
10
11.8491220187482
20
0.920468429350279
30
0
41
1
10
11.1998978359497
20
1.13202732651175
30
0
41
1
10
10.7672910382553
20
1.26782881978465
30
0
41
1
10
10.1161462392454
20
1.4570660100606
30
0
41
1
10
9.89876636279828
20
1.51785636461415
30
0
41
1
10
9.46339833865827
20
1.63495299080029
30
0
41
1
10
9.245458100934
20
1.69135547601314
30
0
41
1
10
8.58982950519228
20
1.85169261276118
30
0
41
1
10
8.14944215022808
20
1.947050477624
30
0
41
1
10
7.70974136960515
20
2.02974898132356
30
0
0
SPLINE
5
C8
100
AcDbEntity
8
1
62
256
6
ByLayer
370
18
48
1
60
0
100
AcDbSpline
70
4
71
3
72
58
73
54
40
0
40
0
40
0
40
0
40
0.125000000000021
40
0.125000000000021
40
0.187500000000032
40
0.187500000000032
40
0.250000000000043
40
0.250000000000043
40
0.312500000000054
40
0.312500000000054
40
0.375000000000064
40
0.375000000000064
40
0.406250000000069
40
0.406250000000069
40
0.437500000000074
40
0.437500000000074
40
0.468750000000078
40
0.468750000000078
40
0.500000000000083
40
0.500000000000083
40
0.515625000000085
40
0.515625000000085
40
0.531250000000088
40
0.531250000000088
40
0.54687500000009
40
0.54687500000009
40
0.562500000000092
40
0.562500000000092
40
0.593750000000098
40
0.593750000000098
40
0.601562500000099
40
0.601562500000099
40
0.605468750000099
40
0.605468750000099
40
0.607421875000099
40
0.607421875000099
40
0.6093750000001
40
0.6093750000001
40
0.613281250000099
40
0.613281250000099
40
0.617187500000098
40
0.617187500000098
40
0.625000000000096
40
0.625000000000096
40
0.68750000000008
40
0.68750000000008
40
0.750000000000064
40
0.750000000000064
40
0.812500000000048
40
0.812500000000048
40
0.875000000000032
40
0.875000000000032
40
1
40
1
40
1
40
1
41
1
10
7.70974136960515
20
-2.02974898132351
30
0
41
1
10
7.23805235446807
20
-2.13467841549428
30
0
41
1
10
6.77214876644777
20
-2.22157225594182
30
0
41
1
10
6.07968063018058
20
-2.31367524035417
30
0
41
1
10
5.84992944387318
20
-2.33799613553336
30
0
41
1
10
5.39235202208212
20
-2.37138064556322
30
0
41
1
10
5.16404282440055
20
-2.38043431727576
30
0
41
1
10
4.71461053895621
20
-2.37975288925099
30
0
41
1
10
4.49294353711187
20
-2.37015517011642
30
0
41
1
10
4.05714748534237
20
-2.32721913560329
30
0
41
1
10
3.84282219782901
20
-2.29410424144646
30
0
41
1
10
3.53014887231609
20
-2.21823097758954
30
0
41
1
10
3.42847124113294
20
-2.18875030547955
30
0
41
1
10
3.23173187997384
20
-2.11914107244181
30
0
41
1
10
3.13662852886338
20
-2.07907156904727
30
0
41
1
10
2.95590880451127
20
-1.98410006638918
30
0
41
1
10
2.86969721181825
20
-1.92878258009614
30
0
41
1
10
2.71842307501845
20
-1.79896808788553
30
0
41
1
10
2.652180311938
20
-1.72316533745493
30
0
41
1
10
2.58353714732456
20
-1.59303043093436
30
0
41
1
10
2.56560235839711
20
-1.54677920588591
30
0
41
1
10
2.54257100649525
20
-1.44698867736133
30
0
41
1
10
2.53798389226787
20
-1.39529091396628
30
0
41
1
10
2.54361659444973
20
-1.28886161502751
30
0
41
1
10
2.55411909179233
20
-1.23361797705428
30
0
41
1
10
2.5884704060563
20
-1.12563585100847
30
0
41
1
10
2.61245819923656
20
-1.07186188407667
30
0
41
1
10
2.70028784820181
20
-0.914757246217818
30
0
41
1
10
2.7775120835702
20
-0.818314285411958
30
0
41
1
10
2.88773975277499
20
-0.704935638316329
30
0
41
1
10
2.91039114605829
20
-0.682738454213961
30
0
41
1
10
2.94516858575423
20
-0.650077795308306
30
0
41
1
10
2.95685256541921
20
-0.639256331316062
30
0
41
1
10
2.97443532597455
20
-0.623045604718982
30
0
41
1
10
2.98035167413383
20
-0.617690084389892
30
0
41
1
10
2.99246597144321
20
-0.607241985081174
30
0
41
1
10
2.99848157714109
20
-0.601811004017065
30
0
41
1
10
3.01967374490951
20
-0.59097369018059
30
0
41
1
10
3.03601246615014
20
-0.588693775738335
30
0
41
1
10
3.06764405070785
20
-0.585913133573854
30
0
41
1
10
3.08351581044661
20
-0.584978061266042
30
0
41
1
10
3.13102555957843
20
-0.581313218551998
30
0
41
1
10
3.162710608098
20
-0.579006467921488
30
0
41
1
10
3.44794106826609
20
-0.559456391739445
30
0
41
1
10
3.70206154726816
20
-0.5506488341438
30
0
41
1
10
4.20961230256725
20
-0.548515778886525
30
0
41
1
10
4.46326635007287
20
-0.555192890771792
30
0
41
1
10
4.9703473858066
20
-0.582962845180106
30
0
41
1
10
5.22365960165655
20
-0.604097303079271
30
0
41
1
10
5.72707137057887
20
-0.659503571560975
30
0
41
1
10
5.97756021674567
20
-0.693768901478762
30
0
41
1
10
6.72556924485357
20
-0.814267950028949
30
0
41
1
10
7.21957988540308
20
-0.91853498755745
30
0
41
1
10
7.70974136960515
20
-1.03895844300843
30
0
0
SPLINE
5
C9
100
AcDbEntity
8
1
62
256
6
ByLayer
370
18
48
1
60
0
100
AcDbSpline
70
4
71
3
72
46
73
42
40
0
40
0
40
0
40
0
40
0.0349930295177863
40
0.0349930295177863
40
0.09714731388226
40
0.09714731388226
40
0.159301598246734
40
0.159301598246734
40
0.221455882611207
40
0.221455882611207
40
0.283610166975681
40
0.283610166975681
40
0.345764451340155
40
0.345764451340155
40
0.376841593522391
40
0.376841593522391
40
0.407918735704627
40
0.407918735704627
40
0.470073020069101
40
0.470073020069101
40
0.532227304433575
40
0.532227304433575
40
0.594381588798048
40
0.594381588798048
40
0.625458730980284
40
0.625458730980284
40
0.656535873162521
40
0.656535873162521
40
0.718690157526993
40
0.718690157526993
40
0.780844441891465
40
0.780844441891465
40
0.842998726255937
40
0.842998726255937
40
0.90515301062041
40
0.90515301062041
40
0.936230152802646
40
0.936230152802646
40
0.967307294984883
40
0.967307294984883
40
1
40
1
40
1
40
1
41
1
10
16.4532888319068
20
2.38727606095315
30
0
41
1
10
16.722384738695
20
2.38746875692732
30
0
41
1
10
16.9913374383305
20
2.38178854405066
30
0
41
1
10
17.7383473321524
20
2.3497333272004
30
0
41
1
10
18.2166994642211
20
2.31083341328775
30
0
41
1
10
19.1762144006871
20
2.1970098474649
30
0
41
1
10
19.6583629012688
20
2.12159061527356
30
0
41
1
10
20.6205620876337
20
1.93879999214778
30
0
41
1
10
21.1011554446042
20
1.83161157384734
30
0
41
1
10
22.0635554361916
20
1.58959326355819
30
0
41
1
10
22.545550910955
20
1.45436346144115
30
0
41
1
10
23.5075142189704
20
1.16433212977145
30
0
41
1
10
23.9882626510455
20
1.00948106942258
30
0
41
1
10
24.7104927635358
20
0.766042839692972
30
0
41
1
10
24.9515066682946
20
0.682908361143291
30
0
41
1
10
25.4325648323948
20
0.51455626672535
30
0
41
1
10
25.672814125941
20
0.429283556594953
30
0
41
1
10
26.3933127838018
20
0.171815957722146
30
0
41
1
10
26.8733699148179
20
-0.0018664075195716
30
0
41
1
10
27.834813569791
20
-0.348048989081349
30
0
41
1
10
28.3168593985311
20
-0.521059408996109
30
0
41
1
10
29.2782749969937
20
-0.853958232920064
30
0
41
1
10
29.7583975734834
20
-1.01410553735519
30
0
41
1
10
30.4790388059185
20
-1.24149786402768
30
0
41
1
10
30.7192922039377
20
-1.31523863585068
30
0
41
1
10
31.2003416249833
20
-1.45744740853004
30
0
41
1
10
31.4413458900071
20
-1.52595982798215
30
0
41
1
10
32.1630994032524
20
-1.72147903210203
30
0
41
1
10
32.6432857969575
20
-1.83858473629283
30
0
41
1
10
33.6036346892049
20
-2.0429060867944
30
0
41
1
10
34.0836936315264
20
-2.13016813409226
30
0
41
1
10
35.0470572594465
20
-2.26964805024841
30
0
41
1
10
35.5277446215963
20
-2.32157992652441
30
0
41
1
10
36.4881476537901
20
-2.38863445029997
30
0
41
1
10
36.9679051413858
20
-2.40368848997662
30
0
41
1
10
37.6893966082069
20
-2.39767655418939
30
0
41
1
10
37.9304200538009
20
-2.39091860028071
30
0
41
1
10
38.411659704663
20
-2.3680497616468
30
0
41
1
10
38.6519963330083
20
-2.35195240529813
30
0
41
1
10
39.1447821929739
20
-2.30947502580932
30
0
41
1
10
39.3972063602649
20
-2.28256492159281
30
0
41
1
10
39.6496661344191
20
-2.25074831613358
30
0
0
SPLINE
5
CA
100
AcDbEntity
8
1
62
256
6
ByLayer
370
18
48
1
60
0
100
AcDbSpline
70
4
71
3
72
8
73
4
40
0
40
0
40
0
40
0
40
1
40
1
40
1
40
1
41
1
10
58.1174314035044
20
2.41333692028726
30
0
41
1
10
58.4290711829002
20
2.41355298436295
30
0
41
1
10
58.7412382454212
20
2.40574280559701
30
0
41
1
10
59.0542078940132
20
2.38977657568469
30
0
0
SPLINE
5
CB
100
AcDbEntity
8
1
62
256
6
ByLayer
370
18
48
1
60
0
100
AcDbSpline
70
4
71
3
72
8
73
4
40
0
40
0
40
0
40
0
40
1
40
1
40
1
40
1
41
1
10
56.9910794480773
20
-0.758750223572719
30
0
41
1
10
56.9915325950355
20
-0.758827104607064
30
0
41
1
10
56.9919857427466
20
-0.758903925522247
30
0
41
1
10
56.9924388911582
20
-0.758980686291892
30
0
0
SPLINE
5
CC
100
AcDbEntity
8
1
62
256
6
ByLayer
370
18
48
1
60
0
100
AcDbSpline
70
4
71
3
72
34
73
30
40
0
40
0
40
0
40
0
40
0.250000000000058
40
0.250000000000058
40
0.375000000000082
40
0.375000000000082
40
0.500000000000106
40
0.500000000000106
40
0.62500000000013
40
0.62500000000013
40
0.656250000000133
40
0.656250000000133
40
0.671875000000135
40
0.671875000000135
40
0.679687500000131
40
0.679687500000131
40
0.687500000000128
40
0.687500000000128
40
0.695312500000124
40
0.695312500000124
40
0.703125000000121
40
0.703125000000121
40
0.718750000000115
40
0.718750000000115
40
0.750000000000102
40
0.750000000000102
40
0.875000000000051
40
0.875000000000051
40
1
40
1
40
1
40
1
41
1
10
56.7718651406225
20
-0.21585995176514
30
0
41
1
10
57.0114857761811
20
-0.283759234045675
30
0
41
1
10
57.2515159545648
20
-0.332770659570457
30
0
41
1
10
57.6122809083551
20
-0.373096323590488
30
0
41
1
10
57.7330660313246
20
-0.380867026426586
30
0
41
1
10
57.9729441439271
20
-0.383055035091076
30
0
41
1
10
58.0915716482969
20
-0.377601262381745
30
0
41
1
10
58.3259232238646
20
-0.352198650005732
30
0
41
1
10
58.4418701492183
20
-0.332225842551196
30
0
41
1
10
58.5840969507655
20
-0.297103773427864
30
0
41
1
10
58.6123904858624
20
-0.289575426404525
30
0
41
1
10
58.6545750143518
20
-0.277512536242
30
0
41
1
10
58.668668423903
20
-0.273581930802237
30
0
41
1
10
58.6896514395663
20
-0.26723438969114
30
0
41
1
10
58.6966180799444
20
-0.265040698469335
30
0
41
1
10
58.710452264713
20
-0.260374812261688
30
0
41
1
10
58.7174372547607
20
-0.257970741469165
30
0
41
1
10
58.728764491327
20
-0.248441975184875
30
0
41
1
10
58.7325950149421
20
-0.24128869311582
30
0
41
1
10
58.735655662762
20
-0.224693409705282
30
0
41
1
10
58.7361309462596
20
-0.216019924411029
30
0
41
1
10
58.7393549400534
20
-0.190630355218531
30
0
41
1
10
58.7412989530226
20
-0.1736334765545
30
0
41
1
10
58.746539156595
20
-0.122447944549691
30
0
41
1
10
58.749239632997
20
-0.0881128178502593
30
0
41
1
10
58.759111093536
20
0.0845309422901437
30
0
41
1
10
58.7554331939628
20
0.225136046831238
30
0
41
1
10
58.7323145886336
20
0.505620291704048
30
0
41
1
10
58.7128607528307
20
0.646251864092818
30
0
41
1
10
58.6876377734904
20
0.787168037563987
30
0
0
SPLINE
5
CD
100
AcDbEntity
8
1
62
256
6
ByLayer
370
18
48
1
60
0
100
AcDbSpline
70
4
71
3
72
26
73
22
40
0
40
0
40
0
40
0
40
0.139547855059529
40
0.139547855059529
40
0.209321782589295
40
0.209321782589295
40
0.27909571011906
40
0.27909571011906
40
0.418643565178589
40
0.418643565178589
40
0.558191420238118
40
0.558191420238118
40
0.697739275297646
40
0.697739275297646
40
0.837287130357175
40
0.837287130357175
40
0.907061057886938
40
0.907061057886938
40
0.976834985416701
40
0.976834985416701
40
1
40
1
40
1
40
1
41
1
10
59.0108325926976
20
-2.1568865043603
30
0
41
1
10
58.4194424045844
20
-2.14158971583706
30
0
41
1
10
57.8295973214987
20
-2.10011124684729
30
0
41
1
10
56.9443421324685
20
-2.00173799870407
30
0
41
1
10
56.6491731836229
20
-1.96291985195734
30
0
41
1
10
56.0581629745632
20
-1.8737443789488
30
0
41
1
10
55.7617862207731
20
-1.82325602875542
30
0
41
1
10
54.8753302092284
20
-1.65632396897385
30
0
41
1
10
54.2884449481748
20
-1.5246433997194
30
0
41
1
10
53.1192353299853
20
-1.23005522764913
30
0
41
1
10
52.5369072679025
20
-1.06720414476413
30
0
41
1
10
51.3731593513427
20
-0.720810265787804
30
0
41
1
10
50.7917416807504
20
-0.537304437567201
30
0
41
1
10
49.6261477596478
20
-0.161043390319008
30
0
41
1
10
49.0419724628893
20
0.0317115891417075
30
0
41
1
10
48.1609072510592
20
0.318667280670354
30
0
41
1
10
47.8664214910556
20
0.413957170792798
30
0
41
1
10
47.2753956507495
20
0.602213026541989
30
0
41
1
10
46.9791628829036
20
0.695066338119432
30
0
41
1
10
46.5858081576574
20
0.81528794070573
30
0
41
1
10
46.4878084123137
20
0.844983389058598
30
0
41
1
10
46.3898433635659
20
0.874384509538061
30
0
0
SPLINE
5
CE
100
AcDbEntity
8
1
62
256
6
ByLayer
370
18
48
1
60
0
100
AcDbSpline
70
4
71
3
72
24
73
20
40
0
40
0
40
0
40
0
40
0.0567290291466631
40
0.0567290291466631
40
0.186539940440241
40
0.186539940440241
40
0.446161763027401
40
0.446161763027401
40
0.51106721867419
40
0.51106721867419
40
0.575972674320979
40
0.575972674320979
40
0.705783585614556
40
0.705783585614556
40
0.835594496908132
40
0.835594496908132
40
0.965405408201708
40
0.965405408201708
40
1
40
1
40
1
40
1
41
1
10
19.1838121260806
20
-2.14887224997946
30
0
41
1
10
18.9260257316586
20
-2.16562223907516
30
0
41
1
10
18.6674770558931
20
-2.17756450058946
30
0
41
1
10
17.818643900459
20
-2.20041057508843
30
0
41
1
10
17.231636746633
20
-2.19007936834183
30
0
41
1
10
15.4758661644825
20
-2.08366429558339
30
0
41
1
10
14.3124377139302
20
-1.91115847771053
30
0
41
1
10
12.8477525479636
20
-1.59399827606529
30
0
41
1
10
12.5542857657996
20
-1.52553790585461
30
0
41
1
10
11.9658356842956
20
-1.37959875504177
30
0
41
1
10
11.6705750941836
20
-1.30205117532805
30
0
41
1
10
10.7836863258476
20
-1.05824571772666
30
0
41
1
10
10.1943433263467
20
-0.881785501756895
30
0
41
1
10
9.01547705153251
20
-0.511764176781469
30
0
41
1
10
8.42545567066455
20
-0.31792478619866
30
0
41
1
10
7.24328803030085
20
0.0734073576375067
30
0
41
1
10
6.65510650954371
20
0.269535834518507
30
0
41
1
10
5.91141709995892
20
0.510799506145048
30
0
41
1
10
5.75499834458685
20
0.561170483367647
30
0
41
1
10
5.59861084983658
20
0.611033048344694
30
0
0
SPLINE
5
CF
100
AcDbEntity
8
1
62
256
6
ByLayer
370
18
48
1
60
0
100
AcDbSpline
70
4
71
3
72
8
73
4
40
0
40
0
40
0
40
0
40
1
40
1
40
1
40
1
41
1
10
58.9158881068384
20
0.711133908969231
30
0
41
1
10
58.9116957582475
20
0.711395554257649
30
0
41
1
10
58.9070589111757
20
0.711134812796502
30
0
41
1
10
58.9043086588142
20
0.708699674847452
30
0
0
SPLINE
5
D0
100
AcDbEntity
8
1
62
256
6
ByLayer
370
18
48
1
60
0
100
AcDbSpline
70
4
71
3
72
30
73
26
40
0
40
0
40
0
40
0
40
0.201822481691785
40
0.201822481691785
40
0.32073333231946
40
0.32073333231946
40
0.439644182947135
40
0.439644182947135
40
0.55855503357481
40
0.55855503357481
40
0.618010458888647
40
0.618010458888647
40
0.632874315217107
40
0.632874315217107
40
0.640306243381336
40
0.640306243381336
40
0.647738171545566
40
0.647738171545566
40
0.662602027874026
40
0.662602027874026
40
0.677465884202485
40
0.677465884202485
40
0.915287585457835
40
0.915287585457835
40
1
40
1
40
1
40
1
41
1
10
7.70974136960518
20
-1.02994725596369
30
0
41
1
10
7.70974136960518
20
-0.942203396339664
30
0
41
1
10
7.70974136960515
20
-0.87755554851833
30
0
41
1
10
7.70974136960515
20
-0.809892481926397
30
0
41
1
10
7.70974136960515
20
-0.792593284310584
30
0
41
1
10
7.70974136960515
20
-0.774028884515303
30
0
41
1
10
7.70974136960515
20
-0.772607030977611
30
0
41
1
10
7.70974136960515
20
-0.785170777654429
30
0
41
1
10
7.70974136960518
20
-0.799176336671849
30
0
41
1
10
7.70974136960518
20
-0.831873038033848
30
0
41
1
10
7.70974136960515
20
-0.844689967545122
30
0
41
1
10
7.70974136960515
20
-0.863107606164135
30
0
41
1
10
7.70974136960518
20
-0.866911319555101
30
0
41
1
10
7.70974136960518
20
-0.872792932445435
30
0
41
1
10
7.70974136960518
20
-0.874093599778746
30
0
41
1
10
7.70974136960518
20
-0.880352204749471
30
0
41
1
10
7.70974136960518
20
-0.885973515884757
30
0
41
1
10
7.70974136960518
20
-0.907937023458544
30
0
41
1
10
7.70974136960515
20
-0.923305439815152
30
0
41
1
10
7.70974136960515
20
-0.953469360279513
30
0
41
1
10
7.70974136960515
20
-0.968595446140512
30
0
41
1
10
7.70974136960515
20
-1.22649071701784
30
0
41
1
10
7.70974136960515
20
-1.48110820163788
30
0
41
1
10
7.70974136960518
20
-1.83875653861398
30
0
41
1
10
7.70974136960518
20
-1.93373021167616
30
0
41
1
10
7.70974136960518
20
-2.02974898129989
30
0
0
SPLINE
5
D1
100
AcDbEntity
8
1
62
256
6
ByLayer
370
18
48
1
60
0
100
AcDbSpline
70
4
71
3
72
8
73
4
40
0
40
0
40
0
40
0
40
1
40
1
40
1
40
1
41
1
10
59.1843802044175
20
2.26139351995081
30
0
41
1
10
59.3635250466511
20
1.81700738002547
30
0
41
1
10
59.5456895805266
20
1.37151854890621
30
0
41
1
10
59.7302256487309
20
0.92627661420525
30
0
0
SPLINE
5
D2
100
AcDbEntity
8
1
62
256
6
ByLayer
370
18
48
1
60
0
100
AcDbSpline
70
4
71
3
72
12
73
8
40
0
40
0
40
0
40
0
40
0.502196986297786
40
0.502196986297786
40
0.753295479446679
40
0.753295479446679
40
1
40
1
40
1
40
1
41
1
10
7.70974136960515
20
2.02974898132351
30
0
41
1
10
7.23805235446798
20
2.13467841549431
30
0
41
1
10
6.77214876644757
20
2.22157225594188
30
0
41
1
10
6.07968063018021
20
2.3136752403542
30
0
41
1
10
5.84992944387275
20
2.33799613553339
30
0
41
1
10
5.39635559579185
20
2.37108854778847
30
0
41
1
10
5.17203333665097
20
2.38011511781971
30
0
41
1
10
4.95112688925227
20
2.38010286902983
30
0
0
SPLINE
5
D3
100
AcDbEntity
8
1
62
256
6
ByLayer
370
18
48
1
60
0
100
AcDbSpline
70
4
71
3
72
38
73
34
40
0
40
0
40
0
40
0
40
0.0049694682624606
40
0.0049694682624606
40
0.0716560231094209
40
0.0716560231094209
40
0.138342577956381
40
0.138342577956381
40
0.171685855379862
40
0.171685855379862
40
0.205029132803343
40
0.205029132803343
40
0.271715687650303
40
0.271715687650303
40
0.338402242497263
40
0.338402242497263
40
0.471775352191184
40
0.471775352191184
40
0.605148461885105
40
0.605148461885105
40
0.671835016732065
40
0.671835016732065
40
0.738521571579025
40
0.738521571579025
40
0.771864849002504
40
0.771864849002504
40
0.805208126425984
40
0.805208126425984
40
0.871894681272942
40
0.871894681272942
40
0.938581236119901
40
0.938581236119901
40
1
40
1
40
1
40
1
41
1
10
40.3882583455195
20
-2.19603217655794
30
0
41
1
10
40.3524667591622
20
-2.19935926358335
30
0
41
1
10
40.3166726203042
20
-2.20259132986547
30
0
41
1
10
39.8005137059418
20
-2.24781809163235
30
0
41
1
10
39.3213875243972
20
-2.27257957195442
30
0
41
1
10
38.3633637796949
20
-2.28585375502902
30
0
41
1
10
37.8844284586245
20
-2.27446780633514
30
0
41
1
10
37.1643877699963
20
-2.23106343890302
30
0
41
1
10
36.9239124237855
20
-2.21216955557665
30
0
41
1
10
36.4438153698571
20
-2.16582656500697
30
0
41
1
10
36.2040399539086
20
-2.13838238944538
30
0
41
1
10
35.4851152120689
20
-2.0435365888157
30
0
41
1
10
35.0063637173189
20
-1.96372664261344
30
0
41
1
10
34.0475274765417
20
-1.7750339855302
30
0
41
1
10
33.5665518818394
20
-1.66579174956973
30
0
41
1
10
32.1269759260116
20
-1.30173401384943
30
0
41
1
10
31.1710739529697
20
-1.01153870066986
30
0
41
1
10
29.2481712383459
20
-0.382777231666921
30
0
41
1
10
28.2920371686921
20
-0.0485043335001194
30
0
41
1
10
26.8522754713801
20
0.441409777394654
30
0
41
1
10
26.3711671606107
20
0.602842449284623
30
0
41
1
10
25.4120323365661
20
0.912661987971433
30
0
41
1
10
24.9331311106852
20
1.06147180964385
30
0
41
1
10
24.2139901508125
20
1.27049216529912
30
0
41
1
10
23.9741410809247
20
1.33780001730662
30
0
41
1
10
23.4938890986917
20
1.46703600802743
30
0
41
1
10
23.253320400851
20
1.52900843821254
30
0
41
1
10
22.5329444656482
20
1.70524337102725
30
0
41
1
10
22.0537498645045
20
1.81001340376446
30
0
41
1
10
21.095239727498
20
1.9895197947242
30
0
41
1
10
20.6158845607694
20
2.06428756431075
30
0
41
1
10
19.692650681465
20
2.17628542773571
30
0
41
1
10
19.2503204451902
20
2.21579646673496
30
0
41
1
10
18.8087235470105
20
2.24007186798571
30
0
0
SPLINE
5
D4
100
AcDbEntity
8
1
62
256
6
ByLayer
370
18
48
1
60
0
100
AcDbSpline
70
4
71
3
72
8
73
4
40
0
40
0
40
0
40
0
40
1
40
1
40
1
40
1
41
1
10
12.9313869856287
20
0.52718726730663
30
0
41
1
10
12.9312611629205
20
0.534661710189084
30
0
41
1
10
12.9311350947858
20
0.542340327527484
30
0
41
1
10
12.9310087799045
20
0.550224217563567
30
0
0
SPLINE
5
D5
100
AcDbEntity
8
1
62
256
6
ByLayer
370
18
48
1
60
0
100
AcDbSpline
70
4
71
3
72
8
73
4
40
0
40
0
40
0
40
0
40
1
40
1
40
1
40
1
41
1
10
59.8271228848426
20
0.654125049250695
30
0
41
1
10
59.5233774860056
20
0.673171797119068
30
0
41
1
10
59.2196325204394
20
0.692177161222276
30
0
41
1
10
58.9158881068384
20
0.711133908969259
30
0
0
SPLINE
5
D6
100
AcDbEntity
8
1
62
256
6
ByLayer
370
18
48
1
60
0
100
AcDbSpline
70
4
71
3
72
30
73
26
40
0
40
0
40
0
40
0
40
0.0098806368020651
40
0.0098806368020651
40
0.0197612736041302
40
0.0395225472082588
40
0.0790450944165158
40
0.0790450944165158
40
0.15809018883303
40
0.15809018883303
40
0.316180377666058
40
0.316180377666058
40
0.474270566499087
40
0.474270566499087
40
0.632360755332115
40
0.632360755332115
40
0.711405849748629
40
0.711405849748629
40
0.790450944165143
40
0.790450944165143
40
0.869496038581657
40
0.869496038581657
40
0.948541132998171
40
0.948541132998171
40
1
40
1
40
1
40
1
41
1
10
2.54690959903161
20
2.14792315812332
30
0
41
1
10
2.58306722276191
20
2.14577535876259
30
0
41
1
10
2.61980428446188
20
2.14348527382862
30
0
41
1
10
2.69266699341568
20
2.13872781756828
30
0
41
1
10
2.80192911427258
20
2.13127312010172
30
0
41
1
10
3.05666095316681
20
2.11167080759165
30
0
41
1
10
3.27467316085347
20
2.09115706332511
30
0
41
1
10
3.71035494190772
20
2.04537129159948
30
0
41
1
10
4.00035368087433
20
2.0084940762838
30
0
41
1
10
4.86969181914677
20
1.88078912354885
30
0
41
1
10
5.44840597552829
20
1.77308656654805
30
0
41
1
10
6.60723118940294
20
1.52180715719953
30
0
41
1
10
7.18783485671722
20
1.37615636773242
30
0
41
1
10
8.35470781916044
20
1.05578298250069
30
0
41
1
10
8.93645522256762
20
0.882198123986967
30
0
41
1
10
9.80851114265769
20
0.609889029067972
30
0
41
1
10
10.0991379597145
20
0.516860065858253
30
0
41
1
10
10.6811734835632
20
0.328857312900624
30
0
41
1
10
10.9724554885128
20
0.233576241257651
30
0
41
1
10
11.5559519205899
20
0.042019289306694
30
0
41
1
10
11.8474630864081
20
-0.0539161313570276
30
0
41
1
10
12.4284371399234
20
-0.244671625051069
30
0
41
1
10
12.7181870905741
20
-0.339784662227658
30
0
41
1
10
13.1956777127198
20
-0.494439245292909
30
0
41
1
10
13.3837284588062
20
-0.554705062937586
30
0
41
1
10
13.571620345794
20
-0.614102549559362
30
0
0
SPLINE
5
D7
100
AcDbEntity
8
1
62
256
6
ByLayer
370
18
48
1
60
0
100
AcDbSpline
70
4
71
3
72
26
73
22
40
0
40
0
40
0
40
0
40
0.0385915575286858
40
0.0385915575286858
40
0.111959179255662
40
0.111959179255662
40
0.258694422709618
40
0.258694422709618
40
0.332062044436594
40
0.332062044436594
40
0.405429666163571
40
0.405429666163571
40
0.552164909617523
40
0.552164909617523
40
0.698900153071476
40
0.698900153071476
40
0.845635396525429
40
0.845635396525429
40
0.992370639979381
40
0.992370639979381
40
1
40
1
40
1
40
1
41
1
10
43.0362412910704
20
2.16984529496784
30
0
41
1
10
43.1895653267901
20
2.16918278053339
30
0
41
1
10
43.3427739955164
20
2.16681438114028
30
0
41
1
10
43.7870096297876
20
2.15525430829717
30
0
41
1
10
44.0777983072662
20
2.14171128945887
30
0
41
1
10
44.9501455891323
20
2.08123484374965
30
0
41
1
10
45.531388490819
20
2.0172127070108
30
0
41
1
10
46.4059644069816
20
1.88624885416536
30
0
41
1
10
46.6984395669505
20
1.83680213571631
30
0
41
1
10
47.2812618143768
20
1.72842641659002
30
0
41
1
10
47.5716966379732
20
1.66931805706034
30
0
41
1
10
48.4406120688757
20
1.47819677373241
30
0
41
1
10
49.0167988114296
20
1.33347556805924
30
0
41
1
10
50.1665122769896
20
1.01790562462986
30
0
41
1
10
50.7399575321161
20
0.847417144178849
30
0
41
1
10
51.8877634639478
20
0.491202513883906
30
0
41
1
10
52.4619090134636
20
0.305375167910171
30
0
41
1
10
53.6147815668399
20
-0.0697800426653998
30
0
41
1
10
54.1932113464853
20
-0.259513462881074
30
0
41
1
10
54.8058560518545
20
-0.454764451195217
30
0
41
1
10
54.8361502576687
20
-0.464405180992202
30
0
41
1
10
54.8664566630992
20
-0.47403502976843
30
0
0
SPLINE
5
D8
100
AcDbEntity
8
1
62
256
6
ByLayer
370
18
48
1
60
0
100
AcDbSpline
70
4
71
3
72
8
73
4
40
0
40
0
40
0
40
0
40
1
40
1
40
1
40
1
41
1
10
58.0750843812646
20
-1.39909572126331
30
0
41
1
10
58.140274204449
20
-1.4153038942699
30
0
41
1
10
58.2054723760754
20
-1.43132826305316
30
0
41
1
10
58.2706811019524
20
-1.44716474892181
30
0
0
SPLINE
5
D9
100
AcDbEntity
8
1
62
256
6
ByLayer
370
18
48
1
60
0
100
AcDbSpline
70
4
71
3
72
68
73
64
40
0
40
0
40
0
40
0
40
0.0265243348847646
40
0.0265243348847646
40
0.0537566987921523
40
0.0537566987921523
40
0.08098906269954
40
0.08098906269954
40
0.135453790514317
40
0.135453790514317
40
0.162686154421705
40
0.162686154421705
40
0.189918518329092
40
0.189918518329092
40
0.21715088223648
40
0.21715088223648
40
0.244383246143868
40
0.244383246143868
40
0.271615610051256
40
0.271615610051256
40
0.298847973958643
40
0.298847973958643
40
0.353312701773419
40
0.353312701773419
40
0.380545065680806
40
0.380545065680806
40
0.407777429588194
40
0.407777429588194
40
0.435009793495582
40
0.435009793495582
40
0.462242157402969
40
0.462242157402969
40
0.516706885217745
40
0.516706885217745
40
0.543939249125133
40
0.543939249125133
40
0.57117161303252
40
0.57117161303252
40
0.598403976939908
40
0.598403976939908
40
0.625636340847296
40
0.625636340847296
40
0.680101068662071
40
0.680101068662071
40
0.734565796476847
40
0.734565796476847
40
0.761798160384234
40
0.761798160384234
40
0.789030524291622
40
0.789030524291622
40
0.81626288819901
40
0.81626288819901
40
0.843495252106398
40
0.843495252106398
40
0.897959979921173
40
0.897959979921173
40
0.925192343828561
40
0.925192343828561
40
0.952424707735948
40
0.952424707735948
40
0.979657071643336
40
0.979657071643336
40
1
40
1
40
1
40
1
41
1
10
25.9727072352929
20
2.25887530824593
30
0
41
1
10
26.1953971393037
20
2.24644303528836
30
0
41
1
10
26.418532216813
20
2.23020967649916
30
0
41
1
10
26.8699198223543
20
2.18975814311511
30
0
41
1
10
27.0981674192571
20
2.16528120800319
30
0
41
1
10
27.5546473372908
20
2.10873838171486
30
0
41
1
10
27.7828522519514
20
2.07668018177321
30
0
41
1
10
28.4673161820311
20
1.96962413327009
30
0
41
1
10
28.9232039802701
20
1.88339752323125
30
0
41
1
10
29.6091075608867
20
1.73563525311548
30
0
41
1
10
29.8381809047103
20
1.68316042726542
30
0
41
1
10
30.2953445149458
20
1.57206002740205
30
0
41
1
10
30.5236219962322
20
1.51354382483245
30
0
41
1
10
30.9801743393354
20
1.39190430350485
30
0
41
1
10
31.2083786887851
20
1.32866963365981
30
0
41
1
10
31.6646021787218
20
1.19739814234808
30
0
41
1
10
31.892544500964
20
1.12917130078318
30
0
41
1
10
32.3489238952945
20
0.989442008884595
30
0
41
1
10
32.5773419329517
20
0.917919402922621
30
0
41
1
10
33.0346103430222
20
0.771533572793402
30
0
41
1
10
33.2635868245874
20
0.69644870407916
30
0
41
1
10
33.9491600662573
20
0.467733206404574
30
0
41
1
10
34.4057171827647
20
0.312705379235865
30
0
41
1
10
35.0898690195075
20
0.0766026084018847
30
0
41
1
10
35.3178456814129
20
-0.0025817570260074
30
0
41
1
10
35.774348110196
20
-0.159889898830841
30
0
41
1
10
36.0027972946579
20
-0.238234152598096
30
0
41
1
10
36.460043441841
20
-0.394445187607687
30
0
41
1
10
36.6889082864026
20
-0.472614526155638
30
0
41
1
10
37.1460195527773
20
-0.626035497858169
30
0
41
1
10
37.3744279618839
20
-0.701367905935882
30
0
41
1
10
38.0592309770519
20
-0.92335120918915
30
0
41
1
10
38.5148469180295
20
-1.06696289847042
30
0
41
1
10
39.1997066165002
20
-1.26780833078982
30
0
41
1
10
39.4281525715221
20
-1.33257332231156
30
0
41
1
10
39.8853338563676
20
-1.45788464372862
30
0
41
1
10
40.1141925147937
20
-1.51838723934767
30
0
41
1
10
40.571343078136
20
-1.63279009489034
30
0
41
1
10
40.7997610910139
20
-1.68694812820925
30
0
41
1
10
41.2562240842264
20
-1.7894621918405
30
0
41
1
10
41.4841775438967
20
-1.83799757192853
30
0
41
1
10
42.1683544149584
20
-1.97283931759128
30
0
41
1
10
42.62496731058
20
-2.04843727690152
30
0
41
1
10
43.5391520538381
20
-2.17205417096079
30
0
41
1
10
43.9969413285258
20
-2.21808051291367
30
0
41
1
10
44.6813869848898
20
-2.26348417220476
30
0
41
1
10
44.9093019670541
20
-2.27462847167379
30
0
41
1
10
45.3654840406365
20
-2.28845425955282
30
0
41
1
10
45.5936944538926
20
-2.29124248676317
30
0
41
1
10
46.0502788012474
20
-2.2888918836606
30
0
41
1
10
46.2785576513201
20
-2.28375945807468
30
0
41
1
10
46.7358123021512
20
-2.26537025388123
30
0
41
1
10
46.9647874141557
20
-2.25213381958668
30
0
41
1
10
47.6504246026252
20
-2.20067143587139
30
0
41
1
10
48.1061813562174
20
-2.15022793949638
30
0
41
1
10
48.7905623137528
20
-2.05266868938622
30
0
41
1
10
49.0187556974739
20
-2.01652439355502
30
0
41
1
10
49.4752362984666
20
-1.93698569706029
30
0
41
1
10
49.7034835711442
20
-1.8935099270457
30
0
41
1
10
50.1608489562762
20
-1.80010937568861
30
0
41
1
10
50.389812310296
20
-1.75017205800762
30
0
41
1
10
50.7889624076007
20
-1.65755403568954
30
0
41
1
10
50.959431603822
20
-1.61612694969554
30
0
41
1
10
51.1298296573939
20
-1.5731383039608
30
0
0
SPLINE
5
DA
100
AcDbEntity
8
1
62
256
6
ByLayer
370
18
48
1
60
0
100
AcDbSpline
70
4
71
3
72
8
73
4
40
0
40
0
40
0
40
0
40
1
40
1
40
1
40
1
41
1
10
59.1843802044215
20
-2.26139351994087
30
0
41
1
10
59.3638923710552
20
-1.81609619624831
30
0
41
1
10
59.5459111042864
20
-1.37098406441015
30
0
41
1
10
59.7302256487309
20
-0.92627661420525
30
0
0
SPLINE
5
DB
100
AcDbEntity
8
1
62
256
6
ByLayer
370
18
48
1
60
0
100
AcDbSpline
70
4
71
3
72
10
73
6
40
0
40
0
40
0
40
0
40
0.5
40
0.5
40
1
40
1
40
1
40
1
41
1
10
59.0108325926977
20
-2.1568865043603
30
0
41
1
10
59.0147485253733
20
-2.15797979365763
30
0
41
1
10
59.0170671893066
20
-2.16326617677692
30
0
41
1
10
59.0149591309708
20
-2.1831817816917
30
0
41
1
10
59.0102479584159
20
-2.19747791832185
30
0
41
1
10
59.0044041402615
20
-2.20980050311084
30
0
0
SPLINE
5
DC
100
AcDbEntity
8
1
62
256
6
ByLayer
370
18
48
1
60
0
100
AcDbSpline
70
4
71
1
72
4
73
2
40
0
40
0
40
1
40
1
41
1
10
12.9400002089758
20
-2.05974498248474
30
0
41
1
10
12.9382841844243
20
-1.6992223071974
30
0
0
SPLINE
5
DD
100
AcDbEntity
8
1
62
256
6
ByLayer
370
18
48
1
60
0
100
AcDbSpline
70
4
71
3
72
12
73
8
40
0
40
0
40
0
40
0
40
0.25
40
0.25
40
0.5
40
0.5
40
1
40
1
40
1
40
1
41
1
10
59.7302256487317
20
0.926276614205591
30
0
41
1
10
59.648434008067
20
0.91000150268826
30
0
41
1
10
59.5657143360142
20
0.899754320869761
30
0
41
1
10
59.399694415394
20
0.882844772305219
30
0
41
1
10
59.3163300576036
20
0.876498718979008
30
0
41
1
10
59.0656654715982
20
0.861621744441152
30
0
41
1
10
58.8982108577017
20
0.857147930829541
30
0
41
1
10
58.730645772505
20
0.854269161678076
30
0
0
SPLINE
5
DE
100
AcDbEntity
8
1
62
256
6
ByLayer
370
18
48
1
60
0
100
AcDbSpline
70
4
71
3
72
20
73
16
40
0
40
0
40
0
40
0
40
0.125
40
0.125
40
0.25
40
0.25
40
0.499999999999998
40
0.499999999999998
40
0.562499999999999
40
0.562499999999999
40
0.624999999999999
40
0.624999999999999
40
0.75
40
0.75
40
1
40
1
40
1
40
1
41
1
10
12.9381932464404
20
-1.78955032142991
30
0
41
1
10
12.5047146349829
20
-1.68618825143116
30
0
41
1
10
12.0716913692393
20
-1.57152439323528
30
0
41
1
10
11.2046325700379
20
-1.32365340883217
30
0
41
1
10
10.7699136887646
20
-1.1901673027107
30
0
41
1
10
9.46699122202105
20
-0.769617222059964
30
0
41
1
10
8.60236909235286
20
-0.463102994584432
30
0
41
1
10
7.51675881385199
20
-0.0739889865317309
30
0
41
1
10
7.29919330440069
20
0.0042138007434005
30
0
41
1
10
6.86510167114275
20
0.159932187672041
30
0
41
1
10
6.64842710910585
20
0.237500696735282
30
0
41
1
10
5.99920589797537
20
0.468452801664739
30
0
41
1
10
5.56747558980223
20
0.620108318236817
30
0
41
1
10
4.27248893062566
20
1.05976251900594
30
0
41
1
10
3.40945514258246
20
1.33250032407449
30
0
41
1
10
2.54000381018116
20
1.56745467134138
30
0
0
SPLINE
5
DF
100
AcDbEntity
8
1
62
256
6
ByLayer
370
18
48
1
60
0
100
AcDbSpline
70
4
71
3
72
46
73
42
40
0
40
0
40
0
40
0
40
0.0503990205144045
40
0.0503990205144045
40
0.0809063299007599
40
0.0809063299007599
40
0.111413639287115
40
0.111413639287115
40
0.172428258059826
40
0.172428258059826
40
0.233442876832537
40
0.233442876832537
40
0.294457495605248
40
0.294457495605248
40
0.355472114377959
40
0.355472114377959
40
0.416486733150669
40
0.416486733150669
40
0.477501351923379
40
0.477501351923379
40
0.538515970696088
40
0.538515970696088
40
0.599530589468798
40
0.599530589468798
40
0.660545208241507
40
0.660545208241507
40
0.721559827014217
40
0.721559827014217
40
0.782574445786926
40
0.782574445786926
40
0.843589064559635
40
0.843589064559635
40
0.87409637394599
40
0.87409637394599
40
0.904603683332345
40
0.904603683332345
40
0.965618302105054
40
0.965618302105054
40
0.99612561149141
40
0.99612561149141
40
1
40
1
40
1
40
1
41
1
10
9.60554928837283
20
1.6022578513558
30
0
41
1
10
10.0490860393481
20
1.72058374106601
30
0
41
1
10
10.4929861555819
20
1.82678965260618
30
0
41
1
10
11.2051426014594
20
1.9797701307962
30
0
41
1
10
11.4742714648681
20
2.03218304699169
30
0
41
1
10
12.0136156886071
20
2.1268547533688
30
0
41
1
10
12.2842026147055
20
2.16933921570404
30
0
41
1
10
13.0920616237203
20
2.28090015542651
30
0
41
1
10
13.6287452917909
20
2.3316646466204
30
0
41
1
10
14.6963125825783
20
2.38887319982746
30
0
41
1
10
15.2299958138862
20
2.39410060602188
30
0
41
1
10
16.2949012057837
20
2.35828509132119
30
0
41
1
10
16.8289429454778
20
2.31800931831881
30
0
41
1
10
17.8980492540032
20
2.19075862927735
30
0
41
1
10
18.4361894972739
20
2.10639916277296
30
0
41
1
10
19.5156377733206
20
1.89256056868493
30
0
41
1
10
20.0549675788311
20
1.7685131224705
30
0
41
1
10
21.1307159274117
20
1.48257685410459
30
0
41
1
10
21.6700376234798
20
1.3266600081275
30
0
41
1
10
22.7494243400966
20
0.98363094519766
30
0
41
1
10
23.2890671761175
20
0.804754630523064
30
0
41
1
10
24.3648772578307
20
0.427037404194664
30
0
41
1
10
24.9041800723095
20
0.236094355925928
30
0
41
1
10
25.9833606246307
20
-0.156288872210325
30
0
41
1
10
26.5215152084893
20
-0.347737398789803
30
0
41
1
10
27.5904616288472
20
-0.726887497197396
30
0
41
1
10
28.1244570921431
20
-0.906627286777336
30
0
41
1
10
29.1892507044118
20
-1.25282437330094
30
0
41
1
10
29.7228885220465
20
-1.41196049456013
30
0
41
1
10
30.7904417533038
20
-1.70743068909465
30
0
41
1
10
31.3271141476936
20
-1.83757288304173
30
0
41
1
10
32.135066396617
20
-2.00879371106888
30
0
41
1
10
32.4053176542664
20
-2.06062235616025
30
0
41
1
10
32.9433265758111
20
-2.15323181847259
30
0
41
1
10
33.2115576534294
20
-2.19434708719001
30
0
41
1
10
34.0135971086151
20
-2.30216589818983
30
0
41
1
10
34.5475099505243
20
-2.35075932308041
30
0
41
1
10
35.3456674093908
20
-2.39035841627322
30
0
41
1
10
35.6118639647566
20
-2.39764270895606
30
0
41
1
10
35.9121305663767
20
-2.39938224789344
30
0
41
1
10
35.9459683581678
20
-2.39948620281899
30
0
41
1
10
35.9798073762872
20
-2.39949758362045
30
0
0
SPLINE
5
E0
100
AcDbEntity
8
1
62
256
6
ByLayer
370
18
48
1
60
0
100
AcDbSpline
70
4
71
3
72
28
73
24
40
0
40
0
40
0
40
0
40
0.0009989502674456
40
0.0009989502674456
40
0.100899055240701
40
0.100899055240701
40
0.200799160213956
40
0.200799160213956
40
0.300699265187212
40
0.300699265187212
40
0.400599370160467
40
0.400599370160467
40
0.500499475133723
40
0.500499475133723
40
0.600399580106978
40
0.600399580106978
40
0.700299685080233
40
0.700299685080233
40
0.800199790053489
40
0.800199790053489
40
0.900099895026745
40
0.900099895026745
40
1
40
1
40
1
40
1
41
1
10
51.1082038874248
20
1.57152737923479
30
0
41
1
10
51.1108783253455
20
1.57226877992099
30
0
41
1
10
51.113552787089
20
1.57300989209128
30
0
41
1
10
51.3836894097069
20
1.64783687467386
30
0
41
1
10
51.651786561255
20
1.71809392728579
30
0
41
1
10
52.1900908843107
20
1.84914387413338
30
0
41
1
10
52.4604395878232
20
1.91054898717636
30
0
41
1
10
52.9989578280204
20
2.02449420414362
30
0
41
1
10
53.2678913027963
20
2.07635731095615
30
0
41
1
10
53.8060423018506
20
2.16886327347552
30
0
41
1
10
54.0750063879091
20
2.2099075933952
30
0
41
1
10
54.612338786088
20
2.28169616507085
30
0
41
1
10
54.8811525854789
20
2.31192356758481
30
0
41
1
10
55.4199613421292
20
2.36055345182768
30
0
41
1
10
55.6900354182658
20
2.37921232571719
30
0
41
1
10
56.2288013419824
20
2.40485061667459
30
0
41
1
10
56.4977419642301
20
2.41160186059557
30
0
41
1
10
57.0356076750702
20
2.41326397302419
30
0
41
1
10
57.3042927318491
20
2.40824777065282
30
0
41
1
10
57.84079237401
20
2.38614824884138
30
0
41
1
10
58.1090683127563
20
2.36914468411035
30
0
41
1
10
58.646509092364
20
2.32396679979709
30
0
41
1
10
58.9154305926185
20
2.29570105038638
30
0
41
1
10
59.1843802044321
20
2.26139351993939
30
0
0
SPLINE
5
E1
100
AcDbEntity
8
1
62
256
6
ByLayer
370
18
48
1
60
0
100
AcDbSpline
70
4
71
3
72
34
73
30
40
0
40
0
40
0
40
0
40
0.0374363591338988
40
0.0374363591338988
40
0.0748727182677975
40
0.0748727182677975
40
0.149745436535595
40
0.149745436535595
40
0.299490873071192
40
0.299490873071192
40
0.374363591338991
40
0.374363591338991
40
0.449236309606791
40
0.449236309606791
40
0.52410902787459
40
0.52410902787459
40
0.59898174614239
40
0.59898174614239
40
0.673854464410189
40
0.673854464410189
40
0.748727182677988
40
0.748727182677988
40
0.823599900945788
40
0.823599900945788
40
0.898472619213587
40
0.898472619213587
40
0.973345337481387
40
0.973345337481387
40
1
40
1
40
1
40
1
41
1
10
58.9671373390115
20
-2.2880122350501
30
0
41
1
10
58.7270769884692
20
-2.28238117403404
30
0
41
1
10
58.4870662432272
20
-2.27228624367646
30
0
41
1
10
58.0068975136427
20
-2.24333035350972
30
0
41
1
10
57.7665587054272
20
-2.22444618002103
30
0
41
1
10
57.0473735853389
20
-2.15511226155263
30
0
41
1
10
56.5697679682423
20
-2.09196555302682
30
0
41
1
10
55.1392098815512
20
-1.85496741861761
30
0
41
1
10
54.1882928085935
20
-1.63425559038564
30
0
41
1
10
52.7522121498505
20
-1.23634403761264
30
0
41
1
10
52.2712428032141
20
-1.09226816734912
30
0
41
1
10
51.3119694715707
20
-0.790383968398231
30
0
41
1
10
50.8327917953808
20
-0.632252782842528
30
0
41
1
10
49.8729411651118
20
-0.308031031858746
30
0
41
1
10
49.3924075665898
20
-0.142125598698158
30
0
41
1
10
48.4333030958877
20
0.188639898331076
30
0
41
1
10
47.9539835144581
20
0.353671098244007
30
0
41
1
10
46.9934553150891
20
0.676129743178478
30
0
41
1
10
46.5135783101017
20
0.832987200060529
30
0
41
1
10
45.5555693612851
20
1.13077743688987
30
0
41
1
10
45.0769654473772
20
1.2719972827976
30
0
41
1
10
44.1181039535111
20
1.53239442197324
30
0
41
1
10
43.6371159517947
20
1.65179509743385
30
0
41
1
10
42.6780160531078
20
1.86233385499108
30
0
41
1
10
42.1993030823784
20
1.95374669930138
30
0
41
1
10
41.2411744548383
20
2.10434789025123
30
0
41
1
10
40.7612385203667
20
2.1636376752985
30
0
41
1
10
40.1098672577599
20
2.22071198341541
30
0
41
1
10
39.9390150763698
20
2.23349991386306
30
0
41
1
10
39.7682689504782
20
2.24405577626737
30
0
0
SPLINE
5
E2
100
AcDbEntity
8
1
62
256
6
ByLayer
370
18
48
1
60
0
100
AcDbSpline
70
4
71
3
72
14
73
10
40
0
40
0
40
0
40
0
40
0.0193658811510414
40
0.0193658811510414
40
0.264524410863281
40
0.264524410863281
40
0.509682940575521
40
0.509682940575521
40
1
40
1
40
1
40
1
41
1
10
18.8087235476485
20
-2.24007186795063
30
0
41
1
10
18.7708484746681
20
-2.24215393102295
30
0
41
1
10
18.7329787962868
20
-2.2441239173356
30
0
41
1
10
18.2157828197113
20
-2.26949261121584
30
0
41
1
10
17.7368259506742
20
-2.27512058119882
30
0
41
1
10
16.7772699161136
20
-2.25109097202
30
0
41
1
10
16.2959229093387
20
-2.22127239827586
30
0
41
1
10
14.8564119495106
20
-2.08049326211304
30
0
41
1
10
13.9003988507355
20
-1.91852166327095
30
0
41
1
10
12.9382841844243
20
-1.6992223071974
30
0
0
SPLINE
5
E3
100
AcDbEntity
8
1
62
256
6
ByLayer
370
18
48
1
60
0
100
AcDbSpline
70
4
71
3
72
8
73
4
40
0
40
0
40
0
40
0
40
1
40
1
40
1
40
1
41
1
10
59.1843802044206
20
2.26139351994209
30
0
41
1
10
59.1433016576298
20
2.32204235734915
30
0
41
1
10
59.099617585304
20
2.36550239852593
30
0
41
1
10
59.0542078940133
20
2.38977657568481
30
0
0
SPLINE
5
E4
100
AcDbEntity
8
1
62
256
6
ByLayer
370
18
48
1
60
0
100
AcDbSpline
70
4
71
3
72
36
73
32
40
0
40
0
40
0
40
0
40
0.0326775083424721
40
0.0326775083424721
40
0.105293939313373
40
0.105293939313373
40
0.177910370284273
40
0.177910370284273
40
0.250526801255174
40
0.250526801255174
40
0.323143232226074
40
0.323143232226074
40
0.395759663196975
40
0.395759663196975
40
0.468376094167876
40
0.468376094167876
40
0.540992525138776
40
0.540992525138776
40
0.613608956109676
40
0.613608956109676
40
0.686225387080577
40
0.686225387080577
40
0.758841818051477
40
0.758841818051477
40
0.831458249022378
40
0.831458249022378
40
0.904074679993278
40
0.904074679993278
40
0.976691110964178
40
0.976691110964178
40
1
40
1
40
1
40
1
41
1
10
22.1666144117945
20
2.18111155491755
30
0
41
1
10
22.2967763684793
20
2.18059947755637
30
0
41
1
10
22.4269679925743
20
2.17881783694938
30
0
41
1
10
22.8466172822865
20
2.16917100336394
30
0
41
1
10
23.136199298871
20
2.1568105812604
30
0
41
1
10
23.7163993798582
20
2.11917039543141
30
0
41
1
10
24.0070398754645
20
2.09385115606628
30
0
41
1
10
24.5896562768035
20
2.03154922751136
30
0
41
1
10
24.8819175476714
20
1.9946742622796
30
0
41
1
10
25.4652560242244
20
1.90924424598367
30
0
41
1
10
25.7566460199071
20
1.86067126251839
30
0
41
1
10
26.3392838182211
20
1.75348995552156
30
0
41
1
10
26.6305063523083
20
1.69496858081348
30
0
41
1
10
27.213392791738
20
1.56801377208325
30
0
41
1
10
27.5050985887319
20
1.49959746168523
30
0
41
1
10
28.0891792786651
20
1.35460009412205
30
0
41
1
10
28.3807875486308
20
1.27821821663196
30
0
41
1
10
28.9636945808713
20
1.11843436992342
30
0
41
1
10
29.2549944815299
20
1.03502950566221
30
0
41
1
10
29.8376895348157
20
0.862903480874138
30
0
41
1
10
30.1291301397444
20
0.774260735094799
30
0
41
1
10
30.7125981787856
20
0.592524227880318
30
0
41
1
10
31.004797212238
20
0.499443986220314
30
0
41
1
10
31.5884133158412
20
0.31146091357175
30
0
41
1
10
31.8800067584727
20
0.216356479643736
30
0
41
1
10
32.4633199345984
20
0.0255196710628525
30
0
41
1
10
32.7549964745764
20
-0.0703370546386566
30
0
41
1
10
33.3389634399472
20
-0.261080468387462
30
0
41
1
10
33.6308478696798
20
-0.355911508797618
30
0
41
1
10
34.0149140111301
20
-0.478961519697606
30
0
41
1
10
34.1081610756711
20
-0.508698760162389
30
0
41
1
10
34.2013384916703
20
-0.538251879836963
30
0
0
SPLINE
5
E5
100
AcDbEntity
8
1
62
256
6
ByLayer
370
18
48
1
60
0
100
AcDbSpline
70
4
71
3
72
18
73
14
40
0
40
0
40
0
40
0
40
0.21668477616923
40
0.21668477616923
40
0.433369552338459
40
0.433369552338459
40
0.541711940423074
40
0.541711940423074
40
0.650054328507689
40
0.650054328507689
40
0.866739104676918
40
0.866739104676918
40
1
40
1
40
1
40
1
41
1
10
7.70974136960518
20
-1.03895844300843
30
0
41
1
10
8.24952800571234
20
-1.21552795237452
30
0
41
1
10
8.78859610408412
20
-1.37636899787969
30
0
41
1
10
9.86207549906985
20
-1.67535920336186
30
0
41
1
10
10.3995451759233
20
-1.80671731339837
30
0
41
1
10
11.2051426014593
20
-1.97977013079617
30
0
41
1
10
11.474271464868
20
-2.03218304699169
30
0
41
1
10
12.013615688607
20
-2.12685475336878
30
0
41
1
10
12.2842026147054
20
-2.16933921570401
30
0
41
1
10
13.0920616237202
20
-2.28090015542651
30
0
41
1
10
13.6287452917908
20
-2.33166464662037
30
0
41
1
10
14.4908052829045
20
-2.37786052138622
30
0
41
1
10
14.8190436496447
20
-2.38661043485362
30
0
41
1
10
15.1469811631647
20
-2.3865748863607
30
0
0
SPLINE
5
E6
100
AcDbEntity
8
1
62
256
6
ByLayer
370
18
48
1
60
0
100
AcDbSpline
70
4
71
3
72
70
73
66
40
0
40
0
40
0
40
0
40
0.0589198737567645
40
0.0589198737567645
40
0.0892284134700499
40
0.0892284134700499
40
0.119536953183335
40
0.119536953183335
40
0.180154032609905
40
0.180154032609905
40
0.21046257232319
40
0.21046257232319
40
0.240771112036476
40
0.240771112036476
40
0.271079651749761
40
0.271079651749761
40
0.301388191463047
40
0.301388191463047
40
0.331696731176332
40
0.331696731176332
40
0.362005270889618
40
0.362005270889618
40
0.392313810602903
40
0.392313810602903
40
0.422622350316189
40
0.422622350316189
40
0.452930890029474
40
0.452930890029474
40
0.48323942974276
40
0.48323942974276
40
0.513547969456045
40
0.513547969456045
40
0.54385650916933
40
0.54385650916933
40
0.574165048882616
40
0.574165048882616
40
0.604473588595901
40
0.604473588595901
40
0.634782128309187
40
0.634782128309187
40
0.665090668022472
40
0.665090668022472
40
0.695399207735758
40
0.695399207735758
40
0.725707747449043
40
0.725707747449043
40
0.756016287162329
40
0.756016287162329
40
0.786324826875614
40
0.786324826875614
40
0.8166333665889
40
0.8166333665889
40
0.846941906302185
40
0.846941906302185
40
0.877250446015471
40
0.877250446015471
40
0.907558985728756
40
0.907558985728756
40
0.937867525442042
40
0.937867525442042
40
0.968176065155327
40
0.968176065155327
40
0.998484604868613
40
0.998484604868613
40
1
40
1
40
1
40
1
41
1
10
30.3015072465183
20
1.57206346961613
30
0
41
1
10
30.8204956610956
20
1.71470580142591
30
0
41
1
10
31.3421952783006
20
1.84076886853907
30
0
41
1
10
32.1350663966167
20
2.00879371106882
30
0
41
1
10
32.4053176542661
20
2.0606223561602
30
0
41
1
10
32.9433265758107
20
2.15323181847253
30
0
41
1
10
33.2115576534291
20
2.19434708718998
30
0
41
1
10
34.0135971086148
20
2.30216589818977
30
0
41
1
10
34.547509950524
20
2.35075932308038
30
0
41
1
10
35.3456674093904
20
2.39035841627322
30
0
41
1
10
35.6118639647562
20
2.39764270895606
30
0
41
1
10
36.1447245664637
20
2.40072973814901
30
0
41
1
10
36.4112473129366
20
2.39656482034729
30
0
41
1
10
36.9442192448952
20
2.37632531727846
30
0
41
1
10
37.2112517331036
20
2.36039810756839
30
0
41
1
10
37.746679756822
20
2.31734582372732
30
0
41
1
10
38.0149186257933
20
2.29015144518266
30
0
41
1
10
38.5522280647653
20
2.22362375247116
30
0
41
1
10
38.8224431168003
20
2.18473462417219
30
0
41
1
10
39.3615603234365
20
2.09706863959463
30
0
41
1
10
39.6302824107113
20
2.04813419284275
30
0
41
1
10
40.165765582352
20
1.93946574258868
30
0
41
1
10
40.4330835134574
20
1.88066201719272
30
0
41
1
10
40.9672223554573
20
1.75507840175149
30
0
41
1
10
41.2338872299975
20
1.68801788196635
30
0
41
1
10
41.7660952406553
20
1.54453373461013
30
0
41
1
10
42.0321938466523
20
1.46927755990146
30
0
41
1
10
42.5647940744746
20
1.31290407320935
30
0
41
1
10
42.8311223867605
20
1.23140422732533
30
0
41
1
10
43.3635199988118
20
1.06075620973002
30
0
41
1
10
43.6301130299686
20
0.972917648267696
30
0
41
1
10
44.1646055457532
20
0.793761027491428
30
0
41
1
10
44.4323131610061
20
0.701942991350393
30
0
41
1
10
44.968372762687
20
0.512695436704888
30
0
41
1
10
45.237209363991
20
0.416684036754589
30
0
41
1
10
45.7770412938961
20
0.223698088520564
30
0
41
1
10
46.046629975779
20
0.12656326995463
30
0
41
1
10
46.5831260579067
20
-0.0693634260637737
30
0
41
1
10
46.8507830030327
20
-0.166732724591498
30
0
41
1
10
47.3855279108466
20
-0.35862795998446
30
0
41
1
10
47.652425300587
20
-0.453741005954129
30
0
41
1
10
48.1849196460368
20
-0.643211080510582
30
0
41
1
10
48.4509964941235
20
-0.736185013544713
30
0
41
1
10
48.9834853176603
20
-0.916890755623797
30
0
41
1
10
49.2496866704786
20
-1.00521410031843
30
0
41
1
10
49.7816573993295
20
-1.17857545968127
30
0
41
1
10
50.0478693876574
20
-1.26244851269442
30
0
41
1
10
50.5815397151962
20
-1.42269566579944
30
0
41
1
10
50.8487651352961
20
-1.49966455736117
30
0
41
1
10
51.3836894097064
20
-1.64783687467372
30
0
41
1
10
51.6517865612544
20
-1.71809392728565
30
0
41
1
10
52.1900908843102
20
-1.84914387413323
30
0
41
1
10
52.4604395878228
20
-1.91054898717621
30
0
41
1
10
52.9989578280198
20
-2.02449420414354
30
0
41
1
10
53.2678913027958
20
-2.07635731095604
30
0
41
1
10
53.8060423018501
20
-2.16886327347544
30
0
41
1
10
54.0750063879085
20
-2.20990759339512
30
0
41
1
10
54.6123387860875
20
-2.2816961650708
30
0
41
1
10
54.8811525854784
20
-2.31192356758476
30
0
41
1
10
55.4199613421286
20
-2.36055345182766
30
0
41
1
10
55.6900354182651
20
-2.37921232571716
30
0
41
1
10
56.2288013419817
20
-2.40485061667456
30
0
41
1
10
56.4977419642296
20
-2.41160186059557
30
0
41
1
10
56.7801211797721
20
-2.41247446874718
30
0
41
1
10
56.7935669204241
20
-2.41250140315253
30
0
41
1
10
56.8070120181774
20
-2.41251369673995
30
0
0
SPLINE
5
E7
100
AcDbEntity
8
1
62
256
6
ByLayer
370
18
48
1
60
0
100
AcDbSpline
70
4
71
1
72
4
73
2
40
0
40
0
40
1
40
1
41
1
10
12.9316037389346
20
0.150262678592611
30
0
41
1
10
12.9313869856046
20
0.527187272145767
30
0
0
SPLINE
5
E8
100
AcDbEntity
8
1
62
256
6
ByLayer
370
18
48
1
60
0
100
AcDbSpline
70
4
71
3
72
8
73
4
40
0
40
0
40
0
40
0
40
1
40
1
40
1
40
1
41
1
10
58.2706811019356
20
-1.44716474891203
30
0
41
1
10
58.3756428673646
20
-1.50826453696698
30
0
41
1
10
58.4816537282371
20
-1.56479070476766
30
0
41
1
10
58.5885936104348
20
-1.61726672558703
30
0
0
SPLINE
5
E9
100
AcDbEntity
8
1
62
256
6
ByLayer
370
18
48
1
60
0
100
AcDbSpline
70
4
71
3
72
28
73
24
40
0
40
0
40
0
40
0
40
0.137446817319661
40
0.137446817319661
40
0.206170225979492
40
0.206170225979492
40
0.274893634639322
40
0.274893634639322
40
0.412340451958983
40
0.412340451958983
40
0.549787269278645
40
0.549787269278645
40
0.618510677938477
40
0.618510677938477
40
0.687234086598309
40
0.687234086598309
40
0.755957495258142
40
0.755957495258142
40
0.824680903917974
40
0.824680903917974
40
0.962127721237639
40
0.962127721237639
40
1
40
1
40
1
40
1
41
1
10
56.7718651406038
20
-0.215859951758688
30
0
41
1
10
56.3163826563181
20
-0.0596184620471547
30
0
41
1
10
55.8625014461344
20
0.0990547184559603
30
0
41
1
10
55.1812675985031
20
0.332444690510357
30
0
41
1
10
54.9541756495791
20
0.409643389707611
30
0
41
1
10
54.5000126050126
20
0.562974794994204
30
0
41
1
10
54.2729721306405
20
0.63918793148207
30
0
41
1
10
53.5907780428642
20
0.863079403869307
30
0
41
1
10
53.1349576760951
20
1.00716815055608
30
0
41
1
10
52.2203016725443
20
1.28199695139961
30
0
41
1
10
51.7626199989034
20
1.41012481742453
30
0
41
1
10
51.0775362706545
20
1.58719128804358
30
0
41
1
10
50.8492392045591
20
1.64354532151043
30
0
41
1
10
50.3921124983274
20
1.74966029798125
30
0
41
1
10
50.1633722795323
20
1.79957237259879
30
0
41
1
10
49.705579085187
20
1.89310347961671
30
0
41
1
10
49.4770707197517
20
1.93664960147848
30
0
41
1
10
49.0200108005777
20
2.01632204925676
30
0
41
1
10
48.7914917844916
20
2.05253015911981
30
0
41
1
10
48.1060257936061
20
2.15026215905772
30
0
41
1
10
47.649090927213
20
2.20081788429005
30
0
41
1
10
47.0651900493865
20
2.24458492363758
30
0
41
1
10
46.939175504246
20
2.25282391682148
30
0
41
1
10
46.8132441457565
20
2.25984809865952
30
0
0
SPLINE
5
EA
100
AcDbEntity
8
1
62
256
6
ByLayer
370
18
48
1
60
0
100
AcDbSpline
70
4
71
3
72
48
73
44
40
0
40
0
40
0
40
0
40
0.0140030641804313
40
0.0140030641804313
40
0.0534429416132155
40
0.0534429416132155
40
0.132322696478783
40
0.132322696478783
40
0.171762573911566
40
0.171762573911566
40
0.211202451344349
40
0.211202451344349
40
0.290082206209914
40
0.290082206209914
40
0.368961961075479
40
0.368961961075479
40
0.408401838508262
40
0.408401838508262
40
0.447841715941044
40
0.447841715941044
40
0.487281593373827
40
0.487281593373827
40
0.526721470806609
40
0.526721470806609
40
0.566161348239392
40
0.566161348239392
40
0.605601225672174
40
0.605601225672174
40
0.645041103104957
40
0.645041103104957
40
0.684480980537739
40
0.684480980537739
40
0.723920857970522
40
0.723920857970522
40
0.763360735403304
40
0.763360735403304
40
0.842240490268869
40
0.842240490268869
40
0.921120245134434
40
0.921120245134434
40
0.960560122567217
40
0.960560122567217
40
1
40
1
40
1
40
1
41
1
10
30.3048207132222
20
-1.56868756033933
30
0
41
1
10
30.2235980999165
20
-1.58914619219377
30
0
41
1
10
30.1423775805236
20
-1.60925204171068
30
0
41
1
10
29.8324910312964
20
-1.68449056706433
30
0
41
1
10
29.6039420851076
20
-1.73679246839407
30
0
41
1
10
28.9187476994086
20
-1.88426721034679
30
0
41
1
10
28.4629536352084
20
-1.97040515979509
30
0
41
1
10
27.778058350568
20
-2.07737988823962
30
0
41
1
10
27.5496162470164
20
-2.10942065583529
30
0
41
1
10
27.0924622252819
20
-2.16592740180712
30
0
41
1
10
26.8635692424802
20
-2.19040059013577
30
0
41
1
10
26.1773572515654
20
-2.25167300281529
30
0
41
1
10
25.7207698494663
20
-2.27674073822226
30
0
41
1
10
24.808376075128
20
-2.29426820199629
30
0
41
1
10
24.3517228106547
20
-2.2869606063947
30
0
41
1
10
23.6659649869895
20
-2.25104700288028
30
0
41
1
10
23.4369804667648
20
-2.23495272793232
30
0
41
1
10
22.9794641049859
20
-2.19534754527126
30
0
41
1
10
22.7509062335175
20
-2.17175875313248
30
0
41
1
10
22.29426577839
20
-2.11676964049752
30
0
41
1
10
22.0662258330267
20
-2.08526369979984
30
0
41
1
10
21.6098675359777
20
-2.01541029304744
30
0
41
1
10
21.381595050303
20
-1.97700747951353
30
0
41
1
10
20.9248943765196
20
-1.89313356642927
30
0
41
1
10
20.6965169349402
20
-1.84754369316647
30
0
41
1
10
20.2393437810462
20
-1.74956041608044
30
0
41
1
10
20.0102071062828
20
-1.69756949462453
30
0
41
1
10
19.5527889103519
20
-1.58794029099047
30
0
41
1
10
19.3243673028789
20
-1.53020780814796
30
0
41
1
10
18.8680064903535
20
-1.40895542615996
30
0
41
1
10
18.6400367136413
20
-1.34547844485098
30
0
41
1
10
18.1837924609543
20
-1.21477924353215
30
0
41
1
10
17.9556111689832
20
-1.14733870956241
30
0
41
1
10
17.4991941271667
20
-1.00811777323253
30
0
41
1
10
17.2710091696831
20
-0.936164617165048
30
0
41
1
10
16.5853481705454
20
-0.716737075458354
30
0
41
1
10
16.1269355675316
20
-0.565239246426785
30
0
41
1
10
15.2143109640609
20
-0.254260259833302
30
0
41
1
10
14.7581607126378
20
-0.0976646473424694
30
0
41
1
10
14.0741012784742
20
0.138758014377942
30
0
41
1
10
13.8460777643637
20
0.217730479441968
30
0
41
1
10
13.3892160361501
20
0.373620084677839
30
0
41
1
10
13.1604679816832
20
0.450804107687418
30
0
41
1
10
12.9313869856066
20
0.52718726861994
30
0
0
SPLINE
5
EB
100
AcDbEntity
8
1
62
256
6
ByLayer
370
18
48
1
60
0
100
AcDbSpline
70
4
71
3
72
44
73
40
40
0
40
0
40
0
40
0
40
0.0021055869246919
40
0.0021055869246919
40
0.0614175789881666
40
0.0614175789881666
40
0.120729571051641
40
0.120729571051641
40
0.180041563115116
40
0.180041563115116
40
0.239353555178591
40
0.239353555178591
40
0.298665547242066
40
0.298665547242066
40
0.35797753930554
40
0.35797753930554
40
0.417289531369015
40
0.417289531369015
40
0.47660152343249
40
0.47660152343249
40
0.535913515495964
40
0.535913515495964
40
0.595225507559439
40
0.595225507559439
40
0.624881503591177
40
0.624881503591177
40
0.654537499622915
40
0.654537499622915
40
0.71384949168639
40
0.71384949168639
40
0.773161483749865
40
0.773161483749865
40
0.832473475813339
40
0.832473475813339
40
0.891785467876814
40
0.891785467876814
40
0.951097459940289
40
0.951097459940289
40
1
40
1
40
1
40
1
41
1
10
23.7369039633538
20
2.39184353353804
30
0
41
1
10
23.7529776198286
20
2.39186049882588
30
0
41
1
10
23.7690517169868
20
2.39185625367097
30
0
41
1
10
24.2379291383383
20
2.3911137453708
30
0
41
1
10
24.6917502890248
20
2.37351304557524
30
0
41
1
10
25.5976051090634
20
2.3049657969101
30
0
41
1
10
26.0495383874807
20
2.25418724311672
30
0
41
1
10
26.9537661533812
20
2.12205044605327
30
0
41
1
10
27.405955559125
20
2.04063087363124
30
0
41
1
10
28.3121947138134
20
1.84881013699805
30
0
41
1
10
28.7650981441197
20
1.73897502242113
30
0
41
1
10
29.6694976751405
20
1.49776637959687
30
0
41
1
10
30.1215244977951
20
1.36628391135702
30
0
41
1
10
31.026552922952
20
1.08438893453322
30
0
41
1
10
31.4804126395119
20
0.934030084067956
30
0
41
1
10
32.385634152679
20
0.623864298905289
30
0
41
1
10
32.8376100706002
20
0.463936688938247
30
0
41
1
10
33.7416342097605
20
0.138005582811218
30
0
41
1
10
34.1942026173571
20
-0.0279985929931001
30
0
41
1
10
35.1006002854847
20
-0.356637299433601
30
0
41
1
10
35.5527975876601
20
-0.518623016153697
30
0
41
1
10
36.4568390648045
20
-0.833531552380236
30
0
41
1
10
36.9085973197768
20
-0.986651455274597
30
0
41
1
10
37.5879237656931
20
-1.20438874339572
30
0
41
1
10
37.8148372381057
20
-1.27505609704826
30
0
41
1
10
38.2679200893162
20
-1.41138725074555
30
0
41
1
10
38.4942060692867
20
-1.47709465601949
30
0
41
1
10
39.1725448483758
20
-1.66630655650027
30
0
41
1
10
39.6239478876342
20
-1.78209452605247
30
0
41
1
10
40.5281087916941
20
-1.98689278601486
30
0
41
1
10
40.9817865899502
20
-2.07601302125605
30
0
41
1
10
41.8872862294255
20
-2.22348764689227
30
0
41
1
10
42.3389490955439
20
-2.28209632366787
30
0
41
1
10
43.2426994551654
20
-2.3665118419687
30
0
41
1
10
43.6948635709397
20
-2.3923287429557
30
0
41
1
10
44.6016556287146
20
-2.41022004313072
30
0
41
1
10
45.0538826494367
20
-2.40219739193711
30
0
41
1
10
45.8780148991912
20
-2.3567772276767
30
0
41
1
10
46.2503462912841
20
-2.32485177971259
30
0
41
1
10
46.6232361640373
20
-2.28209070378787
30
0
0
SPLINE
5
EC
100
AcDbEntity
8
1
62
256
6
ByLayer
370
18
48
1
60
0
100
AcDbSpline
70
4
71
3
72
16
73
12
40
0
40
0
40
0
40
0
40
0.245610338721097
40
0.245610338721097
40
0.491220677442193
40
0.491220677442193
40
0.73683101616329
40
0.73683101616329
40
0.982441354884386
40
0.982441354884386
40
1
40
1
40
1
40
1
41
1
10
12.9400002089758
20
-2.05974498248253
30
0
41
1
10
13.4223989110862
20
-2.14695084829734
30
0
41
1
10
13.9044392253893
20
-2.21822489477432
30
0
41
1
10
14.8679801513158
20
-2.32464272379917
30
0
41
1
10
15.347648690142
20
-2.35966657571595
30
0
41
1
10
16.3049427948902
20
-2.39275235372628
30
0
41
1
10
16.7824821927425
20
-2.39075080846374
30
0
41
1
10
17.7383473321524
20
-2.3497333272004
30
0
41
1
10
18.2166994642211
20
-2.31083341328775
30
0
41
1
10
18.7307547196325
20
-2.24985301582106
30
0
41
1
10
18.7650647268942
20
-2.24568981343143
30
0
41
1
10
18.7993856973879
20
-2.24143294809446
30
0
0
SPLINE
5
ED
100
AcDbEntity
8
1
62
256
6
ByLayer
370
18
48
1
60
0
100
AcDbSpline
70
4
71
3
72
44
73
40
40
0
40
0
40
0
40
0
40
0.0074113923955728
40
0.0074113923955728
40
0.0404976793157201
40
0.0404976793157201
40
0.0735839662358675
40
0.0735839662358675
40
0.139756540076164
40
0.139756540076164
40
0.20592911391646
40
0.20592911391646
40
0.272101687756756
40
0.272101687756756
40
0.305187974676904
40
0.305187974676904
40
0.338274261597052
40
0.338274261597052
40
0.404446835437347
40
0.404446835437347
40
0.470619409277642
40
0.470619409277642
40
0.536791983117936
40
0.536791983117936
40
0.602964556958231
40
0.602964556958231
40
0.636050843878379
40
0.636050843878379
40
0.669137130798527
40
0.669137130798527
40
0.735309704638821
40
0.735309704638821
40
0.801482278479116
40
0.801482278479116
40
0.867654852319411
40
0.867654852319411
40
0.933827426159705
40
0.933827426159705
40
1
40
1
40
1
40
1
41
1
10
37.2873281491034
20
2.4003106917813
30
0
41
1
10
37.3411713096433
20
2.40033920513747
30
0
41
1
10
37.3950276236296
20
2.40012942787456
30
0
41
1
10
37.6893966082069
20
2.39767655418939
30
0
41
1
10
37.9304200538009
20
2.39091860028071
30
0
41
1
10
38.4116597046629
20
2.3680497616468
30
0
41
1
10
38.6519963330082
20
2.35195240529813
30
0
41
1
10
39.3724485643655
20
2.28985053647207
30
0
41
1
10
39.851987590872
20
2.2298951386739
30
0
41
1
10
40.8129292084019
20
2.0759936549689
30
0
41
1
10
41.2951973577209
20
1.98197655819118
30
0
41
1
10
42.2564601273563
20
1.76431207336316
30
0
41
1
10
42.735977966143
20
1.64041694421758
30
0
41
1
10
43.4561396281108
20
1.43701576502232
30
0
41
1
10
43.6963314022938
20
1.36628830696435
30
0
41
1
10
44.1772736077502
20
1.21962202751519
30
0
41
1
10
44.4182624715613
20
1.14360609470742
30
0
41
1
10
45.1399009456091
20
0.909098087346592
30
0
41
1
10
45.6195332160256
20
0.744061591689785
30
0
41
1
10
46.5794504103876
20
0.406047953582487
30
0
41
1
10
47.0597538947805
20
0.233169836946558
30
0
41
1
10
48.0227147796961
20
-0.115765934760361
30
0
41
1
10
48.5030667099951
20
-0.29120890819587
30
0
41
1
10
49.462874679097
20
-0.63365673649929
30
0
41
1
10
49.9426916581691
20
-0.800751015844781
30
0
41
1
10
50.6638043280216
20
-1.04113420849168
30
0
41
1
10
50.9046326960194
20
-1.11966940578733
30
0
41
1
10
51.3855759810821
20
-1.27176512144018
30
0
41
1
10
51.6257412245766
20
-1.3453457140686
30
0
41
1
10
52.3458864379659
20
-1.55742506505629
30
0
41
1
10
52.8255572395738
20
-1.68718861642159
30
0
41
1
10
53.7861555530838
20
-1.91916426062235
30
0
41
1
10
54.2682183459479
20
-2.02146006525248
30
0
41
1
10
55.227964972212
20
-2.19151474942424
30
0
41
1
10
55.7062750878571
20
-2.25961016471493
30
0
41
1
10
56.6616369167056
20
-2.36020845534699
30
0
41
1
10
57.1386826152929
20
-2.39259584508682
30
0
41
1
10
58.0946024541904
20
-2.41958291515621
30
0
41
1
10
58.5734582938884
20
-2.4143021444751
30
0
41
1
10
59.0542078940132
20
-2.38977657568469
30
0
0
LINE
5
76
100
AcDbEntity
8
81
62
256
6
ByLayer
370
18
48
1
60
0
100
AcDbLine
10
59.94
20
0
30
0
11
64.94
21
0
31
0
39
0
210
0
220
0
230
1
0
LINE
5
77
100
AcDbEntity
8
1
62
256
6
ByLayer
370
18
48
1
60
0
100
AcDbLine
10
4.958889
20
2.380109
30
0
11
0.1
21
2.377072
31
0
39
0
210
0
220
0
230
1
0
LINE
5
79
100
AcDbEntity
8
1
62
256
6
ByLayer
370
18
48
1
60
0
100
AcDbLine
10
16.455018
20
2.387294
30
0
11
15.136983
21
2.38647
31
0
39
0
210
0
220
0
230
1
0
LINE
5
7A
100
AcDbEntity
8
1
62
256
6
ByLayer
370
18
48
1
60
0
100
AcDbLine
10
23.744227
20
2.39185
30
0
11
22.274156
21
2.390931
31
0
39
0
210
0
220
0
230
1
0
LINE
5
7B
100
AcDbEntity
8
1
62
256
6
ByLayer
370
18
48
1
60
0
100
AcDbLine
10
37.28567
20
2.400313
30
0
11
35.971241
21
2.399492
31
0
39
0
210
0
220
0
230
1
0
LINE
5
7C
100
AcDbEntity
8
1
62
256
6
ByLayer
370
18
48
1
60
0
100
AcDbLine
10
44.494591
20
2.404819
30
0
11
43.13221
21
2.403967
31
0
39
0
210
0
220
0
230
1
0
LINE
5
7D
100
AcDbEntity
8
1
62
256
6
ByLayer
370
18
48
1
60
0
100
AcDbLine
10
58.117745
20
2.413333
30
0
11
56.814073
21
2.412519
31
0
39
0
210
0
220
0
230
1
0
LINE
5
7E
100
AcDbEntity
8
1
62
256
6
ByLayer
370
18
48
1
60
0
100
AcDbLine
10
56.814073
20
-2.412519
30
0
11
58.117745
21
-2.413333
31
0
39
0
210
0
220
0
230
1
0
LINE
5
7F
100
AcDbEntity
8
1
62
256
6
ByLayer
370
18
48
1
60
0
100
AcDbLine
10
43.13221
20
-2.403967
30
0
11
44.494591
21
-2.404819
31
0
39
0
210
0
220
0
230
1
0
LINE
5
80
100
AcDbEntity
8
1
62
256
6
ByLayer
370
18
48
1
60
0
100
AcDbLine
10
35.971241
20
-2.399492
30
0
11
37.28567
21
-2.400313
31
0
39
0
210
0
220
0
230
1
0
LINE
5
81
100
AcDbEntity
8
1
62
256
6
ByLayer
370
18
48
1
60
0
100
AcDbLine
10
22.274156
20
-2.390931
30
0
11
23.744227
21
-2.39185
31
0
39
0
210
0
220
0
230
1
0
LINE
5
82
100
AcDbEntity
8
1
62
256
6
ByLayer
370
18
48
1
60
0
100
AcDbLine
10
15.136983
20
-2.38647
30
0
11
16.455018
21
-2.387294
31
0
39
0
210
0
220
0
230
1
0
LINE
5
83
100
AcDbEntity
8
1
62
256
6
ByLayer
370
18
48
1
60
0
100
AcDbLine
10
0.1
20
-2.377072
30
0
11
4.958889
21
-2.380109
31
0
39
0
210
0
220
0
230
1
0
LINE
5
84
100
AcDbEntity
8
1
62
256
6
ByLayer
370
18
48
1
60
0
100
AcDbLine
10
0
20
-2.414
30
0
11
0.1
21
-2.377072
31
0
39
0
210
0
220
0
230
1
0
LINE
5
85
100
AcDbEntity
8
1
62
256
6
ByLayer
370
18
48
1
60
0
100
AcDbLine
10
0.1
20
2.377072
30
0
11
0
21
2.414
31
0
39
0
210
0
220
0
230
1
0
LINE
5
86
100
AcDbEntity
8
SK1
62
256
6
ByLayer
370
18
48
1
60
0
100
AcDbLine
10
0
20
2.414
30
0
11
-40.900225
21
2.414
31
0
39
0
210
0
220
0
230
1
0
LINE
5
88
100
AcDbEntity
8
SK1
62
256
6
ByLayer
370
18
48
1
60
0
100
AcDbLine
10
-40.900225
20
-2.414
30
0
11
0
21
-2.414
31
0
39
0
210
0
220
0
230
1
0
LINE
5
89
100
AcDbEntity
8
SK1
62
256
6
ByLayer
370
18
48
1
60
0
100
AcDbLine
10
-40.900225
20
2.414
30
0
11
-41.66
21
1.654225
31
0
39
0
210
0
220
0
230
1
0
LINE
5
8A
100
AcDbEntity
8
SK1
62
256
6
ByLayer
370
18
48
1
60
0
100
AcDbLine
10
-41.66
20
-1.654225
30
0
11
-40.900225
21
-2.414
31
0
39
0
210
0
220
0
230
1
0
LINE
5
8B
100
AcDbEntity
8
SK4
62
256
6
ByLayer
370
18
48
0.05
60
0
100
AcDbLine
10
64.94
20
0
30
0
11
-46.66
21
0
31
0
39
0
210
0
220
0
230
1
0
LINE
5
8D
100
AcDbEntity
8
4
62
256
6
ByLayer
370
18
48
0.05
60
0
100
AcDbLine
10
59.94
20
0
30
0
11
0
21
0
31
0
39
0
210
0
220
0
230
1
0
LINE
5
8F
100
AcDbEntity
8
80
62
256
6
ByLayer
370
18
48
1
60
0
100
AcDbLine
10
0
20
0
30
0
11
-5
21
0
31
0
39
0
210
0
220
0
230
1
0
LINE
5
90
100
AcDbEntity
8
1
62
256
6
ByLayer
370
18
48
1
60
0
100
AcDbLine
10
0.1
20
2.377072
30
0
11
0.1
21
-2.377072
31
0
39
0
210
0
220
0
230
1
0
LINE
5
91
100
AcDbEntity
8
1
62
256
6
ByLayer
370
18
48
1
60
0
100
AcDbLine
10
0
20
-2.414
30
0
11
0
21
2.414
31
0
39
0
210
0
220
0
230
1
0
LINE
5
92
100
AcDbEntity
8
1
62
256
6
ByLayer
370
13
48
1
60
0
100
AcDbLine
10
58.852475
20
0.636872
30
0
11
59.906667
21
-0.03854
31
0
39
0
210
0
220
0
230
1
0
LINE
5
93
100
AcDbEntity
8
1
62
256
6
ByLayer
370
13
48
1
60
0
100
AcDbLine
10
58.915888
20
0.711134
30
0
11
59.93763
21
0.056514
31
0
39
0
210
0
220
0
230
1
0
LINE
5
94
100
AcDbEntity
8
SK1
62
256
6
ByLayer
370
18
48
1
60
0
100
AcDbLine
10
-40.900225
20
2.414
30
0
11
-40.900225
21
-2.414
31
0
39
0
210
0
220
0
230
1
0
LINE
5
95
100
AcDbEntity
8
SK1
62
256
6
ByLayer
370
18
48
1
60
0
100
AcDbLine
10
0
20
-2.414
30
0
11
0
21
2.414
31
0
39
0
210
0
220
0
230
1
0
LINE
5
96
100
AcDbEntity
8
SK1
62
256
6
ByLayer
370
18
48
1
60
0
100
AcDbLine
10
-41.66
20
1.654225
30
0
11
-41.66
21
-1.654225
31
0
39
0
210
0
220
0
230
1
0
MTEXT
5
EE
100
AcDbEntity
8
SK6
62
256
6
ByLayer
370
13
48
1
60
0
100
AcDbMText
10
11.269169
20
34.796694
30
0
210
0
220
0
230
1
1
\W0.7532;452.1-0483-044A0-CM H10F
40
3.5
41
0
44
1.084337
50
0
71
8
72
5
7
iso_b_vert
0
DIMENSION
5
FB
100
AcDbEntity
8
SK2
62
256
6
ByLayer
370
13
48
1
60
0
100
AcDbDimension
2
DimnDraft3D1
10
59.184434
20
-34.127398
30
0
11
28.464493
21
-34.127398
31
0
70
32
71
5
72
1
41
1
210
0
220
0
230
1
3
Standard
100
AcDbAlignedDimension
13
0
23
-1.5875
33
0
14
59.184434
24
-4.0015
34
0
50
0
100
AcDbRotatedDimension
1001
ACAD
1000
DSTYLE
1002
{
1070
   279
1070
     0
1070
   172
1070
     1
1070
   173
1070
     1
1070
   340
1005
EF
1070
   271
1070
     2
1070
   272
1070
     2
1070
    77
1070
     1
1070
    73
1070
     0
1070
   171
1070
     3
1070
   274
1070
     4
1070
   177
1070
    35
1070
   176
1070
    35
1070
   178
1070
    35
1070
    48
1040
-0.005
1070
    41
1041
3.5
1070
   147
1041
1.75
1070
    42
1041
1.5875
1070
    44
1041
2.0
1070
   140
1041
3.5
1070
   343
1005
0
1070
   344
1005
0
1002
}
0
DIMENSION
5
105
100
AcDbEntity
8
SK2
62
256
6
ByLayer
370
13
48
1
60
0
100
AcDbDimension
2
DimnDraft3D2
10
59.94
20
-51.106985
30
0
11
9.725734
21
-51.106985
31
0
70
32
71
5
72
1
41
1
210
0
220
0
230
1
3
Standard
100
AcDbAlignedDimension
13
-41.66
23
-4.0015
33
0
14
59.94
24
-1.5875
34
0
50
0
100
AcDbRotatedDimension
1001
ACAD
1000
DSTYLE
1002
{
1070
   279
1070
     0
1070
   172
1070
     1
1070
   173
1070
     1
1070
   340
1005
EF
1070
   271
1070
     2
1070
   272
1070
     2
1070
    77
1070
     1
1070
    73
1070
     0
1070
   171
1070
     3
1070
   274
1070
     4
1070
   177
1070
    35
1070
   176
1070
    35
1070
   178
1070
    35
1070
    48
1040
-0.005
1070
    41
1041
3.5
1070
   147
1041
1.75
1070
    42
1041
1.5875
1070
    44
1041
2.0
1070
   140
1041
3.5
1070
   343
1005
0
1070
   344
1005
0
1002
}
0
DIMENSION
5
10F
100
AcDbEntity
8
SK2
62
256
6
ByLayer
370
13
48
1
60
0
100
AcDbDimension
2
DimnDraft3D3
10
59.94
20
-23.804881
30
0
11
36.44
21
-23.804881
31
0
70
32
71
5
72
1
41
1
210
0
220
0
230
1
3
Standard
100
AcDbAlignedDimension
13
12.94
23
-4.0015
33
0
14
59.94
24
-1.5875
34
0
50
0
100
AcDbRotatedDimension
1001
ACAD
1000
DSTYLE
1002
{
1070
   279
1070
     0
1070
   172
1070
     1
1070
   173
1070
     1
1070
   340
1005
EF
1070
   271
1070
     2
1070
   272
1070
     2
1070
    77
1070
     1
1070
    73
1070
     0
1070
   171
1070
     3
1070
   274
1070
     4
1070
   177
1070
    35
1070
   176
1070
    35
1070
   178
1070
    35
1070
    48
1040
-0.005
1070
    41
1041
3.5
1070
   147
1041
1.75
1070
    42
1041
1.5875
1070
    44
1041
2.0
1070
   140
1041
3.5
1070
   343
1005
0
1070
   344
1005
0
1002
}
0
DIMENSION
5
119
100
AcDbEntity
8
SK2
62
256
6
ByLayer
370
13
48
1
60
0
100
AcDbDimension
2
DimnDraft3D4
10
59.184434
20
-11.716503
30
0
11
69.921425
21
-11.716503
31
0
70
32
71
5
72
1
41
1
210
0
220
0
230
1
3
Standard
100
AcDbAlignedDimension
13
59.94
23
-1.5875
33
0
14
59.184434
24
-11.716503
34
0
50
0
100
AcDbRotatedDimension
1001
ACAD
1000
DSTYLE
1002
{
1070
   279
1070
     0
1070
   172
1070
     1
1070
   173
1070
     1
1070
   340
1005
EF
1070
   271
1070
     2
1070
   272
1070
     2
1070
    73
1070
     0
1070
   171
1070
     3
1070
   274
1070
     4
1070
   177
1070
    35
1070
   176
1070
    35
1070
   178
1070
    35
1070
    48
1040
-0.005
1070
    41
1041
3.5
1070
   147
1041
1.75
1070
    42
1041
1.5875
1070
    44
1041
2.0
1070
   140
1041
3.5
1070
   343
1005
0
1070
   344
1005
0
1002
}
0
DIMENSION
5
123
100
AcDbEntity
8
SK2
62
256
6
ByLayer
370
13
48
1
60
0
100
AcDbDimension
2
DimnDraft3D5
10
59.184434
20
-42.757428
30
0
11
6.64511
21
-42.757428
31
0
70
32
71
5
72
1
41
1
210
0
220
0
230
1
3
Standard
100
AcDbAlignedDimension
13
-41.66
23
-4.0015
33
0
14
59.184434
24
-4.0015
34
0
50
0
100
AcDbRotatedDimension
1001
ACAD
1000
DSTYLE
1002
{
1070
   279
1070
     0
1070
   172
1070
     1
1070
   173
1070
     1
1070
   340
1005
EF
1070
   271
1070
     2
1070
   272
1070
     2
1070
    77
1070
     1
1070
    73
1070
     0
1070
   171
1070
     3
1070
   274
1070
     4
1070
   177
1070
    35
1070
   176
1070
    35
1070
   178
1070
    35
1070
    48
1040
-0.005
1070
    41
1041
3.5
1070
   147
1041
1.75
1070
    42
1041
1.5875
1070
    44
1041
2.0
1070
   140
1041
3.5
1070
   343
1005
0
1070
   344
1005
0
1002
}
0
DIMENSION
5
12E
100
AcDbEntity
8
SK2
62
256
6
ByLayer
370
13
48
1
60
0
100
AcDbDimension
2
DimnDraft3D6
10
-54.035163
20
2.414
30
0
11
-50.285163
21
20.88818
31
0
70
33
71
5
72
1
41
1
210
0
220
0
230
1
3
Standard
100
AcDbAlignedDimension
13
-43.2475
23
-2.414
33
0
14
-43.2475
24
2.414
34
0
1001
ACAD
1000
DSTYLE
1002
{
1070
   279
1070
     0
1070
    74
1070
     0
1070
   173
1070
     1
1070
   340
1005
EF
1070
   271
1070
     3
1070
   272
1070
     2
1070
    73
1070
     0
1070
   171
1070
     3
1070
   274
1070
     4
1070
   177
1070
    35
1070
   176
1070
    35
1070
   178
1070
    35
1070
    48
1040
-0.005
1070
    41
1041
3.5
1070
   147
1041
1.75
1070
    42
1041
1.5875
1070
    44
1041
2.0
1070
   140
1041
3.5
1070
   343
1005
0
1070
   344
1005
0
1002
}
0
DIMENSION
5
139
100
AcDbEntity
8
2
62
256
6
ByLayer
370
13
48
1
60
0
100
AcDbDimension
2
DimnDraft3D7
10
72.273343
20
2.414
30
0
11
72.023343
21
19.481266
31
0
70
33
71
5
72
1
41
1
210
0
220
0
230
1
3
Standard
100
AcDbAlignedDimension
13
60.771934
23
-2.414
33
0
14
60.771934
24
2.414
34
0
1001
ACAD
1000
DSTYLE
1002
{
1070
   279
1070
     0
1070
    74
1070
     0
1070
   173
1070
     1
1070
   340
1005
EF
1070
   271
1070
     3
1070
   272
1070
     2
1070
    73
1070
     0
1070
   171
1070
     3
1070
   274
1070
     4
1070
   177
1070
    35
1070
   176
1070
    35
1070
   178
1070
    35
1070
    48
1040
-0.005
1070
    41
1041
3.5
1070
   147
1041
1.75
1070
    42
1041
1.5875
1070
    44
1041
2.0
1070
   140
1041
3.5
1070
   343
1005
0
1070
   344
1005
0
1002
}
0
ENDSEC
0
SECTION
2
OBJECTS
0
DICTIONARY
5
1a4
330
0
100
AcDbDictionary
280
0
281
1
3
ACAD_GROUP
350
1a5
3
ACAD_MLINESTYLE
350
1a6
0
DICTIONARY
5
1a5
330
0
100
AcDbDictionary
280
0
281
1
0
DICTIONARY
5
1a6
330
0
100
AcDbDictionary
280
0
281
1
3
Standard
350
18
0
MLINESTYLE
5
18
330
1a6
100
AcDbMlineStyle
2
Standard
70
0
3

62
256
51
90
52
90
71
2
49
-0.5
62
256
6
ByLayer
49
0.5
62
256
6
ByLayer
0
RASTERVARIABLES
5
192
330

100
AcDbRasterVariables
90
0
70
1
71
1
72
1
0
ENDSEC
0
EOF
