0
SECTION
2
HEADER
9
$ACADVER
1
AC1015
9
$DWGCODEPAGE
3
ANSI_1252
9
$HANDSEED
5
1bf
9
$ANGBASE
50
0
9
$ANGDIR
70
0
9
$ATTMODE
70
1
9
$AUNITS
70
0
9
$AUPREC
70
0
9
$CECOLOR
62
256
9
$CELTSCALE
40
1
9
$CELTYPE
6
ByLayer
9
$CELWEIGHT
370
18
9
$CLAYER
8
0
9
$CMLJUST
70
0
9
$CMLSCALE
40
1
9
$CMLSTYLE
2
Standard
9
$DIMSTYLE
2
Standard
9
$TEXTSIZE
40
0.2
9
$TEXTSTYLE
7
Standard
9
$LUNITS
70
2
9
$LUPREC
70
4
9
$EXTNAMES
290
1
9
$INSUNITS
70
4
9
$LTSCALE
40
1
9
$LWDISPLAY
290
1
9
$PDMODE
70
0
9
$PDSIZE
40
0
9
$PLINEGEN
70
0
0
ENDSEC
0
SECTION
2
CLASSES
0
CLASS
1
RASTERVARIABLES
2
AcDbRasterVariables
3
ISM
90
0
280
0
281
0
0
ENDSEC
0
SECTION
2
TABLES
0
TABLE
2
VPORT
5
1b5
100
AcDbSymbolTable
0
VPORT
5
1
100
AcDbSymbolTableRecord
100
AcDbViewportTableRecord
2
*Active
70
0
10
0
20
0
11
1
21
1
12
-1
22
1
13
0
23
0
14
0.5
24
0.5
15
10
25
10
16
0
26
0
36
1
17
0
27
0
37
0
0
ENDTAB
0
TABLE
2
LTYPE
5
1b6
100
AcDbSymbolTable
0
LTYPE
5
14
100
AcDbSymbolTableRecord
100
AcDbLinetypeTableRecord
70
0
2
ByBlock
3

72
65
73
0
40
0
0
LTYPE
5
15
100
AcDbSymbolTableRecord
100
AcDbLinetypeTableRecord
70
0
2
ByLayer
3

72
65
73
0
40
0
0
LTYPE
5
16
100
AcDbSymbolTableRecord
100
AcDbLinetypeTableRecord
70
0
2
CONTINUOUS
3
Solid line
72
65
73
0
40
0
0
LTYPE
5
6A
100
AcDbSymbolTableRecord
100
AcDbLinetypeTableRecord
70
0
2
CENTER
3
____ _ ____ _ ____ _ ____
72
65
73
4
40
47.5
49
22
74
0
49
-8.5
74
0
49
8.5
74
0
49
-8.5
74
0
0
LTYPE
5
6B
100
AcDbSymbolTableRecord
100
AcDbLinetypeTableRecord
70
0
2
DASHED
3
__ __ __ __ __ __ __ __ __
72
65
73
2
40
25.72
49
12.86
74
0
49
-12.86
74
0
0
ENDTAB
0
TABLE
2
LAYER
5
1b7
100
AcDbSymbolTable
0
LAYER
5
10
100
AcDbSymbolTableRecord
100
AcDbLayerTableRecord
2
0
70
0
62
7
6
CONTINUOUS
290
1
370
-3
390
0
0
LAYER
5
6D
100
AcDbSymbolTableRecord
100
AcDbLayerTableRecord
2
81
70
0
62
-3
6
CONTINUOUS
290
1
370
-3
390
0
0
LAYER
5
6F
100
AcDbSymbolTableRecord
100
AcDbLayerTableRecord
2
80
70
0
62
-6
6
CONTINUOUS
290
1
370
-3
390
0
0
LAYER
5
74
100
AcDbSymbolTableRecord
100
AcDbLayerTableRecord
2
2
70
0
62
7
6
CONTINUOUS
290
1
370
-3
390
0
0
LAYER
5
78
100
AcDbSymbolTableRecord
100
AcDbLayerTableRecord
2
1
70
0
62
4
6
CONTINUOUS
290
1
370
-3
390
0
0
LAYER
5
90
100
AcDbSymbolTableRecord
100
AcDbLayerTableRecord
2
4
70
0
62
-2
6
CENTER
290
1
370
-3
390
0
0
LAYER
5
1a1
100
AcDbSymbolTableRecord
100
AcDbLayerTableRecord
2
SK2
70
0
62
7
6
CONTINUOUS
290
1
370
-3
390
0
0
LAYER
5
1a2
100
AcDbSymbolTableRecord
100
AcDbLayerTableRecord
2
SK1
70
0
62
4
6
CONTINUOUS
290
1
370
-3
390
0
0
LAYER
5
1a3
100
AcDbSymbolTableRecord
100
AcDbLayerTableRecord
2
SK4
70
0
62
2
6
CENTER
290
1
370
-3
390
0
0
LAYER
5
1a4
100
AcDbSymbolTableRecord
100
AcDbLayerTableRecord
2
SK6
70
0
62
5
6
CONTINUOUS
290
1
370
-3
390
0
0
ENDTAB
0
TABLE
2
STYLE
5
1b8
100
AcDbSymbolTable
0
STYLE
5
11
100
AcDbSymbolTableRecord
100
AcDbTextStyleTableRecord
2
Standard
3
txt
70
0
71
0
40
0
41
1
42
0
50
0
0
STYLE
5
FD
100
AcDbSymbolTableRecord
100
AcDbTextStyleTableRecord
2
iso_b_vert
3
simplex.shx
70
0
71
0
40
0
41
1
42
0
50
0
0
STYLE
5
FE
100
AcDbSymbolTableRecord
100
AcDbTextStyleTableRecord
2
DWGDirectTextStyle
3
simplex
70
0
71
0
40
0
41
1
42
0
50
0
0
ENDTAB
0
TABLE
2
DIMSTYLE
5
1b9
100
AcDbSymbolTable
100
AcDbDimStyleTable
0
DIMSTYLE
105
27
100
AcDbSymbolTableRecord
100
AcDbDimStyleTableRecord
2
Standard
70
0
3
<>
41
0.18
42
0.0625
44
0.18
140
0.18
147
0.09
73
0
74
0
77
1
271
2
275
0
278
52
280
0
340
11
0
ENDTAB
0
TABLE
2
VIEW
5
1ba
100
AcDbSymbolTable
0
ENDTAB
0
TABLE
2
UCS
5
1bb
100
AcDbSymbolTable
0
ENDTAB
0
TABLE
2
APPID
5
1bc
100
AcDbSymbolTable
0
APPID
5
12
100
AcDbSymbolTableRecord
100
AcDbRegAppTableRecord
2
ACAD
70
0
0
ENDTAB
0
TABLE
2
BLOCK_RECORD
5
1bd
100
AcDbSymbolTable
0
BLOCK_RECORD
5
1F
100
AcDbSymbolTableRecord
100
AcDbBlockTableRecord
2
*Model_Space
340
0
70
0
0
BLOCK_RECORD
5
1B
100
AcDbSymbolTableRecord
100
AcDbBlockTableRecord
2
*Paper_Space
340
0
70
0
0
BLOCK_RECORD
5
23
100
AcDbSymbolTableRecord
100
AcDbBlockTableRecord
2
*Paper_Space0
340
0
70
0
0
BLOCK_RECORD
5
100
100
AcDbSymbolTableRecord
100
AcDbBlockTableRecord
2
DimnDraft3D1
340
0
70
0
0
BLOCK_RECORD
5
10A
100
AcDbSymbolTableRecord
100
AcDbBlockTableRecord
2
DimnDraft3D2
340
0
70
0
0
BLOCK_RECORD
5
114
100
AcDbSymbolTableRecord
100
AcDbBlockTableRecord
2
DimnDraft3D3
340
0
70
0
0
BLOCK_RECORD
5
11E
100
AcDbSymbolTableRecord
100
AcDbBlockTableRecord
2
DimnDraft3D4
340
0
70
0
0
BLOCK_RECORD
5
128
100
AcDbSymbolTableRecord
100
AcDbBlockTableRecord
2
DimnDraft3D5
340
0
70
0
0
BLOCK_RECORD
5
132
100
AcDbSymbolTableRecord
100
AcDbBlockTableRecord
2
DimnDraft3D6
340
0
70
0
0
BLOCK_RECORD
5
13D
100
AcDbSymbolTableRecord
100
AcDbBlockTableRecord
2
DimnDraft3D7
340
0
70
0
0
ENDTAB
0
ENDSEC
0
SECTION
2
BLOCKS
0
BLOCK
5
20
100
AcDbEntity
8
0
100
AcDbBlockBegin
2
*Model_Space
70
0
10
0
20
0
30
0
3
*Model_Space
0
ENDBLK
5
21
100
AcDbEntity
8
0
100
AcDbBlockEnd
0
BLOCK
5
1C
100
AcDbEntity
8
0
100
AcDbBlockBegin
2
*Paper_Space
70
0
10
0
20
0
30
0
3
*Paper_Space
0
ENDBLK
5
1D
100
AcDbEntity
8
0
100
AcDbBlockEnd
0
BLOCK
5
24
100
AcDbEntity
8
0
100
AcDbBlockBegin
2
*Paper_Space0
70
0
10
0
20
0
30
0
3
*Paper_Space0
0
ENDBLK
5
25
100
AcDbEntity
8
0
100
AcDbBlockEnd
0
BLOCK
5
107
100
AcDbEntity
8
0
100
AcDbBlockBegin
2
DimnDraft3D1
70
0
10
0
20
0
30
0
3
DimnDraft3D1
0
MTEXT
5
101
100
AcDbEntity
8
SK2
62
256
6
ByLayer
370
13
48
1
60
0
100
AcDbMText
10
23.97211
20
-32.922398
30
0
210
0
220
0
230
1
1
\W0.7402;58,99
40
3.5
41
0
44
1.084337
50
0
71
7
72
5
7
iso_b_vert
0
LINE
5
102
100
AcDbEntity
8
SK2
62
256
6
ByLayer
370
13
48
1
60
0
100
AcDbLine
10
0
20
-1.5875
30
0
11
0
21
-35.797398
31
0
39
0
210
0
220
0
230
1
0
LINE
5
103
100
AcDbEntity
8
SK2
62
256
6
ByLayer
370
13
48
1
60
0
100
AcDbLine
10
58.990735
20
-3.6715
30
0
11
58.990735
21
-35.797398
31
0
39
0
210
0
220
0
230
1
0
LINE
5
104
100
AcDbEntity
8
SK2
62
256
6
ByLayer
370
13
48
1
60
0
100
AcDbLine
10
0
20
-33.797398
30
0
11
58.990735
21
-33.797398
31
0
39
0
210
0
220
0
230
1
0
SOLID
5
105
100
AcDbEntity
8
SK2
62
256
6
ByLayer
370
13
48
1
60
0
100
AcDbTrace
10
0
20
-33.797398
30
0
11
3.499998
21
-33.336615
31
0
12
3.500002
22
-34.258182
32
0
13
0
23
-33.797398
33
0
39
0
210
0
220
0
230
1
0
SOLID
5
106
100
AcDbEntity
8
SK2
62
256
6
ByLayer
370
13
48
1
60
0
100
AcDbTrace
10
58.990735
20
-33.797398
30
0
11
55.490737
21
-34.258182
31
0
12
55.490734
22
-33.336615
32
0
13
58.990735
23
-33.797398
33
0
39
0
210
0
220
0
230
1
0
ENDBLK
5
108
100
AcDbEntity
8
0
100
AcDbBlockEnd
0
BLOCK
5
111
100
AcDbEntity
8
0
100
AcDbBlockBegin
2
DimnDraft3D2
70
0
10
0
20
0
30
0
3
DimnDraft3D2
0
MTEXT
5
10B
100
AcDbEntity
8
SK2
62
256
6
ByLayer
370
13
48
1
60
0
100
AcDbMText
10
4.650456
20
-49.901985
30
0
210
0
220
0
230
1
1
\W0.6440;101,60
40
3.5
41
0
44
1.084337
50
0
71
7
72
5
7
iso_b_vert
0
LINE
5
10C
100
AcDbEntity
8
SK2
62
256
6
ByLayer
370
13
48
1
60
0
100
AcDbLine
10
-41.96
20
-3.6715
30
0
11
-41.96
21
-52.776985
31
0
39
0
210
0
220
0
230
1
0
LINE
5
10D
100
AcDbEntity
8
SK2
62
256
6
ByLayer
370
13
48
1
60
0
100
AcDbLine
10
59.64
20
-1.5875
30
0
11
59.64
21
-52.776985
31
0
39
0
210
0
220
0
230
1
0
LINE
5
10E
100
AcDbEntity
8
SK2
62
256
6
ByLayer
370
13
48
1
60
0
100
AcDbLine
10
-41.96
20
-50.776985
30
0
11
59.64
21
-50.776985
31
0
39
0
210
0
220
0
230
1
0
SOLID
5
10F
100
AcDbEntity
8
SK2
62
256
6
ByLayer
370
13
48
1
60
0
100
AcDbTrace
10
-41.96
20
-50.776985
30
0
11
-38.460002
21
-50.316202
31
0
12
-38.459998
22
-51.237769
32
0
13
-41.96
23
-50.776985
33
0
39
0
210
0
220
0
230
1
0
SOLID
5
110
100
AcDbEntity
8
SK2
62
256
6
ByLayer
370
13
48
1
60
0
100
AcDbTrace
10
59.64
20
-50.776985
30
0
11
56.140002
21
-51.237769
31
0
12
56.139998
22
-50.316202
32
0
13
59.64
23
-50.776985
33
0
39
0
210
0
220
0
230
1
0
ENDBLK
5
112
100
AcDbEntity
8
0
100
AcDbBlockEnd
0
BLOCK
5
11B
100
AcDbEntity
8
0
100
AcDbBlockBegin
2
DimnDraft3D3
70
0
10
0
20
0
30
0
3
DimnDraft3D3
0
MTEXT
5
115
100
AcDbEntity
8
SK2
62
256
6
ByLayer
370
13
48
1
60
0
100
AcDbMText
10
31.122895
20
-22.599881
30
0
210
0
220
0
230
1
1
\W0.7845;47,40
40
3.5
41
0
44
1.084337
50
0
71
7
72
5
7
iso_b_vert
0
LINE
5
116
100
AcDbEntity
8
SK2
62
256
6
ByLayer
370
13
48
1
60
0
100
AcDbLine
10
12.24
20
-3.6715
30
0
11
12.24
21
-25.474881
31
0
39
0
210
0
220
0
230
1
0
LINE
5
117
100
AcDbEntity
8
SK2
62
256
6
ByLayer
370
13
48
1
60
0
100
AcDbLine
10
59.64
20
-1.5875
30
0
11
59.64
21
-25.474881
31
0
39
0
210
0
220
0
230
1
0
LINE
5
118
100
AcDbEntity
8
SK2
62
256
6
ByLayer
370
13
48
1
60
0
100
AcDbLine
10
12.24
20
-23.474881
30
0
11
59.64
21
-23.474881
31
0
39
0
210
0
220
0
230
1
0
SOLID
5
119
100
AcDbEntity
8
SK2
62
256
6
ByLayer
370
13
48
1
60
0
100
AcDbTrace
10
12.24
20
-23.474881
30
0
11
15.739998
21
-23.014097
31
0
12
15.740002
22
-23.935665
32
0
13
12.24
23
-23.474881
33
0
39
0
210
0
220
0
230
1
0
SOLID
5
11A
100
AcDbEntity
8
SK2
62
256
6
ByLayer
370
13
48
1
60
0
100
AcDbTrace
10
59.64
20
-23.474881
30
0
11
56.140002
21
-23.935665
31
0
12
56.139998
22
-23.014097
32
0
13
59.64
23
-23.474881
33
0
39
0
210
0
220
0
230
1
0
ENDBLK
5
11C
100
AcDbEntity
8
0
100
AcDbBlockEnd
0
BLOCK
5
125
100
AcDbEntity
8
0
100
AcDbBlockBegin
2
DimnDraft3D4
70
0
10
0
20
0
30
0
3
DimnDraft3D4
0
MTEXT
5
11F
100
AcDbEntity
8
SK2
62
256
6
ByLayer
370
13
48
1
60
0
100
AcDbMText
10
70.496425
20
-14.011503
30
0
210
0
220
0
230
1
1
\W0.7150;0,65
40
3.5
41
0
44
1.084337
50
0
71
7
72
5
7
iso_b_vert
0
LINE
5
120
100
AcDbEntity
8
SK2
62
256
6
ByLayer
370
13
48
1
60
0
100
AcDbLine
10
59.64
20
-1.5875
30
0
11
59.64
21
-13.386503
31
0
39
0
210
0
220
0
230
1
0
LINE
5
121
100
AcDbEntity
8
SK2
62
256
6
ByLayer
370
13
48
1
60
0
100
AcDbLine
10
58.990735
20
-3.6715
30
0
11
58.990735
21
-13.386503
31
0
39
0
210
0
220
0
230
1
0
LINE
5
122
100
AcDbEntity
8
SK2
62
256
6
ByLayer
370
13
48
1
60
0
100
AcDbLine
10
50.240735
20
-11.386503
30
0
11
68.121425
21
-11.386503
31
0
39
0
210
0
220
0
230
1
0
SOLID
5
123
100
AcDbEntity
8
SK2
62
256
6
ByLayer
370
13
48
1
60
0
100
AcDbTrace
10
59.64
20
-11.386503
30
0
11
63.139998
21
-10.925719
31
0
12
63.140002
22
-11.847287
32
0
13
59.64
23
-11.386503
33
0
39
0
210
0
220
0
230
1
0
SOLID
5
124
100
AcDbEntity
8
SK2
62
256
6
ByLayer
370
13
48
1
60
0
100
AcDbTrace
10
58.990735
20
-11.386503
30
0
11
55.490737
21
-11.847287
31
0
12
55.490734
22
-10.925719
32
0
13
58.990735
23
-11.386503
33
0
39
0
210
0
220
0
230
1
0
ENDBLK
5
126
100
AcDbEntity
8
0
100
AcDbBlockEnd
0
BLOCK
5
12F
100
AcDbEntity
8
0
100
AcDbBlockBegin
2
DimnDraft3D5
70
0
10
0
20
0
30
0
3
DimnDraft3D5
0
MTEXT
5
129
100
AcDbEntity
8
SK2
62
256
6
ByLayer
370
13
48
1
60
0
100
AcDbMText
10
1.132333
20
-41.552428
30
0
210
0
220
0
230
1
1
\W0.6930;100,95
40
3.5
41
0
44
1.084337
50
0
71
7
72
5
7
iso_b_vert
0
LINE
5
12A
100
AcDbEntity
8
SK2
62
256
6
ByLayer
370
13
48
1
60
0
100
AcDbLine
10
-41.96
20
-3.6715
30
0
11
-41.96
21
-44.427428
31
0
39
0
210
0
220
0
230
1
0
LINE
5
12B
100
AcDbEntity
8
SK2
62
256
6
ByLayer
370
13
48
1
60
0
100
AcDbLine
10
58.990735
20
-3.6715
30
0
11
58.990735
21
-44.427428
31
0
39
0
210
0
220
0
230
1
0
LINE
5
12C
100
AcDbEntity
8
SK2
62
256
6
ByLayer
370
13
48
1
60
0
100
AcDbLine
10
-41.96
20
-42.427428
30
0
11
58.990735
21
-42.427428
31
0
39
0
210
0
220
0
230
1
0
SOLID
5
12D
100
AcDbEntity
8
SK2
62
256
6
ByLayer
370
13
48
1
60
0
100
AcDbTrace
10
-41.96
20
-42.427428
30
0
11
-38.460002
21
-41.966645
31
0
12
-38.459998
22
-42.888212
32
0
13
-41.96
23
-42.427428
33
0
39
0
210
0
220
0
230
1
0
SOLID
5
12E
100
AcDbEntity
8
SK2
62
256
6
ByLayer
370
13
48
1
60
0
100
AcDbTrace
10
58.990735
20
-42.427428
30
0
11
55.490737
21
-42.888212
31
0
12
55.490734
22
-41.966645
32
0
13
58.990735
23
-42.427428
33
0
39
0
210
0
220
0
230
1
0
ENDBLK
5
130
100
AcDbEntity
8
0
100
AcDbBlockEnd
0
BLOCK
5
13A
100
AcDbEntity
8
0
100
AcDbBlockBegin
2
DimnDraft3D6
70
0
10
0
20
0
30
0
3
DimnDraft3D6
0
MTEXT
5
133
100
AcDbEntity
8
SK2
62
256
6
ByLayer
370
13
48
1
60
0
100
AcDbMText
10
-49.710163
20
21.43318
30
0
210
0
220
0
230
1
1
\W0.6977;4,168
40
3.5
41
0
44
1.084337
50
90
71
7
72
5
7
iso_b_vert
0
MTEXT
5
134
100
AcDbEntity
8
SK2
62
256
6
ByLayer
370
13
48
1
60
0
100
AcDbMText
10
-49.710163
20
16.210524
30
0
210
0
220
0
230
1
1
%%c
40
3.5
41
0
44
1.084337
50
90
71
7
72
5
7
iso_b_vert
0
LINE
5
135
100
AcDbEntity
8
SK2
62
256
6
ByLayer
370
13
48
1
60
0
100
AcDbLine
10
-43.5475
20
-2.084
30
0
11
-54.335163
21
-2.084
31
0
39
0
210
0
220
0
230
1
0
LINE
5
136
100
AcDbEntity
8
SK2
62
256
6
ByLayer
370
13
48
1
60
0
100
AcDbLine
10
-43.5475
20
2.084
30
0
11
-54.335163
21
2.084
31
0
39
0
210
0
220
0
230
1
0
LINE
5
137
100
AcDbEntity
8
SK2
62
256
6
ByLayer
370
13
48
1
60
0
100
AcDbLine
10
-52.335163
20
12.05818
30
0
11
-52.335163
21
-10.834
31
0
39
0
210
0
220
0
230
1
0
SOLID
5
138
100
AcDbEntity
8
SK2
62
256
6
ByLayer
370
13
48
1
60
0
100
AcDbTrace
10
-52.335163
20
-2.084
30
0
11
-51.874379
21
-5.583998
31
0
12
-52.795946
22
-5.584002
32
0
13
-52.335163
23
-2.084
33
0
39
0
210
0
220
0
230
1
0
SOLID
5
139
100
AcDbEntity
8
SK2
62
256
6
ByLayer
370
13
48
1
60
0
100
AcDbTrace
10
-52.335163
20
2.084
30
0
11
-52.795946
21
5.583998
31
0
12
-51.874379
22
5.584002
32
0
13
-52.335163
23
2.084
33
0
39
0
210
0
220
0
230
1
0
ENDBLK
5
13B
100
AcDbEntity
8
0
100
AcDbBlockEnd
0
BLOCK
5
145
100
AcDbEntity
8
0
100
AcDbBlockBegin
2
DimnDraft3D7
70
0
10
0
20
0
30
0
3
DimnDraft3D7
0
MTEXT
5
13E
100
AcDbEntity
8
2
62
256
6
ByLayer
370
13
48
1
60
0
100
AcDbMText
10
72.598343
20
20.026266
30
0
210
0
220
0
230
1
1
\W0.6977;4,168
40
3.5
41
0
44
1.084337
50
90
71
7
72
5
7
iso_b_vert
0
MTEXT
5
13F
100
AcDbEntity
8
2
62
256
6
ByLayer
370
13
48
1
60
0
100
AcDbMText
10
72.598343
20
14.80361
30
0
210
0
220
0
230
1
1
%%c
40
3.5
41
0
44
1.084337
50
90
71
7
72
5
7
iso_b_vert
0
LINE
5
140
100
AcDbEntity
8
2
62
256
6
ByLayer
370
13
48
1
60
0
100
AcDbLine
10
60.578235
20
-2.084
30
0
11
71.973343
21
-2.084
31
0
39
0
210
0
220
0
230
1
0
LINE
5
141
100
AcDbEntity
8
2
62
256
6
ByLayer
370
13
48
1
60
0
100
AcDbLine
10
60.578235
20
2.084
30
0
11
71.973343
21
2.084
31
0
39
0
210
0
220
0
230
1
0
LINE
5
142
100
AcDbEntity
8
2
62
256
6
ByLayer
370
13
48
1
60
0
100
AcDbLine
10
69.973343
20
10.651266
30
0
11
69.973343
21
-10.834
31
0
39
0
210
0
220
0
230
1
0
SOLID
5
143
100
AcDbEntity
8
2
62
256
6
ByLayer
370
13
48
1
60
0
100
AcDbTrace
10
69.973343
20
-2.084
30
0
11
70.434126
21
-5.583998
31
0
12
69.512559
22
-5.584002
32
0
13
69.973343
23
-2.084
33
0
39
0
210
0
220
0
230
1
0
SOLID
5
144
100
AcDbEntity
8
2
62
256
6
ByLayer
370
13
48
1
60
0
100
AcDbTrace
10
69.973343
20
2.084
30
0
11
69.512559
21
5.583998
31
0
12
70.434126
22
5.584002
32
0
13
69.973343
23
2.084
33
0
39
0
210
0
220
0
230
1
0
ENDBLK
5
146
100
AcDbEntity
8
0
100
AcDbBlockEnd
0
ENDSEC
0
SECTION
2
ENTITIES
0
ELLIPSE
5
99
100
AcDbEntity
8
1
62
256
6
ByLayer
370
18
48
1
60
0
100
AcDbEllipse
10
12.239966
20
-6E-06
30
0
11
0.0094574361337913
21
-2.05477984467815
31
0
210
0
220
0
230
-1
40
0.000855
41
-1.86575386489353
42
-1.75078811996139
0
ELLIPSE
5
9A
100
AcDbEntity
8
1
62
256
6
ByLayer
370
18
48
1
60
0
100
AcDbEllipse
10
41.522362
20
-6.598768
30
0
11
17.9631175736747
21
7.52999810052209
31
0
210
0
220
0
230
-1
40
0.312417
41
0.13904103837712
42
0.142693247499573
0
ELLIPSE
5
9B
100
AcDbEntity
8
1
62
256
6
ByLayer
370
13
48
1
60
0
100
AcDbEllipse
10
59.575075
20
0.954284
30
0
11
1.24432211427622
21
-0.378234164910827
31
0
210
0
220
0
230
-1
40
0.59729
41
2.14918375304555
42
2.31282890118257
0
ELLIPSE
5
9C
100
AcDbEntity
8
1
62
256
6
ByLayer
370
18
48
1
60
0
100
AcDbEllipse
10
12.239966
20
-4E-06
30
0
11
0.00945743254951784
21
-2.05477908927683
31
0
210
0
220
0
230
-1
40
0.000855
41
-3.01090245726317
42
-2.92128020457674
0
ELLIPSE
5
9D
100
AcDbEntity
8
1
62
256
6
ByLayer
370
18
48
1
60
0
100
AcDbEllipse
10
57.57865
20
1.552974
30
0
11
2.5627184568781
21
4.07366704114786
31
0
210
0
220
0
230
-1
40
0.533569
41
1.62634858323266
42
1.99594393671351
0
ELLIPSE
5
9E
100
AcDbEntity
8
1
62
256
6
ByLayer
370
18
48
1
60
0
100
AcDbEllipse
10
2.539989
20
3E-06
30
0
11
0.00497607864847823
21
2.048718283213
31
0
210
0
220
0
230
-1
40
0.005486
41
1.93722313638726
42
2.72360935909943
0
ELLIPSE
5
9F
100
AcDbEntity
8
1
62
256
6
ByLayer
370
18
48
1
60
0
100
AcDbEllipse
10
12.239966
20
1.3E-05
30
0
11
0.0094574705163144
21
2.05478760561505
31
0
210
0
220
0
230
-1
40
0.000855
41
2.92128066113683
42
3.01090272537288
0
ELLIPSE
5
A0
100
AcDbEntity
8
1
62
256
6
ByLayer
370
18
48
1
60
0
100
AcDbEllipse
10
59.667743
20
-0.000556
30
0
11
3.07791343884346
21
-0.947443766223733
31
0
210
0
220
0
230
-1
40
0.603219
41
2.13829091021251
42
2.47828169056681
0
POINT
5
6C
100
AcDbEntity
8
81
62
256
6
ByLayer
370
18
48
1
60
0
100
AcDbPoint
10
59.64
20
0
30
0
39
0
210
0
220
0
230
1
50
360
0
POINT
5
6E
100
AcDbEntity
8
80
62
256
6
ByLayer
370
18
48
1
60
0
100
AcDbPoint
10
0
20
0
30
0
39
0
210
0
220
0
230
1
50
360
0
POINT
5
70
100
AcDbEntity
8
SK2
62
256
6
ByLayer
370
18
48
1
60
1
100
AcDbPoint
10
-41.96
20
-2.084
30
0
39
0
210
0
220
0
230
1
50
360
0
POINT
5
72
100
AcDbEntity
8
SK2
62
256
6
ByLayer
370
18
48
1
60
1
100
AcDbPoint
10
-41.96
20
2.084
30
0
39
0
210
0
220
0
230
1
50
360
0
POINT
5
73
100
AcDbEntity
8
2
62
256
6
ByLayer
370
18
48
1
60
1
100
AcDbPoint
10
58.990735
20
-2.084
30
0
39
0
210
0
220
0
230
1
50
360
0
POINT
5
75
100
AcDbEntity
8
2
62
256
6
ByLayer
370
18
48
1
60
1
100
AcDbPoint
10
58.990735
20
2.084
30
0
39
0
210
0
220
0
230
1
50
360
0
SPLINE
5
A1
100
AcDbEntity
8
1
62
256
6
ByLayer
370
18
48
1
60
0
100
AcDbSpline
70
4
71
1
72
4
73
2
40
0
40
0
40
1
40
1
41
1
10
31.0023232389651
20
-1.92959671433906
30
0
41
1
10
31.0023551138387
20
-1.92958952077606
30
0
0
SPLINE
5
A2
100
AcDbEntity
8
1
62
256
6
ByLayer
370
18
48
1
60
0
100
AcDbSpline
70
4
71
3
72
11
73
7
40
0
40
0
40
0
40
0
40
0.41387309590261
40
0.754988509965857
40
0.991437241214875
40
1
40
1
40
1
40
1
41
1
10
41.0515938096118
20
-1.84608917985329
30
0
41
1
10
41.2871935945113
20
-1.84565001581836
30
0
41
1
10
41.7168943811584
20
-1.84490980133813
30
0
41
1
10
42.2800158480016
20
-1.84450588894751
30
0
41
1
10
42.613800003941
20
-1.84391046196205
30
0
41
1
10
42.7532458608094
20
-1.84378293028971
30
0
41
1
10
42.758119181324
20
-1.84377860733318
30
0
0
SPLINE
5
A3
100
AcDbEntity
8
1
62
256
6
ByLayer
370
18
48
1
60
0
100
AcDbSpline
70
4
71
3
72
11
73
7
40
0
40
0
40
0
40
0
40
0.313644005398607
40
0.599922317166273
40
0.82616546984125
40
1
40
1
40
1
40
1
41
1
10
23.0629846100293
20
-1.8581878559981
30
0
41
1
10
23.2608620308234
20
-1.85751436287808
30
0
41
1
10
23.6394477876845
20
-1.8564570417073
30
0
41
1
10
24.1613901880489
20
-1.85694099931826
30
0
41
1
10
24.5946919993508
20
-1.85579391396715
30
0
41
1
10
24.8479427611385
20
-1.85516808456109
30
0
41
1
10
24.9579797045154
20
-1.85487751750938
30
0
0
SPLINE
5
A4
100
AcDbEntity
8
1
62
256
6
ByLayer
370
18
48
1
60
0
100
AcDbSpline
70
4
71
1
72
4
73
2
40
0
40
0
40
1
40
1
41
1
10
31.0023551241896
20
1.92958951868988
30
0
41
1
10
31.0023232389629
20
1.92959671433937
30
0
0
SPLINE
5
A5
100
AcDbEntity
8
1
62
256
6
ByLayer
370
18
48
1
60
0
100
AcDbSpline
70
4
71
3
72
15
73
11
40
0
40
0
40
0
40
0
40
0.19445338738681
40
0.347834094648415
40
0.477623911768859
40
0.556099050247885
40
0.648952457673314
40
0.77087177294801
40
0.892426455974634
40
1
40
1
40
1
40
1
41
1
10
27.373960184821
20
1.84786267764184
30
0
41
1
10
27.2016246458557
20
1.84869145719111
30
0
41
1
10
26.8933499727548
20
1.84998814161705
30
0
41
1
10
26.4700335411916
20
1.85108700196537
30
0
41
1
10
26.1495041021505
20
1.8519525675616
30
0
41
1
10
25.8826249183828
20
1.85260356317502
30
0
41
1
10
25.6227185606294
20
1.85312926483613
30
0
41
1
10
25.3246244688311
20
1.85384941186254
30
0
41
1
10
25.0135146452834
20
1.85474820307704
30
0
41
1
10
24.8103888373626
20
1.85525888726011
30
0
41
1
10
24.7150937517463
20
1.85549941269929
30
0
0
SPLINE
5
A6
100
AcDbEntity
8
1
62
256
6
ByLayer
370
18
48
1
60
0
100
AcDbSpline
70
4
71
3
72
12
73
8
40
0
40
0
40
0
40
0
40
0.338742184877307
40
0.579311776212552
40
0.761528883385464
40
0.991108247932789
40
1
40
1
40
1
40
1
41
1
10
5.07367342045413
20
-1.87035862067287
30
0
41
1
10
5.29689481413328
20
-1.87011827953177
30
0
41
1
10
5.67862612676578
20
-1.86955517446336
30
0
41
1
10
6.18061839052657
20
-1.86839045114309
30
0
41
1
10
6.61027530757428
20
-1.8673033174787
30
0
41
1
10
6.88753434547735
20
-1.86665255337473
30
0
41
1
10
7.04469578123241
20
-1.86619739790999
30
0
41
1
10
7.05055577367918
20
-1.8661803071484
30
0
0
SPLINE
5
A7
100
AcDbEntity
8
1
62
256
6
ByLayer
370
18
48
1
60
0
100
AcDbSpline
70
4
71
3
72
12
73
8
40
0
40
0
40
0
40
0
40
0.30654168100963
40
0.556150964226274
40
0.75749067942672
40
0.915781860921711
40
1
40
1
40
1
40
1
41
1
10
45.3626608895671
20
1.83901396194736
30
0
41
1
10
45.1060190292943
20
1.83949672878379
30
0
41
1
10
44.6402552574289
20
1.84041679990429
30
0
41
1
10
44.0055416218903
20
1.84154559685635
30
0
41
1
10
43.4947791721717
20
1.84286410530126
30
0
41
1
10
43.1222368132323
20
1.84354811835954
30
0
41
1
10
42.9190192204392
20
1.84367564147016
30
0
41
1
10
42.8483955159653
20
1.84372624342069
30
0
0
SPLINE
5
A8
100
AcDbEntity
8
1
62
256
6
ByLayer
370
18
48
1
60
0
100
AcDbSpline
70
4
71
1
72
4
73
2
40
0
40
0
40
1
40
1
41
1
10
48.9933230350269
20
-1.9309053666517
30
0
41
1
10
48.9933726896122
20
-1.93091804044729
30
0
0
SPLINE
5
A9
100
AcDbEntity
8
1
62
256
6
ByLayer
370
18
48
1
60
0
100
AcDbSpline
70
4
71
3
72
12
73
8
40
0
40
0
40
0
40
0
40
0.362932637924701
40
0.622754935679785
40
0.812483268533936
40
0.953166697054523
40
1
40
1
40
1
40
1
41
1
10
9.38564058011798
20
1.8566961458161
30
0
41
1
10
9.1340724265612
20
1.8578888922508
30
0
41
1
10
8.70242390832894
20
1.85986219147227
30
0
41
1
10
8.13896416250233
20
1.86184972732337
30
0
41
1
10
7.73008435960995
20
1.86373891153048
30
0
41
1
10
7.46841592858789
20
1.86477559488978
30
0
41
1
10
7.3383765062074
20
1.86524763847879
30
0
41
1
10
7.30590273049293
20
1.86536104572772
30
0
0
SPLINE
5
AA
100
AcDbEntity
8
1
62
256
6
ByLayer
370
18
48
1
60
0
100
AcDbSpline
70
4
71
1
72
4
73
2
40
0
40
0
40
1
40
1
41
1
10
48.9933726730697
20
1.93091803597352
30
0
41
1
10
48.9933230350314
20
1.93090536665107
30
0
0
SPLINE
5
AB
100
AcDbEntity
8
1
62
256
6
ByLayer
370
18
48
1
60
0
100
AcDbSpline
70
4
71
3
72
28
73
24
40
0
40
0
40
0
40
0
40
0.0399282718121436
40
0.0399282718121436
40
0.145003423896964
40
0.145003423896964
40
0.250078575981785
40
0.250078575981785
40
0.355153728066606
40
0.355153728066606
40
0.460228880151427
40
0.460228880151427
40
0.565304032236248
40
0.565304032236248
40
0.670379184321069
40
0.670379184321069
40
0.77545433640589
40
0.77545433640589
40
0.880529488490711
40
0.880529488490711
40
0.985604640575532
40
0.985604640575532
40
1
40
1
40
1
40
1
41
1
10
27.3524006347409
20
1.84798095878705
30
0
41
1
10
27.4625345930914
20
1.84748104877278
30
0
41
1
10
27.5727248602489
20
1.84597861030085
30
0
41
1
10
27.9731204493912
20
1.83707124886121
30
0
41
1
10
28.2628856193115
20
1.82420400133265
30
0
41
1
10
28.841631377337
20
1.78374197704778
30
0
41
1
10
29.1309081978457
20
1.7559779857647
30
0
41
1
10
29.709473815143
20
1.6879988483868
30
0
41
1
10
29.9988050419323
20
1.64768172488354
30
0
41
1
10
30.5781503324754
20
1.55475128420954
30
0
41
1
10
30.868397181813
20
1.50209103551433
30
0
41
1
10
31.4487057260304
20
1.38529515785655
30
0
41
1
10
31.7390100529542
20
1.32097298918055
30
0
41
1
10
32.3173068993409
20
1.18399835087183
30
0
41
1
10
32.6056077583
20
1.11105936111446
30
0
41
1
10
33.1809983247035
20
0.9574702769645
30
0
41
1
10
33.4682941664335
20
0.877263538036942
30
0
41
1
10
34.0420836923075
20
0.710349815235588
30
0
41
1
10
34.3287145727279
20
0.623983738314394
30
0
41
1
10
34.9020127524912
20
0.44749015627292
30
0
41
1
10
35.1885861454151
20
0.357174644682999
30
0
41
1
10
35.514853664255
20
0.25328508360758
30
0
41
1
10
35.554173549972
20
0.240748754811818
30
0
41
1
10
35.5935008384665
20
0.228196150198244
30
0
0
SPLINE
5
AC
100
AcDbEntity
8
1
62
256
6
ByLayer
370
13
48
1
60
0
100
AcDbSpline
70
4
71
3
72
12
73
8
40
0
40
0
40
0
40
0
40
0.425757254241925
40
0.425757254241925
40
0.919102570604611
40
0.919102570604611
40
1
40
1
40
1
40
1
41
1
10
35.5934998875031
20
0.228196453729623
30
0
41
1
10
35.8412321471676
20
0.149124512360657
30
0
41
1
10
36.0892581525832
20
0.0694067377543774
30
0
41
1
10
36.625569717425
20
-0.102950874310068
30
0
41
1
10
36.91390554812
20
-0.195854603173444
30
0
41
1
10
37.250696387327
20
-0.302735438551764
30
0
41
1
10
37.2981781152182
20
-0.317767579546086
30
0
41
1
10
37.3456862682949
20
-0.332769341719086
30
0
0
SPLINE
5
AD
100
AcDbEntity
8
1
62
256
6
ByLayer
370
18
48
1
60
0
100
AcDbSpline
70
4
71
3
72
8
73
4
40
0
40
0
40
0
40
0
40
1
40
1
40
1
40
1
41
1
10
37.3456862665487
20
-0.332769341167705
30
0
41
1
10
37.4925982669245
20
-0.379160091963115
30
0
41
1
10
37.6397629620968
20
-0.425260340730233
30
0
41
1
10
37.7869048396871
20
-0.470907468696254
30
0
0
SPLINE
5
AE
100
AcDbEntity
8
1
62
256
6
ByLayer
370
18
48
1
60
0
100
AcDbSpline
70
4
71
3
72
8
73
4
40
0
40
0
40
0
40
0
40
1
40
1
40
1
40
1
41
1
10
57.5313690096333
20
-1.05690993309605
30
0
41
1
10
57.6407020128433
20
-1.05860110264379
30
0
41
1
10
57.7495520021129
20
-1.05517893416712
30
0
41
1
10
57.8578500473557
20
-1.04591371201661
30
0
0
SPLINE
5
AF
100
AcDbEntity
8
1
62
256
6
ByLayer
370
18
48
1
60
0
100
AcDbSpline
70
4
71
3
72
34
73
30
40
0
40
0
40
0
40
0
40
0.0026926382709002
40
0.0026926382709002
40
0.0818912077915533
40
0.0818912077915533
40
0.161089777312206
40
0.161089777312206
40
0.240288346832859
40
0.240288346832859
40
0.319486916353513
40
0.319486916353513
40
0.398685485874166
40
0.398685485874166
40
0.477884055394819
40
0.477884055394819
40
0.557082624915472
40
0.557082624915472
40
0.636281194436125
40
0.636281194436125
40
0.715479763956778
40
0.715479763956778
40
0.794678333477431
40
0.794678333477431
40
0.873876902998084
40
0.873876902998084
40
0.953075472518737
40
0.953075472518737
40
1
40
1
40
1
40
1
41
1
10
42.8631304304817
20
-1.88038751849993
30
0
41
1
10
42.8466430543886
20
-1.88229804988131
30
0
41
1
10
42.8301564569089
20
-1.88418529748535
30
0
41
1
10
42.3287749064193
20
-1.94087170262057
30
0
41
1
10
41.8431432749635
20
-1.9756341099656
30
0
41
1
10
40.8731117905521
20
-2.00119059208856
30
0
41
1
10
40.3880765104965
20
-1.99213206048734
30
0
41
1
10
39.417396251728
20
-1.93233218898266
30
0
41
1
10
38.9328203095103
20
-1.88169193208154
30
0
41
1
10
37.9620267856079
20
-1.74000694957678
30
0
41
1
10
37.4769906843473
20
-1.64957379721372
30
0
41
1
10
36.5067159297202
20
-1.43574847871733
30
0
41
1
10
36.0210972923717
20
-1.31221776093099
30
0
41
1
10
35.0510687850253
20
-1.03959056378184
30
0
41
1
10
34.5653387228113
20
-0.890262060222511
30
0
41
1
10
33.595064683843
20
-0.576835556803758
30
0
41
1
10
33.1097088903697
20
-0.412120991088557
30
0
41
1
10
32.1389768394141
20
-0.0773875001039812
30
0
41
1
10
31.6542850280984
20
0.0922112872541447
30
0
41
1
10
30.682999029993
20
0.426457121327701
30
0
41
1
10
30.1981439154984
20
0.590625141710603
30
0
41
1
10
29.227562837803
20
0.90250252931159
30
0
41
1
10
28.7418550891732
20
1.05010696250548
30
0
41
1
10
27.7715571836567
20
1.31998530678936
30
0
41
1
10
27.2856345699974
20
1.44241429317808
30
0
41
1
10
26.3152877039777
20
1.65282019950092
30
0
41
1
10
25.8297050115675
20
1.74107559737846
30
0
41
1
10
25.0566854348573
20
1.85071604693869
30
0
41
1
10
24.7692772629078
20
1.88470857038047
30
0
41
1
10
24.4817527358835
20
1.91144003974978
30
0
0
SPLINE
5
B0
100
AcDbEntity
8
1
62
256
6
ByLayer
370
18
48
1
60
0
100
AcDbSpline
70
4
71
3
72
8
73
4
40
0
40
0
40
0
40
0
40
1
40
1
40
1
40
1
41
1
10
58.0317159374377
20
-1.10549292724082
30
0
41
1
10
58.1853668529083
20
-1.20688333455104
30
0
41
1
10
58.3422735969722
20
-1.29506196281369
30
0
41
1
10
58.501730615887
20
-1.37289186820124
30
0
0
SPLINE
5
B1
100
AcDbEntity
8
1
62
256
6
ByLayer
370
18
48
1
60
0
100
AcDbSpline
70
4
71
3
72
8
73
4
40
0
40
0
40
0
40
0
40
1
40
1
40
1
40
1
41
1
10
12.2308176524931
20
-2.03725313434825
30
0
41
1
10
12.2309047776064
20
-2.01729564919026
30
0
41
1
10
12.2309917463122
20
-1.99735877424956
30
0
41
1
10
12.2310785590115
20
-1.97744245668511
30
0
0
SPLINE
5
B2
100
AcDbEntity
8
1
62
256
6
ByLayer
370
18
48
1
60
0
100
AcDbSpline
70
4
71
3
72
8
73
4
40
0
40
0
40
0
40
0
40
1
40
1
40
1
40
1
41
1
10
50.0827197015664
20
0.0050586935092269
30
0
41
1
10
50.0564788398677
20
-0.0033729299298102
30
0
41
1
10
50.0302424089451
20
-0.0118035115002328
30
0
41
1
10
50.0040101800866
20
-0.0202323356792817
30
0
0
SPLINE
5
B3
100
AcDbEntity
8
1
62
256
6
ByLayer
370
18
48
1
60
0
100
AcDbSpline
70
4
71
3
72
26
73
22
40
0
40
0
40
0
40
0
40
0.0612637933057422
40
0.0612637933057422
40
0.139407127917564
40
0.139407127917564
40
0.295693797141208
40
0.295693797141208
40
0.451980466364852
40
0.451980466364852
40
0.530123800976674
40
0.530123800976674
40
0.608267135588496
40
0.608267135588496
40
0.686410470200318
40
0.686410470200318
40
0.764553804812141
40
0.764553804812141
40
0.920840474035781
40
0.920840474035781
40
1
40
1
40
1
40
1
41
1
10
41.0700165075355
20
-1.84606596543881
30
0
41
1
10
40.8390964767882
20
-1.84620753970145
30
0
41
1
10
40.608098633089
20
-1.84183564545722
30
0
41
1
10
40.0844452696334
20
-1.82174812014966
30
0
41
1
10
39.7917989951944
20
-1.80326523726228
30
0
41
1
10
38.9155924413866
20
-1.72725364541333
30
0
41
1
10
38.3337801784124
20
-1.64888840020183
30
0
41
1
10
37.1699500022215
20
-1.44376791312237
30
0
41
1
10
36.5879120244959
20
-1.31707756952287
30
0
41
1
10
35.7110556525424
20
-1.09829228227773
30
0
41
1
10
35.4181377615995
20
-1.02062182697074
30
0
41
1
10
34.8304051856854
20
-0.85721071341294
30
0
41
1
10
34.5353815690735
20
-0.771414212827096
30
0
41
1
10
33.946599298036
20
-0.594727625038473
30
0
41
1
10
33.6523870270743
20
-0.503719059235152
30
0
41
1
10
33.0636804514586
20
-0.318229423825017
30
0
41
1
10
32.7689256597002
20
-0.223705793348103
30
0
41
1
10
31.8855146291628
20
0.0612363466930788
30
0
41
1
10
31.2973065364273
20
0.253108864304266
30
0
41
1
10
30.4097547004302
20
0.53229342249233
30
0
41
1
10
30.1119046709072
20
0.624201113839348
30
0
41
1
10
29.8142690383176
20
0.713196689810218
30
0
0
SPLINE
5
B4
100
AcDbEntity
8
1
62
256
6
ByLayer
370
18
48
1
60
0
100
AcDbSpline
70
4
71
3
72
16
73
12
40
0
40
0
40
0
40
0
40
0.311767906103469
40
0.311767906103469
40
0.655883953051737
40
0.655883953051737
40
0.827941976525866
40
0.913970988262929
40
0.956985494131466
40
0.956985494131466
40
1
40
1
40
1
40
1
41
1
10
5.09655175378407
20
-1.87026845818502
30
0
41
1
10
4.83113854184063
20
-1.87054249107481
30
0
41
1
10
4.56591079477141
20
-1.86480395494195
30
0
41
1
10
4.0078169167432
20
-1.84013630537879
30
0
41
1
10
3.71493405164929
20
-1.81996067640168
30
0
41
1
10
3.2750137738436
20
-1.77902099732361
30
0
41
1
10
3.05490483505639
20
-1.75588167692615
30
0
41
1
10
2.79774689890456
20
-1.72424908781332
30
0
41
1
10
2.68744731331364
20
-1.70970194069591
30
0
41
1
10
2.61389324802352
20
-1.69978412279161
30
0
41
1
10
2.57667592411857
20
-1.69465457263652
30
0
41
1
10
2.54030768659666
20
-1.68953706358983
30
0
0
SPLINE
5
B5
100
AcDbEntity
8
1
62
256
6
ByLayer
370
18
48
1
60
0
100
AcDbSpline
70
4
71
3
72
24
73
20
40
0
40
0
40
0
40
0
40
0.250000000000001
40
0.250000000000001
40
0.500000000000001
40
0.500000000000001
40
0.750000000000002
40
0.750000000000002
40
0.781250000000002
40
0.781250000000002
40
0.789062500000002
40
0.789062500000002
40
0.796875000000002
40
0.796875000000002
40
0.812500000000002
40
0.812500000000002
40
0.875000000000001
40
0.875000000000001
40
1
40
1
40
1
40
1
41
1
10
56.846489700335
20
-0.12819735633289
30
0
41
1
10
57.0431289922016
20
-0.17038508498311
30
0
41
1
10
57.2392881328293
20
-0.196416367770951
30
0
41
1
10
57.6304614018191
20
-0.209950804739123
30
0
41
1
10
57.8257710009734
20
-0.197392562843476
30
0
41
1
10
58.2020352008155
20
-0.122281215846215
30
0
41
1
10
58.3833825323129
20
-0.0598783988031926
30
0
41
1
10
58.5726085975617
20
0.0414982808120214
30
0
41
1
10
58.5935675302975
20
0.0528973205268244
30
0
41
1
10
58.6193275682013
20
0.0680056847761819
30
0
41
1
10
58.6245815780808
20
0.0710212222980999
30
0
41
1
10
58.6324290232087
20
0.0807125315668031
30
0
41
1
10
58.6346320281496
20
0.0873731049135813
30
0
41
1
10
58.6345323458611
20
0.109025892714669
30
0
41
1
10
58.6335140029124
20
0.123593662571295
30
0
41
1
10
58.6299326461155
20
0.196214074978855
30
0
41
1
10
58.6253362656734
20
0.254494516655143
30
0
41
1
10
58.6072186280989
20
0.429530032760624
30
0
41
1
10
58.5894821125002
20
0.545909620455774
30
0
41
1
10
58.5676564122091
20
0.662064619979134
30
0
0
SPLINE
5
B6
100
AcDbEntity
8
1
62
256
6
ByLayer
370
18
48
1
60
0
100
AcDbSpline
70
4
71
3
72
12
73
8
40
0
40
0
40
0
40
0
40
0.214196668058908
40
0.214196668058908
40
0.476131112039272
40
0.476131112039272
40
1
40
1
40
1
40
1
41
1
10
7.16830230066205
20
-1.89726436306418
30
0
41
1
10
6.83810224962275
20
-1.94208426744802
30
0
41
1
10
6.5081260604365
20
-1.97741512391767
30
0
41
1
10
5.77380139547219
20
-2.03367953826009
30
0
41
1
10
5.36851820452452
20
-2.04966871440993
30
0
41
1
10
4.1555706579633
20
-2.05127198379685
30
0
41
1
10
3.34999445271649
20
-1.9907167698945
30
0
41
1
10
2.54000349518313
20
-1.87235090086574
30
0
0
SPLINE
5
B7
100
AcDbEntity
8
1
62
256
6
ByLayer
370
18
48
1
60
0
100
AcDbSpline
70
4
71
3
72
20
73
16
40
0
40
0
40
0
40
0
40
0.125
40
0.125
40
0.250000000000001
40
0.250000000000001
40
0.375000000000001
40
0.375000000000001
40
0.500000000000002
40
0.500000000000002
40
0.625000000000002
40
0.625000000000002
40
0.750000000000002
40
0.750000000000002
40
1
40
1
40
1
40
1
41
1
10
12.2308176524839
20
-2.03725313434867
30
0
41
1
10
11.9998215504229
20
-2.04790213425329
30
0
41
1
10
11.7687937373125
20
-2.05356633420243
30
0
41
1
10
11.3067160398793
20
-2.05491651211489
30
0
41
1
10
11.0757370660574
20
-2.05054018555617
30
0
41
1
10
10.6128471032249
20
-2.03176524872012
30
0
41
1
10
10.3809687094565
20
-2.01742083816365
30
0
41
1
10
9.91636949578594
20
-1.97876781395908
30
0
41
1
10
9.68373706202757
20
-1.95434314408794
30
0
41
1
10
9.21699022662679
20
-1.89575438788233
30
0
41
1
10
8.98244045818268
20
-1.86168591606906
30
0
41
1
10
8.51428289476414
20
-1.78449850047696
30
0
41
1
10
8.28054076167192
20
-1.74129273411017
30
0
41
1
10
7.57977571169769
20
-1.59845944754645
30
0
41
1
10
7.11204428356712
20
-1.48772295753233
30
0
41
1
10
6.64372338760572
20
-1.36142407738592
30
0
0
SPLINE
5
B8
100
AcDbEntity
8
1
62
256
6
ByLayer
370
18
48
1
60
0
100
AcDbSpline
70
4
71
3
72
8
73
4
40
0
40
0
40
0
40
0
40
1
40
1
40
1
40
1
41
1
10
58.7686737836327
20
0.613245589544391
30
0
41
1
10
58.7647146089421
20
0.613493700651532
30
0
41
1
10
58.7602429209136
20
0.613244647282016
30
0
41
1
10
58.7576466987145
20
0.610952677058151
30
0
0
SPLINE
5
B9
100
AcDbEntity
8
1
62
256
6
ByLayer
370
18
48
1
60
0
100
AcDbSpline
70
4
71
1
72
4
73
2
40
0
40
0
40
1
40
1
41
1
10
12.2311205203497
20
-2.00511099699906
30
0
41
1
10
12.2310785590109
20
-1.97744245678271
30
0
0
SPLINE
5
BA
100
AcDbEntity
8
1
62
256
6
ByLayer
370
18
48
1
60
0
100
AcDbSpline
70
4
71
3
72
8
73
4
40
0
40
0
40
0
40
0
40
1
40
1
40
1
40
1
41
1
10
56.8919369913561
20
-0.397546211462128
30
0
41
1
10
56.8755090487217
20
-0.307819515688493
30
0
41
1
10
56.8604530546471
20
-0.218026519172355
30
0
41
1
10
56.8464897003336
20
-0.128197356332492
30
0
0
SPLINE
5
BB
100
AcDbEntity
8
1
62
256
6
ByLayer
370
18
48
1
60
0
100
AcDbSpline
70
4
71
3
72
8
73
4
40
0
40
0
40
0
40
0
40
1
40
1
40
1
40
1
41
1
10
59.6381652923984
20
-0.0807762937464531
30
0
41
1
10
59.6406075170802
20
-0.0269421595385211
30
0
41
1
10
59.6406143390264
20
0.0267917828889495
30
0
41
1
10
59.6381652923984
20
0.0807762937461973
30
0
0
SPLINE
5
BC
100
AcDbEntity
8
1
62
256
6
ByLayer
370
18
48
1
60
0
100
AcDbSpline
70
4
71
3
72
30
73
26
40
0
40
0
40
0
40
0
40
0.0890079925158073
40
0.0890079925158073
40
0.178015985031615
40
0.178015985031615
40
0.267023977547422
40
0.267023977547422
40
0.356031970063229
40
0.356031970063229
40
0.445039962579036
40
0.445039962579036
40
0.534047955094844
40
0.534047955094844
40
0.623055947610651
40
0.623055947610651
40
0.712063940126458
40
0.712063940126458
40
0.801071932642266
40
0.801071932642266
40
0.890079925158073
40
0.890079925158073
40
0.97908791767388
40
0.97908791767388
40
1
40
1
40
1
40
1
41
1
10
58.8190009914834
20
-2.00390270318439
30
0
41
1
10
58.3338648299145
20
-2.00123600971182
30
0
41
1
10
57.8485220913617
20
-1.9768006998921
30
0
41
1
10
56.8790748370464
20
-1.88662279839997
30
0
41
1
10
56.3939419832279
20
-1.82067424082985
30
0
41
1
10
55.4241369851659
20
-1.650820166019
30
0
41
1
10
54.9397248179245
20
-1.54694913857705
30
0
41
1
10
53.969132227634
20
-1.30837619782528
30
0
41
1
10
53.4847672555843
20
-1.17426631452756
30
0
41
1
10
52.5147148707643
20
-0.883098120907505
30
0
41
1
10
52.029612623618
20
-0.726329764626087
30
0
41
1
10
51.0599002825034
20
-0.401403472023247
30
0
41
1
10
50.5743850231894
20
-0.232642678031084
30
0
41
1
10
49.6048137592034
20
0.105769948098612
30
0
41
1
10
49.1194114405186
20
0.275726605964564
30
0
41
1
10
48.1495194654957
20
0.605923332972509
30
0
41
1
10
47.6647099086533
20
0.766091346509199
30
0
41
1
10
46.694019324602
20
1.06649434711448
30
0
41
1
10
46.2096472897399
20
1.20638394914028
30
0
41
1
10
45.2391807936713
20
1.45799980252397
30
0
41
1
10
44.7540816121816
20
1.56960485140564
30
0
41
1
10
43.7841830556428
20
1.75619459437914
30
0
41
1
10
43.2985664787674
20
1.83122666699222
30
0
41
1
10
42.6997463099234
20
1.8989295225542
30
0
41
1
10
42.5857813088304
20
1.91070254865471
30
0
41
1
10
42.4717932198924
20
1.92134331012397
30
0
0
SPLINE
5
BD
100
AcDbEntity
8
1
62
256
6
ByLayer
370
18
48
1
60
0
100
AcDbSpline
70
4
71
3
72
24
73
20
40
0
40
0
40
0
40
0
40
0.0727867301520274
40
0.0727867301520274
40
0.188688388883024
40
0.188688388883024
40
0.304590047614021
40
0.304590047614021
40
0.420491706345017
40
0.420491706345017
40
0.536393365076014
40
0.536393365076014
40
0.65229502380701
40
0.65229502380701
40
0.768196682538007
40
0.768196682538007
40
0.884098341269003
40
0.884098341269003
40
1
40
1
40
1
40
1
41
1
10
24.8027278300241
20
-1.87860254057711
30
0
41
1
10
24.4980158745508
20
-1.91259680193605
30
0
41
1
10
24.1933039573998
20
-1.93862645725494
30
0
41
1
10
23.4024198933522
20
-1.98403275399477
30
0
41
1
10
22.9175685672547
20
-1.99044138871298
30
0
41
1
10
21.9466061222507
20
-1.96112734818365
30
0
41
1
10
21.4609753418547
20
-1.92534013822555
30
0
41
1
10
20.4904157322656
20
-1.81275286544417
30
0
41
1
10
20.0044472862178
20
-1.73599888272037
30
0
41
1
10
19.0338579753992
20
-1.54786270089414
30
0
41
1
10
18.5480415011839
20
-1.43600300454605
30
0
41
1
10
17.5771978721199
20
-1.18338443364419
30
0
41
1
10
17.0920164242059
20
-1.0429642626639
30
0
41
1
10
16.1203931271586
20
-0.742719018153991
30
0
41
1
10
15.6355181706204
20
-0.583280373448616
30
0
41
1
10
14.6641964030168
20
-0.254985812329778
30
0
41
1
10
14.1787602612643
20
-0.0865890222178223
30
0
41
1
10
13.2095386161485
20
0.247922794255942
30
0
41
1
10
12.7250435729378
20
0.414092442054994
30
0
41
1
10
12.2389384045834
20
0.574116031561772
30
0
0
SPLINE
5
BE
100
AcDbEntity
8
1
62
256
6
ByLayer
370
18
48
1
60
0
100
AcDbSpline
70
4
71
3
72
28
73
24
40
0
40
0
40
0
40
0
40
0.133446311793142
40
0.133446311793142
40
0.274274427106716
40
0.274274427106716
40
0.415102542420289
40
0.415102542420289
40
0.555930657733864
40
0.564732414940962
40
0.564732414940962
40
0.57353417214806
40
0.57353417214806
40
0.582335929355159
40
0.582335929355159
40
0.591137686562257
40
0.62634471539065
40
0.62634471539065
40
0.696758773047437
40
0.696758773047437
40
0.837586888361011
40
0.837586888361011
40
1
40
1
40
1
40
1
41
1
10
6.64372338760572
20
1.64241714994176
30
0
41
1
10
6.64372338760572
20
1.51516491077891
30
0
41
1
10
6.64372338760569
20
1.38375184853575
30
0
41
1
10
6.64372338760569
20
1.10518565643196
30
0
41
1
10
6.64372338760569
20
0.95732452814724
30
0
41
1
10
6.64372338760569
20
0.658678352606586
30
0
41
1
10
6.64372338760572
20
0.507144536356606
30
0
41
1
10
6.64372338760572
20
0.199709920645859
30
0
41
1
10
6.64372338760569
20
0.0337662465988728
30
0
41
1
10
6.64372338760569
20
-0.132834746284459
30
0
41
1
10
6.64372338760569
20
-0.152438046680544
30
0
41
1
10
6.64372338760572
20
-0.162636413107236
30
0
41
1
10
6.64372338760572
20
-0.180578709759118
30
0
41
1
10
6.64372338760572
20
-0.188957741990436
30
0
41
1
10
6.64372338760572
20
-0.206211458918943
30
0
41
1
10
6.64372338760569
20
-0.249303250693345
30
0
41
1
10
6.64372338760572
20
-0.292178245559967
30
0
41
1
10
6.64372338760572
20
-0.394660146341437
30
0
41
1
10
6.64372338760572
20
-0.46240597304859
30
0
41
1
10
6.64372338760572
20
-0.663895117567478
30
0
41
1
10
6.64372338760572
20
-0.795770287331919
30
0
41
1
10
6.64372338760572
20
-1.07428596312312
30
0
41
1
10
6.64372338760572
20
-1.21975793139453
30
0
41
1
10
6.64372338760572
20
-1.36142407738592
30
0
0
SPLINE
5
BF
100
AcDbEntity
8
1
62
256
6
ByLayer
370
18
48
1
60
0
100
AcDbSpline
70
4
71
3
72
8
73
4
40
0
40
0
40
0
40
0
40
1
40
1
40
1
40
1
41
1
10
56.343401538156
20
-0.200600828895375
30
0
41
1
10
56.525574406838
20
-0.266407308019524
30
0
41
1
10
56.7083783928768
20
-0.332134633803349
30
0
41
1
10
56.8919369919027
20
-0.397546211228786
30
0
0
SPLINE
5
C0
100
AcDbEntity
8
1
62
256
6
ByLayer
370
18
48
1
60
0
100
AcDbSpline
70
4
71
3
72
32
73
28
40
0
40
0
40
0
40
0
40
0.0253253795952893
40
0.0253253795952893
40
0.109182876645318
40
0.109182876645318
40
0.193040373695347
40
0.193040373695347
40
0.276897870745376
40
0.276897870745376
40
0.360755367795405
40
0.360755367795405
40
0.444612864845434
40
0.444612864845434
40
0.528470361895462
40
0.528470361895462
40
0.612327858945491
40
0.612327858945491
40
0.696185355995521
40
0.696185355995521
40
0.780042853045549
40
0.780042853045549
40
0.863900350095578
40
0.863900350095578
40
0.947757847145607
40
0.947757847145607
40
1
40
1
40
1
40
1
41
1
10
36.4913618374389
20
-0.0084584215161669
30
0
41
1
10
36.4046665627698
20
0.0201795120543693
30
0
41
1
10
36.3180252460555
20
0.0487904010919351
30
0
41
1
10
35.9446613999853
20
0.171847197982459
30
0
41
1
10
35.6584652989309
20
0.265928051448356
30
0
41
1
10
35.0867488813017
20
0.451385005448032
30
0
41
1
10
34.8012398332186
20
0.542718060664299
30
0
41
1
10
34.2299574166004
20
0.720631484776646
30
0
41
1
10
33.9443231958662
20
0.807407903403487
30
0
41
1
10
33.3723603597803
20
0.974315540564703
30
0
41
1
10
33.0859335702141
20
1.05418173468507
30
0
41
1
10
32.5122398942308
20
1.20667256057467
30
0
41
1
10
32.224625254028
20
1.27853257119838
30
0
41
1
10
31.6477358183602
20
1.41315953078862
30
0
41
1
10
31.3581161187535
20
1.4758195036469
30
0
41
1
10
30.7795290472264
20
1.58859963638352
30
0
41
1
10
30.4902448946712
20
1.6389784970128
30
0
41
1
10
29.9128375921603
20
1.72684160964516
30
0
41
1
10
29.6244393048507
20
1.76440945199965
30
0
41
1
10
29.0476864880634
20
1.82641266829654
30
0
41
1
10
28.7592891850598
20
1.85086084993426
30
0
41
1
10
28.1822310734853
20
1.88410490281333
30
0
41
1
10
27.8930618034543
20
1.89341426249857
30
0
41
1
10
27.3146942839704
20
1.89878221119022
30
0
41
1
10
27.0259412933793
20
1.89467898781493
30
0
41
1
10
26.5578037168883
20
1.87541168953456
30
0
41
1
10
26.3781934554647
20
1.8651408624948
30
0
41
1
10
26.1985850103185
20
1.85213016235593
30
0
0
SPLINE
5
C1
100
AcDbEntity
8
1
62
256
6
ByLayer
370
18
48
1
60
0
100
AcDbSpline
70
4
71
3
72
32
73
28
40
0
40
0
40
0
40
0
40
0.0110280324245823
40
0.0110280324245823
40
0.0933257754546927
40
0.0933257754546927
40
0.175623518484803
40
0.175623518484803
40
0.257921261514914
40
0.257921261514914
40
0.340219004545024
40
0.340219004545024
40
0.422516747575135
40
0.422516747575135
40
0.504814490605245
40
0.504814490605245
40
0.669409976665466
40
0.669409976665466
40
0.751707719695575
40
0.751707719695575
40
0.834005462725685
40
0.834005462725685
40
0.916303205755795
40
0.916303205755795
40
0.998600948785904
40
0.998600948785904
40
1
40
1
40
1
40
1
41
1
10
9.35199216594714
20
1.85686002029001
30
0
41
1
10
9.39036249703935
20
1.85667747272683
30
0
41
1
10
9.42873251812716
20
1.85636437561757
30
0
41
1
10
9.7534461208389
20
1.85260151622131
30
0
41
1
10
10.0397783896982
20
1.84264883766554
30
0
41
1
10
10.6129180345446
20
1.80940711657067
30
0
41
1
10
10.8998690662281
20
1.78544509863212
30
0
41
1
10
11.4749739886904
20
1.72407033597054
30
0
41
1
10
11.7630485465468
20
1.68705076988903
30
0
41
1
10
12.3408263167907
20
1.6004547390379
30
0
41
1
10
12.6311907772173
20
1.55029230015847
30
0
41
1
10
13.2105156677954
20
1.43866462680046
30
0
41
1
10
13.4997278037212
20
1.37750961333796
30
0
41
1
10
14.077988241177
20
1.24533418468673
30
0
41
1
10
14.367088071981
20
1.17404394217223
30
0
41
1
10
15.2350892596088
20
0.947273709571334
30
0
41
1
10
15.8156043682185
20
0.779201308024597
30
0
41
1
10
16.6834937859198
20
0.513701579858378
30
0
41
1
10
16.972588311042
20
0.423015327502043
30
0
41
1
10
17.550912688454
20
0.239126278148603
30
0
41
1
10
17.8401000422566
20
0.145885812742648
30
0
41
1
10
18.4192150636247
20
-0.0413088698572324
30
0
41
1
10
18.7094348284221
20
-0.135392696234675
30
0
41
1
10
19.2886533901534
20
-0.321004622364171
30
0
41
1
10
19.5779133028267
20
-0.412529738400877
30
0
41
1
10
19.8719830372974
20
-0.503790123951234
30
0
41
1
10
19.8768985704041
20
-0.505315195941336
30
0
41
1
10
19.8818140549164
20
-0.506839849171172
30
0
0
SPLINE
5
C2
100
AcDbEntity
8
1
62
256
6
ByLayer
370
18
48
1
60
0
100
AcDbSpline
70
4
71
3
72
30
73
26
40
0
40
0
40
0
40
0
40
0.0530095939822937
40
0.0530095939822937
40
0.136888218945753
40
0.136888218945753
40
0.220766843909213
40
0.220766843909213
40
0.304645468872672
40
0.304645468872672
40
0.388524093836131
40
0.388524093836131
40
0.472402718799591
40
0.472402718799591
40
0.55628134376305
40
0.55628134376305
40
0.640159968726509
40
0.640159968726509
40
0.724038593689969
40
0.724038593689969
40
0.807917218653428
40
0.807917218653428
40
0.891795843616888
40
0.891795843616888
40
1
40
1
40
1
40
1
41
1
10
45.3462735453278
20
1.83911794128986
30
0
41
1
10
45.5292635957333
20
1.83833816310459
30
0
41
1
10
45.7122416395652
20
1.83483665973819
30
0
41
1
10
46.1848820113523
20
1.819880357275
30
0
41
1
10
46.4748044006967
20
1.80429869986673
30
0
41
1
10
47.0555027513955
20
1.75730413418012
30
0
41
1
10
47.3453868469978
20
1.72648593749989
30
0
41
1
10
47.9247467024601
20
1.65230519283961
30
0
41
1
10
48.2142179131369
20
1.60897015032322
30
0
41
1
10
48.7931835305889
20
1.51125248695101
30
0
41
1
10
49.0826946925736
20
1.45643036577852
30
0
41
1
10
49.6627998464683
20
1.33523865859016
30
0
41
1
10
49.9534723570057
20
1.26900447639687
30
0
41
1
10
50.5332552478872
20
1.12805571728541
30
0
41
1
10
50.8227451515624
20
1.05317356244265
30
0
41
1
10
51.4016027764505
20
0.89579349586333
30
0
41
1
10
51.6909461925263
20
0.813393935553734
30
0
41
1
10
52.269911513916
20
0.643131610823701
30
0
41
1
10
52.5595989730759
20
0.555112365479999
30
0
41
1
10
53.1400601280632
20
0.375205744449374
30
0
41
1
10
53.4304153135707
20
0.283469940832305
30
0
41
1
10
54.0085799671523
20
0.0995205179300456
30
0
41
1
10
54.2968712915238
20
0.007104513803796
30
0
41
1
10
54.955861046112
20
-0.203830493454206
30
0
41
1
10
55.3262719478002
20
-0.321379919867923
30
0
41
1
10
55.6964145642781
20
-0.436279202254667
30
0
0
SPLINE
5
C3
100
AcDbEntity
8
1
62
256
6
ByLayer
370
18
48
1
60
0
100
AcDbSpline
70
4
71
3
72
8
73
4
40
0
40
0
40
0
40
0
40
1
40
1
40
1
40
1
41
1
10
57.8190800864972
20
-1.05063344933086
30
0
41
1
10
57.8899257839147
20
-1.06914355276524
30
0
41
1
10
57.960803362173
20
-1.08743240877419
30
0
41
1
10
58.0317159374465
20
-1.10549292724647
30
0
0
SPLINE
5
C4
100
AcDbEntity
8
1
62
256
6
ByLayer
370
18
48
1
60
0
100
AcDbSpline
70
4
71
3
72
10
73
6
40
0
40
0
40
0
40
0
40
0.5
40
0.5
40
1
40
1
40
1
40
1
41
1
10
58.9904038816199
20
-1.95266441578946
30
0
41
1
10
58.9692899269205
20
-1.98308638133903
30
0
41
1
10
58.947393960751
20
-2.00864367158687
30
0
41
1
10
58.9027804145245
20
-2.04851482634118
30
0
41
1
10
58.8800327260839
20
-2.06296926990765
30
0
41
1
10
58.8566517238857
20
-2.07211186631818
30
0
0
SPLINE
5
C5
100
AcDbEntity
8
1
62
256
6
ByLayer
370
18
48
1
60
0
100
AcDbSpline
70
4
71
3
72
8
73
4
40
0
40
0
40
0
40
0
40
1
40
1
40
1
40
1
41
1
10
59.5450103256313
20
0.564483477615852
30
0
41
1
10
59.5242341788915
20
0.631710471009626
30
0
41
1
10
59.4983704083702
20
0.704264413296499
30
0
41
1
10
59.4692725498091
20
0.780812934516035
30
0
0
SPLINE
5
C6
100
AcDbEntity
8
1
62
256
6
ByLayer
370
18
48
1
60
0
100
AcDbSpline
70
4
71
3
72
34
73
30
40
0
40
0
40
0
40
0
40
0.0734731211107216
40
0.0734731211107216
40
0.146946242221443
40
0.146946242221443
40
0.220419363332165
40
0.220419363332165
40
0.293892484442886
40
0.293892484442886
40
0.367365605553608
40
0.367365605553608
40
0.440838726664329
40
0.440838726664329
40
0.514311847775051
40
0.514311847775051
40
0.587784968885772
40
0.587784968885772
40
0.661258089996494
40
0.661258089996494
40
0.734731211107216
40
0.734731211107216
40
0.808204332217937
40
0.808204332217937
40
0.881677453328659
40
0.881677453328659
40
0.95515057443938
40
0.95515057443938
40
1
40
1
40
1
40
1
41
1
10
12.2311205203533
20
2.00511099938234
30
0
41
1
10
12.6938900064023
20
1.97072313428453
30
0
41
1
10
13.1555770452922
20
1.91757442471899
30
0
41
1
10
14.0756041247912
20
1.77271111295437
30
0
41
1
10
14.5343243402311
20
1.680932730195
30
0
41
1
10
15.4533271030111
20
1.46546821000805
30
0
41
1
10
15.9121349491757
20
1.34262019826471
30
0
41
1
10
16.8320987089479
20
1.07537809327448
30
0
41
1
10
17.2928599732071
20
0.931238674446092
30
0
41
1
10
18.2132310308281
20
0.627712930175818
30
0
41
1
10
18.673602094949
20
0.466758877746912
30
0
41
1
10
19.592305458061
20
0.137487534919387
30
0
41
1
10
20.0517480451093
20
-0.0305210790098158
30
0
41
1
10
20.9710332947235
20
-0.36237009103354
30
0
41
1
10
21.4297648456338
20
-0.526508654189996
30
0
41
1
10
22.348906783614
20
-0.841710358482374
30
0
41
1
10
22.8084728110827
20
-0.991899317062888
30
0
41
1
10
23.7277654903289
20
-1.26937311397919
30
0
41
1
10
24.1880340669889
20
-1.3974489778027
30
0
41
1
10
25.106672713875
20
-1.62444981263863
30
0
41
1
10
25.5665644993327
20
-1.72312068999725
30
0
41
1
10
26.4860035464426
20
-1.8847897544843
30
0
41
1
10
26.9450616657741
20
-1.94812731785373
30
0
41
1
10
27.864429286235
20
-2.03628841941622
30
0
41
1
10
28.3233048753368
20
-2.06053735557524
30
0
41
1
10
29.2424899466928
20
-2.06864207086801
30
0
41
1
10
29.702798267617
20
-2.05264930639834
30
0
41
1
10
30.4424503070334
20
-1.99496658375784
30
0
41
1
10
30.7230316054328
20
-1.96566423170137
30
0
41
1
10
31.0036153725913
20
-1.92941164032592
30
0
0
SPLINE
5
C7
100
AcDbEntity
8
1
62
256
6
ByLayer
370
18
48
1
60
0
100
AcDbSpline
70
4
71
3
72
20
73
16
40
0
40
0
40
0
40
0
40
0.130937611267178
40
0.130937611267178
40
0.275781342722648
40
0.275781342722648
40
0.420625074178119
40
0.420625074178119
40
0.565468805633589
40
0.565468805633589
40
0.710312537089059
40
0.710312537089059
40
0.85515626854453
40
0.85515626854453
40
1
40
1
40
1
40
1
41
1
10
46.8325319951152
20
2.07639777222769
30
0
41
1
10
47.2479341225552
20
2.07657250238185
30
0
41
1
10
47.6635126298671
20
2.06030150108106
30
0
41
1
10
48.5376771870402
20
1.99197952599539
30
0
41
1
10
48.997666272167
20
1.93636807767118
30
0
41
1
10
49.9165312849704
20
1.78941544210241
30
0
41
1
10
50.3757067452417
20
1.69772887077542
30
0
41
1
10
51.2941394171264
20
1.48142531739623
30
0
41
1
10
51.7523184724689
20
1.35749913490858
30
0
41
1
10
52.6703329432378
20
1.08555662106474
30
0
41
1
10
53.1293763640948
20
0.937494115153015
30
0
41
1
10
54.0467399106113
20
0.626578681246457
30
0
41
1
10
54.5065490598817
20
0.463832823268973
30
0
41
1
10
55.4250856557358
20
0.134162354146014
30
0
41
1
10
55.8839674824856
20
-0.0332224573999724
30
0
41
1
10
56.3434015381562
20
-0.20060082889546
30
0
0
SPLINE
5
C8
100
AcDbEntity
8
1
62
256
6
ByLayer
370
18
48
1
60
0
100
AcDbSpline
70
4
71
3
72
8
73
4
40
0
40
0
40
0
40
0
40
1
40
1
40
1
40
1
41
1
10
58.8566517238857
20
-2.07211186631818
30
0
41
1
10
58.8467152860933
20
-2.04947352819929
30
0
41
1
10
58.8341213843151
20
-2.02683775589702
30
0
41
1
10
58.819000991479
20
-2.0039027031867
30
0
0
SPLINE
5
C9
100
AcDbEntity
8
1
62
256
6
ByLayer
370
18
48
1
60
0
100
AcDbSpline
70
4
71
3
72
10
73
6
40
0
40
0
40
0
40
0
40
0.933269730804983
40
0.933269730804983
40
1
40
1
40
1
40
1
41
1
10
12.2308176524837
20
2.03725313434867
30
0
41
1
10
11.9998215504227
20
2.04790213425329
30
0
41
1
10
11.7687937373124
20
2.05356633420243
30
0
41
1
10
11.5212352436737
20
2.05428969309207
30
0
41
1
10
11.5047159048608
20
2.05431213777834
30
0
41
1
10
11.4881966799203
20
2.0543087719395
30
0
0
SPLINE
5
CA
100
AcDbEntity
8
1
62
256
6
ByLayer
370
18
48
1
60
0
100
AcDbSpline
70
4
71
3
72
12
73
8
40
0
40
0
40
0
40
0
40
0.25
40
0.25
40
0.5
40
0.5
40
1
40
1
40
1
40
1
41
1
10
59.4692725498108
20
0.780812934516632
30
0
41
1
10
59.3988591733871
20
0.768811266348877
30
0
41
1
10
59.3278247832839
20
0.761166565394461
30
0
41
1
10
59.1852679110132
20
0.749091314991972
30
0
41
1
10
59.1137258669901
20
0.744818270808935
30
0
41
1
10
58.8986999326496
20
0.734597557992771
30
0
41
1
10
58.7550957616308
20
0.731340636047463
30
0
41
1
10
58.6114289368441
20
0.729459754216123
30
0
0
SPLINE
5
CB
100
AcDbEntity
8
1
62
256
6
ByLayer
370
18
48
1
60
0
100
AcDbSpline
70
4
71
3
72
36
73
32
40
0
40
0
40
0
40
0
40
0.0084066911211968
40
0.0084066911211968
40
0.080556359917551
40
0.080556359917551
40
0.152706028713905
40
0.152706028713905
40
0.224855697510259
40
0.224855697510259
40
0.297005366306613
40
0.297005366306613
40
0.369155035102968
40
0.369155035102968
40
0.441304703899322
40
0.441304703899322
40
0.513454372695676
40
0.513454372695676
40
0.58560404149203
40
0.58560404149203
40
0.657753710288384
40
0.657753710288384
40
0.729903379084738
40
0.729903379084738
40
0.802053047881093
40
0.802053047881093
40
0.874202716677447
40
0.874202716677447
40
0.946352385473801
40
0.946352385473801
40
1
40
1
40
1
40
1
41
1
10
22.2767061336984
20
2.06104555488761
30
0
41
1
10
22.3333152365348
20
2.061081172158
30
0
41
1
10
22.3899250396136
20
2.06081249088368
30
0
41
1
10
22.9323886946096
20
2.05531001803769
30
0
41
1
10
23.4178545915609
20
2.02818843750836
30
0
41
1
10
24.3904749310355
20
1.93069882365538
30
0
41
1
10
24.8753084679105
20
1.86018285199322
30
0
41
1
10
25.8468569909598
20
1.68082233822523
30
0
41
1
10
26.3330493952009
20
1.57231657128554
30
0
41
1
10
27.3042148867675
20
1.3232341378102
30
0
41
1
10
27.7901427272804
20
1.18187335892765
30
0
41
1
10
28.7611258884267
20
0.878534140675157
30
0
41
1
10
29.2475999989431
20
0.716421706671241
30
0
41
1
10
30.2191483081913
20
0.379349790803218
30
0
41
1
10
30.7042721074713
20
0.203733452601966
30
0
41
1
10
31.6760973421952
20
-0.147380660833079
30
0
41
1
10
32.1613310374428
20
-0.322160584034663
30
0
41
1
10
33.1330749961969
20
-0.662901344185457
30
0
41
1
10
33.6183443328908
20
-0.82885078934595
30
0
41
1
10
34.5893037771944
20
-1.13794259457401
30
0
41
1
10
35.0757215879565
20
-1.2812665235268
30
0
41
1
10
36.0467386969326
20
-1.53807221781477
30
0
41
1
10
36.5326136835129
20
-1.65208573354707
30
0
41
1
10
37.5034769643923
20
-1.84113984695466
30
0
41
1
10
37.9893047645996
20
-1.91649464901659
30
0
41
1
10
38.9607681123731
20
-2.02510151794857
30
0
41
1
10
39.4453475923168
20
-2.05815082440804
30
0
41
1
10
40.4170382394417
20
-2.07909324500272
30
0
41
1
10
40.9025127197411
20
-2.06719131146326
30
0
41
1
10
41.7490532256563
20
-2.00804172550178
30
0
41
1
10
42.1100962075078
20
-1.97043050278751
30
0
41
1
10
42.4710141994424
20
-1.92140979946748
30
0
0
SPLINE
5
CC
100
AcDbEntity
8
1
62
256
6
ByLayer
370
18
48
1
60
0
100
AcDbSpline
70
4
71
3
72
8
73
4
40
0
40
0
40
0
40
0
40
1
40
1
40
1
40
1
41
1
10
58.2490758648941
20
2.08354435034775
30
0
41
1
10
58.4514519903172
20
2.08368412989446
30
0
41
1
10
58.6539436903215
20
2.07988800532363
30
0
41
1
10
58.8566517238858
20
2.07211186631818
30
0
0
SPLINE
5
CD
100
AcDbEntity
8
1
62
256
6
ByLayer
370
18
48
1
60
0
100
AcDbSpline
70
4
71
3
72
26
73
22
40
0
40
0
40
0
40
0
40
0.080729634364315
40
0.080729634364315
40
0.24514844549591
40
0.24514844549591
40
0.409567256627504
40
0.409567256627504
40
0.491776662193301
40
0.491776662193301
40
0.573986067759099
40
0.573986067759099
40
0.656195473324896
40
0.656195473324896
40
0.738404878890693
40
0.738404878890693
40
0.902823690022291
40
0.902823690022291
40
0.985033095588092
40
0.985033095588092
40
1
40
1
40
1
40
1
41
1
10
13.9670837524024
20
-0.0131694469845058
30
0
41
1
10
14.2553275349281
20
-0.109496991832401
30
0
41
1
10
14.5435324745141
20
-0.205731115735404
30
0
41
1
10
15.4195918272717
20
-0.494661327546481
30
0
41
1
10
16.0091197892943
20
-0.684196145300348
30
0
41
1
10
17.1837743729922
20
-1.03417602438299
30
0
41
1
10
17.7703279114821
20
-1.19524191483052
30
0
41
1
10
18.6530974435111
20
-1.40552434296018
30
0
41
1
10
18.9477546369537
20
-1.47035917960213
30
0
41
1
10
19.5356136717132
20
-1.58755249933588
30
0
41
1
10
19.8292048147408
20
-1.64004020151549
30
0
41
1
10
20.4163730795779
20
-1.73170623747512
30
0
41
1
10
20.7099494764792
20
-1.77084580050763
30
0
41
1
10
21.2978033767982
20
-1.83486632310655
30
0
41
1
10
21.5924519063871
20
-1.85981986714131
30
0
41
1
10
22.4754294482902
20
-1.91223063733611
30
0
41
1
10
23.0621056880927
20
-1.9170440391712
30
0
41
1
10
23.9432601059362
20
-1.87934999465156
30
0
41
1
10
24.2371685977936
20
-1.85925334386596
30
0
41
1
10
24.5852290713208
20
-1.82686801570418
30
0
41
1
10
24.6388388428373
20
-1.82164003123069
30
0
41
1
10
24.692446732307
20
-1.8161749270381
30
0
0
SPLINE
5
CE
100
AcDbEntity
8
1
62
256
6
ByLayer
370
18
48
1
60
0
100
AcDbSpline
70
4
71
3
72
8
73
4
40
0
40
0
40
0
40
0
40
1
40
1
40
1
40
1
41
1
10
31.9404014587224
20
0.007544316222436
30
0
41
1
10
31.963650592562
20
0.0152643419044693
30
0
41
1
10
31.9869001283469
20
0.02298416443017
30
0
41
1
10
32.0101501820409
20
0.0307032592767769
30
0
0
SPLINE
5
CF
100
AcDbEntity
8
1
62
256
6
ByLayer
370
18
48
1
60
0
100
AcDbSpline
70
4
71
3
72
20
73
16
40
0
40
0
40
0
40
0
40
0.0170058159498764
40
0.0170058159498764
40
0.213604652759904
40
0.213604652759904
40
0.311904071164917
40
0.311904071164917
40
0.410203489569931
40
0.410203489569931
40
0.606802326379953
40
0.606802326379953
40
0.803401163189977
40
0.803401163189977
40
1
40
1
40
1
40
1
41
1
10
49.9284161629102
20
-0.0068578235632231
30
0
41
1
10
49.9794000217713
20
-0.0236815730179103
30
0
41
1
10
50.0303998883043
20
-0.0405087236782435
30
0
41
1
10
50.671216270475
20
-0.251844025360555
30
0
41
1
10
51.2585857947932
20
-0.444411283589488
30
0
41
1
10
52.1399426579357
20
-0.71835343215119
30
0
41
1
10
52.4337779349393
20
-0.807191041203907
30
0
41
1
10
53.0222404772034
20
-0.977928749506447
30
0
41
1
10
53.3174265275828
20
-1.05998182138495
30
0
41
1
10
54.2003721061221
20
-1.29178503734718
30
0
41
1
10
54.7851349409936
20
-1.42707648732437
30
0
41
1
10
55.9520193010161
20
-1.64880159591243
30
0
41
1
10
56.5341413054752
20
-1.73532283399257
30
0
41
1
10
57.7008599567095
20
-1.85226490701635
30
0
41
1
10
58.2854827783545
20
-1.88299985446963
30
0
41
1
10
58.8738209650489
20
-1.88347059824974
30
0
0
SPLINE
5
D0
100
AcDbEntity
8
1
62
256
6
ByLayer
370
18
48
1
60
0
100
AcDbSpline
70
4
71
3
72
12
73
8
40
0
40
0
40
0
40
0
40
0.250000000000041
40
0.250000000000041
40
0.500000000000082
40
0.500000000000082
40
1
40
1
40
1
40
1
41
1
10
57.8578500473608
20
-1.04591371201133
30
0
41
1
10
57.8724722784916
20
-1.0446627363408
30
0
41
1
10
57.887257163677
20
-1.04682391998671
30
0
41
1
10
57.9169241295451
20
-1.05318525654681
30
0
41
1
10
57.9317813576282
20
-1.05768000760966
30
0
41
1
10
57.9755363199538
20
-1.07361240082264
30
0
41
1
10
58.0040909548793
20
-1.08726389017494
30
0
41
1
10
58.0317159374374
20
-1.10549292724059
30
0
0
SPLINE
5
D1
100
AcDbEntity
8
1
62
256
6
ByLayer
370
18
48
1
60
0
100
AcDbSpline
70
4
71
3
72
14
73
10
40
0
40
0
40
0
40
0
40
0.25
40
0.25
40
0.5
40
0.5
40
0.75
40
0.75
40
1
40
1
40
1
40
1
41
1
10
58.5676564122091
20
0.662064619979134
30
0
41
1
10
58.5662080257034
20
0.669772841554106
30
0
41
1
10
58.5654646711113
20
0.677535427765122
30
0
41
1
10
58.5663287577177
20
0.693243716667354
30
0
41
1
10
58.5679881134043
20
0.701172108666583
30
0
41
1
10
58.5753324022231
20
0.715151311171098
30
0
41
1
10
58.5812302275449
20
0.721001277774491
30
0
41
1
10
58.5955110806098
20
0.728031968084224
30
0
41
1
10
58.6034937574177
20
0.729355867085502
30
0
41
1
10
58.6114289368433
20
0.729459754220244
30
0
0
SPLINE
5
D2
100
AcDbEntity
8
1
62
256
6
ByLayer
370
18
48
1
60
0
100
AcDbSpline
70
4
71
3
72
8
73
4
40
0
40
0
40
0
40
0
40
1
40
1
40
1
40
1
41
1
10
59.5450103256311
20
0.564483477615909
30
0
41
1
10
59.5883817679077
20
0.403546767424587
30
0
41
1
10
59.6208375940161
20
0.24234512057194
30
0
41
1
10
59.6381652923984
20
0.0807762937461973
30
0
0
SPLINE
5
D3
100
AcDbEntity
8
1
62
256
6
ByLayer
370
18
48
1
60
0
100
AcDbSpline
70
4
71
3
72
8
73
4
40
0
40
0
40
0
40
0
40
1
40
1
40
1
40
1
41
1
10
58.8738209650491
20
-1.88347059824977
30
0
41
1
10
58.8556284481384
20
-1.9237251734439
30
0
41
1
10
58.8373562287816
20
-1.96386989855739
30
0
41
1
10
58.8190009914809
20
-2.00390270317689
30
0
0
SPLINE
5
D4
100
AcDbEntity
8
1
62
256
6
ByLayer
370
18
48
1
60
0
100
AcDbSpline
70
4
71
3
72
8
73
4
40
0
40
0
40
0
40
0
40
1
40
1
40
1
40
1
41
1
10
58.9904038816199
20
-1.95266441578954
30
0
41
1
10
59.1480010788698
20
-1.56185206348343
30
0
41
1
10
59.3076578020516
20
-1.17117044110373
30
0
41
1
10
59.4692725498091
20
-0.78081293451595
30
0
0
SPLINE
5
D5
100
AcDbEntity
8
1
62
256
6
ByLayer
370
18
48
1
60
0
100
AcDbSpline
70
4
71
3
72
54
73
50
40
0
40
0
40
0
40
0
40
0.124999999999986
40
0.124999999999986
40
0.249999999999972
40
0.249999999999972
40
0.312499999999967
40
0.312499999999967
40
0.374999999999961
40
0.374999999999961
40
0.406249999999958
40
0.406249999999958
40
0.437499999999955
40
0.437499999999955
40
0.468749999999952
40
0.468749999999952
40
0.48437499999995
40
0.48437499999995
40
0.499999999999949
40
0.499999999999949
40
0.531249999999945
40
0.531249999999945
40
0.546874999999943
40
0.546874999999943
40
0.562499999999941
40
0.562499999999941
40
0.578124999999939
40
0.578124999999939
40
0.593749999999937
40
0.593749999999937
40
0.624999999999935
40
0.624999999999935
40
0.640624999999934
40
0.640624999999934
40
0.642578124999934
40
0.642578124999934
40
0.644531249999934
40
0.644531249999934
40
0.648437499999935
40
0.648437499999935
40
0.656249999999937
40
0.656249999999937
40
0.687499999999942
40
0.687499999999942
40
0.749999999999954
40
0.749999999999954
40
0.874999999999977
40
0.874999999999977
40
1
40
1
40
1
40
1
41
1
10
6.64372338760583
20
-1.36142407738595
30
0
41
1
10
6.26501687663469
20
-1.24712738021904
30
0
41
1
10
5.89103544844491
20
-1.11725175686894
30
0
41
1
10
5.15204437964562
20
-0.822820076291521
30
0
41
1
10
4.78694909895935
20
-0.658629950836911
30
0
41
1
10
4.24709199496462
20
-0.378086123675871
30
0
41
1
10
4.06800233688401
20
-0.278458861161653
30
0
41
1
10
3.7195636207681
20
-0.0675926507426823
30
0
41
1
10
3.54948761616515
20
0.0438216499376267
30
0
41
1
10
3.30372488171113
20
0.224443901827215
30
0
41
1
10
3.22338245238876
20
0.286930306476677
30
0
41
1
10
3.06703124890166
20
0.41816244568426
30
0
41
1
10
2.99108813522881
20
0.486900513202642
30
0
41
1
10
2.84975365822967
20
0.629526215602311
30
0
41
1
10
2.78380240168693
20
0.703706845126391
30
0
41
1
10
2.69629087025527
20
0.8220455544066
30
0
41
1
10
2.66921289477071
20
0.862552246598767
30
0
41
1
10
2.62151994063581
20
0.944489615104516
30
0
41
1
10
2.60073018120195
20
0.986127486641038
30
0
41
1
10
2.55024744013224
20
1.11373119270391
30
0
41
1
10
2.53439441218785
20
1.19817405532422
30
0
41
1
10
2.54548343438822
20
1.31986324890798
30
0
41
1
10
2.55480729169602
20
1.35812502222171
30
0
41
1
10
2.58361910603804
20
1.43059873321258
30
0
41
1
10
2.60337086163477
20
1.46502571930185
30
0
41
1
10
2.6500730360365
20
1.52779289608398
30
0
41
1
10
2.67709084842164
20
1.55651250509567
30
0
41
1
10
2.73696492672789
20
1.60979543656208
30
0
41
1
10
2.76996984390624
20
1.63441767746008
30
0
41
1
10
2.8742698067168
20
1.70205157086266
30
0
41
1
10
2.95148886907984
20
1.73957140563758
30
0
41
1
10
3.07324021193224
20
1.78812870377996
30
0
41
1
10
3.11475916331116
20
1.80310965335008
30
0
41
1
10
3.16237384536103
20
1.81870971936931
30
0
41
1
10
3.16775668971834
20
1.82037040501527
30
0
41
1
10
3.17980926434453
20
1.82281749974035
30
0
41
1
10
3.18603025878241
20
1.82357594046619
30
0
41
1
10
3.20480663679308
20
1.82520057529649
30
0
41
1
10
3.21763135252175
20
1.82526369537712
30
0
41
1
10
3.25592047272511
20
1.82606827909134
30
0
41
1
10
3.28145296698216
20
1.82656079093081
30
0
41
1
10
3.40912360491933
20
1.82880762440564
30
0
41
1
10
3.51132993208944
20
1.82991868292771
30
0
41
1
10
3.8178158634081
20
1.8313292797676
30
0
41
1
10
4.02203486195461
20
1.82972508083333
30
0
41
1
10
4.63439616459996
20
1.81750252920295
30
0
41
1
10
5.04070067661402
20
1.79962100334188
30
0
41
1
10
5.84639740514925
20
1.74063735027463
30
0
41
1
10
6.24632587546861
20
1.69934722880029
30
0
41
1
10
6.64372338760583
20
1.64241714994174
30
0
0
SPLINE
5
D6
100
AcDbEntity
8
1
62
256
6
ByLayer
370
18
48
1
60
0
100
AcDbSpline
70
4
71
3
72
32
73
28
40
0
40
0
40
0
40
0
40
0.008924881770684
40
0.008924881770684
40
0.0947398203775996
40
0.0947398203775996
40
0.180554758984515
40
0.180554758984515
40
0.266369697591431
40
0.266369697591431
40
0.352184636198347
40
0.352184636198347
40
0.437999574805262
40
0.437999574805262
40
0.523814513412178
40
0.523814513412178
40
0.609629452019093
40
0.609629452019093
40
0.695444390626009
40
0.695444390626009
40
0.781259329232925
40
0.781259329232925
40
0.86707426783984
40
0.86707426783984
40
0.952889206446756
40
0.952889206446756
40
1
40
1
40
1
40
1
41
1
10
54.5123587725605
20
-0.0108170396480034
30
0
41
1
10
54.4825204124163
20
-0.0010010547212289
30
0
41
1
10
54.4526758918641
20
0.0088168150909667
30
0
41
1
10
54.1357994977937
20
0.11303960334854
30
0
41
1
10
53.8481631050637
20
0.207378983759639
30
0
41
1
10
53.2711249066876
20
0.39455145381973
30
0
41
1
10
52.9812062235536
20
0.487544672302363
30
0
41
1
10
52.402887163533
20
0.668668483823978
30
0
41
1
10
52.1142476166853
20
0.756824321720359
30
0
41
1
10
51.5371940720542
20
0.926769380180332
30
0
41
1
10
51.2487396658817
20
1.00860694455255
30
0
41
1
10
50.6715881154348
20
1.1639364333094
30
0
41
1
10
50.3828978560281
20
1.23743238355155
30
0
41
1
10
49.8045242631958
20
1.37499323002527
30
0
41
1
10
49.5146769574516
20
1.43907430624054
30
0
41
1
10
48.9366747367968
20
1.55496622855026
30
0
41
1
10
48.648162446213
20
1.60672538642174
30
0
41
1
10
48.0710060672278
20
1.69830818394044
30
0
41
1
10
47.7823728777102
20
1.73833773134496
30
0
41
1
10
47.2045988699215
20
1.80503470200276
30
0
41
1
10
46.9151810524642
20
1.83179914802326
30
0
41
1
10
46.3364523617097
20
1.86963577761782
30
0
41
1
10
46.0476524977762
20
1.88051228829892
30
0
41
1
10
45.4703481620981
20
1.89008695359777
30
0
41
1
10
45.1816546421077
20
1.88897969978842
30
0
41
1
10
44.7344375843776
20
1.87463372133894
30
0
41
1
10
44.5759669196209
20
1.86707558449325
30
0
41
1
10
44.4174165927403
20
1.85738101120643
30
0
0
SPLINE
5
D7
100
AcDbEntity
8
1
62
256
6
ByLayer
370
18
48
1
60
0
100
AcDbSpline
70
4
71
3
72
26
73
22
40
0
40
0
40
0
40
0
40
0.0419554961100096
40
0.0419554961100096
40
0.127418995133544
40
0.127418995133544
40
0.212882494157078
40
0.212882494157078
40
0.383809492204144
40
0.383809492204144
40
0.469272991227678
40
0.469272991227678
40
0.554736490251212
40
0.554736490251212
40
0.640199989274746
40
0.640199989274746
40
0.72566348829828
40
0.72566348829828
40
0.896590486345348
40
0.896590486345348
40
1
40
1
40
1
40
1
41
1
10
18.5053896833296
20
-0.0177956221671991
30
0
41
1
10
18.3635054729723
20
0.0293023684357081
30
0
41
1
10
18.2216456802206
20
0.0764211407281721
30
0
41
1
10
17.7913417891008
20
0.218940189885359
30
0
41
1
10
17.5030830340035
20
0.313922296122172
30
0
41
1
10
16.926561208612
20
0.500707577614065
30
0
41
1
10
16.6383509765274
20
0.59255726780799
30
0
41
1
10
15.7730345115736
20
0.860739048096633
30
0
41
1
10
15.1942457243271
20
1.02949659883527
30
0
41
1
10
14.3289744554574
20
1.25541625288133
30
0
41
1
10
14.0407814849255
20
1.32607405899384
30
0
41
1
10
13.4643075335851
20
1.45657683658118
30
0
41
1
10
13.1759619571005
20
1.51670602742382
30
0
41
1
10
12.5982739278344
20
1.6256462021351
30
0
41
1
10
12.3088361262052
20
1.67408523271223
30
0
41
1
10
11.7330797920722
20
1.75692938091592
30
0
41
1
10
11.446018056306
20
1.79192573669656
30
0
41
1
10
10.5864321139031
20
1.87715099297694
30
0
41
1
10
10.0160298150813
20
1.90486953554489
30
0
41
1
10
9.10013795432477
20
1.90608615907575
30
0
41
1
10
8.75492243631732
20
1.89558691586177
30
0
41
1
10
8.40915710371911
20
1.87495394281032
30
0
0
SPLINE
5
D8
100
AcDbEntity
8
1
62
256
6
ByLayer
370
18
48
1
60
0
100
AcDbSpline
70
4
71
3
72
8
73
4
40
0
40
0
40
0
40
0
40
1
40
1
40
1
40
1
41
1
10
59.5450103256311
20
0.564483477617642
30
0
41
1
10
59.2862311156668
20
0.580772675677821
30
0
41
1
10
59.0274522384196
20
0.597028621430184
30
0
41
1
10
58.7686737836308
20
0.613245589343364
30
0
0
SPLINE
5
D9
100
AcDbEntity
8
1
62
256
6
ByLayer
370
18
48
1
60
0
100
AcDbSpline
70
4
71
3
72
20
73
16
40
0
40
0
40
0
40
0
40
0.249128030349972
40
0.249128030349972
40
0.373692045524959
40
0.373692045524959
40
0.498256060699947
40
0.498256060699947
40
0.747384091049919
40
0.747384091049919
40
0.871948106224906
40
0.871948106224906
40
0.996512121399893
40
0.996512121399893
40
1
40
1
40
1
40
1
41
1
10
2.54869961823127
20
-0.734040744557234
30
0
41
1
10
3.12272699967227
20
-0.927502783876747
30
0
41
1
10
3.69477114190761
20
-1.10657946293051
30
0
41
1
10
4.55278591549913
20
-1.3475676786104
30
0
41
1
10
4.83874053441266
20
-1.4233574140936
30
0
41
1
10
5.41128889916612
20
-1.56416096264982
30
0
41
1
10
5.6982774421073
20
-1.6289673091334
30
0
41
1
10
6.55975968406935
20
-1.80439996519084
30
0
41
1
10
7.13169647593091
20
-1.89564689464595
30
0
41
1
10
7.99082520577056
20
-1.98830556164918
30
0
41
1
10
8.27734097547415
20
-2.01192732328539
30
0
41
1
10
8.85127785177792
20
-2.04400416427103
30
0
41
1
10
9.138467914221
20
-2.05234792683564
30
0
41
1
10
9.4330446484866
20
-2.05301784978104
30
0
41
1
10
9.44106803946758
20
-2.05303002737884
30
0
41
1
10
9.44909114711558
20
-2.05303613880184
30
0
0
SPLINE
5
DA
100
AcDbEntity
8
1
62
256
6
ByLayer
370
18
48
1
60
0
100
AcDbSpline
70
4
71
3
72
44
73
40
40
0
40
0
40
0
40
0
40
0.0807972448780042
40
0.0807972448780042
40
0.164524777164434
40
0.164524777164434
40
0.20638854330765
40
0.20638854330765
40
0.248252309450866
40
0.248252309450866
40
0.290116075594082
40
0.290116075594082
40
0.331979841737298
40
0.331979841737298
40
0.41570737402373
40
0.41570737402373
40
0.457571140166946
40
0.457571140166946
40
0.499434906310162
40
0.499434906310162
40
0.583162438596593
40
0.583162438596593
40
0.62502620473981
40
0.62502620473981
40
0.666889970883027
40
0.666889970883027
40
0.708753737026244
40
0.708753737026244
40
0.750617503169461
40
0.750617503169461
40
0.834345035455894
40
0.834345035455894
40
0.876208801599112
40
0.876208801599112
40
0.918072567742329
40
0.918072567742329
40
0.959936333885547
40
0.959936333885547
40
1
40
1
40
1
40
1
41
1
10
24.9553243975292
20
1.86847941539202
30
0
41
1
10
25.5080033254372
20
1.95288921993503
30
0
41
1
10
26.0623285099813
20
2.01157134366744
30
0
41
1
10
27.1871950067381
20
2.07197217693562
30
0
41
1
10
27.7588939531082
20
2.0720391510643
30
0
41
1
10
28.6188882467727
20
2.02571685967027
30
0
41
1
10
28.9060553646586
20
2.00257582020419
30
0
41
1
10
29.4789355087202
20
1.9417000261312
30
0
41
1
10
29.7649916854495
20
1.90389746652824
30
0
41
1
10
30.3370273899938
20
1.81422291847528
30
0
41
1
10
30.6230281167406
20
1.76236323730214
30
0
41
1
10
31.1959040538815
20
1.64585031090021
30
0
41
1
10
31.4831912122276
20
1.58117133794491
30
0
41
1
10
32.3429919582566
20
1.3700123328756
30
0
41
1
10
32.9141914569116
20
1.20650332698509
30
0
41
1
10
33.7730207146812
20
0.938376140753491
30
0
41
1
10
34.059724892337
20
0.84482172933869
30
0
41
1
10
34.633537407314
20
0.652159067642998
30
0
41
1
10
34.919767606597
20
0.552887506754644
30
0
41
1
10
35.7779704347439
20
0.250429609714814
30
0
41
1
10
36.349503787628
20
0.0427464878282819
30
0
41
1
10
37.2097321685684
20
-0.267173767775631
30
0
41
1
10
37.4966321693202
20
-0.369687232890499
30
0
41
1
10
38.0691521310188
20
-0.570916169907917
30
0
41
1
10
38.3549833946346
20
-0.670022798255388
30
0
41
1
10
38.9268327724193
20
-0.862401069083944
30
0
41
1
10
39.212952798264
20
-0.955422934577683
30
0
41
1
10
39.7859930391954
20
-1.13411313347171
30
0
41
1
10
40.0731254251656
20
-1.21994820291241
30
0
41
1
10
40.9321934816725
20
-1.46235005827757
30
0
41
1
10
41.503373450001
20
-1.60371108712175
30
0
41
1
10
42.362184747139
20
-1.77746084997855
30
0
41
1
10
42.6490544245692
20
-1.8292461603867
30
0
41
1
10
43.2221758796673
20
-1.91860260180408
30
0
41
1
10
43.5083823781482
20
-1.9559841342805
30
0
41
1
10
44.0803883742752
20
-2.01606983397201
30
0
41
1
10
44.3661153822814
20
-2.03877862725392
30
0
41
1
10
44.9258096917108
20
-2.06810279593591
30
0
41
1
10
45.2000304602448
20
-2.07535847411805
30
0
41
1
10
45.4745451149775
20
-2.07555270420536
30
0
0
SPLINE
5
DB
100
AcDbEntity
8
1
62
256
6
ByLayer
370
18
48
1
60
0
100
AcDbSpline
70
4
71
3
72
10
73
6
40
0
40
0
40
0
40
0
40
0.5
40
0.5
40
1
40
1
40
1
40
1
41
1
10
58.7056670133649
20
0.538722649840594
30
0
41
1
10
58.7110155375928
20
0.5512781377887
30
0
41
1
10
58.7188974723754
20
0.565030048414627
30
0
41
1
10
58.7370442520293
20
0.590247007065955
30
0
41
1
10
58.7474814871969
20
0.601978729402333
30
0
41
1
10
58.7576466987145
20
0.610952677058123
30
0
0
SPLINE
5
DC
100
AcDbEntity
8
1
62
256
6
ByLayer
370
18
48
1
60
0
100
AcDbSpline
70
4
71
3
72
14
73
10
40
0
40
0
40
0
40
0
40
0.25
40
0.25
40
0.5
40
0.5
40
0.75
40
0.75
40
1
40
1
40
1
40
1
41
1
10
58.5017306158871
20
-1.37289186820126
30
0
41
1
10
58.5306173634353
20
-1.44340539107219
30
0
41
1
10
58.5609867549503
20
-1.50628548410293
30
0
41
1
10
58.6236811349014
20
-1.61719280389411
30
0
41
1
10
58.6562224720978
20
-1.66533815934761
30
0
41
1
10
58.7205704872355
20
-1.74327332423809
30
0
41
1
10
58.7526250199511
20
-1.77359517571594
30
0
41
1
10
58.8164713607044
20
-1.8168599807575
30
0
41
1
10
58.8483872418059
20
-1.82973087504794
30
0
41
1
10
58.8796222328085
20
-1.83315005125189
30
0
0
SPLINE
5
DD
100
AcDbEntity
8
1
62
256
6
ByLayer
370
18
48
1
60
0
100
AcDbSpline
70
4
71
3
72
10
73
6
40
0
40
0
40
0
40
0
40
0.5
40
0.5
40
1
40
1
40
1
40
1
41
1
10
58.990403881618
20
1.95266441579233
30
0
41
1
10
58.9692899269188
20
1.98308638134111
30
0
41
1
10
58.9473939607496
20
2.00864367158829
30
0
41
1
10
58.9027804145238
20
2.04851482634163
30
0
41
1
10
58.8800327260836
20
2.0629692699078
30
0
41
1
10
58.8566517238857
20
2.07211186631818
30
0
0
SPLINE
5
DE
100
AcDbEntity
8
1
62
256
6
ByLayer
370
18
48
1
60
0
100
AcDbSpline
70
4
71
3
72
78
73
74
40
0
40
0
40
0
40
0
40
0.0146620157160144
40
0.0146620157160144
40
0.0505094216905732
40
0.0505094216905732
40
0.086356827665132
40
0.086356827665132
40
0.104280530652411
40
0.104280530652411
40
0.122204233639691
40
0.122204233639691
40
0.15805163961425
40
0.15805163961425
40
0.19389904558881
40
0.19389904558881
40
0.22974645156337
40
0.22974645156337
40
0.265593857537931
40
0.265593857537931
40
0.301441263512491
40
0.301441263512491
40
0.31936496649977
40
0.31936496649977
40
0.33728866948705
40
0.33728866948705
40
0.373136075461607
40
0.373136075461607
40
0.391059778448886
40
0.391059778448886
40
0.408983481436166
40
0.408983481436166
40
0.444830887410724
40
0.444830887410724
40
0.480678293385283
40
0.480678293385283
40
0.498601996372562
40
0.498601996372562
40
0.516525699359842
40
0.516525699359842
40
0.552373105334401
40
0.552373105334401
40
0.57029680832168
40
0.57029680832168
40
0.588220511308959
40
0.588220511308959
40
0.624067917283518
40
0.624067917283518
40
0.659915323258077
40
0.659915323258077
40
0.695762729232635
40
0.695762729232635
40
0.731610135207194
40
0.731610135207194
40
0.767457541181753
40
0.767457541181753
40
0.785381244169032
40
0.785381244169032
40
0.803304947156312
40
0.803304947156312
40
0.839152353130871
40
0.839152353130871
40
0.874999759105429
40
0.874999759105429
40
0.910847165079988
40
0.910847165079988
40
0.946694571054547
40
0.946694571054547
40
0.964618274041827
40
0.964618274041827
40
0.982541977029107
40
0.982541977029107
40
1
40
1
40
1
40
1
41
1
10
16.1206065652871
20
1.36653415680576
30
0
41
1
10
16.2327372821941
20
1.39660729329356
30
0
41
1
10
16.3451060820238
20
1.42583267839441
30
0
41
1
10
16.7318612206393
20
1.52370872894821
30
0
41
1
10
17.0056929373381
20
1.58842341598083
30
0
41
1
10
17.5523386348348
20
1.7074129307457
30
0
41
1
10
17.8260416844076
20
1.76025058208268
30
0
41
1
10
18.2365537604081
20
1.83077738228846
30
0
41
1
10
18.3733991841919
20
1.85279533299945
30
0
41
1
10
18.6470483004577
20
1.89385561604959
30
0
41
1
10
18.7837662797411
20
1.91297538828505
30
0
41
1
10
19.1947091899679
20
1.96485644523591
30
0
41
1
10
19.4696906601072
20
1.99239618233872
30
0
41
1
10
20.0163522532927
20
2.03403146760399
30
0
41
1
10
20.2883203364373
20
2.04813314038879
30
0
41
1
10
20.8319147385473
20
2.06198142074555
30
0
41
1
10
21.1034695754796
20
2.06196447129727
30
0
41
1
10
21.6454547993287
20
2.04820556684936
30
0
41
1
10
21.9156591226138
20
2.03418124549299
30
0
41
1
10
22.4572894978762
20
1.99311157763808
30
0
41
1
10
22.7283243511957
20
1.96604255713555
30
0
41
1
10
23.1348713210374
20
1.91518515836177
30
0
41
1
10
23.2702994299297
20
1.89639911603362
30
0
41
1
10
23.5416061123433
20
1.85580671528368
30
0
41
1
10
23.6775027427284
20
1.83404742941383
30
0
41
1
10
24.0857978282716
20
1.76434130827212
30
0
41
1
10
24.3586993078558
20
1.7118664506969
30
0
41
1
10
24.7688520591857
20
1.62317663542097
30
0
41
1
10
24.9058128569657
20
1.59189636978732
30
0
41
1
10
25.1801063316641
20
1.52726873951244
30
0
41
1
10
25.3172366323703
20
1.49386441975889
30
0
41
1
10
25.7283463876514
20
1.39000596852819
30
0
41
1
10
26.0019971400933
20
1.31581861851086
30
0
41
1
10
26.5483120867696
20
1.15693714217761
30
0
41
1
10
26.8219000679026
20
1.07432958626697
30
0
41
1
10
27.2326260709995
20
0.945176260983658
30
0
41
1
10
27.3695758580957
20
0.901203770289555
30
0
41
1
10
27.6435443709773
20
0.811339783431094
30
0
41
1
10
27.7805621065649
20
0.765135429784806
30
0
41
1
10
28.1916127687117
20
0.625379493852506
30
0
41
1
10
28.4651001046673
20
0.5315639085714
30
0
41
1
10
28.8739409538456
20
0.388075319818483
30
0
41
1
10
29.0100189751383
20
0.339875736411159
30
0
41
1
10
29.2816567494376
20
0.242405372384013
30
0
41
1
10
29.4172062466659
20
0.193107763462933
30
0
41
1
10
29.8240404098445
20
0.0464549481606014
30
0
41
1
10
30.0952400605892
20
-0.0504790422962458
30
0
41
1
10
30.6368241589713
20
-0.244948944672558
30
0
41
1
10
30.9069541481223
20
-0.343189101001883
30
0
41
1
10
31.4485911899712
20
-0.533945628036378
30
0
41
1
10
31.7198473933439
20
-0.627201772459955
30
0
41
1
10
32.2626946374083
20
-0.810967025459206
30
0
41
1
10
32.5341455366773
20
-0.901835896330482
30
0
41
1
10
33.0797534438409
20
-1.07424195660567
30
0
41
1
10
33.3537221024213
20
-1.15713094841726
30
0
41
1
10
33.7649057509425
20
-1.27671507364775
30
0
41
1
10
33.90166477538
20
-1.3158405047856
30
0
41
1
10
34.1753298584308
20
-1.39096174282255
30
0
41
1
10
34.3121949153172
20
-1.42706880852521
30
0
41
1
10
34.7227030194843
20
-1.53152714652984
30
0
41
1
10
34.9961952672395
20
-1.59616968324039
30
0
41
1
10
35.5424272339839
20
-1.71576970352521
30
0
41
1
10
35.8159603821786
20
-1.76935929987195
30
0
41
1
10
36.3641460678703
20
-1.86402439040197
30
0
41
1
10
36.6386965368766
20
-1.90551640700005
30
0
41
1
10
37.1844690242707
20
-1.97521153689374
30
0
41
1
10
37.4569941767698
20
-2.00274115177277
30
0
41
1
10
37.864698537701
20
-2.03409739150373
30
0
41
1
10
38.0004349692369
20
-2.04286337992812
30
0
41
1
10
38.2715144970297
20
-2.057004559409
30
0
41
1
10
38.4067762333014
20
-2.06238659809136
30
0
41
1
10
38.6739343217589
20
-2.06945842471197
30
0
41
1
10
38.805802785359
20
-2.07128916908266
30
0
41
1
10
38.9376692798079
20
-2.0714790607656
30
0
0
SPLINE
5
DF
100
AcDbEntity
8
1
62
256
6
ByLayer
370
18
48
1
60
0
100
AcDbSpline
70
4
71
3
72
28
73
24
40
0
40
0
40
0
40
0
40
0.0539287720383963
40
0.0539287720383963
40
0.172187675533601
40
0.172187675533601
40
0.231317127281201
40
0.231317127281201
40
0.290446579028801
40
0.290446579028801
40
0.408705482523999
40
0.408705482523999
40
0.526964386019198
40
0.526964386019198
40
0.645223289514397
40
0.645223289514397
40
0.763482193009596
40
0.763482193009596
40
0.822611644757196
40
0.822611644757196
40
0.881741096504795
40
0.881741096504795
40
1
40
1
40
1
40
1
41
1
10
52.0593156464498
20
1.36797110644949
30
0
41
1
10
52.1829553822837
20
1.40205154547766
30
0
41
1
10
52.3067250605946
20
1.43515491326619
30
0
41
1
10
52.7027294303135
20
1.53681602099368
30
0
41
1
10
52.9754802565356
20
1.60166357225077
30
0
41
1
10
53.3855085851127
20
1.69179251943223
30
0
41
1
10
53.5224082843302
20
1.72076031923126
30
0
41
1
10
53.7963092752279
20
1.77507411665727
30
0
41
1
10
53.9332585669202
20
1.80051143312014
30
0
41
1
10
54.3439218617114
20
1.87207770357273
30
0
41
1
10
54.6173878714079
20
1.91358046346903
30
0
41
1
10
55.1632983628529
20
1.98416591408324
30
0
41
1
10
55.4365426489436
20
2.01242375806993
30
0
41
1
10
55.9839176581867
20
2.05508084095874
30
0
41
1
10
56.258105101605
20
2.06966968317266
30
0
41
1
10
56.805280595011
20
2.08445571658891
30
0
41
1
10
57.0788878812183
20
2.08457751097674
30
0
41
1
10
57.488711462428
20
2.07431449925761
30
0
41
1
10
57.625239309609
20
2.06913726771151
30
0
41
1
10
57.8980665514708
20
2.05518438000786
30
0
41
1
10
58.0342840048175
20
2.04634920910456
30
0
41
1
10
58.4434851058084
20
2.01481079742925
30
0
41
1
10
58.7168744555514
20
1.98717481290214
30
0
41
1
10
58.99040388162
20
1.95266441578943
30
0
0
SPLINE
5
E0
100
AcDbEntity
8
1
62
256
6
ByLayer
370
18
48
1
60
0
100
AcDbSpline
70
4
71
3
72
10
73
6
40
0
40
0
40
0
40
0
40
0.5
40
0.5
40
1
40
1
40
1
40
1
41
1
10
59.6374609483914
20
0.0566219759490139
30
0
41
1
10
59.6370151239986
20
0.0435476831582946
30
0
41
1
10
59.6344180196272
20
0.0274600063481785
30
0
41
1
10
59.6237267719255
20
-0.0071122023631176
30
0
41
1
10
59.6153815133237
20
-0.025393367274603
30
0
41
1
10
59.6065898233604
20
-0.0384899637760157
30
0
0
SPLINE
5
E1
100
AcDbEntity
8
1
62
256
6
ByLayer
370
18
48
1
60
0
100
AcDbSpline
70
4
71
3
72
8
73
4
40
0
40
0
40
0
40
0
40
1
40
1
40
1
40
1
41
1
10
56.343401538156
20
-0.200600828895375
30
0
41
1
10
56.5258569950546
20
-0.266530436709758
30
0
41
1
10
56.708219900299
20
-0.332145816519016
30
0
41
1
10
56.89057800188
20
-0.39720677451615
30
0
0
SPLINE
5
E2
100
AcDbEntity
8
1
62
256
6
ByLayer
370
18
48
1
60
0
100
AcDbSpline
70
4
71
3
72
50
73
46
40
0
40
0
40
0
40
0
40
0.0571885165188728
40
0.0571885165188728
40
0.114377033037746
40
0.114377033037746
40
0.171565549556618
40
0.171565549556618
40
0.200159807816055
40
0.200159807816055
40
0.228754066075491
40
0.228754066075491
40
0.285942582594365
40
0.285942582594365
40
0.343131099113239
40
0.343131099113239
40
0.400319615632113
40
0.400319615632113
40
0.457508132150987
40
0.457508132150987
40
0.514696648669861
40
0.514696648669861
40
0.543290906929299
40
0.543290906929299
40
0.571885165188737
40
0.571885165188737
40
0.629073681707612
40
0.629073681707612
40
0.65766793996705
40
0.65766793996705
40
0.686262198226488
40
0.686262198226488
40
0.743450714745367
40
0.743450714745367
40
0.800639231264244
40
0.800639231264244
40
0.829233489523683
40
0.829233489523683
40
0.857827747783122
40
0.857827747783122
40
0.915016264301999
40
0.915016264301999
40
0.972204780820876
40
0.972204780820876
40
1
40
1
40
1
40
1
41
1
10
6.64372338760572
20
1.64241714994176
30
0
41
1
10
6.91793850993017
20
1.58296747104811
30
0
41
1
10
7.1920010187095
20
1.51902814915346
30
0
41
1
10
7.73913920730044
20
1.38134386630884
30
0
41
1
10
8.01202061314419
20
1.3071342207773
30
0
41
1
10
8.55730615403829
20
1.14971065859049
30
0
41
1
10
8.83038239964569
20
1.06810039847406
30
0
41
1
10
9.23995613785522
20
0.939843953445319
30
0
41
1
10
9.37650594009762
20
0.896188270219625
30
0
41
1
10
9.64955308043022
20
0.806752404930734
30
0
41
1
10
9.78602701122611
20
0.760894894973234
30
0
41
1
10
10.1963559497136
20
0.622741992700469
30
0
41
1
10
10.4713914513709
20
0.528983962902629
30
0
41
1
10
11.0195972385657
20
0.337320004876403
30
0
41
1
10
11.2922126533379
20
0.238778258192582
30
0
41
1
10
11.8370347246662
20
0.0442156535768845
30
0
41
1
10
12.1090084675754
20
-0.0525779431980027
30
0
41
1
10
12.6515652370337
20
-0.246760290968354
30
0
41
1
10
12.9219999619757
20
-0.344529245860315
30
0
41
1
10
13.4638729740748
20
-0.533692727068654
30
0
41
1
10
13.7348495989094
20
-0.626453330078391
30
0
41
1
10
14.1410677454479
20
-0.763657414911222
30
0
41
1
10
14.2763659825935
20
-0.80924221470508
30
0
41
1
10
14.5474580909341
20
-0.898179300554233
30
0
41
1
10
14.683212956976
20
-0.941643694540119
30
0
41
1
10
15.0909263935426
20
-1.0695244470293
30
0
41
1
10
15.3632690039932
20
-1.15160904772671
30
0
41
1
10
15.7723465459829
20
-1.27044377532405
30
0
41
1
10
15.908887252444
20
-1.30911156026824
30
0
41
1
10
16.182737564508
20
-1.38356416781809
30
0
41
1
10
16.3201310522076
20
-1.41951225227257
30
0
41
1
10
16.7318612206392
20
-1.52370872894821
30
0
41
1
10
17.0056929373381
20
-1.5884234159808
30
0
41
1
10
17.5523386348347
20
-1.70741293074573
30
0
41
1
10
17.8260416844075
20
-1.76025058208268
30
0
41
1
10
18.236553760408
20
-1.83077738228843
30
0
41
1
10
18.3733991841919
20
-1.85279533299945
30
0
41
1
10
18.6470483004577
20
-1.89385561604959
30
0
41
1
10
18.7837662797411
20
-1.91297538828505
30
0
41
1
10
19.1947091899679
20
-1.96485644523591
30
0
41
1
10
19.4696906601072
20
-1.99239618233872
30
0
41
1
10
20.0163522532926
20
-2.03403146760399
30
0
41
1
10
20.2883203364372
20
-2.04813314038879
30
0
41
1
10
20.692218582168
20
-2.05842260643325
30
0
41
1
10
20.8242623748156
20
-2.06014828591282
30
0
41
1
10
20.9562121918603
20
-2.06024334164729
30
0
0
SPLINE
5
E3
100
AcDbEntity
8
1
62
256
6
ByLayer
370
18
48
1
60
0
100
AcDbSpline
70
4
71
3
72
8
73
4
40
0
40
0
40
0
40
0
40
1
40
1
40
1
40
1
41
1
10
30.9041587376707
20
0.34131312710619
30
0
41
1
10
30.9182251996473
20
0.34635028231483
30
0
41
1
10
30.9322922926977
20
0.351383222808948
30
0
41
1
10
30.9463602067283
20
0.356411404837331
30
0
0
SPLINE
5
E4
100
AcDbEntity
8
1
62
256
6
ByLayer
370
18
48
1
60
0
100
AcDbSpline
70
4
71
3
72
78
73
74
40
0
40
0
40
0
40
0
40
0.0149735364123853
40
0.0149735364123853
40
0.0507953112065777
40
0.0507953112065777
40
0.0866170860007704
40
0.0866170860007704
40
0.122438860794963
40
0.122438860794963
40
0.158260635589156
40
0.158260635589156
40
0.176171522986252
40
0.176171522986252
40
0.194082410383348
40
0.194082410383348
40
0.229904185177542
40
0.229904185177542
40
0.247815072574639
40
0.247815072574639
40
0.265725959971736
40
0.265725959971736
40
0.301547734765931
40
0.301547734765931
40
0.337369509560125
40
0.337369509560125
40
0.373191284354319
40
0.373191284354319
40
0.391102171751415
40
0.391102171751415
40
0.409013059148511
40
0.409013059148511
40
0.444834833942702
40
0.444834833942702
40
0.462745721339799
40
0.462745721339799
40
0.480656608736895
40
0.480656608736895
40
0.516478383531088
40
0.516478383531088
40
0.55230015832528
40
0.55230015832528
40
0.570211045722377
40
0.570211045722377
40
0.588121933119474
40
0.588121933119474
40
0.623943707913668
40
0.623943707913668
40
0.641854595310765
40
0.641854595310765
40
0.659765482707863
40
0.659765482707863
40
0.695587257502058
40
0.695587257502058
40
0.731409032296254
40
0.731409032296254
40
0.76723080709045
40
0.76723080709045
40
0.803052581884645
40
0.803052581884645
40
0.838874356678841
40
0.838874356678841
40
0.856785244075939
40
0.856785244075939
40
0.874696131473036
40
0.874696131473036
40
0.910517906267232
40
0.910517906267232
40
0.946339681061428
40
0.946339681061428
40
0.982161455855623
40
0.982161455855623
40
1
40
1
40
1
40
1
41
1
10
34.1058204876334
20
1.37176418135545
30
0
41
1
10
34.2202202885281
20
1.40277009007392
30
0
41
1
10
34.3346357610678
20
1.43277913050602
30
0
41
1
10
34.7227030194842
20
1.53152714652981
30
0
41
1
10
34.9961952672394
20
1.59616968324036
30
0
41
1
10
35.5424272339838
20
1.71576970352515
30
0
41
1
10
35.8159603821784
20
1.76935929987195
30
0
41
1
10
36.3641460678701
20
1.86402439040194
30
0
41
1
10
36.6386965368766
20
1.90551640700002
30
0
41
1
10
37.1844690242706
20
1.97521153689374
30
0
41
1
10
37.4569941767696
20
2.00274115177277
30
0
41
1
10
37.8646985377009
20
2.03409739150373
30
0
41
1
10
38.0004349692368
20
2.04286337992812
30
0
41
1
10
38.2715144970296
20
2.05700455940897
30
0
41
1
10
38.4067762333013
20
2.06238659809136
30
0
41
1
10
38.8127877066101
20
2.07313395281977
30
0
41
1
10
39.0836624323256
20
2.07330567060544
30
0
41
1
10
39.4896322966238
20
2.06330433622492
30
0
41
1
10
39.6249341721597
20
2.0582515146923
30
0
41
1
10
39.8953621131995
20
2.04456445483208
30
0
41
1
10
40.0305593005755
20
2.03593625166056
30
0
41
1
10
40.4368908040224
20
2.0051813766834
30
0
41
1
10
40.7084543724164
20
1.97814110652178
30
0
41
1
10
41.2522583754507
20
1.91034554526624
30
0
41
1
10
41.5242963786111
20
1.86912507469259
30
0
41
1
10
42.0713317732308
20
1.77526526421394
30
0
41
1
10
42.346212582671
20
1.722239387846
30
0
41
1
10
42.7566840312279
20
1.63352898304629
30
0
41
1
10
42.8932301266154
20
1.60222563802162
30
0
41
1
10
43.1664349441836
20
1.53730673544138
30
0
41
1
10
43.3031135344864
20
1.50374531261332
30
0
41
1
10
43.7132515231909
20
1.39963127425702
30
0
41
1
10
43.9867104311812
20
1.32547846094675
30
0
41
1
10
44.3966060004904
20
1.20616108593569
30
0
41
1
10
44.5332022612364
20
1.1650448413902
30
0
41
1
10
44.8069662952711
20
1.08163703277606
30
0
41
1
10
44.9441379585751
20
1.03919465781354
30
0
41
1
10
45.3556173218122
20
0.909303290758885
30
0
41
1
10
45.6293496244565
20
0.819330389465193
30
0
41
1
10
46.1755277166703
20
0.632209801618359
30
0
41
1
10
46.4489095853303
20
0.53752172701158
30
0
41
1
10
46.8590885708919
20
0.393018141898096
30
0
41
1
10
46.9958191911103
20
0.344398245047728
30
0
41
1
10
47.2692708529367
20
0.246186777344235
30
0
41
1
10
47.4058880458036
20
0.196300872637096
30
0
41
1
10
47.8163446975683
20
0.0468881049206118
30
0
41
1
10
48.0910302773219
20
-0.0518729568538561
30
0
41
1
10
48.5006208767767
20
-0.199513441055956
30
0
41
1
10
48.6369135574574
20
-0.248593920360861
30
0
41
1
10
48.9089067384354
20
-0.346818371462803
30
0
41
1
10
49.0446052209484
20
-0.395955251344162
30
0
41
1
10
49.4517827229624
20
-0.540597392902242
30
0
41
1
10
49.7230688504058
20
-0.634213880957333
30
0
41
1
10
50.2645595579446
20
-0.818054601059117
30
0
41
1
10
50.5345074309758
20
-0.908864777668896
30
0
41
1
10
51.0755339261959
20
-1.08113957251459
30
0
41
1
10
51.3463481083013
20
-1.16337281828535
30
0
41
1
10
51.8880396235782
20
-1.32127769708276
30
0
41
1
10
52.1587759516786
20
-1.39717384171797
30
0
41
1
10
52.7027294303133
20
-1.53681602099363
30
0
41
1
10
52.9754802565354
20
-1.60166357225072
30
0
41
1
10
53.3855085851124
20
-1.69179251943217
30
0
41
1
10
53.52240828433
20
-1.72076031923117
30
0
41
1
10
53.7963092752276
20
-1.77507411665724
30
0
41
1
10
53.93325856692
20
-1.80051143312011
30
0
41
1
10
54.3439218617112
20
-1.8720777035727
30
0
41
1
10
54.6173878714077
20
-1.913580463469
30
0
41
1
10
55.1632983628528
20
-1.98416591408318
30
0
41
1
10
55.4365426489433
20
-2.0124237580699
30
0
41
1
10
55.9839176581865
20
-2.05508084095874
30
0
41
1
10
56.2581051016047
20
-2.06966968317263
30
0
41
1
10
56.6679342022038
20
-2.08074427779437
30
0
41
1
10
56.8041804015951
20
-2.08262270494481
30
0
41
1
10
56.9403806785364
20
-2.08273594509149
30
0
0
SPLINE
5
E5
100
AcDbEntity
8
1
62
256
6
ByLayer
370
18
48
1
60
0
100
AcDbSpline
70
4
71
3
72
16
73
12
40
0
40
0
40
0
40
0
40
0.178636190078676
40
0.178636190078676
40
0.357272380157352
40
0.357272380157352
40
0.535908570236028
40
0.535908570236028
40
0.714544760314704
40
0.714544760314704
40
1
40
1
40
1
40
1
41
1
10
12.2310785590109
20
-1.97744245681656
30
0
41
1
10
12.4636657498148
20
-1.96903217737562
30
0
41
1
10
12.6958978181833
20
-1.95531978451689
30
0
41
1
10
13.1608258342546
20
-1.9172280739995
30
0
41
1
10
13.3934682701871
20
-1.89291887397181
30
0
41
1
10
13.8581641648244
20
-1.83459296977807
30
0
41
1
10
14.0902216067006
20
-1.80048415660084
30
0
41
1
10
14.554705282469
20
-1.72334404648845
30
0
41
1
10
14.7872696359218
20
-1.68036142543022
30
0
41
1
10
15.391577860569
20
-1.55845092449135
30
0
41
1
10
15.7624785428158
20
-1.47315527269802
30
0
41
1
10
16.1337366995843
20
-1.37959899344881
30
0
0
SPLINE
5
E6
100
AcDbEntity
8
1
62
256
6
ByLayer
370
18
48
1
60
0
100
AcDbSpline
70
4
71
3
72
60
73
56
40
0
40
0
40
0
40
0
40
0.0003976851311422
40
0.0003976851311422
40
0.0335377909450358
40
0.0335377909450358
40
0.0666778967589294
40
0.0666778967589294
40
0.099818002572823
40
0.099818002572823
40
0.166098214200608
40
0.166098214200608
40
0.232378425828394
40
0.232378425828394
40
0.265518531642287
40
0.265518531642287
40
0.298658637456179
40
0.298658637456179
40
0.331798743270072
40
0.331798743270072
40
0.364938849083965
40
0.364938849083965
40
0.398078954897857
40
0.398078954897857
40
0.43121906071175
40
0.43121906071175
40
0.464359166525643
40
0.464359166525643
40
0.497499272339535
40
0.497499272339535
40
0.530639378153428
40
0.530639378153428
40
0.56377948396732
40
0.56377948396732
40
0.630059695595106
40
0.630059695595106
40
0.696339907222892
40
0.696339907222892
40
0.729480013036784
40
0.729480013036784
40
0.762620118850677
40
0.762620118850677
40
0.79576022466457
40
0.79576022466457
40
0.828900330478462
40
0.828900330478462
40
0.862040436292355
40
0.862040436292355
40
0.895180542106247
40
0.895180542106247
40
0.92832064792014
40
0.92832064792014
40
0.961460753734033
40
0.961460753734033
40
1
40
1
40
1
40
1
41
1
10
31.0451393991243
20
1.92565148453278
30
0
41
1
10
31.047929633914
20
1.92539117122467
30
0
41
1
10
31.0507199226828
20
1.92513016657944
30
0
41
1
10
31.2860366484878
20
1.90306068959464
30
0
41
1
10
31.5185489855397
20
1.8765540214024
30
0
41
1
10
31.9832227498658
20
1.81454479160132
30
0
41
1
10
32.2152987010174
20
1.7789379697542
30
0
41
1
10
32.6798833991465
20
1.69898453621144
30
0
41
1
10
32.9125900167208
20
1.65463044091965
30
0
41
1
10
33.6101072976367
20
1.5096977600721
30
0
41
1
10
34.0740074955546
20
1.39671486850293
30
0
41
1
10
35.0042872085586
20
1.14693281720537
30
0
41
1
10
35.4685854632633
20
1.00879536407061
30
0
41
1
10
36.1657663007295
20
0.789860945422788
30
0
41
1
10
36.3984305334872
20
0.714783754459091
30
0
41
1
10
36.8632886388619
20
0.560667987590449
30
0
41
1
10
37.0954696326056
20
0.481969278885231
30
0
41
1
10
37.5601206307176
20
0.323433004459218
30
0
41
1
10
37.7925011144724
20
0.243368402466871
30
0
41
1
10
38.2573238515558
20
0.0815309765905567
30
0
41
1
10
38.489775895734
20
-0.0003210886538909
30
0
41
1
10
38.9544921149902
20
-0.162272209244634
30
0
41
1
10
39.1868426738173
20
-0.242651396085364
30
0
41
1
10
39.6514751246699
20
-0.402446258279639
30
0
41
1
10
39.8837053881841
20
-0.482168667173511
30
0
41
1
10
40.3487648272273
20
-0.638045693199444
30
0
41
1
10
40.5811966470037
20
-0.714144172842225
30
0
41
1
10
41.0458484411667
20
-0.86286212713253
30
0
41
1
10
41.2779331779686
20
-0.935860464215239
30
0
41
1
10
41.7425905118852
20
-1.07628680685968
30
0
41
1
10
41.9753200338552
20
-1.14369525773927
30
0
41
1
10
42.4402426610149
20
-1.27252160556296
30
0
41
1
10
42.6724242280941
20
-1.33431720250286
30
0
41
1
10
43.3690144743216
20
-1.50958940841778
30
0
41
1
10
43.8347017403462
20
-1.61153165514492
30
0
41
1
10
44.7633636776507
20
-1.78388636198449
30
0
41
1
10
45.2285949331503
20
-1.85121232408287
30
0
41
1
10
45.9257454473272
20
-1.9262942976882
30
0
41
1
10
46.1579126531712
20
-1.94671363310974
30
0
41
1
10
46.6225669171225
20
-1.97757972790589
30
0
41
1
10
46.8549653894763
20
-1.98819856694388
30
0
41
1
10
47.3198569516595
20
-1.99984446101351
30
0
41
1
10
47.5522505936912
20
-2.00076307198748
30
0
41
1
10
48.0169093140933
20
-1.99237478096688
30
0
41
1
10
48.2492457999911
20
-1.98321275810227
30
0
41
1
10
48.713868363725
20
-1.95539353568895
30
0
41
1
10
48.9461794618908
20
-1.93668745520199
30
0
41
1
10
49.4110729938188
20
-1.88973112644203
30
0
41
1
10
49.6434330400395
20
-1.86157261727232
30
0
41
1
10
50.1079815894963
20
-1.79608066561178
30
0
41
1
10
50.3400402003945
20
-1.75860070432168
30
0
41
1
10
50.8047201413815
20
-1.67495194381706
30
0
41
1
10
51.0374283464384
20
-1.62885513099894
30
0
41
1
10
51.5401247082048
20
-1.52089657635398
30
0
41
1
10
51.810096014222
20
-1.45742278443376
30
0
41
1
10
52.080208725533
20
-1.38938303299736
30
0
0
SPLINE
5
E7
100
AcDbEntity
8
1
62
256
6
ByLayer
370
18
48
1
60
0
100
AcDbSpline
70
4
71
3
72
22
73
18
40
0
40
0
40
0
40
0
40
0.162694215504803
40
0.162694215504803
40
0.325388431009606
40
0.325388431009606
40
0.488082646514409
40
0.488082646514409
40
0.56942975426681
40
0.56942975426681
40
0.650776862019212
40
0.650776862019212
40
0.813471077524011
40
0.813471077524011
40
0.976165293028811
40
0.976165293028811
40
1
40
1
40
1
40
1
41
1
10
58.8796222328242
20
-1.83315005125175
30
0
41
1
10
58.2912464021939
20
-1.82756163590585
30
0
41
1
10
57.7064215961147
20
-1.79265800921354
30
0
41
1
10
56.5391812178433
20
-1.66921462808708
30
0
41
1
10
55.9567213418112
20
-1.58036607602156
30
0
41
1
10
54.7893114427914
20
-1.35618641758765
30
0
41
1
10
54.204323689313
20
-1.22073386065716
30
0
41
1
10
53.3213360181462
20
-0.990437885236929
30
0
41
1
10
53.0262196431327
20
-0.909192063424939
30
0
41
1
10
52.4377877454453
20
-0.740575674872701
30
0
41
1
10
52.1439424186779
20
-0.653064611440442
30
0
41
1
10
51.2625393867283
20
-0.38385103615164
30
0
41
1
10
50.6750647126151
20
-0.195388355459698
30
0
41
1
10
49.4956820365125
20
0.183565632941622
30
0
41
1
10
48.908232092719
20
0.372528673281664
30
0
41
1
10
48.234314780675
20
0.579276135884783
30
0
41
1
10
48.1481941932069
20
0.605512454904016
30
0
41
1
10
48.0620582604275
20
0.631542998996395
30
0
0
SPLINE
5
E8
100
AcDbEntity
8
1
62
256
6
ByLayer
370
18
48
1
60
0
100
AcDbSpline
70
4
71
3
72
24
73
20
40
0
40
0
40
0
40
0
40
0.109605837723903
40
0.109605837723903
40
0.190735141579399
40
0.190735141579399
40
0.271864445434894
40
0.271864445434894
40
0.352993749290391
40
0.352993749290391
40
0.434123053145887
40
0.434123053145887
40
0.596381660856878
40
0.596381660856878
40
0.758640268567869
40
0.758640268567869
40
0.920898876278861
40
0.920898876278861
40
1
40
1
40
1
40
1
41
1
10
23.0803456166026
20
-1.85815265572668
30
0
41
1
10
22.6836481666892
20
-1.85840273086561
30
0
41
1
10
22.2868881975505
20
-1.84531733617572
30
0
41
1
10
21.5949337117875
20
-1.79933992685733
30
0
41
1
10
21.3003464843222
20
-1.77255183196905
30
0
41
1
10
20.7125161447132
20
-1.70534021927909
30
0
41
1
10
20.4189219598463
20
-1.66483819147953
30
0
41
1
10
19.8317198698016
20
-1.57101871115546
30
0
41
1
10
19.5381150485954
20
-1.51772921319295
30
0
41
1
10
18.9502439719152
20
-1.39947321642865
30
0
41
1
10
18.6556011486439
20
-1.3343844862502
30
0
41
1
10
17.772915377166
20
-1.12421789232525
30
0
41
1
10
17.1863155573622
20
-0.964334946170936
30
0
41
1
10
16.0115948110155
20
-0.61886171589029
30
0
41
1
10
15.4221210118274
20
-0.432735206396188
30
0
41
1
10
14.2470079801709
20
-0.0536700795892386
30
0
41
1
10
13.6605618330073
20
0.139442711313137
30
0
41
1
10
12.7859836959105
20
0.419930749778416
30
0
41
1
10
12.4985399769164
20
0.510917594304374
30
0
41
1
10
12.2122373439858
20
0.599301241450775
30
0
0
SPLINE
5
E9
100
AcDbEntity
8
1
62
256
6
ByLayer
370
13
48
1
60
0
100
AcDbSpline
70
4
71
3
72
8
73
4
40
0
40
0
40
0
40
0
40
1
40
1
40
1
40
1
41
1
10
58.6114289368441
20
0.729459754216805
30
0
41
1
10
58.6577064458919
20
0.686246082829911
30
0
41
1
10
58.7066922544407
20
0.647109741258902
30
0
41
1
10
58.7576466987145
20
0.610952677058123
30
0
0
SPLINE
5
EA
100
AcDbEntity
8
1
62
256
6
ByLayer
370
18
48
1
60
0
100
AcDbSpline
70
4
71
3
72
8
73
4
40
0
40
0
40
0
40
0
40
1
40
1
40
1
40
1
41
1
10
59.5450103256312
20
-0.564483477616051
30
0
41
1
10
59.5883432620177
20
-0.403689649721088
30
0
41
1
10
59.6208204245729
20
-0.24250521377769
30
0
41
1
10
59.6381652923984
20
-0.0807762937464531
30
0
0
SPLINE
5
EB
100
AcDbEntity
8
1
62
256
6
ByLayer
370
18
48
1
60
0
100
AcDbSpline
70
4
71
3
72
20
73
16
40
0
40
0
40
0
40
0
40
0.165947557342912
40
0.165947557342912
40
0.331895114685825
40
0.331895114685825
40
0.497842672028737
40
0.497842672028737
40
0.663790229371649
40
0.663790229371649
40
0.829737786714562
40
0.829737786714562
40
0.995685344057474
40
0.995685344057474
40
1
40
1
40
1
40
1
41
1
10
12.2388966677431
20
0.597325136206933
30
0
41
1
10
11.8352949503664
20
0.735851050772226
30
0
41
1
10
11.4315506288307
20
0.869909539808305
30
0
41
1
10
10.6216880650969
20
1.12357273930874
30
0
41
1
10
10.2177402003822
20
1.24266561389194
30
0
41
1
10
9.4104086583225
20
1.46026170705318
30
0
41
1
10
9.00689708710243
20
1.55882673710136
30
0
41
1
10
8.19829463740726
20
1.73176766152548
30
0
41
1
10
7.79306593827206
20
1.80594042217689
30
0
41
1
10
6.98516654496447
20
1.92583830824708
30
0
41
1
10
6.58175079410267
20
1.97177395085262
30
0
41
1
10
5.77380139547961
20
2.03367953825975
30
0
41
1
10
5.36851820453103
20
2.04966871440979
30
0
41
1
10
4.95369009621407
20
2.05021703260289
30
0
41
1
10
4.94317835313467
20
2.05022051310684
30
0
41
1
10
4.93266711002582
20
2.05021358742886
30
0
0
SPLINE
5
EC
100
AcDbEntity
8
1
62
256
6
ByLayer
370
18
48
1
60
0
100
AcDbSpline
70
4
71
3
72
8
73
4
40
0
40
0
40
0
40
0
40
1
40
1
40
1
40
1
41
1
10
58.9904038816119
20
1.95266441580932
30
0
41
1
10
59.1477774922291
20
1.5624065176392
30
0
41
1
10
59.3074559149167
20
1.17165807085104
30
0
41
1
10
59.4692725498091
20
0.780812934515978
30
0
0
SPLINE
5
ED
100
AcDbEntity
8
1
62
256
6
ByLayer
370
18
48
1
60
0
100
AcDbSpline
70
4
71
3
72
8
73
4
40
0
40
0
40
0
40
0
40
1
40
1
40
1
40
1
41
1
10
59.5450103256312
20
-0.564483477615994
30
0
41
1
10
59.5242341788915
20
-0.63171047100974
30
0
41
1
10
59.4983704083702
20
-0.704264413296528
30
0
41
1
10
59.4692725498091
20
-0.780812934516035
30
0
0
SPLINE
5
EE
100
AcDbEntity
8
1
62
256
6
ByLayer
370
18
48
1
60
0
100
AcDbSpline
70
4
71
3
72
10
73
6
40
0
40
0
40
0
40
0
40
0.5
40
0.5
40
1
40
1
40
1
40
1
41
1
10
58.8796222328055
20
-1.83315005125158
30
0
41
1
10
58.8834910545014
20
-1.83357355651466
30
0
41
1
10
58.8858008714067
20
-1.83814699983645
30
0
41
1
10
58.8839279946471
20
-1.85695887339031
30
0
41
1
10
58.8794653233331
20
-1.87098132883847
30
0
41
1
10
58.8738209650491
20
-1.88347059824974
30
0
0
SPLINE
5
EF
100
AcDbEntity
8
1
62
256
6
ByLayer
370
18
48
1
60
0
100
AcDbSpline
70
4
71
3
72
26
73
22
40
0
40
0
40
0
40
0
40
0.0887621958883623
40
0.0887621958883623
40
0.177524391776725
40
0.177524391776725
40
0.266286587665087
40
0.266286587665087
40
0.355048783553449
40
0.355048783553449
40
0.532573175330174
40
0.532573175330174
40
0.710097567106899
40
0.710097567106899
40
0.798859762995261
40
0.798859762995261
40
0.887621958883623
40
0.887621958883623
40
0.976384154771985
40
0.976384154771985
40
1
40
1
40
1
40
1
41
1
10
56.8464897003336
20
-0.128197356332578
30
0
41
1
10
56.6141529237064
20
-0.047357001043963
30
0
41
1
10
56.3817743390234
20
0.0344654088356435
30
0
41
1
10
55.9168611908838
20
0.196675159404748
30
0
41
1
10
55.6844793721121
20
0.277040641175887
30
0
41
1
10
55.2198797771338
20
0.436328231059349
30
0
41
1
10
54.9877465066769
20
0.515469809802909
30
0
41
1
10
54.5230565234362
20
0.670711938303924
30
0
41
1
10
54.2903313044207
20
0.746469181099684
30
0
41
1
10
53.5930531856727
20
0.967793324286561
30
0
41
1
10
53.1290028621436
20
1.10817994957114
30
0
41
1
10
52.1984981493993
20
1.36325528664122
30
0
41
1
10
51.7346299710823
20
1.47912667864404
30
0
41
1
10
51.0373273810654
20
1.62887588752716
30
0
41
1
10
50.804611633332
20
1.67497247096532
30
0
41
1
10
50.3399864076571
20
1.75860939319293
30
0
41
1
10
50.1079402470518
20
1.79608706450358
30
0
41
1
10
49.6433884477582
20
1.86157833333357
30
0
41
1
10
49.4110126434244
20
1.88973844823289
30
0
41
1
10
49.1166833830557
20
1.91946546903523
30
0
41
1
10
49.0548479281802
20
1.92537403452235
30
0
41
1
10
48.9930237239299
20
1.93094397140334
30
0
0
SPLINE
5
F0
100
AcDbEntity
8
1
62
256
6
ByLayer
370
18
48
1
60
0
100
AcDbSpline
70
4
71
3
72
58
73
54
40
0
40
0
40
0
40
0
40
0.0468056400812332
40
0.0468056400812332
40
0.0801679290287526
40
0.0801679290287526
40
0.113530217976272
40
0.113530217976272
40
0.146892506923791
40
0.146892506923791
40
0.180254795871311
40
0.180254795871311
40
0.21361708481883
40
0.21361708481883
40
0.246979373766349
40
0.246979373766349
40
0.280341662713869
40
0.280341662713869
40
0.313703951661388
40
0.313703951661388
40
0.380428529556425
40
0.380428529556425
40
0.447153107451462
40
0.447153107451462
40
0.5138776853465
40
0.5138776853465
40
0.547239974294017
40
0.547239974294017
40
0.580602263241535
40
0.580602263241535
40
0.613964552189052
40
0.613964552189052
40
0.64732684113657
40
0.64732684113657
40
0.680689130084088
40
0.680689130084088
40
0.714051419031606
40
0.714051419031606
40
0.747413707979123
40
0.747413707979123
40
0.780775996926641
40
0.780775996926641
40
0.814138285874158
40
0.814138285874158
40
0.847500574821676
40
0.847500574821676
40
0.914225152716713
40
0.914225152716713
40
0.94758744166423
40
0.94758744166423
40
0.980949730611748
40
0.980949730611748
40
1
40
1
40
1
40
1
41
1
10
34.1229201533359
20
-1.38035302142299
30
0
41
1
10
33.7970262437396
20
-1.46269178156837
30
0
41
1
10
33.4713700828062
20
-1.53852436318505
30
0
41
1
10
32.912609334205
20
-1.65462694063666
30
0
41
1
10
32.6799381471804
20
-1.6989741906994
30
0
41
1
10
32.2153926624025
20
-1.7789227225895
30
0
41
1
10
31.983321901233
20
-1.81453037232089
30
0
41
1
10
31.5186318417274
20
-1.8765441518907
30
0
41
1
10
31.2860462240339
20
-1.9030591722387
30
0
41
1
10
30.8210657141628
20
-1.94666919639272
30
0
41
1
10
30.5889425802377
20
-1.96367665578896
30
0
41
1
10
30.124354408832
20
-1.98801352592511
30
0
41
1
10
29.8919932599706
20
-1.99535592944039
30
0
41
1
10
29.4271771284988
20
-1.99983829619666
30
0
41
1
10
29.1947060779141
20
-1.99688820811969
30
0
41
1
10
28.7299785495044
20
-1.98155587912385
30
0
41
1
10
28.4976049906223
20
-1.96921721967791
30
0
41
1
10
28.0329080251917
20
-1.93493743099234
30
0
41
1
10
27.8006750356575
20
-1.91280979628146
30
0
41
1
10
27.1031226402839
20
-1.83252592184024
30
0
41
1
10
26.6384670855428
20
-1.76127853492596
30
0
41
1
10
25.7095217972314
20
-1.58210261613135
30
0
41
1
10
25.2439529441541
20
-1.47766109986369
30
0
41
1
10
24.3151857291868
20
-1.23903159973469
30
0
41
1
10
23.8496635188962
20
-1.10720555513541
30
0
41
1
10
23.1528797437515
20
-0.893633243024681
30
0
41
1
10
22.9207866506046
20
-0.819836351442376
30
0
41
1
10
22.4560197356843
20
-0.669726796734949
30
0
41
1
10
22.2233342248066
20
-0.592971456792299
30
0
41
1
10
21.7584322566559
20
-0.436186107682658
30
0
41
1
10
21.5263251740193
20
-0.356140967888336
30
0
41
1
10
21.0617341265754
20
-0.195823014124187
30
0
41
1
10
20.8293553948672
20
-0.115242914260051
30
0
41
1
10
20.3644698086179
20
0.0469135334428756
30
0
41
1
10
20.1320388392905
20
0.128685429628405
30
0
41
1
10
19.6674026081698
20
0.290106399037569
30
0
41
1
10
19.4350687872643
20
0.36991786086287
30
0
41
1
10
18.9704254304258
20
0.527826152091791
30
0
41
1
10
18.7381285927621
20
0.606178621317753
30
0
41
1
10
18.273221704132
20
0.759146656740342
30
0
41
1
10
18.0408377897963
20
0.83339929848168
30
0
41
1
10
17.5762276142779
20
0.977466983775599
30
0
41
1
10
17.3440318882239
20
1.04735749674191
30
0
41
1
10
16.8795234542627
20
1.18205273021556
30
0
41
1
10
16.6468057934566
20
1.24630667562818
30
0
41
1
10
15.949405760664
20
1.42949758966347
30
0
41
1
10
15.4854358537324
20
1.5395099319143
30
0
41
1
10
14.7875254967591
20
1.680313051761
30
0
41
1
10
14.5549934770171
20
1.72329380219844
30
0
41
1
10
14.0903086336306
20
1.80047208326687
30
0
41
1
10
13.8580730418672
20
1.83460928016766
30
0
41
1
10
13.4926502977201
20
1.88046733903116
30
0
41
1
10
13.3598761465638
20
1.89553337252983
30
0
41
1
10
13.2271521197259
20
1.90893500286845
30
0
0
SPLINE
5
F1
100
AcDbEntity
8
1
62
256
6
ByLayer
370
18
48
1
60
0
100
AcDbSpline
70
4
71
3
72
8
73
4
40
0
40
0
40
0
40
0
40
1
40
1
40
1
40
1
41
1
10
56.8905780018801
20
-0.397206774514473
30
0
41
1
10
56.8910309944384
20
-0.397319983829959
30
0
41
1
10
56.8914839907878
20
-0.397433129156298
30
0
41
1
10
56.8919369908979
20
-0.397546210469329
30
0
0
SPLINE
5
F2
100
AcDbEntity
8
1
62
256
6
ByLayer
370
18
48
1
60
0
100
AcDbSpline
70
4
71
3
72
16
73
12
40
0
40
0
40
0
40
0
40
0.0523006120669275
40
0.0523006120669275
40
0.104601224133855
40
0.20920244826771
40
0.41840489653542
40
0.41840489653542
40
0.83680979307084
40
0.83680979307084
40
1
40
1
40
1
40
1
41
1
10
2.54000121083723
20
-1.75616972561181
30
0
41
1
10
2.6131758001863
20
-1.76612264962307
30
0
41
1
10
2.68715545115654
20
-1.77573685125944
30
0
41
1
10
2.83418277529481
20
-1.79393818111623
30
0
41
1
10
3.05460156333541
20
-1.81987336017139
30
0
41
1
10
3.56816286901221
20
-1.87079889157977
30
0
41
1
10
4.00744015858592
20
-1.89792503645253
30
0
41
1
10
4.88576784363218
20
-1.92983251027852
30
0
41
1
10
5.47102289660492
20
-1.92100112486281
30
0
41
1
10
6.28797297298388
20
-1.86696005287953
30
0
41
1
10
6.51777817565741
20
-1.84721523128826
30
0
41
1
10
6.7469914323388
20
-1.82314818190545
30
0
0
SPLINE
5
F3
100
AcDbEntity
8
1
62
256
6
ByLayer
370
18
48
1
60
0
100
AcDbSpline
70
4
71
3
72
8
73
4
40
0
40
0
40
0
40
0
40
1
40
1
40
1
40
1
41
1
10
13.9089654776414
20
-0.0062537244262444
30
0
41
1
10
13.9333286708113
20
0.0018886493612911
30
0
41
1
10
13.9576914288735
20
0.0100308326936442
30
0
41
1
10
13.9820539500512
20
0.0181722257985371
30
0
0
SPLINE
5
F4
100
AcDbEntity
8
1
62
256
6
ByLayer
370
18
48
1
60
0
100
AcDbSpline
70
4
71
3
72
26
73
22
40
0
40
0
40
0
40
0
40
0.0522884196048092
40
0.0522884196048092
40
0.139154702021829
40
0.139154702021829
40
0.226020984438848
40
0.226020984438848
40
0.312887266855867
40
0.312887266855867
40
0.399753549272887
40
0.399753549272887
40
0.573486114106927
40
0.573486114106927
40
0.747218678940966
40
0.747218678940966
40
0.834084961357987
40
0.834084961357987
40
0.920951243775008
40
0.920951243775008
40
1
40
1
40
1
40
1
41
1
10
31.9404014575144
20
-0.0075443158211783
30
0
41
1
10
32.1175745443029
20
-0.0663757884089478
30
0
41
1
10
32.2947709736754
20
-0.125195462892378
30
0
41
1
10
32.7665409429659
20
-0.281082562684247
30
0
41
1
10
33.061315820704
20
-0.377728617414448
30
0
41
1
10
33.6500484109098
20
-0.566913678594716
30
0
41
1
10
33.9442726207448
20
-0.659529780737842
30
0
41
1
10
34.5331071106373
20
-0.83891488332705
30
0
41
1
10
34.8281752509446
20
-0.925815111153497
30
0
41
1
10
35.4158233686917
20
-1.09081487417885
30
0
41
1
10
35.708664893824
20
-1.16898890794988
30
0
41
1
10
36.5852133788474
20
-1.38844958588996
30
0
41
1
10
37.1669254779252
20
-1.51445934561272
30
0
41
1
10
38.3301553444216
20
-1.71616072089458
30
0
41
1
10
38.9116651664993
20
-1.79174003367896
30
0
41
1
10
39.7876338292457
20
-1.86223800229447
30
0
41
1
10
40.0802292569437
20
-1.87863948563378
30
0
41
1
10
40.6672817263521
20
-1.89653737279411
30
0
41
1
10
40.9622969936032
20
-1.8980091735387
30
0
41
1
10
41.5246094751524
20
-1.88640158247841
30
0
41
1
10
41.7921480515999
20
-1.87467480705598
30
0
41
1
10
42.0595682642809
20
-1.85690562587112
30
0
0
SPLINE
5
F5
100
AcDbEntity
8
1
62
256
6
ByLayer
370
18
48
1
60
0
100
AcDbSpline
70
4
71
3
72
8
73
4
40
0
40
0
40
0
40
0
40
1
40
1
40
1
40
1
41
1
10
49.9284161621041
20
0.0068578232972527
30
0
41
1
10
49.9525818211729
20
0.0148320528409727
30
0
41
1
10
49.9767510765761
20
0.0228070465103087
30
0
41
1
10
50.000924116436
20
0.0307822285371344
30
0
0
SPLINE
5
F6
100
AcDbEntity
8
1
62
256
6
ByLayer
370
18
48
1
60
0
100
AcDbSpline
70
4
71
3
72
24
73
20
40
0
40
0
40
0
40
0
40
0.11910444551572
40
0.11910444551572
40
0.23820889103144
40
0.23820889103144
40
0.35731333654716
40
0.35731333654716
40
0.47641778206288
40
0.47641778206288
40
0.595522227578601
40
0.595522227578601
40
0.714626673094321
40
0.714626673094321
40
0.833731118610039
40
0.833731118610039
40
0.952835564125758
40
0.952835564125758
40
1
40
1
40
1
40
1
41
1
10
12.2400003240657
20
0.367852220297209
30
0
41
1
10
12.7269382035969
20
0.19745644148631
30
0
41
1
10
13.2135383373717
20
0.0221743934007748
30
0
41
1
10
14.1856926838338
20
-0.324621181666998
30
0
41
1
10
14.6719905903228
20
-0.496174789678378
30
0
41
1
10
15.6446425612166
20
-0.825952894585299
30
0
41
1
10
16.129874950335
20
-0.98417587195101
30
0
41
1
10
17.1024965199559
20
-1.27619776419087
30
0
41
1
10
17.5883576097532
20
-1.40946617987308
30
0
41
1
10
18.5601347509536
20
-1.6441310620713
30
0
41
1
10
19.0460186639562
20
-1.74567816886312
30
0
41
1
10
20.0169981783726
20
-1.90795171878304
30
0
41
1
10
20.5035101155667
20
-1.96899849578279
30
0
41
1
10
21.4748696949213
20
-2.04758898711103
30
0
41
1
10
21.9606821010624
20
-2.0651665109032
30
0
41
1
10
22.9323886946095
20
-2.05531001803769
30
0
41
1
10
23.4178545915609
20
-2.02818843750839
30
0
41
1
10
24.0967398135244
20
-1.96014106542128
30
0
41
1
10
24.2890833151698
20
-1.93742456713736
30
0
41
1
10
24.4813453732197
20
-1.91145601117583
30
0
0
SPLINE
5
F7
100
AcDbEntity
8
1
62
256
6
ByLayer
370
18
48
1
60
0
100
AcDbSpline
70
4
71
3
72
32
73
28
40
0
40
0
40
0
40
0
40
0.0604404914971188
40
0.0604404914971188
40
0.138737117205693
40
0.138737117205693
40
0.217033742914266
40
0.217033742914266
40
0.295330368622839
40
0.295330368622839
40
0.373626994331413
40
0.373626994331413
40
0.451923620039986
40
0.451923620039986
40
0.53022024574856
40
0.53022024574856
40
0.608516871457133
40
0.608516871457133
40
0.686813497165706
40
0.686813497165706
40
0.76511012287428
40
0.76511012287428
40
0.843406748582853
40
0.843406748582853
40
0.921703374291427
40
0.921703374291427
40
1
40
1
40
1
40
1
41
1
10
40.2635420780505
20
2.07229940930367
30
0
41
1
10
40.6384730330829
20
2.07251918992563
30
0
41
1
10
41.0132401493393
20
2.05945455041103
30
0
41
1
10
41.8735609890088
20
1.99934210321575
30
0
41
1
10
42.3591332543268
20
1.94301443744155
30
0
41
1
10
43.329636511778
20
1.79030490959994
30
0
41
1
10
43.8159436568853
20
1.69399711230486
30
0
41
1
10
44.7864381029079
20
1.46644477798495
30
0
41
1
10
45.2717411928332
20
1.33459777619041
30
0
41
1
10
46.2426588723422
20
1.04656548421104
30
0
41
1
10
46.7279163737182
20
0.890844873401761
30
0
41
1
10
47.6998529188274
20
0.561511163327282
30
0
41
1
10
48.1842865121002
20
0.388163765927118
30
0
41
1
10
49.1550056724434
20
0.037273235347044
30
0
41
1
10
49.6407234532794
20
-0.139871429179209
30
0
41
1
10
50.6110840899408
20
-0.488234084374767
30
0
41
1
10
51.096727864136
20
-0.659995621786607
30
0
41
1
10
52.0668874559843
20
-0.98410407318093
30
0
41
1
10
52.552831706064
20
-1.136915965334
30
0
41
1
10
53.5234470375546
20
-1.41548244176238
30
0
41
1
10
54.0084295761997
20
-1.54122666586812
30
0
41
1
10
54.9798230831325
20
-1.7566261070246
30
0
41
1
10
55.4647684829202
20
-1.84614698827716
30
0
41
1
10
56.4357334643282
20
-1.98500634755823
30
0
41
1
10
56.9203174229446
20
-2.03384013814858
30
0
41
1
10
57.8880069568882
20
-2.08653951135821
30
0
41
1
10
58.3717102834759
20
-2.09071483919411
30
0
41
1
10
58.8566517238857
20
-2.07211186631818
30
0
0
SPLINE
5
F8
100
AcDbEntity
8
1
62
256
6
ByLayer
370
18
48
1
60
0
100
AcDbSpline
70
4
71
3
72
8
73
4
40
0
40
0
40
0
40
0
40
1
40
1
40
1
40
1
41
1
10
12.2311205203533
20
-2.00511099938245
30
0
41
1
10
12.4863111536056
20
-1.98614807867338
30
0
41
1
10
12.7411726270998
20
-1.96148020047553
30
0
41
1
10
12.9956058289543
20
-1.93101981496531
30
0
0
SPLINE
5
F9
100
AcDbEntity
8
1
62
256
6
ByLayer
370
18
48
1
60
0
100
AcDbSpline
70
4
71
3
72
36
73
32
40
0
40
0
40
0
40
0
40
0.062023769946665
40
0.062023769946665
40
0.130672255478988
40
0.130672255478988
40
0.199320741011312
40
0.199320741011312
40
0.267969226543635
40
0.267969226543635
40
0.336617712075959
40
0.336617712075959
40
0.405266197608282
40
0.405266197608282
40
0.473914683140606
40
0.473914683140606
40
0.542563168672929
40
0.542563168672929
40
0.611211654205252
40
0.611211654205252
40
0.679860139737576
40
0.679860139737576
40
0.748508625269899
40
0.748508625269899
40
0.817157110802223
40
0.817157110802223
40
0.885805596334546
40
0.885805596334546
40
0.954454081866869
40
0.954454081866869
40
1
40
1
40
1
40
1
41
1
10
28.9159706368048
20
2.06520307350124
30
0
41
1
10
29.3313218173236
20
2.06537077429968
30
0
41
1
10
29.747120815383
20
2.04919275508362
30
0
41
1
10
30.6213813340123
20
1.98101241578263
30
0
41
1
10
31.0812654197732
20
1.92523198455149
30
0
41
1
10
32.0002989444495
20
1.77803676334679
30
0
41
1
10
32.4598505783016
20
1.68677245452733
30
0
41
1
10
33.3791175341832
20
1.47142725702815
30
0
41
1
10
33.8375866983585
20
1.34787305558086
30
0
41
1
10
34.7564638726445
20
1.07772531523722
30
0
41
1
10
35.2163704452846
20
0.931466638111317
30
0
41
1
10
36.1349904853138
20
0.623047461549902
30
0
41
1
10
36.5948480980165
20
0.460445097530993
30
0
41
1
10
37.5135270166601
20
0.130965031827827
30
0
41
1
10
37.9733647298195
20
-0.0361551815187227
30
0
41
1
10
38.8924967243959
20
-0.36815526765605
30
0
41
1
10
39.3508889095567
20
-0.533144992711556
30
0
41
1
10
40.269779473596
20
-0.849015390747581
30
0
41
1
10
40.7291431514386
20
-0.99941685284108
30
0
41
1
10
41.6477925309645
20
-1.27822194220562
30
0
41
1
10
42.107508644621
20
-1.40727122081091
30
0
41
1
10
43.0258062501212
20
-1.63457979107471
30
0
41
1
10
43.4857478229852
20
-1.73315252548133
30
0
41
1
10
44.4046294261665
20
-1.89534250897083
30
0
41
1
10
44.8630125736816
20
-1.95928578183907
30
0
41
1
10
45.781953495504
20
-2.04757376475317
30
0
41
1
10
46.2407172685565
20
-2.07172431380562
30
0
41
1
10
47.1596557384539
20
-2.07984624093319
30
0
41
1
10
47.6194333702981
20
-2.06374659851716
30
0
41
1
10
48.3831669345704
20
-2.00405556537805
30
0
41
1
10
48.6881603102041
20
-1.97156410229908
30
0
41
1
10
48.9931195994328
20
-1.93093277246931
30
0
0
SPLINE
5
FA
100
AcDbEntity
8
1
62
256
6
ByLayer
370
18
48
1
60
0
100
AcDbSpline
70
4
71
3
72
42
73
38
40
0
40
0
40
0
40
0
40
0.02651374391933
40
0.02651374391933
40
0.0688667268817104
40
0.0688667268817104
40
0.111219709844091
40
0.111219709844091
40
0.195925675768852
40
0.195925675768852
40
0.238278658731232
40
0.238278658731232
40
0.280631641693612
40
0.280631641693612
40
0.322984624655993
40
0.322984624655993
40
0.365337607618373
40
0.365337607618373
40
0.450043573543133
40
0.450043573543133
40
0.534749539467893
40
0.534749539467893
40
0.619455505392653
40
0.619455505392653
40
0.661808488355033
40
0.661808488355033
40
0.704161471317412
40
0.704161471317412
40
0.746514454279791
40
0.746514454279791
40
0.78886743724217
40
0.78886743724217
40
0.873573403166928
40
0.873573403166928
40
0.958279369091686
40
0.958279369091686
40
1
40
1
40
1
40
1
41
1
10
7.16672940656281
20
1.8908612601935
30
0
41
1
10
7.34594330351609
20
1.91585676056869
30
0
41
1
10
7.52513896680429
20
1.93808004950679
30
0
41
1
10
7.99078885993777
20
1.98830222599082
30
0
41
1
10
8.27730270026694
20
2.01192446910133
30
0
41
1
10
8.85123564470035
20
2.04400252026878
30
0
41
1
10
9.13842386931526
20
2.05234700672452
30
0
41
1
10
9.99807738591366
20
2.05430448028113
30
0
41
1
10
10.5696864742265
20
2.02464318716059
30
0
41
1
10
11.4299680469607
20
1.93566647068118
30
0
41
1
10
11.7173855994709
20
1.89848382394229
30
0
41
1
10
12.290680744254
20
1.81015189479288
30
0
41
1
10
12.5770143244939
20
1.75920306763618
30
0
41
1
10
13.14957355504
20
1.64464860418741
30
0
41
1
10
13.4356695107479
20
1.58081128298667
30
0
41
1
10
14.0084780852649
20
1.44158075065968
30
0
41
1
10
14.2956129847055
20
1.36631185725918
30
0
41
1
10
15.1567361276192
20
1.12617939596177
30
0
41
1
10
15.7284128103688
20
0.946627706010446
30
0
41
1
10
16.8734678666864
20
0.564460114941141
30
0
41
1
10
17.4484105471606
20
0.361751992570447
30
0
41
1
10
18.5937891485266
20
-0.0486785538429046
30
0
41
1
10
19.1654283456643
20
-0.255691751600182
30
0
41
1
10
20.0256559059165
20
-0.556714735128367
30
0
41
1
10
20.3128994226583
20
-0.655927861411584
30
0
41
1
10
20.885897188867
20
-0.848075552472807
30
0
41
1
10
21.172136987826
20
-0.94086411727011
30
0
41
1
10
21.7444975342022
20
-1.11895278147773
30
0
41
1
10
22.0305488582677
20
-1.20440289745784
30
0
41
1
10
22.6033247165827
20
-1.36585475352416
30
0
41
1
10
22.8905661244466
20
-1.44168479583556
30
0
41
1
10
23.7510749441323
20
-1.65219824134195
30
0
41
1
10
24.3224591655514
20
-1.76976624951647
30
0
41
1
10
25.4676401222236
20
-1.94857546276768
30
0
41
1
10
26.0421370718501
20
-2.0104814156503
30
0
41
1
10
26.8965338926136
20
-2.05636765756861
30
0
41
1
10
27.1783014557371
20
-2.06406958789839
30
0
41
1
10
27.4601712732638
20
-2.06429793868702
30
0
0
SPLINE
5
FB
100
AcDbEntity
8
1
62
256
6
ByLayer
370
18
48
1
60
0
100
AcDbSpline
70
4
71
3
72
40
73
36
40
0
40
0
40
0
40
0
40
0.0049753669519638
40
0.0049753669519638
40
0.0635062277194941
40
0.0635062277194941
40
0.122037088487024
40
0.122037088487024
40
0.180567949254555
40
0.180567949254555
40
0.239098810022085
40
0.239098810022085
40
0.297629670789615
40
0.297629670789615
40
0.356160531557145
40
0.356160531557145
40
0.414691392324676
40
0.414691392324676
40
0.531753113859738
40
0.531753113859738
40
0.590283974627271
40
0.590283974627271
40
0.648814835394804
40
0.648814835394804
40
0.707345696162337
40
0.707345696162337
40
0.76587655692987
40
0.76587655692987
40
0.824407417697402
40
0.824407417697402
40
0.882938278464935
40
0.882938278464935
40
0.941469139232468
40
0.941469139232468
40
1
40
1
40
1
40
1
41
1
10
42.8622630722175
20
1.86233427917219
30
0
41
1
10
42.886625686135
20
1.86623457356424
30
0
41
1
10
42.910986629604
20
1.87008411782529
30
0
41
1
10
43.2219044295863
20
1.91856477127794
30
0
41
1
10
43.5081091474034
20
1.95595072500734
30
0
41
1
10
44.0801115829937
20
2.01604546230084
30
0
41
1
10
44.3658368216537
20
2.03875894728043
30
0
41
1
10
44.9378243241726
20
2.06873736112772
30
0
41
1
10
45.2243883645753
20
2.07599143662043
30
0
41
1
10
45.7981359806194
20
2.07508172040548
30
0
41
1
10
46.0843735093092
20
2.06680584989749
30
0
41
1
10
46.6562261601118
20
2.03479932044809
30
0
41
1
10
46.9420397838783
20
2.01115702145629
30
0
41
1
10
47.5140625188464
20
1.94926286887082
30
0
41
1
10
47.8002244350639
20
1.9109824369628
30
0
41
1
10
48.3733056939771
20
1.82003507073409
30
0
41
1
10
48.6601159481278
20
1.76725354597005
30
0
41
1
10
49.5184311023128
20
1.59016214368242
30
0
41
1
10
50.0895980963907
20
1.44729385742448
30
0
41
1
10
50.9483558151564
20
1.20275426554068
30
0
41
1
10
51.2354555251484
20
1.11638014634013
30
0
41
1
10
51.8082857018542
20
0.936022735583464
30
0
41
1
10
52.0941329805482
20
0.84183828790654
30
0
41
1
10
52.6657588614361
20
0.648159049507427
30
0
41
1
10
52.9515064288448
20
0.548591021070791
30
0
41
1
10
53.5236142867078
20
0.345986267828067
30
0
41
1
10
53.8102649506504
20
0.242938567171564
30
0
41
1
10
54.3835911300621
20
0.0354383896846571
30
0
41
1
10
54.6696099175804
20
-0.0690075014651939
30
0
41
1
10
55.2415268287049
20
-0.276026707128551
30
0
41
1
10
55.5274245639487
20
-0.378608272195549
30
0
41
1
10
56.0995379701615
20
-0.580712901352285
30
0
41
1
10
56.3857896640022
20
-0.680476074876736
30
0
41
1
10
56.9591538339339
20
-0.87402072714309
30
0
41
1
10
57.2453822268386
20
-0.96739903647088
30
0
41
1
10
57.5313690096332
20
-1.05690993309602
30
0
0
LINE
5
76
100
AcDbEntity
8
81
62
256
6
ByLayer
370
18
48
1
60
0
100
AcDbLine
10
59.64
20
0
30
0
11
64.64
21
0
31
0
39
0
210
0
220
0
230
1
0
LINE
5
77
100
AcDbEntity
8
1
62
256
6
ByLayer
370
18
48
1
60
0
100
AcDbLine
10
4.933339
20
2.050214
30
0
11
0.1
21
2.047193
31
0
39
0
210
0
220
0
230
1
0
LINE
5
79
100
AcDbEntity
8
1
62
256
6
ByLayer
370
18
48
1
60
0
100
AcDbLine
10
11.482512
20
2.054307
30
0
11
9.451165
21
2.053038
31
0
39
0
210
0
220
0
230
1
0
LINE
5
7A
100
AcDbEntity
8
1
62
256
6
ByLayer
370
18
48
1
60
0
100
AcDbLine
10
22.274776
20
2.061053
30
0
11
20.955434
21
2.060228
31
0
39
0
210
0
220
0
230
1
0
LINE
5
7B
100
AcDbEntity
8
1
62
256
6
ByLayer
370
18
48
1
60
0
100
AcDbLine
10
28.91513
20
2.065203
30
0
11
27.462252
21
2.064295
31
0
39
0
210
0
220
0
230
1
0
LINE
5
7C
100
AcDbEntity
8
1
62
256
6
ByLayer
370
18
48
1
60
0
100
AcDbLine
10
40.26137
20
2.072294
30
0
11
38.953
21
2.071476
31
0
39
0
210
0
220
0
230
1
0
LINE
5
7D
100
AcDbEntity
8
1
62
256
6
ByLayer
370
18
48
1
60
0
100
AcDbLine
10
46.832226
20
2.076401
30
0
11
45.476426
21
2.075554
31
0
39
0
210
0
220
0
230
1
0
LINE
5
7E
100
AcDbEntity
8
1
62
256
6
ByLayer
370
18
48
1
60
0
100
AcDbLine
10
58.24931
20
2.083537
30
0
11
56.945974
21
2.082722
31
0
39
0
210
0
220
0
230
1
0
LINE
5
7F
100
AcDbEntity
8
1
62
256
6
ByLayer
370
18
48
1
60
0
100
AcDbLine
10
56.945974
20
-2.082722
30
0
11
58.24931
21
-2.083537
31
0
39
0
210
0
220
0
230
1
0
LINE
5
80
100
AcDbEntity
8
1
62
256
6
ByLayer
370
18
48
1
60
0
100
AcDbLine
10
45.476426
20
-2.075554
30
0
11
46.832226
21
-2.076401
31
0
39
0
210
0
220
0
230
1
0
LINE
5
81
100
AcDbEntity
8
1
62
256
6
ByLayer
370
18
48
1
60
0
100
AcDbLine
10
38.953
20
-2.071476
30
0
11
40.26137
21
-2.072294
31
0
39
0
210
0
220
0
230
1
0
LINE
5
82
100
AcDbEntity
8
1
62
256
6
ByLayer
370
18
48
1
60
0
100
AcDbLine
10
27.462252
20
-2.064295
30
0
11
28.91513
21
-2.065203
31
0
39
0
210
0
220
0
230
1
0
LINE
5
83
100
AcDbEntity
8
1
62
256
6
ByLayer
370
18
48
1
60
0
100
AcDbLine
10
20.955434
20
-2.060228
30
0
11
22.274776
21
-2.061053
31
0
39
0
210
0
220
0
230
1
0
LINE
5
84
100
AcDbEntity
8
1
62
256
6
ByLayer
370
18
48
1
60
0
100
AcDbLine
10
9.451165
20
-2.053038
30
0
11
11.482512
21
-2.054307
31
0
39
0
210
0
220
0
230
1
0
LINE
5
85
100
AcDbEntity
8
1
62
256
6
ByLayer
370
18
48
1
60
0
100
AcDbLine
10
0.1
20
-2.047193
30
0
11
4.933339
21
-2.050214
31
0
39
0
210
0
220
0
230
1
0
LINE
5
86
100
AcDbEntity
8
1
62
256
6
ByLayer
370
18
48
1
60
0
100
AcDbLine
10
0
20
-2.084
30
0
11
0.1
21
-2.047193
31
0
39
0
210
0
220
0
230
1
0
LINE
5
87
100
AcDbEntity
8
1
62
256
6
ByLayer
370
18
48
1
60
0
100
AcDbLine
10
0.1
20
2.047193
30
0
11
0
21
2.084
31
0
39
0
210
0
220
0
230
1
0
LINE
5
88
100
AcDbEntity
8
SK1
62
256
6
ByLayer
370
18
48
1
60
0
100
AcDbLine
10
0
20
2.084
30
0
11
-41.200225
21
2.084
31
0
39
0
210
0
220
0
230
1
0
LINE
5
8A
100
AcDbEntity
8
SK1
62
256
6
ByLayer
370
18
48
1
60
0
100
AcDbLine
10
-41.200225
20
-2.084
30
0
11
0
21
-2.084
31
0
39
0
210
0
220
0
230
1
0
LINE
5
8B
100
AcDbEntity
8
SK1
62
256
6
ByLayer
370
18
48
1
60
0
100
AcDbLine
10
-41.200225
20
2.084
30
0
11
-41.96
21
1.324225
31
0
39
0
210
0
220
0
230
1
0
LINE
5
8C
100
AcDbEntity
8
SK1
62
256
6
ByLayer
370
18
48
1
60
0
100
AcDbLine
10
-41.96
20
-1.324225
30
0
11
-41.200225
21
-2.084
31
0
39
0
210
0
220
0
230
1
0
LINE
5
8D
100
AcDbEntity
8
SK4
62
256
6
ByLayer
370
18
48
0.05
60
0
100
AcDbLine
10
64.64
20
0
30
0
11
-46.96
21
0
31
0
39
0
210
0
220
0
230
1
0
LINE
5
8F
100
AcDbEntity
8
4
62
256
6
ByLayer
370
18
48
0.05
60
0
100
AcDbLine
10
59.64
20
0
30
0
11
0
21
0
31
0
39
0
210
0
220
0
230
1
0
LINE
5
91
100
AcDbEntity
8
80
62
256
6
ByLayer
370
18
48
1
60
0
100
AcDbLine
10
0
20
0
30
0
11
-5
21
0
31
0
39
0
210
0
220
0
230
1
0
LINE
5
92
100
AcDbEntity
8
1
62
256
6
ByLayer
370
18
48
1
60
0
100
AcDbLine
10
0
20
-2.084
30
0
11
0
21
2.084
31
0
39
0
210
0
220
0
230
1
0
LINE
5
93
100
AcDbEntity
8
1
62
256
6
ByLayer
370
18
48
1
60
0
100
AcDbLine
10
0.1
20
2.047193
30
0
11
0.1
21
-2.047193
31
0
39
0
210
0
220
0
230
1
0
LINE
5
94
100
AcDbEntity
8
1
62
256
6
ByLayer
370
13
48
1
60
0
100
AcDbLine
10
58.705667
20
0.538723
30
0
11
59.60659
21
-0.03849
31
0
39
0
210
0
220
0
230
1
0
LINE
5
95
100
AcDbEntity
8
1
62
256
6
ByLayer
370
13
48
1
60
0
100
AcDbLine
10
58.768674
20
0.613246
30
0
11
59.637461
21
0.056622
31
0
39
0
210
0
220
0
230
1
0
LINE
5
96
100
AcDbEntity
8
SK1
62
256
6
ByLayer
370
18
48
1
60
0
100
AcDbLine
10
0
20
-2.084
30
0
11
0
21
2.084
31
0
39
0
210
0
220
0
230
1
0
LINE
5
97
100
AcDbEntity
8
SK1
62
256
6
ByLayer
370
18
48
1
60
0
100
AcDbLine
10
-41.200225
20
2.084
30
0
11
-41.200225
21
-2.084
31
0
39
0
210
0
220
0
230
1
0
LINE
5
98
100
AcDbEntity
8
SK1
62
256
6
ByLayer
370
18
48
1
60
0
100
AcDbLine
10
-41.96
20
1.324225
30
0
11
-41.96
21
-1.324225
31
0
39
0
210
0
220
0
230
1
0
MTEXT
5
FC
100
AcDbEntity
8
SK6
62
256
6
ByLayer
370
13
48
1
60
0
100
AcDbMText
10
10.969169
20
34.466694
30
0
210
0
220
0
230
1
1
\W0.7425;452.1-0417-044A0-CM H10F
40
3.5
41
0
44
1.084337
50
0
71
8
72
5
7
iso_b_vert
0
DIMENSION
5
109
100
AcDbEntity
8
SK2
62
256
6
ByLayer
370
13
48
1
60
0
100
AcDbDimension
2
DimnDraft3D1
10
58.990735
20
-33.797398
30
0
11
28.420794
21
-33.797398
31
0
70
32
71
5
72
1
41
1
210
0
220
0
230
1
3
Standard
100
AcDbAlignedDimension
13
0
23
-1.5875
33
0
14
58.990735
24
-3.6715
34
0
50
0
100
AcDbRotatedDimension
1001
ACAD
1000
DSTYLE
1002
{
1070
   279
1070
     0
1070
   172
1070
     1
1070
   173
1070
     1
1070
   340
1005
FD
1070
   271
1070
     2
1070
   272
1070
     2
1070
    77
1070
     1
1070
    73
1070
     0
1070
   171
1070
     3
1070
   274
1070
     4
1070
   177
1070
    35
1070
   176
1070
    35
1070
   178
1070
    35
1070
    48
1040
-0.005
1070
    41
1041
3.5
1070
   147
1041
1.75
1070
    42
1041
1.5875
1070
    44
1041
2.0
1070
   140
1041
3.5
1070
   343
1005
0
1070
   344
1005
0
1002
}
0
DIMENSION
5
113
100
AcDbEntity
8
SK2
62
256
6
ByLayer
370
13
48
1
60
0
100
AcDbDimension
2
DimnDraft3D2
10
59.64
20
-50.776985
30
0
11
9.532035
21
-50.776985
31
0
70
32
71
5
72
1
41
1
210
0
220
0
230
1
3
Standard
100
AcDbAlignedDimension
13
-41.96
23
-3.6715
33
0
14
59.64
24
-1.5875
34
0
50
0
100
AcDbRotatedDimension
1001
ACAD
1000
DSTYLE
1002
{
1070
   279
1070
     0
1070
   172
1070
     1
1070
   173
1070
     1
1070
   340
1005
FD
1070
   271
1070
     2
1070
   272
1070
     2
1070
    77
1070
     1
1070
    73
1070
     0
1070
   171
1070
     3
1070
   274
1070
     4
1070
   177
1070
    35
1070
   176
1070
    35
1070
   178
1070
    35
1070
    48
1040
-0.005
1070
    41
1041
3.5
1070
   147
1041
1.75
1070
    42
1041
1.5875
1070
    44
1041
2.0
1070
   140
1041
3.5
1070
   343
1005
0
1070
   344
1005
0
1002
}
0
DIMENSION
5
11D
100
AcDbEntity
8
SK2
62
256
6
ByLayer
370
13
48
1
60
0
100
AcDbDimension
2
DimnDraft3D3
10
59.64
20
-23.474881
30
0
11
35.94
21
-23.474881
31
0
70
32
71
5
72
1
41
1
210
0
220
0
230
1
3
Standard
100
AcDbAlignedDimension
13
12.24
23
-3.6715
33
0
14
59.64
24
-1.5875
34
0
50
0
100
AcDbRotatedDimension
1001
ACAD
1000
DSTYLE
1002
{
1070
   279
1070
     0
1070
   172
1070
     1
1070
   173
1070
     1
1070
   340
1005
FD
1070
   271
1070
     2
1070
   272
1070
     2
1070
    77
1070
     1
1070
    73
1070
     0
1070
   171
1070
     3
1070
   274
1070
     4
1070
   177
1070
    35
1070
   176
1070
    35
1070
   178
1070
    35
1070
    48
1040
-0.005
1070
    41
1041
3.5
1070
   147
1041
1.75
1070
    42
1041
1.5875
1070
    44
1041
2.0
1070
   140
1041
3.5
1070
   343
1005
0
1070
   344
1005
0
1002
}
0
DIMENSION
5
127
100
AcDbEntity
8
SK2
62
256
6
ByLayer
370
13
48
1
60
0
100
AcDbDimension
2
DimnDraft3D4
10
58.990735
20
-11.386503
30
0
11
69.621425
21
-11.386503
31
0
70
32
71
5
72
1
41
1
210
0
220
0
230
1
3
Standard
100
AcDbAlignedDimension
13
59.64
23
-1.5875
33
0
14
58.990735
24
-11.386503
34
0
50
0
100
AcDbRotatedDimension
1001
ACAD
1000
DSTYLE
1002
{
1070
   279
1070
     0
1070
   172
1070
     1
1070
   173
1070
     1
1070
   340
1005
FD
1070
   271
1070
     2
1070
   272
1070
     2
1070
    73
1070
     0
1070
   171
1070
     3
1070
   274
1070
     4
1070
   177
1070
    35
1070
   176
1070
    35
1070
   178
1070
    35
1070
    48
1040
-0.005
1070
    41
1041
3.5
1070
   147
1041
1.75
1070
    42
1041
1.5875
1070
    44
1041
2.0
1070
   140
1041
3.5
1070
   343
1005
0
1070
   344
1005
0
1002
}
0
DIMENSION
5
131
100
AcDbEntity
8
SK2
62
256
6
ByLayer
370
13
48
1
60
0
100
AcDbDimension
2
DimnDraft3D5
10
58.990735
20
-42.427428
30
0
11
6.451412
21
-42.427428
31
0
70
32
71
5
72
1
41
1
210
0
220
0
230
1
3
Standard
100
AcDbAlignedDimension
13
-41.96
23
-3.6715
33
0
14
58.990735
24
-3.6715
34
0
50
0
100
AcDbRotatedDimension
1001
ACAD
1000
DSTYLE
1002
{
1070
   279
1070
     0
1070
   172
1070
     1
1070
   173
1070
     1
1070
   340
1005
FD
1070
   271
1070
     2
1070
   272
1070
     2
1070
    77
1070
     1
1070
    73
1070
     0
1070
   171
1070
     3
1070
   274
1070
     4
1070
   177
1070
    35
1070
   176
1070
    35
1070
   178
1070
    35
1070
    48
1040
-0.005
1070
    41
1041
3.5
1070
   147
1041
1.75
1070
    42
1041
1.5875
1070
    44
1041
2.0
1070
   140
1041
3.5
1070
   343
1005
0
1070
   344
1005
0
1002
}
0
DIMENSION
5
13C
100
AcDbEntity
8
SK2
62
256
6
ByLayer
370
13
48
1
60
0
100
AcDbDimension
2
DimnDraft3D6
10
-54.335163
20
2.084
30
0
11
-50.585163
21
20.55818
31
0
70
33
71
5
72
1
41
1
210
0
220
0
230
1
3
Standard
100
AcDbAlignedDimension
13
-43.5475
23
-2.084
33
0
14
-43.5475
24
2.084
34
0
1001
ACAD
1000
DSTYLE
1002
{
1070
   279
1070
     0
1070
    74
1070
     0
1070
   173
1070
     1
1070
   340
1005
FD
1070
   271
1070
     3
1070
   272
1070
     2
1070
    73
1070
     0
1070
   171
1070
     3
1070
   274
1070
     4
1070
   177
1070
    35
1070
   176
1070
    35
1070
   178
1070
    35
1070
    48
1040
-0.005
1070
    41
1041
3.5
1070
   147
1041
1.75
1070
    42
1041
1.5875
1070
    44
1041
2.0
1070
   140
1041
3.5
1070
   343
1005
0
1070
   344
1005
0
1002
}
0
DIMENSION
5
147
100
AcDbEntity
8
2
62
256
6
ByLayer
370
13
48
1
60
0
100
AcDbDimension
2
DimnDraft3D7
10
71.973343
20
2.084
30
0
11
71.723343
21
19.151266
31
0
70
33
71
5
72
1
41
1
210
0
220
0
230
1
3
Standard
100
AcDbAlignedDimension
13
60.578235
23
-2.084
33
0
14
60.578235
24
2.084
34
0
1001
ACAD
1000
DSTYLE
1002
{
1070
   279
1070
     0
1070
    74
1070
     0
1070
   173
1070
     1
1070
   340
1005
FD
1070
   271
1070
     3
1070
   272
1070
     2
1070
    73
1070
     0
1070
   171
1070
     3
1070
   274
1070
     4
1070
   177
1070
    35
1070
   176
1070
    35
1070
   178
1070
    35
1070
    48
1040
-0.005
1070
    41
1041
3.5
1070
   147
1041
1.75
1070
    42
1041
1.5875
1070
    44
1041
2.0
1070
   140
1041
3.5
1070
   343
1005
0
1070
   344
1005
0
1002
}
0
ENDSEC
0
SECTION
2
OBJECTS
0
DICTIONARY
5
1b2
330
0
100
AcDbDictionary
280
0
281
1
3
ACAD_GROUP
350
1b3
3
ACAD_MLINESTYLE
350
1b4
0
DICTIONARY
5
1b3
330
0
100
AcDbDictionary
280
0
281
1
0
DICTIONARY
5
1b4
330
0
100
AcDbDictionary
280
0
281
1
3
Standard
350
18
0
MLINESTYLE
5
18
330
1b4
100
AcDbMlineStyle
2
Standard
70
0
3

62
256
51
90
52
90
71
2
49
-0.5
62
256
6
ByLayer
49
0.5
62
256
6
ByLayer
0
RASTERVARIABLES
5
1a0
330

100
AcDbRasterVariables
90
0
70
1
71
1
72
1
0
ENDSEC
0
EOF
