0
SECTION
2
HEADER
9
$ACADVER
1
AC1015
9
$DWGCODEPAGE
3
ANSI_1252
9
$HANDSEED
5
1b4
9
$ANGBASE
50
0
9
$ANGDIR
70
0
9
$ATTMODE
70
1
9
$AUNITS
70
0
9
$AUPREC
70
0
9
$CECOLOR
62
256
9
$CELTSCALE
40
1
9
$CELTYPE
6
ByLayer
9
$CELWEIGHT
370
18
9
$CLAYER
8
0
9
$CMLJUST
70
0
9
$CMLSCALE
40
1
9
$CMLSTYLE
2
Standard
9
$DIMSTYLE
2
Standard
9
$TEXTSIZE
40
0.2
9
$TEXTSTYLE
7
Standard
9
$LUNITS
70
2
9
$LUPREC
70
4
9
$EXTNAMES
290
1
9
$INSUNITS
70
4
9
$LTSCALE
40
1
9
$LWDISPLAY
290
1
9
$PDMODE
70
0
9
$PDSIZE
40
0
9
$PLINEGEN
70
0
0
ENDSEC
0
SECTION
2
CLASSES
0
CLASS
1
RASTERVARIABLES
2
AcDbRasterVariables
3
ISM
90
0
280
0
281
0
0
ENDSEC
0
SECTION
2
TABLES
0
TABLE
2
VPORT
5
1aa
100
AcDbSymbolTable
0
VPORT
5
1
100
AcDbSymbolTableRecord
100
AcDbViewportTableRecord
2
*Active
70
0
10
0
20
0
11
1
21
1
12
-1
22
1
13
0
23
0
14
0.5
24
0.5
15
10
25
10
16
0
26
0
36
1
17
0
27
0
37
0
0
ENDTAB
0
TABLE
2
LTYPE
5
1ab
100
AcDbSymbolTable
0
LTYPE
5
14
100
AcDbSymbolTableRecord
100
AcDbLinetypeTableRecord
70
0
2
ByBlock
3

72
65
73
0
40
0
0
LTYPE
5
15
100
AcDbSymbolTableRecord
100
AcDbLinetypeTableRecord
70
0
2
ByLayer
3

72
65
73
0
40
0
0
LTYPE
5
16
100
AcDbSymbolTableRecord
100
AcDbLinetypeTableRecord
70
0
2
CONTINUOUS
3
Solid line
72
65
73
0
40
0
0
LTYPE
5
6A
100
AcDbSymbolTableRecord
100
AcDbLinetypeTableRecord
70
0
2
CENTER
3
____ _ ____ _ ____ _ ____
72
65
73
4
40
47.5
49
22
74
0
49
-8.5
74
0
49
8.5
74
0
49
-8.5
74
0
0
LTYPE
5
6B
100
AcDbSymbolTableRecord
100
AcDbLinetypeTableRecord
70
0
2
DASHED
3
__ __ __ __ __ __ __ __ __
72
65
73
2
40
25.72
49
12.86
74
0
49
-12.86
74
0
0
ENDTAB
0
TABLE
2
LAYER
5
1ac
100
AcDbSymbolTable
0
LAYER
5
10
100
AcDbSymbolTableRecord
100
AcDbLayerTableRecord
2
0
70
0
62
7
6
CONTINUOUS
290
1
370
-3
390
0
0
LAYER
5
6D
100
AcDbSymbolTableRecord
100
AcDbLayerTableRecord
2
81
70
0
62
-3
6
CONTINUOUS
290
1
370
-3
390
0
0
LAYER
5
6F
100
AcDbSymbolTableRecord
100
AcDbLayerTableRecord
2
80
70
0
62
-6
6
CONTINUOUS
290
1
370
-3
390
0
0
LAYER
5
74
100
AcDbSymbolTableRecord
100
AcDbLayerTableRecord
2
2
70
0
62
7
6
CONTINUOUS
290
1
370
-3
390
0
0
LAYER
5
78
100
AcDbSymbolTableRecord
100
AcDbLayerTableRecord
2
1
70
0
62
4
6
CONTINUOUS
290
1
370
-3
390
0
0
LAYER
5
94
100
AcDbSymbolTableRecord
100
AcDbLayerTableRecord
2
4
70
0
62
-2
6
CENTER
290
1
370
-3
390
0
0
LAYER
5
196
100
AcDbSymbolTableRecord
100
AcDbLayerTableRecord
2
SK2
70
0
62
7
6
CONTINUOUS
290
1
370
-3
390
0
0
LAYER
5
197
100
AcDbSymbolTableRecord
100
AcDbLayerTableRecord
2
SK1
70
0
62
4
6
CONTINUOUS
290
1
370
-3
390
0
0
LAYER
5
198
100
AcDbSymbolTableRecord
100
AcDbLayerTableRecord
2
SK4
70
0
62
2
6
CENTER
290
1
370
-3
390
0
0
LAYER
5
199
100
AcDbSymbolTableRecord
100
AcDbLayerTableRecord
2
SK6
70
0
62
5
6
CONTINUOUS
290
1
370
-3
390
0
0
ENDTAB
0
TABLE
2
STYLE
5
1ad
100
AcDbSymbolTable
0
STYLE
5
11
100
AcDbSymbolTableRecord
100
AcDbTextStyleTableRecord
2
Standard
3
txt
70
0
71
0
40
0
41
1
42
0
50
0
0
STYLE
5
F2
100
AcDbSymbolTableRecord
100
AcDbTextStyleTableRecord
2
iso_b_vert
3
simplex.shx
70
0
71
0
40
0
41
1
42
0
50
0
0
STYLE
5
F3
100
AcDbSymbolTableRecord
100
AcDbTextStyleTableRecord
2
DWGDirectTextStyle
3
simplex
70
0
71
0
40
0
41
1
42
0
50
0
0
ENDTAB
0
TABLE
2
DIMSTYLE
5
1ae
100
AcDbSymbolTable
100
AcDbDimStyleTable
0
DIMSTYLE
105
27
100
AcDbSymbolTableRecord
100
AcDbDimStyleTableRecord
2
Standard
70
0
3
<>
41
0.18
42
0.0625
44
0.18
140
0.18
147
0.09
73
0
74
0
77
1
271
2
275
0
278
52
280
0
340
11
0
ENDTAB
0
TABLE
2
VIEW
5
1af
100
AcDbSymbolTable
0
ENDTAB
0
TABLE
2
UCS
5
1b0
100
AcDbSymbolTable
0
ENDTAB
0
TABLE
2
APPID
5
1b1
100
AcDbSymbolTable
0
APPID
5
12
100
AcDbSymbolTableRecord
100
AcDbRegAppTableRecord
2
ACAD
70
0
0
ENDTAB
0
TABLE
2
BLOCK_RECORD
5
1b2
100
AcDbSymbolTable
0
BLOCK_RECORD
5
1F
100
AcDbSymbolTableRecord
100
AcDbBlockTableRecord
2
*Model_Space
340
0
70
0
0
BLOCK_RECORD
5
1B
100
AcDbSymbolTableRecord
100
AcDbBlockTableRecord
2
*Paper_Space
340
0
70
0
0
BLOCK_RECORD
5
23
100
AcDbSymbolTableRecord
100
AcDbBlockTableRecord
2
*Paper_Space0
340
0
70
0
0
BLOCK_RECORD
5
F5
100
AcDbSymbolTableRecord
100
AcDbBlockTableRecord
2
DimnDraft3D1
340
0
70
0
0
BLOCK_RECORD
5
FF
100
AcDbSymbolTableRecord
100
AcDbBlockTableRecord
2
DimnDraft3D2
340
0
70
0
0
BLOCK_RECORD
5
109
100
AcDbSymbolTableRecord
100
AcDbBlockTableRecord
2
DimnDraft3D3
340
0
70
0
0
BLOCK_RECORD
5
113
100
AcDbSymbolTableRecord
100
AcDbBlockTableRecord
2
DimnDraft3D4
340
0
70
0
0
BLOCK_RECORD
5
11D
100
AcDbSymbolTableRecord
100
AcDbBlockTableRecord
2
DimnDraft3D5
340
0
70
0
0
BLOCK_RECORD
5
127
100
AcDbSymbolTableRecord
100
AcDbBlockTableRecord
2
DimnDraft3D6
340
0
70
0
0
BLOCK_RECORD
5
132
100
AcDbSymbolTableRecord
100
AcDbBlockTableRecord
2
DimnDraft3D7
340
0
70
0
0
ENDTAB
0
ENDSEC
0
SECTION
2
BLOCKS
0
BLOCK
5
20
100
AcDbEntity
8
0
100
AcDbBlockBegin
2
*Model_Space
70
0
10
0
20
0
30
0
3
*Model_Space
0
ENDBLK
5
21
100
AcDbEntity
8
0
100
AcDbBlockEnd
0
BLOCK
5
1C
100
AcDbEntity
8
0
100
AcDbBlockBegin
2
*Paper_Space
70
0
10
0
20
0
30
0
3
*Paper_Space
0
ENDBLK
5
1D
100
AcDbEntity
8
0
100
AcDbBlockEnd
0
BLOCK
5
24
100
AcDbEntity
8
0
100
AcDbBlockBegin
2
*Paper_Space0
70
0
10
0
20
0
30
0
3
*Paper_Space0
0
ENDBLK
5
25
100
AcDbEntity
8
0
100
AcDbBlockEnd
0
BLOCK
5
FC
100
AcDbEntity
8
0
100
AcDbBlockBegin
2
DimnDraft3D1
70
0
10
0
20
0
30
0
3
DimnDraft3D1
0
MTEXT
5
F6
100
AcDbEntity
8
SK2
62
256
6
ByLayer
370
13
48
1
60
0
100
AcDbMText
10
23.661383
20
-32.470398
30
0
210
0
220
0
230
1
1
\W0.7317;58,23
40
3.5
41
0
44
1.084337
50
0
71
7
72
5
7
iso_b_vert
0
LINE
5
F7
100
AcDbEntity
8
SK2
62
256
6
ByLayer
370
13
48
1
60
0
100
AcDbLine
10
0
20
-1.5875
30
0
11
0
21
-35.345398
31
0
39
0
210
0
220
0
230
1
0
LINE
5
F8
100
AcDbEntity
8
SK2
62
256
6
ByLayer
370
13
48
1
60
0
100
AcDbLine
10
58.230009
20
-3.2195
30
0
11
58.230009
21
-35.345398
31
0
39
0
210
0
220
0
230
1
0
LINE
5
F9
100
AcDbEntity
8
SK2
62
256
6
ByLayer
370
13
48
1
60
0
100
AcDbLine
10
0
20
-33.345398
30
0
11
58.230009
21
-33.345398
31
0
39
0
210
0
220
0
230
1
0
SOLID
5
FA
100
AcDbEntity
8
SK2
62
256
6
ByLayer
370
13
48
1
60
0
100
AcDbTrace
10
0
20
-33.345398
30
0
11
3.499998
21
-32.884615
31
0
12
3.500002
22
-33.806182
32
0
13
0
23
-33.345398
33
0
39
0
210
0
220
0
230
1
0
SOLID
5
FB
100
AcDbEntity
8
SK2
62
256
6
ByLayer
370
13
48
1
60
0
100
AcDbTrace
10
58.230009
20
-33.345398
30
0
11
54.73001
21
-33.806182
31
0
12
54.730007
22
-32.884615
32
0
13
58.230009
23
-33.345398
33
0
39
0
210
0
220
0
230
1
0
ENDBLK
5
FD
100
AcDbEntity
8
0
100
AcDbBlockEnd
0
BLOCK
5
106
100
AcDbEntity
8
0
100
AcDbBlockBegin
2
DimnDraft3D2
70
0
10
0
20
0
30
0
3
DimnDraft3D2
0
MTEXT
5
100
100
AcDbEntity
8
SK2
62
256
6
ByLayer
370
13
48
1
60
0
100
AcDbMText
10
3.88973
20
-49.449985
30
0
210
0
220
0
230
1
1
\W0.6440;101,60
40
3.5
41
0
44
1.084337
50
0
71
7
72
5
7
iso_b_vert
0
LINE
5
101
100
AcDbEntity
8
SK2
62
256
6
ByLayer
370
13
48
1
60
0
100
AcDbLine
10
-42.86
20
-3.2195
30
0
11
-42.86
21
-52.324985
31
0
39
0
210
0
220
0
230
1
0
LINE
5
102
100
AcDbEntity
8
SK2
62
256
6
ByLayer
370
13
48
1
60
0
100
AcDbLine
10
58.74
20
-1.5875
30
0
11
58.74
21
-52.324985
31
0
39
0
210
0
220
0
230
1
0
LINE
5
103
100
AcDbEntity
8
SK2
62
256
6
ByLayer
370
13
48
1
60
0
100
AcDbLine
10
-42.86
20
-50.324985
30
0
11
58.74
21
-50.324985
31
0
39
0
210
0
220
0
230
1
0
SOLID
5
104
100
AcDbEntity
8
SK2
62
256
6
ByLayer
370
13
48
1
60
0
100
AcDbTrace
10
-42.86
20
-50.324985
30
0
11
-39.360002
21
-49.864202
31
0
12
-39.359998
22
-50.785769
32
0
13
-42.86
23
-50.324985
33
0
39
0
210
0
220
0
230
1
0
SOLID
5
105
100
AcDbEntity
8
SK2
62
256
6
ByLayer
370
13
48
1
60
0
100
AcDbTrace
10
58.74
20
-50.324985
30
0
11
55.240002
21
-50.785769
31
0
12
55.239998
22
-49.864202
32
0
13
58.74
23
-50.324985
33
0
39
0
210
0
220
0
230
1
0
ENDBLK
5
107
100
AcDbEntity
8
0
100
AcDbBlockEnd
0
BLOCK
5
110
100
AcDbEntity
8
0
100
AcDbBlockBegin
2
DimnDraft3D3
70
0
10
0
20
0
30
0
3
DimnDraft3D3
0
MTEXT
5
10A
100
AcDbEntity
8
SK2
62
256
6
ByLayer
370
13
48
1
60
0
100
AcDbMText
10
30.307105
20
-22.147881
30
0
210
0
220
0
230
1
1
\W0.7581;47,60
40
3.5
41
0
44
1.084337
50
0
71
7
72
5
7
iso_b_vert
0
LINE
5
10B
100
AcDbEntity
8
SK2
62
256
6
ByLayer
370
13
48
1
60
0
100
AcDbLine
10
11.14
20
-3.2195
30
0
11
11.14
21
-25.022881
31
0
39
0
210
0
220
0
230
1
0
LINE
5
10C
100
AcDbEntity
8
SK2
62
256
6
ByLayer
370
13
48
1
60
0
100
AcDbLine
10
58.74
20
-1.5875
30
0
11
58.74
21
-25.022881
31
0
39
0
210
0
220
0
230
1
0
LINE
5
10D
100
AcDbEntity
8
SK2
62
256
6
ByLayer
370
13
48
1
60
0
100
AcDbLine
10
11.14
20
-23.022881
30
0
11
58.74
21
-23.022881
31
0
39
0
210
0
220
0
230
1
0
SOLID
5
10E
100
AcDbEntity
8
SK2
62
256
6
ByLayer
370
13
48
1
60
0
100
AcDbTrace
10
11.14
20
-23.022881
30
0
11
14.639998
21
-22.562097
31
0
12
14.640002
22
-23.483665
32
0
13
11.14
23
-23.022881
33
0
39
0
210
0
220
0
230
1
0
SOLID
5
10F
100
AcDbEntity
8
SK2
62
256
6
ByLayer
370
13
48
1
60
0
100
AcDbTrace
10
58.74
20
-23.022881
30
0
11
55.240002
21
-23.483665
31
0
12
55.239998
22
-22.562097
32
0
13
58.74
23
-23.022881
33
0
39
0
210
0
220
0
230
1
0
ENDBLK
5
111
100
AcDbEntity
8
0
100
AcDbBlockEnd
0
BLOCK
5
11A
100
AcDbEntity
8
0
100
AcDbBlockBegin
2
DimnDraft3D4
70
0
10
0
20
0
30
0
3
DimnDraft3D4
0
MTEXT
5
114
100
AcDbEntity
8
SK2
62
256
6
ByLayer
370
13
48
1
60
0
100
AcDbMText
10
69.596425
20
-13.559503
30
0
210
0
220
0
230
1
1
\W0.6993;0,51
40
3.5
41
0
44
1.084337
50
0
71
7
72
5
7
iso_b_vert
0
LINE
5
115
100
AcDbEntity
8
SK2
62
256
6
ByLayer
370
13
48
1
60
0
100
AcDbLine
10
58.74
20
-1.5875
30
0
11
58.74
21
-12.934503
31
0
39
0
210
0
220
0
230
1
0
LINE
5
116
100
AcDbEntity
8
SK2
62
256
6
ByLayer
370
13
48
1
60
0
100
AcDbLine
10
58.230009
20
-3.2195
30
0
11
58.230009
21
-12.934503
31
0
39
0
210
0
220
0
230
1
0
LINE
5
117
100
AcDbEntity
8
SK2
62
256
6
ByLayer
370
13
48
1
60
0
100
AcDbLine
10
49.480009
20
-10.934503
30
0
11
67.221425
21
-10.934503
31
0
39
0
210
0
220
0
230
1
0
SOLID
5
118
100
AcDbEntity
8
SK2
62
256
6
ByLayer
370
13
48
1
60
0
100
AcDbTrace
10
58.74
20
-10.934503
30
0
11
62.239998
21
-10.473719
31
0
12
62.240002
22
-11.395287
32
0
13
58.74
23
-10.934503
33
0
39
0
210
0
220
0
230
1
0
SOLID
5
119
100
AcDbEntity
8
SK2
62
256
6
ByLayer
370
13
48
1
60
0
100
AcDbTrace
10
58.230009
20
-10.934503
30
0
11
54.73001
21
-11.395287
31
0
12
54.730007
22
-10.473719
32
0
13
58.230009
23
-10.934503
33
0
39
0
210
0
220
0
230
1
0
ENDBLK
5
11B
100
AcDbEntity
8
0
100
AcDbBlockEnd
0
BLOCK
5
124
100
AcDbEntity
8
0
100
AcDbBlockBegin
2
DimnDraft3D5
70
0
10
0
20
0
30
0
3
DimnDraft3D5
0
MTEXT
5
11E
100
AcDbEntity
8
SK2
62
256
6
ByLayer
370
13
48
1
60
0
100
AcDbMText
10
0.809106
20
-41.100428
30
0
210
0
220
0
230
1
1
\W0.6501;101,09
40
3.5
41
0
44
1.084337
50
0
71
7
72
5
7
iso_b_vert
0
LINE
5
11F
100
AcDbEntity
8
SK2
62
256
6
ByLayer
370
13
48
1
60
0
100
AcDbLine
10
-42.86
20
-3.2195
30
0
11
-42.86
21
-43.975428
31
0
39
0
210
0
220
0
230
1
0
LINE
5
120
100
AcDbEntity
8
SK2
62
256
6
ByLayer
370
13
48
1
60
0
100
AcDbLine
10
58.230009
20
-3.2195
30
0
11
58.230009
21
-43.975428
31
0
39
0
210
0
220
0
230
1
0
LINE
5
121
100
AcDbEntity
8
SK2
62
256
6
ByLayer
370
13
48
1
60
0
100
AcDbLine
10
-42.86
20
-41.975428
30
0
11
58.230009
21
-41.975428
31
0
39
0
210
0
220
0
230
1
0
SOLID
5
122
100
AcDbEntity
8
SK2
62
256
6
ByLayer
370
13
48
1
60
0
100
AcDbTrace
10
-42.86
20
-41.975428
30
0
11
-39.360002
21
-41.514645
31
0
12
-39.359998
22
-42.436212
32
0
13
-42.86
23
-41.975428
33
0
39
0
210
0
220
0
230
1
0
SOLID
5
123
100
AcDbEntity
8
SK2
62
256
6
ByLayer
370
13
48
1
60
0
100
AcDbTrace
10
58.230009
20
-41.975428
30
0
11
54.73001
21
-42.436212
31
0
12
54.730007
22
-41.514645
32
0
13
58.230009
23
-41.975428
33
0
39
0
210
0
220
0
230
1
0
ENDBLK
5
125
100
AcDbEntity
8
0
100
AcDbBlockEnd
0
BLOCK
5
12F
100
AcDbEntity
8
0
100
AcDbBlockBegin
2
DimnDraft3D6
70
0
10
0
20
0
30
0
3
DimnDraft3D6
0
MTEXT
5
128
100
AcDbEntity
8
SK2
62
256
6
ByLayer
370
13
48
1
60
0
100
AcDbMText
10
-50.610163
20
20.98118
30
0
210
0
220
0
230
1
1
\W0.7495;3,264
40
3.5
41
0
44
1.084337
50
90
71
7
72
5
7
iso_b_vert
0
MTEXT
5
129
100
AcDbEntity
8
SK2
62
256
6
ByLayer
370
13
48
1
60
0
100
AcDbMText
10
-50.610163
20
15.758524
30
0
210
0
220
0
230
1
1
%%c
40
3.5
41
0
44
1.084337
50
90
71
7
72
5
7
iso_b_vert
0
LINE
5
12A
100
AcDbEntity
8
SK2
62
256
6
ByLayer
370
13
48
1
60
0
100
AcDbLine
10
-44.4475
20
-1.632
30
0
11
-55.235163
21
-1.632
31
0
39
0
210
0
220
0
230
1
0
LINE
5
12B
100
AcDbEntity
8
SK2
62
256
6
ByLayer
370
13
48
1
60
0
100
AcDbLine
10
-44.4475
20
1.632
30
0
11
-55.235163
21
1.632
31
0
39
0
210
0
220
0
230
1
0
LINE
5
12C
100
AcDbEntity
8
SK2
62
256
6
ByLayer
370
13
48
1
60
0
100
AcDbLine
10
-53.235163
20
11.60618
30
0
11
-53.235163
21
-10.382
31
0
39
0
210
0
220
0
230
1
0
SOLID
5
12D
100
AcDbEntity
8
SK2
62
256
6
ByLayer
370
13
48
1
60
0
100
AcDbTrace
10
-53.235163
20
-1.632
30
0
11
-52.774379
21
-5.131998
31
0
12
-53.695946
22
-5.132002
32
0
13
-53.235163
23
-1.632
33
0
39
0
210
0
220
0
230
1
0
SOLID
5
12E
100
AcDbEntity
8
SK2
62
256
6
ByLayer
370
13
48
1
60
0
100
AcDbTrace
10
-53.235163
20
1.632
30
0
11
-53.695946
21
5.131998
31
0
12
-52.774379
22
5.132002
32
0
13
-53.235163
23
1.632
33
0
39
0
210
0
220
0
230
1
0
ENDBLK
5
130
100
AcDbEntity
8
0
100
AcDbBlockEnd
0
BLOCK
5
13A
100
AcDbEntity
8
0
100
AcDbBlockBegin
2
DimnDraft3D7
70
0
10
0
20
0
30
0
3
DimnDraft3D7
0
MTEXT
5
133
100
AcDbEntity
8
2
62
256
6
ByLayer
370
13
48
1
60
0
100
AcDbMText
10
71.698343
20
19.574266
30
0
210
0
220
0
230
1
1
\W0.7495;3,264
40
3.5
41
0
44
1.084337
50
90
71
7
72
5
7
iso_b_vert
0
MTEXT
5
134
100
AcDbEntity
8
2
62
256
6
ByLayer
370
13
48
1
60
0
100
AcDbMText
10
71.698343
20
14.35161
30
0
210
0
220
0
230
1
1
%%c
40
3.5
41
0
44
1.084337
50
90
71
7
72
5
7
iso_b_vert
0
LINE
5
135
100
AcDbEntity
8
2
62
256
6
ByLayer
370
13
48
1
60
0
100
AcDbLine
10
59.817509
20
-1.632
30
0
11
71.073343
21
-1.632
31
0
39
0
210
0
220
0
230
1
0
LINE
5
136
100
AcDbEntity
8
2
62
256
6
ByLayer
370
13
48
1
60
0
100
AcDbLine
10
59.817509
20
1.632
30
0
11
71.073343
21
1.632
31
0
39
0
210
0
220
0
230
1
0
LINE
5
137
100
AcDbEntity
8
2
62
256
6
ByLayer
370
13
48
1
60
0
100
AcDbLine
10
69.073343
20
10.199266
30
0
11
69.073343
21
-10.382
31
0
39
0
210
0
220
0
230
1
0
SOLID
5
138
100
AcDbEntity
8
2
62
256
6
ByLayer
370
13
48
1
60
0
100
AcDbTrace
10
69.073343
20
-1.632
30
0
11
69.534126
21
-5.131998
31
0
12
68.612559
22
-5.132002
32
0
13
69.073343
23
-1.632
33
0
39
0
210
0
220
0
230
1
0
SOLID
5
139
100
AcDbEntity
8
2
62
256
6
ByLayer
370
13
48
1
60
0
100
AcDbTrace
10
69.073343
20
1.632
30
0
11
68.612559
21
5.131998
31
0
12
69.534126
22
5.132002
32
0
13
69.073343
23
1.632
33
0
39
0
210
0
220
0
230
1
0
ENDBLK
5
13B
100
AcDbEntity
8
0
100
AcDbBlockEnd
0
ENDSEC
0
SECTION
2
ENTITIES
0
ELLIPSE
5
9D
100
AcDbEntity
8
1
62
256
6
ByLayer
370
18
48
1
60
0
100
AcDbEllipse
10
45.139704
20
-4.961238
30
0
11
13.4825133480949
21
5.65184580382789
31
0
210
0
220
0
230
-1
40
0.312438
41
0.132432311039039
42
0.138090789145884
0
ELLIPSE
5
9E
100
AcDbEntity
8
1
62
256
6
ByLayer
370
18
48
1
60
0
100
AcDbEllipse
10
57.209432
20
1.17741
30
0
11
1.91453495203028
21
3.04332218480872
31
0
210
0
220
0
230
-1
40
0.533569
41
1.63535649522796
42
2.00455389786469
0
ELLIPSE
5
9F
100
AcDbEntity
8
1
62
256
6
ByLayer
370
18
48
1
60
0
100
AcDbEllipse
10
2.539996
20
-2E-06
30
0
11
0.00255557877598946
21
-1.59719374192595
31
0
210
0
220
0
230
-1
40
0.00755
41
-0.818042877439722
42
-3.25273206666107E-05
0
ELLIPSE
5
A0
100
AcDbEntity
8
1
62
256
6
ByLayer
370
18
48
1
60
0
100
AcDbEllipse
10
2.539996
20
2E-06
30
0
11
0.00255557877627075
21
1.59719374200225
31
0
210
0
220
0
230
-1
40
0.00755
41
-0.208047987304463
42
0.405232985693405
0
ELLIPSE
5
A1
100
AcDbEntity
8
1
62
256
6
ByLayer
370
18
48
1
60
0
100
AcDbEllipse
10
58.767106
20
-0.000436
30
0
11
2.41034935349752
21
-0.741954091616579
31
0
210
0
220
0
230
-1
40
0.603219
41
2.43518526967753
42
2.79410598639406
0
ELLIPSE
5
A2
100
AcDbEntity
8
1
62
256
6
ByLayer
370
13
48
1
60
0
100
AcDbEllipse
10
58.586629
20
0.811435
30
0
11
0.994174836836819
21
-0.302197393068203
31
0
210
0
220
0
230
-1
40
0.59729
41
2.18237638289615
42
2.30430171977054
0
POINT
5
6C
100
AcDbEntity
8
81
62
256
6
ByLayer
370
18
48
1
60
0
100
AcDbPoint
10
58.74
20
0
30
0
39
0
210
0
220
0
230
1
50
360
0
POINT
5
6E
100
AcDbEntity
8
80
62
256
6
ByLayer
370
18
48
1
60
0
100
AcDbPoint
10
0
20
0
30
0
39
0
210
0
220
0
230
1
50
360
0
POINT
5
70
100
AcDbEntity
8
SK2
62
256
6
ByLayer
370
18
48
1
60
1
100
AcDbPoint
10
-42.86
20
-1.632
30
0
39
0
210
0
220
0
230
1
50
360
0
POINT
5
72
100
AcDbEntity
8
SK2
62
256
6
ByLayer
370
18
48
1
60
1
100
AcDbPoint
10
-42.86
20
1.632
30
0
39
0
210
0
220
0
230
1
50
360
0
POINT
5
73
100
AcDbEntity
8
2
62
256
6
ByLayer
370
18
48
1
60
1
100
AcDbPoint
10
58.230009
20
-1.632
30
0
39
0
210
0
220
0
230
1
50
360
0
POINT
5
75
100
AcDbEntity
8
2
62
256
6
ByLayer
370
18
48
1
60
1
100
AcDbPoint
10
58.230009
20
1.632
30
0
39
0
210
0
220
0
230
1
50
360
0
SPLINE
5
A3
100
AcDbEntity
8
1
62
256
6
ByLayer
370
18
48
1
60
0
100
AcDbSpline
70
4
71
3
72
12
73
8
40
0
40
0
40
0
40
0
40
0.317139887139948
40
0.550339699821103
40
0.718915276645146
40
0.904027596535003
40
1
40
1
40
1
40
1
41
1
10
29.9249235011822
20
-1.401046382966
30
0
41
1
10
30.1544186594856
20
-1.40074004978345
30
0
41
1
10
30.5526540716312
20
-1.40001797871275
30
0
41
1
10
31.07328023683
20
-1.3986903142698
30
0
41
1
10
31.497665805546
20
-1.39728247586371
30
0
41
1
10
31.8232268007955
20
-1.39624588650579
30
0
41
1
10
32.0267049074048
20
-1.39574554939944
30
0
41
1
10
32.0961792727977
20
-1.39558645774244
30
0
0
SPLINE
5
A4
100
AcDbEntity
8
1
62
256
6
ByLayer
370
18
48
1
60
0
100
AcDbSpline
70
4
71
3
72
15
73
11
40
0
40
0
40
0
40
0
40
0.283546087648652
40
0.490049642834988
40
0.619568046413726
40
0.688375714693081
40
0.769801283806635
40
0.872796366416011
40
0.991406448115812
40
1
40
1
40
1
40
1
41
1
10
20.2505809280551
20
1.39295812640489
30
0
41
1
10
20.0320103020645
20
1.39390672732702
30
0
41
1
10
19.6542197361756
20
1.39568886703287
30
0
41
1
10
19.1765643747536
20
1.3990701616745
30
0
41
1
10
18.8643552582791
20
1.4005512244517
30
0
41
1
10
18.6488614461849
20
1.40141107738401
30
0
41
1
10
18.4536086688729
20
1.40200974745838
30
0
41
1
10
18.2199628500239
20
1.40267828350827
30
0
41
1
10
18.0424979116935
20
1.40354398287604
30
0
41
1
10
17.9444179955138
20
1.40403661942403
30
0
41
1
10
17.937791917355
20
1.40406993971169
30
0
0
SPLINE
5
A5
100
AcDbEntity
8
1
62
256
6
ByLayer
370
18
48
1
60
0
100
AcDbSpline
70
4
71
3
72
12
73
8
40
0
40
0
40
0
40
0
40
0.314173364929743
40
0.560417958887229
40
0.765633764978708
40
0.939512843556851
40
1
40
1
40
1
40
1
41
1
10
48.4138260083988
20
1.38345181508444
30
0
41
1
10
48.1885569085613
20
1.38344407542584
30
0
41
1
10
47.7865526308864
20
1.38368785555883
30
0
41
1
10
47.2362327297408
20
1.38477902173471
30
0
41
1
10
46.7875067627064
20
1.38588802363731
30
0
41
1
10
46.4716174543736
20
1.38703958507293
30
0
41
1
10
46.3031927212596
20
1.38755986311108
30
0
41
1
10
46.2597273590771
20
1.3876838130887
30
0
0
SPLINE
5
A6
100
AcDbEntity
8
1
62
256
6
ByLayer
370
18
48
1
60
0
100
AcDbSpline
70
4
71
1
72
4
73
2
40
0
40
0
40
1
40
1
41
1
10
36.8268247523346
20
0.0028139862482703
30
0
41
1
10
36.8268282721413
20
0.0028029281567967
30
0
0
SPLINE
5
A7
100
AcDbEntity
8
1
62
256
6
ByLayer
370
18
48
1
60
0
100
AcDbSpline
70
4
71
3
72
11
73
7
40
0
40
0
40
0
40
0
40
0.392579854322752
40
0.700603739029354
40
0.927849861349152
40
1
40
1
40
1
40
1
41
1
10
2.54244296969731
20
-1.41713505707023
30
0
41
1
10
2.73763159307208
20
-1.41711504198202
30
0
41
1
10
3.08608198615383
20
-1.4166027017481
30
0
41
1
10
3.54782455739772
20
-1.41476487455395
30
0
41
1
10
3.85024016515086
20
-1.41303565623363
30
0
41
1
10
3.99930324249678
20
-1.4120853126644
30
0
41
1
10
4.03522486966517
20
-1.41185139596996
30
0
0
SPLINE
5
A8
100
AcDbEntity
8
1
62
256
6
ByLayer
370
18
48
1
60
0
100
AcDbSpline
70
4
71
3
72
14
73
10
40
0
40
0
40
0
40
0
40
0.2099166346583
40
0.40833861603994
40
0.584015398787791
40
0.712308642951354
40
0.838271973223048
40
0.984071782344143
40
1
40
1
40
1
40
1
41
1
10
15.841447379293
20
-1.41046998164904
30
0
41
1
10
15.9975921343557
20
-1.40975050721843
30
0
41
1
10
16.3015771039425
20
-1.40863030945169
30
0
41
1
10
16.7403371376014
20
-1.408166073708
30
0
41
1
10
17.1129449835383
20
-1.40779423158344
30
0
41
1
10
17.4352978942112
20
-1.40637654260644
30
0
41
1
10
17.7346794731213
20
-1.40514083229999
30
0
41
1
10
17.9501450480585
20
-1.40397351615863
30
0
41
1
10
18.0712488870017
20
-1.40342008484498
30
0
41
1
10
18.0831759575836
20
-1.40336655519491
30
0
0
SPLINE
5
A9
100
AcDbEntity
8
1
62
256
6
ByLayer
370
18
48
1
60
0
100
AcDbSpline
70
4
71
3
72
12
73
8
40
0
40
0
40
0
40
0
40
0.362157689033766
40
0.637815267936825
40
0.824340866256262
40
0.971669642741771
40
1
40
1
40
1
40
1
41
1
10
44.0086811194819
20
-1.39152435706134
30
0
41
1
10
44.265808057905
20
-1.39093918358429
30
0
41
1
10
44.7185825986934
20
-1.39001862219175
30
0
41
1
10
45.3030972051369
20
-1.38921630254822
30
0
41
1
10
45.7358510552914
20
-1.3885873697169
30
0
41
1
10
45.9929036603997
20
-1.38831798892053
30
0
41
1
10
46.1176173200661
20
-1.38804887607208
30
0
41
1
10
46.1377320986287
20
-1.3880023166204
30
0
0
SPLINE
5
AA
100
AcDbEntity
8
1
62
256
6
ByLayer
370
18
48
1
60
0
100
AcDbSpline
70
4
71
1
72
4
73
2
40
0
40
0
40
1
40
1
41
1
10
58.0854126732649
20
-1.38213209093067
30
0
41
1
10
58.174987644942
20
-1.38189719756417
30
0
0
SPLINE
5
AB
100
AcDbEntity
8
1
62
256
6
ByLayer
370
18
48
1
60
0
100
AcDbSpline
70
4
71
3
72
14
73
10
40
0
40
0
40
0
40
0
40
0.288524473554838
40
0.49092444151588
40
0.606999362143163
40
0.704896720813917
40
0.8281070141908
40
0.993178385556324
40
1
40
1
40
1
40
1
41
1
10
6.16816481204984
20
1.39775546428612
30
0
41
1
10
5.93785118917626
20
1.39987667428039
30
0
41
1
10
5.54596159423011
20
1.4030023503781
30
0
41
1
10
5.06138166807463
20
1.40539678507309
30
0
41
1
10
4.72898205156889
20
1.40707544536218
30
0
41
1
10
4.45980538747779
20
1.40893392125369
30
0
41
1
10
4.15151160817794
20
1.41111129353689
30
0
41
1
10
3.91594103397054
20
1.41264378779945
30
0
41
1
10
3.77874052142482
20
1.41342546133888
30
0
41
1
10
3.77329571080457
20
1.41345630654365
30
0
0
SPLINE
5
AC
100
AcDbEntity
8
1
62
256
6
ByLayer
370
18
48
1
60
0
100
AcDbSpline
70
4
71
3
72
11
73
7
40
0
40
0
40
0
40
0
40
0.335373427342336
40
0.663133336775418
40
0.925358623703072
40
1
40
1
40
1
40
1
41
1
10
34.335585382493
20
1.38717811656653
30
0
41
1
10
34.0849869024712
20
1.38795511571544
30
0
41
1
10
33.5893112487323
20
1.3895854194545
30
0
41
1
10
32.8976444406353
20
1.39404239550751
30
0
41
1
10
32.3999497775865
20
1.39492329879815
30
0
41
1
10
32.147722359215
20
1.39546804721837
30
0
41
1
10
32.0918346846828
20
1.39559642191296
30
0
0
SPLINE
5
AD
100
AcDbEntity
8
1
62
256
6
ByLayer
370
18
48
1
60
0
100
AcDbSpline
70
4
71
3
72
8
73
4
40
0
40
0
40
0
40
0
40
1
40
1
40
1
40
1
41
1
10
58.230009726478
20
-1.52877409343381
30
0
41
1
10
58.3466486333523
20
-1.24817946336938
30
0
41
1
10
58.4637590288121
20
-0.968066314780572
30
0
41
1
10
58.5808741320099
20
-0.688057068940338
30
0
0
SPLINE
5
AE
100
AcDbEntity
8
1
62
256
6
ByLayer
370
18
48
1
60
0
100
AcDbSpline
70
4
71
3
72
8
73
4
40
0
40
0
40
0
40
0
40
1
40
1
40
1
40
1
41
1
10
58.6400413334669
20
-0.528565416517978
30
0
41
1
10
58.6227664378502
20
-0.578899396031261
30
0
41
1
10
58.6027683788492
20
-0.632095058842168
30
0
41
1
10
58.5808741320099
20
-0.688057068941276
30
0
0
SPLINE
5
AF
100
AcDbEntity
8
1
62
256
6
ByLayer
370
18
48
1
60
0
100
AcDbSpline
70
4
71
3
72
40
73
36
40
0
40
0
40
0
40
0
40
0.0900900757205374
40
0.0900900757205374
40
0.135135113580806
40
0.135135113580806
40
0.180180151441075
40
0.180180151441075
40
0.27027022716161
40
0.27027022716161
40
0.315315265021878
40
0.315315265021878
40
0.360360302882146
40
0.360360302882146
40
0.450450378602681
40
0.450450378602681
40
0.540540454323216
40
0.540540454323216
40
0.585585492183483
40
0.585585492183483
40
0.63063053004375
40
0.63063053004375
40
0.720720605764283
40
0.720720605764283
40
0.76576564362455
40
0.76576564362455
40
0.810810681484816
40
0.810810681484816
40
0.855855719345083
40
0.855855719345083
40
0.90090075720535
40
0.90090075720535
40
0.990990832925883
40
0.990990832925883
40
1
40
1
40
1
40
1
41
1
10
5.13427599657885
20
0.745177715392913
30
0
41
1
10
5.41186261460479
20
0.655752196482183
30
0
41
1
10
5.68951268989201
20
0.565031681373824
30
0
41
1
10
6.10513818600305
20
0.424639503889011
30
0
41
1
10
6.24355069758474
20
0.377151946313546
30
0
41
1
10
6.51988504251671
20
0.28012739431577
30
0
41
1
10
6.65780176671643
20
0.230567372825618
30
0
41
1
10
7.07246434771162
20
0.0834476755761102
30
0
41
1
10
7.3495491592729
20
-0.014127488994319
30
0
41
1
10
7.7653053770876
20
-0.162148812022508
30
0
41
1
10
7.903761334693
20
-0.212219143921715
30
0
41
1
10
8.18146183383266
20
-0.310761828740937
30
0
41
1
10
8.32069216024604
20
-0.359135117627659
30
0
41
1
10
8.73698478658744
20
-0.501728518407418
30
0
41
1
10
9.01326211184596
20
-0.594322719046431
30
0
41
1
10
9.56322918285397
20
-0.774353826798915
30
0
41
1
10
9.83830878319901
20
-0.858062686843766
30
0
41
1
10
10.2502035457905
20
-0.976899818229811
30
0
41
1
10
10.3874351916035
20
-1.01524376386487
30
0
41
1
10
10.6614761109856
20
-1.0899373478421
30
0
41
1
10
10.7984323460763
20
-1.12593172346857
30
0
41
1
10
11.2102797876164
20
-1.2275063729262
30
0
41
1
10
11.4855639692933
20
-1.28805227472179
30
0
41
1
10
11.8988626588641
20
-1.36922056305269
30
0
41
1
10
12.0365665578513
20
-1.39481615961836
30
0
41
1
10
12.3129589365831
20
-1.441286678133
30
0
41
1
10
12.4516052378412
20
-1.462269241086
30
0
41
1
10
12.7295294591122
20
-1.50016944273179
30
0
41
1
10
12.8687928809917
20
-1.51709666095547
30
0
41
1
10
13.146553728132
20
-1.54660424216482
30
0
41
1
10
13.2850585435881
20
-1.55932631618759
30
0
41
1
10
13.7004523739492
20
-1.59046599620109
30
0
41
1
10
13.9779295419381
20
-1.60174192910429
30
0
41
1
10
14.283014102546
20
-1.60435470006749
30
0
41
1
10
14.310749703504
20
-1.60450173326589
30
0
41
1
10
14.3384847387493
20
-1.60455725981956
30
0
0
SPLINE
5
B0
100
AcDbEntity
8
1
62
256
6
ByLayer
370
18
48
1
60
0
100
AcDbSpline
70
4
71
3
72
72
73
68
40
0
40
0
40
0
40
0
40
0.0001423865222541
40
0.0001423865222541
40
0.0238716821541717
40
0.0238716821541717
40
0.0476009777860891
40
0.0476009777860891
40
0.095059569049924
40
0.095059569049924
40
0.118788864681841
40
0.118788864681841
40
0.142518160313759
40
0.142518160313759
40
0.189976751577596
40
0.189976751577596
40
0.237435342841433
40
0.237435342841433
40
0.261164638473353
40
0.261164638473353
40
0.284893934105272
40
0.284893934105272
40
0.332352525369111
40
0.332352525369111
40
0.356081821001031
40
0.356081821001031
40
0.37981111663295
40
0.37981111663295
40
0.40354041226487
40
0.40354041226487
40
0.42726970789679
40
0.42726970789679
40
0.474728299160631
40
0.474728299160631
40
0.522186890424472
40
0.522186890424472
40
0.569645481688313
40
0.569645481688313
40
0.593374777320235
40
0.593374777320235
40
0.617104072952157
40
0.617104072952157
40
0.640833368584078
40
0.640833368584078
40
0.664562664216
40
0.664562664216
40
0.712021255479843
40
0.712021255479843
40
0.759479846743687
40
0.759479846743687
40
0.80693843800753
40
0.80693843800753
40
0.830667733639452
40
0.830667733639452
40
0.854397029271374
40
0.854397029271374
40
0.878126324903295
40
0.878126324903295
40
0.901855620535217
40
0.901855620535217
40
0.949314211799058
40
0.949314211799058
40
0.973043507430979
40
0.973043507430979
40
0.9967728030629
40
0.9967728030629
40
1
40
1
40
1
40
1
41
1
10
25.0407866446817
20
1.16889034267555
30
0
41
1
10
25.0416183195356
20
1.16909514727914
30
0
41
1
10
25.042449992576
20
1.16929989589971
30
0
41
1
10
25.1818830697323
20
1.20361745820682
30
0
41
1
10
25.320463113046
20
1.23610456280457
30
0
41
1
10
25.5973253583741
20
1.29816980816167
30
0
41
1
10
25.7356398871265
20
1.32764919424645
30
0
41
1
10
26.1518077334457
20
1.40891907781935
30
0
41
1
10
26.4304881985712
20
1.45476843264726
30
0
41
1
10
26.8463947547249
20
1.5115959715375
30
0
41
1
10
26.9846291297149
20
1.52865678490005
30
0
41
1
10
27.2614572077205
20
1.55786961465697
30
0
41
1
10
27.4000462284073
20
1.57008533578809
30
0
41
1
10
27.8159677763223
20
1.60007333850322
30
0
41
1
10
28.0932142100011
20
1.61130358359972
30
0
41
1
10
28.6481046073336
20
1.61494345995314
30
0
41
1
10
28.9260945672982
20
1.60742279511302
30
0
41
1
10
29.3419130854133
20
1.5826536503717
30
0
41
1
10
29.4804285081797
20
1.5721416544674
30
0
41
1
10
29.7570084128139
20
1.5462428026382
30
0
41
1
10
29.8953248914039
20
1.53100379832949
30
0
41
1
10
30.3112027379817
20
1.47941202428029
30
0
41
1
10
30.589792900351
20
1.4367578917614
30
0
41
1
10
31.0054460304157
20
1.35968146193588
30
0
41
1
10
31.1434586652465
20
1.33164979665997
30
0
41
1
10
31.4194905298452
20
1.27284928385325
30
0
41
1
10
31.5574386126432
20
1.2419896963095
30
0
41
1
10
31.8328915637462
20
1.17685919229876
30
0
41
1
10
31.9704068506927
20
1.14259994379043
30
0
41
1
10
32.2450282303359
20
1.07068835252724
30
0
41
1
10
32.3819468829368
20
1.03261249097045
30
0
41
1
10
32.7928854372024
20
0.914952619568282
30
0
41
1
10
33.0673750354522
20
0.832777891104968
30
0
41
1
10
33.6161198380291
20
0.658127890207737
30
0
41
1
10
33.889995010962
20
0.56440378227154
30
0
41
1
10
34.4409214494798
20
0.375453724888445
30
0
41
1
10
34.7174300791725
20
0.278928633471821
30
0
41
1
10
35.1331511385355
20
0.128724111061189
30
0
41
1
10
35.2719426175053
20
0.0778054529953636
30
0
41
1
10
35.5494376332003
20
-0.0222722313012298
30
0
41
1
10
35.6882226500152
20
-0.0718033333161543
30
0
41
1
10
35.9655209972028
20
-0.170850155814548
30
0
41
1
10
36.1040786217499
20
-0.220239289751362
30
0
41
1
10
36.3809505401802
20
-0.318899852170546
30
0
41
1
10
36.5190842442079
20
-0.368661238102703
30
0
41
1
10
36.9343458896329
20
-0.514376847448744
30
0
41
1
10
37.2124354159585
20
-0.607406937150245
30
0
41
1
10
37.7680379704989
20
-0.788077896094364
30
0
41
1
10
38.0444060497915
20
-0.876027015181222
30
0
41
1
10
38.5987264204389
20
-1.03662114183908
30
0
41
1
10
38.8759525831098
20
-1.11119133824536
30
0
41
1
10
39.2912198678112
20
-1.21537715948372
30
0
41
1
10
39.4297799874274
20
-1.24834039300131
30
0
41
1
10
39.7076930979447
20
-1.30988593634348
30
0
41
1
10
39.8465725215359
20
-1.33859457215911
30
0
41
1
10
40.1234598296904
20
-1.3922912255664
30
0
41
1
10
40.2616070716049
20
-1.41718987289104
30
0
41
1
10
40.5371235797832
20
-1.46327206999825
30
0
41
1
10
40.6744301166351
20
-1.48448111606956
30
0
41
1
10
41.0866666154354
20
-1.54064019906136
30
0
41
1
10
41.3614238972756
20
-1.5690293261984
30
0
41
1
10
41.7726402033714
20
-1.59894372018789
30
0
41
1
10
41.9094110886916
20
-1.60681124446907
30
0
41
1
10
42.183254682879
20
-1.61781818648154
30
0
41
1
10
42.3204030022055
20
-1.6209797372754
30
0
41
1
10
42.4763791611892
20
-1.62203213085678
30
0
41
1
10
42.4950543677585
20
-1.62211720241231
30
0
41
1
10
42.5137314460717
20
-1.62216112549191
30
0
0
SPLINE
5
B1
100
AcDbEntity
8
1
62
256
6
ByLayer
370
18
48
1
60
0
100
AcDbSpline
70
4
71
3
72
26
73
22
40
0
40
0
40
0
40
0
40
0.0019959260626631
40
0.0019959260626631
40
0.168329938385562
40
0.168329938385562
40
0.251496944547007
40
0.251496944547007
40
0.334663950708453
40
0.334663950708453
40
0.417830956869898
40
0.417830956869898
40
0.500997963031344
40
0.500997963031344
40
0.667331975354233
40
0.667331975354233
40
0.750498981515675
40
0.750498981515675
40
0.833665987677117
40
0.833665987677117
40
1
40
1
40
1
40
1
41
1
10
53.2471588147333
20
1.18859411465775
30
0
41
1
10
53.2504875016439
20
1.18941771461425
30
0
41
1
10
53.2538162202539
20
1.19024004991388
30
0
41
1
10
53.5345522616443
20
1.25948572735649
30
0
41
1
10
53.8117126322905
20
1.32069396749898
30
0
41
1
10
54.2263006214564
20
1.4025461535538
30
0
41
1
10
54.3644339216703
20
1.42791636634863
30
0
41
1
10
54.6413895444471
20
1.47382085966214
30
0
41
1
10
54.7800973669267
20
1.49454221962603
30
0
41
1
10
55.057652977278
20
1.53192857872631
30
0
41
1
10
55.1966769676107
20
1.54853379971874
30
0
41
1
10
55.4737153089098
20
1.57740566532556
30
0
41
1
10
55.6117075716564
20
1.58974450987023
30
0
41
1
10
56.0258623652502
20
1.61927416757541
30
0
41
1
10
56.3018572233531
20
1.62956317837742
30
0
41
1
10
56.7148127122774
20
1.63151305683604
30
0
41
1
10
56.8521641471536
20
1.62984792200726
30
0
41
1
10
57.1269869388522
20
1.62181044501736
30
0
41
1
10
57.2646052886849
20
1.61550702621039
30
0
41
1
10
57.6779483709271
20
1.59001024222363
30
0
41
1
10
57.9539395912462
20
1.56423530044901
30
0
41
1
10
58.2300097264778
20
1.52877409343378
30
0
0
SPLINE
5
B2
100
AcDbEntity
8
1
62
256
6
ByLayer
370
18
48
1
60
0
100
AcDbSpline
70
4
71
3
72
10
73
6
40
0
40
0
40
0
40
0
40
0.5
40
0.5
40
1
40
1
40
1
40
1
41
1
10
58.230009726478
20
1.52877409343375
30
0
41
1
10
58.2090841616137
20
1.55971215950362
30
0
41
1
10
58.1871014593204
20
1.58414900448977
30
0
41
1
10
58.1415474036295
20
1.61832435914906
30
0
41
1
10
58.1180569837882
20
1.62817077502811
30
0
41
1
10
58.0935508728781
20
1.63103181653216
30
0
0
SPLINE
5
B3
100
AcDbEntity
8
1
62
256
6
ByLayer
370
18
48
1
60
0
100
AcDbSpline
70
4
71
3
72
10
73
6
40
0
40
0
40
0
40
0
40
0.5
40
0.5
40
1
40
1
40
1
40
1
41
1
10
58.230009726478
20
-1.52877409343375
30
0
41
1
10
58.2090841616137
20
-1.55971215950362
30
0
41
1
10
58.1871014593204
20
-1.58414900448977
30
0
41
1
10
58.1415474036295
20
-1.61832435914906
30
0
41
1
10
58.1180569837882
20
-1.62817077502811
30
0
41
1
10
58.0935508728781
20
-1.63103181653216
30
0
0
SPLINE
5
B4
100
AcDbEntity
8
1
62
256
6
ByLayer
370
13
48
1
60
0
100
AcDbSpline
70
4
71
3
72
8
73
4
40
0
40
0
40
0
40
0
40
1
40
1
40
1
40
1
41
1
10
57.8381996886333
20
0.633707069916511
30
0
41
1
10
57.864262118794
20
0.610782904207611
30
0
41
1
10
57.8913593615056
20
0.589331304695094
30
0
41
1
10
57.9192725466226
20
0.569066004936502
30
0
0
SPLINE
5
B5
100
AcDbEntity
8
1
62
256
6
ByLayer
370
18
48
1
60
0
100
AcDbSpline
70
4
71
3
72
10
73
6
40
0
40
0
40
0
40
0
40
0.5
40
0.5
40
1
40
1
40
1
40
1
41
1
10
56.9966513973941
20
-0.440693995060883
30
0
41
1
10
57.0226510840562
20
-0.443835990168878
30
0
41
1
10
57.0481975726047
20
-0.453676139713053
30
0
41
1
10
57.0978953307553
20
-0.478950310714652
30
0
41
1
10
57.1217709412072
20
-0.494059796841441
30
0
41
1
10
57.1432120639907
20
-0.51535362786754
30
0
0
SPLINE
5
B6
100
AcDbEntity
8
1
62
256
6
ByLayer
370
18
48
1
60
0
100
AcDbSpline
70
4
71
3
72
8
73
4
40
0
40
0
40
0
40
0
40
1
40
1
40
1
40
1
41
1
10
58.230009726478
20
1.52877409343375
30
0
41
1
10
58.3466224455756
20
1.24824246249793
30
0
41
1
10
58.4637503272324
20
0.968087119294324
30
0
41
1
10
58.58087413201
20
0.688057068940282
30
0
0
SPLINE
5
B7
100
AcDbEntity
8
1
62
256
6
ByLayer
370
18
48
1
60
0
100
AcDbSpline
70
4
71
3
72
8
73
4
40
0
40
0
40
0
40
0
40
1
40
1
40
1
40
1
41
1
10
58.6400413334664
20
-0.528565416518092
30
0
41
1
10
58.6854365165665
20
-0.381084728948395
30
0
41
1
10
58.7196555807449
20
-0.233247612813926
30
0
41
1
10
58.7373327708793
20
-0.0848829435578295
30
0
0
SPLINE
5
B8
100
AcDbEntity
8
1
62
256
6
ByLayer
370
18
48
1
60
0
100
AcDbSpline
70
4
71
3
72
8
73
4
40
0
40
0
40
0
40
0
40
1
40
1
40
1
40
1
41
1
10
58.6400413334666
20
0.528565416517921
30
0
41
1
10
58.6854656488247
20
0.380990083543964
30
0
41
1
10
58.7196684723914
20
0.233139413213962
30
0
41
1
10
58.7373327708789
20
0.0848829435613538
30
0
0
SPLINE
5
B9
100
AcDbEntity
8
1
62
256
6
ByLayer
370
18
48
1
60
0
100
AcDbSpline
70
4
71
3
72
10
73
6
40
0
40
0
40
0
40
0
40
0.5
40
0.5
40
1
40
1
40
1
40
1
41
1
10
58.7369458120128
20
0.0569520188917352
30
0
41
1
10
58.7366611496748
20
0.0437643975005813
30
0
41
1
10
58.7341931517395
20
0.0277651224164117
30
0
41
1
10
58.7236134845626
20
-0.0068797648449674
30
0
41
1
10
58.715214926332
20
-0.0252808478614099
30
0
41
1
10
58.7063564758442
20
-0.0383404602578707
30
0
0
SPLINE
5
BA
100
AcDbEntity
8
1
62
256
6
ByLayer
370
18
48
1
60
0
100
AcDbSpline
70
4
71
3
72
22
73
18
40
0
40
0
40
0
40
0
40
0.101721964090401
40
0.101721964090401
40
0.208014563512688
40
0.208014563512688
40
0.314307162934975
40
0.314307162934975
40
0.526892361779552
40
0.526892361779552
40
0.633184961201841
40
0.633184961201841
40
0.73947756062413
40
0.73947756062413
40
0.952062759468706
40
0.952062759468706
40
1
40
1
40
1
40
1
41
1
10
8.64444741617223
20
0.0012035895265967
30
0
41
1
10
8.9226072753136
20
-0.0896778496346258
30
0
41
1
10
9.20027227248946
20
-0.180329921441626
30
0
41
1
10
9.76797435524259
20
-0.362480325317506
30
0
41
1
10
10.0579934814891
20
-0.453866847088079
30
0
41
1
10
10.6389989623077
20
-0.629876006456556
30
0
41
1
10
10.9303433465141
20
-0.71460617297285
30
0
41
1
10
11.8018485511338
20
-0.953098039323123
30
0
41
1
10
12.3809179697346
20
-1.09136691761614
30
0
41
1
10
13.2529594915466
20
-1.25330033978903
30
0
41
1
10
13.544277900262
20
-1.29975555548413
30
0
41
1
10
14.1234179404984
20
-1.37546192731258
30
0
41
1
10
14.4119104043407
20
-1.40475209384886
30
0
41
1
10
15.2756903249759
20
-1.46570946890154
30
0
41
1
10
15.849264546563
20
-1.4708376846273
30
0
41
1
10
16.5541153481258
20
-1.43298485319835
30
0
41
1
10
16.6838942055597
20
-1.42418559001374
30
0
41
1
10
16.8137996079736
20
-1.41359528758343
30
0
0
SPLINE
5
BB
100
AcDbEntity
8
1
62
256
6
ByLayer
370
18
48
1
60
0
100
AcDbSpline
70
4
71
3
72
20
73
16
40
0
40
0
40
0
40
0
40
0.0575964896047096
40
0.0575964896047096
40
0.26934974831231
40
0.26934974831231
40
0.375226377666111
40
0.375226377666111
40
0.481103007019911
40
0.481103007019911
40
0.692856265727512
40
0.692856265727512
40
0.904609524435112
40
0.904609524435112
40
1
40
1
40
1
40
1
41
1
10
36.8261251913108
20
-0.0025548191614178
30
0
41
1
10
36.9827492872591
20
-0.0530564192162331
30
0
41
1
10
37.1392518578746
20
-0.1035041111937
30
0
41
1
10
37.8709263347162
20
-0.33798053580918
30
0
41
1
10
38.4455284225002
20
-0.518138535500242
30
0
41
1
10
39.3122851952511
20
-0.763915592906926
30
0
41
1
10
39.6019930135522
20
-0.841838555628897
30
0
41
1
10
40.1839643675231
20
-0.986658928986088
30
0
41
1
10
40.475496373093
20
-1.05333211508235
30
0
41
1
10
41.3475286390063
20
-1.23145894458918
30
0
41
1
10
41.9277208914143
20
-1.32183205647834
30
0
41
1
10
43.0938126479124
20
-1.43210021487332
30
0
41
1
10
43.6739713194357
20
-1.4519218474266
30
0
41
1
10
44.5171664796487
20
-1.4274455716666
30
0
41
1
10
44.7796117696163
20
-1.41246298230772
30
0
41
1
10
45.0420250854899
20
-1.39037405485155
30
0
0
SPLINE
5
BC
100
AcDbEntity
8
1
62
256
6
ByLayer
370
18
48
1
60
0
100
AcDbSpline
70
4
71
3
72
8
73
4
40
0
40
0
40
0
40
0
40
1
40
1
40
1
40
1
41
1
10
58.6400413334667
20
0.528565416517864
30
0
41
1
10
58.6228259359144
20
0.578726036120912
30
0
41
1
10
58.6028413902712
20
0.631908440595538
30
0
41
1
10
58.5808741320093
20
0.688057068941845
30
0
0
SPLINE
5
BD
100
AcDbEntity
8
1
62
256
6
ByLayer
370
18
48
1
60
0
100
AcDbSpline
70
4
71
3
72
12
73
8
40
0
40
0
40
0
40
0
40
0.5
40
0.5
40
0.75
40
0.75
40
1
40
1
40
1
40
1
41
1
10
57.7869703147784
20
0.572647865372176
30
0
41
1
10
57.7854170803753
20
0.587745802816244
30
0
41
1
10
57.787448292113
20
0.604040229169357
30
0
41
1
10
57.8016925298563
20
0.622180208262478
30
0
41
1
10
57.8083037805853
20
0.62684497776479
30
0
41
1
10
57.8227412109817
20
0.632443255007217
30
0
41
1
10
57.830463858416
20
0.633569352184253
30
0
41
1
10
57.8381996886333
20
0.633707069916596
30
0
0
SPLINE
5
BE
100
AcDbEntity
8
1
62
256
6
ByLayer
370
18
48
1
60
0
100
AcDbSpline
70
4
71
3
72
26
73
22
40
0
40
0
40
0
40
0
40
0.0370025516582731
40
0.0370025516582731
40
0.141234731709644
40
0.141234731709644
40
0.245466911761016
40
0.245466911761016
40
0.349699091812387
40
0.349699091812387
40
0.453931271863758
40
0.453931271863758
40
0.55816345191513
40
0.55816345191513
40
0.662395631966501
40
0.662395631966501
40
0.766627812017872
40
0.766627812017872
40
0.870859992069244
40
0.870859992069244
40
1
40
1
40
1
40
1
41
1
10
55.593995298109
20
-0.0022799163762386
30
0
41
1
10
55.4929178904157
20
0.0300694828825101
30
0
41
1
10
55.391757396251
20
0.0624187996974968
30
0
41
1
10
55.0051853002728
20
0.185293890604981
30
0
41
1
10
54.7192993915799
20
0.275021419696714
30
0
41
1
10
54.1518377145053
20
0.449680697421058
30
0
41
1
10
53.8697129715931
20
0.53472315439268
30
0
41
1
10
53.3063445491969
20
0.696783490045533
30
0
41
1
10
53.0252521857914
20
0.773919773244529
30
0
41
1
10
52.464005427597
20
0.918264451179397
30
0
41
1
10
52.1839021963819
20
0.985243136145328
30
0
41
1
10
51.6234203788234
20
1.1071363667352
30
0
41
1
10
51.3431381348562
20
1.16163697665934
30
0
41
1
10
50.7814821447247
20
1.25767710278799
30
0
41
1
10
50.5001163838778
20
1.29910775549163
30
0
41
1
10
49.9356681374476
20
1.36532972500183
30
0
41
1
10
49.6525635151861
20
1.38936018605577
30
0
41
1
10
49.083689268352
20
1.42318386580715
30
0
41
1
10
48.7975801124988
20
1.43237655364217
30
0
41
1
10
48.1600623499616
20
1.43234851159522
30
0
41
1
10
47.8082949475044
20
1.41787776389111
30
0
41
1
10
47.4564275334498
20
1.39093083352532
30
0
0
SPLINE
5
BF
100
AcDbEntity
8
1
62
256
6
ByLayer
370
18
48
1
60
0
100
AcDbSpline
70
4
71
3
72
30
73
26
40
0
40
0
40
0
40
0
40
0.0277315003806267
40
0.0277315003806267
40
0.131594937935927
40
0.131594937935927
40
0.235458375491229
40
0.235458375491229
40
0.339321813046531
40
0.339321813046531
40
0.443185250601832
40
0.443185250601832
40
0.547048688157133
40
0.547048688157133
40
0.650912125712435
40
0.650912125712435
40
0.754775563267735
40
0.754775563267735
40
0.858639000823037
40
0.858639000823037
40
0.910570719600688
40
0.910570719600688
40
0.962502438378339
40
0.962502438378339
40
1
40
1
40
1
40
1
41
1
10
27.4273940950303
20
-0.0178581295001834
30
0
41
1
10
27.3513956180794
20
0.0064983986210336
30
0
41
1
10
27.2754082413893
20
0.0308212743251772
30
0
41
1
10
26.9148614429613
20
0.146024012031916
30
0
41
1
10
26.6304159551983
20
0.23635276477097
30
0
41
1
10
26.0613977443772
20
0.414201487948418
30
0
41
1
10
25.7762621257301
20
0.501386919776365
30
0
41
1
10
25.2061668299841
20
0.66852254496149
30
0
41
1
10
24.922256638583
20
0.748241897486366
30
0
41
1
10
24.3557830581242
20
0.89752167315774
30
0
41
1
10
24.0733094321639
20
0.967204430419571
30
0
41
1
10
23.5097036178858
20
1.09321265268178
30
0
41
1
10
23.2282853622648
20
1.15013509456009
30
0
41
1
10
22.6649144097475
20
1.25063456157537
30
0
41
1
10
22.3831178473014
20
1.29407399987755
30
0
41
1
10
21.8187585796491
20
1.36357776559518
30
0
41
1
10
21.5360981242682
20
1.39048301825943
30
0
41
1
10
20.9687048416729
20
1.42912514041257
30
0
41
1
10
20.6834464827182
20
1.44035317886301
30
0
41
1
10
20.255769990314
20
1.44228333608393
30
0
41
1
10
20.1134554079706
20
1.44048978192012
30
0
41
1
10
19.8289071027416
20
1.43336851437277
30
0
41
1
10
19.6866042226826
20
1.42800502121577
30
0
41
1
10
19.4416221443173
20
1.4150729189395
30
0
41
1
10
19.3389399749051
20
1.40851195278162
30
0
41
1
10
19.2362622409623
20
1.40079992981333
30
0
0
SPLINE
5
C0
100
AcDbEntity
8
1
62
256
6
ByLayer
370
18
48
1
60
0
100
AcDbSpline
70
4
71
3
72
8
73
4
40
0
40
0
40
0
40
0
40
1
40
1
40
1
40
1
41
1
10
58.0935508728905
20
1.63103181653176
30
0
41
1
10
58.0445444114588
20
1.63159071490654
30
0
41
1
10
57.9955529433922
20
1.63185384600399
30
0
41
1
10
57.9465738887963
20
1.63182280786714
30
0
0
SPLINE
5
C1
100
AcDbEntity
8
1
62
256
6
ByLayer
370
18
48
1
60
0
100
AcDbSpline
70
4
71
3
72
42
73
38
40
0
40
0
40
0
40
0
40
0.0147937073002108
40
0.0147937073002108
40
0.0676424305542108
40
0.0676424305542108
40
0.120491153808211
40
0.120491153808211
40
0.226188600316213
40
0.226188600316213
40
0.279037323570214
40
0.279037323570214
40
0.331886046824215
40
0.331886046824215
40
0.384734770078216
40
0.384734770078216
40
0.437583493332217
40
0.437583493332217
40
0.490432216586218
40
0.490432216586218
40
0.543280939840219
40
0.543280939840219
40
0.596129663094221
40
0.596129663094221
40
0.648978386348222
40
0.648978386348222
40
0.754675832856224
40
0.754675832856224
40
0.807524556110225
40
0.807524556110225
40
0.860373279364226
40
0.860373279364226
40
0.913222002618227
40
0.913222002618227
40
0.966070725872228
40
0.966070725872228
40
1
40
1
40
1
40
1
41
1
10
46.2007189192481
20
-1.40830839918161
30
0
41
1
10
46.1197728994504
20
-1.42289162499995
30
0
41
1
10
46.0388588447775
20
-1.43677828782421
30
0
41
1
10
45.6690937037994
20
-1.49696100976706
30
0
41
1
10
45.3804337869184
20
-1.53495722612206
30
0
41
1
10
44.8020281196643
20
-1.59130756862703
30
0
41
1
10
44.5118944615778
20
-1.60973625088059
30
0
41
1
10
43.6440987936309
20
-1.63447990273727
30
0
41
1
10
43.0674669599393
20
-1.61023648738703
30
0
41
1
10
42.1981620867567
20
-1.51482967746813
30
0
41
1
10
41.9088507249113
20
-1.4732749565257
30
0
41
1
10
41.3308467235677
20
-1.37278366666382
30
0
41
1
10
41.0420233690853
20
-1.31376415468523
30
0
41
1
10
40.4636448773631
20
-1.17983480091129
30
0
41
1
10
40.1735659365963
20
-1.10478591452377
30
0
41
1
10
39.5948100295943
20
-0.942257534972498
30
0
41
1
10
39.3059537177066
20
-0.854782822667374
30
0
41
1
10
38.7279834209876
20
-0.670549565434271
30
0
41
1
10
38.4388969040793
20
-0.573735026244748
30
0
41
1
10
37.8594843699794
20
-0.373280683642065
30
0
41
1
10
37.5698695908335
20
-0.270119769110465
30
0
41
1
10
36.9916993176562
20
-0.0625385610433398
30
0
41
1
10
36.7028389481876
20
0.0421112323727471
30
0
41
1
10
36.1244959122398
20
0.250132333050971
30
0
41
1
10
35.8344246830468
20
0.353491758213409
30
0
41
1
10
34.9657581550305
20
0.653997086176958
30
0
41
1
10
34.3891120561438
20
0.842361154286294
30
0
41
1
10
33.5198935208952
20
1.08720806015481
30
0
41
1
10
33.2299665875545
20
1.16251912927453
30
0
41
1
10
32.6517022956033
20
1.29757245158731
30
0
41
1
10
32.3628351898124
20
1.35727936087253
30
0
41
1
10
31.7844874649067
20
1.45922173584049
30
0
41
1
10
31.4944230482302
20
1.50138603270224
30
0
41
1
10
30.9150198172942
20
1.56633890350631
30
0
41
1
10
30.6259472876604
20
1.58915362603071
30
0
41
1
10
30.1513620503323
20
1.610190030692
30
0
41
1
10
29.9657974552819
20
1.61428154739471
30
0
41
1
10
29.7800657776128
20
1.61421592613374
30
0
0
SPLINE
5
C2
100
AcDbEntity
8
1
62
256
6
ByLayer
370
18
48
1
60
0
100
AcDbSpline
70
4
71
3
72
34
73
30
40
0
40
0
40
0
40
0
40
0.0959938244336199
40
0.0959938244336199
40
0.152494210406519
40
0.152494210406519
40
0.208994596379418
40
0.208994596379418
40
0.265494982352317
40
0.265494982352317
40
0.321995368325216
40
0.321995368325216
40
0.378495754298115
40
0.378495754298115
40
0.434996140271014
40
0.434996140271014
40
0.547996912216812
40
0.547996912216812
40
0.66099768416261
40
0.66099768416261
40
0.717498070135509
40
0.717498070135509
40
0.773998456108407
40
0.773998456108407
40
0.830498842081306
40
0.830498842081306
40
0.886999228054205
40
0.886999228054205
40
1
40
1
40
1
40
1
41
1
10
17.9175183708753
20
-1.41281995704745
30
0
41
1
10
17.4252701554561
20
-1.49651188503495
30
0
41
1
10
16.9345848536787
20
-1.55431063320614
30
0
41
1
10
16.1529158702094
20
-1.60053072006974
30
0
41
1
10
15.8624863719853
20
-1.60770327662229
30
0
41
1
10
15.2832887529923
20
-1.60184721955872
30
0
41
1
10
14.9941089948154
20
-1.58888883358043
30
0
41
1
10
14.4155025227321
20
-1.54333022258919
30
0
41
1
10
14.1260997233909
20
-1.51067467302658
30
0
41
1
10
13.5455626880173
20
-1.42682920949338
30
0
41
1
10
13.2560332032371
20
-1.3758276725238
30
0
41
1
10
12.6773604483071
20
-1.257366780702
30
0
41
1
10
12.3882176966795
20
-1.18988783494291
30
0
41
1
10
11.809004799232
20
-1.04077495445227
30
0
41
1
10
11.5185055036696
20
-0.958995612955221
30
0
41
1
10
10.6493375373254
20
-0.698222716430706
30
0
41
1
10
10.0719428229375
20
-0.502797603962676
30
0
41
1
10
8.91104449176376
20
-0.0954715244448892
30
0
41
1
10
8.33310590951402
20
0.114953939715832
30
0
41
1
10
7.46417940416487
20
0.418715786852289
30
0
41
1
10
7.17360926084353
20
0.518218456336541
30
0
41
1
10
6.59406011682381
20
0.70917426636143
30
0
41
1
10
6.30483740226521
20
0.80055694257112
30
0
41
1
10
5.72624809395325
20
0.972096925780505
30
0
41
1
10
5.43689797153866
20
1.05230033040448
30
0
41
1
10
4.85698417375292
20
1.19903228842284
30
0
41
1
10
4.56662954079445
20
1.26532420107191
30
0
41
1
10
3.69813175920319
20
1.43846312857733
30
0
41
1
10
3.12051996592896
20
1.52021109447151
30
0
41
1
10
2.54000577153119
20
1.56275738664672
30
0
0
SPLINE
5
C3
100
AcDbEntity
8
1
62
256
6
ByLayer
370
18
48
1
60
0
100
AcDbSpline
70
4
71
3
72
36
73
32
40
0
40
0
40
0
40
0
40
0.121869643256515
40
0.121869643256515
40
0.182804464884773
40
0.182804464884773
40
0.24373928651303
40
0.24373928651303
40
0.304674108141287
40
0.304674108141287
40
0.365608929769545
40
0.365608929769545
40
0.487478573026063
40
0.487478573026063
40
0.548413394654323
40
0.548413394654323
40
0.609348216282583
40
0.609348216282583
40
0.670283037910843
40
0.670283037910843
40
0.731217859539103
40
0.731217859539103
40
0.792152681167363
40
0.792152681167363
40
0.853087502795623
40
0.853087502795623
40
0.914022324423883
40
0.914022324423883
40
0.974957146052143
40
0.974957146052143
40
1
40
1
40
1
40
1
41
1
10
58.0935508728905
20
-1.63103181653173
30
0
41
1
10
57.5165719683324
20
-1.63761202172523
30
0
41
1
10
56.9420516829585
20
-1.60319177891452
30
0
41
1
10
56.0776480672965
20
-1.49419991562118
30
0
41
1
10
55.7891211755489
20
-1.44823165738538
30
0
41
1
10
55.2098258001191
20
-1.33842451631398
30
0
41
1
10
54.9207580017017
20
-1.27507257324575
30
0
41
1
10
54.3431506472925
20
-1.13345875130452
30
0
41
1
10
54.0546067341465
20
-1.05504939013019
30
0
41
1
10
53.4765539456304
20
-0.886004764691023
30
0
41
1
10
53.1865379840737
20
-0.795300010276605
30
0
41
1
10
52.3189168870368
20
-0.510733506039657
30
0
41
1
10
51.7426940585805
20
-0.303876565856569
30
0
41
1
10
50.8737975007733
20
0.0110495259933714
30
0
41
1
10
50.5843897903812
20
0.116313584174975
30
0
41
1
10
50.0066205951196
20
0.323929548684191
30
0
41
1
10
49.7180567111308
20
0.426521912779265
30
0
41
1
10
49.1399534709853
20
0.624884764354817
30
0
41
1
10
48.8499327353246
20
0.720919225383881
30
0
41
1
10
48.2712730750564
20
0.902477262112313
30
0
41
1
10
47.982540079313
20
0.988081716705921
30
0
41
1
10
47.4049153456986
20
1.14590473341193
30
0
41
1
10
47.1160374265878
20
1.21815398151935
30
0
41
1
10
46.5368282585122
20
1.3467203752505
30
0
41
1
10
46.2471638262096
20
1.40287030014991
30
0
41
1
10
45.6692405432583
20
1.49694151811786
30
0
41
1
10
45.3806124021877
20
1.53493288657276
30
0
41
1
10
44.8024651555407
20
1.59127192186213
30
0
41
1
10
44.5124861304174
20
1.60970955468957
30
0
41
1
10
44.104099229119
20
1.62136783559686
30
0
41
1
10
43.9852444359937
20
1.62304087698573
30
0
41
1
10
43.866444667155
20
1.62300458627962
30
0
0
SPLINE
5
C4
100
AcDbEntity
8
1
62
256
6
ByLayer
370
18
48
1
60
0
100
AcDbSpline
70
4
71
3
72
38
73
34
40
0
40
0
40
0
40
0
40
0.0015879850345312
40
0.0015879850345312
40
0.0545204417965739
40
0.0545204417965739
40
0.107452898558617
40
0.107452898558617
40
0.16038535532066
40
0.16038535532066
40
0.213317812082703
40
0.213317812082703
40
0.31918272560679
40
0.31918272560679
40
0.425047639130878
40
0.425047639130878
40
0.477980095892922
40
0.477980095892922
40
0.530912552654966
40
0.530912552654966
40
0.636777466179056
40
0.636777466179056
40
0.689709922941101
40
0.689709922941101
40
0.742642379703146
40
0.742642379703146
40
0.848507293227236
40
0.848507293227236
40
0.901439749989282
40
0.901439749989282
40
0.954372206751328
40
0.954372206751328
40
1
40
1
40
1
40
1
41
1
10
32.1000425542436
20
-1.40357610354357
30
0
41
1
10
32.0913703836712
20
-1.40512070935489
30
0
41
1
10
32.0826980414845
20
-1.406657466501
30
0
41
1
10
31.7849432670188
20
-1.45914879362945
30
0
41
1
10
31.4952970064794
20
-1.50127340593909
30
0
41
1
10
30.9154696987833
20
-1.56630309037575
30
0
41
1
10
30.6262840125924
20
-1.58913124337067
30
0
41
1
10
30.0482011804665
20
-1.61477017495508
30
0
41
1
10
29.7592423292035
20
-1.61755583751153
30
0
41
1
10
29.1802789553315
20
-1.60292196913906
30
0
41
1
10
28.8899675965619
20
-1.58546123479172
30
0
41
1
10
28.021760626646
20
-1.50398495888013
30
0
41
1
10
27.4446032416105
20
-1.41043316829317
30
0
41
1
10
26.2843599006504
20
-1.15771045284865
30
0
41
1
10
25.7073939380471
20
-0.999397519280052
30
0
41
1
10
24.8389451458947
20
-0.730439052446911
30
0
41
1
10
24.5485536490114
20
-0.635504489935784
30
0
41
1
10
23.9695186206012
20
-0.439410934141847
30
0
41
1
10
23.6805396844256
20
-0.33798891102316
30
0
41
1
10
22.8130580831145
20
-0.0295074399476221
30
0
41
1
10
22.2323980348437
20
0.182418553708459
30
0
41
1
10
21.3647575388419
20
0.48479212422879
30
0
41
1
10
21.0756648352657
20
0.582933700342153
30
0
41
1
10
20.4966711491732
20
0.77113034248498
30
0
41
1
10
20.2063497362968
20
0.861423301929534
30
0
41
1
10
19.3374873227207
20
1.11316112833211
30
0
41
1
10
18.7603100964396
20
1.25651735758996
30
0
41
1
10
17.8901391209762
20
1.42036426581848
30
0
41
1
10
17.6003163538463
20
1.46627771518635
30
0
41
1
10
17.0216738266746
20
1.53919229329898
30
0
41
1
10
16.7326034419241
20
1.5662399639528
30
0
41
1
10
16.1936139101865
20
1.59813613965375
30
0
41
1
10
15.9434294178027
20
1.60552099557719
30
0
41
1
10
15.693537563002
20
1.6054112935862
30
0
0
SPLINE
5
C5
100
AcDbEntity
8
1
62
256
6
ByLayer
370
18
48
1
60
0
100
AcDbSpline
70
4
71
3
72
8
73
4
40
0
40
0
40
0
40
0
40
1
40
1
40
1
40
1
41
1
10
3.76685233075088
20
-1.41594500463563
30
0
41
1
10
3.35829183659496
20
-1.48313879336115
30
0
41
1
10
2.94984658180948
20
-1.53271986641434
30
0
41
1
10
2.54000577153119
20
-1.56275738664672
30
0
0
SPLINE
5
C6
100
AcDbEntity
8
1
62
256
6
ByLayer
370
18
48
1
60
0
100
AcDbSpline
70
4
71
3
72
10
73
6
40
0
40
0
40
0
40
0
40
0.5
40
0.5
40
1
40
1
40
1
40
1
41
1
10
57.868029271334
20
0.498767748583731
30
0
41
1
10
57.8733986426572
20
0.510885552326556
30
0
41
1
10
57.8811443387301
20
0.524105016885898
30
0
41
1
10
57.8990872546865
20
0.548715257589834
30
0
41
1
10
57.9093264088207
20
0.560168949867631
30
0
41
1
10
57.9192725466241
20
0.569066004939828
30
0
0
SPLINE
5
C7
100
AcDbEntity
8
1
62
256
6
ByLayer
370
18
48
1
60
0
100
AcDbSpline
70
4
71
3
72
18
73
14
40
0
40
0
40
0
40
0
40
0.185725103218676
40
0.185725103218676
40
0.400064417813914
40
0.400064417813914
40
0.507234075111533
40
0.507234075111533
40
0.614403732409152
40
0.614403732409152
40
0.828743047004389
40
0.828743047004389
40
1
40
1
40
1
40
1
41
1
10
44.0273018436368
20
-1.39148783763312
30
0
41
1
10
43.5238264944253
20
-1.3919240197169
30
0
41
1
10
43.0207571937173
20
-1.36590096678168
30
0
41
1
10
41.9328334469353
20
-1.25524028653291
30
0
41
1
10
41.3526564217478
20
-1.16235309995076
30
0
41
1
10
40.4806934472369
20
-0.983106392432177
30
0
41
1
10
40.189208101808
20
-0.916502702406689
30
0
41
1
10
39.607381595536
20
-0.772743813513756
30
0
41
1
10
39.3176605096139
20
-0.695778270064352
30
0
41
1
10
38.4507218654975
20
-0.454009053838092
30
0
41
1
10
37.8757570990467
20
-0.278166346295109
30
0
41
1
10
36.8403656684839
20
0.0433727665114532
30
0
41
1
10
36.3801157028939
20
0.187917734104047
30
0
41
1
10
35.9176770003937
20
0.328035264572549
30
0
0
SPLINE
5
C8
100
AcDbEntity
8
1
62
256
6
ByLayer
370
18
48
1
60
0
100
AcDbSpline
70
4
71
3
72
24
73
20
40
0
40
0
40
0
40
0
40
0.140098452811267
40
0.140098452811267
40
0.245041255232985
40
0.245041255232985
40
0.349984057654701
40
0.349984057654701
40
0.559869662498139
40
0.559869662498139
40
0.664812464919858
40
0.664812464919858
40
0.769755267341576
40
0.769755267341576
40
0.874698069763294
40
0.874698069763294
40
0.979640872185013
40
0.979640872185013
40
1
40
1
40
1
40
1
41
1
10
15.8537954921951
20
-1.41044154055891
30
0
41
1
10
15.4700666512332
20
-1.41071353391968
30
0
41
1
10
15.0864551567808
20
-1.39554389147082
30
0
41
1
10
14.4137783282807
20
-1.3423906855916
30
0
41
1
10
14.1251394276306
20
-1.31097323411836
30
0
41
1
10
13.5458662889526
20
-1.23196442245254
30
0
41
1
10
13.2546013224975
20
-1.18427235224689
30
0
41
1
10
12.3827156386982
20
-1.01996010724696
30
0
41
1
10
11.803556699945
20
-0.881852170948918
30
0
41
1
10
10.9321029084465
20
-0.646273058798897
30
0
41
1
10
10.6408459706755
20
-0.562959219901217
30
0
41
1
10
10.0599190498589
20
-0.390621223098719
30
0
41
1
10
9.7698920252729
20
-0.301501922141398
30
0
41
1
10
9.18972838913885
20
-0.120524787100862
30
0
41
1
10
8.8995941458349
20
-0.028655362140853
30
0
41
1
10
8.31821894119503
20
0.154691766703934
30
0
41
1
10
8.02729900161208
20
0.246054892468862
30
0
41
1
10
7.68183015977513
20
0.352112139315295
30
0
41
1
10
7.62573441446958
20
0.369254282475339
30
0
41
1
10
7.56967155935908
20
0.386296404087631
30
0
0
SPLINE
5
C9
100
AcDbEntity
8
1
62
256
6
ByLayer
370
18
48
1
60
0
100
AcDbSpline
70
4
71
3
72
26
73
22
40
0
40
0
40
0
40
0
40
0.0811452140591358
40
0.0811452140591358
40
0.185311966174794
40
0.185311966174794
40
0.289478718290451
40
0.289478718290451
40
0.393645470406109
40
0.393645470406109
40
0.497812222521767
40
0.497812222521767
40
0.601978974637425
40
0.601978974637425
40
0.810312478868743
40
0.810312478868743
40
0.862395854926573
40
0.862395854926573
40
0.914479230984404
40
0.914479230984404
40
1
40
1
40
1
40
1
41
1
10
6.13992054425708
20
1.39801893805603
30
0
41
1
10
6.35993035773069
20
1.39626618368496
30
0
41
1
10
6.58009622519771
20
1.38962462701218
30
0
41
1
10
7.08352781528535
20
1.36378372800831
30
0
41
1
10
7.36726593183528
20
1.34031016251402
30
0
41
1
10
7.93684499648489
20
1.27729991682139
30
0
41
1
10
8.22303579747259
20
1.23806333820653
30
0
41
1
10
8.79348277080618
20
1.14592268335952
30
0
41
1
10
9.07839711403034
20
1.09208943008895
30
0
41
1
10
9.64832824700139
20
0.971960101453902
30
0
41
1
10
9.93323055448334
20
0.906102455903181
30
0
41
1
10
10.5037842775653
20
0.763927739462645
30
0
41
1
10
10.7898835090718
20
0.687317852692161
30
0
41
1
10
11.645640793822
20
0.447540020804496
30
0
41
1
10
12.2143916957339
20
0.273349117219453
30
0
41
1
10
12.9281424694643
20
0.0519752632080213
30
0
41
1
10
13.071136045417
20
0.0072663254414067
30
0
41
1
10
13.356586608316
20
-0.0810421739899141
30
0
41
1
10
13.4990328552697
20
-0.124936171319632
30
0
41
1
10
13.8746838470325
20
-0.240537273184515
30
0
41
1
10
14.107509160571
20
-0.311996202984318
30
0
41
1
10
14.3399624922983
20
-0.381710337694415
30
0
0
SPLINE
5
CA
100
AcDbEntity
8
1
62
256
6
ByLayer
370
18
48
1
60
0
100
AcDbSpline
70
4
71
3
72
26
73
22
40
0
40
0
40
0
40
0
40
0.0795780285744039
40
0.0795780285744039
40
0.185544200550265
40
0.185544200550265
40
0.291510372526127
40
0.291510372526127
40
0.397476544501989
40
0.397476544501989
40
0.503442716477851
40
0.503442716477851
40
0.609408888453712
40
0.609408888453712
40
0.715375060429574
40
0.715375060429574
40
0.821341232405435
40
0.821341232405435
40
0.927307404381297
40
0.927307404381297
40
1
40
1
40
1
40
1
41
1
10
34.3330991281884
20
1.38726103786266
30
0
41
1
10
34.5470259142492
20
1.38642608859214
30
0
41
1
10
34.7608055969497
20
1.38134067656162
30
0
41
1
10
35.2597375316043
20
1.35676493245546
30
0
41
1
10
35.5450429015827
20
1.33354772717362
30
0
41
1
10
36.1167202522238
20
1.27242462884982
30
0
41
1
10
36.4022164512322
20
1.2349236075853
30
0
41
1
10
36.9724552376454
20
1.14397235571821
30
0
41
1
10
37.2574058817917
20
1.09096785152417
30
0
41
1
10
37.8275722112407
20
0.973219060765501
30
0
41
1
10
38.112535517237
20
0.908561228297742
30
0
41
1
10
38.6843061113272
20
0.7677369805605
30
0
41
1
10
38.9694697608854
20
0.692251991574324
30
0
41
1
10
39.537679738246
20
0.534986131784478
30
0
41
1
10
39.8208911582278
20
0.452837941050973
30
0
41
1
10
40.3864276047148
20
0.284298277590267
30
0
41
1
10
40.6687339189523
20
0.197899524159681
30
0
41
1
10
41.233527146784
20
0.0244510272365233
30
0
41
1
10
41.5160274904923
20
-0.0625416662225859
30
0
41
1
10
41.9927271508535
20
-0.208674967689944
30
0
41
1
10
42.1867246792295
20
-0.268231300925635
30
0
41
1
10
42.3811109698866
20
-0.326741774567893
30
0
0
SPLINE
5
CB
100
AcDbEntity
8
1
62
256
6
ByLayer
370
18
48
1
60
0
100
AcDbSpline
70
4
71
3
72
8
73
4
40
0
40
0
40
0
40
0
40
1
40
1
40
1
40
1
41
1
10
13.1033470928893
20
0.0026187261625239
30
0
41
1
10
13.1287710878411
20
0.0105175113101552
30
0
41
1
10
13.1541907650514
20
0.0184068048592962
30
0
41
1
10
13.179603238463
20
0.0262810297052738
30
0
0
SPLINE
5
CC
100
AcDbEntity
8
1
62
256
6
ByLayer
370
18
48
1
60
0
100
AcDbSpline
70
4
71
3
72
30
73
26
40
0
40
0
40
0
40
0
40
0.0279036580431197
40
0.0279036580431197
40
0.132015965790313
40
0.132015965790313
40
0.236128273537507
40
0.236128273537507
40
0.340240581284701
40
0.340240581284701
40
0.444352889031896
40
0.444352889031896
40
0.548465196779089
40
0.548465196779089
40
0.652577504526283
40
0.652577504526283
40
0.756689812273477
40
0.756689812273477
40
0.860802120020671
40
0.860802120020671
40
0.912858273894265
40
0.912858273894265
40
0.96491442776786
40
0.96491442776786
40
1
40
1
40
1
40
1
41
1
10
20.2274720313229
20
1.39314156762842
30
0
41
1
10
20.3039800440103
20
1.39282201620452
30
0
41
1
10
20.3805270726465
20
1.39189193086779
30
0
41
1
10
20.7429506403261
20
1.38442483129307
30
0
41
1
10
21.0284316412217
20
1.36906964935685
30
0
41
1
10
21.5968457700387
20
1.32310620036083
30
0
41
1
10
21.8801261337064
20
1.29310279706297
30
0
41
1
10
22.4458672533092
20
1.21731338962428
30
0
41
1
10
22.7284017283775
20
1.17128094055272
30
0
41
1
10
23.2933092784926
20
1.06660054614656
30
0
41
1
10
23.5755281805722
20
1.00818793836439
30
0
41
1
10
24.1409280819841
20
0.879517626086539
30
0
41
1
10
24.4242770255838
20
0.809055669806497
30
0
41
1
10
24.9924399866342
20
0.659308678726035
30
0
41
1
10
25.2771557333168
20
0.57990370694813
30
0
41
1
10
25.8489700485655
20
0.414347610446811
30
0
41
1
10
26.1342661281855
20
0.328618626901658
30
0
41
1
10
26.7044843233739
20
0.154616788592591
30
0
41
1
10
26.9895632929978
20
0.0666727042011814
30
0
41
1
10
27.4173904203457
20
-0.0655708054429454
30
0
41
1
10
27.5600337966846
20
-0.109712642464757
30
0
41
1
10
27.8454331206
20
-0.197951886116471
30
0
41
1
10
27.9882872157448
20
-0.242133675561007
30
0
41
1
10
28.2274314124146
20
-0.314733556054819
30
0
41
1
10
28.3236568383741
20
-0.343659916279364
30
0
41
1
10
28.4198357396446
20
-0.372264822176419
30
0
0
SPLINE
5
CD
100
AcDbEntity
8
1
62
256
6
ByLayer
370
18
48
1
60
0
100
AcDbSpline
70
4
71
3
72
26
73
22
40
0
40
0
40
0
40
0
40
0.031893171827085
40
0.031893171827085
40
0.158957750873716
40
0.158957750873716
40
0.222490040397031
40
0.222490040397031
40
0.286022329920348
40
0.286022329920348
40
0.413086908966979
40
0.413086908966979
40
0.54015148801361
40
0.54015148801361
40
0.667216067060241
40
0.667216067060241
40
0.794280646106873
40
0.794280646106873
40
0.921345225153504
40
0.921345225153504
40
1
40
1
40
1
40
1
41
1
10
48.4224420984075
20
1.38333659396824
30
0
41
1
10
48.4940396913415
20
1.38301810622565
30
0
41
1
10
48.5656731135949
20
1.38213848769536
30
0
41
1
10
48.9229210828407
20
1.37489519505417
30
0
41
1
10
49.2094451792591
20
1.36035487292648
30
0
41
1
10
49.6364913632074
20
1.32788969997188
30
0
41
1
10
49.7785470307398
20
1.31544850159733
30
0
41
1
10
50.0621433803164
20
1.28628612774654
30
0
41
1
10
50.2036955506611
20
1.26949443860096
30
0
41
1
10
50.627787586092
20
1.21338721614998
30
0
41
1
10
50.9097579671133
20
1.16832792937345
30
0
41
1
10
51.4728210346
20
1.06627764616582
30
0
41
1
10
51.7539375264578
20
1.00897083631617
30
0
41
1
10
52.31617288552
20
0.88281722768329
30
0
41
1
10
52.5972816901977
20
0.814158798629535
30
0
41
1
10
53.160578076858
20
0.667748725168764
30
0
41
1
10
53.4426998651354
20
0.590191418664119
30
0
41
1
10
54.0081191580558
20
0.428404102863681
30
0
41
1
10
54.2914602429943
20
0.344118524836915
30
0
41
1
10
54.7527255900498
20
0.205012499247971
30
0
41
1
10
54.9298219940084
20
0.151142877136124
30
0
41
1
10
55.1069107393994
20
0.0969328813612265
30
0
0
SPLINE
5
CE
100
AcDbEntity
8
1
62
256
6
ByLayer
370
13
48
1
60
0
100
AcDbSpline
70
4
71
3
72
14
73
10
40
0
40
0
40
0
40
0
40
0.24375458120011
40
0.24375458120011
40
0.563655315912253
40
0.563655315912253
40
0.883556050624396
40
0.883556050624396
40
1
40
1
40
1
40
1
41
1
10
55.1069116959818
20
0.096932588534429
30
0
41
1
10
55.2159045247821
20
0.063567955958689
30
0
41
1
10
55.3248944519833
20
0.0300743888990667
30
0
41
1
10
55.5765138212642
20
-0.0474887545393585
30
0
41
1
10
55.71911686048
20
-0.091719427148945
30
0
41
1
10
56.0041407175958
20
-0.179284863260904
30
0
41
1
10
56.1465671721165
20
-0.222637534329465
30
0
41
1
10
56.3407934042344
20
-0.281029472934506
30
0
41
1
10
56.392621154827
20
-0.296539881114313
30
0
41
1
10
56.4444464243069
20
-0.311975616875287
30
0
0
SPLINE
5
CF
100
AcDbEntity
8
1
62
256
6
ByLayer
370
13
48
1
60
0
100
AcDbSpline
70
4
71
3
72
8
73
4
40
0
40
0
40
0
40
0
40
1
40
1
40
1
40
1
41
1
10
56.7382951415312
20
-0.398684117382203
30
0
41
1
10
56.8732575465138
20
-0.438126717124533
30
0
41
1
10
57.0082214404594
20
-0.477031116694747
30
0
41
1
10
57.1432120640086
20
-0.515353627885332
30
0
0
SPLINE
5
D0
100
AcDbEntity
8
1
62
256
6
ByLayer
370
18
48
1
60
0
100
AcDbSpline
70
4
71
3
72
12
73
8
40
0
40
0
40
0
40
0
40
0.250000000000014
40
0.250000000000014
40
0.500000000000027
40
0.500000000000027
40
1
40
1
40
1
40
1
41
1
10
58.5808741320221
20
0.688057068945483
30
0
41
1
10
58.5200124199699
20
0.676657199847739
30
0
41
1
10
58.4581958705381
20
0.668807994756804
30
0
41
1
10
58.3346989017234
20
0.655919880920749
30
0
41
1
10
58.2728363261259
20
0.650935790551813
30
0
41
1
10
58.0869527580052
20
0.63929865027265
30
0
41
1
10
57.9626322469391
20
0.635922290422968
30
0
41
1
10
57.8381996886333
20
0.6337070699131
30
0
0
SPLINE
5
D1
100
AcDbEntity
8
1
62
256
6
ByLayer
370
18
48
1
60
0
100
AcDbSpline
70
4
71
3
72
10
73
6
40
0
40
0
40
0
40
0
40
0.5
40
0.5
40
1
40
1
40
1
40
1
41
1
10
57.1432120639919
20
-0.515353627868791
30
0
41
1
10
57.2546549129878
20
-0.626030910036746
30
0
41
1
10
57.3731393897737
20
-0.720831016818153
30
0
41
1
10
57.6192741733624
20
-0.889764490376763
30
0
41
1
10
57.7477147657877
20
-0.963932421438642
30
0
41
1
10
57.8782314561518
20
-1.02858373640262
30
0
0
SPLINE
5
D2
100
AcDbEntity
8
1
62
256
6
ByLayer
370
18
48
1
60
0
100
AcDbSpline
70
4
71
3
72
10
73
6
40
0
40
0
40
0
40
0
40
0.0906673485281605
40
0.0906673485281605
40
1
40
1
40
1
40
1
41
1
10
58.6400413334664
20
0.528565416525481
30
0
41
1
10
58.6186740994228
20
0.529882510901729
30
0
41
1
10
58.5973068700278
20
0.531199240535898
30
0
41
1
10
58.361640736475
20
0.545717796377744
30
0
41
1
10
58.1473422949692
20
0.558882871104117
30
0
41
1
10
57.9330444576152
20
0.572003915355907
30
0
0
SPLINE
5
D3
100
AcDbEntity
8
1
62
256
6
ByLayer
370
18
48
1
60
0
100
AcDbSpline
70
4
71
3
72
8
73
4
40
0
40
0
40
0
40
0
40
1
40
1
40
1
40
1
41
1
10
57.9330444576153
20
0.572003915362899
30
0
41
1
10
57.9280913703755
20
0.572307183364359
30
0
41
1
10
57.9225909393323
20
0.572034385557203
30
0
41
1
10
57.9192725466241
20
0.569066004939828
30
0
0
SPLINE
5
D4
100
AcDbEntity
8
1
62
256
6
ByLayer
370
18
48
1
60
0
100
AcDbSpline
70
4
71
3
72
54
73
50
40
0
40
0
40
0
40
0
40
0.0127228795736126
40
0.0127228795736126
40
0.0646520356738123
40
0.0646520356738123
40
0.116581191774012
40
0.116581191774012
40
0.220439503974411
40
0.220439503974411
40
0.27236866007461
40
0.27236866007461
40
0.32429781617481
40
0.32429781617481
40
0.376226972275009
40
0.376226972275009
40
0.428156128375208
40
0.428156128375208
40
0.480085284475407
40
0.480085284475407
40
0.532014440575606
40
0.532014440575606
40
0.557979018625705
40
0.557979018625705
40
0.583943596675804
40
0.583943596675804
40
0.635872752776001
40
0.635872752776001
40
0.661837330826099
40
0.661837330826099
40
0.687801908876198
40
0.687801908876198
40
0.739731064976396
40
0.739731064976396
40
0.791660221076594
40
0.791660221076594
40
0.843589377176792
40
0.843589377176792
40
0.86955395522689
40
0.86955395522689
40
0.895518533276988
40
0.895518533276988
40
0.947447689377185
40
0.947447689377185
40
0.973412267427283
40
0.973412267427283
40
0.999376845477382
40
0.999376845477382
40
1
40
1
40
1
40
1
41
1
10
4.03237919755614
20
1.41246911239935
30
0
41
1
10
4.10124622607214
20
1.42391732965382
30
0
41
1
10
4.17011262442102
20
1.43487291532315
30
0
41
1
10
4.52008325885282
20
1.48802321780329
30
0
41
1
10
4.80115144445523
20
1.52247479988102
30
0
41
1
10
5.36432389205885
20
1.57326212779219
30
0
41
1
10
5.6472848364144
20
1.58938028917427
30
0
41
1
10
6.49403988319563
20
1.6092554047076
30
0
41
1
10
7.05614384142888
20
1.58433859740853
30
0
41
1
10
7.90342029268771
20
1.49230080566375
30
0
41
1
10
8.18610647583228
20
1.45250789329347
30
0
41
1
10
8.74957648599698
20
1.35589763529899
30
0
41
1
10
9.03122881963134
20
1.29961565703141
30
0
41
1
10
9.59501855116582
20
1.17245212715673
30
0
41
1
10
9.87730459272194
20
1.10122514651178
30
0
41
1
10
10.4418731084066
20
0.945462942180995
30
0
41
1
10
10.7238212994757
20
0.862398710641912
30
0
41
1
10
11.2874663207453
20
0.68720588601812
30
0
41
1
10
11.5691353648583
20
0.594991988886733
30
0
41
1
10
12.132973381231
20
0.403225838329575
30
0
41
1
10
12.4156654024754
20
0.303855001747735
30
0
41
1
10
12.8387699340147
20
0.15416614370875
30
0
41
1
10
12.9795961206282
20
0.103744251641501
30
0
41
1
10
13.2613966720038
20
0.0034516011706103
30
0
41
1
10
13.4023315518957
20
-0.0465318600102478
30
0
41
1
10
13.8249992090204
20
-0.196675155007
30
0
41
1
10
14.1064903136344
20
-0.297318967650625
30
0
41
1
10
14.5300062942854
20
-0.444279925580872
30
0
41
1
10
14.671227668764
20
-0.492972990813428
30
0
41
1
10
14.9533642490181
20
-0.588006470934488
30
0
41
1
10
15.094427199575
20
-0.634337424711362
30
0
41
1
10
15.5172554610089
20
-0.770741300745158
30
0
41
1
10
15.7987063915873
20
-0.858056237765737
30
0
41
1
10
16.3621103761517
20
-1.02192558661483
30
0
41
1
10
16.6444714862669
20
-1.09863706848887
30
0
41
1
10
17.2089543587958
20
-1.23762186886364
30
0
41
1
10
17.4907011420494
20
-1.29979421766293
30
0
41
1
10
17.9132984912971
20
-1.38106879387058
30
0
41
1
10
18.0541570131289
20
-1.40617774858163
30
0
41
1
10
18.3357298819153
20
-1.45252725655101
30
0
41
1
10
18.4764647717947
20
-1.47371207718575
30
0
41
1
10
18.8994651167632
20
-1.53018437906718
30
0
41
1
10
19.1821705913676
20
-1.55901126864447
30
0
41
1
10
19.6051452165346
20
-1.58800785739928
30
0
41
1
10
19.746052024769
20
-1.59535061749673
30
0
41
1
10
20.0275961648159
20
-1.60537723105881
30
0
41
1
10
20.1681983168705
20
-1.60803682021606
30
0
41
1
10
20.3123430792682
20
-1.60829677046172
30
0
41
1
10
20.3157215419007
20
-1.60830149371367
30
0
41
1
10
20.3191000503624
20
-1.60830484784009
30
0
0
SPLINE
5
D5
100
AcDbEntity
8
1
62
256
6
ByLayer
370
18
48
1
60
0
100
AcDbSpline
70
4
71
3
72
46
73
42
40
0
40
0
40
0
40
0
40
0.0034935156197096
40
0.0034935156197096
40
0.0548678126757898
40
0.0548678126757898
40
0.10624210973187
40
0.10624210973187
40
0.157616406787951
40
0.157616406787951
40
0.208990703844031
40
0.208990703844031
40
0.260365000900111
40
0.260365000900111
40
0.311739297956192
40
0.311739297956192
40
0.363113595012272
40
0.363113595012272
40
0.465862189124433
40
0.465862189124433
40
0.517236486180514
40
0.517236486180514
40
0.568610783236594
40
0.568610783236594
40
0.619985080292674
40
0.619985080292674
40
0.671359377348754
40
0.671359377348754
40
0.722733674404835
40
0.722733674404835
40
0.774107971460915
40
0.774107971460915
40
0.825482268516995
40
0.825482268516995
40
0.876856565573076
40
0.876856565573076
40
0.928230862629156
40
0.928230862629156
40
0.979605159685237
40
0.979605159685237
40
1
40
1
40
1
40
1
41
1
10
32.0874115278843
20
1.40052956993219
30
0
41
1
10
32.1065876589104
20
1.40398873283729
30
0
41
1
10
32.1257663705966
20
1.40741021660193
30
0
41
1
10
32.4270239634327
20
1.4605481780707
30
0
41
1
10
32.7089942080341
20
1.50197366938934
30
0
41
1
10
33.2720807326065
20
1.56608425867464
30
0
41
1
10
33.5534628157987
20
1.58899458627363
30
0
41
1
10
34.1167798406459
20
1.6160879935793
30
0
41
1
10
34.3990239124406
20
1.62028842567349
30
0
41
1
10
34.9627091977085
20
1.60921491036891
30
0
41
1
10
35.2442782139551
20
1.59413289409952
30
0
41
1
10
35.8072452519032
20
1.54563964040685
30
0
41
1
10
36.0885161494081
20
1.51206122600266
30
0
41
1
10
36.65195346867
20
1.4270159005591
30
0
41
1
10
36.9345728065821
20
1.37589317172376
30
0
41
1
10
37.4980046086288
20
1.25840207251417
30
0
41
1
10
37.7791855446176
20
1.19175472264104
30
0
41
1
10
38.622825545566
20
0.970808363557353
30
0
41
1
10
39.1885065532134
20
0.798534551981305
30
0
41
1
10
40.0322691091962
20
0.515586052392422
30
0
41
1
10
40.3134335904101
20
0.417940778585375
30
0
41
1
10
40.8764405243203
20
0.218297745237948
30
0
41
1
10
41.159029539688
20
0.116854681657486
30
0
41
1
10
41.7228266812898
20
-0.0860353734253749
30
0
41
1
10
42.0039941894123
20
-0.187971458893202
30
0
41
1
10
42.5661645331408
20
-0.389129920394055
30
0
41
1
10
42.8477002288633
20
-0.486902679559023
30
0
41
1
10
43.4117389362764
20
-0.676709481337014
30
0
41
1
10
43.6939001433953
20
-0.768677471656105
30
0
41
1
10
44.256483284705
20
-0.942429521101388
30
0
41
1
10
44.5377147884241
20
-1.02355679889385
30
0
41
1
10
45.1006987513226
20
-1.17313838619427
30
0
41
1
10
45.3825101143294
20
-1.24219187527402
30
0
41
1
10
45.9463028138206
20
-1.36457465316911
30
0
41
1
10
46.2276366896043
20
-1.41767796852133
30
0
41
1
10
46.7904288122725
20
-1.50639128173313
30
0
41
1
10
47.07158032616
20
-1.54236978735702
30
0
41
1
10
47.6346944929389
20
-1.59589771896199
30
0
41
1
10
47.9169787991341
20
-1.6134016612516
30
0
41
1
10
48.3102586628938
20
-1.62428632498887
30
0
41
1
10
48.4219761770183
20
-1.62586674833349
30
0
41
1
10
48.5336738967682
20
-1.62594365925745
30
0
0
SPLINE
5
D6
100
AcDbEntity
8
1
62
256
6
ByLayer
370
18
48
1
60
0
100
AcDbSpline
70
4
71
3
72
22
73
18
40
0
40
0
40
0
40
0
40
0.213103299128039
40
0.213103299128039
40
0.319654948692061
40
0.319654948692061
40
0.426206598256083
40
0.426206598256083
40
0.639309897384127
40
0.639309897384127
40
0.745861546948151
40
0.745861546948151
40
0.852413196512176
40
0.852413196512176
40
0.9589648460762
40
0.9589648460762
40
1
40
1
40
1
40
1
41
1
10
58.1870843047593
20
-1.38183457844397
30
0
41
1
10
57.6048197041108
20
-1.38546311299754
30
0
41
1
10
57.0252424126251
20
-1.35329908733425
30
0
41
1
10
56.1545571875226
20
-1.25655906923089
30
0
41
1
10
55.8641008986807
20
-1.21617444573801
30
0
41
1
10
55.2817436650614
20
-1.12007860963317
30
0
41
1
10
54.9900595268447
20
-1.06449879320175
30
0
41
1
10
54.1178563474064
20
-0.879355662492998
30
0
41
1
10
53.5380947994001
20
-0.730634575511061
30
0
41
1
10
52.6654436740871
20
-0.484848463404603
30
0
41
1
10
52.3736474254957
20
-0.399027888753153
30
0
41
1
10
51.7915512998455
20
-0.22378299270116
30
0
41
1
10
51.5009612643809
20
-0.134282861708158
30
0
41
1
10
50.9197443053553
20
0.0453605671716844
30
0
41
1
10
50.6291213749415
20
0.135513934765697
30
0
41
1
10
50.2258947654339
20
0.25868621807254
30
0
41
1
10
50.1136908972372
20
0.292748454065645
30
0
41
1
10
50.0015250485553
20
0.326495955683726
30
0
0
SPLINE
5
D7
100
AcDbEntity
8
1
62
256
6
ByLayer
370
18
48
1
60
0
100
AcDbSpline
70
4
71
3
72
20
73
16
40
0
40
0
40
0
40
0
40
0.163137881762008
40
0.163137881762008
40
0.269002790119816
40
0.269002790119816
40
0.374867698477624
40
0.374867698477624
40
0.480732606835432
40
0.480732606835432
40
0.58659751519324
40
0.58659751519324
40
0.798327331908856
40
0.798327331908856
40
1
40
1
40
1
40
1
41
1
10
29.9337051313661
20
-1.40099152419217
30
0
41
1
10
29.4860840286501
20
-1.40108193441449
30
0
41
1
10
29.0392645660647
20
-1.38017759420313
30
0
41
1
10
28.3009035373912
20
-1.31251376865009
30
0
41
1
10
28.009471657249
20
-1.27732160540944
30
0
41
1
10
27.4278903051347
20
-1.19118139253285
30
0
41
1
10
27.1375926213145
20
-1.14036108100257
30
0
41
1
10
26.5570167033993
20
-1.02516527821044
30
0
41
1
10
26.266737352246
20
-0.960746653435564
30
0
41
1
10
25.6852190038175
20
-0.820284291072255
30
0
41
1
10
25.3937430654958
20
-0.744157310973776
30
0
41
1
10
24.5242425185702
20
-0.504466049868569
30
0
41
1
10
23.9486409431521
20
-0.329064053435332
30
0
41
1
10
22.825734604999
20
0.0208245334854098
30
0
41
1
10
22.2783804882441
20
0.194915673067385
30
0
41
1
10
21.7282920599771
20
0.361732711416181
30
0
0
SPLINE
5
D8
100
AcDbEntity
8
1
62
256
6
ByLayer
370
18
48
1
60
0
100
AcDbSpline
70
4
71
3
72
14
73
10
40
0
40
0
40
0
40
0
40
0.461356957471264
40
0.461356957471264
40
0.692035436206896
40
0.692035436206896
40
0.922713914942528
40
0.922713914942528
40
1
40
1
40
1
40
1
41
1
10
2.55054382767699
20
-1.09191036192311
30
0
41
1
10
3.11487023837543
20
-1.24150746608535
30
0
41
1
10
3.67677637356255
20
-1.35994913911051
30
0
41
1
10
4.52007059139257
20
-1.48802150905209
30
0
41
1
10
4.80113697199215
20
-1.52247313712124
30
0
41
1
10
5.36430573892514
20
-1.5732608483296
30
0
41
1
10
5.64726482652983
20
-1.58937933402845
30
0
41
1
10
6.02407919099375
20
-1.59822460496892
30
0
41
1
10
6.11857633065171
20
-1.59937334448918
30
0
41
1
10
6.21303032888656
20
-1.59945914416861
30
0
0
SPLINE
5
D9
100
AcDbEntity
8
1
62
256
6
ByLayer
370
18
48
1
60
0
100
AcDbSpline
70
4
71
3
72
50
73
46
40
0
40
0
40
0
40
0
40
0.0071362169293175
40
0.0071362169293175
40
0.0329921807567257
40
0.0329921807567257
40
0.0847041084115422
40
0.0847041084115422
40
0.11056007223895
40
0.11056007223895
40
0.136416036066358
40
0.136416036066358
40
0.188127963721173
40
0.188127963721173
40
0.239839891375989
40
0.239839891375989
40
0.291551819030804
40
0.291551819030804
40
0.34326374668562
40
0.34326374668562
40
0.394975674340435
40
0.394975674340435
40
0.446687601995251
40
0.446687601995251
40
0.498399529650066
40
0.498399529650066
40
0.550111457304882
40
0.550111457304882
40
0.601823384959697
40
0.601823384959697
40
0.653535312614513
40
0.653535312614513
40
0.705247240269328
40
0.705247240269328
40
0.756959167924144
40
0.756959167924144
40
0.808671095578959
40
0.808671095578959
40
0.860383023233775
40
0.860383023233775
40
0.91209495088859
40
0.91209495088859
40
0.963806878543406
40
0.963806878543406
40
1
40
1
40
1
40
1
41
1
10
18.0782577799047
20
1.40970365463446
30
0
41
1
10
18.1171240536535
20
1.41639576582864
30
0
41
1
10
18.1559862001807
20
1.42293952319679
30
0
41
1
10
18.3356284178606
20
1.45251147639337
30
0
41
1
10
18.4763622851325
20
1.47369730101744
30
0
41
1
10
18.899359691283
20
1.53017249067136
30
0
41
1
10
19.1820634042321
20
1.5590015298375
30
0
41
1
10
19.6050354521739
20
1.58800152727625
30
0
41
1
10
19.7459414059363
20
1.59534544538704
30
0
41
1
10
20.0274838753222
20
1.6053744637729
30
0
41
1
10
20.1680851078095
20
1.60803532814967
30
0
41
1
10
20.5903812661398
20
1.60880075796484
30
0
41
1
10
20.8722255274262
20
1.59980171107657
30
0
41
1
10
21.4373296075009
20
1.56307528848188
30
0
41
1
10
21.7191876069521
20
1.53525690515315
30
0
41
1
10
22.2821076772468
20
1.46165057858622
30
0
41
1
10
22.5636583119803
20
1.41630298307137
30
0
41
1
10
23.1273704815426
20
1.30938587586101
30
0
41
1
10
23.4098780986239
20
1.24738599237841
30
0
41
1
10
23.9736490885799
20
1.10901768564
30
0
41
1
10
24.2552963874608
20
1.03357834295502
30
0
41
1
10
24.8185592915323
20
0.871479913054714
30
0
41
1
10
25.1000933706816
20
0.784604596029396
30
0
41
1
10
25.6640032933771
20
0.601411538471382
30
0
41
1
10
25.9465192332405
20
0.505721744815702
30
0
41
1
10
26.5097713180491
20
0.309749885430932
30
0
41
1
10
26.79129837721
20
0.210136058025824
30
0
41
1
10
27.3546372674085
20
0.0090353380043098
30
0
41
1
10
27.6365212467942
20
-0.0929004851967363
30
0
41
1
10
28.2007165769292
20
-0.295586849856761
30
0
41
1
10
28.4824873369807
20
-0.394467066731295
30
0
41
1
10
29.0457120436748
20
-0.586616555696196
30
0
41
1
10
29.3271178272583
20
-0.679992604426246
30
0
41
1
10
29.8905590135636
20
-0.858521628387678
30
0
41
1
10
30.1730284394133
20
-0.9437422100699
30
0
41
1
10
30.7365726757254
20
-1.10114036599165
30
0
41
1
10
31.0180434201033
20
-1.17326478057771
30
0
41
1
10
31.5812165645086
20
-1.30300300634769
30
0
41
1
10
31.8626832283768
20
-1.36100204200679
30
0
41
1
10
32.4268312610328
20
-1.46051788016979
30
0
41
1
10
32.708800193259
20
-1.50194737399332
30
0
41
1
10
33.2718832998604
20
-1.56606598263105
30
0
41
1
10
33.5532634931075
20
-1.58898053885622
30
0
41
1
10
34.0320512255061
20
-1.61201598867658
30
0
41
1
10
34.2294691517665
20
-1.61692214860042
30
0
41
1
10
34.4268356531809
20
-1.61711600727472
30
0
0
SPLINE
5
DA
100
AcDbEntity
8
1
62
256
6
ByLayer
370
18
48
1
60
0
100
AcDbSpline
70
4
71
3
72
32
73
28
40
0
40
0
40
0
40
0
40
0.0302274728905749
40
0.0302274728905749
40
0.111041850149694
40
0.111041850149694
40
0.191856227408813
40
0.191856227408813
40
0.272670604667931
40
0.272670604667931
40
0.35348498192705
40
0.35348498192705
40
0.434299359186169
40
0.434299359186169
40
0.515113736445287
40
0.515113736445287
40
0.595928113704406
40
0.595928113704406
40
0.676742490963525
40
0.676742490963525
40
0.757556868222644
40
0.757556868222644
40
0.838371245481762
40
0.838371245481762
40
0.919185622740881
40
0.919185622740881
40
1
40
1
40
1
40
1
41
1
10
46.1929889542822
20
1.40857443725079
30
0
41
1
10
46.2982557915349
20
1.42758035240749
30
0
41
1
10
46.4034986242073
20
1.44539707987036
30
0
41
1
10
46.7901445164587
20
1.5063521456172
30
0
41
1
10
47.0712942923256
20
1.54233626578059
30
0
41
1
10
47.6344042011726
20
1.59587645029041
30
0
41
1
10
47.916686826863
20
1.61338690222723
30
0
41
1
10
48.4797244556597
20
1.62898323934735
30
0
41
1
10
48.760976886705
20
1.62718290863054
30
0
41
1
10
49.323657501099
20
1.60467923131537
30
0
41
1
10
49.6049113405843
20
1.58386138941742
30
0
41
1
10
50.168665428273
20
1.52325321481752
30
0
41
1
10
50.4505151870146
20
1.48406886873784
30
0
41
1
10
51.0132722349504
20
1.3889005140941
30
0
41
1
10
51.2942620131592
20
1.33267598433088
30
0
41
1
10
51.8569032696332
20
1.20485608054039
30
0
41
1
10
52.1390850010821
20
1.13319076363001
30
0
41
1
10
52.7024122792198
20
0.977670236877714
30
0
41
1
10
52.9837190396549
20
0.894260681299869
30
0
41
1
10
53.5461827539796
20
0.71757630120274
30
0
41
1
10
53.827189421936
20
0.623891433462006
30
0
41
1
10
54.3903949089875
20
0.429779379629736
30
0
41
1
10
54.6727446114698
20
0.330354264037368
30
0
41
1
10
55.2357384130804
20
0.12886192111327
30
0
41
1
10
55.5166036185918
20
0.025927304782158
30
0
41
1
10
56.0789188180374
20
-0.179210391206652
30
0
41
1
10
56.3611361405488
20
-0.280665787194806
30
0
41
1
10
56.643042165415
20
-0.379809753840249
30
0
0
SPLINE
5
DB
100
AcDbEntity
8
1
62
256
6
ByLayer
370
18
48
1
60
0
100
AcDbSpline
70
4
71
3
72
28
73
24
40
0
40
0
40
0
40
0
40
0.0840922937121174
40
0.0840922937121174
40
0.187526894800224
40
0.187526894800224
40
0.290961495888331
40
0.290961495888331
40
0.394396096976438
40
0.394396096976438
40
0.497830698064545
40
0.497830698064545
40
0.601265299152652
40
0.601265299152652
40
0.704699900240759
40
0.704699900240759
40
0.808134501328866
40
0.808134501328866
40
0.859851801872919
40
0.859851801872919
40
0.911569102416973
40
0.911569102416973
40
1
40
1
40
1
40
1
41
1
10
41.5330445152293
20
-0.0171483704754678
30
0
41
1
10
41.3039353834006
20
0.0557866589886089
30
0
41
1
10
41.0749432209714
20
0.128563729847315
30
0
41
1
10
40.5645007842973
20
0.290119727063654
30
0
41
1
10
40.2828972845303
20
0.378115869836677
30
0
41
1
10
39.7186707535041
20
0.54903397693883
30
0
41
1
10
39.436001516173
20
0.631775952894515
30
0
41
1
10
38.8686873457991
20
0.789344291047513
30
0
41
1
10
38.5834797626864
20
0.86453220912108
30
0
41
1
10
38.0133360585079
20
1.00293195298087
30
0
41
1
10
37.7290999654152
20
1.06600606343875
30
0
41
1
10
37.1602481220942
20
1.17962525021227
30
0
41
1
10
36.8759391179899
20
1.22999679939673
30
0
41
1
10
36.3068369809394
20
1.31442524361978
30
0
41
1
10
36.0216473080322
20
1.34843735066559
30
0
41
1
10
35.4514092064947
20
1.40178447950973
30
0
41
1
10
35.1668416605862
20
1.42056451638621
30
0
41
1
10
34.7405102566621
20
1.43412379574423
30
0
41
1
10
34.5985226585209
20
1.43599998937134
30
0
41
1
10
34.3143628741654
20
1.43616463738067
30
0
41
1
10
34.1722044495669
20
1.43438166237942
30
0
41
1
10
33.7867288623817
20
1.42413575859805
30
0
41
1
10
33.5429840714248
20
1.41183185509726
30
0
41
1
10
33.2992246447496
20
1.39287906430096
30
0
0
SPLINE
5
DC
100
AcDbEntity
8
1
62
256
6
ByLayer
370
18
48
1
60
0
100
AcDbSpline
70
4
71
3
72
28
73
24
40
0
40
0
40
0
40
0
40
0.0217095765528767
40
0.0217095765528767
40
0.073896197542286
40
0.073896197542286
40
0.178269439521105
40
0.178269439521105
40
0.282642681499923
40
0.282642681499923
40
0.387015923478741
40
0.387015923478741
40
0.491389165457559
40
0.491389165457559
40
0.595762407436377
40
0.595762407436377
40
0.700135649415196
40
0.700135649415196
40
0.804508891394013
40
0.804508891394013
40
0.908882133372832
40
0.908882133372832
40
1
40
1
40
1
40
1
41
1
10
13.3505350657639
20
-0.0283579286187603
30
0
41
1
10
13.2913524750807
20
-0.0094366223143538
30
0
41
1
10
13.2321197766386
20
0.0095134029835435
30
0
41
1
10
13.030330860342
20
0.0741613333898101
30
0
41
1
10
12.8876840209233
20
0.120268320818013
30
0
41
1
10
12.4603938930595
20
0.256608259783178
30
0
41
1
10
12.1761981097998
20
0.34670203256934
30
0
41
1
10
11.6078232116429
20
0.521356586755275
30
0
41
1
10
11.3235326559168
20
0.605847781498028
30
0
41
1
10
10.7541434900287
20
0.767126563094422
30
0
41
1
10
10.4685574757391
20
0.84396508090677
30
0
41
1
10
9.8994036221834
20
0.98552850577056
30
0
41
1
10
9.61513562179738
20
1.05085557025686
30
0
41
1
10
9.04645532857836
20
1.16874212031974
30
0
41
1
10
8.76215143550692
20
1.22087067048659
30
0
41
1
10
8.19286138928686
20
1.30902133021255
30
0
41
1
10
7.90723278237863
20
1.34596479782891
30
0
41
1
10
7.33942000273862
20
1.40343858000421
30
0
41
1
10
7.05675348060362
20
1.42365849720815
30
0
41
1
10
6.49325364313228
20
1.44586808718645
30
0
41
1
10
6.21207636417199
20
1.44913821187637
30
0
41
1
10
5.68609234993457
20
1.43944689916421
30
0
41
1
10
5.44122121481621
20
1.42827409522243
30
0
41
1
10
5.19636639959674
20
1.41024974857066
30
0
0
SPLINE
5
DD
100
AcDbEntity
8
1
62
256
6
ByLayer
370
18
48
1
60
0
100
AcDbSpline
70
4
71
3
72
14
73
10
40
0
40
0
40
0
40
0
40
0.25
40
0.25
40
0.5
40
0.5
40
0.75
40
0.75
40
1
40
1
40
1
40
1
41
1
10
57.8782314561632
20
-1.02858373640055
30
0
41
1
10
57.9017946843589
20
-1.08622976299498
30
0
41
1
10
57.9267300624974
20
-1.13739732802225
30
0
41
1
10
57.9784416542435
20
-1.22689577396218
30
0
41
1
10
58.0049901791758
20
-1.26466984791438
30
0
41
1
10
58.0575351304524
20
-1.3245573757905
30
0
41
1
10
58.0837594181244
20
-1.34707042362788
30
0
41
1
10
58.1361577323586
20
-1.37661318546029
30
0
41
1
10
58.1618552488147
20
-1.38333310448237
30
0
41
1
10
58.187084304746
20
-1.38183457844394
30
0
0
SPLINE
5
DE
100
AcDbEntity
8
1
62
256
6
ByLayer
370
18
48
1
60
0
100
AcDbSpline
70
4
71
3
72
8
73
4
40
0
40
0
40
0
40
0
40
1
40
1
40
1
40
1
41
1
10
56.6430421654364
20
-0.379809753847752
30
0
41
1
10
56.7608561460139
20
-0.405959183828827
30
0
41
1
10
56.8787240912482
20
-0.426442784120269
30
0
41
1
10
56.996651397383
20
-0.440693995059576
30
0
0
SPLINE
5
DF
100
AcDbEntity
8
1
62
256
6
ByLayer
370
18
48
1
60
0
100
AcDbSpline
70
4
71
3
72
8
73
4
40
0
40
0
40
0
40
0
40
1
40
1
40
1
40
1
41
1
10
2.54000143104176
20
-1.43701830414031
30
0
41
1
10
2.60688468232405
20
-1.43246733874687
30
0
41
1
10
2.67378977080895
20
-1.42741874137846
30
0
41
1
10
2.74070592712528
20
-1.42188500441767
30
0
0
SPLINE
5
E0
100
AcDbEntity
8
1
62
256
6
ByLayer
370
18
48
1
60
0
100
AcDbSpline
70
4
71
3
72
22
73
18
40
0
40
0
40
0
40
0
40
0.079647724808764
40
0.079647724808764
40
0.293754677433343
40
0.293754677433343
40
0.400808153745633
40
0.400808153745633
40
0.507861630057923
40
0.507861630057923
40
0.614915106370213
40
0.614915106370213
40
0.721968582682502
40
0.721968582682502
40
0.936075535307082
40
0.936075535307082
40
1
40
1
40
1
40
1
41
1
10
22.7278163150334
20
0.0017562154831694
30
0
41
1
10
22.9416810994179
20
-0.0676613597319431
30
0
41
1
10
23.1554186453496
20
-0.137028128589094
30
0
41
1
10
23.9439840066403
20
-0.390294691902625
30
0
41
1
10
24.5193010720459
20
-0.569675566271826
30
0
41
1
10
25.3887901391783
20
-0.812994058349005
30
0
41
1
10
25.6803634825518
20
-0.889938902142433
30
0
41
1
10
26.2619217751835
20
-1.03108516425391
30
0
41
1
10
26.5521969070165
20
-1.09538848137612
30
0
41
1
10
27.1327963389786
20
-1.20950509134454
30
0
41
1
10
27.4231104822124
20
-1.25936290133112
30
0
41
1
10
28.0047741627699
20
-1.3426776043602
30
0
41
1
10
28.2962710628252
20
-1.37601058601444
30
0
41
1
10
29.1680726471948
20
-1.44927133305015
30
0
41
1
10
29.7475551439115
20
-1.46266303957808
30
0
41
1
10
30.5031658053982
20
-1.43196146021987
30
0
41
1
10
30.6770802096033
20
-1.42161282719889
30
0
41
1
10
30.8509054576699
20
-1.40812048923956
30
0
0
SPLINE
5
E1
100
AcDbEntity
8
1
62
256
6
ByLayer
370
18
48
1
60
0
100
AcDbSpline
70
4
71
3
72
20
73
16
40
0
40
0
40
0
40
0
40
0.0490746768996392
40
0.0490746768996392
40
0.189287882895475
40
0.189287882895475
40
0.329501088891311
40
0.329501088891311
40
0.609927500882982
40
0.609927500882982
40
0.75014070687882
40
0.75014070687882
40
0.890353912874658
40
0.890353912874658
40
1
40
1
40
1
40
1
41
1
10
50.899337926034
20
0.0012314803198024
30
0
41
1
10
51.0010858908215
20
-0.0313570469447768
30
0
41
1
10
51.1028100964701
20
-0.063936160250762
30
0
41
1
10
51.495163308949
20
-0.189306804202204
30
0
41
1
10
51.7857790743781
20
-0.281529193413661
30
0
41
1
10
52.3679979983485
20
-0.461482439542493
30
0
41
1
10
52.6598925470516
20
-0.549277051787982
30
0
41
1
10
53.5326575104125
20
-0.799637374490572
30
0
41
1
10
54.1123465461395
20
-0.949712889624891
30
0
41
1
10
54.9846989113043
20
-1.13424603111017
30
0
41
1
10
55.2765119105923
20
-1.18920847784816
30
0
41
1
10
55.8589265270985
20
-1.28311133240425
30
0
41
1
10
56.149375427318
20
-1.32194771687759
30
0
41
1
10
56.6665415062971
20
-1.37600718804839
30
0
41
1
10
56.8933468293895
20
-1.39455897957467
30
0
41
1
10
57.1202331459076
20
-1.40772668535186
30
0
0
SPLINE
5
E2
100
AcDbEntity
8
1
62
256
6
ByLayer
370
13
48
1
60
0
100
AcDbSpline
70
4
71
3
72
8
73
4
40
0
40
0
40
0
40
0
40
1
40
1
40
1
40
1
41
1
10
57.1202331468886
20
-1.40772668540873
30
0
41
1
10
57.4736221261285
20
-1.42823617302111
30
0
41
1
10
57.8272075947854
20
-1.43568391078335
30
0
41
1
10
58.1818372921585
20
-1.42926547656771
30
0
0
SPLINE
5
E3
100
AcDbEntity
8
1
62
256
6
ByLayer
370
18
48
1
60
0
100
AcDbSpline
70
4
71
3
72
46
73
42
40
0
40
0
40
0
40
0
40
0.12500000000004
40
0.12500000000004
40
0.250000000000081
40
0.250000000000081
40
0.312500000000101
40
0.312500000000101
40
0.375000000000122
40
0.375000000000122
40
0.406250000000132
40
0.406250000000132
40
0.437500000000142
40
0.437500000000142
40
0.468750000000152
40
0.468750000000152
40
0.500000000000162
40
0.500000000000162
40
0.531250000000172
40
0.531250000000172
40
0.562500000000182
40
0.562500000000182
40
0.593750000000192
40
0.593750000000192
40
0.609375000000198
40
0.609375000000198
40
0.613281250000198
40
0.613281250000198
40
0.615234375000199
40
0.615234375000199
40
0.617187500000199
40
0.617187500000199
40
0.6210937500002
40
0.6210937500002
40
0.6250000000002
40
0.6250000000002
40
0.750000000000133
40
0.750000000000133
40
0.875000000000067
40
0.875000000000067
40
1
40
1
40
1
40
1
41
1
10
5.13427599657885
20
-1.3656425967246
30
0
41
1
10
4.9060403270077
20
-1.27695832180655
30
0
41
1
10
4.67769450384321
20
-1.16463806558406
30
0
41
1
10
4.22956483753899
20
-0.904507126629085
30
0
41
1
10
4.00865433083015
20
-0.756711940744822
30
0
41
1
10
3.68043924508805
20
-0.506699407761687
30
0
41
1
10
3.57109895437137
20
-0.418088145960638
30
0
41
1
10
3.35874402365351
20
-0.23358391139098
30
0
41
1
10
3.25521606852502
20
-0.137414055949961
30
0
41
1
10
3.10529581852677
20
0.0146137634937133
30
0
41
1
10
3.05612410008118
20
0.0667395060207241
30
0
41
1
10
2.9615628728256
20
0.172555846346
30
0
41
1
10
2.91599909350086
20
0.226402485046634
30
0
41
1
10
2.82914419888229
20
0.336491722709354
30
0
41
1
10
2.78783820549631
20
0.392725216865102
30
0
41
1
10
2.71095706922159
20
0.508488492734017
30
0
41
1
10
2.67581913587264
20
0.567427201175406
30
0
41
1
10
2.61556828750119
20
0.685945319034829
30
0
41
1
10
2.59002301688724
20
0.746550002991
30
0
41
1
10
2.55353788474605
20
0.865679424613262
30
0
41
1
10
2.54251042964557
20
0.923977822311741
30
0
41
1
10
2.53824265765033
20
1.03777226054604
30
0
41
1
10
2.54515500110045
20
1.0904092694974
30
0
41
1
10
2.56860333600125
20
1.16354006694519
30
0
41
1
10
2.57867581263278
20
1.18704455774747
30
0
41
1
10
2.5937009181514
20
1.21476364290336
30
0
41
1
10
2.59682758684241
20
1.22022856871794
30
0
41
1
10
2.60169619397792
20
1.22831073868679
30
0
41
1
10
2.60334901348776
20
1.23098587425025
30
0
41
1
10
2.60671279826016
20
1.23629700070805
30
0
41
1
10
2.6082656006638
20
1.23901234819897
30
0
41
1
10
2.61569594249303
20
1.24610702748029
30
0
41
1
10
2.62477324330763
20
1.24846642499489
30
0
41
1
10
2.6423065352484
20
1.25052305342308
30
0
41
1
10
2.6514114295706
20
1.2502009795503
30
0
41
1
10
2.94557721464997
20
1.23438612688585
30
0
41
1
10
3.22911801403961
20
1.20739287589228
30
0
41
1
10
3.78752373667382
20
1.12704337043777
30
0
41
1
10
4.06360663189153
20
1.0733024364163
30
0
41
1
10
4.60666117266311
20
0.933650431213607
30
0
41
1
10
4.87261489674324
20
0.848048393954059
30
0
41
1
10
5.13427599657882
20
0.74517771539297
30
0
0
SPLINE
5
E4
100
AcDbEntity
8
1
62
256
6
ByLayer
370
18
48
1
60
0
100
AcDbSpline
70
4
71
3
72
28
73
24
40
0
40
0
40
0
40
0
40
0.123183051947868
40
0.123183051947868
40
0.246366103895737
40
0.246366103895737
40
0.307957629869671
40
0.307957629869671
40
0.369549155843605
40
0.369549155843605
40
0.492732207791468
40
0.492732207791468
40
0.61591525973933
40
0.61591525973933
40
0.739098311687193
40
0.739098311687193
40
0.800689837661124
40
0.800689837661124
40
0.862281363635056
40
0.862281363635056
40
0.985464415582919
40
0.985464415582919
40
1
40
1
40
1
40
1
41
1
10
56.3484088409433
20
0.202045095795654
30
0
41
1
10
56.0806700978388
20
0.298304516786828
30
0
41
1
10
55.8119266919632
20
0.393366100125832
30
0
41
1
10
55.2748290471878
20
0.580644268954416
30
0
41
1
10
55.0074270905881
20
0.670729145432659
30
0
41
1
10
54.6072646068235
20
0.798809676420575
30
0
41
1
10
54.4740812001071
20
0.840462163292813
30
0
41
1
10
54.208164441895
20
0.921765092096706
30
0
41
1
10
54.075493860118
20
0.961549524463635
30
0
41
1
10
53.6773925756169
20
1.0760325101553
30
0
41
1
10
53.4119259280372
20
1.14611280302606
30
0
41
1
10
52.8811069989889
20
1.27454771474544
30
0
41
1
10
52.6160085053393
20
1.33321012458194
30
0
41
1
10
52.0836968316764
20
1.43455445471596
30
0
41
1
10
51.8167284315652
20
1.47780145208966
30
0
41
1
10
51.4151781983974
20
1.53138704985827
30
0
41
1
10
51.2811724158319
20
1.54736641197974
30
0
41
1
10
51.0122222326586
20
1.57485328782985
30
0
41
1
10
50.8780047423376
20
1.58638604042119
30
0
41
1
10
50.4761297571742
20
1.61457433524032
30
0
41
1
10
50.2093912464291
20
1.62489310337924
30
0
41
1
10
49.9121355913911
20
1.62673204670921
30
0
41
1
10
49.8807640720623
20
1.62680595061175
30
0
41
1
10
49.849395200827
20
1.62676015926269
30
0
0
SPLINE
5
E5
100
AcDbEntity
8
1
62
256
6
ByLayer
370
18
48
1
60
0
100
AcDbSpline
70
4
71
3
72
8
73
4
40
0
40
0
40
0
40
0
40
1
40
1
40
1
40
1
41
1
10
40.1391172966992
20
-0.910641715714632
30
0
41
1
10
40.0953172536423
20
-0.923703601891361
30
0
41
1
10
40.0515162019172
20
-0.936616908873333
30
0
41
1
10
40.0077146699548
20
-0.94938341582079
30
0
0
SPLINE
5
E6
100
AcDbEntity
8
1
62
256
6
ByLayer
370
18
48
1
60
0
100
AcDbSpline
70
4
71
3
72
62
73
58
40
0
40
0
40
0
40
0
40
0.0224869323822552
40
0.0224869323822552
40
0.0682869516330874
40
0.0682869516330874
40
0.0911869612585034
40
0.0911869612585034
40
0.114086970883919
40
0.114086970883919
40
0.159886990134749
40
0.159886990134749
40
0.205687009385579
40
0.205687009385579
40
0.251487028636409
40
0.251487028636409
40
0.297287047887239
40
0.297287047887239
40
0.34308706713807
40
0.34308706713807
40
0.365987076763484
40
0.365987076763484
40
0.388887086388898
40
0.388887086388898
40
0.434687105639726
40
0.434687105639726
40
0.45758711526514
40
0.45758711526514
40
0.480487124890553
40
0.480487124890553
40
0.526287144141384
40
0.526287144141384
40
0.572087163392214
40
0.572087163392214
40
0.617887182643044
40
0.617887182643044
40
0.640787192268458
40
0.640787192268458
40
0.663687201893871
40
0.663687201893871
40
0.7094872211447
40
0.7094872211447
40
0.755287240395528
40
0.755287240395528
40
0.801087259646356
40
0.801087259646356
40
0.846887278897184
40
0.846887278897184
40
0.869787288522599
40
0.869787288522599
40
0.892687298148014
40
0.892687298148014
40
0.938487317398842
40
0.938487317398842
40
0.98428733664967
40
0.98428733664967
40
1
40
1
40
1
40
1
41
1
10
39.1476952042324
20
-1.18163723221642
30
0
41
1
10
39.0173572824104
20
-1.21395466677353
30
0
41
1
10
38.8869325352348
20
-1.2447951160147
30
0
41
1
10
38.4901168329662
20
-1.33297246597155
30
0
41
1
10
38.2231624636723
20
-1.38518674137887
30
0
41
1
10
37.8216502204607
20
-1.45309074868675
30
0
41
1
10
37.6876736429342
20
-1.47401612341298
30
0
41
1
10
37.4187956401457
20
-1.51152538909577
30
0
41
1
10
37.2842405273527
20
-1.52816314404919
30
0
41
1
10
36.8818643296081
20
-1.57173761402592
30
0
41
1
10
36.6147765693477
20
-1.59253238074669
30
0
41
1
10
36.0825271717629
20
-1.61713506439421
30
0
41
1
10
35.8166143863572
20
-1.62071272671412
30
0
41
1
10
35.2854049562317
20
-1.61115543733757
30
0
41
1
10
35.0204559924663
20
-1.59773676772406
30
0
41
1
10
34.4893449881149
20
-1.55443563934207
30
0
41
1
10
34.223233377041
20
-1.52475910559269
30
0
41
1
10
33.6901560963704
20
-1.44892286458534
30
0
41
1
10
33.42316202563
20
-1.40255864240919
30
0
41
1
10
33.0202788841663
20
-1.32273288694452
30
0
41
1
10
32.8854565714134
20
-1.29427980850926
30
0
41
1
10
32.6167229423748
20
-1.23400057786051
30
0
41
1
10
32.4827044683755
20
-1.20215477175964
30
0
41
1
10
32.0817217954113
20
-1.10139077004158
30
0
41
1
10
31.8150653806204
20
-1.02891199823031
30
0
41
1
10
31.4158167984899
20
-0.913127446821449
30
0
41
1
10
31.2828852060628
20
-0.873283653524538
30
0
41
1
10
31.0173392792217
20
-0.791036829484227
30
0
41
1
10
30.8847786980051
20
-0.748486828389559
30
0
41
1
10
30.4867161843097
20
-0.619170194866172
30
0
41
1
10
30.2210549912915
20
-0.530236583348142
30
0
41
1
10
29.6894297044064
20
-0.346239265396662
30
0
41
1
10
29.4236194424143
20
-0.25063622804393
30
0
41
1
10
28.8893933525897
20
-0.0598169265003889
30
0
41
1
10
28.6212749029836
20
0.0361997006770594
30
0
41
1
10
28.217631497122
20
0.181520852474193
30
0
41
1
10
28.0834275857233
20
0.229949231806728
30
0
41
1
10
27.8153553466859
20
0.324899208869255
30
0
41
1
10
27.6815285464454
20
0.371699193535648
30
0
41
1
10
27.2806811049912
20
0.510184761288627
30
0
41
1
10
27.0145329126914
20
0.60062953870019
30
0
41
1
10
26.4831567482893
20
0.774142000912775
30
0
41
1
10
26.217464677398
20
0.856049301897997
30
0
41
1
10
25.6862981367004
20
1.01098560425868
30
0
41
1
10
25.4211159013682
20
1.08456620105406
30
0
41
1
10
24.8888795690322
20
1.21791121188934
30
0
41
1
10
24.622017367213
20
1.27821869491279
30
0
41
1
10
24.2207544650381
20
1.3592158260885
30
0
41
1
10
24.0868851971314
20
1.38469016948571
30
0
41
1
10
23.8182747727151
20
1.43148443202017
30
0
41
1
10
23.6834273432992
20
1.45292305654181
30
0
41
1
10
23.2802500593392
20
1.51106360628805
30
0
41
1
10
23.0126674065625
20
1.54184619466199
30
0
41
1
10
22.4796535186512
20
1.58699780346316
30
0
41
1
10
22.2134340335203
20
1.60084912679716
30
0
41
1
10
21.8563890341301
20
1.60830874398127
30
0
41
1
10
21.7652715298901
20
1.60921741492439
30
0
41
1
10
21.6741896939065
20
1.6091300170547
30
0
0
SPLINE
5
E7
100
AcDbEntity
8
1
62
256
6
ByLayer
370
18
48
1
60
0
100
AcDbSpline
70
4
71
3
72
24
73
20
40
0
40
0
40
0
40
0
40
0.0410959524717986
40
0.0410959524717986
40
0.109589098723813
40
0.109589098723813
40
0.178082244975827
40
0.178082244975827
40
0.315068537479856
40
0.315068537479856
40
0.452054829983884
40
0.452054829983884
40
0.589041122487913
40
0.589041122487913
40
0.726027414991943
40
0.726027414991943
40
0.863013707495972
40
0.863013707495972
40
1
40
1
40
1
40
1
41
1
10
10.9860591140292
20
-1.16379460678729
30
0
41
1
10
10.9059853370449
20
-1.18336201426962
30
0
41
1
10
10.825860453579
20
-1.20241982798691
30
0
41
1
10
10.6120654208795
20
-1.25189016886705
30
0
41
1
10
10.478358522969
20
-1.2814754067528
30
0
41
1
10
10.2101349045738
20
-1.33671637277516
30
0
41
1
10
10.0756162943117
20
-1.36248603945103
30
0
41
1
10
9.67133738529537
20
-1.43426206706994
30
0
41
1
10
9.40311753921651
20
-1.47448199047412
30
0
41
1
10
8.86907052095108
20
-1.53921332566296
30
0
41
1
10
8.60245616914648
20
-1.56294154234109
30
0
41
1
10
8.07020753025677
20
-1.59408324486009
30
0
41
1
10
7.80491877736415
20
-1.60143296141402
30
0
41
1
10
7.27359061787206
20
-1.59900884631119
30
0
41
1
10
7.00756915726424
20
-1.58946821612943
30
0
41
1
10
6.47507479417308
20
-1.55356722632479
30
0
41
1
10
6.20860770829287
20
-1.52697372145317
30
0
41
1
10
5.67298132838863
20
-1.45823475769694
30
0
41
1
10
5.40355222157734
20
-1.41608726447646
30
0
41
1
10
5.13427599657885
20
-1.3656425967246
30
0
0
SPLINE
5
E8
100
AcDbEntity
8
1
62
256
6
ByLayer
370
18
48
1
60
0
100
AcDbSpline
70
4
71
3
72
27
73
23
40
0
40
0
40
0
40
0
40
0.0362107083711535
40
0.0362107083711535
40
0.14917444016212
40
0.14917444016212
40
0.375101903744053
40
0.375101903744053
40
0.601029367325986
40
0.601029367325986
40
0.65751123322147
40
0.685752166169212
40
0.685752166169212
40
0.699872632643082
40
0.699872632643082
40
0.706932865880018
40
0.706932865880018
40
0.713993099116953
40
0.713993099116953
40
0.826956830907921
40
0.826956830907921
40
1
40
1
40
1
40
1
41
1
10
5.13427599657885
20
0.745177715392913
30
0
41
1
10
5.13427599657885
20
0.724124971271834
30
0
41
1
10
5.13427599657885
20
0.702749503839925
30
0
41
1
10
5.13427599657885
20
0.613378889519424
30
0
41
1
10
5.13427599657888
20
0.542323890337116
30
0
41
1
10
5.13427599657888
20
0.322448170440793
30
0
41
1
10
5.13427599657885
20
0.16715561732147
30
0
41
1
10
5.13427599657885
20
-0.159159143859995
30
0
41
1
10
5.13427599657888
20
-0.33071679500398
30
0
41
1
10
5.13427599657888
20
-0.553251317824106
30
0
41
1
10
5.13427599657882
20
-0.620557969911403
30
0
41
1
10
5.13427599657882
20
-0.688676819358108
30
0
41
1
10
5.13427599657882
20
-0.722856695147755
30
0
41
1
10
5.13427599657888
20
-0.734104631352352
30
0
41
1
10
5.13427599657888
20
-0.752804204126761
30
0
41
1
10
5.13427599657885
20
-0.759111887089546
30
0
41
1
10
5.13427599657885
20
-0.771060440556994
30
0
41
1
10
5.13427599657885
20
-0.776143587175
30
0
41
1
10
5.13427599657885
20
-0.863014528414709
30
0
41
1
10
5.13427599657888
20
-0.943062555631798
30
0
41
1
10
5.13427599657888
20
-1.14080216086384
30
0
41
1
10
5.13427599657885
20
-1.25594120858869
30
0
41
1
10
5.13427599657885
20
-1.3656425967246
30
0
0
SPLINE
5
E9
100
AcDbEntity
8
1
62
256
6
ByLayer
370
18
48
1
60
0
100
AcDbSpline
70
4
71
3
72
30
73
26
40
0
40
0
40
0
40
0
40
0.24999999999999
40
0.24999999999999
40
0.499999999999981
40
0.499999999999981
40
0.624999999999976
40
0.624999999999976
40
0.640624999999977
40
0.640624999999977
40
0.656249999999978
40
0.656249999999978
40
0.664062499999978
40
0.664062499999978
40
0.671874999999979
40
0.671874999999979
40
0.679687499999979
40
0.679687499999979
40
0.68749999999998
40
0.68749999999998
40
0.749999999999984
40
0.749999999999984
40
0.874999999999992
40
0.874999999999992
40
1
40
1
40
1
40
1
41
1
10
56.3484088409432
20
0.202045095795654
30
0
41
1
10
56.518372752405
20
0.105390097103509
30
0
41
1
10
56.6905399502156
20
0.0223081720264702
30
0
41
1
10
57.0393804603866
20
-0.116096315607763
30
0
41
1
10
57.2161539603507
20
-0.170801684797198
30
0
41
1
10
57.4851159881102
20
-0.229439355589704
30
0
41
1
10
57.5756254717381
20
-0.245053902792535
30
0
41
1
10
57.6770665251955
20
-0.25760187451624
30
0
41
1
10
57.6883362144599
20
-0.258927222029001
30
0
41
1
10
57.7108614678394
20
-0.261437845141785
30
0
41
1
10
57.722276938231
20
-0.263214049110758
30
0
41
1
10
57.7385945493774
20
-0.260502061176879
30
0
41
1
10
57.74378607608
20
-0.258875970434275
30
0
41
1
10
57.7532207603685
20
-0.253124348796433
30
0
41
1
10
57.7570995447358
20
-0.24876399084377
30
0
41
1
10
57.7617080688488
20
-0.237653689755149
30
0
41
1
10
57.7626632748746
20
-0.231204316130345
30
0
41
1
10
57.7651845699477
20
-0.218793559933459
30
0
41
1
10
57.7665772066112
20
-0.212647410360034
30
0
41
1
10
57.7780889157847
20
-0.156873444722208
30
0
41
1
10
57.7859952411247
20
-0.106333361263893
30
0
41
1
10
57.8037892015729
20
0.0472571927226113
30
0
41
1
10
57.807758077143
20
0.151970762667332
30
0
41
1
10
57.8047843376127
20
0.361478541905626
30
0
41
1
10
57.7978553588571
20
0.466841739622026
30
0
41
1
10
57.7869703147785
20
0.572647865372176
30
0
0
SPLINE
5
EA
100
AcDbEntity
8
1
62
256
6
ByLayer
370
18
48
1
60
0
100
AcDbSpline
70
4
71
3
72
8
73
4
40
0
40
0
40
0
40
0
40
1
40
1
40
1
40
1
41
1
10
58.7373327708793
20
-0.0848829435578295
30
0
41
1
10
58.740875684325
20
-0.0283604988403283
30
0
41
1
10
58.7408987925554
20
0.0279918379406183
30
0
41
1
10
58.7373327708792
20
0.084882943561098
30
0
0
SPLINE
5
EB
100
AcDbEntity
8
1
62
256
6
ByLayer
370
18
48
1
60
0
100
AcDbSpline
70
4
71
3
72
70
73
66
40
0
40
0
40
0
40
0
40
0.045631637065503
40
0.045631637065503
40
0.0693981338706531
40
0.0693981338706531
40
0.0931646306758033
40
0.0931646306758033
40
0.116931127480953
40
0.116931127480953
40
0.140697624286104
40
0.140697624286104
40
0.188230617896404
40
0.188230617896404
40
0.211997114701554
40
0.211997114701554
40
0.235763611506705
40
0.235763611506705
40
0.283296605117006
40
0.283296605117006
40
0.307063101922156
40
0.307063101922156
40
0.330829598727306
40
0.330829598727306
40
0.354596095532456
40
0.354596095532456
40
0.378362592337606
40
0.378362592337606
40
0.425895585947906
40
0.425895585947906
40
0.473428579558207
40
0.473428579558207
40
0.520961573168507
40
0.520961573168507
40
0.544728069973658
40
0.544728069973658
40
0.568494566778809
40
0.568494566778809
40
0.592261063583961
40
0.592261063583961
40
0.616027560389112
40
0.616027560389112
40
0.663560553999412
40
0.663560553999412
40
0.687327050804563
40
0.687327050804563
40
0.711093547609715
40
0.711093547609715
40
0.758626541220017
40
0.758626541220017
40
0.806159534830319
40
0.806159534830319
40
0.82992603163547
40
0.82992603163547
40
0.853692528440622
40
0.853692528440622
40
0.901225522050924
40
0.901225522050924
40
0.924992018856075
40
0.924992018856075
40
0.948758515661227
40
0.948758515661227
40
0.996291509271531
40
0.996291509271531
40
1
40
1
40
1
40
1
41
1
10
10.968666681874
20
1.16788169646796
30
0
41
1
10
11.2323033456648
20
1.23233984448615
30
0
41
1
10
11.4965854810011
20
1.29021680430466
30
0
41
1
10
11.8988626588641
20
1.36922056305269
30
0
41
1
10
12.0365665578513
20
1.39481615961836
30
0
41
1
10
12.3129589365831
20
1.44128667813302
30
0
41
1
10
12.4516052378412
20
1.462269241086
30
0
41
1
10
12.7295294591122
20
1.50016944273179
30
0
41
1
10
12.8687928809917
20
1.51709666095547
30
0
41
1
10
13.146553728132
20
1.54660424216479
30
0
41
1
10
13.2850585435881
20
1.55932631618759
30
0
41
1
10
13.7004523739492
20
1.59046599620109
30
0
41
1
10
13.9779295419381
20
1.60174192910429
30
0
41
1
10
14.3939532731681
20
1.60530479286507
30
0
41
1
10
14.5326327126571
20
1.6042301127853
30
0
41
1
10
14.8098112725672
20
1.59730331661635
30
0
41
1
10
14.948709638458
20
1.59148158065389
30
0
41
1
10
15.3658776480206
20
1.56746310641358
30
0
41
1
10
15.6436631877671
20
1.54275388792919
30
0
41
1
10
16.0590805231968
20
1.49178432165365
30
0
41
1
10
16.1973262753458
20
1.47238200511481
30
0
41
1
10
16.4744616604256
20
1.43001762343869
30
0
41
1
10
16.6132500908931
20
1.4069917076111
30
0
41
1
10
16.8909091050606
20
1.35685409051487
30
0
41
1
10
17.0298154380753
20
1.32978138094072
30
0
41
1
10
17.3077562675825
20
1.27146837234389
30
0
41
1
10
17.4464014694136
20
1.23990764761791
30
0
41
1
10
17.8615860673319
20
1.14129226636345
30
0
41
1
10
18.1378721892562
20
1.07035370182783
30
0
41
1
10
18.6883239071494
20
0.915958456072502
30
0
41
1
10
18.9621258160508
20
0.831435094017735
30
0
41
1
10
19.5111269597607
20
0.6583539877048
30
0
41
1
10
19.7856945207113
20
0.568357583896841
30
0
41
1
10
20.1969407210896
20
0.426005979692576
30
0
41
1
10
20.3340522258221
20
0.377665537404766
30
0
41
1
10
20.6090664902367
20
0.281352725797376
30
0
41
1
10
20.7468635723961
20
0.233091982016049
30
0
41
1
10
21.0227399253412
20
0.13548540000707
30
0
41
1
10
21.1608730159368
20
0.0862993353283343
30
0
41
1
10
21.4374418696072
20
-0.0131839831563525
30
0
41
1
10
21.5757546497217
20
-0.0638969114362737
30
0
41
1
10
21.9924213972876
20
-0.213698194768199
30
0
41
1
10
22.2704217562121
20
-0.310891143924437
30
0
41
1
10
22.6861665666179
20
-0.455052041566205
30
0
41
1
10
22.8244438897638
20
-0.503187695812215
30
0
41
1
10
23.101146889925
20
-0.597537149216095
30
0
41
1
10
23.2397107982878
20
-0.64339660775579
30
0
41
1
10
23.6558821134295
20
-0.777541356585914
30
0
41
1
10
23.9342005479224
20
-0.863146598137348
30
0
41
1
10
24.4886734498966
20
-1.0268372786328
30
0
41
1
10
24.7660788519138
20
-1.10127884929449
30
0
41
1
10
25.1818830697324
20
-1.20361745820682
30
0
41
1
10
25.320463113046
20
-1.23610456280457
30
0
41
1
10
25.5973253583741
20
-1.29816980816167
30
0
41
1
10
25.7356398871265
20
-1.32764919424645
30
0
41
1
10
26.1518077334457
20
-1.40891907781935
30
0
41
1
10
26.4304881985713
20
-1.45476843264728
30
0
41
1
10
26.846394754725
20
-1.5115959715375
30
0
41
1
10
26.984629129715
20
-1.52865678490005
30
0
41
1
10
27.2614572077205
20
-1.55786961465697
30
0
41
1
10
27.4000462284074
20
-1.57008533578809
30
0
41
1
10
27.8159677763223
20
-1.60007333850322
30
0
41
1
10
28.0932142100011
20
-1.61130358359972
30
0
41
1
10
28.3923054879223
20
-1.6132655120729
30
0
41
1
10
28.413954883145
20
-1.61335064601934
30
0
41
1
10
28.4356069663336
20
-1.61337908912216
30
0
0
SPLINE
5
EC
100
AcDbEntity
8
1
62
256
6
ByLayer
370
18
48
1
60
0
100
AcDbSpline
70
4
71
3
72
74
73
70
40
0
40
0
40
0
40
0
40
0.0007589064468408
40
0.0007589064468408
40
0.0244746876538517
40
0.0244746876538517
40
0.0481904688608622
40
0.0481904688608622
40
0.0719062500678728
40
0.0719062500678728
40
0.0956220312748833
40
0.0956220312748833
40
0.143053593688904
40
0.143053593688904
40
0.166769374895915
40
0.166769374895915
40
0.190485156102925
40
0.190485156102925
40
0.237916718516945
40
0.237916718516945
40
0.285348280930963
40
0.285348280930963
40
0.309064062137974
40
0.309064062137974
40
0.332779843344985
40
0.332779843344985
40
0.380211405759008
40
0.380211405759008
40
0.40392718696602
40
0.40392718696602
40
0.427642968173031
40
0.427642968173031
40
0.451358749380043
40
0.451358749380043
40
0.475074530587055
40
0.475074530587055
40
0.522506093001078
40
0.522506093001078
40
0.54622187420809
40
0.54622187420809
40
0.569937655415101
40
0.569937655415101
40
0.617369217829122
40
0.617369217829122
40
0.641084999036134
40
0.641084999036134
40
0.664800780243145
40
0.664800780243145
40
0.688516561450157
40
0.688516561450157
40
0.712232342657169
40
0.712232342657169
40
0.759663905071192
40
0.759663905071192
40
0.807095467485215
40
0.807095467485215
40
0.854527029899238
40
0.854527029899238
40
0.878242811106251
40
0.878242811106251
40
0.901958592313264
40
0.901958592313264
40
0.925674373520276
40
0.925674373520276
40
0.949390154727289
40
0.949390154727289
40
0.996821717141315
40
0.996821717141315
40
1
40
1
40
1
40
1
41
1
10
39.1395085700963
20
1.1773106704627
30
0
41
1
10
39.1439382896501
20
1.17842460838133
30
0
41
1
10
39.1483679134211
20
1.17953723485704
30
0
41
1
10
39.2912198678112
20
1.21537715948375
30
0
41
1
10
39.4297799874275
20
1.24834039300131
30
0
41
1
10
39.7076930979447
20
1.30988593634348
30
0
41
1
10
39.8465725215359
20
1.33859457215911
30
0
41
1
10
40.1234598296904
20
1.3922912255664
30
0
41
1
10
40.261607071605
20
1.41718987289107
30
0
41
1
10
40.5371235797831
20
1.46327206999825
30
0
41
1
10
40.6744301166351
20
1.48448111606956
30
0
41
1
10
41.0866666154354
20
1.54064019906139
30
0
41
1
10
41.3614238972756
20
1.5690293261984
30
0
41
1
10
41.7726402033714
20
1.59894372018789
30
0
41
1
10
41.9094110886915
20
1.60681124446907
30
0
41
1
10
42.183254682879
20
1.61781818648154
30
0
41
1
10
42.3204030022055
20
1.62097973727543
30
0
41
1
10
42.7323116782226
20
1.6237589443644
30
0
41
1
10
43.0073369206812
20
1.616762410847
30
0
41
1
10
43.5577947740416
20
1.58361527911484
30
0
41
1
10
43.8348464364104
20
1.55821276157309
30
0
41
1
10
44.2517244949801
20
1.50680940377194
30
0
41
1
10
44.3904970455501
20
1.48753204353179
30
0
41
1
10
44.6673859613193
20
1.44425578347179
30
0
41
1
10
44.8055698191237
20
1.42029226607318
30
0
41
1
10
45.2208404672053
20
1.34356175368865
30
0
41
1
10
45.4980248310419
20
1.28533571503149
30
0
41
1
10
45.913487397251
20
1.18594797531526
30
0
41
1
10
46.0517715294399
20
1.15045460312169
30
0
41
1
10
46.3291235076277
20
1.07701465439379
30
0
41
1
10
46.4681780820179
20
1.03907036268564
30
0
41
1
10
46.7457964281816
20
0.960556598264134
30
0
41
1
10
46.8844450753738
20
0.919863719516144
30
0
41
1
10
47.1614752079975
20
0.835705944209707
30
0
41
1
10
47.2997099743679
20
0.791885273299272
30
0
41
1
10
47.7143705947825
20
0.657009822986993
30
0
41
1
10
47.9916737247793
20
0.564950360633219
30
0
41
1
10
48.4078994255254
20
0.421218561190585
30
0
41
1
10
48.5468570072265
20
0.372437064834884
30
0
41
1
10
48.8239614473114
20
0.272745895541675
30
0
41
1
10
48.9623898437846
20
0.222581834277861
30
0
41
1
10
49.3780767760222
20
0.0732858393334936
30
0
41
1
10
49.6552257624374
20
-0.0260770010285967
30
0
41
1
10
50.0702195081661
20
-0.176998757112074
30
0
41
1
10
50.2083673018915
20
-0.227789888570669
30
0
41
1
10
50.4854736886344
20
-0.327067232033812
30
0
41
1
10
50.6243795253967
20
-0.375824177123121
30
0
41
1
10
50.9022953801144
20
-0.472479222026664
30
0
41
1
10
51.0410522269345
20
-0.520223741436013
30
0
41
1
10
51.3181603999399
20
-0.614523445956678
30
0
41
1
10
51.4563116948975
20
-0.661583467006011
30
0
41
1
10
51.8711300676447
20
-0.798387094956638
30
0
41
1
10
52.1483014407184
20
-0.883575408668662
30
0
41
1
10
52.7025524917446
20
-1.04536617276165
30
0
41
1
10
52.9797376800438
20
-1.12263649571636
30
0
41
1
10
53.5345522616443
20
-1.25948572735649
30
0
41
1
10
53.8117126322906
20
-1.32069396749895
30
0
41
1
10
54.2263006214564
20
-1.40254615355383
30
0
41
1
10
54.3644339216704
20
-1.42791636634863
30
0
41
1
10
54.6413895444471
20
-1.47382085966214
30
0
41
1
10
54.7800973669267
20
-1.49454221962603
30
0
41
1
10
55.057652977278
20
-1.53192857872631
30
0
41
1
10
55.1966769676107
20
-1.54853379971871
30
0
41
1
10
55.4737153089097
20
-1.57740566532556
30
0
41
1
10
55.6117075716564
20
-1.58974450987023
30
0
41
1
10
56.0258623652502
20
-1.61927416757541
30
0
41
1
10
56.3018572233531
20
-1.62956317837742
30
0
41
1
10
56.5956083647914
20
-1.63095020201132
30
0
41
1
10
56.6140504518084
20
-1.6309957272066
30
0
41
1
10
56.6324880110419
20
-1.63099958024594
30
0
0
SPLINE
5
ED
100
AcDbEntity
8
1
62
256
6
ByLayer
370
18
48
1
60
0
100
AcDbSpline
70
4
71
3
72
8
73
4
40
0
40
0
40
0
40
0
40
1
40
1
40
1
40
1
41
1
10
58.1818372921588
20
-1.42926547656771
30
0
41
1
10
58.1526805727804
20
-1.49680610841375
30
0
41
1
10
58.12325623072
20
-1.56406418711472
30
0
41
1
10
58.0935508728782
20
-1.6310318165319
30
0
0
SPLINE
5
EE
100
AcDbEntity
8
1
62
256
6
ByLayer
370
18
48
1
60
0
100
AcDbSpline
70
4
71
3
72
10
73
6
40
0
40
0
40
0
40
0
40
0.5
40
0.5
40
1
40
1
40
1
40
1
41
1
10
58.1870843047433
20
-1.38183457844409
30
0
41
1
10
58.1908979442827
20
-1.38160806033082
30
0
41
1
10
58.1931717408251
20
-1.38547767905814
30
0
41
1
10
58.1914781205917
20
-1.40309148380024
30
0
41
1
10
58.1872605369191
20
-1.41670269908204
30
0
41
1
10
58.1818372921588
20
-1.42926547656771
30
0
0
SPLINE
5
EF
100
AcDbEntity
8
1
62
256
6
ByLayer
370
18
48
1
60
0
100
AcDbSpline
70
4
71
3
72
58
73
54
40
0
40
0
40
0
40
0
40
0.0054905167607975
40
0.0054905167607975
40
0.0512445424959545
40
0.0512445424959545
40
0.0969985682311114
40
0.0969985682311114
40
0.119875581098691
40
0.119875581098691
40
0.14275259396627
40
0.14275259396627
40
0.188506619701429
40
0.188506619701429
40
0.234260645436589
40
0.234260645436589
40
0.280014671171748
40
0.280014671171748
40
0.325768696906907
40
0.325768696906907
40
0.371522722642065
40
0.371522722642065
40
0.417276748377224
40
0.417276748377224
40
0.463030774112383
40
0.463030774112383
40
0.485907786979963
40
0.485907786979963
40
0.508784799847542
40
0.508784799847542
40
0.554538825582699
40
0.554538825582699
40
0.600292851317856
40
0.600292851317856
40
0.646046877053013
40
0.646046877053013
40
0.69180090278817
40
0.69180090278817
40
0.737554928523327
40
0.737554928523327
40
0.783308954258484
40
0.783308954258484
40
0.829062979993641
40
0.829062979993641
40
0.874817005728798
40
0.874817005728798
40
0.897694018596375
40
0.897694018596375
40
0.920571031463952
40
0.920571031463952
40
0.966325057199105
40
0.966325057199105
40
1
40
1
40
1
40
1
41
1
10
53.242066714559
20
-1.18695790064564
30
0
41
1
10
53.2102159490999
20
-1.19483354906961
30
0
41
1
10
53.1783657945833
20
-1.20262411692195
30
0
41
1
10
52.8811069989887
20
-1.27454771474547
30
0
41
1
10
52.6160085053392
20
-1.33321012458197
30
0
41
1
10
52.0836968316763
20
-1.43455445471599
30
0
41
1
10
51.8167284315651
20
-1.47780145208969
30
0
41
1
10
51.4151781983973
20
-1.5313870498583
30
0
41
1
10
51.2811724158319
20
-1.54736641197977
30
0
41
1
10
51.0122222326585
20
-1.57485328782985
30
0
41
1
10
50.8780047423374
20
-1.58638604042119
30
0
41
1
10
50.4761297571741
20
-1.61457433524035
30
0
41
1
10
50.209391246429
20
-1.62489310337924
30
0
41
1
10
49.6776279388209
20
-1.62818280559711
30
0
41
1
10
49.4119245319733
20
-1.62119590014703
30
0
41
1
10
48.8810765073923
20
-1.59055876951689
30
0
41
1
10
48.6162757657802
20
-1.56651477926465
30
0
41
1
10
48.0853053155772
20
-1.50265036466558
30
0
41
1
10
47.8192270702648
20
-1.46298408406807
30
0
41
1
10
47.2861374682494
20
-1.36762483385704
30
0
41
1
10
47.0190568021658
20
-1.31180514792473
30
0
41
1
10
46.4816133819384
20
-1.18762794851938
30
0
41
1
10
46.2126300791157
20
-1.11905725368229
30
0
41
1
10
45.6787855428023
20
-0.969473126753599
30
0
41
1
10
45.4124157987321
20
-0.890290627825465
30
0
41
1
10
45.0135756636317
20
-0.765443728671869
30
0
41
1
10
44.8807712667054
20
-0.722752985081314
30
0
41
1
10
44.6154524693274
20
-0.635184936434371
30
0
41
1
10
44.4829861261873
20
-0.590171280157762
30
0
41
1
10
44.0851370977392
20
-0.454206078804958
30
0
41
1
10
43.8195662446296
20
-0.361681672506592
30
0
41
1
10
43.2880233863121
20
-0.172117786765142
30
0
41
1
10
43.0221752711121
20
-0.074636139754972
30
0
41
1
10
42.4877350872653
20
0.118063589921377
30
0
41
1
10
42.2188919390078
20
0.214348371406288
30
0
41
1
10
41.6816375811757
20
0.405912513618176
30
0
41
1
10
41.4142177600332
20
0.499275248699604
30
0
41
1
10
40.8805571062013
20
0.678035545505139
30
0
41
1
10
40.6147777368437
20
0.764723233214795
30
0
41
1
10
40.0839186811659
20
0.928868958253872
30
0
41
1
10
39.8184210469893
20
1.00537970169827
30
0
41
1
10
39.2875248425141
20
1.14806909676818
30
0
41
1
10
39.0224049602965
20
1.21469147000005
30
0
41
1
10
38.490116832966
20
1.33297246597158
30
0
41
1
10
38.2231624636723
20
1.38518674137887
30
0
41
1
10
37.8216502204606
20
1.45309074868675
30
0
41
1
10
37.6876736429342
20
1.47401612341298
30
0
41
1
10
37.4187956401457
20
1.51152538909577
30
0
41
1
10
37.2842405273527
20
1.52816314404919
30
0
41
1
10
36.8818643296081
20
1.57173761402592
30
0
41
1
10
36.6147765693476
20
1.59253238074669
30
0
41
1
10
36.1527842093879
20
1.61388750473787
30
0
41
1
10
35.957031340717
20
1.6182157102653
30
0
41
1
10
35.7614316011232
20
1.61796480598952
30
0
0
SPLINE
5
F0
100
AcDbEntity
8
1
62
256
6
ByLayer
370
18
48
1
60
0
100
AcDbSpline
70
4
71
3
72
58
73
54
40
0
40
0
40
0
40
0
40
0.0403373721517202
40
0.0403373721517202
40
0.0632563305371673
40
0.0632563305371673
40
0.0861752889226143
40
0.0861752889226143
40
0.132013205693507
40
0.132013205693507
40
0.177851122464399
40
0.177851122464399
40
0.223689039235291
40
0.223689039235291
40
0.269526956006183
40
0.269526956006183
40
0.315364872777076
40
0.315364872777076
40
0.361202789547969
40
0.361202789547969
40
0.407040706318862
40
0.407040706318862
40
0.429959664704309
40
0.429959664704309
40
0.452878623089756
40
0.452878623089756
40
0.498716539860648
40
0.498716539860648
40
0.544554456631541
40
0.544554456631541
40
0.590392373402433
40
0.590392373402433
40
0.613311331787878
40
0.613311331787878
40
0.636230290173324
40
0.636230290173324
40
0.682068206944215
40
0.682068206944215
40
0.727906123715107
40
0.727906123715107
40
0.773744040485998
40
0.773744040485998
40
0.819581957256889
40
0.819581957256889
40
0.842500915642334
40
0.842500915642334
40
0.86541987402778
40
0.86541987402778
40
0.911257790798671
40
0.911257790798671
40
0.957095707569562
40
0.957095707569562
40
1
40
1
40
1
40
1
41
1
10
25.0591633157523
20
-1.17496591258245
30
0
41
1
10
24.8248233952576
20
-1.23229413850521
30
0
41
1
10
24.5899163665143
20
-1.28469845905337
30
0
41
1
10
24.2207544650381
20
-1.35921582608847
30
0
41
1
10
24.0868851971314
20
-1.38469016948568
30
0
41
1
10
23.8182747727151
20
-1.43148443202017
30
0
41
1
10
23.6834273432993
20
-1.45292305654178
30
0
41
1
10
23.2802500593393
20
-1.51106360628808
30
0
41
1
10
23.0126674065625
20
-1.54184619466199
30
0
41
1
10
22.4796535186512
20
-1.58699780346319
30
0
41
1
10
22.2134340335203
20
-1.60084912679716
30
0
41
1
10
21.681749601823
20
-1.61195742499481
30
0
41
1
10
21.4166319476262
20
-1.60904245004875
30
0
41
1
10
20.8853884752339
20
-1.58631032698355
30
0
41
1
10
20.6192879174766
20
-1.56671992599499
30
0
41
1
10
20.0863907634565
20
-1.51079189126818
30
0
41
1
10
19.8195892960799
20
-1.47421860068059
30
0
41
1
10
19.2829682897731
20
-1.38639109990291
30
0
41
1
10
19.0128593311331
20
-1.33476318325685
30
0
41
1
10
18.477090832468
20
-1.21680465814177
30
0
41
1
10
18.2100006349589
20
-1.15174583522901
30
0
41
1
10
17.8101974499318
20
-1.04613287051157
30
0
41
1
10
17.6771004832253
20
-1.0095180595394
30
0
41
1
10
17.4112669618808
20
-0.93339782678953
30
0
41
1
10
17.278586219524
20
-0.893746797141318
30
0
41
1
10
16.8802494390377
20
-0.772452405898974
30
0
41
1
10
16.6144961414564
20
-0.688068985051444
30
0
41
1
10
16.0828628318632
20
-0.511653774973752
30
0
41
1
10
15.8171512787015
20
-0.419042643731387
30
0
41
1
10
15.2833269739107
20
-0.232395537703383
30
0
41
1
10
15.0155029147986
20
-0.137620420458916
30
0
41
1
10
14.6124560294587
20
0.0071605628603493
30
0
41
1
10
14.4777489196992
20
0.0559261154077149
30
0
41
1
10
14.2090213170297
20
0.15187252621422
30
0
41
1
10
14.0748906981304
20
0.199385077665028
30
0
41
1
10
13.6732012412971
20
0.340642556927463
30
0
41
1
10
13.4065710048325
20
0.433777551324852
30
0
41
1
10
12.8744663674482
20
0.614427580253761
30
0
41
1
10
12.6085123906031
20
0.700656330202264
30
0
41
1
10
12.0770166457204
20
0.865752648280733
30
0
41
1
10
11.8117711639064
20
0.945250173389439
30
0
41
1
10
11.2796374750751
20
1.09166860011442
30
0
41
1
10
11.0129308704498
20
1.15913333449666
30
0
41
1
10
10.6120654208797
20
1.25189016886705
30
0
41
1
10
10.478358522969
20
1.28147540675278
30
0
41
1
10
10.2101349045739
20
1.33671637277513
30
0
41
1
10
10.0756162943119
20
1.36248603945103
30
0
41
1
10
9.67133738529546
20
1.43426206706991
30
0
41
1
10
9.40311753921662
20
1.47448199047409
30
0
41
1
10
8.8690705209512
20
1.53921332566296
30
0
41
1
10
8.60245616914656
20
1.56294154234109
30
0
41
1
10
8.08723947315707
20
1.59308671117193
30
0
41
1
10
7.83887913320629
20
1.60045852472902
30
0
41
1
10
7.59025786578576
20
1.60034850111089
30
0
0
LINE
5
76
100
AcDbEntity
8
81
62
256
6
ByLayer
370
18
48
1
60
0
100
AcDbLine
10
58.74
20
0
30
0
11
63.74
21
0
31
0
39
0
210
0
220
0
230
1
0
LINE
5
77
100
AcDbEntity
8
1
62
256
6
ByLayer
370
18
48
1
60
0
100
AcDbLine
10
2.542551
20
1.597195
30
0
11
0.1
21
1.595669
31
0
39
0
210
0
220
0
230
1
0
LINE
5
79
100
AcDbEntity
8
1
62
256
6
ByLayer
370
18
48
1
60
0
100
AcDbLine
10
7.588673
20
1.600349
30
0
11
6.218437
21
1.599493
31
0
39
0
210
0
220
0
230
1
0
LINE
5
7A
100
AcDbEntity
8
1
62
256
6
ByLayer
370
18
48
1
60
0
100
AcDbLine
10
15.692097
20
1.605414
30
0
11
14.351797
21
1.604576
31
0
39
0
210
0
220
0
230
1
0
LINE
5
7B
100
AcDbEntity
8
1
62
256
6
ByLayer
370
18
48
1
60
0
100
AcDbLine
10
29.776507
20
1.614217
30
0
11
28.443047
21
1.613383
31
0
39
0
210
0
220
0
230
1
0
LINE
5
7C
100
AcDbEntity
8
1
62
256
6
ByLayer
370
18
48
1
60
0
100
AcDbLine
10
35.768037
20
1.617961
30
0
11
34.431071
21
1.617126
31
0
39
0
210
0
220
0
230
1
0
LINE
5
7D
100
AcDbEntity
8
1
62
256
6
ByLayer
370
18
48
1
60
0
100
AcDbLine
10
43.861453
20
1.62302
30
0
11
42.537236
21
1.622192
31
0
39
0
210
0
220
0
230
1
0
LINE
5
7E
100
AcDbEntity
8
1
62
256
6
ByLayer
370
18
48
1
60
0
100
AcDbLine
10
57.946732
20
1.631823
30
0
11
56.62813
21
1.630999
31
0
39
0
210
0
220
0
230
1
0
LINE
5
7F
100
AcDbEntity
8
1
62
256
6
ByLayer
370
18
48
1
60
0
100
AcDbLine
10
56.62813
20
-1.630999
30
0
11
57.946798
21
-1.631823
31
0
39
0
210
0
220
0
230
1
0
LINE
5
80
100
AcDbEntity
8
1
62
256
6
ByLayer
370
18
48
1
60
0
100
AcDbLine
10
42.537236
20
-1.622192
30
0
11
43.861275
21
-1.62302
31
0
39
0
210
0
220
0
230
1
0
LINE
5
81
100
AcDbEntity
8
1
62
256
6
ByLayer
370
18
48
1
60
0
100
AcDbLine
10
34.431071
20
-1.617126
30
0
11
35.768037
21
-1.617961
31
0
39
0
210
0
220
0
230
1
0
LINE
5
82
100
AcDbEntity
8
1
62
256
6
ByLayer
370
18
48
1
60
0
100
AcDbLine
10
28.443047
20
-1.613383
30
0
11
29.776833
21
-1.614217
31
0
39
0
210
0
220
0
230
1
0
LINE
5
83
100
AcDbEntity
8
1
62
256
6
ByLayer
370
18
48
1
60
0
100
AcDbLine
10
14.351797
20
-1.604576
30
0
11
15.691888
21
-1.605414
31
0
39
0
210
0
220
0
230
1
0
LINE
5
84
100
AcDbEntity
8
1
62
256
6
ByLayer
370
18
48
1
60
0
100
AcDbLine
10
6.218437
20
-1.599493
30
0
11
7.588673
21
-1.600349
31
0
39
0
210
0
220
0
230
1
0
LINE
5
85
100
AcDbEntity
8
1
62
256
6
ByLayer
370
18
48
1
60
0
100
AcDbLine
10
0.1
20
-1.595669
30
0
11
2.542551
21
-1.597195
31
0
39
0
210
0
220
0
230
1
0
LINE
5
86
100
AcDbEntity
8
1
62
256
6
ByLayer
370
18
48
1
60
0
100
AcDbLine
10
0
20
-1.632
30
0
11
0.1
21
-1.595669
31
0
39
0
210
0
220
0
230
1
0
LINE
5
87
100
AcDbEntity
8
1
62
256
6
ByLayer
370
18
48
1
60
0
100
AcDbLine
10
0.1
20
1.595669
30
0
11
0
21
1.632
31
0
39
0
210
0
220
0
230
1
0
LINE
5
88
100
AcDbEntity
8
1
62
256
6
ByLayer
370
18
48
1
60
0
100
AcDbLine
10
21.677165
20
1.609154
30
0
11
20.324216
21
1.608309
31
0
39
0
210
0
220
0
230
1
0
LINE
5
89
100
AcDbEntity
8
1
62
256
6
ByLayer
370
18
48
1
60
0
100
AcDbLine
10
20.324216
20
-1.608309
30
0
11
21.677165
21
-1.609154
31
0
39
0
210
0
220
0
230
1
0
LINE
5
8A
100
AcDbEntity
8
1
62
256
6
ByLayer
370
18
48
1
60
0
100
AcDbLine
10
49.859417
20
1.626768
30
0
11
48.535603
21
1.625941
31
0
39
0
210
0
220
0
230
1
0
LINE
5
8B
100
AcDbEntity
8
1
62
256
6
ByLayer
370
18
48
1
60
0
100
AcDbLine
10
48.535603
20
-1.625941
30
0
11
49.859417
21
-1.626768
31
0
39
0
210
0
220
0
230
1
0
LINE
5
8C
100
AcDbEntity
8
SK1
62
256
6
ByLayer
370
18
48
1
60
0
100
AcDbLine
10
-42.100225
20
1.632
30
0
11
-42.86
21
0.872225
31
0
39
0
210
0
220
0
230
1
0
LINE
5
8E
100
AcDbEntity
8
SK1
62
256
6
ByLayer
370
18
48
1
60
0
100
AcDbLine
10
-42.86
20
-0.872225
30
0
11
-42.100225
21
-1.632
31
0
39
0
210
0
220
0
230
1
0
LINE
5
8F
100
AcDbEntity
8
SK1
62
256
6
ByLayer
370
18
48
1
60
0
100
AcDbLine
10
0
20
1.632
30
0
11
-42.100225
21
1.632
31
0
39
0
210
0
220
0
230
1
0
LINE
5
90
100
AcDbEntity
8
SK1
62
256
6
ByLayer
370
18
48
1
60
0
100
AcDbLine
10
-42.100225
20
-1.632
30
0
11
0
21
-1.632
31
0
39
0
210
0
220
0
230
1
0
LINE
5
91
100
AcDbEntity
8
SK4
62
256
6
ByLayer
370
18
48
0.05
60
0
100
AcDbLine
10
63.74
20
0
30
0
11
-47.86
21
0
31
0
39
0
210
0
220
0
230
1
0
LINE
5
93
100
AcDbEntity
8
4
62
256
6
ByLayer
370
18
48
0.05
60
0
100
AcDbLine
10
58.74
20
0
30
0
11
0
21
0
31
0
39
0
210
0
220
0
230
1
0
LINE
5
95
100
AcDbEntity
8
80
62
256
6
ByLayer
370
18
48
1
60
0
100
AcDbLine
10
0
20
0
30
0
11
-5
21
0
31
0
39
0
210
0
220
0
230
1
0
LINE
5
96
100
AcDbEntity
8
1
62
256
6
ByLayer
370
13
48
1
60
0
100
AcDbLine
10
57.933044
20
0.572004
30
0
11
58.736946
21
0.056952
31
0
39
0
210
0
220
0
230
1
0
LINE
5
97
100
AcDbEntity
8
1
62
256
6
ByLayer
370
13
48
1
60
0
100
AcDbLine
10
57.868029
20
0.498768
30
0
11
58.706356
21
-0.03834
31
0
39
0
210
0
220
0
230
1
0
LINE
5
98
100
AcDbEntity
8
1
62
256
6
ByLayer
370
18
48
1
60
0
100
AcDbLine
10
0.1
20
1.595669
30
0
11
0.1
21
-1.595669
31
0
39
0
210
0
220
0
230
1
0
LINE
5
99
100
AcDbEntity
8
1
62
256
6
ByLayer
370
18
48
1
60
0
100
AcDbLine
10
0
20
-1.632
30
0
11
0
21
1.632
31
0
39
0
210
0
220
0
230
1
0
LINE
5
9A
100
AcDbEntity
8
SK1
62
256
6
ByLayer
370
18
48
1
60
0
100
AcDbLine
10
0
20
-1.632
30
0
11
0
21
1.632
31
0
39
0
210
0
220
0
230
1
0
LINE
5
9B
100
AcDbEntity
8
SK1
62
256
6
ByLayer
370
18
48
1
60
0
100
AcDbLine
10
-42.100225
20
1.632
30
0
11
-42.100225
21
-1.632
31
0
39
0
210
0
220
0
230
1
0
LINE
5
9C
100
AcDbEntity
8
SK1
62
256
6
ByLayer
370
18
48
1
60
0
100
AcDbLine
10
-42.86
20
0.872225
30
0
11
-42.86
21
-0.872225
31
0
39
0
210
0
220
0
230
1
0
MTEXT
5
F1
100
AcDbEntity
8
SK6
62
256
6
ByLayer
370
13
48
1
60
0
100
AcDbMText
10
10.069169
20
34.014694
30
0
210
0
220
0
230
1
1
\W0.7491;452.1-0326-044A0-CM H10F
40
3.5
41
0
44
1.084337
50
0
71
8
72
5
7
iso_b_vert
0
DIMENSION
5
FE
100
AcDbEntity
8
SK2
62
256
6
ByLayer
370
13
48
1
60
0
100
AcDbDimension
2
DimnDraft3D1
10
58.230009
20
-33.345398
30
0
11
28.110068
21
-33.345398
31
0
70
32
71
5
72
1
41
1
210
0
220
0
230
1
3
Standard
100
AcDbAlignedDimension
13
0
23
-1.5875
33
0
14
58.230009
24
-3.2195
34
0
50
0
100
AcDbRotatedDimension
1001
ACAD
1000
DSTYLE
1002
{
1070
   279
1070
     0
1070
   172
1070
     1
1070
   173
1070
     1
1070
   340
1005
F2
1070
   271
1070
     2
1070
   272
1070
     2
1070
    77
1070
     1
1070
    73
1070
     0
1070
   171
1070
     3
1070
   274
1070
     4
1070
   177
1070
    35
1070
   176
1070
    35
1070
   178
1070
    35
1070
    48
1040
-0.005
1070
    41
1041
3.5
1070
   147
1041
1.75
1070
    42
1041
1.5875
1070
    44
1041
2.0
1070
   140
1041
3.5
1070
   343
1005
0
1070
   344
1005
0
1002
}
0
DIMENSION
5
108
100
AcDbEntity
8
SK2
62
256
6
ByLayer
370
13
48
1
60
0
100
AcDbDimension
2
DimnDraft3D2
10
58.74
20
-50.324985
30
0
11
8.771309
21
-50.324985
31
0
70
32
71
5
72
1
41
1
210
0
220
0
230
1
3
Standard
100
AcDbAlignedDimension
13
-42.86
23
-3.2195
33
0
14
58.74
24
-1.5875
34
0
50
0
100
AcDbRotatedDimension
1001
ACAD
1000
DSTYLE
1002
{
1070
   279
1070
     0
1070
   172
1070
     1
1070
   173
1070
     1
1070
   340
1005
F2
1070
   271
1070
     2
1070
   272
1070
     2
1070
    77
1070
     1
1070
    73
1070
     0
1070
   171
1070
     3
1070
   274
1070
     4
1070
   177
1070
    35
1070
   176
1070
    35
1070
   178
1070
    35
1070
    48
1040
-0.005
1070
    41
1041
3.5
1070
   147
1041
1.75
1070
    42
1041
1.5875
1070
    44
1041
2.0
1070
   140
1041
3.5
1070
   343
1005
0
1070
   344
1005
0
1002
}
0
DIMENSION
5
112
100
AcDbEntity
8
SK2
62
256
6
ByLayer
370
13
48
1
60
0
100
AcDbDimension
2
DimnDraft3D3
10
58.74
20
-23.022881
30
0
11
34.94
21
-23.022881
31
0
70
32
71
5
72
1
41
1
210
0
220
0
230
1
3
Standard
100
AcDbAlignedDimension
13
11.14
23
-3.2195
33
0
14
58.74
24
-1.5875
34
0
50
0
100
AcDbRotatedDimension
1001
ACAD
1000
DSTYLE
1002
{
1070
   279
1070
     0
1070
   172
1070
     1
1070
   173
1070
     1
1070
   340
1005
F2
1070
   271
1070
     2
1070
   272
1070
     2
1070
    77
1070
     1
1070
    73
1070
     0
1070
   171
1070
     3
1070
   274
1070
     4
1070
   177
1070
    35
1070
   176
1070
    35
1070
   178
1070
    35
1070
    48
1040
-0.005
1070
    41
1041
3.5
1070
   147
1041
1.75
1070
    42
1041
1.5875
1070
    44
1041
2.0
1070
   140
1041
3.5
1070
   343
1005
0
1070
   344
1005
0
1002
}
0
DIMENSION
5
11C
100
AcDbEntity
8
SK2
62
256
6
ByLayer
370
13
48
1
60
0
100
AcDbDimension
2
DimnDraft3D4
10
58.230009
20
-10.934503
30
0
11
68.721425
21
-10.934503
31
0
70
32
71
5
72
1
41
1
210
0
220
0
230
1
3
Standard
100
AcDbAlignedDimension
13
58.74
23
-1.5875
33
0
14
58.230009
24
-10.934503
34
0
50
0
100
AcDbRotatedDimension
1001
ACAD
1000
DSTYLE
1002
{
1070
   279
1070
     0
1070
   172
1070
     1
1070
   173
1070
     1
1070
   340
1005
F2
1070
   271
1070
     2
1070
   272
1070
     2
1070
    73
1070
     0
1070
   171
1070
     3
1070
   274
1070
     4
1070
   177
1070
    35
1070
   176
1070
    35
1070
   178
1070
    35
1070
    48
1040
-0.005
1070
    41
1041
3.5
1070
   147
1041
1.75
1070
    42
1041
1.5875
1070
    44
1041
2.0
1070
   140
1041
3.5
1070
   343
1005
0
1070
   344
1005
0
1002
}
0
DIMENSION
5
126
100
AcDbEntity
8
SK2
62
256
6
ByLayer
370
13
48
1
60
0
100
AcDbDimension
2
DimnDraft3D5
10
58.230009
20
-41.975428
30
0
11
5.690685
21
-41.975428
31
0
70
32
71
5
72
1
41
1
210
0
220
0
230
1
3
Standard
100
AcDbAlignedDimension
13
-42.86
23
-3.2195
33
0
14
58.230009
24
-3.2195
34
0
50
0
100
AcDbRotatedDimension
1001
ACAD
1000
DSTYLE
1002
{
1070
   279
1070
     0
1070
   172
1070
     1
1070
   173
1070
     1
1070
   340
1005
F2
1070
   271
1070
     2
1070
   272
1070
     2
1070
    77
1070
     1
1070
    73
1070
     0
1070
   171
1070
     3
1070
   274
1070
     4
1070
   177
1070
    35
1070
   176
1070
    35
1070
   178
1070
    35
1070
    48
1040
-0.005
1070
    41
1041
3.5
1070
   147
1041
1.75
1070
    42
1041
1.5875
1070
    44
1041
2.0
1070
   140
1041
3.5
1070
   343
1005
0
1070
   344
1005
0
1002
}
0
DIMENSION
5
131
100
AcDbEntity
8
SK2
62
256
6
ByLayer
370
13
48
1
60
0
100
AcDbDimension
2
DimnDraft3D6
10
-55.235163
20
1.632
30
0
11
-51.485163
21
20.10618
31
0
70
33
71
5
72
1
41
1
210
0
220
0
230
1
3
Standard
100
AcDbAlignedDimension
13
-44.4475
23
-1.632
33
0
14
-44.4475
24
1.632
34
0
1001
ACAD
1000
DSTYLE
1002
{
1070
   279
1070
     0
1070
    74
1070
     0
1070
   173
1070
     1
1070
   340
1005
F2
1070
   271
1070
     3
1070
   272
1070
     2
1070
    73
1070
     0
1070
   171
1070
     3
1070
   274
1070
     4
1070
   177
1070
    35
1070
   176
1070
    35
1070
   178
1070
    35
1070
    48
1040
-0.005
1070
    41
1041
3.5
1070
   147
1041
1.75
1070
    42
1041
1.5875
1070
    44
1041
2.0
1070
   140
1041
3.5
1070
   343
1005
0
1070
   344
1005
0
1002
}
0
DIMENSION
5
13C
100
AcDbEntity
8
2
62
256
6
ByLayer
370
13
48
1
60
0
100
AcDbDimension
2
DimnDraft3D7
10
71.073343
20
1.632
30
0
11
70.823343
21
18.699266
31
0
70
33
71
5
72
1
41
1
210
0
220
0
230
1
3
Standard
100
AcDbAlignedDimension
13
59.817509
23
-1.632
33
0
14
59.817509
24
1.632
34
0
1001
ACAD
1000
DSTYLE
1002
{
1070
   279
1070
     0
1070
    74
1070
     0
1070
   173
1070
     1
1070
   340
1005
F2
1070
   271
1070
     3
1070
   272
1070
     2
1070
    73
1070
     0
1070
   171
1070
     3
1070
   274
1070
     4
1070
   177
1070
    35
1070
   176
1070
    35
1070
   178
1070
    35
1070
    48
1040
-0.005
1070
    41
1041
3.5
1070
   147
1041
1.75
1070
    42
1041
1.5875
1070
    44
1041
2.0
1070
   140
1041
3.5
1070
   343
1005
0
1070
   344
1005
0
1002
}
0
ENDSEC
0
SECTION
2
OBJECTS
0
DICTIONARY
5
1a7
330
0
100
AcDbDictionary
280
0
281
1
3
ACAD_GROUP
350
1a8
3
ACAD_MLINESTYLE
350
1a9
0
DICTIONARY
5
1a8
330
0
100
AcDbDictionary
280
0
281
1
0
DICTIONARY
5
1a9
330
0
100
AcDbDictionary
280
0
281
1
3
Standard
350
18
0
MLINESTYLE
5
18
330
1a9
100
AcDbMlineStyle
2
Standard
70
0
3

62
256
51
90
52
90
71
2
49
-0.5
62
256
6
ByLayer
49
0.5
62
256
6
ByLayer
0
RASTERVARIABLES
5
195
330

100
AcDbRasterVariables
90
0
70
1
71
1
72
1
0
ENDSEC
0
EOF
