0
SECTION
2
HEADER
9
$ACADVER
1
AC1015
9
$DWGCODEPAGE
3
ANSI_1252
9
$HANDSEED
5
3f9
9
$ANGBASE
50
0
9
$ANGDIR
70
0
9
$ATTMODE
70
1
9
$AUNITS
70
0
9
$AUPREC
70
0
9
$CECOLOR
62
256
9
$CELTSCALE
40
1
9
$CELTYPE
6
ByLayer
9
$CELWEIGHT
370
18
9
$CLAYER
8
0
9
$CMLJUST
70
0
9
$CMLSCALE
40
1
9
$CMLSTYLE
2
Standard
9
$DIMSTYLE
2
Standard
9
$TEXTSIZE
40
0.2
9
$TEXTSTYLE
7
Standard
9
$LUNITS
70
2
9
$LUPREC
70
4
9
$EXTNAMES
290
1
9
$INSUNITS
70
4
9
$LTSCALE
40
1
9
$LWDISPLAY
290
1
9
$PDMODE
70
0
9
$PDSIZE
40
0
9
$PLINEGEN
70
0
0
ENDSEC
0
SECTION
2
CLASSES
0
CLASS
1
RASTERVARIABLES
2
AcDbRasterVariables
3
ISM
90
0
280
0
281
0
0
ENDSEC
0
SECTION
2
TABLES
0
TABLE
2
VPORT
5
3ef
100
AcDbSymbolTable
0
VPORT
5
1
100
AcDbSymbolTableRecord
100
AcDbViewportTableRecord
2
*Active
70
0
10
0
20
0
11
1
21
1
12
-1
22
1
13
0
23
0
14
0.5
24
0.5
15
10
25
10
16
0
26
0
36
1
17
0
27
0
37
0
0
ENDTAB
0
TABLE
2
LTYPE
5
3f0
100
AcDbSymbolTable
0
LTYPE
5
14
100
AcDbSymbolTableRecord
100
AcDbLinetypeTableRecord
70
0
2
ByBlock
3

72
65
73
0
40
0
0
LTYPE
5
15
100
AcDbSymbolTableRecord
100
AcDbLinetypeTableRecord
70
0
2
ByLayer
3

72
65
73
0
40
0
0
LTYPE
5
16
100
AcDbSymbolTableRecord
100
AcDbLinetypeTableRecord
70
0
2
CONTINUOUS
3
Solid line
72
65
73
0
40
0
0
LTYPE
5
6A
100
AcDbSymbolTableRecord
100
AcDbLinetypeTableRecord
70
0
2
CENTER
3
____ _ ____ _ ____ _ ____
72
65
73
4
40
47.5
49
22
74
0
49
-8.5
74
0
49
8.5
74
0
49
-8.5
74
0
0
LTYPE
5
6B
100
AcDbSymbolTableRecord
100
AcDbLinetypeTableRecord
70
0
2
DASHED
3
__ __ __ __ __ __ __ __ __
72
65
73
2
40
25.72
49
12.86
74
0
49
-12.86
74
0
0
ENDTAB
0
TABLE
2
LAYER
5
3f1
100
AcDbSymbolTable
0
LAYER
5
10
100
AcDbSymbolTableRecord
100
AcDbLayerTableRecord
2
0
70
0
62
7
6
CONTINUOUS
290
1
370
-3
390
0
0
LAYER
5
6D
100
AcDbSymbolTableRecord
100
AcDbLayerTableRecord
2
81
70
0
62
-3
6
CONTINUOUS
290
1
370
-3
390
0
0
LAYER
5
6F
100
AcDbSymbolTableRecord
100
AcDbLayerTableRecord
2
80
70
0
62
-6
6
CONTINUOUS
290
1
370
-3
390
0
0
LAYER
5
73
100
AcDbSymbolTableRecord
100
AcDbLayerTableRecord
2
1
70
0
62
4
6
CONTINUOUS
290
1
370
-3
390
0
0
LAYER
5
34F
100
AcDbSymbolTableRecord
100
AcDbLayerTableRecord
2
2
70
0
62
7
6
CONTINUOUS
290
1
370
-3
390
0
0
LAYER
5
3dc
100
AcDbSymbolTableRecord
100
AcDbLayerTableRecord
2
SK4
70
0
62
2
6
CENTER
290
1
370
-3
390
0
0
LAYER
5
3dd
100
AcDbSymbolTableRecord
100
AcDbLayerTableRecord
2
SK6
70
0
62
5
6
CONTINUOUS
290
1
370
-3
390
0
0
LAYER
5
3de
100
AcDbSymbolTableRecord
100
AcDbLayerTableRecord
2
SK2
70
0
62
7
6
CONTINUOUS
290
1
370
-3
390
0
0
ENDTAB
0
TABLE
2
STYLE
5
3f2
100
AcDbSymbolTable
0
STYLE
5
11
100
AcDbSymbolTableRecord
100
AcDbTextStyleTableRecord
2
Standard
3
txt
70
0
71
0
40
0
41
1
42
0
50
0
0
STYLE
5
34A
100
AcDbSymbolTableRecord
100
AcDbTextStyleTableRecord
2
iso_b_vert
3
simplex.shx
70
0
71
0
40
0
41
1
42
0
50
0
0
STYLE
5
34B
100
AcDbSymbolTableRecord
100
AcDbTextStyleTableRecord
2
DWGDirectTextStyle
3
simplex
70
0
71
0
40
0
41
1
42
0
50
0
0
ENDTAB
0
TABLE
2
DIMSTYLE
5
3f3
100
AcDbSymbolTable
100
AcDbDimStyleTable
0
DIMSTYLE
105
27
100
AcDbSymbolTableRecord
100
AcDbDimStyleTableRecord
2
Standard
70
0
3
<>
41
0.18
42
0.0625
44
0.18
140
0.18
147
0.09
73
0
74
0
77
1
271
2
275
0
278
52
280
0
340
11
0
ENDTAB
0
TABLE
2
VIEW
5
3f4
100
AcDbSymbolTable
0
ENDTAB
0
TABLE
2
UCS
5
3f5
100
AcDbSymbolTable
0
ENDTAB
0
TABLE
2
APPID
5
3f6
100
AcDbSymbolTable
0
APPID
5
12
100
AcDbSymbolTableRecord
100
AcDbRegAppTableRecord
2
ACAD
70
0
0
ENDTAB
0
TABLE
2
BLOCK_RECORD
5
3f7
100
AcDbSymbolTable
0
BLOCK_RECORD
5
1F
100
AcDbSymbolTableRecord
100
AcDbBlockTableRecord
2
*Model_Space
340
0
70
0
0
BLOCK_RECORD
5
1B
100
AcDbSymbolTableRecord
100
AcDbBlockTableRecord
2
*Paper_Space
340
0
70
0
0
BLOCK_RECORD
5
23
100
AcDbSymbolTableRecord
100
AcDbBlockTableRecord
2
*Paper_Space0
340
0
70
0
0
BLOCK_RECORD
5
34D
100
AcDbSymbolTableRecord
100
AcDbBlockTableRecord
2
DimnDraft3D1
340
0
70
0
0
BLOCK_RECORD
5
358
100
AcDbSymbolTableRecord
100
AcDbBlockTableRecord
2
DimnDraft3D2
340
0
70
0
0
BLOCK_RECORD
5
362
100
AcDbSymbolTableRecord
100
AcDbBlockTableRecord
2
DimnDraft3D3
340
0
70
0
0
BLOCK_RECORD
5
36D
100
AcDbSymbolTableRecord
100
AcDbBlockTableRecord
2
DimnDraft3D4
340
0
70
0
0
BLOCK_RECORD
5
378
100
AcDbSymbolTableRecord
100
AcDbBlockTableRecord
2
DimnDraft3D5
340
0
70
0
0
ENDTAB
0
ENDSEC
0
SECTION
2
BLOCKS
0
BLOCK
5
20
100
AcDbEntity
8
0
100
AcDbBlockBegin
2
*Model_Space
70
0
10
0
20
0
30
0
3
*Model_Space
0
ENDBLK
5
21
100
AcDbEntity
8
0
100
AcDbBlockEnd
0
BLOCK
5
1C
100
AcDbEntity
8
0
100
AcDbBlockBegin
2
*Paper_Space
70
0
10
0
20
0
30
0
3
*Paper_Space
0
ENDBLK
5
1D
100
AcDbEntity
8
0
100
AcDbBlockEnd
0
BLOCK
5
24
100
AcDbEntity
8
0
100
AcDbBlockBegin
2
*Paper_Space0
70
0
10
0
20
0
30
0
3
*Paper_Space0
0
ENDBLK
5
25
100
AcDbEntity
8
0
100
AcDbBlockEnd
0
BLOCK
5
355
100
AcDbEntity
8
0
100
AcDbBlockBegin
2
DimnDraft3D1
70
0
10
0
20
0
30
0
3
DimnDraft3D1
0
MTEXT
5
34E
100
AcDbEntity
8
2
62
256
6
ByLayer
370
18
48
1
60
0
100
AcDbMText
10
15.15
20
25.757041
30
0
210
0
220
0
230
1
1
\W0.6004;1.0
40
3.5
41
0
44
1.084337
50
0
71
7
72
5
7
iso_b_vert
0
LINE
5
350
100
AcDbEntity
8
2
62
256
6
ByLayer
370
13
48
1
60
0
100
AcDbLine
10
29
20
10
30
0
11
29
21
26.882041
31
0
39
0
210
0
220
0
230
1
0
LINE
5
351
100
AcDbEntity
8
2
62
256
6
ByLayer
370
13
48
1
60
0
100
AcDbLine
10
30
20
10
30
0
11
30
21
26.882041
31
0
39
0
210
0
220
0
230
1
0
LINE
5
352
100
AcDbEntity
8
2
62
256
6
ByLayer
370
13
48
1
60
0
100
AcDbLine
10
38.75
20
24.882041
30
0
11
14.275
21
24.882041
31
0
39
0
210
0
220
0
230
1
0
SOLID
5
353
100
AcDbEntity
8
2
62
256
6
ByLayer
370
13
48
1
60
0
100
AcDbTrace
10
29
20
24.882041
30
0
11
25.500003
21
23.944219
31
0
12
25.499997
22
25.819863
32
0
13
29
23
24.882041
33
0
39
0
210
0
220
0
230
1
0
SOLID
5
354
100
AcDbEntity
8
2
62
256
6
ByLayer
370
13
48
1
60
0
100
AcDbTrace
10
30
20
24.882041
30
0
11
33.499997
21
25.819863
31
0
12
33.500003
22
23.944219
32
0
13
30
23
24.882041
33
0
39
0
210
0
220
0
230
1
0
ENDBLK
5
356
100
AcDbEntity
8
0
100
AcDbBlockEnd
0
BLOCK
5
35F
100
AcDbEntity
8
0
100
AcDbBlockBegin
2
DimnDraft3D2
70
0
10
0
20
0
30
0
3
DimnDraft3D2
0
MTEXT
5
359
100
AcDbEntity
8
2
62
256
6
ByLayer
370
18
48
1
60
0
100
AcDbMText
10
11.767105
20
35.757041
30
0
210
0
220
0
230
1
1
\W0.7346;30.0
40
3.5
41
0
44
1.084337
50
0
71
7
72
5
7
iso_b_vert
0
LINE
5
35A
100
AcDbEntity
8
2
62
256
6
ByLayer
370
13
48
1
60
0
100
AcDbLine
10
30
20
10
30
0
11
30
21
36.882041
31
0
39
0
210
0
220
0
230
1
0
LINE
5
35B
100
AcDbEntity
8
2
62
256
6
ByLayer
370
13
48
1
60
0
100
AcDbLine
10
0
20
7.75
30
0
11
0
21
36.882041
31
0
39
0
210
0
220
0
230
1
0
LINE
5
35C
100
AcDbEntity
8
2
62
256
6
ByLayer
370
13
48
1
60
0
100
AcDbLine
10
30
20
34.882041
30
0
11
0
21
34.882041
31
0
39
0
210
0
220
0
230
1
0
SOLID
5
35D
100
AcDbEntity
8
2
62
256
6
ByLayer
370
13
48
1
60
0
100
AcDbTrace
10
30
20
34.882041
30
0
11
26.500003
21
33.944219
31
0
12
26.499997
22
35.819863
32
0
13
30
23
34.882041
33
0
39
0
210
0
220
0
230
1
0
SOLID
5
35E
100
AcDbEntity
8
2
62
256
6
ByLayer
370
13
48
1
60
0
100
AcDbTrace
10
0
20
34.882041
30
0
11
3.499997
21
35.819863
31
0
12
3.500003
22
33.944219
32
0
13
0
23
34.882041
33
0
39
0
210
0
220
0
230
1
0
ENDBLK
5
360
100
AcDbEntity
8
0
100
AcDbBlockEnd
0
BLOCK
5
36A
100
AcDbEntity
8
0
100
AcDbBlockBegin
2
DimnDraft3D3
70
0
10
0
20
0
30
0
3
DimnDraft3D3
0
MTEXT
5
363
100
AcDbEntity
8
SK2
62
256
6
ByLayer
370
18
48
1
60
0
100
AcDbMText
10
3.082895
20
45.757041
30
0
210
0
220
0
230
1
1
\W0.7640;47.0
40
3.5
41
0
44
1.084337
50
0
71
7
72
5
7
iso_b_vert
0
LINE
5
365
100
AcDbEntity
8
SK2
62
256
6
ByLayer
370
13
48
1
60
0
100
AcDbLine
10
30
20
10
30
0
11
30
21
46.882041
31
0
39
0
210
0
220
0
230
1
0
LINE
5
366
100
AcDbEntity
8
SK2
62
256
6
ByLayer
370
13
48
1
60
0
100
AcDbLine
10
-17
20
0
30
0
11
-17
21
46.882041
31
0
39
0
210
0
220
0
230
1
0
LINE
5
367
100
AcDbEntity
8
SK2
62
256
6
ByLayer
370
13
48
1
60
0
100
AcDbLine
10
30
20
44.882041
30
0
11
-17
21
44.882041
31
0
39
0
210
0
220
0
230
1
0
SOLID
5
368
100
AcDbEntity
8
SK2
62
256
6
ByLayer
370
13
48
1
60
0
100
AcDbTrace
10
30
20
44.882041
30
0
11
26.500003
21
43.944219
31
0
12
26.499997
22
45.819863
32
0
13
30
23
44.882041
33
0
39
0
210
0
220
0
230
1
0
SOLID
5
369
100
AcDbEntity
8
SK2
62
256
6
ByLayer
370
13
48
1
60
0
100
AcDbTrace
10
-17
20
44.882041
30
0
11
-13.500003
21
45.819863
31
0
12
-13.499997
22
43.944219
32
0
13
-17
23
44.882041
33
0
39
0
210
0
220
0
230
1
0
ENDBLK
5
36B
100
AcDbEntity
8
0
100
AcDbBlockEnd
0
BLOCK
5
375
100
AcDbEntity
8
0
100
AcDbBlockBegin
2
DimnDraft3D4
70
0
10
0
20
0
30
0
3
DimnDraft3D4
0
MTEXT
5
36E
100
AcDbEntity
8
2
62
256
6
ByLayer
370
18
48
1
60
0
100
AcDbMText
10
55.975
20
-27.340789
30
0
210
0
220
0
230
1
1
\W0.7346;20.0
40
3.5
41
0
44
1.084337
50
90
71
7
72
5
7
iso_b_vert
0
MTEXT
5
36F
100
AcDbEntity
8
2
62
256
6
ByLayer
370
18
48
1
60
0
100
AcDbMText
10
55.975
20
-36.063446
30
0
210
0
220
0
230
1
1
%%c
40
3.5
41
0
44
1.084337
50
90
71
7
72
5
7
iso_b_vert
0
LINE
5
370
100
AcDbEntity
8
2
62
256
6
ByLayer
370
13
48
1
60
0
100
AcDbLine
10
30
20
-10
30
0
11
59.725
21
-10
31
0
39
0
210
0
220
0
230
1
0
LINE
5
371
100
AcDbEntity
8
2
62
256
6
ByLayer
370
13
48
1
60
0
100
AcDbLine
10
30
20
10
30
0
11
59.725
21
10
31
0
39
0
210
0
220
0
230
1
0
LINE
5
372
100
AcDbEntity
8
2
62
256
6
ByLayer
370
13
48
1
60
0
100
AcDbLine
10
57.725
20
10
30
0
11
57.725
21
-38.715789
31
0
39
0
210
0
220
0
230
1
0
SOLID
5
373
100
AcDbEntity
8
2
62
256
6
ByLayer
370
13
48
1
60
0
100
AcDbTrace
10
57.725
20
-10
30
0
11
56.787178
21
-6.500003
31
0
12
58.662822
22
-6.499997
32
0
13
57.725
23
-10
33
0
39
0
210
0
220
0
230
1
0
SOLID
5
374
100
AcDbEntity
8
2
62
256
6
ByLayer
370
13
48
1
60
0
100
AcDbTrace
10
57.725
20
10
30
0
11
58.662822
21
6.500003
31
0
12
56.787178
22
6.499997
32
0
13
57.725
23
10
33
0
39
0
210
0
220
0
230
1
0
ENDBLK
5
376
100
AcDbEntity
8
0
100
AcDbBlockEnd
0
BLOCK
5
380
100
AcDbEntity
8
0
100
AcDbBlockBegin
2
DimnDraft3D5
70
0
10
0
20
0
30
0
3
DimnDraft3D5
0
MTEXT
5
379
100
AcDbEntity
8
SK2
62
256
6
ByLayer
370
18
48
1
60
0
100
AcDbMText
10
-37.725
20
-24.215789
30
0
210
0
220
0
230
1
1
\W0.6563;15.5
40
3.5
41
0
44
1.084337
50
90
71
7
72
5
7
iso_b_vert
0
MTEXT
5
37A
100
AcDbEntity
8
SK2
62
256
6
ByLayer
370
18
48
1
60
0
100
AcDbMText
10
-37.725
20
-32.938446
30
0
210
0
220
0
230
1
1
%%c
40
3.5
41
0
44
1.084337
50
90
71
7
72
5
7
iso_b_vert
0
LINE
5
37B
100
AcDbEntity
8
SK2
62
256
6
ByLayer
370
13
48
1
60
0
100
AcDbLine
10
0
20
7.75
30
0
11
-37.975
21
7.75
31
0
39
0
210
0
220
0
230
1
0
LINE
5
37C
100
AcDbEntity
8
SK2
62
256
6
ByLayer
370
13
48
1
60
0
100
AcDbLine
10
0
20
-7.75
30
0
11
-37.975
21
-7.75
31
0
39
0
210
0
220
0
230
1
0
LINE
5
37D
100
AcDbEntity
8
SK2
62
256
6
ByLayer
370
13
48
1
60
0
100
AcDbLine
10
-35.975
20
7.75
30
0
11
-35.975
21
-35.590789
31
0
39
0
210
0
220
0
230
1
0
SOLID
5
37E
100
AcDbEntity
8
SK2
62
256
6
ByLayer
370
13
48
1
60
0
100
AcDbTrace
10
-35.975
20
7.75
30
0
11
-35.037178
21
4.250003
31
0
12
-36.912822
22
4.249997
32
0
13
-35.975
23
7.75
33
0
39
0
210
0
220
0
230
1
0
SOLID
5
37F
100
AcDbEntity
8
SK2
62
256
6
ByLayer
370
13
48
1
60
0
100
AcDbTrace
10
-35.975
20
-7.75
30
0
11
-36.912822
21
-4.250003
31
0
12
-35.037178
22
-4.249997
32
0
13
-35.975
23
-7.75
33
0
39
0
210
0
220
0
230
1
0
ENDBLK
5
381
100
AcDbEntity
8
0
100
AcDbBlockEnd
0
ENDSEC
0
SECTION
2
ENTITIES
0
ARC
5
168
100
AcDbEntity
8
1
62
256
6
ByLayer
370
18
48
1
60
0
100
AcDbCircle
39
0
10
-9.22915
20
-8.35
30
0
40
0.8
210
0
220
0
230
-1
100
AcDbArc
50
48.590378
51
90
0
ARC
5
169
100
AcDbEntity
8
1
62
256
6
ByLayer
370
18
48
1
60
0
100
AcDbCircle
39
0
10
17.973935
20
6
30
0
40
2
210
0
220
0
230
1
100
AcDbArc
50
90
51
95.378103
0
ARC
5
16A
100
AcDbEntity
8
1
62
256
6
ByLayer
370
18
48
1
60
0
100
AcDbCircle
39
0
10
-9.22915
20
8.35
30
0
40
0.8
210
0
220
0
230
-1
100
AcDbArc
50
270
51
311.409622
0
ARC
5
16B
100
AcDbEntity
8
1
62
256
6
ByLayer
370
18
48
1
60
0
100
AcDbCircle
39
0
10
-13.053033
20
-8.55
30
0
40
1
210
0
220
0
230
-1
100
AcDbArc
50
90
51
95.378103
0
ARC
5
16C
100
AcDbEntity
8
1
62
256
6
ByLayer
370
18
48
1
60
0
100
AcDbCircle
39
0
10
17.973935
20
-6
30
0
40
2
210
0
220
0
230
1
100
AcDbArc
50
264.621897
51
270
0
ARC
5
16D
100
AcDbEntity
8
1
62
256
6
ByLayer
370
18
48
1
60
0
100
AcDbCircle
39
0
10
-20.805073
20
-23
30
0
40
15
210
0
220
0
230
-1
100
AcDbArc
50
90
51
102.191551
0
ARC
5
16E
100
AcDbEntity
8
1
62
256
6
ByLayer
370
18
48
1
60
0
100
AcDbCircle
39
0
10
-13.053033
20
8.55
30
0
40
1
210
0
220
0
230
-1
100
AcDbArc
50
264.621897
51
270
0
ARC
5
16F
100
AcDbEntity
8
1
62
256
6
ByLayer
370
18
48
1
60
0
100
AcDbCircle
39
0
10
0.4
20
6.124053
30
0
40
0.4
210
0
220
0
230
-1
100
AcDbArc
50
180
51
267.8
0
ARC
5
170
100
AcDbEntity
8
1
62
256
6
ByLayer
370
18
48
1
60
0
100
AcDbCircle
39
0
10
0.4
20
-6.124053
30
0
40
0.4
210
0
220
0
230
-1
100
AcDbArc
50
92.2
51
180
0
ARC
5
171
100
AcDbEntity
8
1
62
256
6
ByLayer
370
18
48
1
60
0
100
AcDbCircle
39
0
10
13.5
20
4
30
0
40
0.5
210
0
220
0
230
-1
100
AcDbArc
50
180
51
270
0
ARC
5
172
100
AcDbEntity
8
1
62
256
6
ByLayer
370
18
48
1
60
0
100
AcDbCircle
39
0
10
13.5
20
-4
30
0
40
0.5
210
0
220
0
230
-1
100
AcDbArc
50
90
51
180
0
ARC
5
173
100
AcDbEntity
8
1
62
256
6
ByLayer
370
18
48
1
60
0
100
AcDbCircle
39
0
10
-20.805073
20
23
30
0
40
15
210
0
220
0
230
-1
100
AcDbArc
50
257.90501
51
259.839453
0
ELLIPSE
5
174
100
AcDbEntity
8
1
62
256
6
ByLayer
370
18
48
1
60
0
100
AcDbEllipse
10
26.956262
20
-6.540133
30
0
11
1
21
0
31
0
210
0
220
0
230
1
40
0.990268
41
1.83016159723648
42
-2.3903717538068
0
ELLIPSE
5
175
100
AcDbEntity
8
1
62
256
6
ByLayer
370
18
48
1
60
0
100
AcDbEllipse
10
26.956262
20
-6.540133
30
0
11
1
21
0
31
0
210
0
220
0
230
1
40
0.990268
41
0
42
1.83016067857806
0
ELLIPSE
5
176
100
AcDbEntity
8
1
62
256
6
ByLayer
370
18
48
1
60
0
100
AcDbEllipse
10
26.956262
20
-6.942602
30
0
11
1.0643593539449
21
0
31
0
210
0
220
0
230
1
40
0.990268
41
3.11605448172578
42
-1.31143138714859
0
ELLIPSE
5
177
100
AcDbEntity
8
1
62
256
6
ByLayer
370
13
48
1
60
0
100
AcDbEllipse
10
26.956262
20
-6.942602
30
0
11
1.0643593539449
21
0
31
0
210
0
220
0
230
1
40
0.990268
41
2.79197946388473
42
3.11605448172578
0
ELLIPSE
5
178
100
AcDbEntity
8
1
62
256
6
ByLayer
370
18
48
1
60
0
100
AcDbEllipse
10
26.956262
20
-6.748892
30
0
11
1
21
0
31
0
210
0
220
0
230
1
40
0.990268
41
-3.14150736452597
42
-2.83471107506201
0
ELLIPSE
5
179
100
AcDbEntity
8
1
62
256
6
ByLayer
370
18
48
1
60
0
100
AcDbEllipse
10
26.956262
20
-6.498381
30
0
11
-0.7
21
8.57224447675664E-17
31
0
210
0
220
0
230
1
40
0.990268
41
0
42
6.28318530717959
0
ELLIPSE
5
17A
100
AcDbEntity
8
1
62
256
6
ByLayer
370
13
48
1
60
0
100
AcDbEllipse
10
29.083902
20
-1.801532
30
0
11
0.138843636434643
21
-0.0336245131847408
31
0
210
0
220
0
230
1
40
0.384394
41
-1.14104143264834
42
-0.860743859878464
0
ELLIPSE
5
17B
100
AcDbEntity
8
1
62
256
6
ByLayer
370
13
48
1
60
0
100
AcDbEllipse
10
29.147865
20
-1.647127
30
0
11
-0.0606752782794104
21
0.129331642961118
31
0
210
0
220
0
230
1
40
0.949375
41
2.55181338242573
42
2.68262645797745
0
ELLIPSE
5
17C
100
AcDbEntity
8
1
62
256
6
ByLayer
370
13
48
1
60
0
100
AcDbEllipse
10
29.052579
20
-1.881378
30
0
11
-0.168169463825313
21
2.05941393919381E-17
31
0
210
0
220
0
230
1
40
0.139173
41
-2.93125239269069
42
-2.29986623301511
0
ELLIPSE
5
17D
100
AcDbEntity
8
1
62
256
6
ByLayer
370
13
48
1
60
0
100
AcDbEllipse
10
29.082206
20
-1.80785
30
0
11
0.137063289315934
21
-0.0402718013900892
31
0
210
0
220
0
230
1
40
0.35102
41
-1.11380252095696
42
-0.823124943151859
0
ELLIPSE
5
17E
100
AcDbEntity
8
1
62
256
6
ByLayer
370
18
48
1
60
0
100
AcDbEllipse
10
29.052579
20
-1.899374
30
0
11
0.156814051020317
21
0
31
0
210
0
220
0
230
1
40
0.139173
41
0.285643483901483
42
0.766423197572256
0
ELLIPSE
5
17F
100
AcDbEntity
8
1
62
256
6
ByLayer
370
13
48
1
60
0
100
AcDbEllipse
10
29.146281
20
-1.648068
30
0
11
0.0867041118657906
21
-0.113536603132517
31
0
210
0
220
0
230
1
40
0.964822
41
-0.786348932925063
42
-0.660900642680001
0
ELLIPSE
5
180
100
AcDbEntity
8
1
62
256
6
ByLayer
370
13
48
1
60
0
100
AcDbEllipse
10
29.052579
20
-1.824121
30
0
11
-0.272479379652554
21
3.33679979608097E-17
31
0
210
0
220
0
230
1
40
0.139173
41
2.98011530327201
42
-1.92804862179825
0
ELLIPSE
5
181
100
AcDbEntity
8
1
62
256
6
ByLayer
370
18
48
1
60
0
100
AcDbEllipse
10
26.956262
20
7.025548
30
0
11
-1.40917108060038
21
1.72567985892597E-16
31
0
210
0
220
0
230
1
40
0.990268
41
0
42
0.496286735236403
0
ELLIPSE
5
182
100
AcDbEntity
8
1
62
256
6
ByLayer
370
18
48
1
60
0
100
AcDbEllipse
10
26.956262
20
7.025548
30
0
11
-1.40917108060038
21
1.72567985892597E-16
31
0
210
0
220
0
230
1
40
0.990268
41
1.31143158068537
42
2.64533238541061
0
ELLIPSE
5
183
100
AcDbEntity
8
1
62
256
6
ByLayer
370
18
48
1
60
0
100
AcDbEllipse
10
26.956262
20
7.025548
30
0
11
-1.40917108060038
21
1.72567985892597E-16
31
0
210
0
220
0
230
1
40
0.990268
41
2.64533238541061
42
-2.80091317423061
0
ELLIPSE
5
184
100
AcDbEntity
8
1
62
256
6
ByLayer
370
13
48
1
60
0
100
AcDbEllipse
10
26.956262
20
7.025548
30
0
11
-1.40917108060038
21
1.72567985892597E-16
31
0
210
0
220
0
230
1
40
0.990268
41
-2.80091317423062
42
-0.277723420404506
0
ELLIPSE
5
185
100
AcDbEntity
8
1
62
256
6
ByLayer
370
18
48
1
60
0
100
AcDbEllipse
10
26.956262
20
7.025548
30
0
11
-1.40917108060038
21
1.72567985892597E-16
31
0
210
0
220
0
230
1
40
0.990268
41
-0.277723420404505
42
0
0
ELLIPSE
5
186
100
AcDbEntity
8
1
62
256
6
ByLayer
370
18
48
1
60
0
100
AcDbEllipse
10
26.956262
20
7.104716
30
0
11
-1.44894876836046
21
1.77439186809733E-16
31
0
210
0
220
0
230
1
40
0.990268
41
0
42
1.3114313786179
0
ELLIPSE
5
187
100
AcDbEntity
8
1
62
256
6
ByLayer
370
18
48
1
60
0
100
AcDbEllipse
10
26.956262
20
7.104716
30
0
11
-1.44894876836046
21
1.77439186809733E-16
31
0
210
0
220
0
230
1
40
0.990268
41
0
42
6.28318530717959
0
ELLIPSE
5
188
100
AcDbEntity
8
1
62
256
6
ByLayer
370
18
48
1
60
0
100
AcDbEllipse
10
26.956262
20
7.104716
30
0
11
-1.44894876836046
21
1.77439186809733E-16
31
0
210
0
220
0
230
1
40
0.990268
41
1.31143134328169
42
1.60899934925967
0
ELLIPSE
5
189
100
AcDbEntity
8
1
62
256
6
ByLayer
370
18
48
1
60
0
100
AcDbEllipse
10
26.956262
20
7.104716
30
0
11
-1.44894876836046
21
1.77439186809733E-16
31
0
210
0
220
0
230
1
40
0.990268
41
2.02594721996086
42
0
0
ELLIPSE
5
18A
100
AcDbEntity
8
1
62
256
6
ByLayer
370
13
48
1
60
0
100
AcDbEllipse
10
26.956262
20
6.993993
30
0
11
-1.33648689940607
21
1.63667034881304E-16
31
0
210
0
220
0
230
1
40
0.990268
41
0
42
1.31143117632993
0
ELLIPSE
5
18B
100
AcDbEntity
8
1
62
256
6
ByLayer
370
18
48
1
60
0
100
AcDbEllipse
10
26.956262
20
6.993993
30
0
11
-1.33648689940607
21
1.63667034881304E-16
31
0
210
0
220
0
230
1
40
0.990268
41
0
42
6.28318530717959
0
ELLIPSE
5
18C
100
AcDbEntity
8
1
62
256
6
ByLayer
370
13
48
1
60
0
100
AcDbEllipse
10
26.956262
20
6.993993
30
0
11
-1.33648689940607
21
1.63667034881304E-16
31
0
210
0
220
0
230
1
40
0.990268
41
1.31143145004998
42
1.61223918059952
0
ELLIPSE
5
18D
100
AcDbEntity
8
1
62
256
6
ByLayer
370
13
48
1
60
0
100
AcDbEllipse
10
26.956262
20
6.993993
30
0
11
-1.33648689940607
21
1.63667034881304E-16
31
0
210
0
220
0
230
1
40
0.990268
41
2.01249783306194
42
-2.71167222025287
0
ELLIPSE
5
18E
100
AcDbEntity
8
1
62
256
6
ByLayer
370
13
48
1
60
0
100
AcDbEllipse
10
26.956262
20
6.993993
30
0
11
-1.33648689940607
21
1.63667034881304E-16
31
0
210
0
220
0
230
1
40
0.990268
41
-0.429992330189912
42
0
0
ELLIPSE
5
18F
100
AcDbEntity
8
1
62
256
6
ByLayer
370
13
48
1
60
0
100
AcDbEllipse
10
25.978392
20
-5.936313
30
0
11
-0.0622579503498087
21
0.0350141176465621
31
0
210
0
220
0
230
1
40
0.16467
41
2.02242617257977
42
2.42944070150419
0
ELLIPSE
5
190
100
AcDbEntity
8
1
62
256
6
ByLayer
370
13
48
1
60
0
100
AcDbEllipse
10
24.76466
20
-8.24531
30
0
11
0.136848583601534
21
-0.0409954684271332
31
0
210
0
220
0
230
1
40
0.133426
41
1.3144031959288
42
1.61074521704229
0
ELLIPSE
5
191
100
AcDbEntity
8
1
62
256
6
ByLayer
370
13
48
1
60
0
100
AcDbEllipse
10
29.098562
20
-5.554848
30
0
11
0.044118711920655
21
0.135873847828669
31
0
210
0
220
0
230
1
40
0.81826
41
-1.56489819679259
42
-1.05520632320274
0
ELLIPSE
5
192
100
AcDbEntity
8
1
62
256
6
ByLayer
370
13
48
1
60
0
100
AcDbEllipse
10
28.131286
20
-9.123336
30
0
11
0.136047822983589
21
-0.0435792740500808
31
0
210
0
220
0
230
1
40
0.109077
41
1.60970671098532
42
1.90869437881562
0
ELLIPSE
5
193
100
AcDbEntity
8
1
62
256
6
ByLayer
370
13
48
1
60
0
100
AcDbEllipse
10
26.956262
20
-6.810094
30
0
11
-1.25075570144755
21
1.53168337907223E-16
31
0
210
0
220
0
230
1
40
0.990268
41
-1.03563951201831
42
-0.697206507137393
0
ELLIPSE
5
194
100
AcDbEntity
8
1
62
256
6
ByLayer
370
13
48
1
60
0
100
AcDbEllipse
10
29.082206
20
-5.532432
30
0
11
0.114176403308762
21
-0.0858598403957355
31
0
210
0
220
0
230
1
40
0.898392
41
1.52004879171329
42
1.81072666655278
0
ELLIPSE
5
195
100
AcDbEntity
8
1
62
256
6
ByLayer
370
13
48
1
60
0
100
AcDbEllipse
10
26.427278
20
-8.784414
30
0
11
0.0312583209068256
21
0.118961831585118
31
0
210
0
220
0
230
1
40
0.035693
41
-1.70581010045229
42
-0.693519134295864
0
ELLIPSE
5
196
100
AcDbEntity
8
1
62
256
6
ByLayer
370
13
48
1
60
0
100
AcDbEllipse
10
26.956262
20
-6.877483
30
0
11
1.09999999999999
21
0
31
0
210
0
220
0
230
1
40
0.990268
41
2.69154702618435
42
3.11409135788406
0
ELLIPSE
5
197
100
AcDbEntity
8
1
62
256
6
ByLayer
370
18
48
1
60
0
100
AcDbEllipse
10
26.956262
20
-6.877483
30
0
11
1.09999999999999
21
0
31
0
210
0
220
0
230
1
40
0.990268
41
0
42
1.83016149728157
0
ELLIPSE
5
198
100
AcDbEntity
8
1
62
256
6
ByLayer
370
13
48
1
60
0
100
AcDbEllipse
10
28.428661
20
-8.957515
30
0
11
0.0402650746974183
21
0.137065265566873
31
0
210
0
220
0
230
1
40
0.039581
41
1.14052368354999
42
1.43686570466282
0
ELLIPSE
5
199
100
AcDbEntity
8
1
62
256
6
ByLayer
370
13
48
1
60
0
100
AcDbEllipse
10
25.880777
20
-8.612004
30
0
11
-0.0428330359533446
21
-0.115301045229519
31
0
210
0
220
0
230
1
40
0.247349
41
-2.43739966331648
42
-1.42510869715977
0
ELLIPSE
5
19A
100
AcDbEntity
8
1
62
256
6
ByLayer
370
13
48
1
60
0
100
AcDbEllipse
10
28.173386
20
-8.843274
30
0
11
0.272479379652554
21
0
31
0
210
0
220
0
230
1
40
0.990268
41
-1.73227367711267
42
-0.357252295003358
0
ELLIPSE
5
19B
100
AcDbEntity
8
1
62
256
6
ByLayer
370
13
48
1
60
0
100
AcDbEllipse
10
24.859946
20
-7.972638
30
0
11
0.272479379652554
21
0
31
0
210
0
220
0
230
1
40
0.990268
41
-2.61600981833868
42
-1.92804862179825
0
ELLIPSE
5
19C
100
AcDbEntity
8
1
62
256
6
ByLayer
370
13
48
1
60
0
100
AcDbEllipse
10
29.052579
20
-5.562081
30
0
11
0.272479379652554
21
0
31
0
210
0
220
0
230
1
40
0.990268
41
-0.161477350317781
42
1.21354403179154
0
ELLIPSE
5
19D
100
AcDbEntity
8
1
62
256
6
ByLayer
370
13
48
1
60
0
100
AcDbEllipse
10
26.982269
20
-8.901431
30
0
11
-0.0191254079133535
21
-0.121503986651253
31
0
210
0
220
0
230
1
40
0.315506
41
1.41769747121119
42
2.4299884373679
0
ELLIPSE
5
19E
100
AcDbEntity
8
1
62
256
6
ByLayer
370
13
48
1
60
0
100
AcDbEllipse
10
28.173386
20
-8.835227
30
0
11
0.168169463825313
21
0
31
0
210
0
220
0
230
1
40
0.990268
41
-1.3604560658958
42
-0.729069906220252
0
ELLIPSE
5
19F
100
AcDbEntity
8
1
62
256
6
ByLayer
370
13
48
1
60
0
100
AcDbEllipse
10
28.422441
20
-8.955936
30
0
11
-0.0300308902054932
21
-0.139664988092119
31
0
210
0
220
0
230
1
40
0.005577
41
-2.00273952914937
42
-1.70375186131946
0
ELLIPSE
5
1A0
100
AcDbEntity
8
1
62
256
6
ByLayer
370
18
48
1
60
0
100
AcDbEllipse
10
26.956262
20
-6.817393
30
0
11
-1.1
21
1.34706698920462E-16
31
0
210
0
220
0
230
1
40
0.990268
41
0
42
0.0275737318762857
0
ELLIPSE
5
1A1
100
AcDbEntity
8
1
62
256
6
ByLayer
370
18
48
1
60
0
100
AcDbEllipse
10
26.956262
20
-6.817393
30
0
11
-1.1
21
1.34706698920462E-16
31
0
210
0
220
0
230
1
40
0.990268
41
1.83016132433529
42
-0.487254372840143
0
ELLIPSE
5
1A2
100
AcDbEntity
8
1
62
256
6
ByLayer
370
18
48
1
60
0
100
AcDbEllipse
10
26.956262
20
-6.817393
30
0
11
-1.1
21
1.34706698920462E-16
31
0
210
0
220
0
230
1
40
0.990268
41
-0.487254372840149
42
0
0
ELLIPSE
5
1A3
100
AcDbEntity
8
1
62
256
6
ByLayer
370
18
48
1
60
0
100
AcDbEllipse
10
29.052579
20
-5.551505
30
0
11
-0.156814051020317
21
1.92035483248107E-17
31
0
210
0
220
0
230
1
40
0.990268
41
-2.85594916968831
42
-2.37516945601754
0
ELLIPSE
5
1A4
100
AcDbEntity
8
1
62
256
6
ByLayer
370
13
48
1
60
0
100
AcDbEllipse
10
29.146281
20
-5.335321
30
0
11
0.139620629062937
21
-0.0302364549075445
31
0
210
0
220
0
230
1
40
0.159563
41
1.59669580801839
42
1.7221423610132
0
ELLIPSE
5
1A5
100
AcDbEntity
8
1
62
256
6
ByLayer
370
13
48
1
60
0
100
AcDbEllipse
10
29.079998
20
-6.77261
30
0
11
0.120700511425979
21
-0.0236724849035169
31
0
210
0
220
0
230
1
40
0.158602
41
1.53392912562776
42
2.03335248464918
0
ELLIPSE
5
1A6
100
AcDbEntity
8
1
62
256
6
ByLayer
370
13
48
1
60
0
100
AcDbEllipse
10
29.052579
20
-5.554034
30
0
11
0.168169463825313
21
0
31
0
210
0
220
0
230
1
40
0.990268
41
0.210340260899098
42
0.841726420574661
0
ELLIPSE
5
1A7
100
AcDbEntity
8
1
62
256
6
ByLayer
370
13
48
1
60
0
100
AcDbEllipse
10
29.147865
20
-5.329172
30
0
11
-0.136848583601534
21
0.0409954684271329
31
0
210
0
220
0
230
1
40
0.133426
41
-1.53084743654745
42
-1.4000329851875
0
ELLIPSE
5
1A8
100
AcDbEntity
8
1
62
256
6
ByLayer
370
13
48
1
60
0
100
AcDbEllipse
10
28.949862
20
-7.334053
30
0
11
-0.118808876633536
21
0.031834742547683
31
0
210
0
220
0
230
1
40
0.134518
41
0.594533803672483
42
1.60682476982921
0
ELLIPSE
5
1A9
100
AcDbEntity
8
1
62
256
6
ByLayer
370
13
48
1
60
0
100
AcDbEllipse
10
29.315326
20
-5.623643
30
0
11
0.0433771087784488
21
0.136112415669287
31
0
210
0
220
0
230
1
40
0.0187
41
1.4341948268442
42
1.73318249467452
0
ELLIPSE
5
1AA
100
AcDbEntity
8
1
62
256
6
ByLayer
370
13
48
1
60
0
100
AcDbEllipse
10
29.321513
20
-5.625345
30
0
11
-0.0323153205489898
21
-0.139154171059017
31
0
210
0
220
0
230
1
40
0.031775
41
-1.70678065975199
42
-1.41043863863922
0
ELLIPSE
5
1AB
100
AcDbEntity
8
1
62
256
6
ByLayer
370
13
48
1
60
0
100
AcDbEllipse
10
28.787726
20
-7.863383
30
0
11
0.116131542968415
21
-0.0405273330947794
31
0
210
0
220
0
230
1
40
0.415468
41
-1.9910130599021
42
-1.51397494080575
0
ELLIPSE
5
1AC
100
AcDbEntity
8
1
62
256
6
ByLayer
370
13
48
1
60
0
100
AcDbEllipse
10
29.083902
20
-5.529844
30
0
11
0.124363090172573
21
-0.0702992536804959
31
0
210
0
220
0
230
1
40
0.897233
41
1.42294440720418
42
1.70324331725206
0
ELLIPSE
5
1AD
100
AcDbEntity
8
1
62
256
6
ByLayer
370
13
48
1
60
0
100
AcDbEllipse
10
29.094732
20
-5.553796
30
0
11
0.0314201662866959
21
0.139359019858144
31
0
210
0
220
0
230
1
40
0.831906
41
-1.63650410634267
42
-1.1114194265312
0
ELLIPSE
5
1AE
100
AcDbEntity
8
1
62
256
6
ByLayer
370
13
48
1
60
0
100
AcDbEllipse
10
24.766244
20
-8.23914
30
0
11
-0.139663037440425
21
0.0300399606893994
31
0
210
0
220
0
230
1
40
0.112559
41
-1.83693649378922
42
-1.53794882595888
0
ELLIPSE
5
1AF
100
AcDbEntity
8
1
62
256
6
ByLayer
370
18
48
1
60
0
100
AcDbEllipse
10
26.956262
20
-6.817393
30
0
11
-1.15
21
1.40829730689573E-16
31
0
210
0
220
0
230
1
40
0.990268
41
1.83016120568263
42
-0.672019105462934
0
ELLIPSE
5
1B0
100
AcDbEntity
8
1
62
256
6
ByLayer
370
13
48
1
60
0
100
AcDbEllipse
10
26.956262
20
-6.817393
30
0
11
-1.15
21
1.40829730689573E-16
31
0
210
0
220
0
230
1
40
0.990268
41
-0.672019105462928
42
-0.042817308870306
0
ELLIPSE
5
1B1
100
AcDbEntity
8
1
62
256
6
ByLayer
370
13
48
1
60
0
100
AcDbEllipse
10
28.129577
20
-9.129474
30
0
11
-0.139012357417946
21
0.0329200205104943
31
0
210
0
220
0
230
1
40
0.135497
41
-1.53871975708018
42
-1.24237773596671
0
ELLIPSE
5
1B2
100
AcDbEntity
8
1
62
256
6
ByLayer
370
13
48
1
60
0
100
AcDbEllipse
10
25.952528
20
-5.983325
30
0
11
-0.0629056547739213
21
0.0338366578401409
31
0
210
0
220
0
230
1
40
0.140369
41
1.82004533992138
42
2.4371546697398
0
ELLIPSE
5
1B3
100
AcDbEntity
8
1
62
256
6
ByLayer
370
13
48
1
60
0
100
AcDbEllipse
10
28.173386
20
2.34252
30
0
11
0.168169463825313
21
0
31
0
210
0
220
0
230
1
40
0.139173
41
0.729069906220246
42
1.36045606589581
0
ELLIPSE
5
1B4
100
AcDbEntity
8
1
62
256
6
ByLayer
370
13
48
1
60
0
100
AcDbEllipse
10
24.830319
20
2.155435
30
0
11
-0.135078311000411
21
0.0464974532913616
31
0
210
0
220
0
230
1
40
0.585052
41
-1.25225068020956
42
-0.727166000398123
0
ELLIPSE
5
1B5
100
AcDbEntity
8
1
62
256
6
ByLayer
370
18
48
1
60
0
100
AcDbEllipse
10
24.859946
20
2.238155
30
0
11
-0.156814051020317
21
1.92035483248107E-17
31
0
210
0
220
0
230
1
40
0.139173
41
-0.766423197572249
42
-0.285643483901492
0
ELLIPSE
5
1B6
100
AcDbEntity
8
1
62
256
6
ByLayer
370
13
48
1
60
0
100
AcDbEllipse
10
25.880777
20
2.027792
30
0
11
-0.0323192284204104
21
-0.118677999116557
31
0
210
0
220
0
230
1
40
0.337415
41
0
42
0.958233300416704
0
ELLIPSE
5
1B7
100
AcDbEntity
8
1
62
256
6
ByLayer
370
18
48
1
60
0
100
AcDbEllipse
10
27.632945
20
3.650866
30
0
11
1.32987917502341
21
-1.93545188802061
31
0
210
0
220
0
230
-1
40
0.210302
41
-0.0197148878319196
42
-0.0154256405243985
0
ELLIPSE
5
1B8
100
AcDbEntity
8
1
62
256
6
ByLayer
370
13
48
1
60
0
100
AcDbEllipse
10
24.828623
20
2.150074
30
0
11
-0.137305849976564
21
0.039436871421544
31
0
210
0
220
0
230
1
40
0.616814
41
-1.28791744636578
42
-0.77822557277593
0
ELLIPSE
5
1B9
100
AcDbEntity
8
1
62
256
6
ByLayer
370
13
48
1
60
0
100
AcDbEllipse
10
24.859946
20
2.22016
30
0
11
0.168169463825313
21
0
31
0
210
0
220
0
230
1
40
0.139173
41
2.29986623301516
42
2.93125239269068
0
ELLIPSE
5
1BA
100
AcDbEntity
8
1
62
256
6
ByLayer
370
18
48
1
60
0
100
AcDbEllipse
10
26.956262
20
-0.406906
30
0
11
1.44894876836046
21
0
31
0
210
0
220
0
230
1
40
0.139173
41
0
42
6.28318530717959
0
ELLIPSE
5
1BB
100
AcDbEntity
8
1
62
256
6
ByLayer
370
13
48
1
60
0
100
AcDbEllipse
10
29.079998
20
1.769282
30
0
11
0.0788156525656552
21
-0.0944303601107715
31
0
210
0
220
0
230
1
40
0.968884
41
-1.65543055805201
42
-0.643139591895264
0
ELLIPSE
5
1BC
100
AcDbEntity
8
1
62
256
6
ByLayer
370
18
48
1
60
0
100
AcDbEllipse
10
28.173386
20
2.360515
30
0
11
-0.156814051020317
21
1.92035483248107E-17
31
0
210
0
220
0
230
1
40
0.139173
41
-2.33721952436721
42
-1.85643981069637
0
ELLIPSE
5
1BD
100
AcDbEntity
8
1
62
256
6
ByLayer
370
13
48
1
60
0
100
AcDbEllipse
10
26.982269
20
2.068469
30
0
11
0.0392367016369833
21
-0.116573930381756
31
0
210
0
220
0
230
1
40
0.147549
41
0.456306633370602
42
0.809570458611569
0
ELLIPSE
5
1BE
100
AcDbEntity
8
1
62
256
6
ByLayer
370
13
48
1
60
0
100
AcDbEllipse
10
28.208453
20
2.271913
30
0
11
-0.12062087649755
21
-0.0765425856518374
31
0
210
0
220
0
230
1
40
0.331383
41
-3.11052364818545
42
-2.60083177459562
0
ELLIPSE
5
1BF
100
AcDbEntity
8
1
62
256
6
ByLayer
370
13
48
1
60
0
100
AcDbEllipse
10
28.183203
20
2.273953
30
0
11
0.142373702717324
21
-0.0117427441369201
31
0
210
0
220
0
230
1
40
0.657637
41
1.44663333350239
42
1.95632520709223
0
ELLIPSE
5
1C0
100
AcDbEntity
8
1
62
256
6
ByLayer
370
13
48
1
60
0
100
AcDbEllipse
10
28.183437
20
2.27926
30
0
11
0.142853925838128
21
-0.000958716819932351
31
0
210
0
220
0
230
1
40
0.653076
41
1.37719119896617
42
1.90227587877762
0
ELLIPSE
5
1C1
100
AcDbEntity
8
1
62
256
6
ByLayer
370
13
48
1
60
0
100
AcDbEllipse
10
28.20501
20
2.277517
30
0
11
-0.122830694148334
21
-0.0729437032261494
31
0
210
0
220
0
230
1
40
0.378412
41
-3.09552146907944
42
-2.57043678926796
0
ELLIPSE
5
1C2
100
AcDbEntity
8
1
62
256
6
ByLayer
370
13
48
1
60
0
100
AcDbEllipse
10
26.427278
20
1.966026
30
0
11
-0.00453909967754492
21
0.122916217701804
31
0
210
0
220
0
230
1
40
0.253971
41
-2.75866411413705
42
-2.27369392062458
0
ELLIPSE
5
1C3
100
AcDbEntity
8
1
62
256
6
ByLayer
370
18
48
1
60
0
100
AcDbEllipse
10
24.07824
20
-0.798653
30
0
11
0.348367943784743
21
0.664183540704819
31
0
210
0
220
0
230
1
40
0.957147
41
0.501297706415596
42
0.583950518448175
0
ELLIPSE
5
1C4
100
AcDbEntity
8
1
62
256
6
ByLayer
370
13
48
1
60
0
100
AcDbEllipse
10
26.714624
20
-6.28273
30
0
11
-1.5
21
1.83690953073357E-16
31
0
210
0
220
0
230
1
40
0.990268
41
-1.83016114945547
42
-0.583464093974391
0
ELLIPSE
5
1C5
100
AcDbEntity
8
1
62
256
6
ByLayer
370
18
48
1
60
0
100
AcDbEllipse
10
26.714624
20
-6.28273
30
0
11
-1.5
21
1.83690953073357E-16
31
0
210
0
220
0
230
1
40
0.990268
41
-0.583464098217567
42
-0.259364822660578
0
ELLIPSE
5
1C6
100
AcDbEntity
8
1
62
256
6
ByLayer
370
18
48
1
60
0
100
AcDbEllipse
10
13.160666
20
-1.155783
30
0
11
11.3998915753922
21
0.67147663737891
31
0
210
0
220
0
230
-1
40
0.01388
41
-0.709331311206971
42
-0.325090671849638
0
ELLIPSE
5
1C7
100
AcDbEntity
8
1
62
256
6
ByLayer
370
18
48
1
60
0
100
AcDbEllipse
10
13.160666
20
-1.155783
30
0
11
11.3998915883696
21
0.67147663808464
31
0
210
0
220
0
230
-1
40
0.01388
41
0.27898645823023
42
0.38148755845862
0
ELLIPSE
5
1C8
100
AcDbEntity
8
1
62
256
6
ByLayer
370
13
48
1
60
0
100
AcDbEllipse
10
25.821075
20
-1.017884
30
0
11
9.57837556680983
21
0
31
0
210
0
220
0
230
1
40
0.139173
41
-1.74776381713291
42
-1.39869796673404
0
ELLIPSE
5
1C9
100
AcDbEntity
8
1
62
256
6
ByLayer
370
13
48
1
60
0
100
AcDbEllipse
10
25.748071
20
4.945439
30
0
11
-0.232245295856491
21
-0.442789027136549
31
0
210
0
220
0
230
1
40
0.957147
41
-1.06949862037931
42
-0.405371609158713
0
ELLIPSE
5
1CA
100
AcDbEntity
8
1
62
256
6
ByLayer
370
18
48
1
60
0
100
AcDbEllipse
10
26.714624
20
-6.352317
30
0
11
1
21
0
31
0
210
0
220
0
230
1
40
0.990268
41
2.88222783092922
42
1.31143150413432
0
ELLIPSE
5
1CB
100
AcDbEntity
8
1
62
256
6
ByLayer
370
18
48
1
60
0
100
AcDbEllipse
10
26.714624
20
-6.352317
30
0
11
0.999999999999999
21
0
31
0
210
0
220
0
230
1
40
0.990268
41
1.31143150413432
42
2.88222783092922
0
ELLIPSE
5
1CC
100
AcDbEntity
8
1
62
256
6
ByLayer
370
18
48
1
60
0
100
AcDbEllipse
10
25.177981
20
-2.988448
30
0
11
9.03973205655217
21
-2.41882479786751
31
0
210
0
220
0
230
-1
40
0.129702
41
1.29432332846727
42
1.32205793788039
0
ELLIPSE
5
1CD
100
AcDbEntity
8
1
62
256
6
ByLayer
370
18
48
1
60
0
100
AcDbEllipse
10
26.714624
20
-6.6539
30
0
11
-1
21
1.22460635382238E-16
31
0
210
0
220
0
230
1
40
0.990268
41
-1.26123812992971
42
-0.152942821706427
0
ELLIPSE
5
1CE
100
AcDbEntity
8
1
62
256
6
ByLayer
370
18
48
1
60
0
100
AcDbEllipse
10
26.061405
20
-1.0109
30
0
11
-0.358391401457902
21
-0.904757773326676
31
0
210
0
220
0
230
1
40
0.649418
41
1.59829941650928
42
1.7421804408075
0
ELLIPSE
5
1CF
100
AcDbEntity
8
1
62
256
6
ByLayer
370
18
48
1
60
0
100
AcDbEllipse
10
25.177981
20
14.340558
30
0
11
7.38207924943789
21
5.4355058054889
31
0
210
0
220
0
230
-1
40
0.961615
41
1.94512125568374
42
1.97285586220955
0
ELLIPSE
5
1D0
100
AcDbEntity
8
1
62
256
6
ByLayer
370
18
48
1
60
0
100
AcDbEllipse
10
19.660837
20
-1.365118
30
0
11
-0.0337973081093755
21
-1.04945592664228
31
0
210
0
220
0
230
1
40
0.399095
41
0.699137725342269
42
2.11166004845949
0
ELLIPSE
5
1D1
100
AcDbEntity
8
1
62
256
6
ByLayer
370
13
48
1
60
0
100
AcDbEllipse
10
21.474709
20
-0.909705
30
0
11
9.57837556680984
21
0
31
0
210
0
220
0
230
1
40
0.139173
41
-2.26091425726167
42
-1.74776381713291
0
ELLIPSE
5
1D2
100
AcDbEntity
8
1
62
256
6
ByLayer
370
13
48
1
60
0
100
AcDbEllipse
10
24.745053
20
-1.148401
30
0
11
-0.348367943784736
21
-0.664183540704823
31
0
210
0
220
0
230
1
40
0.957147
41
-2.26933151503684
42
-1.87968676150334
0
ELLIPSE
5
1D3
100
AcDbEntity
8
1
62
256
6
ByLayer
370
13
48
1
60
0
100
AcDbEllipse
10
26.616048
20
-1.230604
30
0
11
0.0461290617636674
21
-1.24914855388012
31
0
210
0
220
0
230
1
40
0.253971
41
1.00631299549772
42
1.93979397234866
0
ELLIPSE
5
1D4
100
AcDbEntity
8
1
62
256
6
ByLayer
370
13
48
1
60
0
100
AcDbEllipse
10
20.001039
20
-1.736148
30
0
11
-0.0311022226696399
21
-1.24961300079065
31
0
210
0
220
0
230
1
40
0.174332
41
-1.24625975734123
42
-1.16718468255961
0
ELLIPSE
5
1D5
100
AcDbEntity
8
1
62
256
6
ByLayer
370
18
48
1
60
0
100
AcDbEllipse
10
20.556175
20
-1.393952
30
0
11
1.99402940571054
21
-0.561050179422634
31
0
210
0
220
0
230
-1
40
0.460035
41
0.425460260977601
42
1.70487102002996
0
ELLIPSE
5
1D6
100
AcDbEntity
8
1
62
256
6
ByLayer
370
18
48
1
60
0
100
AcDbEllipse
10
24.185441
20
-8.558736
30
0
11
-0.242671068556564
21
-0.838398288342137
31
0
210
0
220
0
230
1
40
0.145366
41
-1.88304906581249
42
-1.8218326131625
0
ELLIPSE
5
1D7
100
AcDbEntity
8
1
62
256
6
ByLayer
370
13
48
1
60
0
100
AcDbEllipse
10
25.898692
20
-0.946446
30
0
11
0.842751835144306
21
0.538302279728505
31
0
210
0
220
0
230
1
40
0.734285
41
-2.48797482358213
42
-1.05425596963853
0
ELLIPSE
5
1D8
100
AcDbEntity
8
1
62
256
6
ByLayer
370
18
48
1
60
0
100
AcDbEllipse
10
19.660837
20
-1.365118
30
0
11
-0.0241409343638406
21
-0.749611376173089
31
0
210
0
220
0
230
1
40
0.399095
41
-1.82425158151968
42
-0.693473796227507
0
ELLIPSE
5
1D9
100
AcDbEntity
8
1
62
256
6
ByLayer
370
18
48
1
60
0
100
AcDbEllipse
10
19.660837
20
-1.365118
30
0
11
-0.0241409343638406
21
-0.749611376173089
31
0
210
0
220
0
230
1
40
0.399095
41
0.226423011316402
42
2.25294581234107
0
ELLIPSE
5
1DA
100
AcDbEntity
8
1
62
256
6
ByLayer
370
18
48
1
60
0
100
AcDbEllipse
10
24.07824
20
8.269198
30
0
11
0.724444369716682
21
0.194114283827336
31
0
210
0
220
0
230
1
40
0.134518
41
-1.68947758186178
42
-1.60682476982921
0
ELLIPSE
5
1DB
100
AcDbEntity
8
1
62
256
6
ByLayer
370
18
48
1
60
0
100
AcDbEllipse
10
24.185441
20
1.805931
30
0
11
-0.131968780842333
21
-0.862777594917948
31
0
210
0
220
0
230
1
40
0.27508
41
0.293087225991511
42
0.354303678628711
0
ELLIPSE
5
1DC
100
AcDbEntity
8
1
62
256
6
ByLayer
370
18
48
1
60
0
100
AcDbEllipse
10
43.980494
20
-2E-06
30
0
11
46.3581590956333
21
-7.38454428919816
31
0
210
0
220
0
230
-1
40
0.066377
41
-2.1273258252219
42
-2.1048446887302
0
ELLIPSE
5
1DD
100
AcDbEntity
8
1
62
256
6
ByLayer
370
13
48
1
60
0
100
AcDbEllipse
10
21.474709
20
14.614354
30
0
11
8.3709682839485
21
0
31
0
210
0
220
0
230
1
40
0.990268
41
-2.19210526958504
42
-1.79478071442267
0
ELLIPSE
5
1DE
100
AcDbEntity
8
1
62
256
6
ByLayer
370
18
48
1
60
0
100
AcDbEllipse
10
28.104448
20
1.885196
30
0
11
0.104574782311832
21
-0.500014700749231
31
0
210
0
220
0
230
-1
40
0.839136
41
-3.04082736937262
42
-2.77313386329606
0
ELLIPSE
5
1DF
100
AcDbEntity
8
1
62
256
6
ByLayer
370
18
48
1
60
0
100
AcDbEllipse
10
27.168083
20
-0.089467
30
0
11
0.36456359848907
21
-9.14403513234845
31
0
210
0
220
0
230
-1
40
0.262993
41
2.18109675146987
42
2.33561469872405
0
ELLIPSE
5
1E0
100
AcDbEntity
8
1
62
256
6
ByLayer
370
13
48
1
60
0
100
AcDbEllipse
10
20.001039
20
-1.736148
30
0
11
-0.0311022226696399
21
-1.24961300079065
31
0
210
0
220
0
230
1
40
0.174332
41
-2.99978039715366
42
-2.29951543270442
0
ELLIPSE
5
1E1
100
AcDbEntity
8
1
62
256
6
ByLayer
370
18
48
1
60
0
100
AcDbEllipse
10
27.168083
20
0.636592
30
0
11
2.41170436165354
21
9.16585565579606
31
0
210
0
220
0
230
-1
40
0.034458
41
-2.55152299955958
42
-2.39700505261393
0
ELLIPSE
5
1E2
100
AcDbEntity
8
1
62
256
6
ByLayer
370
13
48
1
60
0
100
AcDbEllipse
10
25.898692
20
-0.946446
30
0
11
0.999973084713205
21
-0.00733688279566367
31
0
210
0
220
0
230
1
40
0.224561
41
-2.71615634166647
42
-0.637149585428578
0
ELLIPSE
5
1E3
100
AcDbEntity
8
1
62
256
6
ByLayer
370
13
48
1
60
0
100
AcDbEllipse
10
26.971091
20
4.846614
30
0
11
0.018451624705467
21
-0.499659421552049
31
0
210
0
220
0
230
1
40
0.253971
41
1.24914857206271
42
1.42640409360336
0
ELLIPSE
5
1E4
100
AcDbEntity
8
1
62
256
6
ByLayer
370
18
48
1
60
0
100
AcDbEllipse
10
24.818911
20
1.646009
30
0
11
-0.348367943784736
21
-0.664183540704823
31
0
210
0
220
0
230
1
40
0.957147
41
2.69874915948763
42
-0.264256586607725
0
ELLIPSE
5
1E5
100
AcDbEntity
8
1
62
256
6
ByLayer
370
13
48
1
60
0
100
AcDbEllipse
10
26.714624
20
4.981132
30
0
11
-1.5
21
1.83690953073357E-16
31
0
210
0
220
0
230
1
40
0.139173
41
0.259364822660573
42
1.83016114945547
0
ELLIPSE
5
1E6
100
AcDbEntity
8
1
62
256
6
ByLayer
370
13
48
1
60
0
100
AcDbEllipse
10
24.347406
20
-1.844327
30
0
11
-0.0311022226696399
21
-1.24961300079065
31
0
210
0
220
0
230
1
40
0.174332
41
-2.70651546091042
42
-1.16718468255961
0
ELLIPSE
5
1E7
100
AcDbEntity
8
1
62
256
6
ByLayer
370
18
48
1
60
0
100
AcDbEllipse
10
24.649275
20
2.527199
30
0
11
0.599999999999997
21
0
31
0
210
0
220
0
230
1
40
0.139173
41
-0.900293641811982
42
-0.549442336086153
0
ELLIPSE
5
1E8
100
AcDbEntity
8
1
62
256
6
ByLayer
370
18
48
1
60
0
100
AcDbEllipse
10
24.803155
20
1.654273
30
0
11
0.371592473370393
21
0.708462443418474
31
0
210
0
220
0
230
1
40
0.957147
41
2.82479981144962
42
2.95318698382176
0
ELLIPSE
5
1E9
100
AcDbEntity
8
1
62
256
6
ByLayer
370
18
48
1
60
0
100
AcDbEllipse
10
43.980488
20
0
30
0
11
46.3579296191593
21
-3.23579199690632
31
0
210
0
220
0
230
-1
40
0.157824
41
2.08325596069216
42
2.10573710023657
0
ELLIPSE
5
1EA
100
AcDbEntity
8
1
62
256
6
ByLayer
370
18
48
1
60
0
100
AcDbEllipse
10
26.714624
20
1.765732
30
0
11
-1.40019855734821
21
1.71469204994154E-16
31
0
210
0
220
0
230
1
40
0.139173
41
-1.65441734330377
42
-1.07322452231745
0
ELLIPSE
5
1EB
100
AcDbEntity
8
1
62
256
6
ByLayer
370
13
48
1
60
0
100
AcDbEllipse
10
21.474709
20
0.648505
30
0
11
-8.3709682839485
21
1.02511409481689E-15
31
0
210
0
220
0
230
1
40
0.139173
41
0.949487384004778
42
1.39382883645688
0
ELLIPSE
5
1EC
100
AcDbEntity
8
1
62
256
6
ByLayer
370
18
48
1
60
0
100
AcDbEllipse
10
24.913574
20
0.845337
30
0
11
-0.348367943784736
21
-0.664183540704823
31
0
210
0
220
0
230
1
40
0.957147
41
-1.44364882723031
42
-1.25275819183871
0
ELLIPSE
5
1ED
100
AcDbEntity
8
1
62
256
6
ByLayer
370
18
48
1
60
0
100
AcDbEllipse
10
27.207568
20
-1.318579
30
0
11
-0.152394874452575
21
-1.02466195519196
31
0
210
0
220
0
230
1
40
0.518799
41
-2.0541439662374
42
-1.87249614882824
0
ELLIPSE
5
1EE
100
AcDbEntity
8
1
62
256
6
ByLayer
370
18
48
1
60
0
100
AcDbEllipse
10
24.790331
20
1.660999
30
0
11
-0.387926124511405
21
-0.739603489662915
31
0
210
0
220
0
230
1
40
0.957147
41
2.55898016319306
42
-2.93151270635781
0
ELLIPSE
5
1EF
100
AcDbEntity
8
1
62
256
6
ByLayer
370
13
48
1
60
0
100
AcDbEllipse
10
26.971091
20
-5.325583
30
0
11
-0.127066345149698
21
-0.483584681240316
31
0
210
0
220
0
230
1
40
0.035693
41
1.43578255313753
42
3.00657887993249
0
ELLIPSE
5
1F0
100
AcDbEntity
8
1
62
256
6
ByLayer
370
13
48
1
60
0
100
AcDbEllipse
10
25.748071
20
-6.028759
30
0
11
0.482962913144454
21
-0.12940952255156
31
0
210
0
220
0
230
1
40
0.134518
41
-3.1055642105555
42
-1.5347678837606
0
ELLIPSE
5
1F1
100
AcDbEntity
8
1
62
256
6
ByLayer
370
13
48
1
60
0
100
AcDbEllipse
10
27.254604
20
-1.845312
30
0
11
0.0302296079919604
21
-1.24963441485926
31
0
210
0
220
0
230
1
40
0.169583
41
1.16730476168009
42
1.63796177406383
0
ELLIPSE
5
1F2
100
AcDbEntity
8
1
62
256
6
ByLayer
370
18
48
1
60
0
100
AcDbEllipse
10
28.139589
20
1.908843
30
0
11
0.653818052584345
21
0.25936856422509
31
0
210
0
220
0
230
-1
40
0.694112
41
-1.74149879825943
42
-1.44559647700307
0
ELLIPSE
5
1F3
100
AcDbEntity
8
1
62
256
6
ByLayer
370
18
48
1
60
0
100
AcDbEllipse
10
13.160666
20
1.77618
30
0
11
11.3926875484073
21
4.81403101015256
31
0
210
0
220
0
230
-1
40
0.084196
41
-0.608323041670149
42
-0.290345923044376
0
ELLIPSE
5
1F4
100
AcDbEntity
8
1
62
256
6
ByLayer
370
18
48
1
60
0
100
AcDbEllipse
10
26.956262
20
7.089866
30
0
11
0.8763
21
0
31
0
210
0
220
0
230
1
40
0.990268
41
-0.787832728536022
42
0.259364822660569
0
ELLIPSE
5
1F5
100
AcDbEntity
8
1
62
256
6
ByLayer
370
18
48
1
60
0
100
AcDbEllipse
10
26.956262
20
7.087409
30
0
11
-1.3
21
1.59198825996909E-16
31
0
210
0
220
0
230
1
40
0.990268
41
0
42
6.28318530717959
0
ELLIPSE
5
1F6
100
AcDbEntity
8
1
62
256
6
ByLayer
370
18
48
1
60
0
100
AcDbEllipse
10
26.956262
20
7.089866
30
0
11
0.8763
21
0
31
0
210
0
220
0
230
1
40
0.990268
41
-2.88222783092922
42
-1.83503027973263
0
ELLIPSE
5
1F7
100
AcDbEntity
8
1
62
256
6
ByLayer
370
18
48
1
60
0
100
AcDbEllipse
10
26.956262
20
6.96809
30
0
11
-0.6782
21
8.30528029162336E-17
31
0
210
0
220
0
230
1
40
0.990268
41
-2.35862905533092
42
-1.31143150413433
0
ELLIPSE
5
1F8
100
AcDbEntity
8
1
62
256
6
ByLayer
370
18
48
1
60
0
100
AcDbEllipse
10
26.756116
20
7.715047
30
0
11
0.199094828364162
21
0.0519842871426883
31
0
210
0
220
0
230
-1
40
0.49215
41
0.243251418937527
42
1.56764736599412
0
ELLIPSE
5
1F9
100
AcDbEntity
8
1
62
256
6
ByLayer
370
18
48
1
60
0
100
AcDbEllipse
10
26.956262
20
6.96809
30
0
11
-0.6782
21
8.30528029162336E-17
31
0
210
0
220
0
230
1
40
0.990268
41
3.07437978780226
42
-2.35862905533093
0
ELLIPSE
5
1FA
100
AcDbEntity
8
1
62
256
6
ByLayer
370
18
48
1
60
0
100
AcDbEllipse
10
27.704471
20
7.164689
30
0
11
0.0531261321414648
21
-0.196991398678976
31
0
210
0
220
0
230
-1
40
0.500581
41
-3.13836916493678
42
-1.28495857609323
0
ELLIPSE
5
1FB
100
AcDbEntity
8
1
62
256
6
ByLayer
370
18
48
1
60
0
100
AcDbEllipse
10
27.50943
20
7.513214
30
0
11
0.14570197732621
21
-0.144064157651941
31
0
210
0
220
0
230
-1
40
0.496342
41
0.252841314298369
42
1.57723726135402
0
ELLIPSE
5
1FC
100
AcDbEntity
8
1
62
256
6
ByLayer
370
18
48
1
60
0
100
AcDbEllipse
10
26.410225
20
7.511452
30
0
11
0.146408536056949
21
0.143359988691175
31
0
210
0
220
0
230
-1
40
0.496295
41
-2.23570104457164
42
-0.00642473221654127
0
ELLIPSE
5
1FD
100
AcDbEntity
8
1
62
256
6
ByLayer
370
18
48
1
60
0
100
AcDbEllipse
10
26.208054
20
6.771491
30
0
11
0.0531261321414664
21
-0.196991398678975
31
0
210
0
220
0
230
-1
40
0.500581
41
2.07713513704386
42
-3.13833878873912
0
ELLIPSE
5
1FE
100
AcDbEntity
8
1
62
256
6
ByLayer
370
18
48
1
60
0
100
AcDbEllipse
10
26.956262
20
7.089866
30
0
11
0.8763
21
0
31
0
210
0
220
0
230
1
40
0.990268
41
-1.83503027973263
42
-0.787832728536022
0
ELLIPSE
5
1FF
100
AcDbEntity
8
1
62
256
6
ByLayer
370
18
48
1
60
0
100
AcDbEllipse
10
26.202948
20
7.169923
30
0
11
0.0540995009660956
21
0.196731419463122
31
0
210
0
220
0
230
-1
40
0.500557
41
1.00676711885638
42
1.56750282232735
0
ELLIPSE
5
200
100
AcDbEntity
8
1
62
256
6
ByLayer
370
18
48
1
60
0
100
AcDbEllipse
10
26.956262
20
6.96809
30
0
11
0.6782
21
0
31
0
210
0
220
0
230
1
40
0.990268
41
1.83016114945546
42
2.87735870065206
0
ELLIPSE
5
201
100
AcDbEntity
8
1
62
256
6
ByLayer
370
18
48
1
60
0
100
AcDbEllipse
10
26.956262
20
6.96809
30
0
11
-0.6782
21
8.30528029162336E-17
31
0
210
0
220
0
230
1
40
0.990268
41
0.956569921756778
42
1.56648126797799
0
ELLIPSE
5
202
100
AcDbEntity
8
1
62
256
6
ByLayer
370
18
48
1
60
0
100
AcDbEllipse
10
26.956262
20
6.96809
30
0
11
-0.6782
21
8.30528029162336E-17
31
0
210
0
220
0
230
1
40
0.990268
41
2.18218328461308
42
2.80865344683793
0
ELLIPSE
5
203
100
AcDbEntity
8
1
62
256
6
ByLayer
370
18
48
1
60
0
100
AcDbEllipse
10
27.709577
20
6.766257
30
0
11
0.054099500966413
21
0.196731419463457
31
0
210
0
220
0
230
-1
40
0.500557
41
-2.89848577832189
42
-2.13482451127581
0
ELLIPSE
5
204
100
AcDbEntity
8
1
62
256
6
ByLayer
370
18
48
1
60
0
100
AcDbEllipse
10
26.956262
20
6.999404
30
0
11
-1.3
21
1.59198825996909E-16
31
0
210
0
220
0
230
1
40
0.990268
41
0
42
1.31143159265465
0
ELLIPSE
5
205
100
AcDbEntity
8
1
62
256
6
ByLayer
370
18
48
1
60
0
100
AcDbEllipse
10
26.956262
20
6.999404
30
0
11
-1.3
21
1.59198825996909E-16
31
0
210
0
220
0
230
1
40
0.990268
41
0
42
6.28318530717959
0
ELLIPSE
5
206
100
AcDbEntity
8
1
62
256
6
ByLayer
370
18
48
1
60
0
100
AcDbEllipse
10
26.956262
20
6.999404
30
0
11
-1.3
21
1.59198825996909E-16
31
0
210
0
220
0
230
1
40
0.990268
41
1.31143127975908
42
-3.14157960603693
0
ELLIPSE
5
207
100
AcDbEntity
8
1
62
256
6
ByLayer
370
13
48
1
60
0
100
AcDbEllipse
10
26.956262
20
6.907826
30
0
11
0.4282
21
0
31
0
210
0
220
0
230
1
40
0.990268
41
0
42
6.28318530717959
0
ELLIPSE
5
208
100
AcDbEntity
8
1
62
256
6
ByLayer
370
13
48
1
60
0
100
AcDbEllipse
10
26.956262
20
7.089866
30
0
11
-0.975
21
1.19399119497682E-16
31
0
210
0
220
0
230
1
40
0.990268
41
0
42
6.28318530717959
0
ELLIPSE
5
209
100
AcDbEntity
8
1
62
256
6
ByLayer
370
18
48
1
60
0
100
AcDbEllipse
10
27.158434
20
7.708051
30
0
11
0.198838265851898
21
-0.0529383851930526
31
0
210
0
220
0
230
-1
40
0.492173
41
-3.13840506741476
42
-0.475733102476336
0
ELLIPSE
5
20A
100
AcDbEntity
8
1
62
256
6
ByLayer
370
18
48
1
60
0
100
AcDbEllipse
10
27.50943
20
7.513214
30
0
11
0.145701977326055
21
-0.144064157651697
31
0
210
0
220
0
230
-1
40
0.496342
41
1.57723726135478
42
2.90163320841183
0
ELLIPSE
5
20B
100
AcDbEntity
8
1
62
256
6
ByLayer
370
18
48
1
60
0
100
AcDbEllipse
10
26.202948
20
7.169923
30
0
11
0.054099500966337
21
0.196731419463875
31
0
210
0
220
0
230
-1
40
0.500557
41
1.56750282232695
42
2.89189876938192
0
ELLIPSE
5
20C
100
AcDbEntity
8
1
62
256
6
ByLayer
370
18
48
1
60
0
100
AcDbEllipse
10
26.956262
20
7.089866
30
0
11
0.8763
21
0
31
0
210
0
220
0
230
1
40
0.990268
41
2.35375992505375
42
-2.88222783092922
0
ELLIPSE
5
20D
100
AcDbEntity
8
1
62
256
6
ByLayer
370
18
48
1
60
0
100
AcDbEllipse
10
26.956262
20
7.089866
30
0
11
0.8763
21
0
31
0
210
0
220
0
230
1
40
0.990268
41
0.259364822660569
42
1.30656237385717
0
ELLIPSE
5
20E
100
AcDbEntity
8
1
62
256
6
ByLayer
370
18
48
1
60
0
100
AcDbEllipse
10
26.756116
20
7.715047
30
0
11
0.199094828364132
21
0.0519842871427362
31
0
210
0
220
0
230
-1
40
0.49215
41
1.56764736599465
42
2.89204331305125
0
ELLIPSE
5
20F
100
AcDbEntity
8
1
62
256
6
ByLayer
370
18
48
1
60
0
100
AcDbEllipse
10
26.956262
20
7.089866
30
0
11
0.8763
21
0
31
0
210
0
220
0
230
1
40
0.990268
41
1.30656237385717
42
2.35375992505375
0
ELLIPSE
5
210
100
AcDbEntity
8
1
62
256
6
ByLayer
370
18
48
1
60
0
100
AcDbEllipse
10
26.956262
20
6.96809
30
0
11
-0.6782
21
8.30528029162336E-17
31
0
210
0
220
0
230
1
40
0.990268
41
-0.264233952937732
42
0.442215086871321
0
ELLIPSE
5
211
100
AcDbEntity
8
1
62
256
6
ByLayer
370
18
48
1
60
0
100
AcDbEllipse
10
26.956262
20
-0.301245
30
0
11
-0.8763
21
1.07312254785455E-16
31
0
210
0
220
0
230
1
40
0.139173
41
-0.603510291541595
42
0.25936482266057
0
ELLIPSE
5
212
100
AcDbEntity
8
1
62
256
6
ByLayer
370
18
48
1
60
0
100
AcDbEllipse
10
26.956262
20
-0.301245
30
0
11
-0.8763
21
1.07312254785455E-16
31
0
210
0
220
0
230
1
40
0.139173
41
-2.88222783092923
42
-2.53806001140018
0
ELLIPSE
5
213
100
AcDbEntity
8
1
62
256
6
ByLayer
370
18
48
1
60
0
100
AcDbEllipse
10
26.956262
20
-0.301245
30
0
11
-0.8763
21
1.07312254785455E-16
31
0
210
0
220
0
230
1
40
0.139173
41
1.30656237385717
42
2.35375992505377
0
ELLIPSE
5
214
100
AcDbEntity
8
1
62
256
6
ByLayer
370
18
48
1
60
0
100
AcDbEllipse
10
26.956262
20
-0.301245
30
0
11
-0.8763
21
1.07312254785455E-16
31
0
210
0
220
0
230
1
40
0.139173
41
0.25936482266057
42
1.30656237385717
0
ELLIPSE
5
215
100
AcDbEntity
8
1
62
256
6
ByLayer
370
18
48
1
60
0
100
AcDbEllipse
10
26.956262
20
-0.301245
30
0
11
-0.8763
21
1.07312254785455E-16
31
0
210
0
220
0
230
1
40
0.139173
41
2.35375992505377
42
-2.88222783092923
0
ELLIPSE
5
216
100
AcDbEntity
8
1
62
256
6
ByLayer
370
18
48
1
60
0
100
AcDbEllipse
10
26.956262
20
-0.283761
30
0
11
1.3
21
0
31
0
210
0
220
0
230
1
40
0.139173
41
-2.97880464477262
42
-1.83016107848594
0
ELLIPSE
5
217
100
AcDbEntity
8
1
62
256
6
ByLayer
370
18
48
1
60
0
100
AcDbEllipse
10
26.956262
20
-0.283761
30
0
11
1.3
21
0
31
0
210
0
220
0
230
1
40
0.139173
41
-1.83016107848596
42
-0.163054355976797
0
ELLIPSE
5
218
100
AcDbEntity
8
1
62
256
6
ByLayer
370
13
48
1
60
0
100
AcDbEllipse
10
26.956262
20
-0.301245
30
0
11
0.975
21
0
31
0
210
0
220
0
230
1
40
0.139173
41
0
42
0.396934399798113
0
ELLIPSE
5
219
100
AcDbEntity
8
1
62
256
6
ByLayer
370
18
48
1
60
0
100
AcDbEllipse
10
26.956262
20
-0.301245
30
0
11
0.975
21
0
31
0
210
0
220
0
230
1
40
0.139173
41
1.31143137202964
42
2.74458538815622
0
ELLIPSE
5
21A
100
AcDbEntity
8
1
62
256
6
ByLayer
370
13
48
1
60
0
100
AcDbEllipse
10
26.956262
20
-0.301245
30
0
11
0.975
21
0
31
0
210
0
220
0
230
1
40
0.139173
41
2.74458790565607
42
-1.63636665397286E-15
0
POINT
5
6C
100
AcDbEntity
8
81
62
256
6
ByLayer
370
18
48
1
60
0
100
AcDbPoint
10
30
20
10
30
0
39
0
210
0
220
0
230
1
50
360
0
POINT
5
6E
100
AcDbEntity
8
80
62
256
6
ByLayer
370
18
48
1
60
0
100
AcDbPoint
10
0
20
0
30
0
39
0
210
0
220
0
230
1
50
360
0
SPLINE
5
21B
100
AcDbEntity
8
1
62
256
6
ByLayer
370
18
48
1
60
0
100
AcDbSpline
70
4
71
3
72
10
73
6
40
0
40
0
40
0
40
0
40
0.116510287829945
40
0.608145745467001
40
1
40
1
40
1
40
1
41
1
10
25.8595674206444
20
-6.84402958240156
30
0
41
1
10
25.8590140914643
20
-6.82521658180471
30
0
41
1
10
25.8598402676634
20
-6.72724645243781
30
0
41
1
10
25.8964092742866
20
-6.5669335297037
30
0
41
1
10
25.9528696090057
20
-6.43369629055789
30
0
41
1
10
25.9831927412372
20
-6.37710934314717
30
0
0
SPLINE
5
21C
100
AcDbEntity
8
1
62
256
6
ByLayer
370
18
48
1
60
0
100
AcDbSpline
70
4
71
3
72
9
73
5
40
0
40
0
40
0
40
0
40
0.577982208078496
40
1
40
1
40
1
40
1
41
1
10
29.3617151571407
20
-1.82412517695243
30
0
41
1
10
29.4098929849515
20
-1.60080187644792
30
0
41
1
10
29.4931227027104
20
-1.21427533479493
30
0
41
1
10
29.575976366323
20
-0.827474401105832
30
0
41
1
10
29.6109239062306
20
-0.664197387653303
30
0
0
SPLINE
5
21D
100
AcDbEntity
8
1
62
256
6
ByLayer
370
18
48
1
60
0
100
AcDbSpline
70
4
71
3
72
8
73
4
40
0
40
0
40
0
40
0
40
1
40
1
40
1
40
1
41
1
10
29.7530164884865
20
-0.0001238896694247
30
0
41
1
10
29.7951946298154
20
0.197003195326658
30
0
41
1
10
29.8373783458728
20
0.394182981069434
30
0
41
1
10
29.8795444485174
20
0.591419616911566
30
0
0
SPLINE
5
21E
100
AcDbEntity
8
1
62
256
6
ByLayer
370
18
48
1
60
0
100
AcDbSpline
70
4
71
3
72
9
73
5
40
0
40
0
40
0
40
0
40
0.809257975602547
40
1
40
1
40
1
40
1
41
1
10
26.2833160159372
20
6.89845865548236
30
0
41
1
10
26.2891607237062
20
6.83740920462574
30
0
41
1
10
26.3055354002828
20
6.76598428640162
30
0
41
1
10
26.334171798905
20
6.69813553923038
30
0
41
1
10
26.34005761091
20
6.68535669130526
30
0
0
SPLINE
5
21F
100
AcDbEntity
8
1
62
256
6
ByLayer
370
18
48
1
60
0
100
AcDbSpline
70
4
71
3
72
10
73
6
40
0
40
0
40
0
40
0
40
0.297134076432106
40
0.765936919695246
40
1
40
1
40
1
40
1
41
1
10
27.3600249849009
20
6.42488233516963
30
0
41
1
10
27.3926652828291
20
6.44919400768549
30
0
41
1
10
27.4717913333376
20
6.51960364476619
30
0
41
1
10
27.5551838330507
20
6.63214853276264
30
0
41
1
10
27.5851602646294
20
6.72320816277826
30
0
41
1
10
27.5926677595968
20
6.75491759999335
30
0
0
SPLINE
5
220
100
AcDbEntity
8
1
62
256
6
ByLayer
370
18
48
1
60
0
100
AcDbSpline
70
4
71
3
72
10
73
6
40
0
40
0
40
0
40
0
40
0.0234586241383685
40
0.669890284967523
40
1
40
1
40
1
40
1
41
1
10
29.2166397496334
20
-1.88577957130485
30
0
41
1
10
29.21688357157
20
-1.88530138075296
30
0
41
1
10
29.223924612729
20
-1.87175344746188
30
0
41
1
10
29.2400804153911
20
-1.85592848931472
30
0
41
1
10
29.2572175850815
20
-1.84725582207878
30
0
41
1
10
29.2634699193335
20
-1.84507539102592
30
0
0
SPLINE
5
221
100
AcDbEntity
8
1
62
256
6
ByLayer
370
18
48
1
60
0
100
AcDbSpline
70
4
71
1
72
4
73
2
40
0
40
0
40
1
40
1
41
1
10
29.3127339770382
20
-1.83149754111906
30
0
41
1
10
29.3186344465786
20
-1.83159499227949
30
0
0
SPLINE
5
222
100
AcDbEntity
8
1
62
256
6
ByLayer
370
18
48
1
60
0
100
AcDbSpline
70
4
71
1
72
4
73
2
40
0
40
0
40
1
40
1
41
1
10
29.2071573653558
20
-1.89985920576194
30
0
41
1
10
29.2144344452061
20
-1.88877725793287
30
0
0
SPLINE
5
223
100
AcDbEntity
8
1
62
256
6
ByLayer
370
18
48
1
60
0
100
AcDbSpline
70
4
71
1
72
4
73
2
40
0
40
0
40
1
40
1
41
1
10
29.2145224376781
20
-1.88885375204328
30
0
41
1
10
29.2185225492237
20
-1.88265703083661
30
0
0
SPLINE
5
224
100
AcDbEntity
8
1
62
256
6
ByLayer
370
18
48
1
60
0
100
AcDbSpline
70
4
71
2
72
6
73
3
40
0
40
0
40
0
40
1
40
1
40
1
41
1
10
29.2634699193335
20
-1.84507539102592
30
0
41
1
10
29.2866608429172
20
-1.8288716405452
30
0
41
1
10
29.3125893863526
20
-1.83327342290366
30
0
0
SPLINE
5
225
100
AcDbEntity
8
1
62
256
6
ByLayer
370
18
48
1
60
0
100
AcDbSpline
70
4
71
3
72
9
73
5
40
0
40
0
40
0
40
0
40
0.626259631062245
40
1
40
1
40
1
40
1
41
1
10
28.3607176227576
20
2.31589904637923
30
0
41
1
10
28.3522747244768
20
2.32090856841231
30
0
41
1
10
28.3406370502473
20
2.33133857819652
30
0
41
1
10
28.3331179277156
20
2.34424073031622
30
0
41
1
10
28.3307844779095
20
2.34952635746558
30
0
0
SPLINE
5
226
100
AcDbEntity
8
1
62
256
6
ByLayer
370
18
48
1
60
0
100
AcDbSpline
70
4
71
3
72
10
73
6
40
0
40
0
40
0
40
0
40
0.277732989016308
40
0.611044453712278
40
1
40
1
40
1
40
1
41
1
10
24.551482660957
20
2.16434684163804
30
0
41
1
10
24.5032930013094
20
1.94365012823076
30
0
41
1
10
24.3973759881092
20
1.45824221266577
30
0
41
1
10
24.2245544831856
20
0.664301230395893
30
0
41
1
10
24.0998445478444
20
0.0914682891043412
30
0
41
1
10
24.0327485404157
20
-0.216858873288316
30
0
0
SPLINE
5
227
100
AcDbEntity
8
1
62
256
6
ByLayer
370
18
48
1
60
0
100
AcDbSpline
70
4
71
2
72
6
73
3
40
0
40
0
40
0
40
1
40
1
40
1
41
1
10
24.695061269906
20
2.22602549657037
30
0
41
1
10
24.6901637329048
20
2.21619924927543
30
0
41
1
10
24.6806430051365
20
2.20902158641081
30
0
0
SPLINE
5
228
100
AcDbEntity
8
1
62
256
6
ByLayer
370
18
48
1
60
0
100
AcDbSpline
70
4
71
1
72
4
73
2
40
0
40
0
40
1
40
1
41
1
10
24.7056029756195
20
2.2417232658652
30
0
41
1
10
24.6980327333476
20
2.23023910288074
30
0
0
SPLINE
5
229
100
AcDbEntity
8
1
62
256
6
ByLayer
370
18
48
1
60
0
100
AcDbSpline
70
4
71
1
72
4
73
2
40
0
40
0
40
1
40
1
41
1
10
24.697920230509
20
2.23021459778934
30
0
41
1
10
24.6929453425419
20
2.22252405239021
30
0
0
SPLINE
5
22A
100
AcDbEntity
8
1
62
256
6
ByLayer
370
18
48
1
60
0
100
AcDbSpline
70
4
71
3
72
10
73
6
40
0
40
0
40
0
40
0
40
0.1968342032584
40
0.873072512220158
40
1
40
1
40
1
40
1
41
1
10
29.2672066472719
20
1.84326123362669
30
0
41
1
10
29.2632662080572
20
1.84417200046269
30
0
41
1
10
29.2465313256471
20
1.8497023487221
30
0
41
1
10
29.2288688764678
20
1.86565128270669
30
0
41
1
10
29.2196387431047
20
1.88210834989289
30
0
41
1
10
29.2182599593449
20
1.88483967720043
30
0
0
SPLINE
5
22B
100
AcDbEntity
8
1
62
256
6
ByLayer
370
18
48
1
60
0
100
AcDbSpline
70
4
71
2
72
6
73
3
40
0
40
0
40
0
40
1
40
1
40
1
41
1
10
29.3124637209955
20
1.83215727518956
30
0
41
1
10
29.2896086552099
20
1.8295250615289
30
0
41
1
10
29.2672066472719
20
1.84326123362669
30
0
0
SPLINE
5
22C
100
AcDbEntity
8
1
62
256
6
ByLayer
370
18
48
1
60
0
100
AcDbSpline
70
4
71
2
72
6
73
3
40
0
40
0
40
0
40
1
40
1
40
1
41
1
10
29.3186344465786
20
1.83159499227949
30
0
41
1
10
29.3152852484346
20
1.83142973745692
30
0
41
1
10
29.3126069128319
20
1.83144291492673
30
0
0
SPLINE
5
22D
100
AcDbEntity
8
1
62
256
6
ByLayer
370
18
48
1
60
0
100
AcDbSpline
70
4
71
3
72
10
73
6
40
0
40
0
40
0
40
0
40
0.388990918423909
40
0.722279468762777
40
1
40
1
40
1
40
1
41
1
10
29.8795444485174
20
-0.591419616911594
30
0
41
1
10
29.8125067669302
20
-0.277843403753934
30
0
41
1
10
29.6879483400181
20
0.304139007241076
30
0
41
1
10
29.5157287783165
20
1.10929061948318
30
0
41
1
10
29.4098929849515
20
1.60080187644789
30
0
41
1
10
29.3617151571407
20
1.82412517695241
30
0
0
SPLINE
5
22E
100
AcDbEntity
8
1
62
256
6
ByLayer
370
18
48
1
60
0
100
AcDbSpline
70
4
71
2
72
6
73
3
40
0
40
0
40
0
40
1
40
1
40
1
41
1
10
29.2185225492237
20
1.88265703083661
30
0
41
1
10
29.216468915715
20
1.88558648689337
30
0
41
1
10
29.2145066467454
20
1.88876986654611
30
0
0
SPLINE
5
22F
100
AcDbEntity
8
1
62
256
6
ByLayer
370
18
48
1
60
0
100
AcDbSpline
70
4
71
2
72
6
73
3
40
0
40
0
40
0
40
1
40
1
40
1
41
1
10
29.2144686196995
20
1.88876800072762
30
0
41
1
10
29.2109206900766
20
1.89432092316522
30
0
41
1
10
29.2072174240467
20
1.89984396438283
30
0
0
SPLINE
5
230
100
AcDbEntity
8
1
62
256
6
ByLayer
370
13
48
1
60
0
100
AcDbSpline
70
4
71
3
72
8
73
4
40
0
40
0
40
0
40
0
40
1
40
1
40
1
40
1
41
1
10
29.147488564519
20
-1.7890476530747
30
0
41
1
10
29.1475307602148
20
-1.78888417601311
30
0
41
1
10
29.1476547847975
20
-1.78873119124543
30
0
41
1
10
29.1478649367602
20
-1.78859346422917
30
0
0
SPLINE
5
231
100
AcDbEntity
8
1
62
256
6
ByLayer
370
13
48
1
60
0
100
AcDbSpline
70
4
71
3
72
8
73
4
40
0
40
0
40
0
40
0
40
1
40
1
40
1
40
1
41
1
10
29.203038562395
20
-1.89322422605667
30
0
41
1
10
29.2062609513209
20
-1.8896324623546
30
0
41
1
10
29.2094381455707
20
-1.88583321077749
30
0
41
1
10
29.212577737116
20
-1.88190829914294
30
0
0
SPLINE
5
232
100
AcDbEntity
8
1
62
256
6
ByLayer
370
18
48
1
60
0
100
AcDbSpline
70
4
71
2
72
6
73
3
40
0
40
0
40
0
40
1
40
1
40
1
41
1.01099390408676
10
29.3163995899257
20
-1.80280312367604
30
0
41
0.949123464872368
10
29.2607479812605
20
-1.78946313999705
30
0
41
0.986735461388408
10
29.1591592663752
20
-1.78329478730713
30
0
0
SPLINE
5
233
100
AcDbEntity
8
1
62
256
6
ByLayer
370
18
48
1
60
0
100
AcDbSpline
70
4
71
2
72
6
73
3
40
0
40
0
40
0
40
1
40
1
40
1
41
0.979812304091236
10
29.8795325198824
20
0.591377313848402
30
0
41
0.95575871007331
10
29.8864125987803
20
0.615619617241306
30
0
41
1.01099390408676
10
29.7988833335437
20
0.636600843080029
30
0
0
SPLINE
5
234
100
AcDbEntity
8
1
62
256
6
ByLayer
370
18
48
1
60
0
100
AcDbSpline
70
4
71
2
72
6
73
3
40
0
40
0
40
0
40
1
40
1
40
1
41
1.01099390408676
10
29.3163995899256
20
-1.80280312367601
30
0
41
0.964442360154246
10
29.3576069740626
20
-1.81268075066698
30
0
41
0.97420894164831
10
29.361702027717
20
-1.82408831238552
30
0
0
SPLINE
5
235
100
AcDbEntity
8
1
62
256
6
ByLayer
370
13
48
1
60
0
100
AcDbSpline
70
4
71
3
72
8
73
4
40
0
40
0
40
0
40
0
40
1
40
1
40
1
40
1
41
1
10
29.3187113414546
20
-1.83009065442866
30
0
41
1
10
29.3196098588073
20
-1.83013244217793
30
0
41
1
10
29.3205495695079
20
-1.83017498166842
30
0
41
1
10
29.3215131841059
20
-1.83021786361385
30
0
0
SPLINE
5
236
100
AcDbEntity
8
1
62
256
6
ByLayer
370
13
48
1
60
0
100
AcDbSpline
70
4
71
3
72
8
73
4
40
0
40
0
40
0
40
0
40
1
40
1
40
1
40
1
41
1
10
29.1650340480201
20
-1.87051182652178
30
0
41
1
10
29.1650285663608
20
-1.86826795502654
30
0
41
1
10
29.1648797307722
20
-1.86606900808553
30
0
41
1
10
29.1646090383034
20
-1.86392309266367
30
0
0
SPLINE
5
237
100
AcDbEntity
8
1
62
256
6
ByLayer
370
13
48
1
60
0
100
AcDbSpline
70
4
71
3
72
12
73
8
40
0
40
0
40
0
40
0
40
0.249999999999997
40
0.249999999999997
40
0.499999999999994
40
0.499999999999994
40
1
40
1
40
1
40
1
41
1
10
29.1646090382594
20
-1.86392309267424
30
0
41
1
10
29.1598385858103
20
-1.85664676460144
30
0
41
1
10
29.1556903300723
20
-1.84878319084854
30
0
41
1
10
29.1496630025595
20
-1.83289475075364
30
0
41
1
10
29.147782700939
20
-1.82486069175025
30
0
41
1
10
29.1449701366594
20
-1.80352759699483
30
0
41
1
10
29.1464758984887
20
-1.79297098373766
30
0
41
1
10
29.147488564519
20
-1.7890476530747
30
0
0
SPLINE
5
238
100
AcDbEntity
8
1
62
256
6
ByLayer
370
13
48
1
60
0
100
AcDbSpline
70
4
71
1
72
4
73
2
40
0
40
0
40
1
40
1
41
1.01099390408676
10
29.1300011409652
20
-1.63392238931825
30
0
41
1.01099390408676
10
29.2552671818633
20
-0.681971821459471
30
0
0
SPLINE
5
239
100
AcDbEntity
8
1
62
256
6
ByLayer
370
18
48
1
60
0
100
AcDbSpline
70
4
71
3
72
12
73
8
40
0
40
0
40
0
40
0
40
0.146234381849991
40
0.146234381849991
40
0.573117190924996
40
0.573117190924996
40
1
40
1
40
1
40
1
41
1
10
29.611100181608
20
0.664309697677311
30
0
41
1
10
29.6223587147367
20
0.663273389794625
30
0
41
1
10
29.6333663453424
20
0.662184625199529
30
0
41
1
10
29.6753068709343
20
0.657728843451366
30
0
41
1
10
29.7038790779565
20
0.654023680192893
30
0
41
1
10
29.7557384626918
20
0.645847824862756
30
0
41
1
10
29.7790761709848
20
0.641348724257227
30
0
41
1
10
29.7988837251945
20
0.636600749199232
30
0
0
SPLINE
5
23A
100
AcDbEntity
8
1
62
256
6
ByLayer
370
13
48
1
60
0
100
AcDbSpline
70
4
71
3
72
8
73
4
40
0
40
0
40
0
40
0
40
1
40
1
40
1
40
1
41
1
10
29.1655467497327
20
-1.88423724111578
30
0
41
1
10
29.1652049129565
20
-1.87979111374239
30
0
41
1
10
29.1650454816351
20
-1.87519205544393
30
0
41
1
10
29.165034048084
20
-1.8705118264993
30
0
0
SPLINE
5
23B
100
AcDbEntity
8
1
62
256
6
ByLayer
370
13
48
1
60
0
100
AcDbSpline
70
4
71
3
72
12
73
8
40
0
40
0
40
0
40
0
40
0.250000000000013
40
0.250000000000013
40
0.500000000000027
40
0.500000000000027
40
1
40
1
40
1
40
1
41
1
10
29.2170415296576
20
-1.8764914369913
30
0
41
1
10
29.222770521447
20
-1.87173188099638
30
0
41
1
10
29.2286361008891
20
-1.86626867627274
30
0
41
1
10
29.2421876865124
20
-1.85507340476636
30
0
41
1
10
29.2499660041968
20
-1.84935456767622
30
0
41
1
10
29.2759724527492
20
-1.83492954206821
30
0
41
1
10
29.2971475780343
20
-1.82908777881758
30
0
41
1
10
29.3187113414546
20
-1.83009065442866
30
0
0
SPLINE
5
23C
100
AcDbEntity
8
1
62
256
6
ByLayer
370
18
48
1
60
0
100
AcDbSpline
70
4
71
3
72
8
73
4
40
0
40
0
40
0
40
0
40
1
40
1
40
1
40
1
41
1
10
29.1989410057509
20
-1.90436577672744
30
0
41
1
10
29.2092331494545
20
-1.90081995349081
30
0
41
1
10
29.2107839817089
20
-1.89689480079372
30
0
41
1
10
29.203038562395
20
-1.8932242260567
30
0
0
SPLINE
5
23D
100
AcDbEntity
8
1
62
256
6
ByLayer
370
13
48
1
60
0
100
AcDbSpline
70
4
71
3
72
8
73
4
40
0
40
0
40
0
40
0
40
1
40
1
40
1
40
1
41
1
10
29.2125777371019
20
-1.88190829917735
30
0
41
1
10
29.2140829711528
20
-1.88002655419382
30
0
41
1
10
29.2155771875406
20
-1.87822145546448
30
0
41
1
10
29.2170415296667
20
-1.87649143697234
30
0
0
SPLINE
5
23E
100
AcDbEntity
8
1
62
256
6
ByLayer
370
18
48
1
60
0
100
AcDbSpline
70
4
71
3
72
14
73
10
40
0
40
0
40
0
40
0
40
0.25
40
0.25
40
0.5
40
0.5
40
0.75
40
0.75
40
1
40
1
40
1
40
1
41
1
10
24.4786449626483
20
9.01503827768286
30
0
41
1
10
24.4403591607191
20
9.00497832932015
30
0
41
1
10
24.4037088128289
20
8.99136880362045
30
0
41
1
10
24.3335452194567
20
8.95734100838121
30
0
41
1
10
24.2996963785894
20
8.93664594307401
30
0
41
1
10
24.2372180943493
20
8.88941608858909
30
0
41
1
10
24.2086458873271
20
8.86305248212341
30
0
41
1
10
24.1567865025918
20
8.80487824865261
30
0
41
1
10
24.1334487942988
20
8.77286548442612
30
0
41
1
10
24.113641240089
20
8.73908188645586
30
0
0
SPLINE
5
23F
100
AcDbEntity
8
1
62
256
6
ByLayer
370
18
48
1
60
0
100
AcDbSpline
70
4
71
2
72
6
73
3
40
0
40
0
40
0
40
1
40
1
40
1
41
1.01099390408676
10
29.8599318449517
20
5.9210643538034
30
0
41
0.934036685581024
10
29.9236709303172
20
5.68318684879186
30
0
41
1.0109936838839
10
29.798883663427
20
5.47035019855146
30
0
0
SPLINE
5
240
100
AcDbEntity
8
1
62
256
6
ByLayer
370
18
48
1
60
0
100
AcDbSpline
70
4
71
3
72
14
73
10
40
0
40
0
40
0
40
0
40
0.25
40
0.25
40
0.5
40
0.5
40
0.75
40
0.75
40
1
40
1
40
1
40
1
41
1
10
29.4338800026352
20
5.19439391267389
30
0
41
1
10
29.4721658045645
20
5.2044538610366
30
0
41
1
10
29.5088161524547
20
5.2180633867363
30
0
41
1
10
29.5789797458268
20
5.25209118197554
30
0
41
1
10
29.6128285866942
20
5.27278624728274
30
0
41
1
10
29.6753068709343
20
5.32001610176766
30
0
41
1
10
29.7038790779565
20
5.34637970823334
30
0
41
1
10
29.7557384626918
20
5.40455394170417
30
0
41
1
10
29.7790761709848
20
5.43656670593063
30
0
41
1
10
29.7988837251945
20
5.47035030390091
30
0
0
SPLINE
5
241
100
AcDbEntity
8
1
62
256
6
ByLayer
370
18
48
1
60
0
100
AcDbSpline
70
4
71
2
72
6
73
3
40
0
40
0
40
0
40
1
40
1
40
1
41
1.01099390408676
10
24.0525931203319
20
8.28836783655336
30
0
41
0.934036685581026
10
23.9888540349664
20
8.52624534156488
30
0
41
1.0109936838839
10
24.1136413018566
20
8.73908199180526
30
0
0
SPLINE
5
242
100
AcDbEntity
8
1
62
256
6
ByLayer
370
18
48
1
60
0
100
AcDbSpline
70
4
71
2
72
6
73
3
40
0
40
0
40
0
40
1
40
1
40
1
41
1.01099390408676
10
28.1515466473419
20
9.98012714685708
30
0
41
0.934036678321181
10
28.3917619353126
20
10.0432459342703
30
0
41
1.01099369840355
10
28.6066902661041
20
9.91967306049849
30
0
0
SPLINE
5
243
100
AcDbEntity
8
1
62
256
6
ByLayer
370
18
48
1
60
0
100
AcDbSpline
70
4
71
3
72
14
73
10
40
0
40
0
40
0
40
0
40
0.25
40
0.25
40
0.5
40
0.5
40
0.75
40
0.75
40
1
40
1
40
1
40
1
41
1
10
28.8853584949287
20
9.55822161178259
30
0
41
1
10
28.875199681694
20
9.59613481891924
30
0
41
1
10
28.8614564073935
20
9.63242848814326
30
0
41
1
10
28.8270942015289
20
9.70190925424779
30
0
41
1
10
28.8061957539667
20
9.73542868052269
30
0
41
1
10
28.7585017446617
20
9.79729893039541
30
0
41
1
10
28.7318790479417
20
9.82559307466292
30
0
41
1
10
28.6731331029727
20
9.87694776743089
30
0
41
1
10
28.6408057309843
20
9.90005835475102
30
0
41
1
10
28.606690122255
20
9.91967314320485
30
0
0
SPLINE
5
244
100
AcDbEntity
8
1
62
256
6
ByLayer
370
18
48
1
60
0
100
AcDbSpline
70
4
71
2
72
6
73
3
40
0
40
0
40
0
40
1
40
1
40
1
41
1.01099390408676
10
28.1515466473419
20
-9.98012714685705
30
0
41
0.934036678321182
10
28.3917619353125
20
-10.0432459342703
30
0
41
1.01099369840355
10
28.606690266104
20
-9.91967306049841
30
0
0
SPLINE
5
245
100
AcDbEntity
8
1
62
256
6
ByLayer
370
18
48
1
60
0
100
AcDbSpline
70
4
71
3
72
8
73
4
40
0
40
0
40
0
40
0
40
1
40
1
40
1
40
1
41
1
10
28.4667334675026
20
-8.94881778295976
30
0
41
1
10
28.4724434002971
20
-8.93585747429071
30
0
41
1
10
28.4775875481606
20
-8.92328822259921
30
0
41
1
10
28.4822223060824
20
-8.91114338434232
30
0
0
SPLINE
5
246
100
AcDbEntity
8
1
62
256
6
ByLayer
370
13
48
1
60
0
100
AcDbSpline
70
4
71
1
72
4
73
2
40
0
40
0
40
1
40
1
41
1.01099390408676
10
28.0703058355376
20
-9.14170674948197
30
0
41
1.01099390408676
10
28.1515466473419
20
-9.98012714685705
30
0
0
SPLINE
5
247
100
AcDbEntity
8
1
62
256
6
ByLayer
370
13
48
1
60
0
100
AcDbSpline
70
4
71
3
72
8
73
4
40
0
40
0
40
0
40
0
40
1
40
1
40
1
40
1
41
1
10
28.0889614626582
20
-9.10102624022983
30
0
41
1
10
28.0894499974206
20
-9.09896328984425
30
0
41
1
10
28.0900211716703
20
-9.09691419140009
30
0
41
1
10
28.0906700153147
20
-9.0948886008596
30
0
0
SPLINE
5
248
100
AcDbEntity
8
1
62
256
6
ByLayer
370
13
48
1
60
0
100
AcDbSpline
70
4
71
3
72
10
73
6
40
0
40
0
40
0
40
0
40
0.5
40
0.5
40
1
40
1
40
1
40
1
41
1
10
29.3058012221742
20
-5.64484785428351
30
0
41
1
10
29.2860597087431
20
-5.6357556689195
30
0
41
1
10
29.266893158294
20
-5.62639944211048
30
0
41
1
10
29.233994145392
20
-5.60770336246532
30
0
41
1
10
29.2202111659605
20
-5.59826999496838
30
0
41
1
10
29.2100003554753
20
-5.59014686718444
30
0
0
SPLINE
5
249
100
AcDbEntity
8
1
62
256
6
ByLayer
370
18
48
1
60
0
100
AcDbSpline
70
4
71
2
72
6
73
3
40
0
40
0
40
0
40
1
40
1
40
1
41
1.01099390408676
10
28.3265602857972
20
-9.10452785449778
30
0
41
0.949123464872365
10
28.2307085473005
20
-9.15963786553299
30
0
41
0.98673546138841
10
28.120510293616
20
-9.14787899179446
30
0
0
SPLINE
5
24A
100
AcDbEntity
8
1
62
256
6
ByLayer
370
13
48
1
60
0
100
AcDbSpline
70
4
71
1
72
4
73
2
40
0
40
0
40
1
40
1
41
1.01099390408676
10
24.31892771115
20
-8.06964616648208
30
0
41
1.01099390408676
10
24.1799586053022
20
-8.18377161607534
30
0
0
SPLINE
5
24B
100
AcDbEntity
8
1
62
256
6
ByLayer
370
18
48
1
60
0
100
AcDbSpline
70
4
71
2
72
6
73
3
40
0
40
0
40
0
40
1
40
1
40
1
41
0.500000575146064
10
27.026755876941
20
-8.79896088727367
30
0
41
0.499999424853936
10
27.0227279394703
20
-8.79832686735959
30
0
41
0.500000575146064
10
27.0186977367919
20
-8.79767821876771
30
0
0
SPLINE
5
24C
100
AcDbEntity
8
1
62
256
6
ByLayer
370
13
48
1
60
0
100
AcDbSpline
70
4
71
3
72
8
73
4
40
0
40
0
40
0
40
0
40
1
40
1
40
1
40
1
41
1
10
29.2100003554753
20
-5.59014686718444
30
0
41
1
10
29.2094628612079
20
-5.58971926796266
30
0
41
1
10
29.2089116024122
20
-5.58934539860428
30
0
41
1
10
29.2083520743212
20
-5.58902887143907
30
0
0
SPLINE
5
24D
100
AcDbEntity
8
1
62
256
6
ByLayer
370
18
48
1
60
0
100
AcDbSpline
70
4
71
3
72
8
73
4
40
0
40
0
40
0
40
0
40
1
40
1
40
1
40
1
41
1
10
28.1205102936079
20
-9.14787899179362
30
0
41
1
10
28.1063134494361
20
-9.14636409575346
30
0
41
1
10
28.0924882411602
20
-9.14470128605836
30
0
41
1
10
28.0790313974221
20
-9.14295822436557
30
0
0
SPLINE
5
24E
100
AcDbEntity
8
1
62
256
6
ByLayer
370
13
48
1
60
0
100
AcDbSpline
70
4
71
3
72
8
73
4
40
0
40
0
40
0
40
0
40
1
40
1
40
1
40
1
41
1
10
28.4256495066834
20
-8.93725572890907
30
0
41
1
10
28.4266600403866
20
-8.93730072362411
30
0
41
1
10
28.4276712931221
20
-8.93742526221342
30
0
41
1
10
28.4286609025747
20
-8.9376333689917
30
0
0
SPLINE
5
24F
100
AcDbEntity
8
1
62
256
6
ByLayer
370
13
48
1
60
0
100
AcDbSpline
70
4
71
3
72
12
73
8
40
0
40
0
40
0
40
0
40
0.250000000000013
40
0.250000000000013
40
0.500000000000025
40
0.500000000000025
40
1
40
1
40
1
40
1
41
1
10
29.2170415296576
20
-5.51926352739608
30
0
41
1
10
29.222770521447
20
-5.52878217683261
30
0
41
1
10
29.2286361008891
20
-5.53775497236683
30
0
41
1
10
29.2421876865124
20
-5.5541492089649
30
0
41
1
10
29.2499660041968
20
-5.56162343711529
30
0
41
1
10
29.2759724527492
20
-5.58191354180869
30
0
41
1
10
29.2971475780343
20
-5.59319083355533
30
0
41
1
10
29.3187113414546
20
-5.60430358725051
30
0
0
SPLINE
5
250
100
AcDbEntity
8
1
62
256
6
ByLayer
370
13
48
1
60
0
100
AcDbSpline
70
4
71
3
72
8
73
4
40
0
40
0
40
0
40
0
40
1
40
1
40
1
40
1
41
1
10
26.4272778016123
20
-8.80153207918016
30
0
41
1
10
26.6237358014694
20
-8.85315323465852
30
0
41
1
10
26.826734716214
20
-8.89593810682544
30
0
41
1
10
27.0172394417996
20
-8.92592461744673
30
0
0
SPLINE
5
251
100
AcDbEntity
8
1
62
256
6
ByLayer
370
13
48
1
60
0
100
AcDbSpline
70
4
71
3
72
8
73
4
40
0
40
0
40
0
40
0
40
1
40
1
40
1
40
1
41
1
10
28.1307433712964
20
-9.10681217754967
30
0
41
1
10
28.1302790164654
20
-9.10770516025812
30
0
41
1
10
28.1298853694264
20
-9.10863744676405
30
0
41
1
10
28.1295772499325
20
-9.10959168353102
30
0
0
SPLINE
5
252
100
AcDbEntity
8
1
62
256
6
ByLayer
370
18
48
1
60
0
100
AcDbSpline
70
4
71
3
72
8
73
4
40
0
40
0
40
0
40
0
40
1
40
1
40
1
40
1
41
1
10
28.9981894135325
20
-7.36386954938664
30
0
41
1
10
28.9458754583889
20
-7.55910788792687
30
0
41
1
10
28.8861566865366
20
-7.75403416119912
30
0
41
1
10
28.8250312989912
20
-7.92918966806607
30
0
0
SPLINE
5
253
100
AcDbEntity
8
1
62
256
6
ByLayer
370
18
48
1
60
0
100
AcDbSpline
70
4
71
2
72
6
73
3
40
0
40
0
40
0
40
1
40
1
40
1
41
1.01099390408676
10
29.3163995899256
20
-5.41039728017095
30
0
41
0.949123464872366
10
29.3720511985908
20
-5.50531619613759
30
0
41
0.986735461388409
10
29.3601767636679
20
-5.61444200799245
30
0
0
SPLINE
5
254
100
AcDbEntity
8
1
62
256
6
ByLayer
370
13
48
1
60
0
100
AcDbSpline
70
4
71
1
72
4
73
2
40
0
40
0
40
1
40
1
41
1.01099390408676
10
29.1118464944478
20
-5.25462409228984
30
0
41
1.01099390408676
10
29.4338800026352
20
-5.19439391267387
30
0
0
SPLINE
5
255
100
AcDbEntity
8
1
62
256
6
ByLayer
370
13
48
1
60
0
100
AcDbSpline
70
4
71
1
72
4
73
2
40
0
40
0
40
1
40
1
41
1.01099390408676
10
29.3526880671999
20
-5.66540145441207
30
0
41
1.01099390408676
10
29.8599318449517
20
-5.92106435380337
30
0
0
SPLINE
5
256
100
AcDbEntity
8
1
62
256
6
ByLayer
370
18
48
1
60
0
100
AcDbSpline
70
4
71
3
72
8
73
4
40
0
40
0
40
0
40
0
40
1
40
1
40
1
40
1
41
1
10
27.0186977367919
20
-8.79767821876771
30
0
41
1
10
26.8356949635875
20
-8.76822449134559
30
0
41
1
10
26.6459198049351
20
-8.72789290325787
30
0
41
1
10
26.4573554154337
20
-8.67834586686732
30
0
0
SPLINE
5
257
100
AcDbEntity
8
1
62
256
6
ByLayer
370
13
48
1
60
0
100
AcDbSpline
70
4
71
3
72
10
73
6
40
0
40
0
40
0
40
0
40
0.149731237371696
40
0.149731237371696
40
1
40
1
40
1
40
1
41
1
10
24.7643300458408
20
-8.13990582332946
30
0
41
1
10
24.7649024551804
20
-8.14376120662709
30
0
41
1
10
24.7653495931322
20
-8.14766623500836
30
0
41
1
10
24.7675548286242
20
-8.17403079407285
30
0
41
1
10
24.7660490667949
20
-8.19834847464051
30
0
41
1
10
24.7650364007646
20
-8.222441559164
30
0
0
SPLINE
5
258
100
AcDbEntity
8
1
62
256
6
ByLayer
370
13
48
1
60
0
100
AcDbSpline
70
4
71
3
72
8
73
4
40
0
40
0
40
0
40
0
40
1
40
1
40
1
40
1
41
1
10
29.1650340480201
20
-5.43434460557498
30
0
41
1
10
29.1650285663608
20
-5.43290652482341
30
0
41
1
10
29.1648797307722
20
-5.43139229998823
30
0
41
1
10
29.1646090383034
20
-5.42983511079831
30
0
0
SPLINE
5
259
100
AcDbEntity
8
1
62
256
6
ByLayer
370
18
48
1
60
0
100
AcDbSpline
70
4
71
3
72
8
73
4
40
0
40
0
40
0
40
0
40
1
40
1
40
1
40
1
41
1
10
29.1989410057509
20
-5.58702525225212
30
0
41
1
10
29.2092331494545
20
-5.56179540895329
30
0
41
1
10
29.2107839817089
20
-5.53386649629661
30
0
41
1
10
29.203038562395
20
-5.50774899994906
30
0
0
SPLINE
5
25A
100
AcDbEntity
8
1
62
256
6
ByLayer
370
18
48
1
60
0
100
AcDbSpline
70
4
71
3
72
14
73
10
40
0
40
0
40
0
40
0
40
0.25
40
0.25
40
0.5
40
0.5
40
0.75
40
0.75
40
1
40
1
40
1
40
1
41
1
10
29.4338800026352
20
-5.19439391267389
30
0
41
1
10
29.4721658045645
20
-5.2044538610366
30
0
41
1
10
29.5088161524547
20
-5.2180633867363
30
0
41
1
10
29.5789797458268
20
-5.25209118197554
30
0
41
1
10
29.6128285866942
20
-5.27278624728274
30
0
41
1
10
29.6753068709343
20
-5.32001610176766
30
0
41
1
10
29.7038790779565
20
-5.34637970823334
30
0
41
1
10
29.7557384626918
20
-5.40455394170414
30
0
41
1
10
29.7790761709848
20
-5.43656670593063
30
0
41
1
10
29.7988837251945
20
-5.47035030390089
30
0
0
SPLINE
5
25B
100
AcDbEntity
8
1
62
256
6
ByLayer
370
13
48
1
60
0
100
AcDbSpline
70
4
71
3
72
8
73
4
40
0
40
0
40
0
40
0
40
1
40
1
40
1
40
1
41
1
10
26.0217512341217
20
-5.96951605428174
30
0
41
1
10
26.0135114919878
20
-5.98451329114303
30
0
41
1
10
26.0053851338785
20
-5.99961873298989
30
0
41
1
10
25.9973846098334
20
-6.01482588386256
30
0
0
SPLINE
5
25C
100
AcDbEntity
8
1
62
256
6
ByLayer
370
13
48
1
60
0
100
AcDbSpline
70
4
71
3
72
8
73
4
40
0
40
0
40
0
40
0
40
1
40
1
40
1
40
1
41
1
10
24.7650364007646
20
-8.222441559164
30
0
41
1
10
24.7649942050688
20
-8.22344546808756
30
0
41
1
10
24.764870180486
20
-8.22444860038621
30
0
41
1
10
24.7646600285233
20
-8.22542857902761
30
0
0
SPLINE
5
25D
100
AcDbEntity
8
1
62
256
6
ByLayer
370
18
48
1
60
0
100
AcDbSpline
70
4
71
3
72
8
73
4
40
0
40
0
40
0
40
0
40
1
40
1
40
1
40
1
41
1
10
24.7922854911515
20
-8.27933535551378
30
0
41
1
10
24.7950664948869
20
-8.28045411800707
30
0
41
1
10
24.7978641011591
20
-8.28153642912156
30
0
41
1
10
24.8006784708357
20
-8.28258193566751
30
0
0
SPLINE
5
25E
100
AcDbEntity
8
1
62
256
6
ByLayer
370
18
48
1
60
0
100
AcDbSpline
70
4
71
3
72
8
73
4
40
0
40
0
40
0
40
0
40
1
40
1
40
1
40
1
41
1
10
29.3543324913066
20
-5.65638386329545
30
0
41
1
10
29.3538248794588
20
-5.65939341717058
30
0
41
1
10
29.3532768685699
20
-5.66239929275619
30
0
41
1
10
29.3526880671999
20
-5.66540145441209
30
0
0
SPLINE
5
25F
100
AcDbEntity
8
1
62
256
6
ByLayer
370
13
48
1
60
0
100
AcDbSpline
70
4
71
3
72
14
73
10
40
0
40
0
40
0
40
0
40
0.160914551277355
40
0.160914551277355
40
0.415732886760556
40
0.415732886760556
40
0.670551222243758
40
0.670551222243758
40
1
40
1
40
1
40
1
41
1
10
25.7691538852096
20
-6.59222720358753
30
0
41
1
10
25.7782366801941
20
-6.56553275318089
30
0
41
1
10
25.7868565668565
20
-6.53865574547163
30
0
41
1
10
25.8057705591906
20
-6.46815414634389
30
0
41
1
10
25.8141048213899
20
-6.42390859562258
30
0
41
1
10
25.8308763524855
20
-6.33517006669555
30
0
41
1
10
25.8396002108732
20
-6.29075580277862
30
0
41
1
10
25.8647637125644
20
-6.19001747890499
30
0
41
1
10
25.8828455487337
20
-6.13358186986562
30
0
41
1
10
25.9056978004421
20
-6.07919470767536
30
0
0
SPLINE
5
260
100
AcDbEntity
8
1
62
256
6
ByLayer
370
13
48
1
60
0
100
AcDbSpline
70
4
71
3
72
10
73
6
40
0
40
0
40
0
40
0
40
0.5
40
0.5
40
1
40
1
40
1
40
1
41
1
10
28.0906700153147
20
-9.0948886008596
30
0
41
1
10
28.0996690074001
20
-9.07515843962929
30
0
41
1
10
28.1081419268875
20
-9.05521265153999
30
0
41
1
10
28.1238509656269
20
-9.01949388937913
30
0
41
1
10
28.1311893176494
20
-9.00367861314399
30
0
41
1
10
28.1368190215412
20
-8.99101896178126
30
0
0
SPLINE
5
261
100
AcDbEntity
8
1
62
256
6
ByLayer
370
13
48
1
60
0
100
AcDbSpline
70
4
71
3
72
12
73
8
40
0
40
0
40
0
40
0
40
0.250000000000009
40
0.250000000000009
40
0.500000000000018
40
0.500000000000018
40
1
40
1
40
1
40
1
41
1
10
28.2084980863378
20
-8.99808976101741
30
0
41
1
10
28.1997344739103
20
-9.00460332253519
30
0
41
1
10
28.191609332148
20
-9.01133854565444
30
0
41
1
10
28.1769327237852
20
-9.02661870815695
30
0
41
1
10
28.1703271426011
20
-9.03525425981653
30
0
41
1
10
28.1522420753571
20
-9.06338865547997
30
0
41
1
10
28.1418875497452
20
-9.08538124156769
30
0
41
1
10
28.1307433712964
20
-9.10681217754967
30
0
0
SPLINE
5
262
100
AcDbEntity
8
1
62
256
6
ByLayer
370
18
48
1
60
0
100
AcDbSpline
70
4
71
2
72
6
73
3
40
0
40
0
40
0
40
1
40
1
40
1
41
1.01099390408676
10
24.5961253753579
20
-8.12432159843406
30
0
41
0.949123464872365
10
24.6517769840231
20
-8.21924051440066
30
0
41
0.986735461388407
10
24.7533656989084
20
-8.26313062436749
30
0
0
SPLINE
5
263
100
AcDbEntity
8
1
62
256
6
ByLayer
370
13
48
1
60
0
100
AcDbSpline
70
4
71
3
72
12
73
8
40
0
40
0
40
0
40
0
40
0.249999999999996
40
0.249999999999996
40
0.499999999999992
40
0.499999999999992
40
1
40
1
40
1
40
1
41
1
10
29.1646090382594
20
-5.42983511078197
30
0
41
1
10
29.1598385858103
20
-5.42144599637729
30
0
41
1
10
29.1556903300723
20
-5.41333927879816
30
0
41
1
10
29.1496630025595
20
-5.39633988571941
30
0
41
1
10
29.147782700939
20
-5.38734045396779
30
0
41
1
10
29.1449701366594
20
-5.35847709260952
30
0
41
1
10
29.1464758984887
20
-5.33620648337424
30
0
41
1
10
29.147488564519
20
-5.31226745810071
30
0
0
SPLINE
5
264
100
AcDbEntity
8
1
62
256
6
ByLayer
370
13
48
1
60
0
100
AcDbSpline
70
4
71
3
72
8
73
4
40
0
40
0
40
0
40
0
40
1
40
1
40
1
40
1
41
1
10
29.2125777371019
20
-5.51543472205034
30
0
41
1
10
29.2140829711528
20
-5.51657330531597
30
0
41
1
10
29.2155771875406
20
-5.5178614561213
30
0
41
1
10
29.2170415296667
20
-5.51926352735276
30
0
0
SPLINE
5
265
100
AcDbEntity
8
1
62
256
6
ByLayer
370
13
48
1
60
0
100
AcDbSpline
70
4
71
3
72
8
73
4
40
0
40
0
40
0
40
0
40
1
40
1
40
1
40
1
41
1
10
29.3119884175559
20
-5.64655043677155
30
0
41
1
10
29.3099051933758
20
-5.64606665639587
30
0
41
1
10
29.307839582369
20
-5.64549745095306
30
0
41
1
10
29.3058012221742
20
-5.64484785428351
30
0
0
SPLINE
5
266
100
AcDbEntity
8
1
62
256
6
ByLayer
370
13
48
1
60
0
100
AcDbSpline
70
4
71
3
72
10
73
6
40
0
40
0
40
0
40
0
40
0.5
40
0.5
40
1
40
1
40
1
40
1
41
1
10
24.8062386385426
20
-8.23187389602859
30
0
41
1
10
24.8082108608342
20
-8.21029738608095
30
0
41
1
10
24.8103548971181
20
-8.18868862542712
30
0
41
1
10
24.8130229710013
20
-8.14954322920235
30
0
41
1
10
24.8134832697537
20
-8.13192068089128
30
0
41
1
10
24.8136564431791
20
-8.11782727570946
30
0
0
SPLINE
5
267
100
AcDbEntity
8
1
62
256
6
ByLayer
370
18
48
1
60
0
100
AcDbSpline
70
4
71
2
72
6
73
3
40
0
40
0
40
0
40
1
40
1
40
1
41
0.500000575310149
10
25.8963847960643
20
-8.50194543686375
30
0
41
0.499999424689851
10
25.9002876746937
20
-8.50339531219078
30
0
41
0.500000575310149
10
25.9041986172271
20
-8.50483327290956
30
0
0
SPLINE
5
268
100
AcDbEntity
8
1
62
256
6
ByLayer
370
13
48
1
60
0
100
AcDbSpline
70
4
71
3
72
12
73
8
40
0
40
0
40
0
40
0
40
0.250000000000016
40
0.250000000000016
40
0.500000000000032
40
0.500000000000032
40
1
40
1
40
1
40
1
41
1
10
28.2988053672014
20
-8.94616753902116
30
0
41
1
10
28.3081255084629
20
-8.94228383617013
30
0
41
1
10
28.3172477299677
20
-8.93910267806476
30
0
41
1
10
28.336292929599
20
-8.93499446806791
30
0
41
1
10
28.3463229044042
20
-8.93406539744183
30
0
41
1
10
28.377874362464
20
-8.93366124492508
30
0
41
1
10
28.4013974322638
20
-8.93617588844998
30
0
41
1
10
28.4256495066834
20
-8.93725572890907
30
0
0
SPLINE
5
269
100
AcDbEntity
8
1
62
256
6
ByLayer
370
18
48
1
60
0
100
AcDbSpline
70
4
71
3
72
8
73
4
40
0
40
0
40
0
40
0
40
1
40
1
40
1
40
1
41
1
10
28.4822223060824
20
-8.91114338434232
30
0
41
1
10
28.4832254115928
20
-8.90851486428085
30
0
41
1
10
28.4841914765233
20
-8.90587013198208
30
0
41
1
10
28.4851201419752
20
-8.9032090303601
30
0
0
SPLINE
5
26A
100
AcDbEntity
8
1
62
256
6
ByLayer
370
13
48
1
60
0
100
AcDbSpline
70
4
71
3
72
8
73
4
40
0
40
0
40
0
40
0
40
1
40
1
40
1
40
1
41
1
10
28.9498617597866
20
-7.35117101163434
30
0
41
1
10
28.8977332936592
20
-7.54571709574165
30
0
41
1
10
28.8384204982258
20
-7.73931823341715
30
0
41
1
10
28.7775108311822
20
-7.91385559068453
30
0
0
SPLINE
5
26B
100
AcDbEntity
8
1
62
256
6
ByLayer
370
18
48
1
60
0
100
AcDbSpline
70
4
71
3
72
14
73
10
40
0
40
0
40
0
40
0
40
0.25
40
0.25
40
0.5
40
0.5
40
0.75
40
0.75
40
1
40
1
40
1
40
1
41
1
10
24.4786449626483
20
-9.01503827768286
30
0
41
1
10
24.4403591607191
20
-9.00497832932015
30
0
41
1
10
24.4037088128289
20
-8.99136880362045
30
0
41
1
10
24.3335452194567
20
-8.95734100838121
30
0
41
1
10
24.2996963785894
20
-8.93664594307401
30
0
41
1
10
24.2372180943493
20
-8.88941608858909
30
0
41
1
10
24.2086458873272
20
-8.86305248212341
30
0
41
1
10
24.1567865025918
20
-8.80487824865261
30
0
41
1
10
24.1334487942988
20
-8.77286548442612
30
0
41
1
10
24.113641240089
20
-8.73908188645584
30
0
0
SPLINE
5
26C
100
AcDbEntity
8
1
62
256
6
ByLayer
370
13
48
1
60
0
100
AcDbSpline
70
4
71
3
72
8
73
4
40
0
40
0
40
0
40
0
40
1
40
1
40
1
40
1
41
1
10
29.203038562395
20
-5.50774899994906
30
0
41
1
10
29.2062609513209
20
-5.51050893891014
30
0
41
1
10
29.2094381455707
20
-5.51305988440737
30
0
41
1
10
29.212577737116
20
-5.5154347219891
30
0
0
SPLINE
5
26D
100
AcDbEntity
8
1
62
256
6
ByLayer
370
18
48
1
60
0
100
AcDbSpline
70
4
71
3
72
8
73
4
40
0
40
0
40
0
40
0
40
1
40
1
40
1
40
1
41
1
10
28.0790313974221
20
-9.14295822436557
30
0
41
1
10
28.0761189186405
20
-9.14258097169815
30
0
41
1
10
28.0732103852695
20
-9.14216394187505
30
0
41
1
10
28.0703058355376
20
-9.14170674948198
30
0
0
SPLINE
5
26E
100
AcDbEntity
8
1
62
256
6
ByLayer
370
18
48
1
60
0
100
AcDbSpline
70
4
71
3
72
8
73
4
40
0
40
0
40
0
40
0
40
1
40
1
40
1
40
1
41
1
10
26.4144544680594
20
-8.849389411522
30
0
41
1
10
26.61161152553
20
-8.90119425085027
30
0
41
1
10
26.8159999005395
20
-8.94427197128135
30
0
41
1
10
27.0071793264969
20
-8.97436468351944
30
0
0
SPLINE
5
26F
100
AcDbEntity
8
1
62
256
6
ByLayer
370
13
48
1
60
0
100
AcDbSpline
70
4
71
3
72
8
73
4
40
0
40
0
40
0
40
0
40
1
40
1
40
1
40
1
41
1
10
24.8046549595579
20
-8.23804434711036
30
0
41
1
10
24.8052635069507
20
-8.23601293115277
30
0
41
1
10
24.8057915538946
20
-8.2339525006104
30
0
41
1
10
24.8062386385426
20
-8.23187389602859
30
0
0
SPLINE
5
270
100
AcDbEntity
8
1
62
256
6
ByLayer
370
18
48
1
60
0
100
AcDbSpline
70
4
71
3
72
8
73
4
40
0
40
0
40
0
40
0
40
1
40
1
40
1
40
1
41
1
10
26.4144544680594
20
-8.849389411522
30
0
41
1
10
26.2172974105887
20
-8.79758457219373
30
0
41
1
10
26.016040889973
20
-8.73407534660427
30
0
41
1
10
25.8307971761886
20
-8.66525939929988
30
0
0
SPLINE
5
271
100
AcDbEntity
8
1
62
256
6
ByLayer
370
13
48
1
60
0
100
AcDbSpline
70
4
71
3
72
8
73
4
40
0
40
0
40
0
40
0
40
1
40
1
40
1
40
1
41
1
10
29.2083520743198
20
-5.58902887144265
30
0
41
1
10
29.2052254896005
20
-5.58832394533246
30
0
41
1
10
29.2020899709746
20
-5.5876500739212
30
0
41
1
10
29.1989410057511
20
-5.58702525225149
30
0
0
SPLINE
5
272
100
AcDbEntity
8
1
62
256
6
ByLayer
370
18
48
1
60
0
100
AcDbSpline
70
4
71
2
72
6
73
3
40
0
40
0
40
0
40
1
40
1
40
1
41
1.01099390408677
10
28.3265602857972
20
-9.10452785449782
30
0
41
0.949123464872362
10
28.4224120242939
20
-9.04941784346262
30
0
41
0.986735461388405
10
28.4667334674993
20
-8.94881778296725
30
0
0
SPLINE
5
273
100
AcDbEntity
8
1
62
256
6
ByLayer
370
18
48
1
60
0
100
AcDbSpline
70
4
71
3
72
8
73
4
40
0
40
0
40
0
40
0
40
1
40
1
40
1
40
1
41
1
10
25.9041986172272
20
-8.50483327290956
30
0
41
1
10
26.0817860455972
20
-8.57012795417015
30
0
41
1
10
26.2687910259324
20
-8.62879883047677
30
0
41
1
10
26.4573554154337
20
-8.67834586686732
30
0
0
SPLINE
5
274
100
AcDbEntity
8
1
62
256
6
ByLayer
370
13
48
1
60
0
100
AcDbSpline
70
4
71
3
72
8
73
4
40
0
40
0
40
0
40
0
40
1
40
1
40
1
40
1
41
1
10
28.4405255072996
20
-8.89889429475207
30
0
41
1
10
28.4384741274543
20
-8.89829166970074
30
0
41
1
10
28.4363970729823
20
-8.89776517185163
30
0
41
1
10
28.4343051777468
20
-8.89731537067385
30
0
0
SPLINE
5
275
100
AcDbEntity
8
1
62
256
6
ByLayer
370
18
48
1
60
0
100
AcDbSpline
70
4
71
3
72
8
73
4
40
0
40
0
40
0
40
0
40
1
40
1
40
1
40
1
41
1
10
28.9981894135325
20
-7.36386954938664
30
0
41
1
10
29.0505033686761
20
-7.1686312108464
30
0
41
1
10
29.0984190337858
20
-6.96186029673299
30
0
41
1
10
29.1371743378074
20
-6.76425598797826
30
0
0
SPLINE
5
276
100
AcDbEntity
8
1
62
256
6
ByLayer
370
13
48
1
60
0
100
AcDbSpline
70
4
71
3
72
8
73
4
40
0
40
0
40
0
40
0
40
1
40
1
40
1
40
1
41
1
10
28.2115357485052
20
-8.99284870428627
30
0
41
1
10
28.2106701341383
20
-8.99462068250099
30
0
41
1
10
28.2096457407157
20
-8.99637408398675
30
0
41
1
10
28.2084980863834
20
-8.99808976102815
30
0
0
SPLINE
5
277
100
AcDbEntity
8
1
62
256
6
ByLayer
370
18
48
1
60
0
100
AcDbSpline
70
4
71
3
72
8
73
4
40
0
40
0
40
0
40
0
40
1
40
1
40
1
40
1
41
1
10
29.360176763667
20
-5.61444200800051
30
0
41
1
10
29.3586469798761
20
-5.62850068946071
30
0
41
1
10
29.356677865755
20
-5.64247849290282
30
0
41
1
10
29.3543324913066
20
-5.65638386329545
30
0
0
SPLINE
5
278
100
AcDbEntity
8
1
62
256
6
ByLayer
370
13
48
1
60
0
100
AcDbSpline
70
4
71
1
72
4
73
2
40
0
40
0
40
1
40
1
41
1.01099390408676
10
24.8006784708357
20
-8.2825819356675
30
0
41
1.01099390408676
10
24.4786449626483
20
-9.01503827768284
30
0
0
SPLINE
5
279
100
AcDbEntity
8
1
62
256
6
ByLayer
370
13
48
1
60
0
100
AcDbSpline
70
4
71
3
72
8
73
4
40
0
40
0
40
0
40
0
40
1
40
1
40
1
40
1
41
1
10
26.4272778016123
20
-8.80153207918016
30
0
41
1
10
26.2308198017552
20
-8.7499109237018
30
0
41
1
10
26.0309314506277
20
-8.68683344255675
30
0
41
1
10
25.846341489212
20
-8.61826035687304
30
0
0
SPLINE
5
27A
100
AcDbEntity
8
1
62
256
6
ByLayer
370
18
48
1
60
0
100
AcDbSpline
70
4
71
2
72
6
73
3
40
0
40
0
40
0
40
1
40
1
40
1
41
0.998661683477832
10
24.0435168968452
20
-8.32754096897189
30
0
41
0.94079661115365
10
24.0006332156154
20
-8.54633560456106
30
0
41
1.01099356646795
10
24.113641125957
20
-8.73908169179143
30
0
0
SPLINE
5
27B
100
AcDbEntity
8
1
62
256
6
ByLayer
370
13
48
1
60
0
100
AcDbSpline
70
4
71
3
72
8
73
4
40
0
40
0
40
0
40
0
40
1
40
1
40
1
40
1
41
1
10
28.9498617597866
20
-7.35117101163434
30
0
41
1
10
29.0019902259139
20
-7.15662492752705
30
0
41
1
10
29.0495801537466
20
-6.95125967050674
30
0
41
1
10
29.0881986845881
20
-6.75435273648216
30
0
0
SPLINE
5
27C
100
AcDbEntity
8
1
62
256
6
ByLayer
370
13
48
1
60
0
100
AcDbSpline
70
4
71
3
72
10
73
6
40
0
40
0
40
0
40
0
40
0.89774413104639
40
0.89774413104639
40
1
40
1
40
1
40
1
41
1
10
28.4343051777468
20
-8.89731537067382
30
0
41
1
10
28.4126991704725
20
-8.89518157106301
30
0
41
1
10
28.3918533044754
20
-8.89209263520124
30
0
41
1
10
28.3716029228782
20
-8.88887232533648
30
0
41
1
10
28.3695655668843
20
-8.88854651666767
30
0
41
1
10
28.3675636112016
20
-8.88822365373588
30
0
0
SPLINE
5
27D
100
AcDbEntity
8
1
62
256
6
ByLayer
370
18
48
1
60
0
100
AcDbSpline
70
4
71
3
72
8
73
4
40
0
40
0
40
0
40
0
40
1
40
1
40
1
40
1
41
1
10
24.7533656989159
20
-8.26313062437075
30
0
41
1
10
24.7664533759583
20
-8.26878498849192
30
0
41
1
10
24.7794361159254
20
-8.27416621500467
30
0
41
1
10
24.7922854911515
20
-8.27933535551378
30
0
0
SPLINE
5
27E
100
AcDbEntity
8
1
62
256
6
ByLayer
370
13
48
1
60
0
100
AcDbSpline
70
4
71
1
72
4
73
2
40
0
40
0
40
1
40
1
41
1.01099390408676
10
28.4851201419751
20
-8.90320903036008
30
0
41
1.01099390408676
10
28.8853584949287
20
-9.55822161178258
30
0
0
SPLINE
5
27F
100
AcDbEntity
8
1
62
256
6
ByLayer
370
13
48
1
60
0
100
AcDbSpline
70
4
71
3
72
12
73
8
40
0
40
0
40
0
40
0
40
0.387971155076351
40
0.387971155076351
40
0.775942310152702
40
0.775942310152702
40
1
40
1
40
1
40
1
41
1
10
25.9973846098334
20
-6.01482588386256
30
0
41
1
10
25.9489940837571
20
-6.09174413108892
30
0
41
1
10
25.9115583435972
20
-6.17528616291642
30
0
41
1
10
25.8546236330854
20
-6.34468960690646
30
0
41
1
10
25.8354887387676
20
-6.43172417174097
30
0
41
1
10
25.7993054466444
20
-6.56660674283714
30
0
41
1
10
25.7847775063469
20
-6.61562952406922
30
0
41
1
10
25.7715863428856
20
-6.66477097816988
30
0
0
SPLINE
5
280
100
AcDbEntity
8
1
62
256
6
ByLayer
370
18
48
1
60
0
100
AcDbSpline
70
4
71
3
72
14
73
10
40
0
40
0
40
0
40
0
40
0.25
40
0.25
40
0.5
40
0.5
40
0.75
40
0.75
40
1
40
1
40
1
40
1
41
1
10
28.8853584949287
20
-9.55822161178259
30
0
41
1
10
28.875199681694
20
-9.59613481891924
30
0
41
1
10
28.8614564073935
20
-9.63242848814323
30
0
41
1
10
28.8270942015289
20
-9.70190925424779
30
0
41
1
10
28.8061957539667
20
-9.73542868052269
30
0
41
1
10
28.7585017446617
20
-9.79729893039541
30
0
41
1
10
28.7318790479417
20
-9.82559307466292
30
0
41
1
10
28.6731331029727
20
-9.87694776743089
30
0
41
1
10
28.6408057309843
20
-9.90005835475102
30
0
41
1
10
28.606690122255
20
-9.91967314320485
30
0
0
SPLINE
5
281
100
AcDbEntity
8
1
62
256
6
ByLayer
370
18
48
1
60
0
100
AcDbSpline
70
4
71
2
72
6
73
3
40
0
40
0
40
0
40
1
40
1
40
1
41
1.01099390408676
10
29.3163995899256
20
-5.41039728017097
30
0
41
0.949123464872366
10
29.2607479812605
20
-5.31547836420432
30
0
41
0.986735461388406
10
29.1591592663752
20
-5.27158825423751
30
0
0
SPLINE
5
282
100
AcDbEntity
8
1
62
256
6
ByLayer
370
13
48
1
60
0
100
AcDbSpline
70
4
71
3
72
8
73
4
40
0
40
0
40
0
40
0
40
1
40
1
40
1
40
1
41
1
10
29.147488564519
20
-5.31226745810071
30
0
41
1
10
29.1475307602148
20
-5.31126996850696
30
0
41
1
10
29.1476547847975
20
-5.31027027821881
30
0
41
1
10
29.1478649367602
20
-5.30929029957741
30
0
0
SPLINE
5
283
100
AcDbEntity
8
1
62
256
6
ByLayer
370
13
48
1
60
0
100
AcDbSpline
70
4
71
3
72
8
73
4
40
0
40
0
40
0
40
0
40
1
40
1
40
1
40
1
41
1
10
26.4540298184829
20
-8.69364521398941
30
0
41
1
10
26.2631889936187
20
-8.64350002316439
30
0
41
1
10
26.0742943678806
20
-8.58389176122122
30
0
41
1
10
25.8949575378025
20
-8.51727015449421
30
0
0
SPLINE
5
284
100
AcDbEntity
8
1
62
256
6
ByLayer
370
13
48
1
60
0
100
AcDbSpline
70
4
71
3
72
8
73
4
40
0
40
0
40
0
40
0
40
1
40
1
40
1
40
1
41
1
10
26.454029818483
20
-8.69364521398941
30
0
41
1
10
26.6448706433472
20
-8.74379040481446
30
0
41
1
10
26.8367047537875
20
-8.78422213767752
30
0
41
1
10
27.0217880234268
20
-8.81335528077304
30
0
0
SPLINE
5
285
100
AcDbEntity
8
1
62
256
6
ByLayer
370
18
48
1
60
0
100
AcDbSpline
70
4
71
2
72
6
73
3
40
0
40
0
40
0
40
1
40
1
40
1
41
1.01099390408676
10
29.8599318449517
20
-5.92106435380338
30
0
41
0.934036685581025
10
29.9236709303172
20
-5.68318684879189
30
0
41
1.0109936838839
10
29.798883663427
20
-5.47035019855147
30
0
0
SPLINE
5
286
100
AcDbEntity
8
1
62
256
6
ByLayer
370
13
48
1
60
0
100
AcDbSpline
70
4
71
3
72
8
73
4
40
0
40
0
40
0
40
0
40
1
40
1
40
1
40
1
41
1
10
29.1655467497327
20
-5.44380327940502
30
0
41
1
10
29.1652049129565
20
-5.44048410496725
30
0
41
1
10
29.1650454816351
20
-5.43734412993581
30
0
41
1
10
29.165034048084
20
-5.43434460559851
30
0
0
SPLINE
5
287
100
AcDbEntity
8
1
62
256
6
ByLayer
370
13
48
1
60
0
100
AcDbSpline
70
4
71
3
72
8
73
4
40
0
40
0
40
0
40
0
40
1
40
1
40
1
40
1
41
1
10
29.3187113414546
20
-5.60430358725048
30
0
41
1
10
29.3196098588073
20
-5.60476663267704
30
0
41
1
10
29.3205495695079
20
-5.60515816977536
30
0
41
1
10
29.3215131841059
20
-5.60546329067157
30
0
0
SPLINE
5
288
100
AcDbEntity
8
1
62
256
6
ByLayer
370
18
48
1
60
0
100
AcDbSpline
70
4
71
3
72
8
73
4
40
0
40
0
40
0
40
0
40
1
40
1
40
1
40
1
41
1
10
24.7533656989159
20
2.2037286490532
30
0
41
1
10
24.7664533759583
20
2.20452331810648
30
0
41
1
10
24.7794361159254
20
2.20319612972332
30
0
41
1
10
24.7922854911515
20
2.1997178938874
30
0
0
SPLINE
5
289
100
AcDbEntity
8
1
62
256
6
ByLayer
370
18
48
1
60
0
100
AcDbSpline
70
4
71
3
72
8
73
4
40
0
40
0
40
0
40
0
40
1
40
1
40
1
40
1
41
1
10
24.7922854911515
20
2.1997178938874
30
0
41
1
10
24.7950664948869
20
2.1989650956632
30
0
41
1
10
24.7978641011591
20
2.19820551492592
30
0
41
1
10
24.8006784708357
20
2.19743908595748
30
0
0
SPLINE
5
28A
100
AcDbEntity
8
1
62
256
6
ByLayer
370
13
48
1
60
0
100
AcDbSpline
70
4
71
3
72
8
73
4
40
0
40
0
40
0
40
0
40
1
40
1
40
1
40
1
41
1
10
24.8138493646178
20
2.24504915974566
30
0
41
1
10
24.8153739622138
20
2.24947822098744
30
0
41
1
10
24.8169295752109
20
2.25390305465163
30
0
41
1
10
24.8185337312921
20
2.25832034660755
30
0
0
SPLINE
5
28B
100
AcDbEntity
8
1
62
256
6
ByLayer
370
18
48
1
60
0
100
AcDbSpline
70
4
71
3
72
8
73
4
40
0
40
0
40
0
40
0
40
1
40
1
40
1
40
1
41
1
10
28.3182770539204
20
2.36627889450656
30
0
41
1
10
28.3145839523501
20
2.37006840983346
30
0
41
1
10
28.3019481735752
20
2.37358421315327
30
0
41
1
10
28.2821459528033
20
2.37623749752316
30
0
0
SPLINE
5
28C
100
AcDbEntity
8
1
62
256
6
ByLayer
370
18
48
1
60
0
100
AcDbSpline
70
4
71
3
72
8
73
4
40
0
40
0
40
0
40
0
40
1
40
1
40
1
40
1
41
1
10
24.8185337312927
20
2.25832034660746
30
0
41
1
10
24.7913049399477
20
2.25780636620976
30
0
41
1
10
24.7660428505385
20
2.25604780569464
30
0
41
1
10
24.7469782155509
20
2.25329186922392
30
0
0
SPLINE
5
28D
100
AcDbEntity
8
1
62
256
6
ByLayer
370
13
48
1
60
0
100
AcDbSpline
70
4
71
3
72
8
73
4
40
0
40
0
40
0
40
0
40
1
40
1
40
1
40
1
41
1
10
26.4540298184829
20
1.8874489331707
30
0
41
1
10
26.2631889936187
20
1.88040148619584
30
0
41
1
10
26.0742943678806
20
1.90179590071654
30
0
41
1
10
25.8949575378025
20
1.95063416912879
30
0
0
SPLINE
5
28E
100
AcDbEntity
8
1
62
256
6
ByLayer
370
13
48
1
60
0
100
AcDbSpline
70
4
71
3
72
8
73
4
40
0
40
0
40
0
40
0
40
1
40
1
40
1
40
1
41
1
10
29.0516640459871
20
1.62708762522891
30
0
41
1
10
29.0645515932619
20
1.63143315472954
30
0
41
1
10
29.0767681219566
20
1.63838124358332
30
0
41
1
10
29.0881986845881
20
1.64792168430535
30
0
0
SPLINE
5
28F
100
AcDbEntity
8
1
62
256
6
ByLayer
370
18
48
1
60
0
100
AcDbSpline
70
4
71
3
72
8
73
4
40
0
40
0
40
0
40
0
40
1
40
1
40
1
40
1
41
1
10
28.1205102936079
20
2.32807192311239
30
0
41
1
10
28.1063134494361
20
2.3278590183584
30
0
41
1
10
28.0924882411602
20
2.32554185524691
30
0
41
1
10
28.0790313974221
20
2.3210921727439
30
0
0
SPLINE
5
290
100
AcDbEntity
8
1
62
256
6
ByLayer
370
13
48
1
60
0
100
AcDbSpline
70
4
71
3
72
8
73
4
40
0
40
0
40
0
40
0
40
1
40
1
40
1
40
1
41
1
10
26.454029818483
20
1.8874489331707
30
0
41
1
10
26.6448706433472
20
1.89449638014557
30
0
41
1
10
26.8367047537875
20
1.92995049903993
30
0
41
1
10
27.0217880234268
20
1.992246219919
30
0
0
SPLINE
5
291
100
AcDbEntity
8
1
62
256
6
ByLayer
370
18
48
1
60
0
100
AcDbSpline
70
4
71
3
72
8
73
4
40
0
40
0
40
0
40
0
40
1
40
1
40
1
40
1
41
1
10
28.0790313974221
20
2.3210921727439
30
0
41
1
10
28.0761189186405
20
2.32012912330029
30
0
41
1
10
28.0732103852695
20
2.31915882393614
30
0
41
1
10
28.0703058355376
20
2.31818120440451
30
0
0
SPLINE
5
292
100
AcDbEntity
8
1
62
256
6
ByLayer
370
18
48
1
60
0
100
AcDbSpline
70
4
71
2
72
6
73
3
40
0
40
0
40
0
40
1
40
1
40
1
41
0.97528216440954
10
24.0327397157056
20
-0.216904302583397
30
0
41
0.962196927718891
10
24.036832189739
20
-0.195622018042701
30
0
41
1.01099390408676
10
24.1136416317398
20
-0.177210390288151
30
0
0
SPLINE
5
293
100
AcDbEntity
8
1
62
256
6
ByLayer
370
13
48
1
60
0
100
AcDbSpline
70
4
71
3
72
8
73
4
40
0
40
0
40
0
40
0
40
1
40
1
40
1
40
1
41
1
10
28.2115357485052
20
2.37062696284653
30
0
41
1
10
28.2106701341383
20
2.36883423571786
30
0
41
1
10
28.2096457407157
20
2.36709452370749
30
0
41
1
10
28.2084980863834
20
2.36540857963763
30
0
0
SPLINE
5
294
100
AcDbEntity
8
1
62
256
6
ByLayer
370
18
48
1
60
0
100
AcDbSpline
70
4
71
3
72
8
73
4
40
0
40
0
40
0
40
0
40
1
40
1
40
1
40
1
41
1
10
28.1375164556318
20
2.38088507968746
30
0
41
1
10
28.1629942470453
20
2.38231746924222
30
0
41
1
10
28.1911976331164
20
2.38253330337613
30
0
41
1
10
28.2175718010533
20
2.381455349352
30
0
0
SPLINE
5
295
100
AcDbEntity
8
1
62
256
6
ByLayer
370
18
48
1
60
0
100
AcDbSpline
70
4
71
3
72
14
73
10
40
0
40
0
40
0
40
0
40
0.25
40
0.25
40
0.5
40
0.5
40
0.75
40
0.75
40
1
40
1
40
1
40
1
41
1
10
28.8853584949287
20
-0.0620879034336212
30
0
41
1
10
28.875199681694
20
-0.0567595496563911
30
0
41
1
10
28.8614564073935
20
-0.0516588070892396
30
0
41
1
10
28.8270942015289
20
-0.0418939222251424
30
0
41
1
10
28.8061957539667
20
-0.037183074077717
30
0
41
1
10
28.7585017446617
20
-0.0284877775173698
30
0
41
1
10
28.7318790479417
20
-0.0245112948648227
30
0
41
1
10
28.6731331029727
20
-0.0172938634773345
30
0
41
1
10
28.6408057309843
20
-0.0140458822448863
30
0
41
1
10
28.606690122255
20
-0.0112892035030825
30
0
0
SPLINE
5
296
100
AcDbEntity
8
1
62
256
6
ByLayer
370
13
48
1
60
0
100
AcDbSpline
70
4
71
3
72
8
73
4
40
0
40
0
40
0
40
0
40
1
40
1
40
1
40
1
41
1
10
28.2821459528033
20
2.37623749752313
30
0
41
1
10
28.2860516065974
20
2.37228735761539
30
0
41
1
10
28.2898010888126
20
2.36818793783243
30
0
41
1
10
28.2934227839606
20
2.36401016018951
30
0
0
SPLINE
5
297
100
AcDbEntity
8
1
62
256
6
ByLayer
370
13
48
1
60
0
100
AcDbSpline
70
4
71
3
72
8
73
4
40
0
40
0
40
0
40
0
40
1
40
1
40
1
40
1
41
1
10
28.2934227839808
20
2.36401016020594
30
0
41
1
10
28.2951591559835
20
2.36200718208721
30
0
41
1
10
28.2969646787513
20
2.36003880143824
30
0
41
1
10
28.2988053671868
20
2.35811138722354
30
0
0
SPLINE
5
298
100
AcDbEntity
8
1
62
256
6
ByLayer
370
13
48
1
60
0
100
AcDbSpline
70
4
71
3
72
8
73
4
40
0
40
0
40
0
40
0
40
1
40
1
40
1
40
1
41
1
10
29.2100003554753
20
1.88716560310655
30
0
41
1
10
29.2094628612079
20
1.88807879526564
30
0
41
1
10
29.2089116024122
20
1.88901095262466
30
0
41
1
10
29.2083520743212
20
1.88995562186335
30
0
0
SPLINE
5
299
100
AcDbEntity
8
1
62
256
6
ByLayer
370
13
48
1
60
0
100
AcDbSpline
70
4
71
3
72
8
73
4
40
0
40
0
40
0
40
0
40
1
40
1
40
1
40
1
41
1
10
24.7094864028886
20
2.244304884283
30
0
41
1
10
24.7062640139627
20
2.24009151713787
30
0
41
1
10
24.7030868197129
20
2.23573630625185
30
0
41
1
10
24.6999472281675
20
2.23130884508612
30
0
0
SPLINE
5
29A
100
AcDbEntity
8
1
62
256
6
ByLayer
370
18
48
1
60
0
100
AcDbSpline
70
4
71
2
72
6
73
3
40
0
40
0
40
0
40
1
40
1
40
1
41
1.01099390408676
10
28.1515466473419
20
-0.0027929473687014
30
0
41
0.934036673906882
10
28.3917619502266
20
0.0060778202504658
30
0
41
1.01099370723212
10
28.6066902888839
20
-0.0112892169673714
30
0
0
SPLINE
5
29B
100
AcDbEntity
8
1
62
256
6
ByLayer
370
13
48
1
60
0
100
AcDbSpline
70
4
71
3
72
8
73
4
40
0
40
0
40
0
40
0
40
1
40
1
40
1
40
1
41
1
10
28.2175718010533
20
2.38145534935197
30
0
41
1
10
28.2153385985208
20
2.37800125378769
30
0
41
1
10
28.2133412322731
20
2.37436620253223
30
0
41
1
10
28.2115357485707
20
2.3706269628232
30
0
0
SPLINE
5
29C
100
AcDbEntity
8
1
62
256
6
ByLayer
370
13
48
1
60
0
100
AcDbSpline
70
4
71
3
72
12
73
8
40
0
40
0
40
0
40
0
40
0.491252959441651
40
0.491252959441651
40
0.982505918883301
40
0.982505918883301
40
1
40
1
40
1
40
1
41
1
10
28.2988053672014
20
2.35811138723003
30
0
41
1
10
28.3081255084629
20
2.35146825345765
30
0
41
1
10
28.3172477299677
20
2.34429692194456
30
0
41
1
10
28.336292929599
20
2.33022021948031
30
0
41
1
10
28.3463229044042
20
2.32332037576586
30
0
41
1
10
28.3572145849561
20
2.31733681692319
30
0
41
1
10
28.3575899018554
20
2.31713248374996
30
0
41
1
10
28.3579659978547
20
2.31692958397707
30
0
0
SPLINE
5
29D
100
AcDbEntity
8
1
62
256
6
ByLayer
370
18
48
1
60
0
100
AcDbSpline
70
4
71
3
72
8
73
4
40
0
40
0
40
0
40
0
40
1
40
1
40
1
40
1
41
1
10
29.3543324913066
20
1.83108610178718
30
0
41
1
10
29.3538248794588
20
1.83059903696201
30
0
41
1
10
29.3532768685699
20
1.83010979558111
30
0
41
1
10
29.3526880671999
20
1.82961835655507
30
0
0
SPLINE
5
29E
100
AcDbEntity
8
1
62
256
6
ByLayer
370
13
48
1
60
0
100
AcDbSpline
70
4
71
3
72
12
73
8
40
0
40
0
40
0
40
0
40
0.249999999999998
40
0.249999999999998
40
0.499999999999996
40
0.499999999999996
40
1
40
1
40
1
40
1
41
1
10
28.2084980863378
20
2.36540857964897
30
0
41
1
10
28.1997344739103
20
2.36022668608962
30
0
41
1
10
28.191609332148
20
2.35444901107107
30
0
41
1
10
28.1769327237851
20
2.34309716666138
30
0
41
1
10
28.1703271426011
20
2.33754154294658
30
0
41
1
10
28.1522420753571
20
2.32421896053913
30
0
41
1
10
28.1418875497452
20
2.31988313369928
30
0
41
1
10
28.1307433712964
20
2.32233613526157
30
0
0
SPLINE
5
29F
100
AcDbEntity
8
1
62
256
6
ByLayer
370
13
48
1
60
0
100
AcDbSpline
70
4
71
3
72
8
73
4
40
0
40
0
40
0
40
0
40
1
40
1
40
1
40
1
41
1
10
28.1375378414631
20
2.36778766875275
30
0
41
1
10
28.1375671950706
20
2.37216151302127
30
0
41
1
10
28.1375659353066
20
2.37652885385998
30
0
41
1
10
28.1375164556324
20
2.3808850796876
30
0
0
SPLINE
5
2A0
100
AcDbEntity
8
1
62
256
6
ByLayer
370
13
48
1
60
0
100
AcDbSpline
70
4
71
3
72
10
73
6
40
0
40
0
40
0
40
0
40
0.5
40
0.5
40
1
40
1
40
1
40
1
41
1
10
29.3058012221742
20
1.82954215021979
30
0
41
1
10
29.2860597087431
20
1.8295759840251
30
0
41
1
10
29.266893158294
20
1.83526855794941
30
0
41
1
10
29.233994145392
20
1.85542397537191
30
0
41
1
10
29.2202111659605
20
1.86981763748506
30
0
41
1
10
29.2100003554753
20
1.88716560310655
30
0
0
SPLINE
5
2A1
100
AcDbEntity
8
1
62
256
6
ByLayer
370
18
48
1
60
0
100
AcDbSpline
70
4
71
2
72
6
73
3
40
0
40
0
40
0
40
1
40
1
40
1
41
1.01099390408676
10
29.8599318449517
20
-0.573257020413833
30
0
41
0.989272108787792
10
29.8769182059914
20
-0.582166460809691
30
0
41
0.979812599603713
10
29.8795324374288
20
-0.59137702333203
30
0
0
SPLINE
5
2A2
100
AcDbEntity
8
1
62
256
6
ByLayer
370
18
48
1
60
0
100
AcDbSpline
70
4
71
2
72
6
73
3
40
0
40
0
40
0
40
1
40
1
40
1
41
0.97327386305144
10
29.8781995117871
20
-0.601137180973016
30
0
41
0.967112433324243
10
29.8676045505628
20
-0.620127882994602
30
0
41
1.01099325495876
10
29.7988843059958
20
-0.636600609977224
30
0
0
SPLINE
5
2A3
100
AcDbEntity
8
1
62
256
6
ByLayer
370
13
48
1
60
0
100
AcDbSpline
70
4
71
3
72
10
73
6
40
0
40
0
40
0
40
0
40
0.5
40
0.5
40
1
40
1
40
1
40
1
41
1
10
24.8062386385426
20
2.19312494952345
30
0
41
1
10
24.8082108608342
20
2.19140422593111
30
0
41
1
10
24.8103548971181
20
2.19537481852163
30
0
41
1
10
24.8130229710013
20
2.21265627192292
30
0
41
1
10
24.8134832697537
20
2.22589901972893
30
0
41
1
10
24.8136564431791
20
2.24240791758152
30
0
0
SPLINE
5
2A4
100
AcDbEntity
8
1
62
256
6
ByLayer
370
13
48
1
60
0
100
AcDbSpline
70
4
71
3
72
8
73
4
40
0
40
0
40
0
40
0
40
1
40
1
40
1
40
1
41
1
10
28.3264394909227
20
2.35252365381194
30
0
41
1
10
28.32370965653
20
2.35712045159613
30
0
41
1
10
28.3209872409034
20
2.36170767280043
30
0
41
1
10
28.3182770539202
20
2.36627889450676
30
0
0
SPLINE
5
2A5
100
AcDbEntity
8
1
62
256
6
ByLayer
370
13
48
1
60
0
100
AcDbSpline
70
4
71
3
72
8
73
4
40
0
40
0
40
0
40
0
40
1
40
1
40
1
40
1
41
1
10
24.6954834356259
20
2.22504646118924
30
0
41
1
10
24.6919939912502
20
2.2206617331054
30
0
41
1
10
24.6884538749263
20
2.21608189191093
30
0
41
1
10
24.684688277111
20
2.21144489043957
30
0
0
SPLINE
5
2A6
100
AcDbEntity
8
1
62
256
6
ByLayer
370
18
48
1
60
0
100
AcDbSpline
70
4
71
3
72
8
73
4
40
0
40
0
40
0
40
0
40
1
40
1
40
1
40
1
41
1
10
26.4144544680594
20
1.85094919263267
30
0
41
1
10
26.2172974105887
20
1.84366849727183
30
0
41
1
10
26.016040889973
20
1.86646303369776
30
0
41
1
10
25.8307971761886
20
1.91690990627572
30
0
0
SPLINE
5
2A7
100
AcDbEntity
8
1
62
256
6
ByLayer
370
13
48
1
60
0
100
AcDbSpline
70
4
71
3
72
8
73
4
40
0
40
0
40
0
40
0
40
1
40
1
40
1
40
1
41
1
10
24.7474909172634
20
2.24270531775787
30
0
41
1
10
24.7474963989227
20
2.24094475881469
30
0
41
1
10
24.7476452345114
20
2.23924837227858
30
0
41
1
10
24.7479159269801
20
2.23761480549163
30
0
0
SPLINE
5
2A8
100
AcDbEntity
8
1
62
256
6
ByLayer
370
13
48
1
60
0
100
AcDbSpline
70
4
71
3
72
8
73
4
40
0
40
0
40
0
40
0
40
1
40
1
40
1
40
1
41
1
10
24.7469782155509
20
2.25329186922389
30
0
41
1
10
24.747320052327
20
2.24993286575008
30
0
41
1
10
24.7474794836485
20
2.24637746158541
30
0
41
1
10
24.7474909171996
20
2.24270531772976
30
0
0
SPLINE
5
2A9
100
AcDbEntity
8
1
62
256
6
ByLayer
370
18
48
1
60
0
100
AcDbSpline
70
4
71
3
72
8
73
4
40
0
40
0
40
0
40
0
40
1
40
1
40
1
40
1
41
1
10
28.4667334675026
20
2.300095694666
30
0
41
1
10
28.4724434002971
20
2.29827424206766
30
0
41
1
10
28.4775875481606
20
2.29442427849435
30
0
41
1
10
28.4822223060824
20
2.28851272163064
30
0
0
SPLINE
5
2AA
100
AcDbEntity
8
1
62
256
6
ByLayer
370
13
48
1
60
0
100
AcDbSpline
70
4
71
3
72
8
73
4
40
0
40
0
40
0
40
0
40
1
40
1
40
1
40
1
41
1
10
24.6999472281817
20
2.23130884510229
30
0
41
1
10
24.6984419941308
20
2.22918615964741
30
0
41
1
10
24.696947777743
20
2.22709592489963
30
0
41
1
10
24.6954834356169
20
2.22504646118296
30
0
0
SPLINE
5
2AB
100
AcDbEntity
8
1
62
256
6
ByLayer
370
18
48
1
60
0
100
AcDbSpline
70
4
71
2
72
6
73
3
40
0
40
0
40
0
40
1
40
1
40
1
41
1.01099390408676
10
25.7609783179416
20
-0.81101828599945
30
0
41
0.934036673906876
10
25.5207630150569
20
-0.819889053618671
30
0
41
1.01099370723213
10
25.3058346763997
20
-0.802522016400741
30
0
0
SPLINE
5
2AC
100
AcDbEntity
8
1
62
256
6
ByLayer
370
13
48
1
60
0
100
AcDbSpline
70
4
71
3
72
8
73
4
40
0
40
0
40
0
40
0
40
1
40
1
40
1
40
1
41
1
10
29.2083520743198
20
1.88995562186418
30
0
41
1
10
29.2052254896005
20
1.89476051739089
30
0
41
1
10
29.2020899709746
20
1.89956441340519
30
0
41
1
10
29.1989410057511
20
1.90436577672744
30
0
0
SPLINE
5
2AD
100
AcDbEntity
8
1
62
256
6
ByLayer
370
13
48
1
60
0
100
AcDbSpline
70
4
71
3
72
12
73
8
40
0
40
0
40
0
40
0
40
0.250000000000009
40
0.250000000000009
40
0.500000000000018
40
0.500000000000018
40
1
40
1
40
1
40
1
41
1
10
24.7479159270242
20
2.2376148055063
30
0
41
1
10
24.7526863794732
20
2.23293270335498
30
0
41
1
10
24.7568346352113
20
2.22760826531101
30
0
41
1
10
24.7628619627241
20
2.21702098419828
30
0
41
1
10
24.7647422643446
20
2.21177873058727
30
0
41
1
10
24.7675548286242
20
2.19922786434785
30
0
41
1
10
24.7660490667949
20
2.19521880822697
30
0
41
1
10
24.7650364007646
20
2.1980459503674
30
0
0
SPLINE
5
2AE
100
AcDbEntity
8
1
62
256
6
ByLayer
370
13
48
1
60
0
100
AcDbSpline
70
4
71
3
72
10
73
6
40
0
40
0
40
0
40
0
40
0.0170740540418479
40
0.0170740540418479
40
1
40
1
40
1
40
1
41
1
10
28.1155865728386
20
2.32557975224492
30
0
41
1
10
28.1157233835844
20
2.32573120212825
30
0
41
1
10
28.1158600082186
20
2.32588406848924
30
0
41
1
10
28.1238509656269
20
2.33491986385405
30
0
41
1
10
28.1311893176494
20
2.34841660718615
30
0
41
1
10
28.1368190215412
20
2.36512700599724
30
0
0
SPLINE
5
2AF
100
AcDbEntity
8
1
62
256
6
ByLayer
370
13
48
1
60
0
100
AcDbSpline
70
4
71
3
72
8
73
4
40
0
40
0
40
0
40
0
40
1
40
1
40
1
40
1
41
1
10
28.328227314786
20
2.34966044413164
30
0
41
1
10
28.3276136063997
20
2.35061361101802
30
0
41
1
10
28.3270156315971
20
2.35157027118123
30
0
41
1
10
28.3264394909221
20
2.3525236538122
30
0
0
SPLINE
5
2B0
100
AcDbEntity
8
1
62
256
6
ByLayer
370
13
48
1
60
0
100
AcDbSpline
70
4
71
1
72
4
73
2
40
0
40
0
40
1
40
1
41
1.01099390408676
10
29.3526880671999
20
1.82961835655507
30
0
41
1.01099390408676
10
29.8599318449517
20
-0.573257020413833
30
0
0
SPLINE
5
2B1
100
AcDbEntity
8
1
62
256
6
ByLayer
370
13
48
1
60
0
100
AcDbSpline
70
4
71
3
72
8
73
4
40
0
40
0
40
0
40
0
40
1
40
1
40
1
40
1
41
1
10
24.8136564431791
20
2.24240791758152
30
0
41
1
10
24.8136655589808
20
2.24327694144307
30
0
41
1
10
24.813729998724
20
2.2441593478776
30
0
41
1
10
24.8138493646139
20
2.24504915974529
30
0
0
SPLINE
5
2B2
100
AcDbEntity
8
1
62
256
6
ByLayer
370
18
48
1
60
0
100
AcDbSpline
70
4
71
3
72
8
73
4
40
0
40
0
40
0
40
0
40
1
40
1
40
1
40
1
41
1
10
25.9041986172272
20
1.96760243773494
30
0
41
1
10
26.0817860455972
20
1.92007184624168
30
0
41
1
10
26.2687910259324
20
1.8992908032287
30
0
41
1
10
26.4573554154337
20
1.90625418508003
30
0
0
SPLINE
5
2B3
100
AcDbEntity
8
1
62
256
6
ByLayer
370
13
48
1
60
0
100
AcDbSpline
70
4
71
1
72
4
73
2
40
0
40
0
40
1
40
1
41
1.01099390408676
10
24.8006784708357
20
2.1974390859575
30
0
41
1.01099390408676
10
24.4786449626483
20
-0.138427342604391
30
0
0
SPLINE
5
2B4
100
AcDbEntity
8
1
62
256
6
ByLayer
370
18
48
1
60
0
100
AcDbSpline
70
4
71
2
72
6
73
3
40
0
40
0
40
0
40
1
40
1
40
1
41
1.01099390408676
10
24.5961253753579
20
2.18422031268384
30
0
41
0.967470188910792
10
24.5577187984024
20
2.17501405392436
30
0
41
0.973176711244356
10
24.551515624768
20
2.16440365106091
30
0
0
SPLINE
5
2B5
100
AcDbEntity
8
1
62
256
6
ByLayer
370
13
48
1
60
0
100
AcDbSpline
70
4
71
1
72
4
73
2
40
0
40
0
40
1
40
1
41
1.01099390408676
10
28.4851201419751
20
2.28466253588453
30
0
41
1.01099390408676
10
28.8853584949287
20
-0.062087903433601
30
0
0
SPLINE
5
2B6
100
AcDbEntity
8
1
62
256
6
ByLayer
370
18
48
1
60
0
100
AcDbSpline
70
4
71
3
72
8
73
4
40
0
40
0
40
0
40
0
40
1
40
1
40
1
40
1
41
1
10
27.0186977367919
20
2.00875911086422
30
0
41
1
10
26.8356949635875
20
1.94791249892796
30
0
41
1
10
26.6459198049351
20
1.91321756693139
30
0
41
1
10
26.4573554154337
20
1.90625418508003
30
0
0
SPLINE
5
2B7
100
AcDbEntity
8
1
62
256
6
ByLayer
370
18
48
1
60
0
100
AcDbSpline
70
4
71
2
72
6
73
3
40
0
40
0
40
0
40
1
40
1
40
1
41
1.01099390408676
10
28.3265602857972
20
2.32197931809154
30
0
41
0.949123464872365
10
28.2307085473005
20
2.32972452504288
30
0
41
0.986735461388409
10
28.120510293616
20
2.32807192311251
30
0
0
SPLINE
5
2B8
100
AcDbEntity
8
1
62
256
6
ByLayer
370
18
48
1
60
0
100
AcDbSpline
70
4
71
3
72
8
73
4
40
0
40
0
40
0
40
0
40
1
40
1
40
1
40
1
41
1
10
28.9981894135325
20
1.64217299124118
30
0
41
1
10
29.0505033686761
20
1.61473403217684
30
0
41
1
10
29.0984190337858
20
1.6173944513167
30
0
41
1
10
29.1371743378074
20
1.6497413000765
30
0
0
SPLINE
5
2B9
100
AcDbEntity
8
1
62
256
6
ByLayer
370
18
48
1
60
0
100
AcDbSpline
70
4
71
3
72
14
73
10
40
0
40
0
40
0
40
0
40
0.25
40
0.25
40
0.5
40
0.5
40
0.75
40
0.75
40
1
40
1
40
1
40
1
41
1
10
24.4786449626483
20
-0.138427342604416
30
0
41
1
10
24.4403591607191
20
-0.139841176144387
30
0
41
1
10
24.4037088128289
20
-0.141753870246106
30
0
41
1
10
24.3335452194567
20
-0.146536164992113
30
0
41
1
10
24.2996963785894
20
-0.149444666744614
30
0
41
1
10
24.2372180943493
20
-0.156082389916804
30
0
41
1
10
24.2086458873271
20
-0.159787553175249
30
0
41
1
10
24.1567865025918
20
-0.167963408505415
30
0
41
1
10
24.1334487942988
20
-0.172462509110943
30
0
41
1
10
24.113641240089
20
-0.17721048416891
30
0
0
SPLINE
5
2BA
100
AcDbEntity
8
1
62
256
6
ByLayer
370
18
48
1
60
0
100
AcDbSpline
70
4
71
2
72
6
73
3
40
0
40
0
40
0
40
1
40
1
40
1
41
0.500000575175657
10
27.026755876941
20
2.01145484515851
30
0
41
0.499999424824343
10
27.0227279394703
20
2.01009911339042
30
0
41
0.500000575175657
10
27.018697736792
20
2.00875911086422
30
0
0
SPLINE
5
2BB
100
AcDbEntity
8
1
62
256
6
ByLayer
370
13
48
1
60
0
100
AcDbSpline
70
4
71
3
72
8
73
4
40
0
40
0
40
0
40
0
40
1
40
1
40
1
40
1
41
1
10
28.1368190215412
20
2.36512700599724
30
0
41
1
10
28.1371153676123
20
2.36600663681406
30
0
41
1
10
28.1373558672695
20
2.36689554486014
30
0
41
1
10
28.1375378414667
20
2.36778766875264
30
0
0
SPLINE
5
2BC
100
AcDbEntity
8
1
62
256
6
ByLayer
370
18
48
1
60
0
100
AcDbSpline
70
4
71
3
72
8
73
4
40
0
40
0
40
0
40
0
40
1
40
1
40
1
40
1
41
1
10
28.968944366234
20
1.71995862394925
30
0
41
1
10
28.9498827455655
20
1.70469337853024
30
0
41
1
10
28.9289914923329
20
1.69663309984767
30
0
41
1
10
28.9065130611714
20
1.69580495754909
30
0
0
SPLINE
5
2BD
100
AcDbEntity
8
1
62
256
6
ByLayer
370
18
48
1
60
0
100
AcDbSpline
70
4
71
3
72
14
73
10
40
0
40
0
40
0
40
0
40
0.25
40
0.25
40
0.5
40
0.5
40
0.75
40
0.75
40
1
40
1
40
1
40
1
41
1
10
25.0271664703548
20
-0.751723329934549
30
0
41
1
10
25.0373252835896
20
-0.757051683711779
30
0
41
1
10
25.0510685578901
20
-0.762152426278931
30
0
41
1
10
25.0854307637547
20
-0.771917311143028
30
0
41
1
10
25.1063292113169
20
-0.776628159290453
30
0
41
1
10
25.1540232206218
20
-0.785323455850801
30
0
41
1
10
25.1806459173419
20
-0.789299938503348
30
0
41
1
10
25.2393918623109
20
-0.796517369890836
30
0
41
1
10
25.2717192342993
20
-0.799765351123284
30
0
41
1
10
25.3058348430286
20
-0.802522029865088
30
0
0
SPLINE
5
2BE
100
AcDbEntity
8
1
62
256
6
ByLayer
370
18
48
1
60
0
100
AcDbSpline
70
4
71
3
72
8
73
4
40
0
40
0
40
0
40
0
40
1
40
1
40
1
40
1
41
1
10
26.4144544680594
20
1.85094919263267
30
0
41
1
10
26.61161152553
20
1.85822988799347
30
0
41
1
10
26.8159999005395
20
1.89600424278149
30
0
41
1
10
27.0071793264969
20
1.96035182093087
30
0
0
SPLINE
5
2BF
100
AcDbEntity
8
1
62
256
6
ByLayer
370
18
48
1
60
0
100
AcDbSpline
70
4
71
2
72
6
73
3
40
0
40
0
40
0
40
1
40
1
40
1
41
1.01099390408676
10
24.5961253753579
20
2.18422031268384
30
0
41
0.949123464872369
10
24.6517769840231
20
2.19756029636286
30
0
41
0.986735461388407
10
24.7533656989084
20
2.20372864905274
30
0
0
SPLINE
5
2C0
100
AcDbEntity
8
1
62
256
6
ByLayer
370
13
48
1
60
0
100
AcDbSpline
70
4
71
3
72
8
73
4
40
0
40
0
40
0
40
0
40
1
40
1
40
1
40
1
41
1
10
29.3119884175559
20
1.82970410381552
30
0
41
1
10
29.3099051933758
20
1.82963611291771
30
0
41
1
10
29.307839582369
20
1.82958216373493
30
0
41
1
10
29.3058012221742
20
1.82954215021979
30
0
0
SPLINE
5
2C1
100
AcDbEntity
8
1
62
256
6
ByLayer
370
18
48
1
60
0
100
AcDbSpline
70
4
71
3
72
8
73
4
40
0
40
0
40
0
40
0
40
1
40
1
40
1
40
1
41
1
10
28.9981894135325
20
1.64217299124118
30
0
41
1
10
28.9458754583889
20
1.66961195030552
30
0
41
1
10
28.8861566865366
20
1.72872722745819
30
0
41
1
10
28.8250312989912
20
1.81346205184897
30
0
0
SPLINE
5
2C2
100
AcDbEntity
8
1
62
256
6
ByLayer
370
13
48
1
60
0
100
AcDbSpline
70
4
71
1
72
4
73
2
40
0
40
0
40
1
40
1
41
1.01099390408676
10
28.0703058355376
20
2.31818120440453
30
0
41
1.01099390408676
10
28.1515466473419
20
-0.0027929473687014
30
0
0
SPLINE
5
2C3
100
AcDbEntity
8
1
62
256
6
ByLayer
370
18
48
1
60
0
100
AcDbSpline
70
4
71
3
72
8
73
4
40
0
40
0
40
0
40
0
40
1
40
1
40
1
40
1
41
1
10
28.4822223060824
20
2.28851272163064
30
0
41
1
10
28.4832254115928
20
2.28723327718831
30
0
41
1
10
28.4841914765233
20
2.28594989465876
30
0
41
1
10
28.4851201419752
20
2.28466253588451
30
0
0
SPLINE
5
2C4
100
AcDbEntity
8
1
62
256
6
ByLayer
370
18
48
1
60
0
100
AcDbSpline
70
4
71
3
72
14
73
10
40
0
40
0
40
0
40
0
40
0.25
40
0.25
40
0.5
40
0.5
40
0.75
40
0.75
40
1
40
1
40
1
40
1
41
1
10
29.4338800026352
20
-0.675383890763754
30
0
41
1
10
29.4721658045644
20
-0.673970057223784
30
0
41
1
10
29.5088161524547
20
-0.672057363122065
30
0
41
1
10
29.5789797458268
20
-0.667275068376057
30
0
41
1
10
29.6128285866942
20
-0.664366566623556
30
0
41
1
10
29.6753068709343
20
-0.657728843451366
30
0
41
1
10
29.7038790779565
20
-0.654023680192921
30
0
41
1
10
29.7557384626918
20
-0.645847824862756
30
0
41
1
10
29.7790761709848
20
-0.641348724257227
30
0
41
1
10
29.7988837251945
20
-0.63660074919926
30
0
0
SPLINE
5
2C5
100
AcDbEntity
8
1
62
256
6
ByLayer
370
18
48
1
60
0
100
AcDbSpline
70
4
71
2
72
6
73
3
40
0
40
0
40
0
40
1
40
1
40
1
41
0.500000575252767
10
25.8963847960643
20
1.96971204583841
30
0
41
0.499999424747233
10
25.9002876746939
20
1.96864918644688
30
0
41
0.500000575252767
10
25.9041986172272
20
1.96760243773493
30
0
0
SPLINE
5
2C6
100
AcDbEntity
8
1
62
256
6
ByLayer
370
18
48
1
60
0
100
AcDbSpline
70
4
71
2
72
6
73
3
40
0
40
0
40
0
40
1
40
1
40
1
41
1.01099390408677
10
28.3265602857972
20
2.32197931809153
30
0
41
0.949123464872364
10
28.4224120242939
20
2.3142341111402
30
0
41
0.986735461388406
10
28.4667334674993
20
2.30009569466706
30
0
0
SPLINE
5
2C7
100
AcDbEntity
8
1
62
256
6
ByLayer
370
18
48
1
60
0
100
AcDbSpline
70
4
71
3
72
24
73
20
40
0
40
0
40
0
40
0
40
0.125000000000002
40
0.125000000000002
40
0.250000000000004
40
0.250000000000004
40
0.375000000000006
40
0.375000000000006
40
0.437500000000006
40
0.437500000000006
40
0.500000000000007
40
0.500000000000007
40
0.625000000000006
40
0.625000000000006
40
0.750000000000004
40
0.750000000000004
40
0.875000000000002
40
0.875000000000002
40
1
40
1
40
1
40
1
41
1
10
25.3515296985366
20
-1.68180756155016
30
0
41
1
10
25.2768869470778
20
-1.66759479450221
30
0
41
1
10
25.2039002118625
20
-1.64775828328226
30
0
41
1
10
25.0615656168892
20
-1.59620025022051
30
0
41
1
10
24.9926154962806
20
-1.56444323292021
30
0
41
1
10
24.8641290693261
20
-1.49165125898676
30
0
41
1
10
24.8038991150245
20
-1.45038233085702
30
0
41
1
10
24.7197150827601
20
-1.38193547893877
30
0
41
1
10
24.6925381567352
20
-1.35787862597127
30
0
41
1
10
24.6413779744549
20
-1.30883060775904
30
0
41
1
10
24.6172992236824
20
-1.28378630747832
30
0
41
1
10
24.5492652166857
20
-1.20758242059915
30
0
41
1
10
24.5095054194701
20
-1.15534580955489
30
0
41
1
10
24.4398559159265
20
-1.05059143125763
30
0
41
1
10
24.410901991159
20
-0.999469148417575
30
0
41
1
10
24.3622974016575
20
-0.903104102502567
30
0
41
1
10
24.3424240273311
20
-0.857312771262826
30
0
41
1
10
24.3092876209003
20
-0.775412342049947
30
0
41
1
10
24.2960013504075
20
-0.739420492210968
30
0
41
1
10
24.2837920937816
20
-0.708846058800901
30
0
0
SPLINE
5
2C8
100
AcDbEntity
8
1
62
256
6
ByLayer
370
18
48
1
60
0
100
AcDbSpline
70
4
71
3
72
14
73
10
40
0
40
0
40
0
40
0
40
0.25
40
0.25
40
0.5
40
0.5
40
0.75
40
0.75
40
1
40
1
40
1
40
1
41
1
10
21.8048058195885
20
-0.543208225238487
30
0
41
1
10
21.6415956149393
20
-0.550175856023543
30
0
41
1
10
21.4776369259263
20
-0.562990693680149
30
0
41
1
10
21.1500919044277
20
-0.598081486144906
30
0
41
1
10
20.9864646266029
20
-0.620460145083683
30
0
41
1
10
20.6605865545733
20
-0.676147642826379
30
0
41
1
10
20.4983094573066
20
-0.709407317042178
30
0
41
1
10
20.1763031767683
20
-0.79093900585309
30
0
41
1
10
20.0164988545415
20
-0.838879506561483
30
0
41
1
10
19.8592305691084
20
-0.899967910658205
30
0
0
SPLINE
5
2C9
100
AcDbEntity
8
1
62
256
6
ByLayer
370
18
48
1
60
0
100
AcDbSpline
70
4
71
3
72
14
73
10
40
0
40
0
40
0
40
0
40
0.500000000000002
40
0.500000000000002
40
0.750000000000001
40
0.750000000000001
40
0.875000000000001
40
0.875000000000001
40
1
40
1
40
1
40
1
41
1
10
1.59999999999999
20
4.65000000000001
30
0
41
1
10
1.59999999999999
20
4.70534128331542
30
0
41
1
10
1.61213936022963
20
4.76117950539788
30
0
41
1
10
1.6580782794729
20
4.83499920749549
30
0
41
1
10
1.67829727363056
20
4.85796159359393
30
0
41
1
10
1.71787216843759
20
4.88447032068242
30
0
41
1
10
1.73285568750765
20
4.89202781083787
30
0
41
1
10
1.76503443495759
20
4.90244831790645
30
0
41
1
10
1.78259788897961
20
4.90535421758716
30
0
41
1
10
1.79999999999998
20
4.90535421758716
30
0
0
SPLINE
5
2CA
100
AcDbEntity
8
1
62
256
6
ByLayer
370
18
48
1
60
0
100
AcDbSpline
70
4
71
3
72
8
73
4
40
0
40
0
40
0
40
0
40
1
40
1
40
1
40
1
41
1
10
26.3724887937144
20
-1.77657241209502
30
0
41
1
10
26.3392278369539
20
-1.80168679227137
30
0
41
1
10
26.3054438718835
20
-1.82526097085579
30
0
41
1
10
26.2709174483723
20
-1.84709366247566
30
0
0
SPLINE
5
2CB
100
AcDbEntity
8
1
62
256
6
ByLayer
370
18
48
1
60
0
100
AcDbSpline
70
4
71
3
72
8
73
4
40
0
40
0
40
0
40
0
40
1
40
1
40
1
40
1
41
1
10
24.6379121629684
20
-5.86030895915587
30
0
41
1
10
24.5265162058278
20
-5.81905048601834
30
0
41
1
10
24.414961663805
20
-5.77730971614329
30
0
41
1
10
24.3032820463735
20
-5.73499722023877
30
0
0
SPLINE
5
2CC
100
AcDbEntity
8
1
62
256
6
ByLayer
370
18
48
1
60
0
100
AcDbSpline
70
4
71
3
72
8
73
4
40
0
40
0
40
0
40
0
40
1
40
1
40
1
40
1
41
1
10
19.784646365174
20
-2.12947300204664
30
0
41
1
10
19.8662450107131
20
-2.16604831173225
30
0
41
1
10
19.9494546147051
20
-2.19855038983562
30
0
41
1
10
20.0338406085362
20
-2.22804486400537
30
0
0
SPLINE
5
2CD
100
AcDbEntity
8
1
62
256
6
ByLayer
370
18
48
1
60
0
100
AcDbSpline
70
4
71
3
72
8
73
4
40
0
40
0
40
0
40
0
40
1
40
1
40
1
40
1
41
1
10
28.7955897781853
20
6.15321247271817
30
0
41
1
10
28.8707512363159
20
5.71987297533335
30
0
41
1
10
28.9406282608706
20
5.28548288955244
30
0
41
1
10
29.0033321893635
20
4.84966673390454
30
0
0
SPLINE
5
2CE
100
AcDbEntity
8
1
62
256
6
ByLayer
370
18
48
1
60
0
100
AcDbSpline
70
4
71
3
72
10
73
6
40
0
40
0
40
0
40
0
40
0.5
40
0.5
40
1
40
1
40
1
40
1
41
1
10
24.3032820463735
20
-5.73499722023877
30
0
41
1
10
23.7344050483584
20
-5.5194645545449
30
0
41
1
10
23.1587995458085
20
-5.33150872627269
30
0
41
1
10
21.9932189410226
20
-5.01449100556519
30
0
41
1
10
21.4032471964764
20
-4.88541535160724
30
0
41
1
10
20.8050726932624
20
-4.7899587791288
30
0
0
SPLINE
5
2CF
100
AcDbEntity
8
1
62
256
6
ByLayer
370
18
48
1
60
0
100
AcDbSpline
70
4
71
3
72
8
73
4
40
0
40
0
40
0
40
0
40
1
40
1
40
1
40
1
41
1
10
24.6379121629686
20
6.15402300037934
30
0
41
1
10
24.8177440615814
20
6.15622799078537
30
0
41
1
10
24.998641741067
20
6.16238058842774
30
0
41
1
10
25.1805582372411
20
6.17274069749146
30
0
0
SPLINE
5
2D0
100
AcDbEntity
8
1
62
256
6
ByLayer
370
18
48
1
60
0
100
AcDbSpline
70
4
71
3
72
9
73
5
40
0
40
0
40
0
40
0
40
0.5
40
1
40
1
40
1
40
1
41
1
10
20.8050726932624
20
7.99503598597465
30
0
41
1
10
21.2643025967445
20
7.99503598597465
30
0
41
1
10
22.1786753732967
20
8.03736579153983
30
0
41
1
10
23.0849938642964
20
8.16311468310016
30
0
41
1
10
23.5361208819798
20
8.24703712697848
30
0
0
SPLINE
5
2D1
100
AcDbEntity
8
1
62
256
6
ByLayer
370
18
48
1
60
0
100
AcDbSpline
70
4
71
3
72
8
73
4
40
0
40
0
40
0
40
0
40
1
40
1
40
1
40
1
41
1
10
24.6379121629687
20
-5.86030895915525
30
0
41
1
10
24.8180511945713
20
-5.92702826914797
30
0
41
1
10
24.9989533051527
20
-5.98933424210793
30
0
41
1
10
25.1805582372411
20
-6.04736348565996
30
0
0
SPLINE
5
2D2
100
AcDbEntity
8
1
62
256
6
ByLayer
370
18
48
1
60
0
100
AcDbSpline
70
4
71
3
72
8
73
4
40
0
40
0
40
0
40
0
40
1
40
1
40
1
40
1
41
1
10
26.4164029917904
20
-1.85420927335781
30
0
41
1
10
26.367801700918
20
-1.85376616841484
30
0
41
1
10
26.3193160100913
20
-1.85125448016694
30
0
41
1
10
26.2709174483725
20
-1.8470936624733
30
0
0
SPLINE
5
2D3
100
AcDbEntity
8
1
62
256
6
ByLayer
370
18
48
1
60
0
100
AcDbSpline
70
4
71
3
72
8
73
4
40
0
40
0
40
0
40
0
40
1
40
1
40
1
40
1
41
1
10
28.5254924192113
20
-7.70129808451924
30
0
41
1
10
28.6725972212589
20
-7.10712500350499
30
0
41
1
10
28.8174224530163
20
-6.51255631521624
30
0
41
1
10
28.9580203723131
20
-5.91725399938028
30
0
0
SPLINE
5
2D4
100
AcDbEntity
8
1
62
256
6
ByLayer
370
18
48
1
60
0
100
AcDbSpline
70
4
71
3
72
8
73
4
40
0
40
0
40
0
40
0
40
1
40
1
40
1
40
1
41
1
10
27.914637447041
20
-8.99982768344807
30
0
41
1
10
26.9966948736862
20
-8.75720008508091
30
0
41
1
10
26.0787991336741
20
-8.51439854051486
30
0
41
1
10
25.1609641149645
20
-8.27137409552179
30
0
0
SPLINE
5
2D5
100
AcDbEntity
8
1
62
256
6
ByLayer
370
18
48
1
60
0
100
AcDbSpline
70
4
71
3
72
8
73
4
40
0
40
0
40
0
40
0
40
1
40
1
40
1
40
1
41
1
10
23.968081704534
20
-8.33720885005343
30
0
41
1
10
24.0160231052011
20
-8.34893189084147
30
0
41
1
10
24.0692562546271
20
-8.34182809372564
30
0
41
1
10
24.1276679044071
20
-8.3163003707603
30
0
0
SPLINE
5
2D6
100
AcDbEntity
8
1
62
256
6
ByLayer
370
18
48
1
60
0
100
AcDbSpline
70
4
71
3
72
14
73
10
40
0
40
0
40
0
40
0
40
0.0943534852575815
40
0.0943534852575815
40
0.396235656838388
40
0.396235656838388
40
0.698117828419194
40
0.698117828419194
40
1
40
1
40
1
40
1
41
1
10
24.1213372592721
20
6.16351553652217
30
0
41
1
10
24.1205329590724
20
6.17949855962672
30
0
41
1
10
24.1194017459135
20
6.19556000642694
30
0
41
1
10
24.1131015348312
20
6.2633322178657
30
0
41
1
10
24.1042739248761
20
6.3164070159151
30
0
41
1
10
24.0773412675951
20
6.41995038366463
30
0
41
1
10
24.0593203122789
20
6.47054660440827
30
0
41
1
10
24.014829776207
20
6.56964635205159
30
0
41
1
10
23.9886456134934
20
6.61752404270683
30
0
41
1
10
23.9604747402185
20
6.66332696761711
30
0
0
SPLINE
5
2D7
100
AcDbEntity
8
1
62
256
6
ByLayer
370
18
48
1
60
0
100
AcDbSpline
70
4
71
3
72
28
73
24
40
0
40
0
40
0
40
0
40
0.124999999999999
40
0.124999999999999
40
0.249999999999997
40
0.249999999999997
40
0.312499999999996
40
0.312499999999996
40
0.374999999999995
40
0.374999999999995
40
0.437499999999994
40
0.437499999999994
40
0.499999999999993
40
0.499999999999993
40
0.624999999999992
40
0.624999999999992
40
0.749999999999992
40
0.749999999999992
40
0.812499999999994
40
0.812499999999994
40
0.874999999999996
40
0.874999999999996
40
1
40
1
40
1
40
1
41
1
10
24.1276679044075
20
0.969457453610914
30
0
41
1
10
24.0621655379426
20
1.02462417215995
30
0
41
1
10
24.0053884795634
20
1.08841211943772
30
0
41
1
10
23.9109468743189
20
1.23338323558048
30
0
41
1
10
23.8754705905502
20
1.31115581784511
30
0
41
1
10
23.8401370203132
20
1.43560679952515
30
0
41
1
10
23.8314625645182
20
1.47840718767091
30
0
41
1
10
23.8208603157876
20
1.56374433315145
30
0
41
1
10
23.8188127784852
20
1.60664267171629
30
0
41
1
10
23.8212523647769
20
1.6928963790804
30
0
41
1
10
23.8258293379137
20
1.7366144100431
30
0
41
1
10
23.8414096532376
20
1.82210393044428
30
0
41
1
10
23.8523534174253
20
1.86399210374952
30
0
41
1
10
23.8943937559472
20
1.98718315434851
30
0
41
1
10
23.9353090395192
20
2.06652959954354
30
0
41
1
10
24.0363676770913
20
2.20922803256724
30
0
41
1
10
24.0979111118459
20
2.27462275538005
30
0
41
1
10
24.199985808635
20
2.35787826582777
30
0
41
1
10
24.2357149298524
20
2.38333435072482
30
0
41
1
10
24.3105345326403
20
2.42971164491411
30
0
41
1
10
24.3498447366359
20
2.45069419297141
30
0
41
1
10
24.4694084826263
20
2.50507244261519
30
0
41
1
10
24.5525781701613
20
2.53082960519626
30
0
41
1
10
24.6379121629687
20
2.54571701616968
30
0
0
SPLINE
5
2D8
100
AcDbEntity
8
1
62
256
6
ByLayer
370
18
48
1
60
0
100
AcDbSpline
70
4
71
3
72
10
73
6
40
0
40
0
40
0
40
0
40
0.5
40
0.5
40
1
40
1
40
1
40
1
41
1
10
26.6586043430025
20
-1.21867694577759
30
0
41
1
10
26.6203667246376
20
-1.32048237583768
30
0
41
1
10
26.5748058281204
20
-1.41804207500678
30
0
41
1
10
26.4747863664962
20
-1.60706358726338
30
0
41
1
10
26.4224473471638
20
-1.69422761003989
30
0
41
1
10
26.372488793714
20
-1.77657241209496
30
0
0
SPLINE
5
2D9
100
AcDbEntity
8
1
62
256
6
ByLayer
370
18
48
1
60
0
100
AcDbSpline
70
4
71
3
72
12
73
8
40
0
40
0
40
0
40
0
40
0.5
40
0.5
40
0.75
40
0.75
40
1
40
1
40
1
40
1
41
1
10
17.9739345884879
20
-4.09213068396315
30
0
41
1
10
18.2787138617503
20
-4.22127731392393
30
0
41
1
10
18.5923758631878
20
-4.33126128249865
30
0
41
1
10
19.0764835301698
20
-4.46920173516602
30
0
41
1
10
19.2401257666459
20
-4.51066196472564
30
0
41
1
10
19.5720659945199
20
-4.58463609247326
30
0
41
1
10
19.7398266318045
20
-4.61701061252077
30
0
41
1
10
19.908332280594
20
-4.64471220922897
30
0
0
SPLINE
5
2DA
100
AcDbEntity
8
1
62
256
6
ByLayer
370
18
48
1
60
0
100
AcDbSpline
70
4
71
3
72
8
73
4
40
0
40
0
40
0
40
0
40
1
40
1
40
1
40
1
41
1
10
25.2647946015329
20
6.038283524138
30
0
41
1
10
25.2367053762578
20
6.08296247931699
30
0
41
1
10
25.2086264329411
20
6.12778022498998
30
0
41
1
10
25.1805582372411
20
6.17274069749146
30
0
0
SPLINE
5
2DB
100
AcDbEntity
8
1
62
256
6
ByLayer
370
18
48
1
60
0
100
AcDbSpline
70
4
71
3
72
25
73
21
40
0
40
0
40
0
40
0
40
0.125000000000002
40
0.125000000000002
40
0.250000000000004
40
0.250000000000004
40
0.312500000000006
40
0.312500000000006
40
0.375000000000007
40
0.437500000000008
40
0.437500000000008
40
0.500000000000009
40
0.500000000000009
40
0.625000000000007
40
0.625000000000007
40
0.750000000000004
40
0.750000000000004
40
0.875000000000002
40
0.875000000000002
40
1
40
1
40
1
40
1
41
1
10
27.0993242205
20
5.6809211134958
30
0
41
1
10
27.0054346791182
20
5.65729425630659
30
0
41
1
10
26.9068166198837
20
5.6381551312889
30
0
41
1
10
26.7100269214926
20
5.61144652262735
30
0
41
1
10
26.6114183765511
20
5.6036259608849
30
0
41
1
10
26.4631841886576
20
5.60037606592692
30
0
41
1
10
26.4135289817205
20
5.60073684718239
30
0
41
1
10
26.3165204217777
20
5.60427821281351
30
0
41
1
10
26.2212590047469
20
5.61060441853098
30
0
41
1
10
26.1294120119221
20
5.6222482746559
30
0
41
1
10
26.0392829919128
20
5.63648919836157
30
0
41
1
10
25.9948436804884
20
5.64496889363679
30
0
41
1
10
25.8666985019368
20
5.67369349622012
30
0
41
1
10
25.7876475937273
20
5.69719675279558
30
0
41
1
10
25.6416980892607
20
5.75174423095172
30
0
41
1
10
25.5748665319312
20
5.78293341007011
30
0
41
1
10
25.4585281174872
20
5.8494103668055
30
0
41
1
10
25.4081875522168
20
5.8849741303863
30
0
41
1
10
25.323269728955
20
5.96006824110643
30
0
41
1
10
25.289627720065
20
5.99878375940668
30
0
41
1
10
25.2647946015329
20
6.038283524138
30
0
0
SPLINE
5
2DC
100
AcDbEntity
8
1
62
256
6
ByLayer
370
18
48
1
60
0
100
AcDbSpline
70
4
71
3
72
8
73
4
40
0
40
0
40
0
40
0
40
1
40
1
40
1
40
1
41
1
10
24.2388099021224
20
1.09186238012231
30
0
41
1
10
24.2013146788839
20
1.04809399514059
30
0
41
1
10
24.1712593505512
20
1.01108370555781
30
0
41
1
10
24.1440091145857
20
0.984147653122363
30
0
0
SPLINE
5
2DD
100
AcDbEntity
8
1
62
256
6
ByLayer
370
18
48
1
60
0
100
AcDbSpline
70
4
71
3
72
8
73
4
40
0
40
0
40
0
40
0
40
1
40
1
40
1
40
1
41
1
10
26.4164029917904
20
-1.85420927335778
30
0
41
1
10
26.4020564270462
20
-1.82862651218562
30
0
41
1
10
26.3873374333029
20
-1.80267173626137
30
0
41
1
10
26.3724887937161
20
-1.77657241209482
30
0
0
SPLINE
5
2DE
100
AcDbEntity
8
1
62
256
6
ByLayer
370
18
48
1
60
0
100
AcDbSpline
70
4
71
3
72
12
73
8
40
0
40
0
40
0
40
0
40
0.25
40
0.25
40
0.5
40
0.5
40
1
40
1
40
1
40
1
41
1
10
19.2577750622496
20
-1.72915178185559
30
0
41
1
10
19.2863719333028
20
-1.77679715661216
30
0
41
1
10
19.3223818766205
20
-1.81994791928636
30
0
41
1
10
19.4025102005705
20
-1.89876414070238
30
0
41
1
10
19.4458911779254
20
-1.93377901871796
30
0
41
1
10
19.5824390272022
20
-2.03033819137548
30
0
41
1
10
19.6822889814342
20
-2.08359291440357
30
0
41
1
10
19.784646365174
20
-2.12947300204667
30
0
0
SPLINE
5
2DF
100
AcDbEntity
8
1
62
256
6
ByLayer
370
18
48
1
60
0
100
AcDbSpline
70
4
71
3
72
8
73
4
40
0
40
0
40
0
40
0
40
1
40
1
40
1
40
1
41
1
10
28.7955897781853
20
-5.1084399124781
30
0
41
1
10
28.8707161820065
20
-5.18944346254654
30
0
41
1
10
28.9405958716642
20
-5.26921397986345
30
0
41
1
10
29.0033321893635
20
-5.34730572999271
30
0
0
SPLINE
5
2E0
100
AcDbEntity
8
1
62
256
6
ByLayer
370
18
48
1
60
0
100
AcDbSpline
70
4
71
3
72
10
73
6
40
0
40
0
40
0
40
0
40
0.5
40
0.5
40
1
40
1
40
1
40
1
41
1
10
19.2422988212384
20
-1.34291597151403
30
0
41
1
10
19.2498413845069
20
-1.40475006095363
30
0
41
1
10
19.2549496395119
20
-1.46787610478427
30
0
41
1
10
19.2601999930712
20
-1.59676386834983
30
0
41
1
10
19.2603110408682
20
-1.66303977783815
30
0
41
1
10
19.2577750622523
20
-1.72915178185423
30
0
0
SPLINE
5
2E1
100
AcDbEntity
8
1
62
256
6
ByLayer
370
18
48
1
60
0
100
AcDbSpline
70
4
71
3
72
10
73
6
40
0
40
0
40
0
40
0
40
0.5
40
0.5
40
1
40
1
40
1
40
1
41
1
10
17.9739345884879
20
7.99503598597471
30
0
41
1
10
17.9428078127793
20
7.99503598597471
30
0
41
1
10
17.9116084796945
20
7.99430569245914
30
0
41
1
10
17.8490621530503
20
7.99135889558298
30
0
41
1
10
17.8176495246728
20
7.98913323857087
30
0
41
1
10
17.7864789249706
20
7.98618222776292
30
0
0
SPLINE
5
2E2
100
AcDbEntity
8
1
62
256
6
ByLayer
370
18
48
1
60
0
100
AcDbSpline
70
4
71
3
72
14
73
10
40
0
40
0
40
0
40
0
40
0.125000000000001
40
0.125000000000001
40
0.250000000000002
40
0.250000000000002
40
0.500000000000004
40
0.500000000000004
40
1
40
1
40
1
40
1
41
1
10
1.80000000000001
20
-4.90535421758716
30
0
41
1
10
1.78251484662277
20
-4.90535421758716
30
0
41
1
10
1.76503649319912
20
-4.90247051697739
30
0
41
1
10
1.73246377859974
20
-4.89187910642906
30
0
41
1
10
1.71780472023036
20
-4.88444726209863
30
0
41
1
10
1.67788944962282
20
-4.85764372244017
30
0
41
1
10
1.6578425574742
20
-4.83469367641814
30
0
41
1
10
1.6120877835609
20
-4.76094885846263
30
0
41
1
10
1.59999999999999
20
-4.70526938409637
30
0
41
1
10
1.59999999999999
20
-4.65000000000001
30
0
0
SPLINE
5
2E3
100
AcDbEntity
8
1
62
256
6
ByLayer
370
18
48
1
60
0
100
AcDbSpline
70
4
71
3
72
8
73
4
40
0
40
0
40
0
40
0
40
1
40
1
40
1
40
1
41
1
10
23.968081704534
20
-0.034310053337947
30
0
41
1
10
24.0160478141067
20
0.301475119746783
30
0
41
1
10
24.0692861129086
20
0.636054477227702
30
0
41
1
10
24.1276679044076
20
0.969457453611
30
0
0
SPLINE
5
2E4
100
AcDbEntity
8
1
62
256
6
ByLayer
370
18
48
1
60
0
100
AcDbSpline
70
4
71
3
72
8
73
4
40
0
40
0
40
0
40
0
40
1
40
1
40
1
40
1
41
1
10
28.5254924192113
20
4.67558499803343
30
0
41
1
10
28.6725534265612
20
4.59210427778862
30
0
41
1
10
28.8173712828512
20
4.50854868687995
30
0
41
1
10
28.9580203723131
20
4.42485395316214
30
0
0
SPLINE
5
2E5
100
AcDbEntity
8
1
62
256
6
ByLayer
370
18
48
1
60
0
100
AcDbSpline
70
4
71
3
72
8
73
4
40
0
40
0
40
0
40
0
40
1
40
1
40
1
40
1
41
1
10
20.8050726932624
20
-0.281779316079451
30
0
41
1
10
21.7196438886146
20
-0.281779316079451
30
0
41
1
10
22.6300214043519
20
-0.270052463508819
30
0
41
1
10
23.5361208819798
20
-0.246362865376824
30
0
0
SPLINE
5
2E6
100
AcDbEntity
8
1
62
256
6
ByLayer
370
18
48
1
60
0
100
AcDbSpline
70
4
71
3
72
8
73
4
40
0
40
0
40
0
40
0
40
1
40
1
40
1
40
1
41
1
10
23.968081704534
20
8.33720885005343
30
0
41
1
10
23.9924110551192
20
8.34315807067046
30
0
41
1
10
24.0181058368856
20
8.34425928510595
30
0
41
1
10
24.0451520660493
20
8.34056214322189
30
0
0
SPLINE
5
2E7
100
AcDbEntity
8
1
62
256
6
ByLayer
370
18
48
1
60
0
100
AcDbSpline
70
4
71
3
72
32
73
28
40
0
40
0
40
0
40
0
40
0.0625000000000007
40
0.0625000000000007
40
0.125000000000001
40
0.125000000000001
40
0.25
40
0.25
40
0.374999999999999
40
0.374999999999999
40
0.437499999999998
40
0.437499999999998
40
0.499999999999998
40
0.499999999999998
40
0.562499999999997
40
0.562499999999997
40
0.624999999999996
40
0.624999999999996
40
0.687499999999995
40
0.687499999999995
40
0.749999999999995
40
0.749999999999995
40
0.874999999999997
40
0.874999999999997
40
0.937499999999999
40
0.937499999999999
40
1
40
1
40
1
40
1
41
1
10
24.127667904409
20
-8.3163003707605
30
0
41
1
10
24.0950860650872
20
-8.30565046896251
30
0
41
1
10
24.0645751912804
20
-8.29518038442512
30
0
41
1
10
24.007829169027
20
-8.27438568421186
30
0
41
1
10
23.9814363596984
20
-8.26398475033122
30
0
41
1
10
23.9112327285853
20
-8.23357325216867
30
0
41
1
10
23.8754833502723
20
-8.21406640292454
30
0
41
1
10
23.8281829156571
20
-8.17572710550223
30
0
41
1
10
23.8175808021058
20
-8.15771714191172
30
0
41
1
10
23.8212568164481
20
-8.13210572004158
30
0
41
1
10
23.8258479827539
20
-8.12387300441389
30
0
41
1
10
23.8413387963431
20
-8.10849120408565
30
0
41
1
10
23.8522407885892
20
-8.10127344066873
30
0
41
1
10
23.8803477608191
20
-8.08789512730829
30
0
41
1
10
23.8977092316474
20
-8.08171099831091
30
0
41
1
10
23.9376842275914
20
-8.07094867779369
30
0
41
1
10
23.9603595812991
20
-8.0663182945695
30
0
41
1
10
24.0109369226697
20
-8.05872258448611
30
0
41
1
10
24.0390718938764
20
-8.05574468703773
30
0
41
1
10
24.0995286135873
20
-8.05181004484874
30
0
41
1
10
24.1316837173674
20
-8.0508455109163
30
0
41
1
10
24.2336442042524
20
-8.05116140618486
30
0
41
1
10
24.3100059454404
20
-8.05580587446582
30
0
41
1
10
24.4291246710706
20
-8.06986579115625
30
0
41
1
10
24.4697519736711
20
-8.07571788747995
30
0
41
1
10
24.5528297507385
20
-8.08988357545104
30
0
41
1
10
24.5954944813819
20
-8.09825741445124
30
0
41
1
10
24.6379121629687
20
-8.10768432165051
30
0
0
SPLINE
5
2E8
100
AcDbEntity
8
1
62
256
6
ByLayer
370
18
48
1
60
0
100
AcDbSpline
70
4
71
3
72
16
73
12
40
0
40
0
40
0
40
0
40
0.125000000000002
40
0.125000000000002
40
0.250000000000004
40
0.250000000000004
40
0.500000000000002
40
0.500000000000002
40
0.750000000000001
40
0.750000000000001
40
1
40
1
40
1
40
1
41
1
10
6.90000000000001
20
4.90535421758716
30
0
41
1
10
6.91739312848776
20
4.90535421758716
30
0
41
1
10
6.93494549442124
20
4.9024628440784
30
0
41
1
10
6.96731013381316
20
4.89196604970263
30
0
41
1
10
6.98210768802585
20
4.88448630331604
30
0
41
1
10
7.02180411251877
20
4.85788869614038
30
0
41
1
10
7.04190159140342
20
4.83503157235108
30
0
41
1
10
7.07256788629732
20
4.78575356250858
30
0
41
1
10
7.0829327009634
20
4.75976307659536
30
0
41
1
10
7.09673965542171
20
4.70576824245808
30
0
41
1
10
7.09999999999999
20
4.67798560961515
30
0
41
1
10
7.09999999999999
20
4.65000000000001
30
0
0
SPLINE
5
2E9
100
AcDbEntity
8
1
62
256
6
ByLayer
370
18
48
1
60
0
100
AcDbSpline
70
4
71
3
72
8
73
4
40
0
40
0
40
0
40
0
40
1
40
1
40
1
40
1
41
1
10
28.7955897781853
20
-5.1084399124781
30
0
41
1
10
28.9102844042148
20
-4.64817089639936
30
0
41
1
10
29.0223504882078
20
-4.18752571552048
30
0
41
1
10
29.13
20
-3.72624848882447
30
0
0
SPLINE
5
2EA
100
AcDbEntity
8
1
62
256
6
ByLayer
370
18
48
1
60
0
100
AcDbSpline
70
4
71
3
72
14
73
10
40
0
40
0
40
0
40
0
40
0.5
40
0.5
40
0.75
40
0.75
40
0.875
40
0.875
40
1
40
1
40
1
40
1
41
1
10
17.7864789249706
20
-3.99988410226041
30
0
41
1
10
17.3198662773795
20
-3.73797653721294
30
0
41
1
10
16.8870653704942
20
-3.43613641036759
30
0
41
1
10
16.2848134564264
20
-2.92087904869732
30
0
41
1
10
16.0919069461674
20
-2.73868123953173
30
0
41
1
10
15.8139834110121
20
-2.44912719059317
30
0
41
1
10
15.7230635946879
20
-2.34967412054988
30
0
41
1
10
15.5463138052664
20
-2.14677517051237
30
0
41
1
10
15.4603970742109
20
-2.04326173669008
30
0
41
1
10
15.3768452588197
20
-1.93771641599659
30
0
0
SPLINE
5
2EB
100
AcDbEntity
8
1
62
256
6
ByLayer
370
18
48
1
60
0
100
AcDbSpline
70
4
71
3
72
20
73
16
40
0
40
0
40
0
40
0
40
0.249999999999998
40
0.249999999999998
40
0.374999999999999
40
0.374999999999999
40
0.499999999999999
40
0.499999999999999
40
0.624999999999999
40
0.624999999999999
40
0.749999999999999
40
0.749999999999999
40
0.875
40
0.875
40
1
40
1
40
1
40
1
41
1
10
28.9580203723131
20
4.42485395316214
30
0
41
1
10
28.9729523073964
20
4.41596854668373
30
0
41
1
10
28.9863745730089
20
4.42004313245249
30
0
41
1
10
29.0021305304638
20
4.44493100098899
30
0
41
1
10
29.0067595459458
20
4.45650759184684
30
0
41
1
10
29.0142988684068
20
4.48512933322615
30
0
41
1
10
29.0172522518545
20
4.50215077787067
30
0
41
1
10
29.0215008619999
20
4.54161783460211
30
0
41
1
10
29.022766403093
20
4.564069350441
30
0
41
1
10
29.0235077223116
20
4.61251806738693
30
0
41
1
10
29.0230112103692
20
4.63872083281728
30
0
41
1
10
29.0202244241013
20
4.69522806612403
30
0
41
1
10
29.0179774786332
20
4.72464062160574
30
0
41
1
10
29.011871826046
20
4.7855973910564
30
0
41
1
10
29.0079603437244
20
4.81749930054298
30
0
41
1
10
29.0033321893635
20
4.84966673390454
30
0
0
SPLINE
5
2EC
100
AcDbEntity
8
1
62
256
6
ByLayer
370
18
48
1
60
0
100
AcDbSpline
70
4
71
3
72
8
73
4
40
0
40
0
40
0
40
0
40
1
40
1
40
1
40
1
41
1
10
24.2837920937816
20
-0.708846058800901
30
0
41
1
10
24.2704127895608
20
-0.67534159096104
30
0
41
1
10
24.2583332463444
20
-0.64847450911995
30
0
41
1
10
24.2453243009828
20
-0.628829766160408
30
0
0
SPLINE
5
2ED
100
AcDbEntity
8
1
62
256
6
ByLayer
370
18
48
1
60
0
100
AcDbSpline
70
4
71
3
72
32
73
28
40
0
40
0
40
0
40
0
40
0.124999999999999
40
0.124999999999999
40
0.187499999999999
40
0.187499999999999
40
0.249999999999999
40
0.249999999999999
40
0.312499999999999
40
0.312499999999999
40
0.374999999999999
40
0.374999999999999
40
0.437499999999998
40
0.437499999999998
40
0.499999999999998
40
0.499999999999998
40
0.562499999999998
40
0.562499999999998
40
0.624999999999998
40
0.624999999999998
40
0.749999999999997
40
0.749999999999997
40
0.812499999999997
40
0.812499999999997
40
0.874999999999997
40
0.874999999999997
40
1
40
1
40
1
40
1
41
1
10
15.3768452588196
20
7.5186664357025
30
0
41
1
10
15.3073269491651
20
7.53454042908021
30
0
41
1
10
15.2487258618672
20
7.55153503227672
30
0
41
1
10
15.1833705832789
20
7.57885691388304
30
0
41
1
10
15.1656876277704
20
7.58819265524446
30
0
41
1
10
15.1404292137053
20
7.60692550872872
30
0
41
1
10
15.1326896023598
20
7.61639128477856
30
0
41
1
10
15.1286860714221
20
7.63553201815765
30
0
41
1
10
15.1324962802902
20
7.64487323216252
30
0
41
1
10
15.1517280643388
20
7.6632110789381
30
0
41
1
10
15.1673815099704
20
7.67229727793779
30
0
41
1
10
15.2098632818439
20
7.68985567153851
30
0
41
1
10
15.2362764418179
20
7.6982215773171
30
0
41
1
10
15.2984094965042
20
7.71441280681361
30
0
41
1
10
15.3343513041345
20
7.72225834671571
30
0
41
1
10
15.4118539975341
20
7.73710511911997
30
0
41
1
10
15.4536981338624
20
7.74418862408123
30
0
41
1
10
15.5426894132864
20
7.75795018651772
30
0
41
1
10
15.5901328111692
20
7.76466130004695
30
0
41
1
10
15.7358553764627
20
7.78399338026111
30
0
41
1
10
15.8383125046818
20
7.7959983133795
30
0
41
1
10
15.997901106782
20
7.81358759582511
30
0
41
1
10
16.0523218111685
20
7.81939481994144
30
0
41
1
10
16.1613054969401
20
7.83075796380675
30
0
41
1
10
16.2159965624509
20
7.83632889776752
30
0
41
1
10
16.3805865526782
20
7.85281286885845
30
0
41
1
10
16.4909975882816
20
7.86350574520094
30
0
41
1
10
16.6019681015715
20
7.87401633125174
30
0
0
SPLINE
5
2EE
100
AcDbEntity
8
1
62
256
6
ByLayer
370
18
48
1
60
0
100
AcDbSpline
70
4
71
3
72
8
73
4
40
0
40
0
40
0
40
0
40
1
40
1
40
1
40
1
41
1
10
26.7452674552687
20
-0.938615766816241
30
0
41
1
10
26.7299301029688
20
-0.986875510513954
30
0
41
1
10
26.7150741543558
20
-1.03590370668337
30
0
41
1
10
26.7014852230827
20
-1.08593252276353
30
0
0
SPLINE
5
2EF
100
AcDbEntity
8
1
62
256
6
ByLayer
370
18
48
1
60
0
100
AcDbSpline
70
4
71
3
72
22
73
18
40
0
40
0
40
0
40
0
40
0.125
40
0.125
40
0.25
40
0.25
40
0.375
40
0.375
40
0.5
40
0.5
40
0.625
40
0.625
40
0.75
40
0.75
40
0.875
40
0.875
40
1
40
1
40
1
40
1
41
1
10
28.5254924192113
20
2.53612699264133
30
0
41
1
10
28.5171422891486
20
2.54052833652804
30
0
41
1
10
28.505549213911
20
2.54488172680377
30
0
41
1
10
28.4769771306756
20
2.55306982363137
30
0
41
1
10
28.4599719211391
20
2.55694519840486
30
0
41
1
10
28.4204122791071
20
2.56424968320397
30
0
41
1
10
28.3979244463553
20
2.56764821220977
30
0
41
1
10
28.3492556393353
20
2.57369771683724
30
0
41
1
10
28.322843643317
20
2.57639110401289
30
0
41
1
10
28.2658388122523
20
2.58106553071394
30
0
41
1
10
28.2361545180127
20
2.58297314102219
30
0
41
1
10
28.1745063364888
20
2.58595974859989
30
0
41
1
10
28.1421667496024
20
2.58704346489651
30
0
41
1
10
28.0771192790865
20
2.58828427082673
30
0
41
1
10
28.044510913733
20
2.58845228667471
30
0
41
1
10
27.9791259785618
20
2.58788918748675
30
0
41
1
10
27.9462082936606
20
2.58714216519462
30
0
41
1
10
27.9146374470421
20
2.5859693935858
30
0
0
SPLINE
5
2F0
100
AcDbEntity
8
1
62
256
6
ByLayer
370
18
48
1
60
0
100
AcDbSpline
70
4
71
3
72
14
73
10
40
0
40
0
40
0
40
0
40
0.25
40
0.25
40
0.5
40
0.5
40
0.75
40
0.75
40
1
40
1
40
1
40
1
41
1
10
7.09999999999999
20
-4.65000000000001
30
0
41
1
10
7.09999999999999
20
-4.67800625192308
30
0
41
1
10
7.0967749276758
20
-4.70541862571613
30
0
41
1
10
7.08318371794272
20
-4.75898870526342
30
0
41
1
10
7.07265868871301
20
-4.78554594426751
30
0
41
1
10
7.04210106968537
20
-4.83477215235266
30
0
41
1
10
7.02190222683106
20
-4.85779758009201
30
0
41
1
10
6.96898436981974
20
-4.89330453598407
30
0
41
1
10
6.9349942192398
20
-4.90535421758716
30
0
41
1
10
6.90000000000001
20
-4.90535421758716
30
0
0
SPLINE
5
2F1
100
AcDbEntity
8
1
62
256
6
ByLayer
370
18
48
1
60
0
100
AcDbSpline
70
4
71
3
72
8
73
4
40
0
40
0
40
0
40
0
40
1
40
1
40
1
40
1
41
1
10
27.4640147360001
20
-1.75632830437289
30
0
41
1
10
28.0217699437942
20
-1.64895012057065
30
0
41
1
10
28.5766203318212
20
-1.53832003101309
30
0
41
1
10
29.13
20
-1.43182688355975
30
0
0
SPLINE
5
2F2
100
AcDbEntity
8
1
62
256
6
ByLayer
370
18
48
1
60
0
100
AcDbSpline
70
4
71
3
72
22
73
18
40
0
40
0
40
0
40
0
40
0.125
40
0.125
40
0.25
40
0.25
40
0.375
40
0.375
40
0.5
40
0.5
40
0.625
40
0.625
40
0.75
40
0.75
40
0.875
40
0.875
40
1
40
1
40
1
40
1
41
1
10
28.9580203723131
20
-5.91725399938028
30
0
41
1
10
28.9654913314472
20
-5.88562138848329
30
0
41
1
10
28.972665104939
20
-5.85293780283774
30
0
41
1
10
28.9856957340094
20
-5.78858826993016
30
0
41
1
10
28.9916003802751
20
-5.7567718589043
30
0
41
1
10
29.0021498246162
20
-5.69385071063391
30
0
41
1
10
29.0067572613926
20
-5.66287476618228
30
0
41
1
10
29.0142714457066
20
-5.60431448342115
30
0
41
1
10
29.0172422879386
20
-5.5763537002934
30
0
41
1
10
29.0215183884405
20
-5.52329906318477
30
0
41
1
10
29.0227581064586
20
-5.49903153616523
30
0
41
1
10
29.0235093868681
20
-5.45481468625059
30
0
41
1
10
29.0230010317597
20
-5.43468901256486
30
0
41
1
10
29.0202394715521
20
-5.40007637652096
30
0
41
1
10
29.0180133044169
20
-5.38556266869583
30
0
41
1
10
29.011903829657
20
-5.36206997601047
30
0
41
1
10
29.0079911181312
20
-5.35310498494641
30
0
41
1
10
29.0033321893635
20
-5.34730572999271
30
0
0
SPLINE
5
2F3
100
AcDbEntity
8
1
62
256
6
ByLayer
370
18
48
1
60
0
100
AcDbSpline
70
4
71
3
72
14
73
10
40
0
40
0
40
0
40
0
40
0.25
40
0.25
40
0.5
40
0.5
40
0.75
40
0.75
40
1
40
1
40
1
40
1
41
1
10
25.351529698538
20
-1.68180756154507
30
0
41
1
10
25.3097801607841
20
-1.63820741413542
30
0
41
1
10
25.2704079663677
20
-1.59054299171896
30
0
41
1
10
25.1968583643508
20
-1.489012842618
30
0
41
1
10
25.1621246900475
20
-1.43421590133295
30
0
41
1
10
25.0998916918617
20
-1.32219098265003
30
0
41
1
10
25.0721844435983
20
-1.26484665803699
30
0
41
1
10
25.0234987915841
20
-1.14759574446805
30
0
41
1
10
25.0032490584418
20
-1.08935207350649
30
0
41
1
10
24.9871780452393
20
-1.03244104462902
30
0
0
SPLINE
5
2F4
100
AcDbEntity
8
1
62
256
6
ByLayer
370
18
48
1
60
0
100
AcDbSpline
70
4
71
3
72
12
73
8
40
0
40
0
40
0
40
0
40
0.454037068251492
40
0.454037068251492
40
0.908074136502984
40
0.908074136502984
40
1
40
1
40
1
40
1
41
1
10
24.9871780452393
20
-1.03244104462902
30
0
41
1
10
24.9699676684224
20
-0.971495276016213
30
0
41
1
10
24.9527172371236
20
-0.91492065745021
30
0
41
1
10
24.923814291247
20
-0.807640822392642
30
0
41
1
10
24.9124426968833
20
-0.758001626187024
30
0
41
1
10
24.9049909993427
20
-0.703749056989125
30
0
41
1
10
24.903948118494
20
-0.694777804982692
30
0
41
1
10
24.9031286407672
20
-0.685987648109915
30
0
0
SPLINE
5
2F5
100
AcDbEntity
8
1
62
256
6
ByLayer
370
18
48
1
60
0
100
AcDbSpline
70
4
71
3
72
8
73
4
40
0
40
0
40
0
40
0
40
1
40
1
40
1
40
1
41
1
10
25.4078286607785
20
4.62876380949177
30
0
41
1
10
26.2429810747576
20
4.66242643292836
30
0
41
1
10
27.0786210741406
20
4.69585331423079
30
0
41
1
10
27.914637447041
20
4.72909822311243
30
0
0
SPLINE
5
2F6
100
AcDbEntity
8
1
62
256
6
ByLayer
370
18
48
1
60
0
100
AcDbSpline
70
4
71
3
72
22
73
18
40
0
40
0
40
0
40
0
40
0.125
40
0.125
40
0.25
40
0.25
40
0.375
40
0.375
40
0.5
40
0.5
40
0.625
40
0.625
40
0.75
40
0.75
40
0.875
40
0.875
40
1
40
1
40
1
40
1
41
1
10
27.914637447041
20
-8.08206446599357
30
0
41
1
10
27.9468754504164
20
-8.09118616992293
30
0
41
1
10
27.9798235952423
20
-8.09685093851945
30
0
41
1
10
28.0471899745576
20
-8.10102414805777
30
0
41
1
10
28.081146782215
20
-8.09942042616933
30
0
41
1
10
28.1472991840329
20
-8.08914259324519
30
0
41
1
10
28.1802006680458
20
-8.08034476642533
30
0
41
1
10
28.2430397686941
20
-8.05614286164419
30
0
41
1
10
28.2728087580611
20
-8.04090588784743
30
0
41
1
10
28.32917446192
20
-8.00440470334942
30
0
41
1
10
28.3556544642977
20
-7.98310634931923
30
0
41
1
10
28.4033261973313
20
-7.93642119489661
30
0
41
1
10
28.4249198222215
20
-7.91072200538153
30
0
41
1
10
28.4631178024227
20
-7.85538581562321
30
0
41
1
10
28.4793600093088
20
-7.82632589239185
30
0
41
1
10
28.5065165741845
20
-7.76561031128844
30
0
41
1
10
28.5174840477517
20
-7.73364481064789
30
0
41
1
10
28.5254924192113
20
-7.70129808451924
30
0
0
SPLINE
5
2F7
100
AcDbEntity
8
1
62
256
6
ByLayer
370
18
48
1
60
0
100
AcDbSpline
70
4
71
3
72
10
73
6
40
0
40
0
40
0
40
0
40
0.5
40
0.5
40
1
40
1
40
1
40
1
41
1
10
26.9087568744993
20
-1.88897470401039
30
0
41
1
10
26.8278043839361
20
-1.91171234314828
30
0
41
1
10
26.7445853521942
20
-1.92065215045122
30
0
41
1
10
26.5758621202868
20
-1.90816717852473
30
0
41
1
10
26.4943812763308
20
-1.88708015581102
30
0
41
1
10
26.4164029917904
20
-1.85420927335781
30
0
0
SPLINE
5
2F8
100
AcDbEntity
8
1
62
256
6
ByLayer
370
18
48
1
60
0
100
AcDbSpline
70
4
71
3
72
12
73
8
40
0
40
0
40
0
40
0
40
0.5
40
0.5
40
0.75
40
0.75
40
1
40
1
40
1
40
1
41
1
10
17.9739345884879
20
6.87418842230613
30
0
41
1
10
18.2799888972979
20
6.79698719413136
30
0
41
1
10
18.5941703557264
20
6.72661559208481
30
0
41
1
10
19.0777241977239
20
6.6352380050499
30
0
41
1
10
19.2409592499433
20
6.60713439579078
30
0
41
1
10
19.5715984118796
20
6.55622649776521
30
0
41
1
10
19.7394306080335
20
6.53337410560965
30
0
41
1
10
19.908332280594
20
6.51357417194581
30
0
0
SPLINE
5
2F9
100
AcDbEntity
8
1
62
256
6
ByLayer
370
18
48
1
60
0
100
AcDbSpline
70
4
71
3
72
16
73
12
40
0
40
0
40
0
40
0
40
0.25
40
0.25
40
0.5
40
0.5
40
0.75
40
0.75
40
0.875
40
0.875
40
1
40
1
40
1
40
1
41
1
10
24.988452910511
20
5.07253489629602
30
0
41
1
10
24.980364823866
20
5.01597920610345
30
0
41
1
10
24.9834648518933
20
4.95873284370617
30
0
41
1
10
25.01269225745
20
4.85277423467446
30
0
41
1
10
25.0394016710963
20
4.80239362632233
30
0
41
1
10
25.1139744051392
20
4.71819225382942
30
0
41
1
10
25.1631396940229
20
4.68310604070621
30
0
41
1
10
25.2478252292488
20
4.64875662535553
30
0
41
1
10
25.2784434572812
20
4.6400712287853
30
0
41
1
10
25.3419076020642
20
4.62942892063234
30
0
41
1
10
25.3744588303345
20
4.62741876633848
30
0
41
1
10
25.4078286607784
20
4.62876380949177
30
0
0
SPLINE
5
2FA
100
AcDbEntity
8
1
62
256
6
ByLayer
370
18
48
1
60
0
100
AcDbSpline
70
4
71
3
72
14
73
10
40
0
40
0
40
0
40
0
40
0.500000000000001
40
0.500000000000001
40
0.625000000000001
40
0.625000000000001
40
0.750000000000002
40
0.750000000000002
40
1
40
1
40
1
40
1
41
1
10
17.7864789249706
20
6.9181020604662
30
0
41
1
10
17.323059504938
20
7.01810001197273
30
0
41
1
10
16.8908869316146
20
7.12879060105868
30
0
41
1
10
16.3876655459751
20
7.26127352011406
30
0
41
1
10
16.2888757775748
20
7.28746574063473
30
0
41
1
10
16.0949706422217
20
7.33870967800164
30
0
41
1
10
15.9996844443783
20
7.36380530812346
30
0
41
1
10
15.7209901455605
20
7.43610343480046
30
0
41
1
10
15.5445295015362
20
7.48037697539112
30
0
41
1
10
15.3768452588196
20
7.5186664357025
30
0
0
SPLINE
5
2FB
100
AcDbEntity
8
1
62
256
6
ByLayer
370
18
48
1
60
0
100
AcDbSpline
70
4
71
3
72
26
73
22
40
0
40
0
40
0
40
0
40
0.124999999999998
40
0.124999999999998
40
0.187499999999998
40
0.187499999999998
40
0.249999999999997
40
0.249999999999997
40
0.374999999999996
40
0.374999999999996
40
0.499999999999994
40
0.499999999999994
40
0.624999999999993
40
0.624999999999993
40
0.687499999999994
40
0.687499999999994
40
0.749999999999995
40
0.749999999999995
40
0.874999999999998
40
0.874999999999998
40
1
40
1
40
1
40
1
41
1
10
25.2647946015329
20
-5.74567638074507
30
0
41
1
10
25.2896487237546
20
-5.65664345117585
30
0
41
1
10
25.3231169989783
20
-5.57128693774817
30
0
41
1
10
25.3858727954001
20
-5.44842947948948
30
0
41
1
10
25.4088991461461
20
-5.40834582924109
30
0
41
1
10
25.4592977249001
20
-5.32993129248851
30
0
41
1
10
25.4868310152898
20
-5.29141945412488
30
0
41
1
10
25.5745568598035
20
-5.18075238410066
30
0
41
1
10
25.6400282504707
20
-5.11292050222121
30
0
41
1
10
25.785179912659
20
-4.98899569459348
30
0
41
1
10
25.8659366817485
20
-4.93241865519914
30
0
41
1
10
26.0357932357506
20
-4.83631033250302
30
0
41
1
10
26.125203429698
20
-4.79622492154536
30
0
41
1
10
26.2662874561095
20
-4.74830708088487
30
0
41
1
10
26.3147877090221
20
-4.73432982623336
30
0
41
1
10
26.4120031791655
20
-4.71119333296133
30
0
41
1
10
26.4608621675143
20
-4.70195399349794
30
0
41
1
10
26.6081700262726
20
-4.68103356257598
30
0
41
1
10
26.7079584521749
20
-4.67611604938441
30
0
41
1
10
26.9068030966096
20
-4.68477517334466
30
0
41
1
10
27.0040895894933
20
-4.69815321477819
30
0
41
1
10
27.0993242204999
20
-4.72030314799429
30
0
0
SPLINE
5
2FC
100
AcDbEntity
8
1
62
256
6
ByLayer
370
18
48
1
60
0
100
AcDbSpline
70
4
71
3
72
8
73
4
40
0
40
0
40
0
40
0
40
1
40
1
40
1
40
1
41
1
10
16.6019681015715
20
7.87401633125174
30
0
41
1
10
16.9968042395682
20
7.91141328546359
30
0
41
1
10
17.3916411932486
20
7.94880179797255
30
0
41
1
10
17.7864789249706
20
7.98618222776292
30
0
0
SPLINE
5
2FD
100
AcDbEntity
8
1
62
256
6
ByLayer
370
18
48
1
60
0
100
AcDbSpline
70
4
71
3
72
18
73
14
40
0
40
0
40
0
40
0
40
0.249999999999997
40
0.249999999999997
40
0.499999999999993
40
0.499999999999993
40
0.624999999999995
40
0.624999999999995
40
0.749999999999997
40
0.749999999999997
40
0.874999999999998
40
0.874999999999998
40
1
40
1
40
1
40
1
41
1
10
24.988452910511
20
-6.93309510475646
30
0
41
1
10
24.9802587622619
20
-6.97233272298914
30
0
41
1
10
24.9832464697273
20
-7.01302925219267
30
0
41
1
10
25.0129136473665
20
-7.09736073464754
30
0
41
1
10
25.0387653348448
20
-7.13865555244098
30
0
41
1
10
25.0955914480322
20
-7.19923598924194
30
0
41
1
10
25.1169605933902
20
-7.21850702399647
30
0
41
1
10
25.1645583054544
20
-7.25529771924843
30
0
41
1
10
25.1911015268662
20
-7.27299650672606
30
0
41
1
10
25.2481336261801
20
-7.3056739843536
30
0
41
1
10
25.2781538464176
20
-7.3204425804426
30
0
41
1
10
25.3412137191577
20
-7.34688682072041
30
0
41
1
10
25.374583033977
20
-7.35861315952485
30
0
41
1
10
25.4078286607784
20
-7.36814801720391
30
0
0
SPLINE
5
2FE
100
AcDbEntity
8
1
62
256
6
ByLayer
370
18
48
1
60
0
100
AcDbSpline
70
4
71
3
72
8
73
4
40
0
40
0
40
0
40
0
40
1
40
1
40
1
40
1
41
1
10
27.9146374470418
20
2.5859693935858
30
0
41
1
10
26.9966950209571
20
2.55187031386012
30
0
41
1
10
26.0787994492261
20
2.51774678839152
30
0
41
1
10
25.1609641149645
20
2.48359191829667
30
0
0
SPLINE
5
2FF
100
AcDbEntity
8
1
62
256
6
ByLayer
370
18
48
1
60
0
100
AcDbSpline
70
4
71
3
72
8
73
4
40
0
40
0
40
0
40
0
40
1
40
1
40
1
40
1
41
1
10
24.2453243009828
20
-0.628829766160379
30
0
41
1
10
24.238113854452
20
-0.617941307120589
30
0
41
1
10
24.2284719937255
20
-0.609504856098255
30
0
41
1
10
24.2165171523856
20
-0.603234475637692
30
0
0
SPLINE
5
300
100
AcDbEntity
8
1
62
256
6
ByLayer
370
18
48
1
60
0
100
AcDbSpline
70
4
71
3
72
10
73
6
40
0
40
0
40
0
40
0
40
0.5
40
0.5
40
1
40
1
40
1
40
1
41
1
10
24.3032820463735
20
6.15619847413231
30
0
41
1
10
23.7338672027304
20
6.17053766780074
30
0
41
1
10
23.1579669302958
20
6.19799409332384
30
0
41
1
10
21.992353808962
20
6.28084384319649
30
0
41
1
10
21.4026436171281
20
6.33623179344647
30
0
41
1
10
20.8050726932624
20
6.40751862223181
30
0
0
SPLINE
5
301
100
AcDbEntity
8
1
62
256
6
ByLayer
370
18
48
1
60
0
100
AcDbSpline
70
4
71
3
72
14
73
10
40
0
40
0
40
0
40
0
40
0.25
40
0.25
40
0.5
40
0.5
40
0.75
40
0.75
40
1
40
1
40
1
40
1
41
1
10
24.1223479170895
20
-0.55384219043728
30
0
41
1
10
24.1237238962491
20
-0.532981362390188
30
0
41
1
10
24.1227014856186
20
-0.515177708874035
30
0
41
1
10
24.1131015348312
20
-0.485867879032924
30
0
41
1
10
24.1042739248761
20
-0.474292661635559
30
0
41
1
10
24.0773412675951
20
-0.459110344374523
30
0
41
1
10
24.0593203122789
20
-0.455372130508067
30
0
41
1
10
24.014829776207
20
-0.456036189039054
30
0
41
1
10
23.9886456134934
20
-0.460492655821923
30
0
41
1
10
23.9604747402185
20
-0.468938813099072
30
0
0
SPLINE
5
302
100
AcDbEntity
8
1
62
256
6
ByLayer
370
18
48
1
60
0
100
AcDbSpline
70
4
71
3
72
8
73
4
40
0
40
0
40
0
40
0
40
1
40
1
40
1
40
1
41
1
10
17.7864789249706
20
6.9181020604662
30
0
41
1
10
17.8473067845629
20
6.90497645309884
30
0
41
1
10
17.9097181363244
20
6.89038681858199
30
0
41
1
10
17.9739345884879
20
6.87418842230613
30
0
0
SPLINE
5
303
100
AcDbEntity
8
1
62
256
6
ByLayer
370
18
48
1
60
0
100
AcDbSpline
70
4
71
3
72
8
73
4
40
0
40
0
40
0
40
0
40
1
40
1
40
1
40
1
41
1
10
17.7864789249706
20
-3.99988410226041
30
0
41
1
10
17.8479147276365
20
-4.03436773995435
30
0
41
1
10
17.9103731589296
20
-4.06519727627082
30
0
41
1
10
17.9739345884879
20
-4.09213068396315
30
0
0
SPLINE
5
304
100
AcDbEntity
8
1
62
256
6
ByLayer
370
18
48
1
60
0
100
AcDbSpline
70
4
71
3
72
30
73
26
40
0
40
0
40
0
40
0
40
0.125000000000001
40
0.125000000000001
40
0.187500000000001
40
0.187500000000001
40
0.250000000000001
40
0.250000000000001
40
0.312500000000001
40
0.312500000000001
40
0.375000000000001
40
0.375000000000001
40
0.437500000000001
40
0.437500000000001
40
0.500000000000001
40
0.500000000000001
40
0.562500000000001
40
0.562500000000001
40
0.625000000000001
40
0.625000000000001
40
0.75
40
0.75
40
0.875
40
0.875
40
1
40
1
40
1
40
1
41
1
10
15.3768452588195
20
-1.93771641599668
30
0
41
1
10
15.3078617262679
20
-1.85057421529592
30
0
41
1
10
15.249738993802
20
-1.75743107289949
30
0
41
1
10
15.1846740031953
20
-1.60541093722995
30
0
41
1
10
15.1666119066324
20
-1.55203326980418
30
0
41
1
10
15.1408537351841
20
-1.44396675511953
30
0
41
1
10
15.1330049814458
20
-1.38922724276134
30
0
41
1
10
15.1286048730513
20
-1.27816959869057
30
0
41
1
10
15.1322482027283
20
-1.2218289384754
30
0
41
1
10
15.1512582832498
20
-1.11296548590022
30
0
41
1
10
15.166550144014
20
-1.05975429785394
30
0
41
1
10
15.2089212408322
20
-0.955848381022946
30
0
41
1
10
15.2354166376643
20
-0.906662027290992
30
0
41
1
10
15.2972988327746
20
-0.814170017545081
30
0
41
1
10
15.3331522808889
20
-0.770345620997944
30
0
41
1
10
15.4108755594499
20
-0.690168621090606
30
0
41
1
10
15.4527345585537
20
-0.6536394342356
30
0
41
1
10
15.5414961488804
20
-0.586605486055674
30
0
41
1
10
15.5886556797732
20
-0.555972722179689
30
0
41
1
10
15.7351370752308
20
-0.473142600465963
30
0
41
1
10
15.8377136358457
20
-0.430549127390776
30
0
41
1
10
16.0499759509421
20
-0.363826317935405
30
0
41
1
10
16.1604127815539
20
-0.339817134963596
30
0
41
1
10
16.3806318054172
20
-0.308176756671827
30
0
41
1
10
16.4911404416215
20
-0.30026278433661
30
0
41
1
10
16.6019681015717
20
-0.298787519369597
30
0
0
SPLINE
5
305
100
AcDbEntity
8
1
62
256
6
ByLayer
370
18
48
1
60
0
100
AcDbSpline
70
4
71
3
72
22
73
18
40
0
40
0
40
0
40
0
40
0.125
40
0.125
40
0.249999999999999
40
0.249999999999999
40
0.374999999999999
40
0.374999999999999
40
0.499999999999999
40
0.499999999999999
40
0.624999999999998
40
0.624999999999998
40
0.749999999999998
40
0.749999999999998
40
0.874999999999997
40
0.874999999999997
40
1
40
1
40
1
40
1
41
1
10
27.914637447041
20
4.72909822311246
30
0
41
1
10
27.9469268905023
20
4.73038224055577
30
0
41
1
10
27.9798694194709
20
4.73117645699773
30
0
41
1
10
28.0470913766961
20
4.73176224229201
30
0
41
1
10
28.0811752456101
20
4.73153714349155
30
0
41
1
10
28.1473332130811
20
4.73009192493345
30
0
41
1
10
28.1801194313839
20
4.7288606936913
30
0
41
1
10
28.2430790981498
20
4.72545328880395
30
0
41
1
10
28.2728495656323
20
4.72331007358326
30
0
41
1
10
28.3291373948544
20
4.71818720341966
30
0
41
1
10
28.3556679143666
20
4.71518911643966
30
0
41
1
10
28.4033575370488
20
4.7086246816803
30
0
41
1
10
28.4248441973524
20
4.70503220282828
30
0
41
1
10
28.4631348318551
20
4.69723795285452
30
0
41
1
10
28.4793831449256
20
4.69314996553442
30
0
41
1
10
28.5065221450337
20
4.68462101625514
30
0
41
1
10
28.5174712204776
20
4.68013831545989
30
0
41
1
10
28.5254924192113
20
4.67558499803343
30
0
0
SPLINE
5
306
100
AcDbEntity
8
1
62
256
6
ByLayer
370
18
48
1
60
0
100
AcDbSpline
70
4
71
3
72
8
73
4
40
0
40
0
40
0
40
0
40
1
40
1
40
1
40
1
41
1
10
28.7955897781853
20
6.15321247271817
30
0
41
1
10
28.9102787419853
20
5.97674317199537
30
0
41
1
10
29.0223441908093
20
5.79962582004805
30
0
41
1
10
29.13
20
5.6214192147936
30
0
0
SPLINE
5
307
100
AcDbEntity
8
1
62
256
6
ByLayer
370
18
48
1
60
0
100
AcDbSpline
70
4
71
3
72
8
73
4
40
0
40
0
40
0
40
0
40
1
40
1
40
1
40
1
41
1
10
17.9739345884879
20
-0.281779316079451
30
0
41
1
10
17.9111310927155
20
-0.281779316079451
30
0
41
1
10
17.8486476843189
20
-0.282196449989613
30
0
41
1
10
17.7864789249706
20
-0.283023630648785
30
0
0
SPLINE
5
308
100
AcDbEntity
8
1
62
256
6
ByLayer
370
18
48
1
60
0
100
AcDbSpline
70
4
71
3
72
32
73
28
40
0
40
0
40
0
40
0
40
0.125000000000003
40
0.125000000000003
40
0.187500000000003
40
0.187500000000003
40
0.250000000000003
40
0.250000000000003
40
0.312500000000003
40
0.312500000000003
40
0.375000000000004
40
0.375000000000004
40
0.500000000000004
40
0.500000000000004
40
0.625000000000004
40
0.625000000000004
40
0.687500000000003
40
0.687500000000003
40
0.750000000000003
40
0.750000000000003
40
0.812500000000002
40
0.812500000000002
40
0.875000000000001
40
0.875000000000001
40
0.937500000000001
40
0.937500000000001
40
1
40
1
40
1
40
1
41
1
10
22.2659056097424
20
-2.28359980992599
30
0
41
1
10
22.357652596531
20
-2.23123007082509
30
0
41
1
10
22.4405314488415
20
-2.16744633018555
30
0
41
1
10
22.5548930719841
20
-2.05486720422752
30
0
41
1
10
22.5916114209621
20
-2.01420243903084
30
0
41
1
10
22.6608345815036
20
-1.92930670240429
30
0
41
1
10
22.6934055157778
20
-1.88509416011777
30
0
41
1
10
22.7554571808886
20
-1.79371117462949
30
0
41
1
10
22.7849354082108
20
-1.74653956522164
30
0
41
1
10
22.8416679191155
20
-1.64972009421726
30
0
41
1
10
22.8688602487653
20
-1.60013258214755
30
0
41
1
10
22.9461603674368
20
-1.45278724605401
30
0
41
1
10
22.9929771520427
20
-1.35471231184019
30
0
41
1
10
23.0839588686447
20
-1.16493005333459
30
0
41
1
10
23.126454846214
20
-1.07659411123609
30
0
41
1
10
23.1928341044503
20
-0.956177903334748
30
0
41
1
10
23.2155607227512
20
-0.917871369528569
30
0
41
1
10
23.262377141467
20
-0.847610088955634
30
0
41
1
10
23.2865439659831
20
-0.815466252358362
30
0
41
1
10
23.3382072909567
20
-0.757294081227201
30
0
41
1
10
23.3656998757294
20
-0.731269031695035
30
0
41
1
10
23.4263008097293
20
-0.685541601411444
30
0
41
1
10
23.4593922851141
20
-0.666004735478168
30
0
41
1
10
23.5307077226715
20
-0.634225361529587
30
0
41
1
10
23.5691993289183
20
-0.621766669793374
30
0
41
1
10
23.6526044267296
20
-0.602583752602499
30
0
41
1
10
23.697572017039
20
-0.595884327891326
30
0
41
1
10
23.7445103387233
20
-0.591486469646384
30
0
0
SPLINE
5
309
100
AcDbEntity
8
1
62
256
6
ByLayer
370
18
48
1
60
0
100
AcDbSpline
70
4
71
3
72
14
73
10
40
0
40
0
40
0
40
0
40
0.25
40
0.25
40
0.5
40
0.5
40
0.75
40
0.75
40
1
40
1
40
1
40
1
41
1
10
25.1609641149645
20
2.4835919182967
30
0
41
1
10
25.1212698071362
20
2.50152244786003
30
0
41
1
10
25.0802220473344
20
2.51633460598362
30
0
41
1
10
24.9953915752373
20
2.53975907135748
30
0
41
1
10
24.9512719680624
20
2.54837889619446
30
0
41
1
10
24.8627965966698
20
2.55883260279899
30
0
41
1
10
24.8182440598677
20
2.56077170352708
30
0
41
1
10
24.7285080641772
20
2.55817705139288
30
0
41
1
10
24.6830330558123
20
2.55358882965462
30
0
41
1
10
24.6379121629685
20
2.54571701617027
30
0
0
SPLINE
5
30A
100
AcDbEntity
8
1
62
256
6
ByLayer
370
18
48
1
60
0
100
AcDbSpline
70
4
71
3
72
14
73
10
40
0
40
0
40
0
40
0
40
0.25
40
0.25
40
0.5
40
0.5
40
0.75
40
0.75
40
1
40
1
40
1
40
1
41
1
10
19.8592305691084
20
-0.899967910658233
30
0
41
1
10
19.7993522352222
20
-0.923226712310452
30
0
41
1
10
19.7403363950075
20
-0.948578434307763
30
0
41
1
10
19.6247505350543
20
-1.00505084517545
30
0
41
1
10
19.5679236839205
20
-1.03628178491243
30
0
41
1
10
19.4592111137655
20
-1.10675334639032
30
0
41
1
10
19.4072964082139
20
-1.14593245426039
30
0
41
1
10
19.3137994992487
20
-1.23553989184376
30
0
41
1
10
19.2727096752838
20
-1.28516956754797
30
0
41
1
10
19.2422988212388
20
-1.34291597151409
30
0
0
SPLINE
5
30B
100
AcDbEntity
8
1
62
256
6
ByLayer
370
18
48
1
60
0
100
AcDbSpline
70
4
71
3
72
8
73
4
40
0
40
0
40
0
40
0
40
1
40
1
40
1
40
1
41
1
10
25.4699881144935
20
-1.75007995235831
30
0
41
1
10
25.4289695509938
20
-1.72988408620287
30
0
41
1
10
25.3894964897437
20
-1.70708006519865
30
0
41
1
10
25.3515296985379
20
-1.68180756154501
30
0
0
SPLINE
5
30C
100
AcDbEntity
8
1
62
256
6
ByLayer
370
18
48
1
60
0
100
AcDbSpline
70
4
71
3
72
8
73
4
40
0
40
0
40
0
40
0
40
1
40
1
40
1
40
1
41
1
10
25.9203561659217
20
1.89923283060386
30
0
41
1
10
25.9062533596834
20
1.90921759470467
30
0
41
1
10
25.8922603417198
20
1.91872724801087
30
0
41
1
10
25.8784534905598
20
1.92778988476596
30
0
0
SPLINE
5
30D
100
AcDbEntity
8
1
62
256
6
ByLayer
370
18
48
1
60
0
100
AcDbSpline
70
4
71
3
72
12
73
8
40
0
40
0
40
0
40
0
40
0.250000000000004
40
0.250000000000004
40
0.500000000000008
40
0.500000000000008
40
1
40
1
40
1
40
1
41
1
10
23.5361208819798
20
8.24703712697848
30
0
41
1
10
23.5649718639684
20
8.25326132375508
30
0
41
1
10
23.5959799378983
20
8.25973121165887
30
0
41
1
10
23.6621712731548
20
8.273385390539
30
0
41
1
10
23.6976980882063
20
8.28063933765333
30
0
41
1
10
23.8081618263319
20
8.3033105387309
30
0
41
1
10
23.886720425229
20
8.31961872887541
30
0
41
1
10
23.968081704534
20
8.33720885005343
30
0
0
SPLINE
5
30E
100
AcDbEntity
8
1
62
256
6
ByLayer
370
18
48
1
60
0
100
AcDbSpline
70
4
71
3
72
14
73
10
40
0
40
0
40
0
40
0
40
0.25
40
0.25
40
0.5
40
0.5
40
0.75
40
0.75
40
1
40
1
40
1
40
1
41
1
10
25.1609641149649
20
-8.27137409552182
30
0
41
1
10
25.121053107259
20
-8.25494723240431
30
0
41
1
10
25.0794429392056
20
-8.23888506481791
30
0
41
1
10
24.9949308606307
20
-8.20836351874587
30
0
41
1
10
24.951738437798
20
-8.19378226950147
30
0
41
1
10
24.8634482141374
20
-8.16606282552615
30
0
41
1
10
24.8181194002165
20
-8.15287476493603
30
0
41
1
10
24.7280063882734
20
-8.12873757211392
30
0
41
1
10
24.6829558069284
20
-8.11769482282909
30
0
41
1
10
24.6379121629687
20
-8.10768432165034
30
0
0
SPLINE
5
30F
100
AcDbEntity
8
1
62
256
6
ByLayer
370
18
48
1
60
0
100
AcDbSpline
70
4
71
3
72
8
73
4
40
0
40
0
40
0
40
0
40
1
40
1
40
1
40
1
41
1
10
24.2388099021224
20
-8.04652833441389
30
0
41
1
10
24.2013146788839
20
-8.11387779458667
30
0
41
1
10
24.1712593505512
20
-8.18769479342197
30
0
41
1
10
24.1440091145857
20
-8.26760657750091
30
0
0
SPLINE
5
310
100
AcDbEntity
8
1
62
256
6
ByLayer
370
18
48
1
60
0
100
AcDbSpline
70
4
71
3
72
16
73
12
40
0
40
0
40
0
40
0
40
0.125
40
0.125
40
0.25
40
0.25
40
0.5
40
0.5
40
0.75
40
0.75
40
1
40
1
40
1
40
1
41
1
10
26.2709174483722
20
-1.84709366247554
30
0
41
1
10
26.2379261674796
20
-1.85705634441982
30
0
41
1
10
26.2039540662193
20
-1.86514433930168
30
0
41
1
10
26.1361072565394
20
-1.87716170616304
30
0
41
1
10
26.1020202137104
20
-1.88117134461612
30
0
41
1
10
25.9993014102414
20
-1.88757516191402
30
0
41
1
10
25.9294874646102
20
-1.88421819013754
30
0
41
1
10
25.7932472973155
20
-1.86475199571723
30
0
41
1
10
25.7266827771064
20
-1.84884879408398
30
0
41
1
10
25.5961435203049
20
-1.80684188251263
30
0
41
1
10
25.5318628811827
20
-1.78054456154649
30
0
41
1
10
25.4699881144933
20
-1.75007995235862
30
0
0
SPLINE
5
311
100
AcDbEntity
8
1
62
256
6
ByLayer
370
18
48
1
60
0
100
AcDbSpline
70
4
71
3
72
8
73
4
40
0
40
0
40
0
40
0
40
1
40
1
40
1
40
1
41
1
10
24.6379121629686
20
6.15402300037934
30
0
41
1
10
24.5262521750315
20
6.15265389287373
30
0
41
1
10
24.4146982478944
20
6.15339275434951
30
0
41
1
10
24.3032820463734
20
6.15619847413228
30
0
0
SPLINE
5
312
100
AcDbEntity
8
1
62
256
6
ByLayer
370
18
48
1
60
0
100
AcDbSpline
70
4
71
3
72
8
73
4
40
0
40
0
40
0
40
0
40
1
40
1
40
1
40
1
41
1
10
29.13
20
-6.36970667734332
30
0
41
1
10
28.929415583552
20
-7.12843754874629
30
0
41
1
10
28.7276818404467
20
-7.88686851342089
30
0
41
1
10
28.5254924192113
20
-8.64518057287705
30
0
0
SPLINE
5
313
100
AcDbEntity
8
1
62
256
6
ByLayer
370
18
48
1
60
0
100
AcDbSpline
70
4
71
3
72
8
73
4
40
0
40
0
40
0
40
0
40
1
40
1
40
1
40
1
41
1
10
16.6019681015717
20
-0.298787519369597
30
0
41
1
10
16.9968042390081
20
-0.293531720216805
30
0
41
1
10
17.3916411918814
20
-0.288277107471231
30
0
41
1
10
17.7864789249706
20
-0.283023630648785
30
0
0
SPLINE
5
314
100
AcDbEntity
8
1
62
256
6
ByLayer
370
18
48
1
60
0
100
AcDbSpline
70
4
71
3
72
8
73
4
40
0
40
0
40
0
40
0
40
1
40
1
40
1
40
1
41
1
10
25.1805582372411
20
-6.04736348565993
30
0
41
1
10
25.2086263381548
20
-5.94686164347078
30
0
41
1
10
25.2367052314574
20
-5.84629867934291
30
0
41
1
10
25.2647946015329
20
-5.74567638074507
30
0
0
SPLINE
5
315
100
AcDbEntity
8
1
62
256
6
ByLayer
370
18
48
1
60
0
100
AcDbSpline
70
4
71
3
72
8
73
4
40
0
40
0
40
0
40
0
40
1
40
1
40
1
40
1
41
1
10
26.9087568744993
20
-1.88897470401045
30
0
41
1
10
27.0929514802337
20
-1.83723879758938
30
0
41
1
10
27.2777357945079
20
-1.79219044270599
30
0
41
1
10
27.4640147360001
20
-1.75632830437266
30
0
0
SPLINE
5
316
100
AcDbEntity
8
1
62
256
6
ByLayer
370
18
48
1
60
0
100
AcDbSpline
70
4
71
3
72
8
73
4
40
0
40
0
40
0
40
0
40
1
40
1
40
1
40
1
41
1
10
29.13
20
2.21632999201952
30
0
41
1
10
28.9294158147401
20
2.32296253909905
30
0
41
1
10
28.727682014797
20
2.42955309094063
30
0
41
1
10
28.5254924192113
20
2.53612699264133
30
0
0
SPLINE
5
317
100
AcDbEntity
8
1
62
256
6
ByLayer
370
18
48
1
60
0
100
AcDbSpline
70
4
71
3
72
10
73
6
40
0
40
0
40
0
40
0
40
0.5
40
0.5
40
1
40
1
40
1
40
1
41
1
10
23.5361208819798
20
-0.246362865376824
30
0
41
1
10
23.594130432044
20
-0.187157599398546
30
0
41
1
10
23.660525315142
20
-0.139244598092205
30
0
41
1
10
23.8085841188153
20
-0.0666796028771159
30
0
41
1
10
23.8866650190428
20
-0.0437692493369468
30
0
41
1
10
23.968081704534
20
-0.034310053337947
30
0
0
SPLINE
5
318
100
AcDbEntity
8
1
62
256
6
ByLayer
370
18
48
1
60
0
100
AcDbSpline
70
4
71
3
72
8
73
4
40
0
40
0
40
0
40
0
40
1
40
1
40
1
40
1
41
1
10
25.4078286607784
20
-7.36814801720385
30
0
41
1
10
26.242979170185
20
-7.60766948254846
30
0
41
1
10
27.07861932447
20
-7.84551415284639
30
0
41
1
10
27.914637447041
20
-8.08206446599351
30
0
0
SPLINE
5
319
100
AcDbEntity
8
1
62
256
6
ByLayer
370
18
48
1
60
0
100
AcDbSpline
70
4
71
3
72
20
73
16
40
0
40
0
40
0
40
0
40
0.25000000000001
40
0.25000000000001
40
0.375000000000008
40
0.375000000000008
40
0.500000000000007
40
0.500000000000007
40
0.625000000000005
40
0.625000000000005
40
0.750000000000003
40
0.750000000000003
40
0.875000000000002
40
0.875000000000002
40
1
40
1
40
1
40
1
41
1
10
28.5254924192113
20
-8.64518057287705
30
0
41
1
10
28.5086763465956
20
-8.70824930604431
30
0
41
1
10
28.4793929852508
20
-8.76784644626616
30
0
41
1
10
28.4203693181609
20
-8.84531403003373
30
0
41
1
10
28.3977944135997
20
-8.86960570012431
30
0
41
1
10
28.3489534415598
20
-8.91275222854793
30
0
41
1
10
28.3226232081085
20
-8.93180171514649
30
0
41
1
10
28.2660937123702
20
-8.96478767276923
30
0
41
1
10
28.2359126958675
20
-8.97860862682771
30
0
41
1
10
28.1742793891994
20
-8.99982012769235
30
0
41
1
10
28.1425125966447
20
-9.0074156607773
30
0
41
1
10
28.0769956717186
20
-9.0163231384025
30
0
41
1
10
28.0442769975699
20
-9.01748684032742
30
0
41
1
10
27.9791522697197
20
-9.01348252774929
30
0
41
1
10
27.9463550320601
20
-9.00821117246204
30
0
41
1
10
27.914637447041
20
-8.99982768344807
30
0
0
SPLINE
5
31A
100
AcDbEntity
8
1
62
256
6
ByLayer
370
18
48
1
60
0
100
AcDbSpline
70
4
71
3
72
8
73
4
40
0
40
0
40
0
40
0
40
1
40
1
40
1
40
1
41
1
10
27.6516632300654
20
7.47749197002389
30
0
41
1
10
27.6453138174323
20
7.47492525339734
30
0
41
1
10
27.638963588716
20
7.47235848557426
30
0
41
1
10
27.6326124813332
20
7.46979166300557
30
0
0
SPLINE
5
31B
100
AcDbEntity
8
1
62
256
6
ByLayer
370
18
48
1
60
0
100
AcDbSpline
70
4
71
3
72
12
73
8
40
0
40
0
40
0
40
0
40
0.500000000000016
40
0.500000000000016
40
0.750000000000008
40
0.750000000000008
40
1
40
1
40
1
40
1
41
1
10
27.8032529421936
20
7.31242104406204
30
0
41
1
10
27.7923186305796
20
7.35322845055148
30
0
41
1
10
27.7754872823798
20
7.39260202611527
30
0
41
1
10
27.7384470407747
20
7.44259675074753
30
0
41
1
10
27.7240014136001
20
7.45779408287871
30
0
41
1
10
27.6898879193576
20
7.47876685171505
30
0
41
1
10
27.6698059233656
20
7.48371730405765
30
0
41
1
10
27.6516632300654
20
7.47749197002389
30
0
0
SPLINE
5
31C
100
AcDbEntity
8
1
62
256
6
ByLayer
370
18
48
1
60
0
100
AcDbSpline
70
4
71
3
72
18
73
14
40
0
40
0
40
0
40
0
40
0.124999999999999
40
0.124999999999999
40
0.249999999999998
40
0.249999999999998
40
0.499999999999995
40
0.499999999999995
40
0.749999999999992
40
0.749999999999992
40
0.874999999999996
40
0.874999999999996
40
1
40
1
40
1
40
1
41
1
10
27.6333634295646
20
6.69598107489065
30
0
41
1
10
27.620679694569
20
6.705953608199
30
0
41
1
10
27.6125225349394
20
6.72044666659778
30
0
41
1
10
27.601443477914
20
6.75232389160158
30
0
41
1
10
27.5986378711982
20
6.76968108257165
30
0
41
1
10
27.5956276990299
20
6.82336295402217
30
0
41
1
10
27.6007563208988
20
6.86136320962621
30
0
41
1
10
27.6211386067019
20
6.93590212149186
30
0
41
1
10
27.6364087074403
20
6.97253640450623
30
0
41
1
10
27.6673889207695
20
7.02123821115208
30
0
41
1
10
27.6791381749503
20
7.03648781653706
30
0
41
1
10
27.7059638821532
20
7.0623021052771
30
0
41
1
10
27.7209205810323
20
7.07294355998593
30
0
41
1
10
27.7376648309306
20
7.07773095685434
30
0
0
SPLINE
5
31D
100
AcDbEntity
8
1
62
256
6
ByLayer
370
18
48
1
60
0
100
AcDbSpline
70
4
71
3
72
8
73
4
40
0
40
0
40
0
40
0
40
1
40
1
40
1
40
1
41
1
10
26.5616159244924
20
6.41436951092723
30
0
41
1
10
26.5595228275167
20
6.40861492454286
30
0
41
1
10
26.5574300201179
20
6.40286143466793
30
0
41
1
10
26.5553374816709
20
6.3971089628528
30
0
0
SPLINE
5
31E
100
AcDbEntity
8
1
62
256
6
ByLayer
370
18
48
1
60
0
100
AcDbSpline
70
4
71
3
72
14
73
10
40
0
40
0
40
0
40
0
40
0.499999999999994
40
0.499999999999994
40
0.749999999999984
40
0.749999999999984
40
0.874999999999992
40
0.874999999999992
40
1
40
1
40
1
40
1
41
1
10
26.1092720230899
20
6.86731189876869
30
0
41
1
10
26.0983442399119
20
6.9080949408033
30
0
41
1
10
26.0931456564492
20
6.95053336593546
30
0
41
1
10
26.0996923384065
20
7.0118661154977
30
0
41
1
10
26.1043762064565
20
7.03212927299276
30
0
41
1
10
26.1180659160824
20
7.05817120217006
30
0
41
1
10
26.1236458065567
20
7.06591781155274
30
0
41
1
10
26.137852368402
20
7.07838035599914
30
0
41
1
10
26.1461739649214
20
7.08264010133843
30
0
41
1
10
26.1552487600884
20
7.08429523550075
30
0
0
SPLINE
5
31F
100
AcDbEntity
8
1
62
256
6
ByLayer
370
18
48
1
60
0
100
AcDbSpline
70
4
71
3
72
8
73
4
40
0
40
0
40
0
40
0
40
1
40
1
40
1
40
1
41
1
10
26.9596798869927
20
7.87702834536304
30
0
41
1
10
26.9582906192575
20
7.87003718112246
30
0
41
1
10
26.9569011729612
20
7.86304539701587
30
0
41
1
10
26.9555115344103
20
7.85605294588424
30
0
0
SPLINE
5
320
100
AcDbEntity
8
1
62
256
6
ByLayer
370
18
48
1
60
0
100
AcDbSpline
70
4
71
3
72
8
73
4
40
0
40
0
40
0
40
0
40
1
40
1
40
1
40
1
41
1
10
26.2799124839504
20
6.69469305253304
30
0
41
1
10
26.2735613765675
20
6.69317561907528
30
0
41
1
10
26.2672111478512
20
6.69165869592288
30
0
41
1
10
26.2608617352182
20
6.69014224637888
30
0
0
SPLINE
5
321
100
AcDbEntity
8
1
62
256
6
ByLayer
370
18
48
1
60
0
100
AcDbSpline
70
4
71
3
72
8
73
4
40
0
40
0
40
0
40
0
40
1
40
1
40
1
40
1
41
1
10
26.5695066925023
20
7.75462660552637
30
0
41
1
10
26.5650617816742
20
7.76008597487532
30
0
41
1
10
26.5606174857932
20
7.76554488929898
30
0
41
1
10
26.5561737610593
20
7.77100338084935
30
0
0
SPLINE
5
322
100
AcDbEntity
8
1
62
256
6
ByLayer
370
18
48
1
60
0
100
AcDbSpline
70
4
71
3
72
18
73
14
40
0
40
0
40
0
40
0
40
0.125000000000002
40
0.125000000000002
40
0.250000000000005
40
0.250000000000005
40
0.50000000000001
40
0.50000000000001
40
0.750000000000014
40
0.750000000000014
40
0.875000000000007
40
0.875000000000007
40
1
40
1
40
1
40
1
41
1
10
26.5616159244924
20
6.41436951092723
30
0
41
1
10
26.5670009906423
20
6.42917476300315
30
0
41
1
10
26.5661515469345
20
6.4457933266346
30
0
41
1
10
26.5587783971133
20
6.47842710346899
30
0
41
1
10
26.5520291398079
20
6.49489919688085
30
0
41
1
10
26.5268928829319
20
6.54235868306858
30
0
41
1
10
26.5032088586167
20
6.57265136693818
30
0
41
1
10
26.4481632662285
20
6.62747817121715
30
0
41
1
10
26.4168870134696
20
6.65194108963075
30
0
41
1
10
26.36659084831
20
6.67936201636235
30
0
41
1
10
26.3491675338731
20
6.68696976286907
30
0
41
1
10
26.3139413369948
20
6.69651871972906
30
0
41
1
10
26.2961990283871
20
6.69858430266467
30
0
41
1
10
26.2799124839504
20
6.69469305253304
30
0
0
SPLINE
5
323
100
AcDbEntity
8
1
62
256
6
ByLayer
370
18
48
1
60
0
100
AcDbSpline
70
4
71
3
72
8
73
4
40
0
40
0
40
0
40
0
40
1
40
1
40
1
40
1
41
1
10
27.3430182727813
20
6.40985811001227
30
0
41
1
10
27.3474631836093
20
6.40544812977419
30
0
41
1
10
27.3519074794904
20
6.40103906002125
30
0
41
1
10
27.3563512042242
20
6.39663083555342
30
0
0
SPLINE
5
324
100
AcDbEntity
8
1
62
256
6
ByLayer
370
18
48
1
60
0
100
AcDbSpline
70
4
71
3
72
12
73
8
40
0
40
0
40
0
40
0
40
0.5
40
0.5
40
0.75
40
0.75
40
1
40
1
40
1
40
1
41
1
10
27.1851256529539
20
7.92752049243757
30
0
41
1
10
27.1439709375881
20
7.93854695952001
30
0
41
1
10
27.1009254972595
20
7.94368708680432
30
0
41
1
10
27.0377183139815
20
7.93636719722224
30
0
41
1
10
27.0167661920879
20
7.93132651990575
30
0
41
1
10
26.9799655277971
20
7.91175542795557
30
0
41
1
10
26.9645816640728
20
7.89642892984497
30
0
41
1
10
26.9596798869927
20
7.87702834536304
30
0
0
SPLINE
5
325
100
AcDbEntity
8
1
62
256
6
ByLayer
370
18
48
1
60
0
100
AcDbSpline
70
4
71
3
72
8
73
4
40
0
40
0
40
0
40
0
40
1
40
1
40
1
40
1
41
1
10
27.3509090407912
20
7.7501152046114
30
0
41
1
10
27.3530021377669
20
7.75691918010668
30
0
41
1
10
27.3550949451657
20
7.7637225146523
30
0
41
1
10
27.3571874836127
20
7.77052525354998
30
0
0
SPLINE
5
326
100
AcDbEntity
8
1
62
256
6
ByLayer
370
18
48
1
60
0
100
AcDbSpline
70
4
71
3
72
12
73
8
40
0
40
0
40
0
40
0
40
0.25
40
0.25
40
0.5
40
0.5
40
1
40
1
40
1
40
1
41
1
10
26.5553374816709
20
6.3971089628528
30
0
41
1
10
26.5504294286408
20
6.38060647242222
30
0
41
1
10
26.5566724937817
20
6.36156885224935
30
0
41
1
10
26.5792009833111
20
6.32955075897294
30
0
41
1
10
26.5950010868369
20
6.31563655467002
30
0
41
1
10
26.6463607489854
20
6.2798746919288
30
0
41
1
10
26.6862504433618
20
6.26323735106663
30
0
41
1
10
26.7273993123296
20
6.25221245039316
30
0
0
SPLINE
5
327
100
AcDbEntity
8
1
62
256
6
ByLayer
370
18
48
1
60
0
100
AcDbSpline
70
4
71
3
72
8
73
4
40
0
40
0
40
0
40
0
40
1
40
1
40
1
40
1
41
1
10
26.9528450782909
20
6.29060587103973
30
0
41
1
10
26.9542343460261
20
6.29654676819774
30
0
41
1
10
26.9556237923224
20
6.30248870763367
30
0
41
1
10
26.9570134308733
20
6.30843176965436
30
0
0
SPLINE
5
328
100
AcDbEntity
8
1
62
256
6
ByLayer
370
18
48
1
60
0
100
AcDbSpline
70
4
71
3
72
8
73
4
40
0
40
0
40
0
40
0
40
1
40
1
40
1
40
1
41
1
10
27.6482458257145
20
6.68428073286225
30
0
41
1
10
27.6432856808166
20
6.68818004693497
30
0
41
1
10
27.6383248983967
20
6.69208014088318
30
0
41
1
10
27.6333634295646
20
6.69598107489065
30
0
0
SPLINE
5
329
100
AcDbEntity
8
1
62
256
6
ByLayer
370
18
48
1
60
0
100
AcDbSpline
70
4
71
3
72
18
73
14
40
0
40
0
40
0
40
0
40
0.125000000000003
40
0.125000000000003
40
0.250000000000005
40
0.250000000000005
40
0.500000000000011
40
0.500000000000011
40
0.750000000000016
40
0.750000000000016
40
0.875000000000008
40
0.875000000000008
40
1
40
1
40
1
40
1
41
1
10
26.9570134308733
20
6.30843176965436
30
0
41
1
10
26.9605659689854
20
6.32362489618293
30
0
41
1
10
26.9702139181277
20
6.33726562320371
30
0
41
1
10
26.9943700406538
20
6.36166627746164
30
0
41
1
10
27.0089039392946
20
6.37231803407414
30
0
41
1
10
27.0561749138473
20
6.40069460899025
30
0
41
1
10
27.0925965181902
20
6.41493928993867
30
0
41
1
10
27.1679727434561
20
6.43473004118025
30
0
41
1
10
27.2070204031218
20
6.44030914760353
30
0
41
1
10
27.2632732281006
20
6.43913707526255
30
0
41
1
10
27.2817237346075
20
6.43712052508096
30
0
41
1
10
27.3158961492888
20
6.42806026389954
30
0
41
1
10
27.3316345761087
20
6.42115234724295
30
0
41
1
10
27.3430182727813
20
6.40985811001227
30
0
0
SPLINE
5
32A
100
AcDbEntity
8
1
62
256
6
ByLayer
370
18
48
1
60
0
100
AcDbSpline
70
4
71
3
72
12
73
8
40
0
40
0
40
0
40
0
40
0.5
40
0.5
40
0.75
40
0.75
40
1
40
1
40
1
40
1
41
1
10
26.7273993123296
20
6.25221245039316
30
0
41
1
10
26.7685540276955
20
6.24118598331071
30
0
41
1
10
26.811599468024
20
6.23559728939713
30
0
41
1
10
26.8748066513021
20
6.24071061675952
30
0
41
1
10
26.8957587731957
20
6.24474804423048
30
0
41
1
10
26.9325594374865
20
6.26111179348888
30
0
41
1
10
26.9479433012107
20
6.27412045696556
30
0
41
1
10
26.9528450782909
20
6.29060587103973
30
0
0
SPLINE
5
32B
100
AcDbEntity
8
1
62
256
6
ByLayer
370
18
48
1
60
0
100
AcDbSpline
70
4
71
3
72
12
73
8
40
0
40
0
40
0
40
0
40
0.250000000000008
40
0.250000000000008
40
0.500000000000016
40
0.500000000000016
40
1
40
1
40
1
40
1
41
1
10
26.2608617352182
20
6.69014224637888
30
0
41
1
10
26.2426999215691
20
6.68682859421446
30
0
41
1
10
26.222320778563
20
6.69428277569929
30
0
41
1
10
26.1884949596646
20
6.71834294434549
30
0
41
1
10
26.1740124385438
20
6.73456302797936
30
0
41
1
10
26.1370380956168
20
6.78670247414428
30
0
41
1
10
26.1202047813866
20
6.82651028933893
30
0
41
1
10
26.1092720230899
20
6.86731189876869
30
0
0
SPLINE
5
32C
100
AcDbEntity
8
1
62
256
6
ByLayer
370
18
48
1
60
0
100
AcDbSpline
70
4
71
3
72
8
73
4
40
0
40
0
40
0
40
0
40
1
40
1
40
1
40
1
41
1
10
27.7376648309306
20
7.07773095685434
30
0
41
1
10
27.7442028387345
20
7.07960025755611
30
0
41
1
10
27.7507399420143
20
7.08146960001343
30
0
41
1
10
27.7572762051952
20
7.08333898090203
30
0
0
SPLINE
5
32D
100
AcDbEntity
8
1
62
256
6
ByLayer
370
18
48
1
60
0
100
AcDbSpline
70
4
71
3
72
12
73
8
40
0
40
0
40
0
40
0
40
0.249999999999999
40
0.249999999999999
40
0.499999999999998
40
0.499999999999998
40
1
40
1
40
1
40
1
41
1
10
27.7572762051952
20
7.08333898090203
30
0
41
1
10
27.775438313766
20
7.08956977507142
30
0
41
1
10
27.7899921718675
20
7.10620292551056
30
0
41
1
10
27.8081172915054
20
7.14391368348055
30
0
41
1
10
27.812826245877
20
7.16517650470209
30
0
41
1
10
27.8193840892976
20
7.22875443523193
30
0
41
1
10
27.8141857004902
20
7.2716194346323
30
0
41
1
10
27.8032529421936
20
7.31242104406204
30
0
0
SPLINE
5
32E
100
AcDbEntity
8
1
62
256
6
ByLayer
370
18
48
1
60
0
100
AcDbSpline
70
4
71
3
72
18
73
14
40
0
40
0
40
0
40
0
40
0.125
40
0.125
40
0.25
40
0.25
40
0.499999999999999
40
0.499999999999999
40
0.749999999999999
40
0.749999999999999
40
0.875
40
0.875
40
1
40
1
40
1
40
1
41
1
10
26.1748601343529
20
7.0867537586843
30
0
41
1
10
26.1915947309583
20
7.08885239333523
30
0
41
1
10
26.2066470281152
20
7.09714824284819
30
0
41
1
10
26.2335293864398
20
7.11890246718204
30
0
41
1
10
26.2452387524323
20
7.13239613386784
30
0
41
1
10
26.2762540962178
20
7.17704334301678
30
0
41
1
10
26.2915395641564
20
7.21238713196055
30
0
41
1
10
26.3118585873739
20
7.28703400300196
30
0
41
1
10
26.3168786206198
20
7.32595880465121
30
0
41
1
10
26.3139076341888
20
7.3836110027664
30
0
41
1
10
26.3111193941157
20
7.40270345212062
30
0
41
1
10
26.3001062773626
20
7.43869962694714
30
0
41
1
10
26.2919020704019
20
7.45579172699573
30
0
41
1
10
26.279161535719
20
7.46850364064798
30
0
0
SPLINE
5
32F
100
AcDbEntity
8
1
62
256
6
ByLayer
370
18
48
1
60
0
100
AcDbSpline
70
4
71
3
72
12
73
8
40
0
40
0
40
0
40
0
40
0.25
40
0.25
40
0.5
40
0.5
40
1
40
1
40
1
40
1
41
1
10
27.3563512042242
20
6.39663083555342
30
0
41
1
10
27.369605259765
20
6.38490001795827
30
0
41
1
10
27.3904021830074
20
6.38132201187878
30
0
41
1
10
27.4310557921747
20
6.38542711694151
30
0
41
1
10
27.4515648500721
20
6.3922720052721
30
0
41
1
10
27.5094823556413
20
6.41898734548619
30
0
41
1
10
27.5441736612103
20
6.44499031428356
30
0
41
1
10
27.5743897718815
20
6.47476702303985
30
0
0
SPLINE
5
330
100
AcDbEntity
8
1
62
256
6
ByLayer
370
18
48
1
60
0
100
AcDbSpline
70
4
71
3
72
18
73
14
40
0
40
0
40
0
40
0
40
0.125000000000006
40
0.125000000000006
40
0.250000000000008
40
0.250000000000008
40
0.500000000000013
40
0.500000000000013
40
0.750000000000017
40
0.750000000000017
40
0.875000000000009
40
0.875000000000009
40
1
40
1
40
1
40
1
41
1
10
26.9555115344103
20
7.85605294588424
30
0
41
1
10
26.9519589962981
20
7.83817711110126
30
0
41
1
10
26.9423110471559
20
7.82213094293664
30
0
41
1
10
26.9181549246297
20
7.79357297795556
30
0
41
1
10
26.903621025989
20
7.78118954282976
30
0
41
1
10
26.8563500514363
20
7.74862946253157
30
0
41
1
10
26.8199284470934
20
7.73295616332243
30
0
41
1
10
26.7445522218275
20
7.71316976673944
30
0
41
1
10
26.7055045621618
20
7.70902090888617
30
0
41
1
10
26.649251737183
20
7.71437526829604
30
0
41
1
10
26.630801230676
20
7.7181309218233
30
0
41
1
10
26.5966288159948
20
7.73134417750867
30
0
41
1
10
26.5808903891748
20
7.74064481666824
30
0
41
1
10
26.5695066925023
20
7.75462660552637
30
0
0
SPLINE
5
331
100
AcDbEntity
8
1
62
256
6
ByLayer
370
18
48
1
60
0
100
AcDbSpline
70
4
71
3
72
12
73
8
40
0
40
0
40
0
40
0
40
0.500000000000013
40
0.500000000000013
40
0.750000000000006
40
0.750000000000006
40
1
40
1
40
1
40
1
41
1
10
26.3381351934021
20
7.70496591979091
30
0
41
1
10
26.3079147896503
20
7.67518498038388
30
0
41
1
10
26.2817006975216
20
7.64072724878974
30
0
41
1
10
26.2555337558486
20
7.5823093534656
30
0
41
1
10
26.2490272611295
20
7.56156971909516
30
0
41
1
10
26.2463400910813
20
7.51942218696274
30
0
41
1
10
26.251038223349
20
7.49798631919262
30
0
41
1
10
26.2642791395691
20
7.48335348354055
30
0
0
SPLINE
5
332
100
AcDbEntity
8
1
62
256
6
ByLayer
370
18
48
1
60
0
100
AcDbSpline
70
4
71
3
72
12
73
8
40
0
40
0
40
0
40
0
40
0.250000000000001
40
0.250000000000001
40
0.500000000000002
40
0.500000000000002
40
1
40
1
40
1
40
1
41
1
10
26.5561737610593
20
7.77100338084935
30
0
41
1
10
26.5429197055186
20
7.78565244111249
30
0
41
1
10
26.5221227822762
20
7.79157751988348
30
0
41
1
10
26.4814691731089
20
7.79064753408244
30
0
41
1
10
26.4609601152115
20
7.78481010292791
30
0
41
1
10
26.4030426096423
20
7.76029621786299
30
0
41
1
10
26.3683513040733
20
7.73474262854717
30
0
41
1
10
26.3381351934021
20
7.70496591979091
30
0
0
SPLINE
5
333
100
AcDbEntity
8
1
62
256
6
ByLayer
370
18
48
1
60
0
100
AcDbSpline
70
4
71
3
72
18
73
14
40
0
40
0
40
0
40
0
40
0.125000000000008
40
0.125000000000008
40
0.250000000000015
40
0.250000000000015
40
0.500000000000013
40
0.500000000000013
40
0.750000000000012
40
0.750000000000012
40
0.875000000000006
40
0.875000000000006
40
1
40
1
40
1
40
1
41
1
10
27.6326124813332
20
7.46979166300557
30
0
41
1
10
27.6163762082254
20
7.46322971565814
30
0
41
1
10
27.5985710994535
20
7.46287932646428
30
0
41
1
10
27.5633359199019
20
7.46827724184854
30
0
41
1
10
27.5459964145454
20
7.47411683694946
30
0
41
1
10
27.4957152678244
20
7.49733038079282
30
0
41
1
10
27.4644222853504
20
7.5203716463181
30
0
41
1
10
27.4094283458876
20
7.57512198427145
30
0
41
1
10
27.3856507869604
20
7.60689228514755
30
0
41
1
10
27.3603781753107
20
7.65885730766882
30
0
41
1
10
27.3536769229846
20
7.67699301490822
30
0
41
1
10
27.3463302155062
20
7.71394406208168
30
0
41
1
10
27.3455484875654
20
7.73268979469859
30
0
41
1
10
27.3509090407912
20
7.7501152046114
30
0
0
SPLINE
5
334
100
AcDbEntity
8
1
62
256
6
ByLayer
370
18
48
1
60
0
100
AcDbSpline
70
4
71
3
72
12
73
8
40
0
40
0
40
0
40
0
40
0.250000000000011
40
0.250000000000011
40
0.500000000000022
40
0.500000000000022
40
1
40
1
40
1
40
1
41
1
10
27.3571874836127
20
7.77052525354998
30
0
41
1
10
27.3620955366428
20
7.78994598664855
30
0
41
1
10
27.3558524715019
20
7.81133067951291
30
0
41
1
10
27.3333239819725
20
7.84652389205104
30
0
41
1
10
27.3175238784467
20
7.86144555352999
30
0
41
1
10
27.2661642162982
20
7.89940887142035
30
0
41
1
10
27.2262745219217
20
7.91649559176409
30
0
41
1
10
27.1851256529539
20
7.92752049243757
30
0
0
SPLINE
5
335
100
AcDbEntity
8
1
62
256
6
ByLayer
370
18
48
1
60
0
100
AcDbSpline
70
4
71
3
72
12
73
8
40
0
40
0
40
0
40
0
40
0.500000000000008
40
0.500000000000008
40
0.750000000000004
40
0.750000000000004
40
1
40
1
40
1
40
1
41
1
10
27.5743897718815
20
6.47476702303985
30
0
41
1
10
27.6046101756333
20
6.50454796244685
30
0
41
1
10
27.6308242677621
20
6.53855712741168
30
0
41
1
10
27.656991209435
20
6.59476846051615
30
0
41
1
10
27.6634977041541
20
6.61450484504107
30
0
41
1
10
27.6661848742023
20
6.65344503448171
30
0
41
1
10
27.6614867419345
20
6.67256306761792
30
0
41
1
10
27.6482458257145
20
6.68428073286225
30
0
0
SPLINE
5
336
100
AcDbEntity
8
1
62
256
6
ByLayer
370
18
48
1
60
0
100
AcDbSpline
70
4
71
3
72
8
73
4
40
0
40
0
40
0
40
0
40
1
40
1
40
1
40
1
41
1
10
26.2642791395691
20
7.48335348354055
30
0
41
1
10
26.2692392844669
20
7.47840390238522
30
0
41
1
10
26.2742000668869
20
7.47345396376636
30
0
41
1
10
26.279161535719
20
7.46850364064798
30
0
0
SPLINE
5
337
100
AcDbEntity
8
1
62
256
6
ByLayer
370
18
48
1
60
0
100
AcDbSpline
70
4
71
3
72
8
73
4
40
0
40
0
40
0
40
0
40
1
40
1
40
1
40
1
41
1
10
26.1552487600884
20
7.08429523550078
30
0
41
1
10
26.1617850232693
20
7.08511434930679
30
0
41
1
10
26.1683221265491
20
7.08593384709343
30
0
41
1
10
26.1748601343529
20
7.0867537586843
30
0
0
SPLINE
5
338
100
AcDbEntity
8
1
62
256
6
ByLayer
370
18
48
1
60
0
100
AcDbSpline
70
4
71
3
72
12
73
8
40
0
40
0
40
0
40
0
40
0.250000000000008
40
0.250000000000008
40
0.500000000000016
40
0.500000000000016
40
1
40
1
40
1
40
1
41
1
10
26.5553374816708
20
-0.35471213346375
30
0
41
1
10
26.5504294286408
20
-0.367618661134941
30
0
41
1
10
26.5566724937817
20
-0.378809298925006
30
0
41
1
10
26.579200983311
20
-0.394828339165116
30
0
41
1
10
26.5950010868369
20
-0.400438862631859
30
0
41
1
10
26.6463607489854
20
-0.4134516455008
30
0
41
1
10
26.6862504433618
20
-0.417420199935037
30
0
41
1
10
26.7273993123296
20
-0.4189696486782
30
0
0
SPLINE
5
339
100
AcDbEntity
8
1
62
256
6
ByLayer
370
18
48
1
60
0
100
AcDbSpline
70
4
71
3
72
8
73
4
40
0
40
0
40
0
40
0
40
1
40
1
40
1
40
1
41
1
10
27.6482458257145
20
-0.314352773203666
30
0
41
1
10
27.6432856808166
20
-0.309994438343068
30
0
41
1
10
27.6383248983967
20
-0.30563752636948
30
0
41
1
10
27.6333634295646
20
-0.301282149083818
30
0
0
SPLINE
5
33A
100
AcDbEntity
8
1
62
256
6
ByLayer
370
18
48
1
60
0
100
AcDbSpline
70
4
71
3
72
12
73
8
40
0
40
0
40
0
40
0
40
0.439041347305746
40
0.439041347305746
40
0.878082694611491
40
0.878082694611491
40
1
40
1
40
1
40
1
41
1
10
27.6333634295646
20
-0.301282149083818
30
0
41
1
10
27.620679694569
20
-0.290147855356054
30
0
41
1
10
27.6125225349394
20
-0.279384155936299
30
0
41
1
10
27.601443477914
20
-0.259821566743653
30
0
41
1
10
27.5986378711982
20
-0.25109972043353
30
0
41
1
10
27.5973558491029
20
-0.241422469985736
30
0
41
1
10
27.59721477337
20
-0.239408391898024
30
0
41
1
10
27.5972057049188
20
-0.237485255228847
30
0
0
SPLINE
5
33B
100
AcDbEntity
8
1
62
256
6
ByLayer
370
18
48
1
60
0
100
AcDbSpline
70
4
71
3
72
8
73
4
40
0
40
0
40
0
40
0
40
1
40
1
40
1
40
1
41
1
10
27.3430182727813
20
-0.341494109395342
30
0
41
1
10
27.3474631836093
20
-0.345921028463181
30
0
41
1
10
27.3519074794904
20
-0.35034947232117
30
0
41
1
10
27.3563512042242
20
-0.354779329873509
30
0
0
SPLINE
5
33C
100
AcDbEntity
8
1
62
256
6
ByLayer
370
18
48
1
60
0
100
AcDbSpline
70
4
71
3
72
8
73
4
40
0
40
0
40
0
40
0
40
1
40
1
40
1
40
1
41
1
10
26.5616159244924
20
-0.340860073345084
30
0
41
1
10
26.5595228275166
20
-0.345475964483057
30
0
41
1
10
26.5574300201179
20
-0.350093354267187
30
0
41
1
10
26.5553374816708
20
-0.35471213346375
30
0
0
SPLINE
5
33D
100
AcDbEntity
8
1
62
256
6
ByLayer
370
18
48
1
60
0
100
AcDbSpline
70
4
71
3
72
14
73
10
40
0
40
0
40
0
40
0
40
0.500000000000002
40
0.500000000000002
40
0.749999999999996
40
0.749999999999996
40
0.874999999999998
40
0.874999999999998
40
1
40
1
40
1
40
1
41
1
10
26.1092720230899
20
-0.33252305877852
30
0
41
1
10
26.0983442399118
20
-0.326791376009282
30
0
41
1
10
26.0931456564492
20
-0.31919434046074
30
0
41
1
10
26.0996923384065
20
-0.302596228527534
30
0
41
1
10
26.1043762064565
20
-0.296105821062042
30
0
41
1
10
26.1180659160824
20
-0.283747867750407
30
0
41
1
10
26.1236458065567
20
-0.279275784756436
30
0
41
1
10
26.137852368402
20
-0.26910881301356
30
0
41
1
10
26.1461739649214
20
-0.263656993358865
30
0
41
1
10
26.1552487600884
20
-0.2581344011098
30
0
0
SPLINE
5
33E
100
AcDbEntity
8
1
62
256
6
ByLayer
370
18
48
1
60
0
100
AcDbSpline
70
4
71
3
72
12
73
8
40
0
40
0
40
0
40
0
40
0.425471298260271
40
0.425471298260271
40
0.850942596520542
40
0.850942596520542
40
1
40
1
40
1
40
1
41
1
10
27.7572762051952
20
-0.25826879392929
30
0
41
1
10
27.775438313766
20
-0.267980366807251
30
0
41
1
10
27.7899921718675
20
-0.274157804721028
30
0
41
1
10
27.8081172915054
20
-0.280377094004138
30
0
41
1
10
27.812826245877
20
-0.281043808941348
30
0
41
1
10
27.8157780072783
20
-0.280616871517708
30
0
41
1
10
27.816250169916
20
-0.280390685787097
30
0
41
1
10
27.8164492987565
20
-0.280062094001863
30
0
0
SPLINE
5
33F
100
AcDbEntity
8
1
62
256
6
ByLayer
370
18
48
1
60
0
100
AcDbSpline
70
4
71
3
72
8
73
4
40
0
40
0
40
0
40
0
40
1
40
1
40
1
40
1
41
1
10
27.8165590866686
20
-0.27967293221451
30
0
41
1
10
27.8165873870955
20
-0.278142994033715
30
0
41
1
10
27.812725502783
20
-0.275181493084887
30
0
41
1
10
27.8061284980317
20
-0.271517519038099
30
0
0
SPLINE
5
340
100
AcDbEntity
8
1
62
256
6
ByLayer
370
18
48
1
60
0
100
AcDbSpline
70
4
71
3
72
12
73
8
40
0
40
0
40
0
40
0
40
0.250000000000004
40
0.250000000000004
40
0.500000000000008
40
0.500000000000008
40
1
40
1
40
1
40
1
41
1
10
26.2608617352182
20
-0.313528991201423
30
0
41
1
10
26.2426999215691
20
-0.324581948533933
30
0
41
1
10
26.222320778563
20
-0.332049406406242
30
0
41
1
10
26.1884949596646
20
-0.340187160907106
30
0
41
1
10
26.1740124385437
20
-0.341562586394019
30
0
41
1
10
26.1370380956168
20
-0.342221645937883
30
0
41
1
10
26.1202047813866
20
-0.338257351024993
30
0
41
1
10
26.1092720230899
20
-0.33252305877852
30
0
0
SPLINE
5
341
100
AcDbEntity
8
1
62
256
6
ByLayer
370
18
48
1
60
0
100
AcDbSpline
70
4
71
3
72
8
73
4
40
0
40
0
40
0
40
0
40
1
40
1
40
1
40
1
41
1
10
26.2799124839504
20
-0.301463168821073
30
0
41
1
10
26.2735613765675
20
-0.305483566949988
30
0
41
1
10
26.2672111478512
20
-0.309505546110671
30
0
41
1
10
26.2608617352182
20
-0.313528991201423
30
0
0
SPLINE
5
342
100
AcDbEntity
8
1
62
256
6
ByLayer
370
18
48
1
60
0
100
AcDbSpline
70
4
71
3
72
18
73
14
40
0
40
0
40
0
40
0
40
0.125000000000004
40
0.125000000000004
40
0.250000000000008
40
0.250000000000008
40
0.500000000000012
40
0.500000000000012
40
0.750000000000016
40
0.750000000000016
40
0.875000000000008
40
0.875000000000008
40
1
40
1
40
1
40
1
41
1
10
26.5616159244924
20
-0.340860073345084
30
0
41
1
10
26.5670009906423
20
-0.328984427158247
30
0
41
1
10
26.5661515469345
20
-0.317847275854206
30
0
41
1
10
26.5587783971133
20
-0.298294699527474
30
0
41
1
10
26.5520291398079
20
-0.28965127417257
30
0
41
1
10
26.5268928829319
20
-0.267929704715158
30
0
41
1
10
26.5032088586167
20
-0.258456594362713
30
0
41
1
10
26.4481632662284
20
-0.250713698036577
30
0
41
1
10
26.4168870134696
20
-0.252451797589686
30
0
41
1
10
26.36659084831
20
-0.263771586766239
30
0
41
1
10
26.3491675338731
20
-0.269014948082002
30
0
41
1
10
26.3139413369948
20
-0.282753123836414
30
0
41
1
10
26.2961990283871
20
-0.291153408832486
30
0
41
1
10
26.2799124839504
20
-0.301463168821073
30
0
0
SPLINE
5
343
100
AcDbEntity
8
1
62
256
6
ByLayer
370
18
48
1
60
0
100
AcDbSpline
70
4
71
3
72
18
73
14
40
0
40
0
40
0
40
0
40
0.125000000000003
40
0.125000000000003
40
0.250000000000006
40
0.250000000000006
40
0.500000000000011
40
0.500000000000011
40
0.750000000000016
40
0.750000000000016
40
0.875000000000008
40
0.875000000000008
40
1
40
1
40
1
40
1
41
1
10
26.9570134308732
20
-0.355748651930043
30
0
41
1
10
26.9605659689854
20
-0.343880651673487
30
0
41
1
10
26.9702139181277
20
-0.333236739617035
30
0
41
1
10
26.9943700406538
20
-0.314724913917729
30
0
41
1
10
27.0089039392946
20
-0.306945454949272
30
0
41
1
10
27.0561749138473
20
-0.287779816990906
30
0
41
1
10
27.0925965181902
20
-0.280594894480316
30
0
41
1
10
27.1679727434561
20
-0.277829284287975
30
0
41
1
10
27.2070204031218
20
-0.282234069863648
30
0
41
1
10
27.2632732281006
20
-0.297571944336681
30
0
41
1
10
27.2817237346075
20
-0.304164741145286
30
0
41
1
10
27.3158961492888
20
-0.320504956146777
30
0
41
1
10
27.3316345761087
20
-0.330156490754462
30
0
41
1
10
27.3430182727813
20
-0.341494109395342
30
0
0
SPLINE
5
344
100
AcDbEntity
8
1
62
256
6
ByLayer
370
18
48
1
60
0
100
AcDbSpline
70
4
71
3
72
8
73
4
40
0
40
0
40
0
40
0
40
1
40
1
40
1
40
1
41
1
10
27.7376648309306
20
-0.247630702025106
30
0
41
1
10
27.7442028387345
20
-0.251175125708301
30
0
41
1
10
27.7507399420143
20
-0.254721196273692
30
0
41
1
10
27.7572762051952
20
-0.25826879392929
30
0
0
SPLINE
5
345
100
AcDbEntity
8
1
62
256
6
ByLayer
370
18
48
1
60
0
100
AcDbSpline
70
4
71
3
72
12
73
8
40
0
40
0
40
0
40
0
40
0.500000000000008
40
0.500000000000008
40
0.750000000000004
40
0.750000000000004
40
1
40
1
40
1
40
1
41
1
10
27.5743897718815
20
-0.387691643271609
30
0
41
1
10
27.6046101756333
20
-0.383506205189121
30
0
41
1
10
27.6308242677621
20
-0.377099149086916
30
0
41
1
10
27.656991209435
20
-0.361193852360373
30
0
41
1
10
27.6634977041541
20
-0.354780338832399
30
0
41
1
10
27.6661848742023
20
-0.337671556256282
30
0
41
1
10
27.6614867419345
20
-0.326575691526557
30
0
41
1
10
27.6482458257145
20
-0.314352773203666
30
0
0
SPLINE
5
346
100
AcDbEntity
8
1
62
256
6
ByLayer
370
18
48
1
60
0
100
AcDbSpline
70
4
71
3
72
12
73
8
40
0
40
0
40
0
40
0
40
0.5
40
0.5
40
0.75
40
0.75
40
1
40
1
40
1
40
1
41
1
10
26.7273993123296
20
-0.4189696486782
30
0
41
1
10
26.7685540276955
20
-0.420519317565777
30
0
41
1
10
26.811599468024
20
-0.419677377602767
30
0
41
1
10
26.8748066513021
20
-0.410953437254847
30
0
41
1
10
26.8957587731957
20
-0.406746268255205
30
0
41
1
10
26.9325594374865
20
-0.392810397426928
30
0
41
1
10
26.9479433012107
20
-0.382573148608628
30
0
41
1
10
26.9528450782909
20
-0.369680166885558
30
0
0
SPLINE
5
347
100
AcDbEntity
8
1
62
256
6
ByLayer
370
18
48
1
60
0
100
AcDbSpline
70
4
71
3
72
8
73
4
40
0
40
0
40
0
40
0
40
1
40
1
40
1
40
1
41
1
10
26.9528450782909
20
-0.369680166885558
30
0
41
1
10
26.9542343460261
20
-0.36503490623403
30
0
41
1
10
26.9556237923224
20
-0.360391031591263
30
0
41
1
10
26.9570134308732
20
-0.355748651930043
30
0
0
SPLINE
5
348
100
AcDbEntity
8
1
62
256
6
ByLayer
370
18
48
1
60
0
100
AcDbSpline
70
4
71
3
72
12
73
8
40
0
40
0
40
0
40
0
40
0.250000000000009
40
0.250000000000009
40
0.500000000000018
40
0.500000000000018
40
1
40
1
40
1
40
1
41
1
10
27.3563512042242
20
-0.354779329873509
30
0
41
1
10
27.369605259765
20
-0.367015242661466
30
0
41
1
10
27.3904021830074
20
-0.376033173382666
30
0
41
1
10
27.4310557921747
20
-0.38697542917609
30
0
41
1
10
27.4515648500721
20
-0.389668452436439
30
0
41
1
10
27.5094823556413
20
-0.393900637052184
30
0
41
1
10
27.5441736612103
20
-0.391876486774919
30
0
41
1
10
27.5743897718815
20
-0.387691643271609
30
0
0
LINE
5
70
100
AcDbEntity
8
81
62
256
6
ByLayer
370
18
48
1
60
0
100
AcDbLine
10
30
20
10
30
0
11
35
21
10
31
0
39
0
210
0
220
0
230
1
0
LINE
5
71
100
AcDbEntity
8
80
62
256
6
ByLayer
370
18
48
1
60
0
100
AcDbLine
10
0
20
0
30
0
11
-5
21
0
31
0
39
0
210
0
220
0
230
1
0
LINE
5
72
100
AcDbEntity
8
1
62
256
6
ByLayer
370
18
48
1
60
0
100
AcDbLine
10
8.7
20
7.75
30
0
11
0
21
7.75
31
0
39
0
210
0
220
0
230
1
0
LINE
5
74
100
AcDbEntity
8
SK4
62
256
6
ByLayer
370
13
48
0.05
60
0
100
AcDbLine
10
35
20
0
30
0
11
-22
21
0
31
0
39
0
210
0
220
0
230
1
0
LINE
5
76
100
AcDbEntity
8
1
62
256
6
ByLayer
370
18
48
1
60
0
100
AcDbLine
10
0
20
-7.75
30
0
11
8.7
21
-7.75
31
0
39
0
210
0
220
0
230
1
0
LINE
5
77
100
AcDbEntity
8
1
62
256
6
ByLayer
370
18
48
1
60
0
100
AcDbLine
10
9.22915
20
-7.55
30
0
11
13.053033
21
-7.55
31
0
39
0
210
0
220
0
230
1
0
LINE
5
78
100
AcDbEntity
8
1
62
256
6
ByLayer
370
18
48
1
60
0
100
AcDbLine
10
13.053033
20
7.55
30
0
11
9.22915
21
7.55
31
0
39
0
210
0
220
0
230
1
0
LINE
5
79
100
AcDbEntity
8
1
62
256
6
ByLayer
370
18
48
1
60
0
100
AcDbLine
10
-2.8
20
5.631559
30
0
11
-13
21
4.559496
31
0
39
0
210
0
220
0
230
1
0
LINE
5
7A
100
AcDbEntity
8
1
62
256
6
ByLayer
370
18
48
1
60
0
100
AcDbLine
10
-13
20
-4.559496
30
0
11
-2.8
21
-5.631559
31
0
39
0
210
0
220
0
230
1
0
LINE
5
7B
100
AcDbEntity
8
1
62
256
6
ByLayer
370
18
48
1
60
0
100
AcDbLine
10
-13.5
20
3.5
30
0
11
-16.8
21
3.5
31
0
39
0
210
0
220
0
230
1
0
LINE
5
7C
100
AcDbEntity
8
1
62
256
6
ByLayer
370
18
48
1
60
0
100
AcDbLine
10
-16.8
20
-3.5
30
0
11
-13.5
21
-3.5
31
0
39
0
210
0
220
0
230
1
0
LINE
5
7D
100
AcDbEntity
8
1
62
256
6
ByLayer
370
18
48
1
60
0
100
AcDbLine
10
-17
20
-3.3
30
0
11
-16.8
21
-3.5
31
0
39
0
210
0
220
0
230
1
0
LINE
5
7E
100
AcDbEntity
8
1
62
256
6
ByLayer
370
18
48
1
60
0
100
AcDbLine
10
20.805073
20
8
30
0
11
17.973935
21
8
31
0
39
0
210
0
220
0
230
1
0
LINE
5
7F
100
AcDbEntity
8
1
62
256
6
ByLayer
370
18
48
1
60
0
100
AcDbLine
10
17.786479
20
7.991196
30
0
11
13.146761
21
7.554402
31
0
39
0
210
0
220
0
230
1
0
LINE
5
80
100
AcDbEntity
8
1
62
256
6
ByLayer
370
18
48
1
60
0
100
AcDbLine
10
13.146761
20
-7.554402
30
0
11
17.786479
21
-7.991196
31
0
39
0
210
0
220
0
230
1
0
LINE
5
81
100
AcDbEntity
8
1
62
256
6
ByLayer
370
18
48
1
60
0
100
AcDbLine
10
17.973935
20
-8
30
0
11
20.805073
21
-8
31
0
39
0
210
0
220
0
230
1
0
LINE
5
82
100
AcDbEntity
8
1
62
256
6
ByLayer
370
18
48
1
60
0
100
AcDbLine
10
-0.384645
20
5.724348
30
0
11
-2.8
21
5.631559
31
0
39
0
210
0
220
0
230
1
0
LINE
5
83
100
AcDbEntity
8
1
62
256
6
ByLayer
370
18
48
1
60
0
100
AcDbLine
10
-2.8
20
-5.631559
30
0
11
-0.384645
21
-5.724348
31
0
39
0
210
0
220
0
230
1
0
LINE
5
84
100
AcDbEntity
8
1
62
256
6
ByLayer
370
18
48
1
60
0
100
AcDbLine
10
-16.8
20
3.5
30
0
11
-17
21
3.3
31
0
39
0
210
0
220
0
230
1
0
LINE
5
85
100
AcDbEntity
8
1
62
256
6
ByLayer
370
18
48
1
60
0
100
AcDbLine
10
25.956262
20
-6.540133
30
0
11
25.956262
21
-6.748892
31
0
39
0
210
0
220
0
230
1
0
LINE
5
86
100
AcDbEntity
8
1
62
256
6
ByLayer
370
18
48
1
60
0
100
AcDbLine
10
25.656262
20
7.087409
30
0
11
25.656262
21
6.999404
31
0
39
0
210
0
220
0
230
1
0
LINE
5
87
100
AcDbEntity
8
1
62
256
6
ByLayer
370
18
48
1
60
0
100
AcDbLine
10
28.256262
20
6.999404
30
0
11
28.256262
21
7.087409
31
0
39
0
210
0
220
0
230
1
0
LINE
5
88
100
AcDbEntity
8
1
62
256
6
ByLayer
370
18
48
1
60
0
100
AcDbLine
10
26.565397
20
6.351151
30
0
11
26.565397
21
6.437751
31
0
39
0
210
0
220
0
230
1
0
LINE
5
89
100
AcDbEntity
8
1
62
256
6
ByLayer
370
18
48
1
60
0
100
AcDbLine
10
27.59722
20
6.802707
30
0
11
27.59722
21
6.695265
31
0
39
0
210
0
220
0
230
1
0
LINE
5
8A
100
AcDbEntity
8
1
62
256
6
ByLayer
370
18
48
1
60
0
100
AcDbLine
10
26.315305
20
7.240915
30
0
11
26.315305
21
7.348386
31
0
39
0
210
0
220
0
230
1
0
LINE
5
8B
100
AcDbEntity
8
1
62
256
6
ByLayer
370
18
48
1
60
0
100
AcDbLine
10
27.347128
20
7.722963
30
0
11
27.347128
21
7.610682
31
0
39
0
210
0
220
0
230
1
0
LINE
5
8C
100
AcDbEntity
8
1
62
256
6
ByLayer
370
18
48
1
60
0
100
AcDbLine
10
29.316853
20
-1.831532
30
0
11
29.357297
21
-1.832852
31
0
39
0
210
0
220
0
230
1
0
LINE
5
8D
100
AcDbEntity
8
1
62
256
6
ByLayer
370
18
48
1
60
0
100
AcDbLine
10
29.357297
20
1.832852
30
0
11
29.316853
21
1.831532
31
0
39
0
210
0
220
0
230
1
0
LINE
5
8E
100
AcDbEntity
8
1
62
256
6
ByLayer
370
18
48
1
60
0
100
AcDbLine
10
27.59722
20
-0.226052
30
0
11
27.59722
21
-0.237591
31
0
39
0
210
0
220
0
230
1
0
LINE
5
8F
100
AcDbEntity
8
1
62
256
6
ByLayer
370
18
48
1
60
0
100
AcDbLine
10
26.565397
20
-0.32379
30
0
11
26.565397
21
-0.212718
31
0
39
0
210
0
220
0
230
1
0
LINE
5
90
100
AcDbEntity
8
1
62
256
6
ByLayer
370
13
48
1
60
0
100
AcDbLine
10
29.3164
20
-1.802803
30
0
11
29.540732
21
-0.668595
31
0
39
0
210
0
220
0
230
1
0
LINE
5
91
100
AcDbEntity
8
1
62
256
6
ByLayer
370
13
48
1
60
0
100
AcDbLine
10
29.711426
20
0.194421
30
0
11
29.798883
21
0.636601
31
0
39
0
210
0
220
0
230
1
0
LINE
5
92
100
AcDbEntity
8
1
62
256
6
ByLayer
370
13
48
1
60
0
100
AcDbLine
10
29.214459
20
-1.888786
30
0
11
29.212578
21
-1.881908
31
0
39
0
210
0
220
0
230
1
0
LINE
5
93
100
AcDbEntity
8
1
62
256
6
ByLayer
370
18
48
1
60
0
100
AcDbLine
10
29.360177
20
-1.83148
30
0
11
29.357657
21
-1.832872
31
0
39
0
210
0
220
0
230
1
0
LINE
5
94
100
AcDbEntity
8
1
62
256
6
ByLayer
370
18
48
1
60
0
100
AcDbLine
10
29.198941
20
-1.904366
30
0
11
29.192555
21
-1.906566
31
0
39
0
210
0
220
0
230
1
0
LINE
5
95
100
AcDbEntity
8
1
62
256
6
ByLayer
370
13
48
1
60
0
100
AcDbLine
10
29.312413
20
-1.831416
30
0
11
29.318711
21
-1.830091
31
0
39
0
210
0
220
0
230
1
0
LINE
5
96
100
AcDbEntity
8
1
62
256
6
ByLayer
370
18
48
1
60
0
100
AcDbLine
10
29.192555
20
-1.906566
30
0
11
29.13
21
-1.904256
31
0
39
0
210
0
220
0
230
1
0
LINE
5
97
100
AcDbEntity
8
1
62
256
6
ByLayer
370
13
48
1
60
0
100
AcDbLine
10
29.316922
20
-1.831534
30
0
11
29.321513
21
-1.830218
31
0
39
0
210
0
220
0
230
1
0
LINE
5
98
100
AcDbEntity
8
1
62
256
6
ByLayer
370
13
48
1
60
0
100
AcDbLine
10
29.217317
20
-1.884452
30
0
11
29.217042
21
-1.876491
31
0
39
0
210
0
220
0
230
1
0
LINE
5
99
100
AcDbEntity
8
1
62
256
6
ByLayer
370
13
48
1
60
0
100
AcDbLine
10
29.321513
20
-1.830218
30
0
11
29.360177
21
-1.83148
31
0
39
0
210
0
220
0
230
1
0
LINE
5
9A
100
AcDbEntity
8
1
62
256
6
ByLayer
370
13
48
1
60
0
100
AcDbLine
10
29.147865
20
-1.788593
30
0
11
29.159159
21
-1.783295
31
0
39
0
210
0
220
0
230
1
0
LINE
5
9B
100
AcDbEntity
8
1
62
256
6
ByLayer
370
18
48
1
60
0
100
AcDbLine
10
24.624454
20
6.154152
30
0
11
24.052593
21
8.288368
31
0
39
0
210
0
220
0
230
1
0
LINE
5
9C
100
AcDbEntity
8
1
62
256
6
ByLayer
370
18
48
1
60
0
100
AcDbLine
10
28.885358
20
9.558222
30
0
11
29.859932
21
5.921064
31
0
39
0
210
0
220
0
230
1
0
LINE
5
9D
100
AcDbEntity
8
1
62
256
6
ByLayer
370
18
48
1
60
0
100
AcDbLine
10
29.129947
20
5.114533
30
0
11
29.43388
21
5.194394
31
0
39
0
210
0
220
0
230
1
0
LINE
5
9E
100
AcDbEntity
8
1
62
256
6
ByLayer
370
18
48
1
60
0
100
AcDbLine
10
24.478645
20
9.015038
30
0
11
28.151547
21
9.980127
31
0
39
0
210
0
220
0
230
1
0
LINE
5
9F
100
AcDbEntity
8
1
62
256
6
ByLayer
370
13
48
1
60
0
100
AcDbLine
10
25.896385
20
-8.501945
30
0
11
25.905388
21
-8.468345
31
0
39
0
210
0
220
0
230
1
0
LINE
5
A0
100
AcDbEntity
8
1
62
256
6
ByLayer
370
13
48
1
60
0
100
AcDbLine
10
28.998189
20
-7.36387
30
0
11
28.949862
21
-7.351171
31
0
39
0
210
0
220
0
230
1
0
LINE
5
A1
100
AcDbEntity
8
1
62
256
6
ByLayer
370
13
48
1
60
0
100
AcDbLine
10
28.777511
20
-7.913856
30
0
11
28.53569
21
-8.606795
31
0
39
0
210
0
220
0
230
1
0
LINE
5
A2
100
AcDbEntity
8
1
62
256
6
ByLayer
370
13
48
1
60
0
100
AcDbLine
10
28.492489
20
-8.730588
30
0
11
28.434305
21
-8.897315
31
0
39
0
210
0
220
0
230
1
0
LINE
5
A3
100
AcDbEntity
8
1
62
256
6
ByLayer
370
13
48
1
60
0
100
AcDbLine
10
28.482222
20
-8.911143
30
0
11
28.440526
21
-8.898894
31
0
39
0
210
0
220
0
230
1
0
LINE
5
A4
100
AcDbEntity
8
1
62
256
6
ByLayer
370
13
48
1
60
0
100
AcDbLine
10
29.088199
20
-6.754353
30
0
11
29.305801
21
-5.644848
31
0
39
0
210
0
220
0
230
1
0
LINE
5
A5
100
AcDbEntity
8
1
62
256
6
ByLayer
370
13
48
1
60
0
100
AcDbLine
10
28.777511
20
-7.913856
30
0
11
28.825031
21
-7.92919
31
0
39
0
210
0
220
0
230
1
0
LINE
5
A6
100
AcDbEntity
8
1
62
256
6
ByLayer
370
13
48
1
60
0
100
AcDbLine
10
25.894958
20
-8.51727
30
0
11
25.411432
21
-8.337646
31
0
39
0
210
0
220
0
230
1
0
LINE
5
A7
100
AcDbEntity
8
1
62
256
6
ByLayer
370
13
48
1
60
0
100
AcDbLine
10
27.017239
20
-8.925925
30
0
11
27.007179
21
-8.974365
31
0
39
0
210
0
220
0
230
1
0
LINE
5
A8
100
AcDbEntity
8
1
62
256
6
ByLayer
370
18
48
1
60
0
100
AcDbLine
10
29.198941
20
-5.587025
30
0
11
29.192555
21
-5.602679
31
0
39
0
210
0
220
0
230
1
0
LINE
5
A9
100
AcDbEntity
8
1
62
256
6
ByLayer
370
18
48
1
60
0
100
AcDbLine
10
29.192555
20
-5.602679
30
0
11
29.13
21
-5.586242
31
0
39
0
210
0
220
0
230
1
0
LINE
5
AA
100
AcDbEntity
8
1
62
256
6
ByLayer
370
18
48
1
60
0
100
AcDbLine
10
25.559763
20
-8.376894
30
0
11
25.896385
21
-8.501945
31
0
39
0
210
0
220
0
230
1
0
LINE
5
AB
100
AcDbEntity
8
1
62
256
6
ByLayer
370
13
48
1
60
0
100
AcDbLine
10
29.129998
20
-5.988539
30
0
11
29.208352
21
-5.589029
31
0
39
0
210
0
220
0
230
1
0
LINE
5
AC
100
AcDbEntity
8
1
62
256
6
ByLayer
370
13
48
1
60
0
100
AcDbLine
10
28.129577
20
-9.109592
30
0
11
28.12051
21
-9.147879
31
0
39
0
210
0
220
0
230
1
0
LINE
5
AD
100
AcDbEntity
8
1
62
256
6
ByLayer
370
18
48
1
60
0
100
AcDbLine
10
25.830797
20
-8.665259
30
0
11
24.800678
21
-8.282582
31
0
39
0
210
0
220
0
230
1
0
LINE
5
AE
100
AcDbEntity
8
1
62
256
6
ByLayer
370
18
48
1
60
0
100
AcDbLine
10
27.343334
20
-8.848792
30
0
11
27.026756
21
-8.798961
31
0
39
0
210
0
220
0
230
1
0
LINE
5
AF
100
AcDbEntity
8
1
62
256
6
ByLayer
370
13
48
1
60
0
100
AcDbLine
10
27.021788
20
-8.813355
30
0
11
27.485225
21
-8.886303
31
0
39
0
210
0
220
0
230
1
0
LINE
5
B0
100
AcDbEntity
8
1
62
256
6
ByLayer
370
18
48
1
60
0
100
AcDbLine
10
28.885358
20
-9.558222
30
0
11
29.859932
21
-5.921064
31
0
39
0
210
0
220
0
230
1
0
LINE
5
B1
100
AcDbEntity
8
1
62
256
6
ByLayer
370
13
48
1
60
0
100
AcDbLine
10
27.018698
20
-8.797678
30
0
11
27.021788
21
-8.813355
31
0
39
0
210
0
220
0
230
1
0
LINE
5
B2
100
AcDbEntity
8
1
62
256
6
ByLayer
370
13
48
1
60
0
100
AcDbLine
10
27.026756
20
-8.798961
30
0
11
27.035241
21
-8.767295
31
0
39
0
210
0
220
0
230
1
0
LINE
5
B3
100
AcDbEntity
8
1
62
256
6
ByLayer
370
13
48
1
60
0
100
AcDbLine
10
28.428661
20
-8.937633
30
0
11
28.466733
21
-8.948818
31
0
39
0
210
0
220
0
230
1
0
LINE
5
B4
100
AcDbEntity
8
1
62
256
6
ByLayer
370
13
48
1
60
0
100
AcDbLine
10
26.45403
20
-8.693645
30
0
11
26.457355
21
-8.678346
31
0
39
0
210
0
220
0
230
1
0
LINE
5
B5
100
AcDbEntity
8
1
62
256
6
ByLayer
370
13
48
1
60
0
100
AcDbLine
10
29.321513
20
-5.605463
30
0
11
29.360177
21
-5.614442
31
0
39
0
210
0
220
0
230
1
0
LINE
5
B6
100
AcDbEntity
8
1
62
256
6
ByLayer
370
18
48
1
60
0
100
AcDbLine
10
29.137174
20
-6.764256
30
0
11
29.352688
21
-5.665401
31
0
39
0
210
0
220
0
230
1
0
LINE
5
B7
100
AcDbEntity
8
1
62
256
6
ByLayer
370
18
48
1
60
0
100
AcDbLine
10
29.192555
20
-5.602679
30
0
11
29.129999
21
-5.921638
31
0
39
0
210
0
220
0
230
1
0
LINE
5
B8
100
AcDbEntity
8
1
62
256
6
ByLayer
370
13
48
1
60
0
100
AcDbLine
10
25.846341
20
-8.61826
30
0
11
24.806239
21
-8.231874
31
0
39
0
210
0
220
0
230
1
0
LINE
5
B9
100
AcDbEntity
8
1
62
256
6
ByLayer
370
13
48
1
60
0
100
AcDbLine
10
24.76466
20
-8.225429
30
0
11
24.753366
21
-8.263131
31
0
39
0
210
0
220
0
230
1
0
LINE
5
BA
100
AcDbEntity
8
1
62
256
6
ByLayer
370
13
48
1
60
0
100
AcDbLine
10
29.354332
20
-5.656384
30
0
11
29.311988
21
-5.64655
31
0
39
0
210
0
220
0
230
1
0
LINE
5
BB
100
AcDbEntity
8
1
62
256
6
ByLayer
370
13
48
1
60
0
100
AcDbLine
10
29.3164
20
-5.410397
30
0
11
29.798883
21
-5.47035
31
0
39
0
210
0
220
0
230
1
0
LINE
5
BC
100
AcDbEntity
8
1
62
256
6
ByLayer
370
18
48
1
60
0
100
AcDbLine
10
28.825031
20
-7.92919
30
0
11
28.48512
21
-8.903209
31
0
39
0
210
0
220
0
230
1
0
LINE
5
BD
100
AcDbEntity
8
1
62
256
6
ByLayer
370
13
48
1
60
0
100
AcDbLine
10
25.846341
20
-8.61826
30
0
11
25.830797
21
-8.665259
31
0
39
0
210
0
220
0
230
1
0
LINE
5
BE
100
AcDbEntity
8
1
62
256
6
ByLayer
370
13
48
1
60
0
100
AcDbLine
10
28.32656
20
-9.104528
30
0
11
28.606691
21
-9.919673
31
0
39
0
210
0
220
0
230
1
0
LINE
5
BF
100
AcDbEntity
8
1
62
256
6
ByLayer
370
13
48
1
60
0
100
AcDbLine
10
28.079031
20
-9.142958
30
0
11
28.088961
21
-9.101026
31
0
39
0
210
0
220
0
230
1
0
LINE
5
C0
100
AcDbEntity
8
1
62
256
6
ByLayer
370
13
48
1
60
0
100
AcDbLine
10
25.904199
20
-8.504833
30
0
11
25.894958
21
-8.51727
31
0
39
0
210
0
220
0
230
1
0
LINE
5
C1
100
AcDbEntity
8
1
62
256
6
ByLayer
370
13
48
1
60
0
100
AcDbLine
10
29.147865
20
-5.30929
30
0
11
29.159159
21
-5.271588
31
0
39
0
210
0
220
0
230
1
0
LINE
5
C2
100
AcDbEntity
8
1
62
256
6
ByLayer
370
13
48
1
60
0
100
AcDbLine
10
29.088199
20
-6.754353
30
0
11
29.137174
21
-6.764256
31
0
39
0
210
0
220
0
230
1
0
LINE
5
C3
100
AcDbEntity
8
1
62
256
6
ByLayer
370
13
48
1
60
0
100
AcDbLine
10
26.414454
20
-8.849389
30
0
11
26.427278
21
-8.801532
31
0
39
0
210
0
220
0
230
1
0
LINE
5
C4
100
AcDbEntity
8
1
62
256
6
ByLayer
370
18
48
1
60
0
100
AcDbLine
10
24.478645
20
-9.015038
30
0
11
28.151547
21
-9.980127
31
0
39
0
210
0
220
0
230
1
0
LINE
5
C5
100
AcDbEntity
8
1
62
256
6
ByLayer
370
18
48
1
60
0
100
AcDbLine
10
29.129947
20
-5.114533
30
0
11
29.43388
21
-5.194394
31
0
39
0
210
0
220
0
230
1
0
LINE
5
C6
100
AcDbEntity
8
1
62
256
6
ByLayer
370
18
48
1
60
0
100
AcDbLine
10
27.007179
20
-8.974365
30
0
11
28.070306
21
-9.141707
31
0
39
0
210
0
220
0
230
1
0
LINE
5
C7
100
AcDbEntity
8
1
62
256
6
ByLayer
370
13
48
1
60
0
100
AcDbLine
10
24.596125
20
-8.124322
30
0
11
24.113642
21
-8.739083
31
0
39
0
210
0
220
0
230
1
0
LINE
5
C8
100
AcDbEntity
8
1
62
256
6
ByLayer
370
13
48
1
60
0
100
AcDbLine
10
24.792285
20
-8.279335
30
0
11
24.804655
21
-8.238044
31
0
39
0
210
0
220
0
230
1
0
LINE
5
C9
100
AcDbEntity
8
1
62
256
6
ByLayer
370
13
48
1
60
0
100
AcDbLine
10
27.017239
20
-8.925925
30
0
11
28.09067
21
-9.094889
31
0
39
0
210
0
220
0
230
1
0
LINE
5
CA
100
AcDbEntity
8
1
62
256
6
ByLayer
370
18
48
1
60
0
100
AcDbLine
10
27.007179
20
1.960352
30
0
11
28.070306
21
2.318181
31
0
39
0
210
0
220
0
230
1
0
LINE
5
CB
100
AcDbEntity
8
1
62
256
6
ByLayer
370
13
48
1
60
0
100
AcDbLine
10
24.596125
20
2.18422
30
0
11
24.113642
21
-0.17721
31
0
39
0
210
0
220
0
230
1
0
LINE
5
CC
100
AcDbEntity
8
1
62
256
6
ByLayer
370
18
48
1
60
0
100
AcDbLine
10
28.33252
20
2.343364
30
0
11
28.328227
21
2.34966
31
0
39
0
210
0
220
0
230
1
0
LINE
5
CD
100
AcDbEntity
8
1
62
256
6
ByLayer
370
18
48
1
60
0
100
AcDbLine
10
29.192555
20
1.906566
30
0
11
29.13
21
1.904256
31
0
39
0
210
0
220
0
230
1
0
LINE
5
CE
100
AcDbEntity
8
1
62
256
6
ByLayer
370
13
48
1
60
0
100
AcDbLine
10
27.018698
20
2.008759
30
0
11
27.021788
21
1.992246
31
0
39
0
210
0
220
0
230
1
0
LINE
5
CF
100
AcDbEntity
8
1
62
256
6
ByLayer
370
13
48
1
60
0
100
AcDbLine
10
27.021788
20
1.992246
30
0
11
28.137538
21
2.367788
31
0
39
0
210
0
220
0
230
1
0
LINE
5
D0
100
AcDbEntity
8
1
62
256
6
ByLayer
370
18
48
1
60
0
100
AcDbLine
10
28.137516
20
2.380885
30
0
11
28.121709
21
2.379996
31
0
39
0
210
0
220
0
230
1
0
LINE
5
D1
100
AcDbEntity
8
1
62
256
6
ByLayer
370
13
48
1
60
0
100
AcDbLine
10
24.695483
20
2.225046
30
0
11
24.694408
21
2.224755
31
0
39
0
210
0
220
0
230
1
0
LINE
5
D2
100
AcDbEntity
8
1
62
256
6
ByLayer
370
18
48
1
60
0
100
AcDbLine
10
29.192555
20
1.906566
30
0
11
28.97059
21
1.721304
31
0
39
0
210
0
220
0
230
1
0
LINE
5
D3
100
AcDbEntity
8
1
62
256
6
ByLayer
370
13
48
1
60
0
100
AcDbLine
10
28.32656
20
2.321979
30
0
11
28.606691
21
-0.011289
31
0
39
0
210
0
220
0
230
1
0
LINE
5
D4
100
AcDbEntity
8
1
62
256
6
ByLayer
370
18
48
1
60
0
100
AcDbLine
10
24.818534
20
2.25832
30
0
11
24.835428
21
2.258639
31
0
39
0
210
0
220
0
230
1
0
LINE
5
D5
100
AcDbEntity
8
1
62
256
6
ByLayer
370
18
48
1
60
0
100
AcDbLine
10
24.705067
20
2.241042
30
0
11
24.709486
21
2.244305
31
0
39
0
210
0
220
0
230
1
0
LINE
5
D6
100
AcDbEntity
8
1
62
256
6
ByLayer
370
13
48
1
60
0
100
AcDbLine
10
29.3125
20
1.831418
30
0
11
29.305801
21
1.829542
31
0
39
0
210
0
220
0
230
1
0
LINE
5
D7
100
AcDbEntity
8
1
62
256
6
ByLayer
370
13
48
1
60
0
100
AcDbLine
10
29.217259
20
1.884535
30
0
11
29.21
21
1.887166
31
0
39
0
210
0
220
0
230
1
0
LINE
5
D8
100
AcDbEntity
8
1
62
256
6
ByLayer
370
18
48
1
60
0
100
AcDbLine
10
28.121709
20
2.379996
30
0
11
27.026756
21
2.011455
31
0
39
0
210
0
220
0
230
1
0
LINE
5
D9
100
AcDbEntity
8
1
62
256
6
ByLayer
370
13
48
1
60
0
100
AcDbLine
10
26.45403
20
1.887449
30
0
11
26.457355
21
1.906254
31
0
39
0
210
0
220
0
230
1
0
LINE
5
DA
100
AcDbEntity
8
1
62
256
6
ByLayer
370
13
48
1
60
0
100
AcDbLine
10
29.354332
20
1.831086
30
0
11
29.311988
21
1.829704
31
0
39
0
210
0
220
0
230
1
0
LINE
5
DB
100
AcDbEntity
8
1
62
256
6
ByLayer
370
18
48
1
60
0
100
AcDbLine
10
29.357657
20
1.832872
30
0
11
29.354332
21
1.831086
31
0
39
0
210
0
220
0
230
1
0
LINE
5
DC
100
AcDbEntity
8
1
62
256
6
ByLayer
370
13
48
1
60
0
100
AcDbLine
10
28.341049
20
2.332271
30
0
11
28.326439
21
2.352524
31
0
39
0
210
0
220
0
230
1
0
LINE
5
DD
100
AcDbEntity
8
1
62
256
6
ByLayer
370
13
48
1
60
0
100
AcDbLine
10
29.088199
20
1.647922
30
0
11
29.137174
21
1.649741
31
0
39
0
210
0
220
0
230
1
0
LINE
5
DE
100
AcDbEntity
8
1
62
256
6
ByLayer
370
13
48
1
60
0
100
AcDbLine
10
29.214456
20
1.88879
30
0
11
29.208352
21
1.889956
31
0
39
0
210
0
220
0
230
1
0
LINE
5
DF
100
AcDbEntity
8
1
62
256
6
ByLayer
370
13
48
1
60
0
100
AcDbLine
10
29.088199
20
1.647922
30
0
11
29.305801
21
1.829542
31
0
39
0
210
0
220
0
230
1
0
LINE
5
E0
100
AcDbEntity
8
1
62
256
6
ByLayer
370
13
48
1
60
0
100
AcDbLine
10
25.904199
20
1.967602
30
0
11
25.894958
21
1.950634
31
0
39
0
210
0
220
0
230
1
0
LINE
5
E1
100
AcDbEntity
8
1
62
256
6
ByLayer
370
13
48
1
60
0
100
AcDbLine
10
24.699947
20
2.231309
30
0
11
24.697994
21
2.230255
31
0
39
0
210
0
220
0
230
1
0
LINE
5
E2
100
AcDbEntity
8
1
62
256
6
ByLayer
370
18
48
1
60
0
100
AcDbLine
10
29.198941
20
1.904366
30
0
11
29.207426
21
1.899483
31
0
39
0
210
0
220
0
230
1
0
LINE
5
E3
100
AcDbEntity
8
1
62
256
6
ByLayer
370
18
48
1
60
0
100
AcDbLine
10
29.361702
20
1.824089
30
0
11
29.360177
21
1.83148
31
0
39
0
210
0
220
0
230
1
0
LINE
5
E4
100
AcDbEntity
8
1
62
256
6
ByLayer
370
18
48
1
60
0
100
AcDbLine
10
25.027166
20
-0.751723
30
0
11
24.052593
21
-0.240554
31
0
39
0
210
0
220
0
230
1
0
LINE
5
E5
100
AcDbEntity
8
1
62
256
6
ByLayer
370
18
48
1
60
0
100
AcDbLine
10
24.478645
20
-0.138427
30
0
11
28.151547
21
-0.002793
31
0
39
0
210
0
220
0
230
1
0
LINE
5
E6
100
AcDbEntity
8
1
62
256
6
ByLayer
370
18
48
1
60
0
100
AcDbLine
10
28.318277
20
2.366279
30
0
11
28.320568
21
2.363928
31
0
39
0
210
0
220
0
230
1
0
LINE
5
E7
100
AcDbEntity
8
1
62
256
6
ByLayer
370
18
48
1
60
0
100
AcDbLine
10
28.885358
20
-0.062088
30
0
11
29.859932
21
-0.573257
31
0
39
0
210
0
220
0
230
1
0
LINE
5
E8
100
AcDbEntity
8
1
62
256
6
ByLayer
370
13
48
1
60
0
100
AcDbLine
10
28.97059
20
1.721304
30
0
11
28.9029
21
1.718804
31
0
39
0
210
0
220
0
230
1
0
LINE
5
E9
100
AcDbEntity
8
1
62
256
6
ByLayer
370
18
48
1
60
0
100
AcDbLine
10
25.830797
20
1.91691
30
0
11
24.800678
21
2.197439
31
0
39
0
210
0
220
0
230
1
0
LINE
5
EA
100
AcDbEntity
8
1
62
256
6
ByLayer
370
13
48
1
60
0
100
AcDbLine
10
29.316853
20
1.831532
30
0
11
29.311988
21
1.829704
31
0
39
0
210
0
220
0
230
1
0
LINE
5
EB
100
AcDbEntity
8
1
62
256
6
ByLayer
370
18
48
1
60
0
100
AcDbLine
10
28.320568
20
2.363928
30
0
11
28.343975
21
2.33148
31
0
39
0
210
0
220
0
230
1
0
LINE
5
EC
100
AcDbEntity
8
1
62
256
6
ByLayer
370
18
48
1
60
0
100
AcDbLine
10
29.198941
20
1.904366
30
0
11
29.192555
21
1.906566
31
0
39
0
210
0
220
0
230
1
0
LINE
5
ED
100
AcDbEntity
8
1
62
256
6
ByLayer
370
18
48
1
60
0
100
AcDbLine
10
24.835428
20
2.258639
30
0
11
25.896385
21
1.969712
31
0
39
0
210
0
220
0
230
1
0
LINE
5
EE
100
AcDbEntity
8
1
62
256
6
ByLayer
370
18
48
1
60
0
100
AcDbLine
10
25.760978
20
-0.811018
30
0
11
29.43388
21
-0.675384
31
0
39
0
210
0
220
0
230
1
0
LINE
5
EF
100
AcDbEntity
8
1
62
256
6
ByLayer
370
18
48
1
60
0
100
AcDbLine
10
29.137174
20
1.649741
30
0
11
29.352688
21
1.829618
31
0
39
0
210
0
220
0
230
1
0
LINE
5
F0
100
AcDbEntity
8
1
62
256
6
ByLayer
370
13
48
1
60
0
100
AcDbLine
10
28.982171
20
1.701175
30
0
11
29.208352
21
1.889956
31
0
39
0
210
0
220
0
230
1
0
LINE
5
F1
100
AcDbEntity
8
1
62
256
6
ByLayer
370
13
48
1
60
0
100
AcDbLine
10
28.968944
20
1.719959
30
0
11
28.982171
21
1.701175
31
0
39
0
210
0
220
0
230
1
0
LINE
5
F2
100
AcDbEntity
8
1
62
256
6
ByLayer
370
13
48
1
60
0
100
AcDbLine
10
25.894958
20
1.950634
30
0
11
24.813849
21
2.245049
31
0
39
0
210
0
220
0
230
1
0
LINE
5
F3
100
AcDbEntity
8
1
62
256
6
ByLayer
370
18
48
1
60
0
100
AcDbLine
10
28.825031
20
1.813462
30
0
11
28.48512
21
2.284663
31
0
39
0
210
0
220
0
230
1
0
LINE
5
F4
100
AcDbEntity
8
1
62
256
6
ByLayer
370
13
48
1
60
0
100
AcDbLine
10
24.637912
20
6.154023
30
0
11
24.637912
21
2.545717
31
0
39
0
210
0
220
0
230
1
0
LINE
5
F5
100
AcDbEntity
8
1
62
256
6
ByLayer
370
13
48
1
60
0
100
AcDbLine
10
17.973935
20
6.874188
30
0
11
17.973935
21
-0.281779
31
0
39
0
210
0
220
0
230
1
0
LINE
5
F6
100
AcDbEntity
8
1
62
256
6
ByLayer
370
13
48
1
60
0
100
AcDbLine
10
24.200798
20
0.954362
30
0
11
24.144009
21
0.984148
31
0
39
0
210
0
220
0
230
1
0
LINE
5
F7
100
AcDbEntity
8
1
62
256
6
ByLayer
370
18
48
1
60
0
100
AcDbLine
10
23.960475
20
-0.468939
30
0
11
23.536121
21
-0.246363
31
0
39
0
210
0
220
0
230
1
0
LINE
5
F8
100
AcDbEntity
8
1
62
256
6
ByLayer
370
18
48
1
60
0
100
AcDbLine
10
23.960475
20
6.663327
30
0
11
23.536121
21
8.247037
31
0
39
0
210
0
220
0
230
1
0
LINE
5
F9
100
AcDbEntity
8
1
62
256
6
ByLayer
370
13
48
1
60
0
100
AcDbLine
10
17.786479
20
7.991196
30
0
11
17.786479
21
7.986182
31
0
39
0
210
0
220
0
230
1
0
LINE
5
FA
100
AcDbEntity
8
1
62
256
6
ByLayer
370
13
48
1
60
0
100
AcDbLine
10
24.303282
20
-5.734997
30
0
11
24.134848
21
-2.330117
31
0
39
0
210
0
220
0
230
1
0
LINE
5
FB
100
AcDbEntity
8
1
62
256
6
ByLayer
370
13
48
1
60
0
100
AcDbLine
10
27.914637
20
2.585969
30
0
11
27.914637
21
4.729098
31
0
39
0
210
0
220
0
230
1
0
LINE
5
FC
100
AcDbEntity
8
1
62
256
6
ByLayer
370
13
48
1
60
0
100
AcDbLine
10
28.525492
20
4.675585
30
0
11
28.525492
21
2.536127
31
0
39
0
210
0
220
0
230
1
0
LINE
5
FD
100
AcDbEntity
8
1
62
256
6
ByLayer
370
18
48
1
60
0
100
AcDbLine
10
23.968082
20
8.337209
30
0
11
24.018392
21
8.149449
31
0
39
0
210
0
220
0
230
1
0
LINE
5
FE
100
AcDbEntity
8
1
62
256
6
ByLayer
370
18
48
1
60
0
100
AcDbLine
10
27.343693
20
-4.776645
30
0
11
28.79559
21
-5.10844
31
0
39
0
210
0
220
0
230
1
0
LINE
5
FF
100
AcDbEntity
8
1
62
256
6
ByLayer
370
18
48
1
60
0
100
AcDbLine
10
25.799555
20
1.998319
30
0
11
25.654937
21
2.035465
31
0
39
0
210
0
220
0
230
1
0
LINE
5
100
100
AcDbEntity
8
1
62
256
6
ByLayer
370
18
48
1
60
0
100
AcDbLine
10
7.1
20
-4.65
30
0
11
7.1
21
4.65
31
0
39
0
210
0
220
0
230
1
0
LINE
5
101
100
AcDbEntity
8
1
62
256
6
ByLayer
370
13
48
1
60
0
100
AcDbLine
10
27.461373
20
-2.331244
30
0
11
29.13
21
-2.290879
31
0
39
0
210
0
220
0
230
1
0
LINE
5
102
100
AcDbEntity
8
1
62
256
6
ByLayer
370
18
48
1
60
0
100
AcDbLine
10
-13
20
4.559496
30
0
11
-13
21
-4.559496
31
0
39
0
210
0
220
0
230
1
0
LINE
5
103
100
AcDbEntity
8
1
62
256
6
ByLayer
370
13
48
1
60
0
100
AcDbLine
10
17.973935
20
-4.092131
30
0
11
17.973935
21
-8
31
0
39
0
210
0
220
0
230
1
0
LINE
5
104
100
AcDbEntity
8
1
62
256
6
ByLayer
370
18
48
1
60
0
100
AcDbLine
10
25.799555
20
1.998319
30
0
11
25.80843
21
1.993664
31
0
39
0
210
0
220
0
230
1
0
LINE
5
105
100
AcDbEntity
8
1
62
256
6
ByLayer
370
13
48
1
60
0
100
AcDbLine
10
-13.5
20
-0.487106
30
0
11
-13.5
21
-3.5
31
0
39
0
210
0
220
0
230
1
0
LINE
5
106
100
AcDbEntity
8
1
62
256
6
ByLayer
370
13
48
1
60
0
100
AcDbLine
10
-13.5
20
3.5
30
0
11
-13.5
21
-0.487106
31
0
39
0
210
0
220
0
230
1
0
LINE
5
107
100
AcDbEntity
8
1
62
256
6
ByLayer
370
18
48
1
60
0
100
AcDbLine
10
28.79559
20
6.153212
30
0
11
27.343693
21
5.745932
31
0
39
0
210
0
220
0
230
1
0
LINE
5
108
100
AcDbEntity
8
1
62
256
6
ByLayer
370
13
48
1
60
0
100
AcDbLine
10
13.053033
20
7.55
30
0
11
13.053033
21
-7.55
31
0
39
0
210
0
220
0
230
1
0
LINE
5
109
100
AcDbEntity
8
1
62
256
6
ByLayer
370
18
48
1
60
0
100
AcDbLine
10
-17
20
-0.459271
30
0
11
-17
21
-3.3
31
0
39
0
210
0
220
0
230
1
0
LINE
5
10A
100
AcDbEntity
8
1
62
256
6
ByLayer
370
18
48
1
60
0
100
AcDbLine
10
-17
20
3.3
30
0
11
-17
21
-0.459271
31
0
39
0
210
0
220
0
230
1
0
LINE
5
10B
100
AcDbEntity
8
1
62
256
6
ByLayer
370
13
48
1
60
0
100
AcDbLine
10
6.9
20
-4.905354
30
0
11
6.9
21
4.905354
31
0
39
0
210
0
220
0
230
1
0
LINE
5
10C
100
AcDbEntity
8
1
62
256
6
ByLayer
370
13
48
1
60
0
100
AcDbLine
10
17.973935
20
8
30
0
11
17.973935
21
7.995036
31
0
39
0
210
0
220
0
230
1
0
LINE
5
10D
100
AcDbEntity
8
1
62
256
6
ByLayer
370
18
48
1
60
0
100
AcDbLine
10
27.091512
20
2.046029
30
0
11
25.799555
21
1.998319
31
0
39
0
210
0
220
0
230
1
0
LINE
5
10E
100
AcDbEntity
8
1
62
256
6
ByLayer
370
13
48
1
60
0
100
AcDbLine
10
20.805073
20
-8
30
0
11
20.805073
21
-4.789959
31
0
39
0
210
0
220
0
230
1
0
LINE
5
10F
100
AcDbEntity
8
1
62
256
6
ByLayer
370
18
48
1
60
0
100
AcDbLine
10
24.202525
20
-8.131149
30
0
11
24.311134
21
-8.07531
31
0
39
0
210
0
220
0
230
1
0
LINE
5
110
100
AcDbEntity
8
1
62
256
6
ByLayer
370
18
48
1
60
0
100
AcDbLine
10
-2.8
20
5.631559
30
0
11
-2.8
21
-5.631559
31
0
39
0
210
0
220
0
230
1
0
LINE
5
111
100
AcDbEntity
8
1
62
256
6
ByLayer
370
13
48
1
60
0
100
AcDbLine
10
28.525492
20
-7.701298
30
0
11
28.525492
21
-8.645181
31
0
39
0
210
0
220
0
230
1
0
LINE
5
112
100
AcDbEntity
8
1
62
256
6
ByLayer
370
13
48
1
60
0
100
AcDbLine
10
25.264795
20
4.927592
30
0
11
24.988453
21
5.072535
31
0
39
0
210
0
220
0
230
1
0
LINE
5
113
100
AcDbEntity
8
1
62
256
6
ByLayer
370
18
48
1
60
0
100
AcDbLine
10
24.200798
20
0.954362
30
0
11
24.018392
21
-0.060698
31
0
39
0
210
0
220
0
230
1
0
LINE
5
114
100
AcDbEntity
8
1
62
256
6
ByLayer
370
18
48
1
60
0
100
AcDbLine
10
24.07824
20
8.164819
30
0
11
24.085208
21
8.16665
31
0
39
0
210
0
220
0
230
1
0
LINE
5
115
100
AcDbEntity
8
1
62
256
6
ByLayer
370
13
48
1
60
0
100
AcDbLine
10
19.788481
20
-2.221938
30
0
11
20.033841
21
-2.228045
31
0
39
0
210
0
220
0
230
1
0
LINE
5
116
100
AcDbEntity
8
1
62
256
6
ByLayer
370
13
48
1
60
0
100
AcDbLine
10
29.003332
20
4.849667
30
0
11
27.099324
21
4.779355
31
0
39
0
210
0
220
0
230
1
0
LINE
5
117
100
AcDbEntity
8
1
62
256
6
ByLayer
370
18
48
1
60
0
100
AcDbLine
10
29.13
20
-0.686607
30
0
11
29.13
21
-1.431827
31
0
39
0
210
0
220
0
230
1
0
LINE
5
118
100
AcDbEntity
8
1
62
256
6
ByLayer
370
18
48
1
60
0
100
AcDbLine
10
27.782439
20
2.265802
30
0
11
27.851108
21
2.31201
31
0
39
0
210
0
220
0
230
1
0
LINE
5
119
100
AcDbEntity
8
1
62
256
6
ByLayer
370
13
48
1
60
0
100
AcDbLine
10
19.908332
20
-4.644712
30
0
11
19.788481
21
-2.221938
31
0
39
0
210
0
220
0
230
1
0
LINE
5
11A
100
AcDbEntity
8
1
62
256
6
ByLayer
370
13
48
1
60
0
100
AcDbLine
10
-0.384645
20
-0.796675
30
0
11
-0.384645
21
-5.724348
31
0
39
0
210
0
220
0
230
1
0
LINE
5
11B
100
AcDbEntity
8
1
62
256
6
ByLayer
370
13
48
1
60
0
100
AcDbLine
10
-0.384645
20
-0.796675
30
0
11
-0.384645
21
-0.796675
31
0
39
0
210
0
220
0
230
1
0
LINE
5
11C
100
AcDbEntity
8
1
62
256
6
ByLayer
370
18
48
1
60
0
100
AcDbLine
10
-0.384645
20
5.724348
30
0
11
-0.384645
21
-0.796675
31
0
39
0
210
0
220
0
230
1
0
LINE
5
11D
100
AcDbEntity
8
1
62
256
6
ByLayer
370
13
48
1
60
0
100
AcDbLine
10
26.746471
20
-0.774619
30
0
11
26.745267
21
-0.938616
31
0
39
0
210
0
220
0
230
1
0
LINE
5
11E
100
AcDbEntity
8
1
62
256
6
ByLayer
370
18
48
1
60
0
100
AcDbLine
10
29.13
20
2.130594
30
0
11
28.330237
21
2.550074
31
0
39
0
210
0
220
0
230
1
0
LINE
5
11F
100
AcDbEntity
8
1
62
256
6
ByLayer
370
13
48
1
60
0
100
AcDbLine
10
17.786479
20
-7.991196
30
0
11
17.786479
21
-3.999884
31
0
39
0
210
0
220
0
230
1
0
LINE
5
120
100
AcDbEntity
8
1
62
256
6
ByLayer
370
18
48
1
60
0
100
AcDbLine
10
20.805073
20
7.995036
30
0
11
17.973935
21
7.995036
31
0
39
0
210
0
220
0
230
1
0
LINE
5
121
100
AcDbEntity
8
1
62
256
6
ByLayer
370
18
48
1
60
0
100
AcDbLine
10
24.216517
20
-0.603234
30
0
11
24.122348
21
-0.553842
31
0
39
0
210
0
220
0
230
1
0
LINE
5
122
100
AcDbEntity
8
1
62
256
6
ByLayer
370
13
48
1
60
0
100
AcDbLine
10
20.805073
20
-0.281779
30
0
11
20.805073
21
6.407519
31
0
39
0
210
0
220
0
230
1
0
LINE
5
123
100
AcDbEntity
8
1
62
256
6
ByLayer
370
18
48
1
60
0
100
AcDbLine
10
23.968082
20
-0.03431
30
0
11
24.018392
21
-0.060698
31
0
39
0
210
0
220
0
230
1
0
LINE
5
124
100
AcDbEntity
8
1
62
256
6
ByLayer
370
18
48
1
60
0
100
AcDbLine
10
0
20
7.75
30
0
11
0
21
-7.75
31
0
39
0
210
0
220
0
230
1
0
LINE
5
125
100
AcDbEntity
8
1
62
256
6
ByLayer
370
13
48
1
60
0
100
AcDbLine
10
24.07824
20
8.164819
30
0
11
24.616994
21
6.154162
31
0
39
0
210
0
220
0
230
1
0
LINE
5
126
100
AcDbEntity
8
1
62
256
6
ByLayer
370
13
48
1
60
0
100
AcDbLine
10
25.264795
20
-5.901774
30
0
11
25.264795
21
-5.745676
31
0
39
0
210
0
220
0
230
1
0
LINE
5
127
100
AcDbEntity
8
1
62
256
6
ByLayer
370
13
48
1
60
0
100
AcDbLine
10
17.786479
20
-0.283024
30
0
11
17.786479
21
6.918102
31
0
39
0
210
0
220
0
230
1
0
LINE
5
128
100
AcDbEntity
8
1
62
256
6
ByLayer
370
18
48
1
60
0
100
AcDbLine
10
27.851108
20
2.31201
30
0
11
27.091512
21
2.046029
31
0
39
0
210
0
220
0
230
1
0
LINE
5
129
100
AcDbEntity
8
1
62
256
6
ByLayer
370
13
48
1
60
0
100
AcDbLine
10
25.264795
20
-5.901774
30
0
11
24.988453
21
-6.933095
31
0
39
0
210
0
220
0
230
1
0
LINE
5
12A
100
AcDbEntity
8
1
62
256
6
ByLayer
370
13
48
1
60
0
100
AcDbLine
10
25.407829
20
-7.368148
30
0
11
25.748071
21
-6.098346
31
0
39
0
210
0
220
0
230
1
0
LINE
5
12B
100
AcDbEntity
8
1
62
256
6
ByLayer
370
13
48
1
60
0
100
AcDbLine
10
1.8
20
4.905354
30
0
11
1.8
21
-4.905354
31
0
39
0
210
0
220
0
230
1
0
LINE
5
12C
100
AcDbEntity
8
1
62
256
6
ByLayer
370
18
48
1
60
0
100
AcDbLine
10
1.6
20
4.65
30
0
11
1.6
21
-4.65
31
0
39
0
210
0
220
0
230
1
0
LINE
5
12D
100
AcDbEntity
8
1
62
256
6
ByLayer
370
18
48
1
60
0
100
AcDbLine
10
29.13
20
-6.369707
30
0
11
29.13
21
-3.726248
31
0
39
0
210
0
220
0
230
1
0
LINE
5
12E
100
AcDbEntity
8
1
62
256
6
ByLayer
370
13
48
1
60
0
100
AcDbLine
10
24.216517
20
-0.603234
30
0
11
23.74451
21
-0.591486
31
0
39
0
210
0
220
0
230
1
0
LINE
5
12F
100
AcDbEntity
8
1
62
256
6
ByLayer
370
18
48
1
60
0
100
AcDbLine
10
-16.8
20
3.5
30
0
11
-16.8
21
-3.5
31
0
39
0
210
0
220
0
230
1
0
LINE
5
130
100
AcDbEntity
8
1
62
256
6
ByLayer
370
13
48
1
60
0
100
AcDbLine
10
24.637912
20
-5.860309
30
0
11
24.637912
21
-8.107684
31
0
39
0
210
0
220
0
230
1
0
LINE
5
131
100
AcDbEntity
8
1
62
256
6
ByLayer
370
18
48
1
60
0
100
AcDbLine
10
29.13
20
2.130594
30
0
11
29.13
21
2.21633
31
0
39
0
210
0
220
0
230
1
0
LINE
5
132
100
AcDbEntity
8
1
62
256
6
ByLayer
370
18
48
1
60
0
100
AcDbLine
10
29.13
20
-2.290879
30
0
11
29.13
21
-1.431827
31
0
39
0
210
0
220
0
230
1
0
LINE
5
133
100
AcDbEntity
8
1
62
256
6
ByLayer
370
13
48
1
60
0
100
AcDbLine
10
29.003332
20
-5.347306
30
0
11
27.099324
21
-4.84701
31
0
39
0
210
0
220
0
230
1
0
LINE
5
134
100
AcDbEntity
8
1
62
256
6
ByLayer
370
13
48
1
60
0
100
AcDbLine
10
22.265906
20
-2.2836
30
0
11
24.134848
21
-2.330117
31
0
39
0
210
0
220
0
230
1
0
LINE
5
135
100
AcDbEntity
8
1
62
256
6
ByLayer
370
18
48
1
60
0
100
AcDbLine
10
6.9
20
4.905354
30
0
11
1.8
21
4.905354
31
0
39
0
210
0
220
0
230
1
0
LINE
5
136
100
AcDbEntity
8
1
62
256
6
ByLayer
370
18
48
1
60
0
100
AcDbLine
10
28.330237
20
2.341333
30
0
11
28.330237
21
2.347355
31
0
39
0
210
0
220
0
230
1
0
LINE
5
137
100
AcDbEntity
8
1
62
256
6
ByLayer
370
18
48
1
60
0
100
AcDbLine
10
28.330237
20
2.350525
30
0
11
28.330237
21
2.550074
31
0
39
0
210
0
220
0
230
1
0
LINE
5
138
100
AcDbEntity
8
1
62
256
6
ByLayer
370
13
48
1
60
0
100
AcDbLine
10
27.343693
20
-4.776645
30
0
11
27.461373
21
-2.331244
31
0
39
0
210
0
220
0
230
1
0
LINE
5
139
100
AcDbEntity
8
1
62
256
6
ByLayer
370
18
48
1
60
0
100
AcDbLine
10
28.330237
20
2.550074
30
0
11
28.042611
21
2.573315
31
0
39
0
210
0
220
0
230
1
0
LINE
5
13A
100
AcDbEntity
8
1
62
256
6
ByLayer
370
18
48
1
60
0
100
AcDbLine
10
1.8
20
-4.905354
30
0
11
6.9
21
-4.905354
31
0
39
0
210
0
220
0
230
1
0
LINE
5
13B
100
AcDbEntity
8
1
62
256
6
ByLayer
370
18
48
1
60
0
100
AcDbLine
10
8.7
20
-1.078592
30
0
11
8.7
21
-7.75
31
0
39
0
210
0
220
0
230
1
0
LINE
5
13C
100
AcDbEntity
8
1
62
256
6
ByLayer
370
18
48
1
60
0
100
AcDbLine
10
8.7
20
-1.078592
30
0
11
8.7
21
-1.078592
31
0
39
0
210
0
220
0
230
1
0
LINE
5
13D
100
AcDbEntity
8
1
62
256
6
ByLayer
370
18
48
1
60
0
100
AcDbLine
10
8.7
20
7.75
30
0
11
8.7
21
-1.078592
31
0
39
0
210
0
220
0
230
1
0
LINE
5
13E
100
AcDbEntity
8
1
62
256
6
ByLayer
370
13
48
1
60
0
100
AcDbLine
10
27.099324
20
-4.84701
30
0
11
27.099324
21
-4.720303
31
0
39
0
210
0
220
0
230
1
0
LINE
5
13F
100
AcDbEntity
8
1
62
256
6
ByLayer
370
13
48
1
60
0
100
AcDbLine
10
26.971091
20
-5.39517
30
0
11
28.95802
21
-5.917254
31
0
39
0
210
0
220
0
230
1
0
LINE
5
140
100
AcDbEntity
8
1
62
256
6
ByLayer
370
13
48
1
60
0
100
AcDbLine
10
27.914637
20
-8.999828
30
0
11
27.914637
21
-8.082064
31
0
39
0
210
0
220
0
230
1
0
LINE
5
141
100
AcDbEntity
8
1
62
256
6
ByLayer
370
13
48
1
60
0
100
AcDbLine
10
27.099324
20
4.779355
30
0
11
27.099324
21
5.680921
31
0
39
0
210
0
220
0
230
1
0
LINE
5
142
100
AcDbEntity
8
1
62
256
6
ByLayer
370
13
48
1
60
0
100
AcDbLine
10
21.804806
20
-0.543208
30
0
11
20.001039
21
-0.498313
31
0
39
0
210
0
220
0
230
1
0
LINE
5
143
100
AcDbEntity
8
1
62
256
6
ByLayer
370
18
48
1
60
0
100
AcDbLine
10
29.13
20
2.21633
30
0
11
29.13
21
5.621419
31
0
39
0
210
0
220
0
230
1
0
LINE
5
144
100
AcDbEntity
8
1
62
256
6
ByLayer
370
13
48
1
60
0
100
AcDbLine
10
20.805073
20
8
30
0
11
20.805073
21
7.995036
31
0
39
0
210
0
220
0
230
1
0
LINE
5
145
100
AcDbEntity
8
1
62
256
6
ByLayer
370
13
48
1
60
0
100
AcDbLine
10
13.146761
20
7.554402
30
0
11
13.146761
21
-1.05137
31
0
39
0
210
0
220
0
230
1
0
LINE
5
146
100
AcDbEntity
8
1
62
256
6
ByLayer
370
13
48
1
60
0
100
AcDbLine
10
13.146761
20
-1.05137
30
0
11
13.146761
21
-7.554402
31
0
39
0
210
0
220
0
230
1
0
LINE
5
147
100
AcDbEntity
8
1
62
256
6
ByLayer
370
18
48
1
60
0
100
AcDbLine
10
25.022103
20
2.461773
30
0
11
28.042611
21
2.573315
31
0
39
0
210
0
220
0
230
1
0
LINE
5
148
100
AcDbEntity
8
1
62
256
6
ByLayer
370
18
48
1
60
0
100
AcDbLine
10
29.13
20
2.130594
30
0
11
29.13
21
1.867899
31
0
39
0
210
0
220
0
230
1
0
LINE
5
149
100
AcDbEntity
8
1
62
256
6
ByLayer
370
18
48
1
60
0
100
AcDbLine
10
29.13
20
-3.726248
30
0
11
29.13
21
-2.290879
31
0
39
0
210
0
220
0
230
1
0
LINE
5
14A
100
AcDbEntity
8
1
62
256
6
ByLayer
370
18
48
1
60
0
100
AcDbLine
10
28.042611
20
2.573315
30
0
11
28.042611
21
2.391502
31
0
39
0
210
0
220
0
230
1
0
LINE
5
14B
100
AcDbEntity
8
1
62
256
6
ByLayer
370
18
48
1
60
0
100
AcDbLine
10
20.805073
20
-0.281779
30
0
11
17.973935
21
-0.281779
31
0
39
0
210
0
220
0
230
1
0
LINE
5
14C
100
AcDbEntity
8
1
62
256
6
ByLayer
370
13
48
1
60
0
100
AcDbLine
10
9.22915
20
7.55
30
0
11
9.22915
21
-7.55
31
0
39
0
210
0
220
0
230
1
0
LINE
5
14D
100
AcDbEntity
8
1
62
256
6
ByLayer
370
18
48
1
60
0
100
AcDbLine
10
27.091512
20
2.046029
30
0
11
27.106352
21
2.038245
31
0
39
0
210
0
220
0
230
1
0
LINE
5
14E
100
AcDbEntity
8
1
62
256
6
ByLayer
370
13
48
1
60
0
100
AcDbLine
10
25.264795
20
4.927592
30
0
11
25.264795
21
6.038284
31
0
39
0
210
0
220
0
230
1
0
LINE
5
14F
100
AcDbEntity
8
1
62
256
6
ByLayer
370
18
48
1
60
0
100
AcDbLine
10
27.632612
20
7.355639
30
0
11
27.651663
21
7.361765
31
0
39
0
210
0
220
0
230
1
0
LINE
5
150
100
AcDbEntity
8
1
62
256
6
ByLayer
370
18
48
1
60
0
100
AcDbLine
10
26.555337
20
6.373063
30
0
11
26.555337
21
6.397109
31
0
39
0
210
0
220
0
230
1
0
LINE
5
151
100
AcDbEntity
8
1
62
256
6
ByLayer
370
13
48
1
60
0
100
AcDbLine
10
26.569507
20
7.640474
30
0
11
26.569507
21
7.754627
31
0
39
0
210
0
220
0
230
1
0
LINE
5
152
100
AcDbEntity
8
1
62
256
6
ByLayer
370
18
48
1
60
0
100
AcDbLine
10
26.955512
20
7.741901
30
0
11
26.95968
21
7.761301
31
0
39
0
210
0
220
0
230
1
0
LINE
5
153
100
AcDbEntity
8
1
62
256
6
ByLayer
370
18
48
1
60
0
100
AcDbLine
10
26.556174
20
7.655276
30
0
11
26.569507
21
7.640474
31
0
39
0
210
0
220
0
230
1
0
LINE
5
154
100
AcDbEntity
8
1
62
256
6
ByLayer
370
13
48
1
60
0
100
AcDbLine
10
26.561616
20
6.356278
30
0
11
26.561616
21
6.41437
31
0
39
0
210
0
220
0
230
1
0
LINE
5
155
100
AcDbEntity
8
1
62
256
6
ByLayer
370
13
48
1
60
0
100
AcDbLine
10
27.632612
20
7.355639
30
0
11
27.632612
21
7.469792
31
0
39
0
210
0
220
0
230
1
0
LINE
5
156
100
AcDbEntity
8
1
62
256
6
ByLayer
370
18
48
1
60
0
100
AcDbLine
10
27.648246
20
6.576188
30
0
11
27.648246
21
6.684281
31
0
39
0
210
0
220
0
230
1
0
LINE
5
157
100
AcDbEntity
8
1
62
256
6
ByLayer
370
18
48
1
60
0
100
AcDbLine
10
26.955512
20
7.741901
30
0
11
26.955512
21
7.856053
31
0
39
0
210
0
220
0
230
1
0
LINE
5
158
100
AcDbEntity
8
1
62
256
6
ByLayer
370
18
48
1
60
0
100
AcDbLine
10
26.155249
20
6.968568
30
0
11
26.17486
21
6.972601
31
0
39
0
210
0
220
0
230
1
0
LINE
5
159
100
AcDbEntity
8
1
62
256
6
ByLayer
370
13
48
1
60
0
100
AcDbLine
10
26.17486
20
6.972601
30
0
11
26.17486
21
7.086754
31
0
39
0
210
0
220
0
230
1
0
LINE
5
15A
100
AcDbEntity
8
1
62
256
6
ByLayer
370
18
48
1
60
0
100
AcDbLine
10
26.95968
20
7.761301
30
0
11
26.95968
21
7.877028
31
0
39
0
210
0
220
0
230
1
0
LINE
5
15B
100
AcDbEntity
8
1
62
256
6
ByLayer
370
18
48
1
60
0
100
AcDbLine
10
27.633363
20
6.581829
30
0
11
27.648246
21
6.568554
31
0
39
0
210
0
220
0
230
1
0
LINE
5
15C
100
AcDbEntity
8
1
62
256
6
ByLayer
370
18
48
1
60
0
100
AcDbLine
10
26.155249
20
6.968568
30
0
11
26.155249
21
7.084295
31
0
39
0
210
0
220
0
230
1
0
LINE
5
15D
100
AcDbEntity
8
1
62
256
6
ByLayer
370
18
48
1
60
0
100
AcDbLine
10
27.651663
20
7.361765
30
0
11
27.651663
21
7.477492
31
0
39
0
210
0
220
0
230
1
0
LINE
5
15E
100
AcDbEntity
8
1
62
256
6
ByLayer
370
18
48
1
60
0
100
AcDbLine
10
26.556174
20
7.655276
30
0
11
26.556174
21
7.771003
31
0
39
0
210
0
220
0
230
1
0
LINE
5
15F
100
AcDbEntity
8
1
62
256
6
ByLayer
370
13
48
1
60
0
100
AcDbLine
10
27.633363
20
6.581829
30
0
11
27.633363
21
6.695981
31
0
39
0
210
0
220
0
230
1
0
LINE
5
160
100
AcDbEntity
8
1
62
256
6
ByLayer
370
13
48
1
60
0
100
AcDbLine
10
27.343018
20
-0.212564
30
0
11
27.343018
21
-0.341494
31
0
39
0
210
0
220
0
230
1
0
LINE
5
161
100
AcDbEntity
8
1
62
256
6
ByLayer
370
13
48
1
60
0
100
AcDbLine
10
26.279912
20
-0.228565
30
0
11
26.279912
21
-0.301463
31
0
39
0
210
0
220
0
230
1
0
LINE
5
162
100
AcDbEntity
8
1
62
256
6
ByLayer
370
18
48
1
60
0
100
AcDbLine
10
26.260862
20
-0.229988
30
0
11
26.260862
21
-0.313529
31
0
39
0
210
0
220
0
230
1
0
LINE
5
163
100
AcDbEntity
8
1
62
256
6
ByLayer
370
18
48
1
60
0
100
AcDbLine
10
27.757276
20
-0.251784
30
0
11
27.757276
21
-0.258269
31
0
39
0
210
0
220
0
230
1
0
LINE
5
164
100
AcDbEntity
8
1
62
256
6
ByLayer
370
13
48
1
60
0
100
AcDbLine
10
26.957013
20
-0.205244
30
0
11
26.957013
21
-0.355749
31
0
39
0
210
0
220
0
230
1
0
LINE
5
165
100
AcDbEntity
8
1
62
256
6
ByLayer
370
18
48
1
60
0
100
AcDbLine
10
27.356351
20
-0.213083
30
0
11
27.356351
21
-0.354779
31
0
39
0
210
0
220
0
230
1
0
LINE
5
166
100
AcDbEntity
8
1
62
256
6
ByLayer
370
13
48
1
60
0
100
AcDbLine
10
27.737665
20
-0.246044
30
0
11
27.737665
21
-0.247631
31
0
39
0
210
0
220
0
230
1
0
LINE
5
167
100
AcDbEntity
8
1
62
256
6
ByLayer
370
18
48
1
60
0
100
AcDbLine
10
26.952845
20
-0.205249
30
0
11
26.952845
21
-0.36968
31
0
39
0
210
0
220
0
230
1
0
MTEXT
5
349
100
AcDbEntity
8
SK6
62
256
6
ByLayer
370
18
48
1
60
0
100
AcDbMText
10
-12.694737
20
-23
30
0
210
0
220
0
230
1
1
\W0.7234;415-20EH16-05M
40
4
41
0
44
1.084337
50
0
71
7
72
5
7
iso_b_vert
0
DIMENSION
5
357
100
AcDbEntity
8
2
62
256
6
ByLayer
370
13
48
1
60
0
100
AcDbDimension
2
DimnDraft3D1
10
30
20
24.882041
30
0
11
16.6375
21
24.882041
31
0
70
32
71
5
72
1
41
1
210
0
220
0
230
1
3
Standard
100
AcDbAlignedDimension
13
29
23
10
33
0
14
30
24
10
34
0
50
0
100
AcDbRotatedDimension
1001
ACAD
1000
DSTYLE
1002
{
1070
   279
1070
     0
1070
   172
1070
     1
1070
   173
1070
     1
1070
   340
1005
34A
1070
   271
1070
     3
1070
   272
1070
     3
1070
    77
1070
     1
1070
    73
1070
     0
1070
   171
1070
     3
1070
   274
1070
     4
1070
   177
1070
     7
1070
   176
1070
     7
1070
   178
1070
     7
1070
    78
1070
     8
1070
    48
1040
-0.005
1070
    41
1041
3.5
1070
   147
1041
1.75
1070
    42
1041
0.0
1070
    44
1041
2.0
1070
   140
1041
3.5
1070
   343
1005
0
1070
   344
1005
0
1002
}
0
DIMENSION
5
361
100
AcDbEntity
8
2
62
256
6
ByLayer
370
13
48
1
60
0
100
AcDbDimension
2
DimnDraft3D2
10
0
20
34.882041
30
0
11
15
21
34.882041
31
0
70
32
71
5
72
1
41
1
210
0
220
0
230
1
3
Standard
100
AcDbAlignedDimension
13
30
23
10
33
0
14
0
24
7.75
34
0
50
0
100
AcDbRotatedDimension
1001
ACAD
1000
DSTYLE
1002
{
1070
   279
1070
     0
1070
   172
1070
     1
1070
   173
1070
     1
1070
   340
1005
34A
1070
   271
1070
     1
1070
   272
1070
     3
1070
    77
1070
     1
1070
    73
1070
     0
1070
   171
1070
     3
1070
   274
1070
     4
1070
   177
1070
     7
1070
   176
1070
     7
1070
   178
1070
     7
1070
    78
1070
     8
1070
    48
1040
-0.005
1070
    41
1041
3.5
1070
   147
1041
1.75
1070
    42
1041
0.0
1070
    44
1041
2.0
1070
   140
1041
3.5
1070
   343
1005
0
1070
   344
1005
0
1002
}
0
DIMENSION
5
36C
100
AcDbEntity
8
SK2
62
256
6
ByLayer
370
13
48
1
60
0
100
AcDbDimension
2
DimnDraft3D3
10
-17
20
44.882041
30
0
11
6.5
21
44.882041
31
0
70
32
71
5
72
1
41
1
210
0
220
0
230
1
3
Standard
100
AcDbAlignedDimension
13
30
23
10
33
0
14
-17
24
0
34
0
50
0
100
AcDbRotatedDimension
1001
ACAD
1000
DSTYLE
1002
{
1070
   279
1070
     0
1070
   172
1070
     1
1070
   173
1070
     1
1070
   340
1005
34A
1070
   271
1070
     1
1070
   272
1070
     3
1070
    77
1070
     1
1070
    73
1070
     0
1070
   171
1070
     3
1070
   274
1070
     4
1070
   177
1070
     7
1070
   176
1070
     7
1070
   178
1070
     7
1070
    78
1070
     8
1070
    48
1040
-0.005
1070
    41
1041
3.5
1070
   147
1041
1.75
1070
    42
1041
0.0
1070
    44
1041
2.0
1070
   140
1041
3.5
1070
   343
1005
0
1070
   344
1005
0
1002
}
0
DIMENSION
5
377
100
AcDbEntity
8
2
62
256
6
ByLayer
370
13
48
1
60
0
100
AcDbDimension
2
DimnDraft3D4
10
57.725
20
10
30
0
11
57.725
21
-29.357895
31
0
70
32
71
5
72
1
41
1
210
0
220
0
230
1
3
Standard
100
AcDbAlignedDimension
13
30
23
-10
33
0
14
30
24
10
34
0
50
90
100
AcDbRotatedDimension
1001
ACAD
1000
DSTYLE
1002
{
1070
    74
1070
     0
1070
   279
1070
     0
1070
   172
1070
     1
1070
   173
1070
     1
1070
   340
1005
34A
1070
   271
1070
     3
1070
   272
1070
     3
1070
    77
1070
     1
1070
    73
1070
     0
1070
   171
1070
     3
1070
   274
1070
     4
1070
   177
1070
     7
1070
   176
1070
     7
1070
   178
1070
     7
1070
    78
1070
     8
1070
    48
1040
-0.005
1070
    41
1041
3.5
1070
   147
1041
1.75
1070
    42
1041
0.0
1070
    44
1041
2.0
1070
   140
1041
3.5
1070
   343
1005
0
1070
   344
1005
0
1002
}
0
DIMENSION
5
382
100
AcDbEntity
8
SK2
62
256
6
ByLayer
370
13
48
1
60
0
100
AcDbDimension
2
DimnDraft3D5
10
-35.975
20
-7.75
30
0
11
-35.975
21
-26.670395
31
0
70
32
71
5
72
1
41
1
210
0
220
0
230
1
3
Standard
100
AcDbAlignedDimension
13
0
23
7.75
33
0
14
0
24
-7.75
34
0
50
90
100
AcDbRotatedDimension
1001
ACAD
1000
DSTYLE
1002
{
1070
    74
1070
     0
1070
   279
1070
     0
1070
   172
1070
     1
1070
   173
1070
     1
1070
   340
1005
34A
1070
   271
1070
     3
1070
   272
1070
     3
1070
    77
1070
     1
1070
    73
1070
     0
1070
   171
1070
     3
1070
   274
1070
     4
1070
   177
1070
     7
1070
   176
1070
     7
1070
   178
1070
     7
1070
    78
1070
     8
1070
    48
1040
-0.005
1070
    41
1041
3.5
1070
   147
1041
1.75
1070
    42
1041
0.0
1070
    44
1041
2.0
1070
   140
1041
3.5
1070
   343
1005
0
1070
   344
1005
0
1002
}
0
ENDSEC
0
SECTION
2
OBJECTS
0
DICTIONARY
5
3ec
330
0
100
AcDbDictionary
280
0
281
1
3
ACAD_GROUP
350
3ed
3
ACAD_MLINESTYLE
350
3ee
0
DICTIONARY
5
3ed
330
0
100
AcDbDictionary
280
0
281
1
0
DICTIONARY
5
3ee
330
0
100
AcDbDictionary
280
0
281
1
3
Standard
350
18
0
MLINESTYLE
5
18
330
3ee
100
AcDbMlineStyle
2
Standard
70
0
3

62
256
51
90
52
90
71
2
49
-0.5
62
256
6
ByLayer
49
0.5
62
256
6
ByLayer
0
RASTERVARIABLES
5
3db
330

100
AcDbRasterVariables
90
0
70
1
71
1
72
1
0
ENDSEC
0
EOF
