0
SECTION
2
HEADER
9
$ACADVER
1
AC1015
9
$DWGCODEPAGE
3
ANSI_1252
9
$HANDSEED
5
196
9
$ANGBASE
50
0
9
$ANGDIR
70
0
9
$ATTMODE
70
1
9
$AUNITS
70
0
9
$AUPREC
70
0
9
$CECOLOR
62
256
9
$CELTSCALE
40
1
9
$CELTYPE
6
ByLayer
9
$CELWEIGHT
370
18
9
$CLAYER
8
0
9
$CMLJUST
70
0
9
$CMLSCALE
40
1
9
$CMLSTYLE
2
Standard
9
$DIMSTYLE
2
Standard
9
$TEXTSIZE
40
0.2
9
$TEXTSTYLE
7
Standard
9
$LUNITS
70
2
9
$LUPREC
70
4
9
$EXTNAMES
290
1
9
$INSUNITS
70
4
9
$LTSCALE
40
1
9
$LWDISPLAY
290
1
9
$PDMODE
70
0
9
$PDSIZE
40
0
9
$PLINEGEN
70
0
0
ENDSEC
0
SECTION
2
CLASSES
0
CLASS
1
RASTERVARIABLES
2
AcDbRasterVariables
3
ISM
90
0
280
0
281
0
0
ENDSEC
0
SECTION
2
TABLES
0
TABLE
2
VPORT
5
18c
100
AcDbSymbolTable
0
VPORT
5
1
100
AcDbSymbolTableRecord
100
AcDbViewportTableRecord
2
*Active
70
0
10
0
20
0
11
1
21
1
12
-1
22
1
13
0
23
0
14
0.5
24
0.5
15
10
25
10
16
0
26
0
36
1
17
0
27
0
37
0
0
ENDTAB
0
TABLE
2
LTYPE
5
18d
100
AcDbSymbolTable
0
LTYPE
5
14
100
AcDbSymbolTableRecord
100
AcDbLinetypeTableRecord
70
0
2
ByBlock
3

72
65
73
0
40
0
0
LTYPE
5
15
100
AcDbSymbolTableRecord
100
AcDbLinetypeTableRecord
70
0
2
ByLayer
3

72
65
73
0
40
0
0
LTYPE
5
16
100
AcDbSymbolTableRecord
100
AcDbLinetypeTableRecord
70
0
2
Continuous
3
Solid line
72
65
73
0
40
0
0
LTYPE
5
6E
100
AcDbSymbolTableRecord
100
AcDbLinetypeTableRecord
70
0
2
CENTER
3
____ _ ____ _ ____ _ ____
72
65
73
4
40
47.5
49
22
74
0
49
-8.5
74
0
49
8.5
74
0
49
-8.5
74
0
0
LTYPE
5
6F
100
AcDbSymbolTableRecord
100
AcDbLinetypeTableRecord
70
0
2
DASHED
3
__ __ __ __ __ __ __ __ __
72
65
73
2
40
25.72
49
12.86
74
0
49
-12.86
74
0
0
ENDTAB
0
TABLE
2
LAYER
5
18e
100
AcDbSymbolTable
0
LAYER
5
10
100
AcDbSymbolTableRecord
100
AcDbLayerTableRecord
2
0
70
0
62
7
6
Continuous
290
1
370
-3
390
0
0
LAYER
5
71
100
AcDbSymbolTableRecord
100
AcDbLayerTableRecord
2
81
70
0
62
-3
6
Continuous
290
1
370
-3
390
0
0
LAYER
5
73
100
AcDbSymbolTableRecord
100
AcDbLayerTableRecord
2
80
70
0
62
-6
6
Continuous
290
1
370
-3
390
0
0
LAYER
5
75
100
AcDbSymbolTableRecord
100
AcDbLayerTableRecord
2
1
70
0
62
4
6
Continuous
290
1
370
-3
390
0
0
LAYER
5
8C
100
AcDbSymbolTableRecord
100
AcDbLayerTableRecord
2
4
70
0
62
-2
6
CENTER
290
1
370
-3
390
0
0
LAYER
5
C3
100
AcDbSymbolTableRecord
100
AcDbLayerTableRecord
2
Defpoints
70
0
62
7
6
Continuous
290
0
370
-3
390
0
0
LAYER
5
D2
100
AcDbSymbolTableRecord
100
AcDbLayerTableRecord
2
2
70
0
62
7
6
Continuous
290
1
370
-3
390
0
0
LAYER
5
177
100
AcDbSymbolTableRecord
100
AcDbLayerTableRecord
2
SK1
70
0
62
4
6
Continuous
290
1
370
-3
390
0
0
LAYER
5
178
100
AcDbSymbolTableRecord
100
AcDbLayerTableRecord
2
SK3
70
0
62
1
6
DASHED
290
1
370
-3
390
0
0
LAYER
5
179
100
AcDbSymbolTableRecord
100
AcDbLayerTableRecord
2
SK4
70
0
62
2
6
CENTER
290
1
370
-3
390
0
0
LAYER
5
17a
100
AcDbSymbolTableRecord
100
AcDbLayerTableRecord
2
SK2
70
0
62
7
6
Continuous
290
1
370
-3
390
0
0
LAYER
5
17b
100
AcDbSymbolTableRecord
100
AcDbLayerTableRecord
2
SK6
70
0
62
5
6
Continuous
290
1
370
-3
390
0
0
ENDTAB
0
TABLE
2
STYLE
5
18f
100
AcDbSymbolTable
0
STYLE
5
11
100
AcDbSymbolTableRecord
100
AcDbTextStyleTableRecord
2
Standard
3
txt
70
0
71
0
40
0
41
1
42
0
50
0
0
STYLE
5
AF
100
AcDbSymbolTableRecord
100
AcDbTextStyleTableRecord
2
iso_b_vert
3
simplex.shx
70
0
71
0
40
0
41
1
42
0
50
0
0
STYLE
5
B0
100
AcDbSymbolTableRecord
100
AcDbTextStyleTableRecord
2
DWGDirectTextStyle
3
simplex
70
0
71
0
40
0
41
1
42
0
50
0
0
ENDTAB
0
TABLE
2
DIMSTYLE
5
190
100
AcDbSymbolTable
100
AcDbDimStyleTable
0
DIMSTYLE
105
27
100
AcDbSymbolTableRecord
100
AcDbDimStyleTableRecord
2
Standard
70
0
3
<>
41
0.18
42
0.0625
44
0.18
140
0.18
147
0.09
73
0
74
0
77
1
271
2
275
0
278
52
280
0
340
11
0
ENDTAB
0
TABLE
2
VIEW
5
191
100
AcDbSymbolTable
0
ENDTAB
0
TABLE
2
UCS
5
192
100
AcDbSymbolTable
0
ENDTAB
0
TABLE
2
APPID
5
193
100
AcDbSymbolTable
0
APPID
5
12
100
AcDbSymbolTableRecord
100
AcDbRegAppTableRecord
2
ACAD
70
0
0
APPID
5
B8
100
AcDbSymbolTableRecord
100
AcDbRegAppTableRecord
2
ACAD_DSTYLE_DIMBREAK
70
0
0
APPID
5
136
100
AcDbSymbolTableRecord
100
AcDbRegAppTableRecord
2
ACAD_DSTYLE_DIM_LINETYPE
70
0
0
APPID
5
137
100
AcDbSymbolTableRecord
100
AcDbRegAppTableRecord
2
ACAD_DSTYLE_DIM_EXT1_LINETYPE
70
0
0
APPID
5
138
100
AcDbSymbolTableRecord
100
AcDbRegAppTableRecord
2
ACAD_DSTYLE_DIM_EXT2_LINETYPE
70
0
0
APPID
5
173
100
AcDbSymbolTableRecord
100
AcDbRegAppTableRecord
2
ACAD_MLEADERVER
70
0
0
ENDTAB
0
TABLE
2
BLOCK_RECORD
5
194
100
AcDbSymbolTable
0
BLOCK_RECORD
5
1F
100
AcDbSymbolTableRecord
100
AcDbBlockTableRecord
2
*Model_Space
340
0
70
0
0
BLOCK_RECORD
5
1B
100
AcDbSymbolTableRecord
100
AcDbBlockTableRecord
2
*Paper_Space
340
0
70
0
0
BLOCK_RECORD
5
23
100
AcDbSymbolTableRecord
100
AcDbBlockTableRecord
2
*Paper_Space0
340
0
70
0
0
BLOCK_RECORD
5
BA
100
AcDbSymbolTableRecord
100
AcDbBlockTableRecord
2
_Closed
340
0
70
0
0
BLOCK_RECORD
5
C4
100
AcDbSymbolTableRecord
100
AcDbBlockTableRecord
2
*D2
340
0
70
0
0
BLOCK_RECORD
5
D3
100
AcDbSymbolTableRecord
100
AcDbBlockTableRecord
2
_U0
340
0
70
0
0
BLOCK_RECORD
5
E3
100
AcDbSymbolTableRecord
100
AcDbBlockTableRecord
2
*D4
340
0
70
0
0
BLOCK_RECORD
5
EF
100
AcDbSymbolTableRecord
100
AcDbBlockTableRecord
2
_U1
340
0
70
0
0
BLOCK_RECORD
5
FF
100
AcDbSymbolTableRecord
100
AcDbBlockTableRecord
2
*D6
340
0
70
0
0
BLOCK_RECORD
5
10B
100
AcDbSymbolTableRecord
100
AcDbBlockTableRecord
2
_U2
340
0
70
0
0
ENDTAB
0
ENDSEC
0
SECTION
2
BLOCKS
0
BLOCK
5
20
100
AcDbEntity
8
0
100
AcDbBlockBegin
2
*Model_Space
70
0
10
0
20
0
30
0
3
*Model_Space
0
ENDBLK
5
21
100
AcDbEntity
8
0
100
AcDbBlockEnd
0
BLOCK
5
1C
100
AcDbEntity
8
0
100
AcDbBlockBegin
2
*Paper_Space
70
0
10
0
20
0
30
0
3
*Paper_Space
0
ENDBLK
5
1D
100
AcDbEntity
8
0
100
AcDbBlockEnd
0
BLOCK
5
24
100
AcDbEntity
8
0
100
AcDbBlockBegin
2
*Paper_Space0
70
0
10
0
20
0
30
0
3
*Paper_Space0
0
ENDBLK
5
25
100
AcDbEntity
8
0
100
AcDbBlockEnd
0
BLOCK
5
BB
100
AcDbEntity
8
0
100
AcDbBlockBegin
2
_Closed
70
0
10
0
20
0
30
0
3
_Closed
0
LINE
5
BD
100
AcDbEntity
8
0
62
256
6
ByLayer
370
-2
48
1
60
0
100
AcDbLine
10
-1
20
0.166667
30
0
11
0
21
0
31
0
39
0
210
0
220
0
230
1
0
LINE
5
BE
100
AcDbEntity
8
0
62
256
6
ByLayer
370
-2
48
1
60
0
100
AcDbLine
10
0
20
0
30
0
11
-1
21
-0.166667
31
0
39
0
210
0
220
0
230
1
0
LINE
5
BF
100
AcDbEntity
8
0
62
256
6
ByLayer
370
-2
48
1
60
0
100
AcDbLine
10
-1
20
0.166667
30
0
11
-1
21
-0.166667
31
0
39
0
210
0
220
0
230
1
0
LINE
5
C0
100
AcDbEntity
8
0
62
256
6
ByLayer
370
-2
48
1
60
0
100
AcDbLine
10
0
20
0
30
0
11
-1
21
0
31
0
39
0
210
0
220
0
230
1
0
ENDBLK
5
BC
100
AcDbEntity
8
0
100
AcDbBlockEnd
0
BLOCK
5
C5
100
AcDbEntity
8
0
100
AcDbBlockBegin
2
*D2
70
1
10
0
20
0
30
0
3
*D2
0
LINE
5
C7
100
AcDbEntity
8
0
62
256
6
ByLayer
370
-2
48
1
60
0
100
AcDbLine
10
4
20
16.5875
30
0
11
4
21
29.67488
31
0
39
0
210
0
220
0
230
1
0
LINE
5
C8
100
AcDbEntity
8
0
62
256
6
ByLayer
370
-2
48
1
60
0
100
AcDbLine
10
0
20
16.5875
30
0
11
0
21
29.67488
31
0
39
0
210
0
220
0
230
1
0
LINE
5
C9
100
AcDbEntity
8
0
62
256
6
ByLayer
370
-2
48
1
60
0
100
AcDbLine
10
4
20
26.49988
30
0
11
23.962967
21
26.49988
31
0
39
0
210
0
220
0
230
1
0
LINE
5
CA
100
AcDbEntity
8
0
62
256
6
ByLayer
370
-2
48
1
60
0
100
AcDbLine
10
7.175
20
26.49988
30
0
11
10.35
21
26.49988
31
0
39
0
210
0
220
0
230
1
0
LINE
5
CB
100
AcDbEntity
8
0
62
256
6
ByLayer
370
-2
48
1
60
0
100
AcDbLine
10
-3.175
20
26.49988
30
0
11
-6.35
21
26.49988
31
0
39
0
210
0
220
0
230
1
0
SOLID
5
CC
100
AcDbEntity
8
0
62
256
6
ByLayer
370
-1
48
1
60
0
100
AcDbTrace
10
7.175
20
27.029047
30
0
11
7.175
21
25.970713
31
0
12
4
22
26.49988
32
0
13
4
23
26.49988
33
0
39
0
210
0
220
0
230
1
0
SOLID
5
CD
100
AcDbEntity
8
0
62
256
6
ByLayer
370
-1
48
1
60
0
100
AcDbTrace
10
-3.175
20
25.970713
30
0
11
-3.175
21
27.029047
31
0
12
0
22
26.49988
32
0
13
0
23
26.49988
33
0
39
0
210
0
220
0
230
1
0
MTEXT
5
CE
100
AcDbEntity
8
0
62
256
6
ByLayer
370
18
48
1
60
0
100
AcDbMText
10
17.156483
20
33.806381
30
0
210
0
220
0
230
1
1
\A1;4
40
3.50012
41
0
44
1
50
0
71
5
72
5
7
iso_b_vert
0
POINT
5
CF
100
AcDbEntity
8
Defpoints
62
0
6
ByLayer
370
-1
48
1
60
0
100
AcDbPoint
10
4
20
15
30
0
39
0
210
0
220
0
230
1
50
360
0
POINT
5
D0
100
AcDbEntity
8
Defpoints
62
0
6
ByLayer
370
-1
48
1
60
0
100
AcDbPoint
10
0
20
15
30
0
39
0
210
0
220
0
230
1
50
360
0
POINT
5
D1
100
AcDbEntity
8
Defpoints
62
0
6
ByLayer
370
-1
48
1
60
0
100
AcDbPoint
10
0
20
26.49988
30
0
39
0
210
0
220
0
230
1
50
360
0
ENDBLK
5
C6
100
AcDbEntity
8
0
100
AcDbBlockEnd
0
BLOCK
5
DE
100
AcDbEntity
8
0
100
AcDbBlockBegin
2
_U0
70
0
10
0
20
0
30
0
3
_U0
0
MTEXT
5
D4
100
AcDbEntity
8
2
62
256
6
ByLayer
370
18
48
1
60
0
100
AcDbMText
10
15.298006
20
27.532549
30
0
210
0
220
0
230
1
1
\W0.6380;4
40
3.50012
41
0
44
1.084337
50
0
71
7
72
5
7
iso_b_vert
0
LINE
5
D5
100
AcDbEntity
8
2
62
256
6
ByLayer
370
13
48
1
60
0
100
AcDbLine
10
4
20
16.5875
30
0
11
4
21
29.67488
31
0
39
0
210
0
220
0
230
1
0
LINE
5
D6
100
AcDbEntity
8
2
62
256
6
ByLayer
370
13
48
1
60
0
100
AcDbLine
10
0
20
16.5875
30
0
11
0
21
29.67488
31
0
39
0
210
0
220
0
230
1
0
LINE
5
D7
100
AcDbEntity
8
2
62
256
6
ByLayer
370
13
48
1
60
0
100
AcDbLine
10
-8.7503
20
26.49988
30
0
11
17.046566
21
26.49988
31
0
39
0
210
0
220
0
230
1
0
LINE
5
D8
100
AcDbEntity
8
2
62
256
6
ByLayer
370
13
48
1
60
0
100
AcDbLine
10
4
20
26.49988
30
0
11
7.174998
21
26.917877
31
0
39
0
210
0
220
0
230
1
0
LINE
5
D9
100
AcDbEntity
8
2
62
256
6
ByLayer
370
13
48
1
60
0
100
AcDbLine
10
4
20
26.49988
30
0
11
7.175002
21
26.081883
31
0
39
0
210
0
220
0
230
1
0
LINE
5
DA
100
AcDbEntity
8
2
62
256
6
ByLayer
370
13
48
1
60
0
100
AcDbLine
10
7.174998
20
26.917877
30
0
11
7.175002
21
26.081883
31
0
39
0
210
0
220
0
230
1
0
LINE
5
DB
100
AcDbEntity
8
2
62
256
6
ByLayer
370
13
48
1
60
0
100
AcDbLine
10
0
20
26.49988
30
0
11
-3.174998
21
26.081883
31
0
39
0
210
0
220
0
230
1
0
LINE
5
DC
100
AcDbEntity
8
2
62
256
6
ByLayer
370
13
48
1
60
0
100
AcDbLine
10
0
20
26.49988
30
0
11
-3.175002
21
26.917877
31
0
39
0
210
0
220
0
230
1
0
LINE
5
DD
100
AcDbEntity
8
2
62
256
6
ByLayer
370
13
48
1
60
0
100
AcDbLine
10
-3.174998
20
26.081883
30
0
11
-3.175002
21
26.917877
31
0
39
0
210
0
220
0
230
1
0
ENDBLK
5
DF
100
AcDbEntity
8
0
100
AcDbBlockEnd
0
BLOCK
5
E4
100
AcDbEntity
8
0
100
AcDbBlockBegin
2
*D4
70
1
10
0
20
0
30
0
3
*D4
0
LINE
5
E6
100
AcDbEntity
8
0
62
256
6
ByLayer
370
-2
48
1
60
0
100
AcDbLine
10
4
20
16.5875
30
0
11
4
21
39.67488
31
0
39
0
210
0
220
0
230
1
0
LINE
5
E7
100
AcDbEntity
8
0
62
256
6
ByLayer
370
-2
48
1
60
0
100
AcDbLine
10
-48
20
11.5875
30
0
11
-48
21
39.67488
31
0
39
0
210
0
220
0
230
1
0
LINE
5
E8
100
AcDbEntity
8
0
62
256
6
ByLayer
370
-2
48
1
60
0
100
AcDbLine
10
0.825
20
36.49988
30
0
11
-44.825
21
36.49988
31
0
39
0
210
0
220
0
230
1
0
SOLID
5
E9
100
AcDbEntity
8
0
62
256
6
ByLayer
370
-1
48
1
60
0
100
AcDbTrace
10
0.825
20
35.970713
30
0
11
0.825
21
37.029047
31
0
12
4
22
36.49988
32
0
13
4
23
36.49988
33
0
39
0
210
0
220
0
230
1
0
SOLID
5
EA
100
AcDbEntity
8
0
62
256
6
ByLayer
370
-1
48
1
60
0
100
AcDbTrace
10
-44.825
20
37.029047
30
0
11
-44.825
21
35.970713
31
0
12
-48
22
36.49988
32
0
13
-48
23
36.49988
33
0
39
0
210
0
220
0
230
1
0
MTEXT
5
EB
100
AcDbEntity
8
0
62
256
6
ByLayer
370
18
48
1
60
0
100
AcDbMText
10
-22
20
43.80638
30
0
210
0
220
0
230
1
1
\A1;52
40
3.50012
41
0
44
1
50
0
71
5
72
5
7
iso_b_vert
0
POINT
5
EC
100
AcDbEntity
8
Defpoints
62
0
6
ByLayer
370
-1
48
1
60
0
100
AcDbPoint
10
4
20
15
30
0
39
0
210
0
220
0
230
1
50
360
0
POINT
5
ED
100
AcDbEntity
8
Defpoints
62
0
6
ByLayer
370
-1
48
1
60
0
100
AcDbPoint
10
-48
20
10
30
0
39
0
210
0
220
0
230
1
50
360
0
POINT
5
EE
100
AcDbEntity
8
Defpoints
62
0
6
ByLayer
370
-1
48
1
60
0
100
AcDbPoint
10
-48
20
36.49988
30
0
39
0
210
0
220
0
230
1
50
360
0
ENDBLK
5
E5
100
AcDbEntity
8
0
100
AcDbBlockEnd
0
BLOCK
5
FA
100
AcDbEntity
8
0
100
AcDbBlockBegin
2
_U1
70
0
10
0
20
0
30
0
3
_U1
0
MTEXT
5
F0
100
AcDbEntity
8
SK2
62
256
6
ByLayer
370
18
48
1
60
0
100
AcDbMText
10
-23.905032
20
37.532549
30
0
210
0
220
0
230
1
1
\W0.6740;52
40
3.50012
41
0
44
1.084337
50
0
71
7
72
5
7
iso_b_vert
0
LINE
5
F1
100
AcDbEntity
8
SK2
62
256
6
ByLayer
370
13
48
1
60
0
100
AcDbLine
10
4
20
16.5875
30
0
11
4
21
39.67488
31
0
39
0
210
0
220
0
230
1
0
LINE
5
F2
100
AcDbEntity
8
SK2
62
256
6
ByLayer
370
13
48
1
60
0
100
AcDbLine
10
-48
20
11.5875
30
0
11
-48
21
39.67488
31
0
39
0
210
0
220
0
230
1
0
LINE
5
F3
100
AcDbEntity
8
SK2
62
256
6
ByLayer
370
13
48
1
60
0
100
AcDbLine
10
4
20
36.49988
30
0
11
-48
21
36.49988
31
0
39
0
210
0
220
0
230
1
0
LINE
5
F4
100
AcDbEntity
8
SK2
62
256
6
ByLayer
370
13
48
1
60
0
100
AcDbLine
10
4
20
36.49988
30
0
11
0.825002
21
36.081883
31
0
39
0
210
0
220
0
230
1
0
LINE
5
F5
100
AcDbEntity
8
SK2
62
256
6
ByLayer
370
13
48
1
60
0
100
AcDbLine
10
4
20
36.49988
30
0
11
0.824998
21
36.917877
31
0
39
0
210
0
220
0
230
1
0
LINE
5
F6
100
AcDbEntity
8
SK2
62
256
6
ByLayer
370
13
48
1
60
0
100
AcDbLine
10
0.825002
20
36.081883
30
0
11
0.824998
21
36.917877
31
0
39
0
210
0
220
0
230
1
0
LINE
5
F7
100
AcDbEntity
8
SK2
62
256
6
ByLayer
370
13
48
1
60
0
100
AcDbLine
10
-48
20
36.49988
30
0
11
-44.825002
21
36.917877
31
0
39
0
210
0
220
0
230
1
0
LINE
5
F8
100
AcDbEntity
8
SK2
62
256
6
ByLayer
370
13
48
1
60
0
100
AcDbLine
10
-48
20
36.49988
30
0
11
-44.824998
21
36.081883
31
0
39
0
210
0
220
0
230
1
0
LINE
5
F9
100
AcDbEntity
8
SK2
62
256
6
ByLayer
370
13
48
1
60
0
100
AcDbLine
10
-44.825002
20
36.917877
30
0
11
-44.824998
21
36.081883
31
0
39
0
210
0
220
0
230
1
0
ENDBLK
5
FB
100
AcDbEntity
8
0
100
AcDbBlockEnd
0
BLOCK
5
100
100
AcDbEntity
8
0
100
AcDbBlockBegin
2
*D6
70
1
10
0
20
0
30
0
3
*D6
0
LINE
5
102
100
AcDbEntity
8
0
62
256
6
ByLayer
370
-2
48
1
60
0
100
AcDbLine
10
4
20
16.5875
30
0
11
4
21
49.67488
31
0
39
0
210
0
220
0
230
1
0
LINE
5
103
100
AcDbEntity
8
0
62
256
6
ByLayer
370
-2
48
1
60
0
100
AcDbLine
10
-56
20
14.0875
30
0
11
-56
21
49.67488
31
0
39
0
210
0
220
0
230
1
0
LINE
5
104
100
AcDbEntity
8
0
62
256
6
ByLayer
370
-2
48
1
60
0
100
AcDbLine
10
0.825
20
46.49988
30
0
11
-52.825
21
46.49988
31
0
39
0
210
0
220
0
230
1
0
SOLID
5
105
100
AcDbEntity
8
0
62
256
6
ByLayer
370
-1
48
1
60
0
100
AcDbTrace
10
0.825
20
45.970713
30
0
11
0.825
21
47.029047
31
0
12
4
22
46.49988
32
0
13
4
23
46.49988
33
0
39
0
210
0
220
0
230
1
0
SOLID
5
106
100
AcDbEntity
8
0
62
256
6
ByLayer
370
-1
48
1
60
0
100
AcDbTrace
10
-52.825
20
47.029047
30
0
11
-52.825
21
45.970713
31
0
12
-56
22
46.49988
32
0
13
-56
23
46.49988
33
0
39
0
210
0
220
0
230
1
0
MTEXT
5
107
100
AcDbEntity
8
0
62
256
6
ByLayer
370
18
48
1
60
0
100
AcDbMText
10
-26
20
53.80638
30
0
210
0
220
0
230
1
1
\A1;60
40
3.50012
41
0
44
1
50
0
71
5
72
5
7
iso_b_vert
0
POINT
5
108
100
AcDbEntity
8
Defpoints
62
0
6
ByLayer
370
-1
48
1
60
0
100
AcDbPoint
10
4
20
15
30
0
39
0
210
0
220
0
230
1
50
360
0
POINT
5
109
100
AcDbEntity
8
Defpoints
62
0
6
ByLayer
370
-1
48
1
60
0
100
AcDbPoint
10
-56
20
12.5
30
0
39
0
210
0
220
0
230
1
50
360
0
POINT
5
10A
100
AcDbEntity
8
Defpoints
62
0
6
ByLayer
370
-1
48
1
60
0
100
AcDbPoint
10
-56
20
46.49988
30
0
39
0
210
0
220
0
230
1
50
360
0
ENDBLK
5
101
100
AcDbEntity
8
0
100
AcDbBlockEnd
0
BLOCK
5
116
100
AcDbEntity
8
0
100
AcDbBlockBegin
2
_U2
70
0
10
0
20
0
30
0
3
_U2
0
MTEXT
5
10C
100
AcDbEntity
8
SK2
62
256
6
ByLayer
370
18
48
1
60
0
100
AcDbMText
10
-27.905032
20
47.532549
30
0
210
0
220
0
230
1
1
\W0.6740;60
40
3.50012
41
0
44
1.084337
50
0
71
7
72
5
7
iso_b_vert
0
LINE
5
10D
100
AcDbEntity
8
SK2
62
256
6
ByLayer
370
13
48
1
60
0
100
AcDbLine
10
4
20
16.5875
30
0
11
4
21
49.67488
31
0
39
0
210
0
220
0
230
1
0
LINE
5
10E
100
AcDbEntity
8
SK2
62
256
6
ByLayer
370
13
48
1
60
0
100
AcDbLine
10
-56
20
14.0875
30
0
11
-56
21
49.67488
31
0
39
0
210
0
220
0
230
1
0
LINE
5
10F
100
AcDbEntity
8
SK2
62
256
6
ByLayer
370
13
48
1
60
0
100
AcDbLine
10
4
20
46.49988
30
0
11
-56
21
46.49988
31
0
39
0
210
0
220
0
230
1
0
LINE
5
110
100
AcDbEntity
8
SK2
62
256
6
ByLayer
370
13
48
1
60
0
100
AcDbLine
10
4
20
46.49988
30
0
11
0.825002
21
46.081883
31
0
39
0
210
0
220
0
230
1
0
LINE
5
111
100
AcDbEntity
8
SK2
62
256
6
ByLayer
370
13
48
1
60
0
100
AcDbLine
10
4
20
46.49988
30
0
11
0.824998
21
46.917877
31
0
39
0
210
0
220
0
230
1
0
LINE
5
112
100
AcDbEntity
8
SK2
62
256
6
ByLayer
370
13
48
1
60
0
100
AcDbLine
10
0.825002
20
46.081883
30
0
11
0.824998
21
46.917877
31
0
39
0
210
0
220
0
230
1
0
LINE
5
113
100
AcDbEntity
8
SK2
62
256
6
ByLayer
370
13
48
1
60
0
100
AcDbLine
10
-56
20
46.49988
30
0
11
-52.825002
21
46.917877
31
0
39
0
210
0
220
0
230
1
0
LINE
5
114
100
AcDbEntity
8
SK2
62
256
6
ByLayer
370
13
48
1
60
0
100
AcDbLine
10
-56
20
46.49988
30
0
11
-52.824998
21
46.081883
31
0
39
0
210
0
220
0
230
1
0
LINE
5
115
100
AcDbEntity
8
SK2
62
256
6
ByLayer
370
13
48
1
60
0
100
AcDbLine
10
-52.825002
20
46.917877
30
0
11
-52.824998
21
46.081883
31
0
39
0
210
0
220
0
230
1
0
ENDBLK
5
117
100
AcDbEntity
8
0
100
AcDbBlockEnd
0
ENDSEC
0
SECTION
2
ENTITIES
0
POINT
5
70
100
AcDbEntity
8
81
62
256
6
ByLayer
370
18
48
1
60
0
100
AcDbPoint
10
4
20
0
30
0
39
0
210
0
220
0
230
1
50
360
0
POINT
5
72
100
AcDbEntity
8
80
62
256
6
ByLayer
370
18
48
1
60
0
100
AcDbPoint
10
0
20
0
30
0
39
0
210
0
220
0
230
1
50
360
0
POINT
5
74
100
AcDbEntity
8
1
62
256
6
ByLayer
370
18
48
1
60
1
100
AcDbPoint
10
4
20
15
30
0
39
0
210
0
220
0
230
1
50
360
0
POINT
5
76
100
AcDbEntity
8
1
62
256
6
ByLayer
370
18
48
1
60
1
100
AcDbPoint
10
0
20
15
30
0
39
0
210
0
220
0
230
1
50
360
0
POINT
5
77
100
AcDbEntity
8
1
62
256
6
ByLayer
370
18
48
1
60
1
100
AcDbPoint
10
4
20
15
30
0
39
0
210
0
220
0
230
1
50
360
0
POINT
5
78
100
AcDbEntity
8
1
62
256
6
ByLayer
370
18
48
1
60
1
100
AcDbPoint
10
-48
20
10
30
0
39
0
210
0
220
0
230
1
50
360
0
POINT
5
79
100
AcDbEntity
8
1
62
256
6
ByLayer
370
18
48
1
60
1
100
AcDbPoint
10
4
20
15
30
0
39
0
210
0
220
0
230
1
50
360
0
POINT
5
7A
100
AcDbEntity
8
1
62
256
6
ByLayer
370
18
48
1
60
1
100
AcDbPoint
10
-56
20
12.5
30
0
39
0
210
0
220
0
230
1
50
360
0
LINE
5
7B
100
AcDbEntity
8
1
62
256
6
ByLayer
370
18
48
1
60
0
100
AcDbLine
10
4
20
-15
30
0
11
4
21
15
31
0
39
0
210
0
220
0
230
1
0
LINE
5
7C
100
AcDbEntity
8
1
62
256
6
ByLayer
370
18
48
1
60
0
100
AcDbLine
10
0
20
-15
30
0
11
0
21
15
31
0
39
0
210
0
220
0
230
1
0
LINE
5
7D
100
AcDbEntity
8
SK1
62
256
6
ByLayer
370
18
48
1
60
0
100
AcDbLine
10
-56
20
-12.5
30
0
11
-56
21
12.5
31
0
39
0
210
0
220
0
230
1
0
LINE
5
7F
100
AcDbEntity
8
SK3
62
256
6
ByLayer
370
18
48
0.05
60
0
100
AcDbLine
10
4
20
-10
30
0
11
-48
21
-10
31
0
39
0
210
0
220
0
230
1
0
LINE
5
81
100
AcDbEntity
8
SK3
62
256
6
ByLayer
370
18
48
0.05
60
0
100
AcDbLine
10
-48
20
-10
30
0
11
-46
21
-10.25
31
0
39
0
210
0
220
0
230
1
0
LINE
5
82
100
AcDbEntity
8
SK3
62
256
6
ByLayer
370
18
48
0.05
60
0
100
AcDbLine
10
-46
20
-10.25
30
0
11
-56
21
-10.25
31
0
39
0
210
0
220
0
230
1
0
LINE
5
83
100
AcDbEntity
8
SK3
62
256
6
ByLayer
370
18
48
0.05
60
0
100
AcDbLine
10
4
20
10
30
0
11
-48
21
10
31
0
39
0
210
0
220
0
230
1
0
LINE
5
84
100
AcDbEntity
8
SK3
62
256
6
ByLayer
370
18
48
0.05
60
0
100
AcDbLine
10
-48
20
10
30
0
11
-46
21
10.25
31
0
39
0
210
0
220
0
230
1
0
LINE
5
85
100
AcDbEntity
8
SK3
62
256
6
ByLayer
370
18
48
0.05
60
0
100
AcDbLine
10
-46
20
10.25
30
0
11
-56
21
10.25
31
0
39
0
210
0
220
0
230
1
0
LINE
5
86
100
AcDbEntity
8
SK3
62
256
6
ByLayer
370
18
48
0.05
60
0
100
AcDbLine
10
-46
20
-10.25
30
0
11
-46
21
10.25
31
0
39
0
210
0
220
0
230
1
0
LINE
5
87
100
AcDbEntity
8
SK1
62
256
6
ByLayer
370
18
48
1
60
0
100
AcDbLine
10
0
20
12.5
30
0
11
-56
21
12.5
31
0
39
0
210
0
220
0
230
1
0
LINE
5
88
100
AcDbEntity
8
SK1
62
256
6
ByLayer
370
18
48
1
60
0
100
AcDbLine
10
-56
20
-12.5
30
0
11
0
21
-12.5
31
0
39
0
210
0
220
0
230
1
0
LINE
5
89
100
AcDbEntity
8
1
62
256
6
ByLayer
370
18
48
1
60
0
100
AcDbLine
10
4
20
15
30
0
11
0
21
15
31
0
39
0
210
0
220
0
230
1
0
LINE
5
8A
100
AcDbEntity
8
81
62
256
6
ByLayer
370
18
48
1
60
0
100
AcDbLine
10
4
20
0
30
0
11
9
21
0
31
0
39
0
210
0
220
0
230
1
0
LINE
5
8B
100
AcDbEntity
8
4
62
256
6
ByLayer
370
18
48
0.05
60
0
100
AcDbLine
10
0
20
0
30
0
11
4
21
0
31
0
39
0
210
0
220
0
230
1
0
LINE
5
8D
100
AcDbEntity
8
80
62
256
6
ByLayer
370
18
48
1
60
0
100
AcDbLine
10
0
20
0
30
0
11
-5
21
0
31
0
39
0
210
0
220
0
230
1
0
LINE
5
8E
100
AcDbEntity
8
SK4
62
256
6
ByLayer
370
18
48
0.05
60
0
100
AcDbLine
10
-59
20
0
30
0
11
7
21
0
31
0
39
0
210
0
220
0
230
1
0
LINE
5
90
100
AcDbEntity
8
1
62
256
6
ByLayer
370
18
48
1
60
0
100
AcDbLine
10
0
20
-15
30
0
11
4
21
-15
31
0
39
0
210
0
220
0
230
1
0
LINE
5
91
100
AcDbEntity
8
SK3
62
256
6
ByLayer
370
18
48
0.05
60
0
100
AcDbLine
10
-48
20
-10
30
0
11
-48
21
10
31
0
39
0
210
0
220
0
230
1
0
LINE
5
92
100
AcDbEntity
8
SK2
62
256
6
ByLayer
370
13
48
1
60
0
100
AcDbLine
10
-71.62485
20
12.5
30
0
11
-71.62485
21
-12.5
31
0
39
0
210
0
220
0
230
1
0
LINE
5
94
100
AcDbEntity
8
SK2
62
256
6
ByLayer
370
13
48
1
60
0
100
AcDbLine
10
-57.5875
20
-12.5
30
0
11
-74.79985
21
-12.5
31
0
39
0
210
0
220
0
230
1
0
LINE
5
95
100
AcDbEntity
8
SK2
62
256
6
ByLayer
370
13
48
1
60
0
100
AcDbLine
10
-57.5875
20
12.5
30
0
11
-74.79985
21
12.5
31
0
39
0
210
0
220
0
230
1
0
LINE
5
96
100
AcDbEntity
8
1
62
256
6
ByLayer
370
13
48
1
60
0
100
AcDbLine
10
-71.62485
20
-12.5
30
0
11
-72.042847
21
-9.325002
31
0
39
0
210
0
220
0
230
1
0
LINE
5
97
100
AcDbEntity
8
1
62
256
6
ByLayer
370
13
48
1
60
0
100
AcDbLine
10
-71.62485
20
-12.5
30
0
11
-71.206853
21
-9.324998
31
0
39
0
210
0
220
0
230
1
0
LINE
5
98
100
AcDbEntity
8
1
62
256
6
ByLayer
370
13
48
1
60
0
100
AcDbLine
10
-72.042847
20
-9.325002
30
0
11
-71.206853
21
-9.324998
31
0
39
0
210
0
220
0
230
1
0
LINE
5
99
100
AcDbEntity
8
1
62
256
6
ByLayer
370
13
48
1
60
0
100
AcDbLine
10
-71.62485
20
12.5
30
0
11
-71.206853
21
9.325002
31
0
39
0
210
0
220
0
230
1
0
LINE
5
9A
100
AcDbEntity
8
1
62
256
6
ByLayer
370
13
48
1
60
0
100
AcDbLine
10
-71.62485
20
12.5
30
0
11
-72.042847
21
9.324998
31
0
39
0
210
0
220
0
230
1
0
LINE
5
9B
100
AcDbEntity
8
1
62
256
6
ByLayer
370
13
48
1
60
0
100
AcDbLine
10
-71.206853
20
9.325002
30
0
11
-72.042847
21
9.324998
31
0
39
0
210
0
220
0
230
1
0
LINE
5
9C
100
AcDbEntity
8
SK2
62
256
6
ByLayer
370
13
48
1
60
0
100
AcDbLine
10
38.37515
20
15
30
0
11
38.37515
21
-15
31
0
39
0
210
0
220
0
230
1
0
LINE
5
9D
100
AcDbEntity
8
SK2
62
256
6
ByLayer
370
13
48
1
60
0
100
AcDbLine
10
5.5875
20
-15
30
0
11
41.55015
21
-15
31
0
39
0
210
0
220
0
230
1
0
LINE
5
9E
100
AcDbEntity
8
SK2
62
256
6
ByLayer
370
13
48
1
60
0
100
AcDbLine
10
5.5875
20
15
30
0
11
41.55015
21
15
31
0
39
0
210
0
220
0
230
1
0
LINE
5
9F
100
AcDbEntity
8
1
62
256
6
ByLayer
370
13
48
1
60
0
100
AcDbLine
10
38.37515
20
-15
30
0
11
37.957153
21
-11.825002
31
0
39
0
210
0
220
0
230
1
0
LINE
5
A0
100
AcDbEntity
8
1
62
256
6
ByLayer
370
13
48
1
60
0
100
AcDbLine
10
38.37515
20
-15
30
0
11
38.793147
21
-11.824998
31
0
39
0
210
0
220
0
230
1
0
LINE
5
A1
100
AcDbEntity
8
1
62
256
6
ByLayer
370
13
48
1
60
0
100
AcDbLine
10
37.957153
20
-11.825002
30
0
11
38.793147
21
-11.824998
31
0
39
0
210
0
220
0
230
1
0
LINE
5
A2
100
AcDbEntity
8
1
62
256
6
ByLayer
370
13
48
1
60
0
100
AcDbLine
10
38.37515
20
15
30
0
11
38.793147
21
11.825002
31
0
39
0
210
0
220
0
230
1
0
LINE
5
A3
100
AcDbEntity
8
1
62
256
6
ByLayer
370
13
48
1
60
0
100
AcDbLine
10
38.37515
20
15
30
0
11
37.957153
21
11.824998
31
0
39
0
210
0
220
0
230
1
0
LINE
5
A4
100
AcDbEntity
8
1
62
256
6
ByLayer
370
13
48
1
60
0
100
AcDbLine
10
38.793147
20
11.825002
30
0
11
37.957153
21
11.824998
31
0
39
0
210
0
220
0
230
1
0
LINE
5
A5
100
AcDbEntity
8
SK2
62
256
6
ByLayer
370
13
48
1
60
0
100
AcDbLine
10
23.37515
20
18.7503
30
0
11
23.37515
21
-18.7503
31
0
39
0
210
0
220
0
230
1
0
LINE
5
A6
100
AcDbEntity
8
SK2
62
256
6
ByLayer
370
13
48
1
60
0
100
AcDbLine
10
5.5875
20
-10
30
0
11
26.55015
21
-10
31
0
39
0
210
0
220
0
230
1
0
LINE
5
A7
100
AcDbEntity
8
SK2
62
256
6
ByLayer
370
13
48
1
60
0
100
AcDbLine
10
5.5875
20
10
30
0
11
26.55015
21
10
31
0
39
0
210
0
220
0
230
1
0
LINE
5
A8
100
AcDbEntity
8
1
62
256
6
ByLayer
370
13
48
1
60
0
100
AcDbLine
10
23.37515
20
-10
30
0
11
23.793147
21
-13.174998
31
0
39
0
210
0
220
0
230
1
0
LINE
5
A9
100
AcDbEntity
8
1
62
256
6
ByLayer
370
13
48
1
60
0
100
AcDbLine
10
23.37515
20
-10
30
0
11
22.957153
21
-13.175002
31
0
39
0
210
0
220
0
230
1
0
LINE
5
AA
100
AcDbEntity
8
1
62
256
6
ByLayer
370
13
48
1
60
0
100
AcDbLine
10
23.793147
20
-13.174998
30
0
11
22.957153
21
-13.175002
31
0
39
0
210
0
220
0
230
1
0
LINE
5
AB
100
AcDbEntity
8
1
62
256
6
ByLayer
370
13
48
1
60
0
100
AcDbLine
10
23.37515
20
10
30
0
11
22.957153
21
13.174998
31
0
39
0
210
0
220
0
230
1
0
LINE
5
AC
100
AcDbEntity
8
1
62
256
6
ByLayer
370
13
48
1
60
0
100
AcDbLine
10
23.37515
20
10
30
0
11
23.793147
21
13.175002
31
0
39
0
210
0
220
0
230
1
0
LINE
5
AD
100
AcDbEntity
8
1
62
256
6
ByLayer
370
13
48
1
60
0
100
AcDbLine
10
22.957153
20
13.174998
30
0
11
23.793147
21
13.175002
31
0
39
0
210
0
220
0
230
1
0
MTEXT
5
AE
100
AcDbEntity
8
SK2
62
256
6
ByLayer
370
18
48
1
60
0
100
AcDbMText
10
-73.189537
20
-5.405274
30
0
210
0
220
0
230
1
1
%%c
40
3.50012
41
0
44
1.084337
50
90
71
7
72
5
7
iso_b_vert
0
MTEXT
5
B1
100
AcDbEntity
8
SK2
62
256
6
ByLayer
370
18
48
1
60
0
100
AcDbMText
10
-73.189537
20
3.317682
30
0
210
0
220
0
230
1
1
\W0.6740;25
40
3.50012
41
0
44
1.084337
50
90
71
7
72
5
7
iso_b_vert
0
MTEXT
5
B2
100
AcDbEntity
8
SK2
62
256
6
ByLayer
370
18
48
1
60
0
100
AcDbMText
10
36.810463
20
-5.405274
30
0
210
0
220
0
230
1
1
%%c
40
3.50012
41
0
44
1.084337
50
90
71
7
72
5
7
iso_b_vert
0
MTEXT
5
B3
100
AcDbEntity
8
SK2
62
256
6
ByLayer
370
18
48
1
60
0
100
AcDbMText
10
36.810463
20
3.317682
30
0
210
0
220
0
230
1
1
\W0.6740;30
40
3.50012
41
0
44
1.084337
50
90
71
7
72
5
7
iso_b_vert
0
MTEXT
5
B4
100
AcDbEntity
8
SK2
62
256
6
ByLayer
370
18
48
1
60
0
100
AcDbMText
10
21.810463
20
-5.405274
30
0
210
0
220
0
230
1
1
%%c
40
3.50012
41
0
44
1.084337
50
90
71
7
72
5
7
iso_b_vert
0
MTEXT
5
B5
100
AcDbEntity
8
SK2
62
256
6
ByLayer
370
18
48
1
60
0
100
AcDbMText
10
21.810463
20
3.317682
30
0
210
0
220
0
230
1
1
\W0.6740;20
40
3.50012
41
0
44
1.084337
50
90
71
7
72
5
7
iso_b_vert
0
MTEXT
5
B6
100
AcDbEntity
8
SK6
62
256
6
ByLayer
370
18
48
1
60
0
100
AcDbMText
10
-44.788
20
-40.819847
30
0
210
0
220
0
230
1
1
\W0.7552;393.CF-252056
40
4
41
0
44
1.084337
50
0
71
7
72
5
7
iso_b_vert
0
DIMENSION
5
B9
100
AcDbEntity
8
2
62
256
6
ByLayer
370
18
48
1
60
0
100
AcDbDimension
2
_U0
10
0
20
26.49988
30
0
11
17.156483
21
26.49988
31
0
70
32
71
1
72
1
41
1
210
0
220
0
230
1
3
Standard
100
AcDbAlignedDimension
13
4
23
15
33
0
14
0
24
15
34
0
50
0
100
AcDbRotatedDimension
1001
ACAD
1000
DSTYLE
1002
{
1070
   371
1070
    13
1070
   372
1070
    13
1070
   170
1070
     0
1070
   144
1040
1.0
1070
   277
1070
     2
1070
   284
1070
     8
1070
   278
1070
    46
1070
   146
1040
0.999966
1070
   345
1005
16
1070
   347
1005
16
1070
   346
1005
16
1070
   344
1005
BA
1070
   343
1005
BA
1070
   172
1070
     1
1070
    76
1070
     0
1070
    75
1070
     0
1070
   282
1070
     0
1070
   281
1070
     0
1070
    71
1070
     0
1070
    74
1070
     0
1070
   279
1070
     0
1070
   173
1070
     1
1070
   340
1005
AF
1070
   271
1070
     1
1070
   272
1070
     2
1070
    77
1070
     1
1070
    73
1070
     1
1070
   171
1070
     3
1070
   274
1070
     4
1070
   177
1070
   150
1070
   176
1070
     9
1070
   178
1070
    43
1070
    78
1070
     8
1070
    48
1040
-0.1
1070
    41
1040
3.175
1070
   147
1040
1.75006
1070
    42
1040
1.5875
1070
    44
1040
3.175
1070
   140
1040
3.50012
1002
}
1001
ACAD_DSTYLE_DIM_LINETYPE
1070
   380
1005
16
1001
ACAD_DSTYLE_DIM_EXT1_LINETYPE
1070
   381
1005
16
1001
ACAD_DSTYLE_DIM_EXT2_LINETYPE
1070
   382
1005
16
0
DIMENSION
5
E0
100
AcDbEntity
8
SK2
62
256
6
ByLayer
370
18
48
1
60
0
100
AcDbDimension
2
_U1
10
-48
20
36.49988
30
0
11
-22
21
36.49988
31
0
70
32
71
1
72
1
41
1
210
0
220
0
230
1
3
Standard
100
AcDbAlignedDimension
13
4
23
15
33
0
14
-48
24
10
34
0
50
0
100
AcDbRotatedDimension
1001
ACAD
1000
DSTYLE
1002
{
1070
   371
1070
    13
1070
   372
1070
    13
1070
   170
1070
     0
1070
   144
1040
1.0
1070
   277
1070
     2
1070
   284
1070
     8
1070
   278
1070
    46
1070
   146
1040
0.999966
1070
   345
1005
16
1070
   347
1005
16
1070
   346
1005
16
1070
   344
1005
BA
1070
   343
1005
BA
1070
   172
1070
     1
1070
    76
1070
     0
1070
    75
1070
     0
1070
   282
1070
     0
1070
   281
1070
     0
1070
    71
1070
     0
1070
    74
1070
     0
1070
   279
1070
     0
1070
   173
1070
     1
1070
   340
1005
AF
1070
   271
1070
     1
1070
   272
1070
     2
1070
    77
1070
     1
1070
    73
1070
     1
1070
   171
1070
     3
1070
   274
1070
     4
1070
   177
1070
   150
1070
   176
1070
     9
1070
   178
1070
    43
1070
    78
1070
     8
1070
    48
1040
-0.1
1070
    41
1040
3.175
1070
   147
1040
1.75006
1070
    42
1040
1.5875
1070
    44
1040
3.175
1070
   140
1040
3.50012
1002
}
1001
ACAD_DSTYLE_DIM_LINETYPE
1070
   380
1005
16
1001
ACAD_DSTYLE_DIM_EXT1_LINETYPE
1070
   381
1005
16
1001
ACAD_DSTYLE_DIM_EXT2_LINETYPE
1070
   382
1005
16
0
DIMENSION
5
FC
100
AcDbEntity
8
SK2
62
256
6
ByLayer
370
18
48
1
60
0
100
AcDbDimension
2
_U2
10
-56
20
46.49988
30
0
11
-26
21
46.49988
31
0
70
32
71
1
72
1
41
1
210
0
220
0
230
1
3
Standard
100
AcDbAlignedDimension
13
4
23
15
33
0
14
-56
24
12.5
34
0
50
0
100
AcDbRotatedDimension
1001
ACAD
1000
DSTYLE
1002
{
1070
   371
1070
    13
1070
   372
1070
    13
1070
   170
1070
     0
1070
   144
1040
1.0
1070
   277
1070
     2
1070
   284
1070
     8
1070
   278
1070
    46
1070
   146
1040
0.999966
1070
   345
1005
16
1070
   347
1005
16
1070
   346
1005
16
1070
   344
1005
BA
1070
   343
1005
BA
1070
   172
1070
     1
1070
    76
1070
     0
1070
    75
1070
     0
1070
   282
1070
     0
1070
   281
1070
     0
1070
    71
1070
     0
1070
    74
1070
     0
1070
   279
1070
     0
1070
   173
1070
     1
1070
   340
1005
AF
1070
   271
1070
     1
1070
   272
1070
     2
1070
    77
1070
     1
1070
    73
1070
     1
1070
   171
1070
     3
1070
   274
1070
     4
1070
   177
1070
   150
1070
   176
1070
     9
1070
   178
1070
    43
1070
    78
1070
     8
1070
    48
1040
-0.1
1070
    41
1040
3.175
1070
   147
1040
1.75006
1070
    42
1040
1.5875
1070
    44
1040
3.175
1070
   140
1040
3.50012
1002
}
1001
ACAD_DSTYLE_DIM_LINETYPE
1070
   380
1005
16
1001
ACAD_DSTYLE_DIM_EXT1_LINETYPE
1070
   381
1005
16
1001
ACAD_DSTYLE_DIM_EXT2_LINETYPE
1070
   382
1005
16
0
ENDSEC
0
SECTION
2
OBJECTS
0
DICTIONARY
5
189
330
0
100
AcDbDictionary
280
0
281
1
3
ACAD_GROUP
350
18a
3
ACAD_MLINESTYLE
350
18b
0
DICTIONARY
5
18a
330
0
100
AcDbDictionary
280
0
281
1
0
DICTIONARY
5
18b
330
0
100
AcDbDictionary
280
0
281
1
3
Standard
350
18
0
MLINESTYLE
5
18
330
18b
100
AcDbMlineStyle
2
Standard
70
0
3

62
256
51
90
52
90
71
2
49
-0.5
62
256
6
ByLayer
49
0.5
62
256
6
ByLayer
0
RASTERVARIABLES
5
176
330

100
AcDbRasterVariables
90
0
70
1
71
1
72
1
0
ENDSEC
0
EOF
