  0
SECTION
  2
HEADER
  9
$ACADVER
  1
AC1015
  9
$ACADMAINTVER
 70
     6
  9
$DWGCODEPAGE
  3
ANSI_1252
  9
$INSBASE
 10
0.0
 20
0.0
 30
0.0
  9
$EXTMIN
 10
0.0
 20
0.0
 30
0.0
  9
$EXTMAX
 10
210.0
 20
297.0
 30
0.0
  9
$LIMMIN
 10
0.0
 20
0.0
  9
$LIMMAX
 10
210.0
 20
297.0
  9
$ORTHOMODE
 70
     0
  9
$REGENMODE
 70
     1
  9
$FILLMODE
 70
     1
  9
$QTEXTMODE
 70
     0
  9
$MIRRTEXT
 70
     1
  9
$LTSCALE
 40
1.0
  9
$ATTMODE
 70
     1
  9
$TEXTSIZE
 40
2.5
  9
$TRACEWID
 40
1.0
  9
$TEXTSTYLE
  7
Standard
  9
$CLAYER
  8
0
  9
$CELTYPE
  6
ByLayer
  9
$CECOLOR
 62
   256
  9
$CELTSCALE
 40
1.0
  9
$DISPSILH
 70
     0
  9
$DIMSCALE
 40
1.0
  9
$DIMASZ
 40
2.5
  9
$DIMEXO
 40
0.625
  9
$DIMDLI
 40
3.75
  9
$DIMRND
 40
0.0
  9
$DIMDLE
 40
0.0
  9
$DIMEXE
 40
1.25
  9
$DIMTP
 40
0.0
  9
$DIMTM
 40
0.0
  9
$DIMTXT
 40
2.5
  9
$DIMCEN
 40
2.5
  9
$DIMTSZ
 40
0.0
  9
$DIMTOL
 70
     0
  9
$DIMLIM
 70
     0
  9
$DIMTIH
 70
     0
  9
$DIMTOH
 70
     0
  9
$DIMSE1
 70
     0
  9
$DIMSE2
 70
     0
  9
$DIMTAD
 70
     1
  9
$DIMZIN
 70
     8
  9
$DIMBLK
  1

  9
$DIMASO
 70
     1
  9
$DIMSHO
 70
     1
  9
$DIMPOST
  1

  9
$DIMAPOST
  1

  9
$DIMALT
 70
     0
  9
$DIMALTD
 70
     3
  9
$DIMALTF
 40
0.0393700787
  9
$DIMLFAC
 40
1.0
  9
$DIMTOFL
 70
     1
  9
$DIMTVP
 40
0.0
  9
$DIMTIX
 70
     0
  9
$DIMSOXD
 70
     0
  9
$DIMSAH
 70
     0
  9
$DIMBLK1
  1

  9
$DIMBLK2
  1

  9
$DIMSTYLE
  2
ISO-25
  9
$DIMCLRD
 70
     0
  9
$DIMCLRE
 70
     0
  9
$DIMCLRT
 70
     0
  9
$DIMTFAC
 40
1.0
  9
$DIMGAP
 40
0.625
  9
$DIMJUST
 70
     0
  9
$DIMSD1
 70
     0
  9
$DIMSD2
 70
     0
  9
$DIMTOLJ
 70
     0
  9
$DIMTZIN
 70
     8
  9
$DIMALTZ
 70
     0
  9
$DIMALTTZ
 70
     0
  9
$DIMUPT
 70
     0
  9
$DIMDEC
 70
     2
  9
$DIMTDEC
 70
     2
  9
$DIMALTU
 70
     2
  9
$DIMALTTD
 70
     3
  9
$DIMTXSTY
  7
Standard
  9
$DIMAUNIT
 70
     0
  9
$DIMADEC
 70
     0
  9
$DIMALTRND
 40
0.0
  9
$DIMAZIN
 70
     0
  9
$DIMDSEP
 70
    44
  9
$DIMATFIT
 70
     3
  9
$DIMFRAC
 70
     0
  9
$DIMLDRBLK
  1

  9
$DIMLUNIT
 70
     2
  9
$DIMLWD
 70
    -2
  9
$DIMLWE
 70
    -2
  9
$DIMTMOVE
 70
     0
  9
$LUNITS
 70
     2
  9
$LUPREC
 70
     4
  9
$SKETCHINC
 40
1.0
  9
$FILLETRAD
 40
10.0
  9
$AUNITS
 70
     0
  9
$AUPREC
 70
     0
  9
$MENU
  1
.
  9
$ELEVATION
 40
0.0
  9
$PELEVATION
 40
0.0
  9
$THICKNESS
 40
0.0
  9
$LIMCHECK
 70
     0
  9
$CHAMFERA
 40
10.0
  9
$CHAMFERB
 40
10.0
  9
$CHAMFERC
 40
20.0
  9
$CHAMFERD
 40
0.0
  9
$SKPOLY
 70
     0
  9
$TDCREATE
 40
2457567.449188727
  9
$TDUCREATE
 40
2457567.365855393
  9
$TDUPDATE
 40
2457567.449192697
  9
$TDUUPDATE
 40
2457567.365859363
  9
$TDINDWG
 40
0.0000000116
  9
$TDUSRTIMER
 40
0.0000000116
  9
$USRTIMER
 70
     1
  9
$ANGBASE
 50
0.0
  9
$ANGDIR
 70
     0
  9
$PDMODE
 70
     0
  9
$PDSIZE
 40
0.0
  9
$PLINEWID
 40
0.0
  9
$SPLFRAME
 70
     0
  9
$SPLINETYPE
 70
     6
  9
$SPLINESEGS
 70
     8
  9
$HANDSEED
  5
1B1
  9
$SURFTAB1
 70
     6
  9
$SURFTAB2
 70
     6
  9
$SURFTYPE
 70
     6
  9
$SURFU
 70
     6
  9
$SURFV
 70
     6
  9
$UCSBASE
  2

  9
$UCSNAME
  2

  9
$UCSORG
 10
0.0
 20
0.0
 30
0.0
  9
$UCSXDIR
 10
1.0
 20
0.0
 30
0.0
  9
$UCSYDIR
 10
0.0
 20
1.0
 30
0.0
  9
$UCSORTHOREF
  2

  9
$UCSORTHOVIEW
 70
     0
  9
$UCSORGTOP
 10
0.0
 20
0.0
 30
0.0
  9
$UCSORGBOTTOM
 10
0.0
 20
0.0
 30
0.0
  9
$UCSORGLEFT
 10
0.0
 20
0.0
 30
0.0
  9
$UCSORGRIGHT
 10
0.0
 20
0.0
 30
0.0
  9
$UCSORGFRONT
 10
0.0
 20
0.0
 30
0.0
  9
$UCSORGBACK
 10
0.0
 20
0.0
 30
0.0
  9
$PUCSBASE
  2

  9
$PUCSNAME
  2

  9
$PUCSORG
 10
0.0
 20
0.0
 30
0.0
  9
$PUCSXDIR
 10
1.0
 20
0.0
 30
0.0
  9
$PUCSYDIR
 10
0.0
 20
1.0
 30
0.0
  9
$PUCSORTHOREF
  2

  9
$PUCSORTHOVIEW
 70
     0
  9
$PUCSORGTOP
 10
0.0
 20
0.0
 30
0.0
  9
$PUCSORGBOTTOM
 10
0.0
 20
0.0
 30
0.0
  9
$PUCSORGLEFT
 10
0.0
 20
0.0
 30
0.0
  9
$PUCSORGRIGHT
 10
0.0
 20
0.0
 30
0.0
  9
$PUCSORGFRONT
 10
0.0
 20
0.0
 30
0.0
  9
$PUCSORGBACK
 10
0.0
 20
0.0
 30
0.0
  9
$USERI1
 70
     0
  9
$USERI2
 70
     0
  9
$USERI3
 70
     0
  9
$USERI4
 70
     0
  9
$USERI5
 70
     0
  9
$USERR1
 40
0.0
  9
$USERR2
 40
0.0
  9
$USERR3
 40
0.0
  9
$USERR4
 40
0.0
  9
$USERR5
 40
0.0
  9
$WORLDVIEW
 70
     1
  9
$SHADEDGE
 70
     3
  9
$SHADEDIF
 70
    70
  9
$TILEMODE
 70
     1
  9
$MAXACTVP
 70
    64
  9
$PINSBASE
 10
0.0
 20
0.0
 30
0.0
  9
$PLIMCHECK
 70
     0
  9
$PEXTMIN
 10
0.0
 20
0.0
 30
0.0
  9
$PEXTMAX
 10
210.0
 20
297.0
 30
0.0
  9
$PLIMMIN
 10
0.0
 20
0.0
  9
$PLIMMAX
 10
210.0
 20
297.0
  9
$UNITMODE
 70
     0
  9
$VISRETAIN
 70
     1
  9
$PLINEGEN
 70
     0
  9
$PSLTSCALE
 70
     1
  9
$TREEDEPTH
 70
  3020
  9
$CMLSTYLE
  2
Standard
  9
$CMLJUST
 70
     0
  9
$CMLSCALE
 40
20.0
  9
$PROXYGRAPHICS
 70
     1
  9
$MEASUREMENT
 70
     1
  9
$CELWEIGHT
370
    -1
  9
$ENDCAPS
280
     0
  9
$JOINSTYLE
280
     0
  9
$LWDISPLAY
290
     0
  9
$INSUNITS
 70
     4
  9
$HYPERLINKBASE
  1

  9
$STYLESHEET
  1

  9
$XEDIT
290
     1
  9
$CEPSNTYPE
380
     0
  9
$PSTYLEMODE
290
     1
  9
$FINGERPRINTGUID
  2
{B1498E84-ECD2-4C1C-A43E-46C785393266}
  9
$VERSIONGUID
  2
{FAEB1C32-E019-11D5-929B-00C0DF256EC4}
  9
$EXTNAMES
290
     1
  9
$PSVPSCALE
 40
0.0
  9
$OLESTARTUP
290
     0
  0
ENDSEC
  0
SECTION
  2
CLASSES
  0
CLASS
  1
ACDBDICTIONARYWDFLT
  2
AcDbDictionaryWithDefault
  3
ObjectDBX Classes
 90
        0
280
     0
281
     0
  0
CLASS
  1
VISUALSTYLE
  2
AcDbVisualStyle
  3
ObjectDBX Classes
 90
     4095
280
     0
281
     0
  0
CLASS
  1
MATERIAL
  2
AcDbMaterial
  3
ObjectDBX Classes
 90
     1153
280
     0
281
     0
  0
CLASS
  1
DICTIONARYVAR
  2
AcDbDictionaryVar
  3
ObjectDBX Classes
 90
        0
280
     0
281
     0
  0
CLASS
  1
ACDBPLACEHOLDER
  2
AcDbPlaceHolder
  3
ObjectDBX Classes
 90
        0
280
     0
281
     0
  0
CLASS
  1
LAYOUT
  2
AcDbLayout
  3
ObjectDBX Classes
 90
        0
280
     0
281
     0
  0
ENDSEC
  0
SECTION
  2
TABLES
  0
TABLE
  2
VPORT
  5
8
330
0
100
AcDbSymbolTable
 70
     1
  0
VPORT
  5
29
330
8
100
AcDbSymbolTableRecord
100
AcDbViewportTableRecord
  2
*Active
 70
     0
 10
0.0
 20
0.0
 11
1.0
 21
1.0
 12
344.1869158879
 22
148.5
 13
0.0
 23
0.0
 14
10.0
 24
10.0
 15
10.0
 25
10.0
 16
0.0
 26
0.0
 36
1.0
 17
0.0
 27
0.0
 37
0.0
 40
297.0
 41
1.9729729729
 42
50.0
 43
0.0
 44
0.0
 50
0.0
 51
0.0
 71
     0
 72
   100
 73
     1
 74
     3
 75
     0
 76
     0
 77
     0
 78
     0
281
     0
 65
     1
110
0.0
120
0.0
130
0.0
111
1.0
121
0.0
131
0.0
112
0.0
122
1.0
132
0.0
 79
     0
146
0.0
  0
ENDTAB
  0
TABLE
  2
LTYPE
  5
5
330
0
100
AcDbSymbolTable
 70
     2
  0
LTYPE
  5
14
330
5
100
AcDbSymbolTableRecord
100
AcDbLinetypeTableRecord
  2
ByBlock
 70
     0
  3

 72
    65
 73
     0
 40
0.0
  0
LTYPE
  5
15
330
5
100
AcDbSymbolTableRecord
100
AcDbLinetypeTableRecord
  2
ByLayer
 70
     0
  3

 72
    65
 73
     0
 40
0.0
  0
LTYPE
  5
16
330
5
100
AcDbSymbolTableRecord
100
AcDbLinetypeTableRecord
  2
Continuous
 70
     0
  3
Solid line
 72
    65
 73
     0
 40
0.0
  0
LTYPE
  5
54
330
5
100
AcDbSymbolTableRecord
100
AcDbLinetypeTableRecord
  2
HIDDEN2
 70
     0
  3
Hidden (.5x) _ _ _ _ _ _ _ _ _ _ _ _ _ _ _ _ _ 
 72
    65
 73
     2
 40
4.7625
 49
3.175
 74
     4
 75
     0
340
0
 46
0.0
 50
0.0
 44
0.0
 45
0.0
 49
-1.5875
 74
     4
 75
     0
340
0
 46
0.0
 50
0.0
 44
0.0
 45
0.0
  0
ENDTAB
  0
TABLE
  2
LAYER
  5
2
330
0
100
AcDbSymbolTable
 70
     5
  0
LAYER
  5
10
330
2
100
AcDbSymbolTableRecord
100
AcDbLayerTableRecord
  2
0
 70
     0
 62
     7
  6
Continuous
370
    -3
390
F
  0
LAYER
  5
3F
330
2
100
AcDbSymbolTableRecord
100
AcDbLayerTableRecord
  2
SK1
 70
     0
 62
     4
  6
Continuous
370
    18
390
F
  0
LAYER
  5
53
330
2
100
AcDbSymbolTableRecord
100
AcDbLayerTableRecord
  2
SK3
 70
     0
 62
     1
  6
HIDDEN2
370
    15
390
F
  0
LAYER
  5
12D
330
2
100
AcDbSymbolTableRecord
100
AcDbLayerTableRecord
  2
SK4
 70
     0
 62
     2
  6
Continuous
370
    13
390
F
  0
LAYER
  5
12F
330
2
100
AcDbSymbolTableRecord
100
AcDbLayerTableRecord
  2
SK2
 70
     0
 62
     7
  6
Continuous
370
    15
390
F
  0
ENDTAB
  0
TABLE
  2
STYLE
  5
3
330
0
100
AcDbSymbolTable
 70
     2
  0
STYLE
  5
11
330
3
100
AcDbSymbolTableRecord
100
AcDbTextStyleTableRecord
  2
Standard
 70
     0
 40
0.0
 41
1.0
 50
0.0
 71
     0
 42
2.5
  3
txt
  4

  0
STYLE
  5
142
330
3
100
AcDbSymbolTableRecord
100
AcDbTextStyleTableRecord
  2
SEACAD_Solid_Edge_ISO
 70
     0
 40
0.0
 41
1.0
 50
0.0
 71
     0
 42
0.2
  3
seiso.ttf
  4

1001
ACAD
1000
Solid Edge ISO
1071
        0
  0
ENDTAB
  0
TABLE
  2
VIEW
  5
6
330
0
100
AcDbSymbolTable
 70
     0
  0
ENDTAB
  0
TABLE
  2
UCS
  5
7
330
0
100
AcDbSymbolTable
 70
     0
  0
ENDTAB
  0
TABLE
  2
APPID
  5
9
330
0
100
AcDbSymbolTable
 70
     1
  0
APPID
  5
12
330
9
100
AcDbSymbolTableRecord
100
AcDbRegAppTableRecord
  2
ACAD
 70
     0
  0
ENDTAB
  0
TABLE
  2
DIMSTYLE
  5
A
330
0
100
AcDbSymbolTable
 70
     3
100
AcDbDimStyleTable
  0
DIMSTYLE
105
27
330
A
100
AcDbSymbolTableRecord
100
AcDbDimStyleTableRecord
  2
ISO-25
 70
     0
 41
2.5
 42
0.625
 43
3.75
 44
1.25
 73
     0
 74
     0
 77
     1
 78
     8
140
2.5
141
2.5
143
0.0393700787
147
0.625
171
     3
172
     1
178
     0
271
     2
272
     2
274
     3
278
    44
283
     0
284
     8
340
11
  0
DIMSTYLE
105
130
330
A
100
AcDbSymbolTableRecord
100
AcDbDimStyleTableRecord
  2
Standard
 70
     0
178
     0
340
11
  0
DIMSTYLE
105
143
102
{ACAD_REACTORS
330
144
330
164
330
16F
330
179
102
}
330
A
100
AcDbSymbolTableRecord
100
AcDbDimStyleTableRecord
  2
DIN
 70
     0
 41
3.5
 42
0.0
 44
1.75
 73
     0
 74
     0
 77
     1
 78
     8
140
3.5
141
1.75
147
1.75
172
     1
173
     1
178
     0
179
     3
271
     2
272
     2
278
    44
284
     8
340
142
343
13D
344
13D
  0
ENDTAB
  0
TABLE
  2
BLOCK_RECORD
  5
1
330
0
100
AcDbSymbolTable
 70
    10
  0
BLOCK_RECORD
  5
1F
330
1
100
AcDbSymbolTableRecord
100
AcDbBlockTableRecord
  2
*Model_Space
340
22
  0
BLOCK_RECORD
  5
1B
330
1
100
AcDbSymbolTableRecord
100
AcDbBlockTableRecord
  2
*Paper_Space
340
1E
  0
BLOCK_RECORD
  5
131
330
1
100
AcDbSymbolTableRecord
100
AcDbBlockTableRecord
  2
_OBLIQUE
340
0
  0
BLOCK_RECORD
  5
135
330
1
100
AcDbSymbolTableRecord
100
AcDbBlockTableRecord
  2
_DOT
340
0
  0
BLOCK_RECORD
  5
13D
330
1
100
AcDbSymbolTableRecord
100
AcDbBlockTableRecord
  2
_SE_FILLED
340
0
  0
BLOCK_RECORD
  5
145
330
1
100
AcDbSymbolTableRecord
100
AcDbBlockTableRecord
  2
DMBLK97
340
0
  0
BLOCK_RECORD
  5
14E
330
1
100
AcDbSymbolTableRecord
100
AcDbBlockTableRecord
  2
Nullpunkt
340
0
102
{BLKREFS
331
158
102
}
  0
BLOCK_RECORD
  5
159
330
1
100
AcDbSymbolTableRecord
100
AcDbBlockTableRecord
  2
Einfügepunkt
340
0
102
{BLKREFS
331
163
102
}
  0
BLOCK_RECORD
  5
165
330
1
100
AcDbSymbolTableRecord
100
AcDbBlockTableRecord
  2
DMBLK98
340
0
  0
BLOCK_RECORD
  5
170
330
1
100
AcDbSymbolTableRecord
100
AcDbBlockTableRecord
  2
DMBLK99
340
0
  0
BLOCK_RECORD
  5
17A
330
1
100
AcDbSymbolTableRecord
100
AcDbBlockTableRecord
  2
DMBLK100
340
0
  0
ENDTAB
  0
ENDSEC
  0
SECTION
  2
BLOCKS
  0
BLOCK
  5
20
330
1F
100
AcDbEntity
  8
0
100
AcDbBlockBegin
  2
*Model_Space
 70
     0
 10
0.0
 20
0.0
 30
0.0
  3
*Model_Space
  1

  0
ENDBLK
  5
21
330
1F
100
AcDbEntity
  8
0
100
AcDbBlockEnd
  0
BLOCK
  5
1C
330
1B
100
AcDbEntity
 67
     1
  8
0
100
AcDbBlockBegin
  2
*Paper_Space
 70
     0
 10
0.0
 20
0.0
 30
0.0
  3
*Paper_Space
  1

  0
ENDBLK
  5
1D
330
1B
100
AcDbEntity
 67
     1
  8
0
100
AcDbBlockEnd
  0
BLOCK
  5
132
330
131
100
AcDbEntity
  8
0
100
AcDbBlockBegin
  2
_OBLIQUE
 70
     0
 10
0.0
 20
0.0
 30
0.0
  3
_OBLIQUE
  1

  0
LINE
  5
134
330
131
100
AcDbEntity
  8
0
  6
ByBlock
 62
     0
370
    -2
100
AcDbLine
 10
-0.5
 20
-0.5
 30
0.0
 11
0.5
 21
0.5
 31
0.0
  0
ENDBLK
  5
133
330
131
100
AcDbEntity
  8
0
100
AcDbBlockEnd
  0
BLOCK
  5
136
330
135
100
AcDbEntity
  8
0
100
AcDbBlockBegin
  2
_DOT
 70
     0
 10
0.0
 20
0.0
 30
0.0
  3
_DOT
  1

  0
POLYLINE
  5
138
330
135
100
AcDbEntity
  8
0
  6
ByBlock
 62
     0
100
AcDb2dPolyline
 66
     1
 10
0.0
 20
0.0
 30
0.0
 70
     1
 40
0.5
 41
0.5
  0
VERTEX
  5
13A
330
138
100
AcDbEntity
  8
0
  6
ByBlock
 62
     0
100
AcDbVertex
100
AcDb2dVertex
 10
-0.25
 20
0.0
 30
0.0
 42
1.0
  0
VERTEX
  5
13B
330
138
100
AcDbEntity
  8
0
  6
ByBlock
 62
     0
100
AcDbVertex
100
AcDb2dVertex
 10
0.25
 20
0.0
 30
0.0
 42
1.0
  0
SEQEND
  5
13C
330
138
100
AcDbEntity
  8
0
  6
ByBlock
 62
     0
  0
LINE
  5
139
330
135
100
AcDbEntity
  8
0
  6
ByBlock
 62
     0
370
    -2
100
AcDbLine
 10
-0.5
 20
0.0
 30
0.0
 11
-1.0
 21
0.0
 31
0.0
  0
ENDBLK
  5
137
330
135
100
AcDbEntity
  8
0
100
AcDbBlockEnd
  0
BLOCK
  5
140
330
13D
100
AcDbEntity
  8
0
100
AcDbBlockBegin
  2
_SE_FILLED
 70
     0
 10
0.0
 20
0.0
 30
0.0
  3
_SE_FILLED
  1

  0
SOLID
  5
13E
330
13D
100
AcDbEntity
  8
0
 62
     0
100
AcDbTrace
 10
0.0
 20
0.0
 30
0.0
 11
-1.0
 21
-0.1665
 31
0.0
 12
-1.0
 22
0.1665
 32
0.0
 13
0.0
 23
0.0
 33
0.0
  0
LINE
  5
13F
330
13D
100
AcDbEntity
  8
0
 62
     0
100
AcDbLine
 10
0.0
 20
0.0
 30
0.0
 11
-1.0
 21
0.0
 31
0.0
  0
ENDBLK
  5
141
330
13D
100
AcDbEntity
  8
0
100
AcDbBlockEnd
  0
BLOCK
  5
14C
330
145
100
AcDbEntity
  8
0
100
AcDbBlockBegin
  2
DMBLK97
 70
     0
 10
0.0
 20
0.0
 30
0.0
  3
DMBLK97
  1

  0
HATCH
  5
146
330
145
100
AcDbEntity
  8
SK2
  6
Continuous
 62
   136
100
AcDbHatch
 10
0.0
 20
0.0
 30
0.0
210
0.0
220
0.0
230
1.0
  2
SOLID
 70
     1
 71
     0
 91
        1
 92
        1
 93
        3
 72
     1
 10
-23.83999989196784
 20
25.39103281113927
 11
-27.34000000000125
 21
24.80769945980036
 72
     1
 10
-27.34000000000125
 20
24.80769945980036
 11
-23.83999989196784
 21
24.22436610846146
 72
     1
 10
-23.83999989196784
 20
24.22436610846146
 11
-23.83999989196784
 21
25.39103281113927
 97
        0
 75
     0
 76
     1
 98
        0
  0
HATCH
  5
147
330
145
100
AcDbEntity
  8
SK2
  6
Continuous
 62
   136
100
AcDbHatch
 10
0.0
 20
0.0
 30
0.0
210
0.0
220
0.0
230
1.0
  2
SOLID
 70
     1
 71
     0
 91
        1
 92
        1
 93
        3
 72
     1
 10
9.159998997895654
 20
25.39103281113927
 11
9.159998997895654
 21
24.22436610846146
 72
     1
 10
9.159998997895654
 20
24.22436610846146
 11
12.65999910592907
 21
24.80769945980036
 72
     1
 10
12.65999910592907
 20
24.80769945980036
 11
9.159998997895654
 21
25.39103281113927
 97
        0
 75
     0
 76
     1
 98
        0
  0
LINE
  5
148
330
145
100
AcDbEntity
  8
SK2
  6
Continuous
 62
   136
100
AcDbLine
 10
-27.34
 20
11.8897757188
 30
0.0
 11
-27.34
 21
26.5576995138
 31
0.0
  0
LINE
  5
149
330
145
100
AcDbEntity
  8
SK2
  6
Continuous
 62
   136
100
AcDbLine
 10
12.66
 20
12.180020447
 30
0.0
 11
12.66
 21
26.5576995138
 31
0.0
  0
LINE
  5
14A
330
145
100
AcDbEntity
  8
SK2
  6
Continuous
 62
   136
100
AcDbLine
 10
-27.34
 20
24.8076994598
 30
0.0
 11
12.6599991059
 21
24.8076994598
 31
0.0
  0
TEXT
  5
14B
330
145
100
AcDbEntity
  8
SK2
  6
Continuous
 62
   136
100
AcDbText
 10
-9.4081822652
 20
25.6826994598
 30
0.0
 40
3.5
  1
40
  7
SEACAD_Solid_Edge_ISO
 11
-9.4081822652
 21
29.1826994598
 31
0.0
100
AcDbText
 73
     3
  0
ENDBLK
  5
14D
330
145
100
AcDbEntity
  8
0
100
AcDbBlockEnd
  0
BLOCK
  5
156
330
14E
100
AcDbEntity
  8
0
100
AcDbBlockBegin
  2
Nullpunkt
 70
     0
 10
0.0
 20
0.0
 30
0.0
  3
Nullpunkt
  1

  0
HATCH
  5
14F
330
14E
100
AcDbEntity
  8
SK2
  6
Continuous
 62
     7
100
AcDbHatch
 10
0.0
 20
0.0
 30
0.0
210
0.0
220
0.0
230
1.0
  2
SOLID
 70
     1
 71
     0
 91
        1
 92
        1
 93
        3
 72
     1
 10
-1.0
 20
0.0
 11
0.0000000000000009
 21
0.0
 72
     1
 10
0.0
 20
0.0
 11
0.0
 21
1.000000000000001
 72
     2
 10
0.0
 20
0.0
 40
1.0
 50
90.0
 51
180.0
 73
     1
 97
        0
 75
     0
 76
     1
 98
        0
  0
HATCH
  5
150
330
14E
100
AcDbEntity
  8
SK2
  6
Continuous
 62
     7
100
AcDbHatch
 10
0.0
 20
0.0
 30
0.0
210
0.0
220
0.0
230
1.0
  2
SOLID
 70
     1
 71
     0
 91
        1
 92
        1
 93
        3
 72
     2
 10
0.0
 20
0.0
 40
1.0
 50
270.0
 51
360.0
 73
     1
 72
     1
 10
1.0
 20
0.0
 11
-0.0000000000000009
 21
0.0
 72
     1
 10
0.0
 20
0.0
 11
0.0
 21
-1.000000000000001
 97
        0
 75
     0
 76
     1
 98
        0
  0
CIRCLE
  5
151
330
14E
100
AcDbEntity
  8
SK2
  6
Continuous
 62
     7
100
AcDbCircle
 10
0.0
 20
0.0
 30
0.0
 40
1.0
  0
LINE
  5
152
330
14E
100
AcDbEntity
  8
SK1
  6
Continuous
100
AcDbLine
 10
-1.0
 20
0.0
 30
0.0
 11
1.0
 21
0.0
 31
0.0
  0
LINE
  5
153
330
14E
100
AcDbEntity
  8
SK1
  6
Continuous
100
AcDbLine
 10
0.0
 20
1.0
 30
0.0
 11
0.0
 21
-1.0
 31
0.0
  0
POINT
  5
154
330
14E
100
AcDbEntity
  8
SK1
  6
Continuous
100
AcDbPoint
 10
0.0
 20
0.0
 30
0.0
  0
POINT
  5
155
330
14E
100
AcDbEntity
  8
SK1
  6
Continuous
100
AcDbPoint
 10
0.0
 20
0.0
 30
0.0
  0
ENDBLK
  5
157
330
14E
100
AcDbEntity
  8
0
100
AcDbBlockEnd
  0
BLOCK
  5
161
330
159
100
AcDbEntity
  8
0
100
AcDbBlockBegin
  2
Einfügepunkt
 70
     0
 10
0.0
 20
0.0
 30
0.0
  3
Einfügepunkt
  1

  0
HATCH
  5
15A
330
159
100
AcDbEntity
  8
SK2
  6
Continuous
 62
     7
100
AcDbHatch
 10
0.0
 20
0.0
 30
0.0
210
0.0
220
0.0
230
1.0
  2
SOLID
 70
     1
 71
     0
 91
        1
 92
        1
 93
        3
 72
     1
 10
-0.4502381196756744
 20
-0.0000000000000018
 11
0.0000000000000033
 21
-0.0000000000000018
 72
     1
 10
0.0
 20
-0.0000000000000018
 11
0.0
 21
0.4502381196756812
 72
     2
 10
0.0
 20
-0.0000000000000018
 40
0.4502381196756812
 50
90.0
 51
180.0
 73
     1
 97
        0
 75
     0
 76
     1
 98
        0
  0
HATCH
  5
15B
330
159
100
AcDbEntity
  8
SK2
  6
Continuous
 62
     7
100
AcDbHatch
 10
0.0
 20
0.0
 30
0.0
210
0.0
220
0.0
230
1.0
  2
SOLID
 70
     1
 71
     0
 91
        1
 92
        1
 93
        3
 72
     2
 10
0.0
 20
-0.0000000000000018
 40
0.4502381196756812
 50
270.0
 51
360.0
 73
     1
 72
     1
 10
0.4502381196756815
 20
-0.0000000000000018
 11
0.0000000000000038
 21
-0.0000000000000018
 72
     1
 10
0.0
 20
-0.0000000000000018
 11
0.0
 21
-0.4502381196756812
 97
        0
 75
     0
 76
     1
 98
        0
  0
CIRCLE
  5
15C
330
159
100
AcDbEntity
  8
SK2
  6
Continuous
 62
     7
100
AcDbCircle
 10
0.0
 20
0.0
 30
0.0
 40
0.4502381196756812
  0
LINE
  5
15D
330
159
100
AcDbEntity
  8
SK1
  6
Continuous
100
AcDbLine
 10
-0.4502381197
 20
0.0
 30
0.0
 11
0.4502381197
 21
0.0
 31
0.0
  0
LINE
  5
15E
330
159
100
AcDbEntity
  8
SK1
  6
Continuous
100
AcDbLine
 10
0.0
 20
0.4502381197
 30
0.0
 11
0.0
 21
-0.4502381197
 31
0.0
  0
POINT
  5
15F
330
159
100
AcDbEntity
  8
SK2
  6
Continuous
 62
     7
100
AcDbPoint
 10
0.0
 20
0.0
 30
0.0
  0
POINT
  5
160
330
159
100
AcDbEntity
  8
SK2
  6
Continuous
 62
     7
100
AcDbPoint
 10
0.0
 20
0.0
 30
0.0
  0
ENDBLK
  5
162
330
159
100
AcDbEntity
  8
0
100
AcDbBlockEnd
  0
BLOCK
  5
16D
330
165
100
AcDbEntity
  8
0
100
AcDbBlockBegin
  2
DMBLK98
 70
     0
 10
0.0
 20
0.0
 30
0.0
  3
DMBLK98
  1

  0
HATCH
  5
166
330
165
100
AcDbEntity
  8
SK2
  6
Continuous
 62
   136
100
AcDbHatch
 10
0.0
 20
0.0
 30
0.0
210
0.0
220
0.0
230
1.0
  2
SOLID
 70
     1
 71
     0
 91
        1
 92
        1
 93
        3
 72
     1
 10
22.08229357274755
 20
-6.499999792195887
 11
20.91562687006974
 21
-6.499999792195887
 72
     1
 10
20.91562687006974
 20
-6.499999792195887
 11
21.49896022140864
 21
-9.999999900229305
 72
     1
 10
21.49896022140864
 20
-9.999999900229305
 11
22.08229357274755
 21
-6.499999792195887
 97
        0
 75
     0
 76
     1
 98
        0
  0
HATCH
  5
167
330
165
100
AcDbEntity
  8
SK2
  6
Continuous
 62
   136
100
AcDbHatch
 10
0.0
 20
0.0
 30
0.0
210
0.0
220
0.0
230
1.0
  2
SOLID
 70
     1
 71
     0
 91
        1
 92
        1
 93
        3
 72
     1
 10
22.08229357274755
 20
6.49999954470244
 11
21.49896022140864
 21
9.999999652735859
 72
     1
 10
21.49896022140864
 20
9.999999652735859
 11
20.91562687006974
 21
6.49999954470244
 72
     1
 10
20.91562687006974
 20
6.49999954470244
 11
22.08229357274755
 21
6.49999954470244
 97
        0
 75
     0
 76
     1
 98
        0
  0
LINE
  5
168
330
165
100
AcDbEntity
  8
SK2
  6
Continuous
 62
   136
100
AcDbLine
 10
12.26
 20
-9.9999999002
 30
0.0
 11
23.2489602754
 21
-9.9999999002
 31
0.0
  0
LINE
  5
169
330
165
100
AcDbEntity
  8
SK2
  6
Continuous
 62
   136
100
AcDbLine
 10
12.26
 20
10.0000000998
 30
0.0
 11
23.2489602754
 21
10.0000000998
 31
0.0
  0
LINE
  5
16A
330
165
100
AcDbEntity
  8
SK2
  6
Continuous
 62
   136
100
AcDbLine
 10
21.4989602214
 20
-9.9999999002
 30
0.0
 11
21.4989602214
 21
9.9999996527
 31
0.0
  0
TEXT
  5
16B
330
165
100
AcDbEntity
  8
SK2
  6
Continuous
 62
   136
100
AcDbText
 10
20.6239602214
 20
-0.0715910328
 30
0.0
 40
3.5
  1
20
 50
90.0
  7
SEACAD_Solid_Edge_ISO
 11
17.1239602214
 21
-0.0715910328
 31
0.0
100
AcDbText
 73
     3
  0
TEXT
  5
16C
330
165
100
AcDbEntity
  8
SK2
  6
Continuous
 62
   136
100
AcDbText
 10
20.6239602214
 20
-4.1443183056
 30
0.0
 40
3.5
  1
ø
 50
90.0
  7
SEACAD_Solid_Edge_ISO
 11
17.1239602214
 21
-4.1443183056
 31
0.0
100
AcDbText
 73
     3
  0
ENDBLK
  5
16E
330
165
100
AcDbEntity
  8
0
100
AcDbBlockEnd
  0
BLOCK
  5
177
330
170
100
AcDbEntity
  8
0
100
AcDbBlockBegin
  2
DMBLK99
 70
     0
 10
0.0
 20
0.0
 30
0.0
  3
DMBLK99
  1

  0
HATCH
  5
171
330
170
100
AcDbEntity
  8
SK2
  6
Continuous
 62
   136
100
AcDbHatch
 10
0.0
 20
0.0
 30
0.0
210
0.0
220
0.0
230
1.0
  2
SOLID
 70
     1
 71
     0
 91
        1
 92
        1
 93
        3
 72
     1
 10
-3.500000108033419
 20
-24.86168512004193
 11
0.0
 21
-24.27835176870302
 72
     1
 10
0.0
 20
-24.27835176870302
 11
-3.500000108033419
 21
-23.69501841736412
 72
     1
 10
-3.500000108033419
 20
-23.69501841736412
 11
-3.500000108033419
 21
-24.86168512004193
 97
        0
 75
     0
 76
     1
 98
        0
  0
HATCH
  5
172
330
170
100
AcDbEntity
  8
SK2
  6
Continuous
 62
   136
100
AcDbHatch
 10
0.0
 20
0.0
 30
0.0
210
0.0
220
0.0
230
1.0
  2
SOLID
 70
     1
 71
     0
 91
        1
 92
        1
 93
        3
 72
     1
 10
16.16000010803342
 20
-24.86168512004193
 11
16.16000010803342
 21
-23.69501841736412
 72
     1
 10
16.16000010803342
 20
-23.69501841736412
 11
12.66
 21
-24.27835176870302
 72
     1
 10
12.66
 20
-24.27835176870302
 11
16.16000010803342
 21
-24.86168512004193
 97
        0
 75
     0
 76
     1
 98
        0
  0
LINE
  5
173
330
170
100
AcDbEntity
  8
SK2
  6
Continuous
 62
   136
100
AcDbLine
 10
0.0
 20
-15.9996745287
 30
0.0
 11
0.0
 21
-26.0283518227
 31
0.0
  0
LINE
  5
174
330
170
100
AcDbEntity
  8
SK2
  6
Continuous
 62
   136
100
AcDbLine
 10
12.66
 20
-12.1800202475
 30
0.0
 11
12.66
 21
-26.0283518227
 31
0.0
  0
LINE
  5
175
330
170
100
AcDbEntity
  8
SK2
  6
Continuous
 62
   136
100
AcDbLine
 10
-7.0000002161
 20
-24.2783517687
 30
0.0
 11
19.659999758
 21
-24.2783517687
 31
0.0
  0
TEXT
  5
176
330
170
100
AcDbEntity
  8
SK2
  6
Continuous
 62
   136
100
AcDbText
 10
2.0743179528
 20
-23.4033517687
 30
0.0
 40
3.5
  1
12,66
  7
SEACAD_Solid_Edge_ISO
 11
2.0743179528
 21
-19.9033517687
 31
0.0
100
AcDbText
 73
     3
  0
ENDBLK
  5
178
330
170
100
AcDbEntity
  8
0
100
AcDbBlockEnd
  0
BLOCK
  5
182
330
17A
100
AcDbEntity
  8
0
100
AcDbBlockBegin
  2
DMBLK100
 70
     0
 10
0.0
 20
0.0
 30
0.0
  3
DMBLK100
  1

  0
HATCH
  5
17B
330
17A
100
AcDbEntity
  8
SK2
  6
Continuous
 62
   136
100
AcDbHatch
 10
0.0
 20
0.0
 30
0.0
210
0.0
220
0.0
230
1.0
  2
SOLID
 70
     1
 71
     0
 91
        1
 92
        1
 93
        3
 72
     1
 10
-37.92333362313608
 20
12.49967462019692
 11
-36.75666692045828
 21
12.49967462019692
 72
     1
 10
-36.75666692045828
 20
12.49967462019692
 11
-37.34000027179718
 21
15.99967472823034
 72
     1
 10
-37.34000027179718
 20
15.99967472823034
 11
-37.92333362313608
 21
12.49967462019692
 97
        0
 75
     0
 76
     1
 98
        0
  0
HATCH
  5
17C
330
17A
100
AcDbEntity
  8
SK2
  6
Continuous
 62
   136
100
AcDbHatch
 10
0.0
 20
0.0
 30
0.0
210
0.0
220
0.0
230
1.0
  2
SOLID
 70
     1
 71
     0
 91
        1
 92
        1
 93
        3
 72
     1
 10
-37.92333362313608
 20
-12.49967475785245
 11
-37.34000027179718
 21
-15.99967486588587
 72
     1
 10
-37.34000027179718
 20
-15.99967486588587
 11
-36.75666692045828
 21
-12.49967475785245
 72
     1
 10
-36.75666692045828
 20
-12.49967475785245
 11
-37.92333362313608
 21
-12.49967475785245
 97
        0
 75
     0
 76
     1
 98
        0
  0
LINE
  5
17D
330
17A
100
AcDbEntity
  8
SK2
  6
Continuous
 62
   136
100
AcDbLine
 10
0.0
 20
15.9996747282
 30
0.0
 11
-39.0900003258
 21
15.9996747282
 31
0.0
  0
LINE
  5
17E
330
17A
100
AcDbEntity
  8
SK2
  6
Continuous
 62
   136
100
AcDbLine
 10
0.0
 20
-15.9996745287
 30
0.0
 11
-39.0900003258
 21
-15.9996745287
 31
0.0
  0
LINE
  5
17F
330
17A
100
AcDbEntity
  8
SK2
  6
Continuous
 62
   136
100
AcDbLine
 10
-37.3400002718
 20
15.9996747282
 30
0.0
 11
-37.3400002718
 21
-15.9996748659
 31
0.0
  0
TEXT
  5
180
330
17A
100
AcDbEntity
  8
SK2
  6
Continuous
 62
   136
100
AcDbText
 10
-38.2150002718
 20
0.0477272039
 30
0.0
 40
3.5
  1
32
 50
90.0
  7
SEACAD_Solid_Edge_ISO
 11
-41.7150002718
 21
0.0477272039
 31
0.0
100
AcDbText
 73
     3
  0
TEXT
  5
181
330
17A
100
AcDbEntity
  8
SK2
  6
Continuous
 62
   136
100
AcDbText
 10
-38.2150002718
 20
-4.0250000688
 30
0.0
 40
3.5
  1
ø
 50
90.0
  7
SEACAD_Solid_Edge_ISO
 11
-41.7150002718
 21
-4.0250000688
 31
0.0
100
AcDbText
 73
     3
  0
ENDBLK
  5
183
330
17A
100
AcDbEntity
  8
0
100
AcDbBlockEnd
  0
ENDSEC
  0
SECTION
  2
ENTITIES
  0
LINE
  5
40
330
1F
100
AcDbEntity
  8
SK1
  6
Continuous
100
AcDbLine
 10
3.76
 20
13.3305045976
 30
0.0
 11
3.76
 21
5.9546327362
 31
0.0
  0
LINE
  5
41
330
1F
100
AcDbEntity
  8
SK1
  6
Continuous
100
AcDbLine
 10
6.96
 20
-13.6366511439
 30
0.0
 11
6.96
 21
-14.5999999002
 31
0.0
  0
LINE
  5
42
330
1F
100
AcDbEntity
  8
SK1
  6
Continuous
100
AcDbLine
 10
3.56
 20
14.9141997093
 30
0.0
 11
3.56
 21
15.9823343165
 31
0.0
  0
LINE
  5
43
330
1F
100
AcDbEntity
  8
SK1
  6
Continuous
100
AcDbLine
 10
3.0473721046
 20
15.32602499
 30
0.0
 11
3.0473721046
 21
16.4279549475
 31
0.0
  0
LINE
  5
44
330
1F
100
AcDbEntity
  8
SK1
  6
Continuous
100
AcDbLine
 10
12.535
 20
-13.5717422033
 30
0.0
 11
12.535
 21
-12.6862811235
 31
0.0
  0
LINE
  5
45
330
1F
100
AcDbEntity
  8
SK1
  6
Continuous
100
AcDbLine
 10
7.4631088913
 20
15.3926056849
 30
0.0
 11
7.4631088913
 21
16.5000000998
 31
0.0
  0
LINE
  5
46
330
1F
100
AcDbEntity
  8
SK1
  6
Continuous
100
AcDbLine
 10
7.16
 20
15.3926056849
 30
0.0
 11
7.16
 21
16.5000000998
 31
0.0
  0
LINE
  5
47
330
1F
100
AcDbEntity
  8
SK1
  6
Continuous
100
AcDbLine
 10
7.4631088913
 20
-15.3926054854
 30
0.0
 11
7.4631088913
 21
-16.4999999002
 31
0.0
  0
LINE
  5
48
330
1F
100
AcDbEntity
  8
SK1
  6
Continuous
100
AcDbLine
 10
7.16
 20
-15.3926054854
 30
0.0
 11
7.16
 21
-16.4999999002
 31
0.0
  0
LINE
  5
49
330
1F
100
AcDbEntity
  8
SK1
  6
Continuous
100
AcDbLine
 10
7.4631088913
 20
15.3926056849
 30
0.0
 11
7.16
 21
15.3926056849
 31
0.0
  0
LINE
  5
4A
330
1F
100
AcDbEntity
  8
SK1
  6
Continuous
100
AcDbLine
 10
7.4631088913
 20
15.086458939
 30
0.0
 11
7.16
 21
15.086458939
 31
0.0
  0
LINE
  5
4B
330
1F
100
AcDbEntity
  8
SK1
  6
Continuous
100
AcDbLine
 10
12.66
 20
12.180020447
 30
0.0
 11
12.66
 21
5.4780865977
 31
0.0
  0
LINE
  5
4C
330
1F
100
AcDbEntity
  8
SK1
  6
Continuous
100
AcDbLine
 10
12.535
 20
13.5717424029
 30
0.0
 11
12.535
 21
12.6862813231
 31
0.0
  0
LINE
  5
4D
330
1F
100
AcDbEntity
  8
SK1
  6
Continuous
100
AcDbLine
 10
3.56
 20
-14.9141995098
 30
0.0
 11
3.56
 21
-15.982334117
 31
0.0
  0
LINE
  5
4E
330
1F
100
AcDbEntity
  8
SK1
  6
Continuous
100
AcDbLine
 10
3.0473721046
 20
-15.3260247905
 30
0.0
 11
3.0473721046
 21
-16.4279547479
 31
0.0
  0
LINE
  5
4F
330
1F
100
AcDbEntity
  8
SK1
  6
Continuous
100
AcDbLine
 10
6.96
 20
14.6000000998
 30
0.0
 11
6.96
 21
13.6366513435
 31
0.0
  0
ARC
  5
50
330
1F
100
AcDbEntity
  8
SK1
  6
Continuous
100
AcDbCircle
 10
3.7527009685
 20
13.5232284246
 30
0.0
 40
0.1928619956239739
100
AcDbArc
 50
182.3414991378
 51
272.1689270375
  0
LINE
  5
51
330
1F
100
AcDbEntity
  8
SK1
  6
Continuous
100
AcDbLine
 10
3.76
 20
13.3305045976
 30
0.0
 11
6.96
 21
13.3305045976
 31
0.0
  0
ARC
  5
52
330
1F
100
AcDbEntity
  8
SK1
  6
Continuous
100
AcDbCircle
 10
6.9672932853
 20
13.5232346419
 30
0.0
 40
0.1928679911219356
100
AcDbArc
 50
267.8328486851
 51
357.6567251494
  0
LINE
  5
55
330
1F
100
AcDbEntity
  8
SK3
100
AcDbLine
 10
12.26
 20
9.0783280569
 30
0.0
 11
-22.3785571497
 21
9.0783280569
 31
0.0
  0
ARC
  5
56
330
1F
100
AcDbEntity
  8
SK3
100
AcDbCircle
 10
12.2745306694
 20
9.7699890827
 30
0.0
 40
0.3857880251691946
100
AcDbArc
 50
267.8414493199
 51
357.6709409718
  0
LINE
  5
57
330
1F
100
AcDbEntity
  8
SK1
  6
Continuous
100
AcDbLine
 10
12.66
 20
12.180020447
 30
0.0
 11
12.66
 21
12.4861671929
 31
0.0
  0
ARC
  5
58
330
1F
100
AcDbEntity
  8
SK1
  6
Continuous
100
AcDbCircle
 10
12.4315505616
 20
12.4825650122
 30
0.0
 40
0.2284778361298308
100
AcDbArc
 50
0.9033624596
 51
63.0780264505
  0
LINE
  5
59
330
1F
100
AcDbEntity
  8
SK1
  6
Continuous
100
AcDbLine
 10
12.535
 20
12.6862813231
 30
0.0
 11
7.4631088913
 21
15.3926056849
 31
0.0
  0
ARC
  5
5A
330
1F
100
AcDbEntity
  8
SK1
  6
Continuous
100
AcDbCircle
 10
3.12114953
 20
14.8928963004
 30
0.0
 40
0.4393672384933542
100
AcDbArc
 50
2.779165305
 51
99.6667570996
  0
SPLINE
  5
5B
330
1F
100
AcDbEntity
  8
SK1
  6
Continuous
100
AcDbSpline
210
0.0
220
0.0
230
1.0
 70
     8
 71
     3
 72
    14
 73
    10
 74
     0
 42
0.0000000003971097
 43
0.0000000001
 12
1.0
 22
0.0
 32
0.0
 13
1.0
 23
0.0
 33
0.0
 40
0.0
 40
0.0
 40
0.0
 40
0.0
 40
0.0174031987399629
 40
0.0174031987399629
 40
0.0174031987399629
 40
0.933118748361747
 40
0.933118748361747
 40
0.933118748361747
 40
1.0
 40
1.0
 40
1.0
 40
1.0
 10
3.04737210456678
 20
15.32602498999471
 30
0.0
 10
2.902506612832513
 20
15.30720967056463
 30
0.0
 10
2.757641124194131
 20
15.288394330789
 30
0.0
 10
2.612775638686621
 20
15.26957897043799
 30
0.0
 10
-5.009706851945062
 20
14.2795587849667
 30
0.0
 10
-12.63218119349443
 20
13.28948504023617
 30
0.0
 10
-20.25463946823142
 20
12.29930572625129
 30
0.0
 10
-20.81136207736838
 20
12.2269858536687
 30
0.0
 10
-21.36808459738623
 20
12.1546653955081
 30
0.0
 10
-21.92480702333012
 20
12.08234431922829
 30
0.0
  0
ARC
  5
5C
330
1F
100
AcDbEntity
  8
SK1
  6
Continuous
100
AcDbCircle
 10
3.12114953
 20
14.5867495545
 30
0.0
 40
0.4393672384933542
100
AcDbArc
 50
2.779165305
 51
99.6667570996
  0
SPLINE
  5
5D
330
1F
100
AcDbEntity
  8
SK1
  6
Continuous
100
AcDbSpline
210
0.0
220
0.0
230
1.0
 70
     8
 71
     3
 72
    14
 73
    10
 74
     0
 42
0.0000000003971097
 43
0.0000000001
 12
1.0
 22
0.0
 32
0.0
 13
1.0
 23
0.0
 33
0.0
 40
0.0
 40
0.0
 40
0.0
 40
0.0
 40
0.0174031987399629
 40
0.0174031987399629
 40
0.0174031987399629
 40
0.933118748361747
 40
0.933118748361747
 40
0.933118748361747
 40
1.0
 40
1.0
 40
1.0
 40
1.0
 10
3.04737210456678
 20
15.01987824410263
 30
0.0
 10
2.902506612832513
 20
15.00106292467256
 30
0.0
 10
2.757641124194131
 20
14.98224758489693
 30
0.0
 10
2.612775638686621
 20
14.96343222454591
 30
0.0
 10
-5.009706851945062
 20
13.97341203907463
 30
0.0
 10
-12.63218119349443
 20
12.98333829434409
 30
0.0
 10
-20.25463946823142
 20
11.99315898035922
 30
0.0
 10
-20.81136207736838
 20
11.92083910777662
 30
0.0
 10
-21.36808459738623
 20
11.84851864961603
 30
0.0
 10
-21.92480702333012
 20
11.77619757333622
 30
0.0
  0
ARC
  5
5E
330
1F
100
AcDbEntity
  8
SK3
100
AcDbCircle
 10
12.2745306694
 20
9.4638423368
 30
0.0
 40
0.3857880251691949
100
AcDbArc
 50
267.8414493199
 51
357.6709409718
  0
ARC
  5
5F
330
1F
100
AcDbEntity
  8
SK1
  6
Continuous
100
AcDbCircle
 10
12.4315505616
 20
12.1764182663
 30
0.0
 40
0.2284778361298286
100
AcDbArc
 50
0.9033624596
 51
63.0780264505
  0
LINE
  5
60
330
1F
100
AcDbEntity
  8
SK1
  6
Continuous
100
AcDbLine
 10
12.535
 20
12.3801345772
 30
0.0
 11
7.4631088913
 21
15.086458939
 31
0.0
  0
LINE
  5
61
330
1F
100
AcDbEntity
  8
SK1
  6
Continuous
100
AcDbLine
 10
3.56
 20
14.9141997093
 30
0.0
 11
3.56
 21
14.6080529634
 31
0.0
  0
ARC
  5
62
330
1F
100
AcDbEntity
  8
SK1
  6
Continuous
100
AcDbCircle
 10
3.7527009685
 20
13.8293751705
 30
0.0
 40
0.1928619956239752
100
AcDbArc
 50
182.3414991378
 51
272.1689270375
  0
LINE
  5
63
330
1F
100
AcDbEntity
  8
SK1
  6
Continuous
100
AcDbLine
 10
3.76
 20
13.6366513435
 30
0.0
 11
6.96
 21
13.6366513435
 31
0.0
  0
ARC
  5
64
330
1F
100
AcDbEntity
  8
SK1
  6
Continuous
100
AcDbCircle
 10
6.9672932853
 20
13.8293813878
 30
0.0
 40
0.1928679911219383
100
AcDbArc
 50
267.8328486851
 51
357.6567251494
  0
LINE
  5
65
330
1F
100
AcDbEntity
  8
SK1
  6
Continuous
100
AcDbLine
 10
7.16
 20
15.086458939
 30
0.0
 11
7.16
 21
15.3926056849
 31
0.0
  0
LINE
  5
66
330
1F
100
AcDbEntity
  8
SK3
100
AcDbLine
 10
12.26
 20
9.3844748028
 30
0.0
 11
-22.3785571497
 21
9.3844748028
 31
0.0
  0
LINE
  5
67
330
1F
100
AcDbEntity
  8
SK1
  6
Continuous
100
AcDbLine
 10
-27.0817519303
 20
12.1870201126
 30
0.0
 11
-27.0817519303
 21
8.9003673058
 31
0.0
  0
LINE
  5
68
330
1F
100
AcDbEntity
  8
SK1
  6
Continuous
100
AcDbLine
 10
-27.34
 20
-11.8897755192
 30
0.0
 11
-27.34
 21
-8.6901835797
 31
0.0
  0
SPLINE
  5
69
330
1F
100
AcDbEntity
  8
SK1
  6
Continuous
100
AcDbSpline
210
0.0
220
0.0
230
1.0
 70
     8
 71
     3
 72
    10
 73
     6
 74
     0
 42
0.000000022804885
 43
0.0000000001
 12
1.0
 22
0.0
 32
0.0
 13
1.0
 23
0.0
 33
0.0
 40
0.0
 40
0.0
 40
0.0
 40
0.0
 40
0.5
 40
0.5
 40
1.0
 40
1.0
 40
1.0
 40
1.0
 10
-27.34000000000129
 20
-11.88977551921636
 30
0.0
 10
-27.34000000000117
 20
-11.96123664509199
 30
0.0
 10
-27.31325218560603
 20
-12.03271861875489
 30
0.0
 10
-27.21983457328473
 20
-12.14038628228183
 30
0.0
 10
-27.15326761692436
 20
-12.17696362646717
 30
0.0
 10
-27.08175193028917
 20
-12.18701991305817
 30
0.0
  0
SPLINE
  5
6A
330
1F
100
AcDbEntity
  8
SK1
  6
Continuous
100
AcDbSpline
210
0.0
220
0.0
230
1.0
 70
     8
 71
     3
 72
    10
 73
     6
 74
     0
 42
0.0000000228012562
 43
0.0000000001
 12
1.0
 22
0.0
 32
0.0
 13
1.0
 23
0.0
 33
0.0
 40
0.0
 40
0.0
 40
0.0
 40
0.0
 40
0.5
 40
0.5
 40
1.0
 40
1.0
 40
1.0
 40
1.0
 10
-27.08175193028917
 20
12.18702011259956
 30
0.0
 10
-27.15329203371374
 20
12.17696039260168
 30
0.0
 10
-27.21937890303969
 20
12.14086400426049
 30
0.0
 10
-27.31353686663112
 20
12.03243828152373
 30
0.0
 10
-27.34000000000116
 20
11.96126551611529
 30
0.0
 10
-27.34000000000129
 20
11.88977571875777
 30
0.0
  0
LINE
  5
6B
330
1F
100
AcDbEntity
  8
SK3
100
AcDbLine
 10
-26.4141669751
 20
-9.9919966977
 30
0.0
 11
-26.4141669751
 21
-7.3482513058
 31
0.0
  0
LINE
  5
6C
330
1F
100
AcDbEntity
  8
SK3
100
AcDbLine
 10
-26.4141669751
 20
-9.9919966977
 30
0.0
 11
-2.7866532117
 21
-9.9919966977
 31
0.0
  0
LINE
  5
6D
330
1F
100
AcDbEntity
  8
SK3
100
AcDbLine
 10
-27.34
 20
10.5269332328
 30
0.0
 11
-26.4141669751
 21
9.9919968972
 31
0.0
  0
SPLINE
  5
6E
330
1F
100
AcDbEntity
  8
SK1
  6
Continuous
100
AcDbSpline
210
0.0
220
0.0
230
1.0
 70
     8
 71
     3
 72
    11
 73
     7
 74
     0
 42
0.0000000004241712
 43
0.0000000001
 12
1.0
 22
0.0
 32
0.0
 13
1.0
 23
0.0
 33
0.0
 40
0.0
 40
0.0
 40
0.0
 40
0.0
 40
0.9080456425272275
 40
0.9080456425272275
 40
0.9080456425272275
 40
1.0
 40
1.0
 40
1.0
 40
1.0
 10
-27.08175193028917
 20
-12.18701991305817
 30
0.0
 10
-20.01542884374148
 20
-13.18066163654469
 30
0.0
 10
-12.9490884215092
 20
-14.1741800779889
 30
0.0
 10
-5.882739207700682
 20
-15.16763597869006
 30
0.0
 10
-5.167156673909376
 20
-15.26823951088523
 30
0.0
 10
-4.45157404425061
 20
-15.36884236118718
 30
0.0
 10
-3.735991324229845
 20
-15.46944456874255
 30
0.0
  0
LINE
  5
6F
330
1F
100
AcDbEntity
  8
SK3
100
AcDbLine
 10
-26.4141669751
 20
-9.9919966977
 30
0.0
 11
-27.34
 21
-10.5269330332
 31
0.0
  0
LINE
  5
70
330
1F
100
AcDbEntity
  8
SK1
  6
Continuous
100
AcDbLine
 10
12.66
 20
13.3552360519
 30
0.0
 11
12.66
 21
12.4861671929
 31
0.0
  0
LINE
  5
71
330
1F
100
AcDbEntity
  8
SK1
  6
Continuous
100
AcDbLine
 10
3.76
 20
14.6000000998
 30
0.0
 11
3.76
 21
13.6366513435
 31
0.0
  0
LINE
  5
72
330
1F
100
AcDbEntity
  8
SK1
  6
Continuous
100
AcDbLine
 10
7.16
 20
-15.0864587395
 30
0.0
 11
7.16
 21
-6.6819726397
 31
0.0
  0
LINE
  5
73
330
1F
100
AcDbEntity
  8
SK1
  6
Continuous
100
AcDbLine
 10
7.4631088913
 20
-15.0864587395
 30
0.0
 11
7.4631088913
 21
-6.6819726397
 31
0.0
  0
LINE
  5
74
330
1F
100
AcDbEntity
  8
SK1
  6
Continuous
100
AcDbLine
 10
12.535
 20
-12.3801343776
 30
0.0
 11
12.535
 21
-5.5609763849
 31
0.0
  0
LINE
  5
75
330
1F
100
AcDbEntity
  8
SK1
  6
Continuous
100
AcDbLine
 10
12.66
 20
-12.4861669934
 30
0.0
 11
12.66
 21
-13.3552358524
 31
0.0
  0
LINE
  5
76
330
1F
100
AcDbEntity
  8
SK1
  6
Continuous
100
AcDbLine
 10
3.0473721046
 20
-15.0198780446
 30
0.0
 11
3.0473721046
 21
-6.6543940129
 31
0.0
  0
LINE
  5
77
330
1F
100
AcDbEntity
  8
SK1
  6
Continuous
100
AcDbLine
 10
3.56
 20
-14.6080527639
 30
0.0
 11
3.56
 21
-6.4838103963
 31
0.0
  0
LINE
  5
78
330
1F
100
AcDbEntity
  8
SK1
  6
Continuous
100
AcDbLine
 10
6.96
 20
-13.330504398
 30
0.0
 11
6.96
 21
-5.9546325366
 31
0.0
  0
LINE
  5
79
330
1F
100
AcDbEntity
  8
SK1
  6
Continuous
100
AcDbLine
 10
3.76
 20
-13.6366511439
 30
0.0
 11
3.76
 21
-14.5999999002
 31
0.0
  0
ARC
  5
7A
330
1F
100
AcDbEntity
  8
SK1
  6
Continuous
100
AcDbCircle
 10
6.967295287
 20
-13.5232322765
 30
0.0
 40
0.1928659025472767
100
AcDbArc
 50
2.3426562868
 51
92.1677698787
  0
LINE
  5
7B
330
1F
100
AcDbEntity
  8
SK1
  6
Continuous
100
AcDbLine
 10
6.96
 20
-13.330504398
 30
0.0
 11
3.76
 21
-13.330504398
 31
0.0
  0
ARC
  5
7C
330
1F
100
AcDbEntity
  8
SK1
  6
Continuous
100
AcDbCircle
 10
3.7527050682
 20
-13.5232326608
 30
0.0
 40
0.1928662731557804
100
AcDbArc
 50
87.8323398835
 51
177.6572339504
  0
ARC
  5
7D
330
1F
100
AcDbEntity
  8
SK1
  6
Continuous
100
AcDbCircle
 10
3.1211335529
 20
-14.5867294672
 30
0.0
 40
0.4393841614716074
100
AcDbArc
 50
260.3357322026
 51
357.2183453926
  0
LINE
  5
7E
330
1F
100
AcDbEntity
  8
SK1
  6
Continuous
100
AcDbLine
 10
7.16
 20
-15.0864587395
 30
0.0
 11
7.4631088913
 21
-15.0864587395
 31
0.0
  0
LINE
  5
7F
330
1F
100
AcDbEntity
  8
SK1
  6
Continuous
100
AcDbLine
 10
7.4631088913
 20
-15.0864587395
 30
0.0
 11
12.535
 21
-12.3801343776
 31
0.0
  0
ARC
  5
80
330
1F
100
AcDbEntity
  8
SK1
  6
Continuous
100
AcDbCircle
 10
12.4286867999
 20
-12.1746292365
 30
0.0
 40
0.2313760133481179
100
AcDbArc
 50
297.3537111502
 51
358.6648999396
  0
ARC
  5
81
330
1F
100
AcDbEntity
  8
SK3
100
AcDbCircle
 10
12.2745210808
 20
-9.463852508
 30
0.0
 40
0.3857980274791172
100
AcDbArc
 50
2.3305400617
 51
92.1570696465
  0
ARC
  5
82
330
1F
100
AcDbEntity
  8
SK1
  6
Continuous
100
AcDbCircle
 10
3.1211335529
 20
-14.8928762131
 30
0.0
 40
0.4393841614716019
100
AcDbArc
 50
260.3357322026
 51
357.2183453927
  0
LINE
  5
83
330
1F
100
AcDbEntity
  8
SK1
  6
Continuous
100
AcDbLine
 10
7.16
 20
-15.3926054854
 30
0.0
 11
7.4631088913
 21
-15.3926054854
 31
0.0
  0
LINE
  5
84
330
1F
100
AcDbEntity
  8
SK1
  6
Continuous
100
AcDbLine
 10
7.4631088913
 20
-15.3926054854
 30
0.0
 11
12.535
 21
-12.6862811235
 31
0.0
  0
ARC
  5
85
330
1F
100
AcDbEntity
  8
SK1
  6
Continuous
100
AcDbCircle
 10
12.4286867999
 20
-12.4807759824
 30
0.0
 40
0.2313760133482017
100
AcDbArc
 50
297.3537111502
 51
358.6648999396
  0
LINE
  5
86
330
1F
100
AcDbEntity
  8
SK1
  6
Continuous
100
AcDbLine
 10
12.66
 20
-12.4861669934
 30
0.0
 11
12.66
 21
-12.1800202475
 31
0.0
  0
ARC
  5
87
330
1F
100
AcDbEntity
  8
SK3
100
AcDbCircle
 10
12.2745210808
 20
-9.7699992538
 30
0.0
 40
0.3857980274791157
100
AcDbArc
 50
2.3305400617
 51
92.1570696465
  0
LINE
  5
88
330
1F
100
AcDbEntity
  8
SK1
  6
Continuous
100
AcDbLine
 10
7.16
 20
-15.3926054854
 30
0.0
 11
7.16
 21
-15.0864587395
 31
0.0
  0
ARC
  5
89
330
1F
100
AcDbEntity
  8
SK1
  6
Continuous
100
AcDbCircle
 10
6.967295287
 20
-13.8293790224
 30
0.0
 40
0.1928659025472804
100
AcDbArc
 50
2.3426562868
 51
92.1677698787
  0
LINE
  5
8A
330
1F
100
AcDbEntity
  8
SK1
  6
Continuous
100
AcDbLine
 10
6.96
 20
-13.6366511439
 30
0.0
 11
3.76
 21
-13.6366511439
 31
0.0
  0
ARC
  5
8B
330
1F
100
AcDbEntity
  8
SK1
  6
Continuous
100
AcDbCircle
 10
3.7527050682
 20
-13.8293794067
 30
0.0
 40
0.1928662731557801
100
AcDbArc
 50
87.8323398835
 51
177.6572339504
  0
LINE
  5
8C
330
1F
100
AcDbEntity
  8
SK1
  6
Continuous
100
AcDbLine
 10
3.56
 20
-14.6080527639
 30
0.0
 11
3.56
 21
-14.9141995098
 31
0.0
  0
LINE
  5
8D
330
1F
100
AcDbEntity
  8
SK1
  6
Continuous
100
AcDbLine
 10
-27.0817519303
 20
-8.9003671062
 30
0.0
 11
-27.0817519303
 21
-12.1870199131
 31
0.0
  0
LINE
  5
8E
330
1F
100
AcDbEntity
  8
SK1
  6
Continuous
100
AcDbLine
 10
-27.34
 20
-8.1244981547
 30
0.0
 11
-27.34
 21
-0.3999999002
 31
0.0
  0
LINE
  5
8F
330
1F
100
AcDbEntity
  8
SK3
100
AcDbLine
 10
-26.4141669751
 20
-6.7825658808
 30
0.0
 11
-26.4141669751
 21
-0.3999999002
 31
0.0
  0
LINE
  5
90
330
1F
100
AcDbEntity
  8
SK3
100
AcDbLine
 10
-26.4141669751
 20
-6.7825658808
 30
0.0
 11
-2.7866532117
 21
-6.7825658808
 31
0.0
  0
SPLINE
  5
91
330
1F
100
AcDbEntity
  8
SK1
  6
Continuous
100
AcDbSpline
210
0.0
220
0.0
230
1.0
 70
     8
 71
     3
 72
    10
 73
     6
 74
     0
 42
0.0000000269170392
 43
0.0000000001
 12
1.0
 22
0.0
 32
0.0
 13
1.0
 23
0.0
 33
0.0
 40
0.0
 40
0.0
 40
0.0
 40
0.0
 40
0.5
 40
0.5
 40
1.0
 40
1.0
 40
1.0
 40
1.0
 10
-27.34000000000129
 20
-8.12449815472691
 30
0.0
 10
-27.34000000000117
 20
-8.175028801424792
 30
0.0
 10
-27.31325218560603
 20
-8.225574189734427
 30
0.0
 10
-27.21983457328473
 20
-8.30170672472884
 30
0.0
 10
-27.15326761692436
 20
-8.327570812840081
 30
0.0
 10
-27.08175193028917
 20
-8.334681681282136
 30
0.0
  0
LINE
  5
92
330
1F
100
AcDbEntity
  8
SK1
  6
Continuous
100
AcDbLine
 10
-27.0817519303
 20
-8.3346816813
 30
0.0
 11
-3.7359913242
 21
-10.6557064141
 31
0.0
  0
LINE
  5
93
330
1F
100
AcDbEntity
  8
SK3
100
AcDbLine
 10
-26.4141669751
 20
-6.7825658808
 30
0.0
 11
-27.34
 21
-7.1608229912
 31
0.0
  0
SPLINE
  5
94
330
1F
100
AcDbEntity
  8
SK1
  6
Continuous
100
AcDbSpline
210
0.0
220
0.0
230
1.0
 70
     8
 71
     3
 72
    10
 73
     6
 74
     0
 42
0.0000000269170392
 43
0.0000000001
 12
1.0
 22
0.0
 32
0.0
 13
1.0
 23
0.0
 33
0.0
 40
0.0
 40
0.0
 40
0.0
 40
0.0
 40
0.5
 40
0.5
 40
1.0
 40
1.0
 40
1.0
 40
1.0
 10
-27.34000000000115
 20
-8.690183579676154
 30
0.0
 10
-27.34000000000116
 20
-8.740714226374042
 30
0.0
 10
-27.31325218560602
 20
-8.791259614683673
 30
0.0
 10
-27.21983457328473
 20
-8.86739214967808
 30
0.0
 10
-27.15326761692436
 20
-8.893256237789318
 30
0.0
 10
-27.08175193028917
 20
-8.900367106231377
 30
0.0
  0
LINE
  5
95
330
1F
100
AcDbEntity
  8
SK1
  6
Continuous
100
AcDbLine
 10
-27.0817519303
 20
-8.9003671062
 30
0.0
 11
-3.7359913242
 21
-11.221391839
 31
0.0
  0
LINE
  5
96
330
1F
100
AcDbEntity
  8
SK3
100
AcDbLine
 10
-26.4141669751
 20
-7.3482513058
 30
0.0
 11
-27.34
 21
-7.7265084161
 31
0.0
  0
LINE
  5
97
330
1F
100
AcDbEntity
  8
SK1
  6
Continuous
100
AcDbLine
 10
-27.34
 20
-8.1244981547
 30
0.0
 11
-27.34
 21
-8.6901835797
 31
0.0
  0
LINE
  5
98
330
1F
100
AcDbEntity
  8
SK3
100
AcDbLine
 10
-26.4141669751
 20
-7.3482513058
 30
0.0
 11
-2.7866532117
 21
-7.3482513058
 31
0.0
  0
LINE
  5
99
330
1F
100
AcDbEntity
  8
SK1
  6
Continuous
100
AcDbLine
 10
7.16
 20
-5.9428690137
 30
0.0
 11
7.16
 21
5.9428692133
 31
0.0
  0
LINE
  5
9A
330
1F
100
AcDbEntity
  8
SK1
  6
Continuous
100
AcDbLine
 10
7.4631088913
 20
-5.9428690137
 30
0.0
 11
7.4631088913
 21
5.9428692133
 31
0.0
  0
LINE
  5
9B
330
1F
100
AcDbEntity
  8
SK1
  6
Continuous
100
AcDbLine
 10
12.535
 20
-4.8218727589
 30
0.0
 11
12.535
 21
4.8218729584
 31
0.0
  0
LINE
  5
9C
330
1F
100
AcDbEntity
  8
SK1
  6
Continuous
100
AcDbLine
 10
12.66
 20
-5.4780863982
 30
0.0
 11
12.66
 21
-12.1800202475
 31
0.0
  0
LINE
  5
9D
330
1F
100
AcDbEntity
  8
SK1
  6
Continuous
100
AcDbLine
 10
3.0473721046
 20
-5.9152903869
 30
0.0
 11
3.0473721046
 21
5.9152905865
 31
0.0
  0
LINE
  5
9E
330
1F
100
AcDbEntity
  8
SK1
  6
Continuous
100
AcDbLine
 10
3.56
 20
-5.7447067703
 30
0.0
 11
3.56
 21
5.7447069699
 31
0.0
  0
LINE
  5
9F
330
1F
100
AcDbEntity
  8
SK1
  6
Continuous
100
AcDbLine
 10
6.96
 20
-5.2155289106
 30
0.0
 11
6.96
 21
5.2155291101
 31
0.0
  0
LINE
  5
A0
330
1F
100
AcDbEntity
  8
SK1
  6
Continuous
100
AcDbLine
 10
3.76
 20
-5.9546325366
 30
0.0
 11
3.76
 21
-13.330504398
 31
0.0
  0
SPLINE
  5
A1
330
1F
100
AcDbEntity
  8
SK1
  6
Continuous
100
AcDbSpline
210
0.0
220
0.0
230
1.0
 70
     8
 71
     3
 72
    10
 73
     6
 74
     0
 42
0.0000000427826839
 43
0.0000000001
 12
1.0
 22
0.0
 32
0.0
 13
1.0
 23
0.0
 33
0.0
 40
0.0
 40
0.0
 40
0.0
 40
0.0
 40
0.5
 40
0.5
 40
1.0
 40
1.0
 40
1.0
 40
1.0
 10
7.159999999998848
 20
-5.292093949246201
 30
0.0
 10
7.159999999998852
 20
-5.272081366280504
 30
0.0
 10
7.138635819676233
 20
-5.252199598034982
 30
0.0
 10
7.064192627191547
 20
-5.2237036837527
 30
0.0
 10
7.012249111973887
 20
-5.21552891059992
 30
0.0
 10
6.959999999998865
 20
-5.21552891059985
 30
0.0
  0
LINE
  5
A2
330
1F
100
AcDbEntity
  8
SK1
  6
Continuous
100
AcDbLine
 10
6.96
 20
-5.2155289106
 30
0.0
 11
3.76
 21
-5.2155289106
 31
0.0
  0
SPLINE
  5
A3
330
1F
100
AcDbEntity
  8
SK1
  6
Continuous
100
AcDbSpline
210
0.0
220
0.0
230
1.0
 70
     8
 71
     3
 72
    10
 73
     6
 74
     0
 42
0.0000000427930393
 43
0.0000000001
 12
1.0
 22
0.0
 32
0.0
 13
1.0
 23
0.0
 33
0.0
 40
0.0
 40
0.0
 40
0.0
 40
0.0
 40
0.5
 40
0.5
 40
1.0
 40
1.0
 40
1.0
 40
1.0
 10
3.759999999998848
 20
-5.215528910599919
 30
0.0
 10
3.707859588764293
 20
-5.215528910599917
 30
0.0
 10
3.655643858537097
 20
-5.223792044383782
 30
0.0
 10
3.581785416291701
 20
-5.252012674594297
 30
0.0
 10
3.559999999999288
 20
-5.272150050518227
 30
0.0
 10
3.559999999988829
 20
-5.292093949245685
 30
0.0
  0
SPLINE
  5
A4
330
1F
100
AcDbEntity
  8
SK1
  6
Continuous
100
AcDbSpline
210
0.0
220
0.0
230
1.0
 70
     8
 71
     3
 72
    10
 73
     6
 74
     0
 42
0.0000000169213589
 43
0.0000000001
 12
1.0
 22
0.0
 32
0.0
 13
1.0
 23
0.0
 33
0.0
 40
0.0
 40
0.0
 40
0.0
 40
0.0
 40
0.5
 40
0.5
 40
1.0
 40
1.0
 40
1.0
 40
1.0
 10
3.047372104566652
 20
-5.915290386915351
 30
0.0
 10
3.173819526775255
 20
-5.922093081062559
 30
0.0
 10
3.309218523066235
 20
-5.906702229863194
 30
0.0
 10
3.501666558320422
 20
-5.842580599249556
 30
0.0
 10
3.559999999998849
 20
-5.794032848316319
 30
0.0
 10
3.559999999998849
 20
-5.744706770316222
 30
0.0
  0
LINE
  5
A5
330
1F
100
AcDbEntity
  8
SK1
  6
Continuous
100
AcDbLine
 10
7.16
 20
-5.9428690137
 30
0.0
 11
7.4631088913
 21
-5.9428690137
 31
0.0
  0
SPLINE
  5
A6
330
1F
100
AcDbEntity
  8
SK1
  6
Continuous
100
AcDbSpline
210
0.0
220
0.0
230
1.0
 70
     8
 71
     3
 72
     8
 73
     4
 74
     0
 42
0.0000000019251887
 43
0.0000000001
 12
1.0
 22
0.0
 32
0.0
 13
1.0
 23
0.0
 33
0.0
 40
0.0
 40
0.0
 40
0.0
 40
0.0
 40
1.0
 40
1.0
 40
1.0
 40
1.0
 10
7.46310889132342
 20
-5.942869013737537
 30
0.0
 10
9.153766091780577
 20
-5.569221371969266
 30
0.0
 10
10.84440226444394
 20
-5.195559789107266
 30
0.0
 10
12.53499999999885
 20
-4.821872758885749
 30
0.0
  0
SPLINE
  5
A7
330
1F
100
AcDbEntity
  8
SK1
  6
Continuous
100
AcDbSpline
210
0.0
220
0.0
230
1.0
 70
     8
 71
     3
 72
    10
 73
     6
 74
     0
 42
0.0000000616220022
 43
0.0000000001
 12
1.0
 22
0.0
 32
0.0
 13
1.0
 23
0.0
 33
0.0
 40
0.0
 40
0.0
 40
0.0
 40
0.0
 40
0.5
 40
0.5
 40
1.0
 40
1.0
 40
1.0
 40
1.0
 10
12.53499999999885
 20
-4.821872758885749
 30
0.0
 10
12.57278451834397
 20
-4.813520929144238
 30
0.0
 10
12.60478782474016
 20
-4.801271806686358
 30
0.0
 10
12.64845197751686
 20
-4.77225638412205
 30
0.0
 10
12.6599999999989
 20
-4.755627240031738
 30
0.0
 10
12.66000000000039
 20
-4.738982772143365
 30
0.0
  0
SPLINE
  5
A8
330
1F
100
AcDbEntity
  8
SK3
100
AcDbSpline
210
0.0
220
0.0
230
1.0
 70
     8
 71
     3
 72
    10
 73
     6
 74
     0
 42
0.0000000213939688
 43
0.0000000001
 12
1.0
 22
0.0
 32
0.0
 13
1.0
 23
0.0
 33
0.0
 40
0.0
 40
0.0
 40
0.0
 40
0.0
 40
0.5
 40
0.5
 40
1.0
 40
1.0
 40
1.0
 40
1.0
 10
12.65999999999885
 20
-3.607410975651885
 30
0.0
 10
12.65999999999885
 20
-3.567416409328273
 30
0.0
 10
12.61632734232375
 20
-3.527186552238859
 30
0.0
 10
12.46889424349479
 20
-3.47081468055191
 30
0.0
 10
12.36460018561225
 20
-3.454219717849122
 30
0.0
 10
12.25999999999884
 20
-3.454219717849079
 30
0.0
  0
SPLINE
  5
A9
330
1F
100
AcDbEntity
  8
SK1
  6
Continuous
100
AcDbSpline
210
0.0
220
0.0
230
1.0
 70
     8
 71
     3
 72
    10
 73
     6
 74
     0
 42
0.0000000169213589
 43
0.0000000001
 12
1.0
 22
0.0
 32
0.0
 13
1.0
 23
0.0
 33
0.0
 40
0.0
 40
0.0
 40
0.0
 40
0.0
 40
0.5
 40
0.5
 40
1.0
 40
1.0
 40
1.0
 40
1.0
 10
3.047372104566652
 20
-6.654394012924381
 30
0.0
 10
3.173819526775253
 20
-6.661196707071588
 30
0.0
 10
3.309218523066237
 20
-6.645805855872227
 30
0.0
 10
3.501666558320425
 20
-6.581684225258585
 30
0.0
 10
3.559999999998849
 20
-6.533136474325348
 30
0.0
 10
3.559999999998849
 20
-6.483810396325251
 30
0.0
  0
LINE
  5
AA
330
1F
100
AcDbEntity
  8
SK1
  6
Continuous
100
AcDbLine
 10
7.16
 20
-6.6819726397
 30
0.0
 11
7.4631088913
 21
-6.6819726397
 31
0.0
  0
SPLINE
  5
AB
330
1F
100
AcDbEntity
  8
SK1
  6
Continuous
100
AcDbSpline
210
0.0
220
0.0
230
1.0
 70
     8
 71
     3
 72
     8
 73
     4
 74
     0
 42
0.0000000019251887
 43
0.0000000001
 12
1.0
 22
0.0
 32
0.0
 13
1.0
 23
0.0
 33
0.0
 40
0.0
 40
0.0
 40
0.0
 40
0.0
 40
1.0
 40
1.0
 40
1.0
 40
1.0
 10
7.46310889132342
 20
-6.681972639746567
 30
0.0
 10
9.153766091780577
 20
-6.308324997978294
 30
0.0
 10
10.84440226444394
 20
-5.934663415116296
 30
0.0
 10
12.53499999999885
 20
-5.560976384894778
 30
0.0
  0
SPLINE
  5
AC
330
1F
100
AcDbEntity
  8
SK1
  6
Continuous
100
AcDbSpline
210
0.0
220
0.0
230
1.0
 70
     8
 71
     3
 72
    10
 73
     6
 74
     0
 42
0.0000000616220022
 43
0.0000000001
 12
1.0
 22
0.0
 32
0.0
 13
1.0
 23
0.0
 33
0.0
 40
0.0
 40
0.0
 40
0.0
 40
0.0
 40
0.5
 40
0.5
 40
1.0
 40
1.0
 40
1.0
 40
1.0
 10
12.53499999999885
 20
-5.560976384894778
 30
0.0
 10
12.57278451834397
 20
-5.552624555153267
 30
0.0
 10
12.60478782474016
 20
-5.540375432695387
 30
0.0
 10
12.64845197751686
 20
-5.51136001013108
 30
0.0
 10
12.6599999999989
 20
-5.494730866040767
 30
0.0
 10
12.66000000000039
 20
-5.478086398152395
 30
0.0
  0
LINE
  5
AD
330
1F
100
AcDbEntity
  8
SK1
  6
Continuous
100
AcDbLine
 10
12.66
 20
-5.4780863982
 30
0.0
 11
12.66
 21
-4.7389827721
 31
0.0
  0
SPLINE
  5
AE
330
1F
100
AcDbEntity
  8
SK3
100
AcDbSpline
210
0.0
220
0.0
230
1.0
 70
     8
 71
     3
 72
    10
 73
     6
 74
     0
 42
0.0000000213939688
 43
0.0000000001
 12
1.0
 22
0.0
 32
0.0
 13
1.0
 23
0.0
 33
0.0
 40
0.0
 40
0.0
 40
0.0
 40
0.0
 40
0.5
 40
0.5
 40
1.0
 40
1.0
 40
1.0
 40
1.0
 10
12.65999999999885
 20
-4.346514601660914
 30
0.0
 10
12.65999999999885
 20
-4.306520035337303
 30
0.0
 10
12.61632734232375
 20
-4.266290178247891
 30
0.0
 10
12.46889424349479
 20
-4.209918306560941
 30
0.0
 10
12.36460018561225
 20
-4.193323343858153
 30
0.0
 10
12.25999999999884
 20
-4.193323343858109
 30
0.0
  0
LINE
  5
AF
330
1F
100
AcDbEntity
  8
SK1
  6
Continuous
100
AcDbLine
 10
7.16
 20
-6.6819726397
 30
0.0
 11
7.16
 21
-6.0311975753
 31
0.0
  0
SPLINE
  5
B0
330
1F
100
AcDbEntity
  8
SK1
  6
Continuous
100
AcDbSpline
210
0.0
220
0.0
230
1.0
 70
     8
 71
     3
 72
    10
 73
     6
 74
     0
 42
0.0000000427826839
 43
0.0000000001
 12
1.0
 22
0.0
 32
0.0
 13
1.0
 23
0.0
 33
0.0
 40
0.0
 40
0.0
 40
0.0
 40
0.0
 40
0.5
 40
0.5
 40
1.0
 40
1.0
 40
1.0
 40
1.0
 10
7.159999999998848
 20
-6.031197575255229
 30
0.0
 10
7.159999999998852
 20
-6.011184992289532
 30
0.0
 10
7.138635819676233
 20
-5.99130322404401
 30
0.0
 10
7.064192627191547
 20
-5.96280730976173
 30
0.0
 10
7.012249111973887
 20
-5.954632536608949
 30
0.0
 10
6.959999999998865
 20
-5.954632536608878
 30
0.0
  0
LINE
  5
B1
330
1F
100
AcDbEntity
  8
SK1
  6
Continuous
100
AcDbLine
 10
6.96
 20
-5.9546325366
 30
0.0
 11
3.76
 21
-5.9546325366
 31
0.0
  0
SPLINE
  5
B2
330
1F
100
AcDbEntity
  8
SK1
  6
Continuous
100
AcDbSpline
210
0.0
220
0.0
230
1.0
 70
     8
 71
     3
 72
    10
 73
     6
 74
     0
 42
0.0000000427930393
 43
0.0000000001
 12
1.0
 22
0.0
 32
0.0
 13
1.0
 23
0.0
 33
0.0
 40
0.0
 40
0.0
 40
0.0
 40
0.0
 40
0.5
 40
0.5
 40
1.0
 40
1.0
 40
1.0
 40
1.0
 10
3.759999999998848
 20
-5.954632536608948
 30
0.0
 10
3.707859588764293
 20
-5.954632536608946
 30
0.0
 10
3.655643858537097
 20
-5.962895670392812
 30
0.0
 10
3.581785416291701
 20
-5.991116300603325
 30
0.0
 10
3.559999999999288
 20
-6.011253676527256
 30
0.0
 10
3.559999999988829
 20
-6.031197575254713
 30
0.0
  0
LINE
  5
B3
330
1F
100
AcDbEntity
  8
SK1
  6
Continuous
100
AcDbLine
 10
3.56
 20
-6.0311975753
 30
0.0
 11
3.56
 21
-6.4838103963
 31
0.0
  0
LINE
  5
B4
330
1F
100
AcDbEntity
  8
SK1
  6
Continuous
100
AcDbLine
 10
-27.34
 20
0.4000000998
 30
0.0
 11
-27.34
 21
8.1244983543
 31
0.0
  0
LINE
  5
B5
330
1F
100
AcDbEntity
  8
SK1
  6
Continuous
100
AcDbLine
 10
-27.0817519303
 20
-0.3999999002
 30
0.0
 11
-27.0817519303
 21
-8.3346816813
 31
0.0
  0
LINE
  5
B6
330
1F
100
AcDbEntity
  8
SK3
100
AcDbLine
 10
-26.4141669751
 20
0.4000000998
 30
0.0
 11
-26.4141669751
 21
6.7825660804
 31
0.0
  0
LINE
  5
B7
330
1F
100
AcDbEntity
  8
SK1
  6
Continuous
100
AcDbLine
 10
-27.34
 20
0.4000000998
 30
0.0
 11
-27.0817519303
 21
0.4000000998
 31
0.0
  0
LINE
  5
B8
330
1F
100
AcDbEntity
  8
SK1
  6
Continuous
100
AcDbLine
 10
-27.0817519303
 20
0.4000000998
 30
0.0
 11
-3.7359913242
 21
0.4000000998
 31
0.0
  0
LINE
  5
B9
330
1F
100
AcDbEntity
  8
SK1
  6
Continuous
100
AcDbLine
 10
-27.34
 20
-0.3999999002
 30
0.0
 11
-27.0817519303
 21
-0.3999999002
 31
0.0
  0
LINE
  5
BA
330
1F
100
AcDbEntity
  8
SK1
  6
Continuous
100
AcDbLine
 10
-27.0817519303
 20
-0.3999999002
 30
0.0
 11
-3.7359913242
 21
-0.3999999002
 31
0.0
  0
LINE
  5
BB
330
1F
100
AcDbEntity
  8
SK1
  6
Continuous
100
AcDbLine
 10
7.16
 20
6.6819728393
 30
0.0
 11
7.16
 21
15.086458939
 31
0.0
  0
LINE
  5
BC
330
1F
100
AcDbEntity
  8
SK1
  6
Continuous
100
AcDbLine
 10
7.4631088913
 20
6.6819728393
 30
0.0
 11
7.4631088913
 21
15.086458939
 31
0.0
  0
LINE
  5
BD
330
1F
100
AcDbEntity
  8
SK1
  6
Continuous
100
AcDbLine
 10
12.535
 20
5.5609765844
 30
0.0
 11
12.535
 21
12.3801345772
 31
0.0
  0
LINE
  5
BE
330
1F
100
AcDbEntity
  8
SK1
  6
Continuous
100
AcDbLine
 10
12.66
 20
4.7389829717
 30
0.0
 11
12.66
 21
-4.7389827721
 31
0.0
  0
LINE
  5
BF
330
1F
100
AcDbEntity
  8
SK1
  6
Continuous
100
AcDbLine
 10
3.0473721046
 20
6.6543942125
 30
0.0
 11
3.0473721046
 21
15.0198782441
 31
0.0
  0
LINE
  5
C0
330
1F
100
AcDbEntity
  8
SK1
  6
Continuous
100
AcDbLine
 10
3.56
 20
6.4838105959
 30
0.0
 11
3.56
 21
14.6080529634
 31
0.0
  0
LINE
  5
C1
330
1F
100
AcDbEntity
  8
SK1
  6
Continuous
100
AcDbLine
 10
6.96
 20
5.9546327362
 30
0.0
 11
6.96
 21
13.3305045976
 31
0.0
  0
LINE
  5
C2
330
1F
100
AcDbEntity
  8
SK1
  6
Continuous
100
AcDbLine
 10
3.76
 20
5.2155291101
 30
0.0
 11
3.76
 21
-5.2155289106
 31
0.0
  0
LINE
  5
C3
330
1F
100
AcDbEntity
  8
SK1
  6
Continuous
100
AcDbLine
 10
7.16
 20
6.6819728393
 30
0.0
 11
7.16
 21
6.0311977748
 31
0.0
  0
SPLINE
  5
C4
330
1F
100
AcDbEntity
  8
SK1
  6
Continuous
100
AcDbSpline
210
0.0
220
0.0
230
1.0
 70
     8
 71
     3
 72
    10
 73
     6
 74
     0
 42
0.0000000427824414
 43
0.0000000001
 12
1.0
 22
0.0
 32
0.0
 13
1.0
 23
0.0
 33
0.0
 40
0.0
 40
0.0
 40
0.0
 40
0.0
 40
0.5
 40
0.5
 40
1.0
 40
1.0
 40
1.0
 40
1.0
 10
7.159999999998848
 20
6.031197774796635
 30
0.0
 10
7.159999999998854
 20
6.011237063787541
 30
0.0
 10
7.138792746348788
 20
5.991378542977352
 30
0.0
 10
7.064184492778167
 20
5.962789375685923
 30
0.0
 10
7.012831382486827
 20
5.954632736150045
 30
0.0
 10
6.959999999998849
 20
5.954632736150352
 30
0.0
  0
LINE
  5
C5
330
1F
100
AcDbEntity
  8
SK1
  6
Continuous
100
AcDbLine
 10
6.96
 20
5.9546327362
 30
0.0
 11
3.76
 21
5.9546327362
 31
0.0
  0
SPLINE
  5
C6
330
1F
100
AcDbEntity
  8
SK1
  6
Continuous
100
AcDbSpline
210
0.0
220
0.0
230
1.0
 70
     8
 71
     3
 72
    10
 73
     6
 74
     0
 42
0.0000000427888826
 43
0.0000000001
 12
1.0
 22
0.0
 32
0.0
 13
1.0
 23
0.0
 33
0.0
 40
0.0
 40
0.0
 40
0.0
 40
0.0
 40
0.5
 40
0.5
 40
1.0
 40
1.0
 40
1.0
 40
1.0
 10
3.759999999998848
 20
5.954632736150352
 30
0.0
 10
3.707128834287171
 20
5.954632736150351
 30
0.0
 10
3.655412931720293
 20
5.962944612910951
 30
0.0
 10
3.581619568482708
 20
5.991219573861271
 30
0.0
 10
3.559999999998738
 20
6.011219705364258
 30
0.0
 10
3.559999999996464
 20
6.031197774796741
 30
0.0
  0
LINE
  5
C7
330
1F
100
AcDbEntity
  8
SK1
  6
Continuous
100
AcDbLine
 10
3.56
 20
6.0311977748
 30
0.0
 11
3.56
 21
6.4838105959
 31
0.0
  0
SPLINE
  5
C8
330
1F
100
AcDbEntity
  8
SK1
  6
Continuous
100
AcDbSpline
210
0.0
220
0.0
230
1.0
 70
     8
 71
     3
 72
    10
 73
     6
 74
     0
 42
0.0000000169199522
 43
0.0000000001
 12
1.0
 22
0.0
 32
0.0
 13
1.0
 23
0.0
 33
0.0
 40
0.0
 40
0.0
 40
0.0
 40
0.0
 40
0.5
 40
0.5
 40
1.0
 40
1.0
 40
1.0
 40
1.0
 10
3.047372104566827
 20
6.654394212460748
 30
0.0
 10
3.175618258190124
 20
6.661293675843195
 30
0.0
 10
3.308843327161703
 20
6.645885596198307
 30
0.0
 10
3.501565786968004
 20
6.58176335902927
 30
0.0
 10
3.559999999998847
 20
6.533184113839757
 30
0.0
 10
3.559999999998849
 20
6.483810595866657
 30
0.0
  0
LINE
  5
C9
330
1F
100
AcDbEntity
  8
SK1
  6
Continuous
100
AcDbLine
 10
7.16
 20
6.6819728393
 30
0.0
 11
7.4631088913
 21
6.6819728393
 31
0.0
  0
LINE
  5
CA
330
1F
100
AcDbEntity
  8
SK1
  6
Continuous
100
AcDbLine
 10
7.4631088913
 20
6.6819728393
 30
0.0
 11
12.535
 21
5.5609765844
 31
0.0
  0
SPLINE
  5
CB
330
1F
100
AcDbEntity
  8
SK1
  6
Continuous
100
AcDbSpline
210
0.0
220
0.0
230
1.0
 70
     8
 71
     3
 72
     8
 73
     4
 74
     0
 42
0.0000000587479703
 43
0.0000000001
 12
1.0
 22
0.0
 32
0.0
 13
1.0
 23
0.0
 33
0.0
 40
0.0
 40
0.0
 40
0.0
 40
0.0
 40
1.0
 40
1.0
 40
1.0
 40
1.0
 10
12.53499999999885
 20
5.560976584436183
 30
0.0
 10
12.61128692077902
 20
5.544114244997565
 30
0.0
 10
12.65999999999885
 20
5.5116214305391
 30
0.0
 10
12.65999999999885
 20
5.478086597693864
 30
0.0
  0
LINE
  5
CC
330
1F
100
AcDbEntity
  8
SK1
  6
Continuous
100
AcDbLine
 10
12.66
 20
5.4780865977
 30
0.0
 11
12.66
 21
4.7389829717
 31
0.0
  0
SPLINE
  5
CD
330
1F
100
AcDbEntity
  8
SK3
100
AcDbSpline
210
0.0
220
0.0
230
1.0
 70
     8
 71
     3
 72
    10
 73
     6
 74
     0
 42
0.0000000213897292
 43
0.0000000001
 12
1.0
 22
0.0
 32
0.0
 13
1.0
 23
0.0
 33
0.0
 40
0.0
 40
0.0
 40
0.0
 40
0.0
 40
0.5
 40
0.5
 40
1.0
 40
1.0
 40
1.0
 40
1.0
 10
12.65999999999885
 20
4.346514801202318
 30
0.0
 10
12.65999999999886
 20
4.306585640281307
 30
0.0
 10
12.61759919151519
 20
4.266856663417692
 30
0.0
 10
12.46841253477924
 20
4.209654757337138
 30
0.0
 10
12.36568779956746
 20
4.193323543399411
 30
0.0
 10
12.25999999999885
 20
4.193323543399559
 30
0.0
  0
SPLINE
  5
CE
330
1F
100
AcDbEntity
  8
SK1
  6
Continuous
100
AcDbSpline
210
0.0
220
0.0
230
1.0
 70
     8
 71
     3
 72
    10
 73
     6
 74
     0
 42
0.0000000169199522
 43
0.0000000001
 12
1.0
 22
0.0
 32
0.0
 13
1.0
 23
0.0
 33
0.0
 40
0.0
 40
0.0
 40
0.0
 40
0.0
 40
0.5
 40
0.5
 40
1.0
 40
1.0
 40
1.0
 40
1.0
 10
3.047372104566827
 20
5.915290586451721
 30
0.0
 10
3.175618258190125
 20
5.922190049834169
 30
0.0
 10
3.308843327161704
 20
5.906781970189276
 30
0.0
 10
3.501565786968004
 20
5.842659733020241
 30
0.0
 10
3.559999999998849
 20
5.794080487830724
 30
0.0
 10
3.559999999998849
 20
5.744706969857627
 30
0.0
  0
LINE
  5
CF
330
1F
100
AcDbEntity
  8
SK1
  6
Continuous
100
AcDbLine
 10
7.16
 20
5.9428692133
 30
0.0
 11
7.4631088913
 21
5.9428692133
 31
0.0
  0
LINE
  5
D0
330
1F
100
AcDbEntity
  8
SK1
  6
Continuous
100
AcDbLine
 10
7.4631088913
 20
5.9428692133
 30
0.0
 11
12.535
 21
4.8218729584
 31
0.0
  0
SPLINE
  5
D1
330
1F
100
AcDbEntity
  8
SK1
  6
Continuous
100
AcDbSpline
210
0.0
220
0.0
230
1.0
 70
     8
 71
     3
 72
     8
 73
     4
 74
     0
 42
0.0000000587479703
 43
0.0000000001
 12
1.0
 22
0.0
 32
0.0
 13
1.0
 23
0.0
 33
0.0
 40
0.0
 40
0.0
 40
0.0
 40
0.0
 40
1.0
 40
1.0
 40
1.0
 40
1.0
 10
12.53499999999885
 20
4.821872958427154
 30
0.0
 10
12.61128692077901
 20
4.805010618988536
 30
0.0
 10
12.65999999999885
 20
4.77251780453007
 30
0.0
 10
12.65999999999885
 20
4.738982971684832
 30
0.0
  0
SPLINE
  5
D2
330
1F
100
AcDbEntity
  8
SK3
100
AcDbSpline
210
0.0
220
0.0
230
1.0
 70
     8
 71
     3
 72
    10
 73
     6
 74
     0
 42
0.0000000213897292
 43
0.0000000001
 12
1.0
 22
0.0
 32
0.0
 13
1.0
 23
0.0
 33
0.0
 40
0.0
 40
0.0
 40
0.0
 40
0.0
 40
0.5
 40
0.5
 40
1.0
 40
1.0
 40
1.0
 40
1.0
 10
12.65999999999885
 20
3.607411175193289
 30
0.0
 10
12.65999999999886
 20
3.567482014272278
 30
0.0
 10
12.61759919151519
 20
3.527753037408665
 30
0.0
 10
12.46841253477924
 20
3.470551131328111
 30
0.0
 10
12.36568779956746
 20
3.454219917390381
 30
0.0
 10
12.25999999999885
 20
3.45421991739053
 30
0.0
  0
SPLINE
  5
D3
330
1F
100
AcDbEntity
  8
SK1
  6
Continuous
100
AcDbSpline
210
0.0
220
0.0
230
1.0
 70
     8
 71
     3
 72
    10
 73
     6
 74
     0
 42
0.0000000427824414
 43
0.0000000001
 12
1.0
 22
0.0
 32
0.0
 13
1.0
 23
0.0
 33
0.0
 40
0.0
 40
0.0
 40
0.0
 40
0.0
 40
0.5
 40
0.5
 40
1.0
 40
1.0
 40
1.0
 40
1.0
 10
7.159999999998848
 20
5.292094148787601
 30
0.0
 10
7.159999999998853
 20
5.272133437778513
 30
0.0
 10
7.138792746348789
 20
5.25227491696832
 30
0.0
 10
7.064184492778167
 20
5.22368574967689
 30
0.0
 10
7.012831382486827
 20
5.215529110141016
 30
0.0
 10
6.959999999998849
 20
5.215529110141323
 30
0.0
  0
LINE
  5
D4
330
1F
100
AcDbEntity
  8
SK1
  6
Continuous
100
AcDbLine
 10
6.96
 20
5.2155291101
 30
0.0
 11
3.76
 21
5.2155291101
 31
0.0
  0
SPLINE
  5
D5
330
1F
100
AcDbEntity
  8
SK1
  6
Continuous
100
AcDbSpline
210
0.0
220
0.0
230
1.0
 70
     8
 71
     3
 72
    10
 73
     6
 74
     0
 42
0.0000000427888826
 43
0.0000000001
 12
1.0
 22
0.0
 32
0.0
 13
1.0
 23
0.0
 33
0.0
 40
0.0
 40
0.0
 40
0.0
 40
0.0
 40
0.5
 40
0.5
 40
1.0
 40
1.0
 40
1.0
 40
1.0
 10
3.759999999998848
 20
5.215529110141321
 30
0.0
 10
3.707128834287173
 20
5.215529110141321
 30
0.0
 10
3.655412931720293
 20
5.223840986901922
 30
0.0
 10
3.58161956848271
 20
5.252115947852245
 30
0.0
 10
3.559999999998738
 20
5.272116079355228
 30
0.0
 10
3.559999999996464
 20
5.292094148787711
 30
0.0
  0
LINE
  5
D6
330
1F
100
AcDbEntity
  8
SK1
  6
Continuous
100
AcDbLine
 10
-27.34
 20
8.6901837792
 30
0.0
 11
-27.34
 21
11.8897757188
 31
0.0
  0
LINE
  5
D7
330
1F
100
AcDbEntity
  8
SK1
  6
Continuous
100
AcDbLine
 10
-27.0817519303
 20
8.3346818808
 30
0.0
 11
-27.0817519303
 21
0.4000000998
 31
0.0
  0
LINE
  5
D8
330
1F
100
AcDbEntity
  8
SK3
100
AcDbLine
 10
-26.4141669751
 20
7.3482515053
 30
0.0
 11
-26.4141669751
 21
9.9919968972
 31
0.0
  0
LINE
  5
D9
330
1F
100
AcDbEntity
  8
SK3
100
AcDbLine
 10
-26.4141669751
 20
7.3482515053
 30
0.0
 11
-2.7866532117
 21
7.3482515053
 31
0.0
  0
SPLINE
  5
DA
330
1F
100
AcDbEntity
  8
SK1
  6
Continuous
100
AcDbSpline
210
0.0
220
0.0
230
1.0
 70
     8
 71
     3
 72
    10
 73
     6
 74
     0
 42
0.0000000269170392
 43
0.0000000001
 12
1.0
 22
0.0
 32
0.0
 13
1.0
 23
0.0
 33
0.0
 40
0.0
 40
0.0
 40
0.0
 40
0.0
 40
0.5
 40
0.5
 40
1.0
 40
1.0
 40
1.0
 40
1.0
 10
-27.34000000000129
 20
8.690183779217541
 30
0.0
 10
-27.34000000000117
 20
8.740714425915426
 30
0.0
 10
-27.31325218560603
 20
8.791259814225066
 30
0.0
 10
-27.21983457328473
 20
8.867392349219479
 30
0.0
 10
-27.15326761692436
 20
8.893256437330717
 30
0.0
 10
-27.08175193028917
 20
8.900367305772775
 30
0.0
  0
LINE
  5
DB
330
1F
100
AcDbEntity
  8
SK1
  6
Continuous
100
AcDbLine
 10
-27.0817519303
 20
8.9003673058
 30
0.0
 11
-3.7359913242
 21
11.2213920385
 31
0.0
  0
LINE
  5
DC
330
1F
100
AcDbEntity
  8
SK3
100
AcDbLine
 10
-26.4141669751
 20
7.3482515053
 30
0.0
 11
-27.34
 21
7.7265086157
 31
0.0
  0
LINE
  5
DD
330
1F
100
AcDbEntity
  8
SK1
  6
Continuous
100
AcDbLine
 10
-27.34
 20
8.1244983543
 30
0.0
 11
-27.34
 21
8.6901837792
 31
0.0
  0
SPLINE
  5
DE
330
1F
100
AcDbEntity
  8
SK1
  6
Continuous
100
AcDbSpline
210
0.0
220
0.0
230
1.0
 70
     8
 71
     3
 72
    10
 73
     6
 74
     0
 42
0.0000000269170392
 43
0.0000000001
 12
1.0
 22
0.0
 32
0.0
 13
1.0
 23
0.0
 33
0.0
 40
0.0
 40
0.0
 40
0.0
 40
0.0
 40
0.5
 40
0.5
 40
1.0
 40
1.0
 40
1.0
 40
1.0
 10
-27.34000000000115
 20
8.124498354268313
 30
0.0
 10
-27.34000000000116
 20
8.175029000966203
 30
0.0
 10
-27.31325218560602
 20
8.225574389275835
 30
0.0
 10
-27.21983457328472
 20
8.30170692427024
 30
0.0
 10
-27.15326761692436
 20
8.327571012381481
 30
0.0
 10
-27.08175193028917
 20
8.334681880823535
 30
0.0
  0
LINE
  5
DF
330
1F
100
AcDbEntity
  8
SK1
  6
Continuous
100
AcDbLine
 10
-27.0817519303
 20
8.3346818808
 30
0.0
 11
-3.7359913242
 21
10.6557066136
 31
0.0
  0
LINE
  5
E0
330
1F
100
AcDbEntity
  8
SK3
100
AcDbLine
 10
-26.4141669751
 20
6.7825660804
 30
0.0
 11
-27.34
 21
7.1608231907
 31
0.0
  0
LINE
  5
E1
330
1F
100
AcDbEntity
  8
SK3
100
AcDbLine
 10
-26.4141669751
 20
6.7825660804
 30
0.0
 11
-2.7866532117
 21
6.7825660804
 31
0.0
  0
SPLINE
  5
E2
330
1F
100
AcDbEntity
  8
SK3
100
AcDbSpline
210
0.0
220
0.0
230
1.0
 70
     8
 71
     3
 72
     8
 73
     4
 74
     0
 42
0.0000009130097031
 43
0.0000000001
 12
1.0
 22
0.0
 32
0.0
 13
1.0
 23
0.0
 33
0.0
 40
0.0
 40
0.0
 40
0.0
 40
0.0
 40
1.0
 40
1.0
 40
1.0
 40
1.0
 10
-22.3400000000013
 20
-11.88108364947848
 30
0.0
 10
-22.3400000000013
 20
-11.8846658795304
 30
0.0
 10
-22.33964952885947
 20
-11.88829429009057
 30
0.0
 10
-22.33895577009769
 20
-11.89195437899907
 30
0.0
  0
SPLINE
  5
E3
330
1F
100
AcDbEntity
  8
SK3
100
AcDbSpline
210
0.0
220
0.0
230
1.0
 70
     8
 71
     3
 72
    11
 73
     7
 74
     0
 42
0.0000002743630311
 43
0.0000000001
 12
1.0
 22
0.0
 32
0.0
 13
1.0
 23
0.0
 33
0.0
 40
0.0
 40
0.0
 40
0.0
 40
0.0
 40
0.2724793901971087
 40
0.2724793901971087
 40
0.2724793901971087
 40
1.0
 40
1.0
 40
1.0
 40
1.0
 10
-22.76588632543437
 20
-9.279962329107994
 30
0.0
 10
-22.76808076155504
 20
-9.277097105015205
 30
0.0
 10
-22.77003936507064
 20
-9.274203609162004
 30
0.0
 10
-22.7717539297797
 20
-9.27128866252517
 30
0.0
 10
-22.776370926472
 20
-9.263439265585315
 30
0.0
 10
-22.77929758415518
 20
-9.255352047745598
 30
0.0
 10
-22.78048798669099
 20
-9.247182215921782
 30
0.0
  0
SPLINE
  5
E4
330
1F
100
AcDbEntity
  8
SK3
100
AcDbSpline
210
0.0
220
0.0
230
1.0
 70
     8
 71
     3
 72
    35
 73
    31
 74
     0
 42
0.0000000108552459
 43
0.0000000001
 12
1.0
 22
0.0
 32
0.0
 13
1.0
 23
0.0
 33
0.0
 40
0.0
 40
0.0
 40
0.0
 40
0.0
 40
0.1083883755863148
 40
0.1083883755863148
 40
0.1083883755863148
 40
0.2168179999571722
 40
0.2168179999571722
 40
0.2168179999571722
 40
0.3246404001976484
 40
0.3246404001976484
 40
0.3246404001976484
 40
0.431787247330033
 40
0.431787247330033
 40
0.431787247330033
 40
0.5000273449599661
 40
0.5000273449599661
 40
0.5000273449599661
 40
0.6067241577127358
 40
0.6067241577127358
 40
0.6067241577127358
 40
0.7134119558140044
 40
0.7134119558140044
 40
0.7134119558140044
 40
0.8202451688318787
 40
0.8202451688318787
 40
0.8202451688318787
 40
0.927532253374094
 40
0.927532253374094
 40
0.927532253374094
 40
1.0
 40
1.0
 40
1.0
 40
1.0
 10
-22.37855714965659
 20
9.384474802787505
 30
0.0
 10
-22.42386454668153
 20
9.384474802787503
 30
0.0
 10
-22.46979896881541
 20
9.381795485046295
 30
0.0
 10
-22.51256242682777
 20
9.376593202146559
 30
0.0
 10
-22.55533549841946
 20
9.371389749730566
 30
0.0
 10
-22.59611799016382
 20
9.36351142932225
 30
0.0
 10
-22.63146883676846
 20
9.35348148920476
 30
0.0
 10
-22.6666232342842
 20
9.343507286722632
 30
0.0
 10
-22.69738176055024
 20
9.331120698647815
 30
0.0
 10
-22.72114196471597
 20
9.317213581226252
 30
0.0
 10
-22.74475598661805
 20
9.303392025944275
 30
0.0
 10
-22.76211296075489
 20
9.287679558834181
 30
0.0
 10
-22.7717539297797
 20
9.271288862066559
 30
0.0
 10
-22.77794655748863
 20
9.260760720890016
 30
0.0
 10
-22.78109826774839
 20
9.24980474025625
 30
0.0
 10
-22.78109826774839
 20
9.238795424883563
 30
0.0
 10
-22.78109826774839
 20
9.221725918643667
 30
0.0
 10
-22.7733967538589
 20
9.204130153476711
 30
0.0
 10
-22.75863654414864
 20
9.187510731793957
 30
0.0
 10
-22.74387702087991
 20
9.170892083017641
 30
0.0
 10
-22.72165392773728
 20
9.154796335674593
 30
0.0
 10
-22.69381783868484
 20
9.140662221008528
 30
0.0
 10
-22.66594261600638
 20
9.126508235765229
 30
0.0
 10
-22.63167636580519
 20
9.11393935345019
 30
0.0
 10
-22.59385764742347
 20
9.10410792803371
 30
0.0
 10
-22.55587790578574
 20
9.09423464270765
 30
0.0
 10
-22.51328039435895
 20
9.086856949121863
 30
0.0
 10
-22.46956569510014
 20
9.082651137754373
 30
0.0
 10
-22.43981158791321
 20
9.079788481385735
 30
0.0
 10
-22.40908778594802
 20
9.078328056895435
 30
0.0
 10
-22.37855714965659
 20
9.078328056895433
 30
0.0
  0
SPLINE
  5
E5
330
1F
100
AcDbEntity
  8
SK1
  6
Continuous
100
AcDbSpline
210
0.0
220
0.0
230
1.0
 70
     8
 71
     3
 72
    35
 73
    31
 74
     0
 42
0.0000000105330634
 43
0.0000000001
 12
1.0
 22
0.0
 32
0.0
 13
1.0
 23
0.0
 33
0.0
 40
0.0
 40
0.0
 40
0.0
 40
0.0
 40
0.1140466951010004
 40
0.1140466951010004
 40
0.1140466951010004
 40
0.2282948207518979
 40
0.2282948207518979
 40
0.2282948207518979
 40
0.3392741566161804
 40
0.3392741566161804
 40
0.3392741566161804
 40
0.4452969336874708
 40
0.4452969336874708
 40
0.4452969336874708
 40
0.5002192508761243
 40
0.5002192508761243
 40
0.5002192508761243
 40
0.6019916732935748
 40
0.6019916732935748
 40
0.6019916732935748
 40
0.7036615082091257
 40
0.7036615082091257
 40
0.7036615082091257
 40
0.8069310276856894
 40
0.8069310276856894
 40
0.8069310276856894
 40
0.9141591791607976
 40
0.9141591791607976
 40
0.9141591791607976
 40
1.0
 40
1.0
 40
1.0
 40
1.0
 10
-21.92480702333012
 20
11.77619757333622
 30
0.0
 10
-21.97294452244991
 20
11.76994426722975
 30
0.0
 10
-22.02179045614507
 20
11.7669888206037
 30
0.0
 10
-22.06731538777646
 20
11.7676198887981
 30
0.0
 10
-22.11288603359942
 20
11.76825159068422
 30
0.0
 10
-22.15641801502276
 20
11.77250832149756
 30
0.0
 10
-22.19389651275008
 20
11.78006064560668
 30
0.0
 10
-22.23030119824957
 20
11.787396584896
 30
0.0
 10
-22.2620404834156
 20
11.79806362337646
 30
0.0
 10
-22.28596647678823
 20
11.81109751927231
 30
0.0
 10
-22.30883959766454
 20
11.82355785359038
 30
0.0
 10
-22.32522337379347
 20
11.83854047715596
 30
0.0
 10
-22.33348005343866
 20
11.85469108451591
 30
0.0
 10
-22.33780546823055
 20
11.86315187977194
 30
0.0
 10
-22.34000000000131
 20
11.87202520467678
 30
0.0
 10
-22.34000000000132
 20
11.88108384901987
 30
0.0
 10
-22.34000000000132
 20
11.89769878921333
 30
0.0
 10
-22.33246049415489
 20
11.91530718698517
 30
0.0
 10
-22.31809824177699
 20
11.93246204204722
 30
0.0
 10
-22.3037440502307
 20
11.94960726892598
 30
0.0
 10
-22.28220523305151
 20
11.96676633984673
 30
0.0
 10
-22.25540696650935
 20
11.98266107258337
 30
0.0
 10
-22.22817994286491
 20
11.99881011205059
 30
0.0
 10
-22.19482910869401
 20
12.01408549331235
 30
0.0
 10
-22.15812035425899
 20
12.02746395401392
 30
0.0
 10
-22.12001391021717
 20
12.04135180098493
 30
0.0
 10
-22.07730851902811
 20
12.05356573513208
 30
0.0
 10
-22.03337750918333
 20
12.06332800345163
 30
0.0
 10
-21.99803558327171
 20
12.07118162131514
 30
0.0
 10
-21.96126607020312
 20
12.0776081035001
 30
0.0
 10
-21.92480702333012
 20
12.08234431922829
 30
0.0
  0
ELLIPSE
  5
E6
330
1F
100
AcDbEntity
  8
SK1
  6
Continuous
100
AcDbEllipse
 10
51.5492454612
 20
0.1530734735
 30
0.0
 11
-74.59999999238237
 21
-5.106176148405266E-9
 31
0.0
210
0.0
220
0.0
230
1.0
 40
0.9238795326
 41
-0.1739612071531891
 42
-0.1694196636875667
  0
ARC
  5
E7
330
1F
100
AcDbEntity
  8
SK3
100
AcDbCircle
 10
-2.786238166
 20
-20.0985294161
 30
0.0
 40
10.10653272698919
100
AcDbArc
 50
87.7196719151
 51
90.0023529697
  0
SPLINE
  5
E8
330
1F
100
AcDbEntity
  8
SK1
  6
Continuous
100
AcDbSpline
210
0.0
220
0.0
230
1.0
 70
     8
 71
     3
 72
    23
 73
    19
 74
     0
 42
0.0000000245443856
 43
0.0000000001
 12
1.0
 22
0.0
 32
0.0
 13
1.0
 23
0.0
 33
0.0
 40
0.0
 40
0.0
 40
0.0
 40
0.0
 40
0.1928242140527417
 40
0.1928242140527417
 40
0.1928242140527417
 40
0.3856687256888912
 40
0.3856687256888912
 40
0.3856687256888912
 40
0.5782205867188616
 40
0.5782205867188616
 40
0.5782205867188616
 40
0.7704878286026974
 40
0.7704878286026974
 40
0.7704878286026974
 40
0.8953082069470614
 40
0.8953082069470614
 40
0.8953082069470614
 40
1.0
 40
1.0
 40
1.0
 40
1.0
 10
-3.735991324229845
 20
-15.46944456874255
 30
0.0
 10
-3.691530379695965
 20
-15.47569523556969
 30
0.0
 10
-3.646483917846108
 20
-15.48223342709087
 30
0.0
 10
-3.604576299426384
 20
-15.48848673993707
 30
0.0
 10
-3.562666046495066
 20
-15.49474044589616
 30
0.0
 10
-3.522738413629955
 20
-15.50087898123409
 30
0.0
 10
-3.488104890183543
 20
-15.50631212984706
 30
0.0
 10
-3.453523374076321
 20
-15.51173711978673
 30
0.0
 10
-3.423264198387481
 20
-15.51660431091758
 30
0.0
 10
-3.399831878259519
 20
-15.52041642536854
 30
0.0
 10
-3.376433513498358
 20
-15.52422301575087
 30
0.0
 10
-3.359195250863195
 20
-15.52707875177539
 30
0.0
 10
-3.349538750650306
 20
-15.52868172073152
 30
0.0
 10
-3.34321790900192
 20
-15.52973097384761
 30
0.0
 10
-3.340000000001162
 20
-15.5302681407828
 30
0.0
 10
-3.340000000001162
 20
-15.5302681407828
 30
0.0
 10
-3.340000000001162
 20
-15.5302681407828
 30
0.0
 10
-3.342262534973371
 20
-15.52988962017446
 30
0.0
 10
-3.346686133305129
 20
-15.52915460658424
 30
0.0
  0
SPLINE
  5
E9
330
1F
100
AcDbEntity
  8
SK1
  6
Continuous
100
AcDbSpline
210
0.0
220
0.0
230
1.0
 70
     8
 71
     3
 72
    20
 73
    16
 74
     0
 42
0.0000000249596416
 43
0.0000000001
 12
1.0
 22
0.0
 32
0.0
 13
1.0
 23
0.0
 33
0.0
 40
0.0
 40
0.0
 40
0.0
 40
0.0
 40
0.2145786737343257
 40
0.2145786737343257
 40
0.2145786737343257
 40
0.4291541907561958
 40
0.4291541907561958
 40
0.4291541907561958
 40
0.6437810025606435
 40
0.6437810025606435
 40
0.6437810025606435
 40
0.858597223210894
 40
0.858597223210894
 40
0.858597223210894
 40
1.0
 40
1.0
 40
1.0
 40
1.0
 10
-3.340000000001166
 20
15.53026834032419
 30
0.0
 10
-3.340000000001166
 20
15.53026834032419
 30
0.0
 10
-3.347618441150334
 20
15.52899378014554
 30
0.0
 10
-3.362228347636298
 20
15.52658076474042
 30
0.0
 10
-3.376838136568114
 20
15.5241677687509
 30
0.0
 10
-3.398842476523269
 20
15.52055256508602
 30
0.0
 10
-3.426428906886108
 20
15.5161129471168
 30
0.0
 10
-3.454022215766292
 20
15.51167222215444
 30
0.0
 10
-3.487960741559358
 20
15.50628872591499
 30
0.0
 10
-3.525446613184472
 20
15.50050019957226
 30
0.0
 10
-3.562965835687049
 20
15.49470652322435
 30
0.0
 10
-3.6050709345078
 20
15.48835178612611
 30
0.0
 10
-3.648290735419567
 20
15.48202679656847
 30
0.0
 10
-3.67696959792426
 20
15.47782979653514
 30
0.0
 10
-3.706564389522357
 20
15.47358183659252
 30
0.0
 10
-3.735991324229834
 20
15.46944476828394
 30
0.0
  0
ARC
  5
EA
330
1F
100
AcDbEntity
  8
SK3
100
AcDbCircle
 10
-2.786238166
 20
20.0985296157
 30
0.0
 40
10.10653272699224
100
AcDbArc
 50
269.9976470303
 51
272.2436674697
  0
LINE
  5
EB
330
1F
100
AcDbEntity
  8
SK1
  6
Continuous
100
AcDbLine
 10
-3.7359913242
 20
15.4694447683
 30
0.0
 11
-27.0817519303
 21
12.1870201126
 31
0.0
  0
LINE
  5
EC
330
1F
100
AcDbEntity
  8
SK3
100
AcDbLine
 10
-2.7866532117
 20
9.9919968972
 30
0.0
 11
-26.4141669751
 21
9.9919968972
 31
0.0
  0
LINE
  5
ED
330
1F
100
AcDbEntity
  8
SK3
100
AcDbLine
 10
-22.3785571497
 20
-9.3844746032
 30
0.0
 11
12.26
 21
-9.3844746032
 31
0.0
  0
SPLINE
  5
EE
330
1F
100
AcDbEntity
  8
SK1
  6
Continuous
100
AcDbSpline
210
0.0
220
0.0
230
1.0
 70
     8
 71
     3
 72
    11
 73
     7
 74
     0
 42
0.0000000003971097
 43
0.0000000001
 12
1.0
 22
0.0
 32
0.0
 13
1.0
 23
0.0
 33
0.0
 40
0.0
 40
0.0
 40
0.0
 40
0.0
 40
0.8233273564535349
 40
0.8233273564535349
 40
0.8233273564535349
 40
1.0
 40
1.0
 40
1.0
 40
1.0
 10
-21.92480702333012
 20
-12.0823441196869
 30
0.0
 10
-15.0713945651538
 20
-12.97263727488795
 30
0.0
 10
-8.217968323331903
 20
-13.86283986438522
 30
0.0
 10
-1.364534694014654
 20
-14.75299390156436
 30
0.0
 10
0.106100560892471
 20
-14.94400646259269
 30
0.0
 10
1.576736173438467
 20
-15.1350166733589
 30
0.0
 10
3.047372104566827
 20
-15.32602479045226
 30
0.0
  0
ELLIPSE
  5
EF
330
1F
100
AcDbEntity
  8
SK1
  6
Continuous
100
AcDbEllipse
 10
51.5492454609
 20
-0.1530732747
 30
0.0
 11
-74.59999999195358
 21
1.004796056295218E-8
 31
0.0
210
0.0
220
0.0
230
1.0
 40
0.9238795326
 41
0.1694062900325928
 42
0.173961207214652
  0
SPLINE
  5
F0
330
1F
100
AcDbEntity
  8
SK1
  6
Continuous
100
AcDbSpline
210
0.0
220
0.0
230
1.0
 70
     8
 71
     3
 72
    35
 73
    31
 74
     0
 42
0.000000010532683
 43
0.0000000001
 12
1.0
 22
0.0
 32
0.0
 13
1.0
 23
0.0
 33
0.0
 40
0.0
 40
0.0
 40
0.0
 40
0.0
 40
0.1140466951057616
 40
0.1140466951057616
 40
0.1140466951057616
 40
0.228294820761431
 40
0.228294820761431
 40
0.228294820761431
 40
0.339274156630352
 40
0.339274156630352
 40
0.339274156630352
 40
0.4452969337060649
 40
0.4452969337060649
 40
0.4452969337060649
 40
0.500219250897011
 40
0.500219250897011
 40
0.500219250897011
 40
0.6019916716268937
 40
0.6019916716268937
 40
0.6019916716268937
 40
0.7036615048631366
 40
0.7036615048631366
 40
0.7036615048631366
 40
0.806931024264333
 40
0.806931024264333
 40
0.806931024264333
 40
0.9141591755960854
 40
0.9141591755960854
 40
0.9141591755960854
 40
1.0
 40
1.0
 40
1.0
 40
1.0
 10
-21.92480702333012
 20
-12.0823441196869
 30
0.0
 10
-21.97294452244991
 20
-12.07609081358043
 30
0.0
 10
-22.02179045614507
 20
-12.0668399287593
 30
0.0
 10
-22.06731538777646
 20
-12.05524219669918
 30
0.0
 10
-22.11288603359942
 20
-12.04363281869197
 30
0.0
 10
-22.15641801502277
 20
-12.02932586670536
 30
0.0
 10
-22.19389651275008
 20
-12.01338114199382
 30
0.0
 10
-22.23030119824958
 20
-11.9978932563074
 30
0.0
 10
-22.2620404834156
 20
-11.98039334011962
 30
0.0
 10
-22.28596647678824
 20
-11.96229937306362
 30
0.0
 10
-22.30883959766454
 20
-11.94500163795361
 30
0.0
 10
-22.32522337379347
 20
-11.9266539175827
 30
0.0
 10
-22.33348005343866
 20
-11.90881036791736
 30
0.0
 10
-22.33780546823055
 20
-11.89946269343091
 30
0.0
 10
-22.3400000000013
 20
-11.89014229382158
 30
0.0
 10
-22.3400000000013
 20
-11.8810836494785
 30
0.0
 10
-22.3400000000013
 20
-11.86446870955336
 30
0.0
 10
-22.33246049440559
 20
-11.84838937411929
 30
0.0
 10
-22.31809824248292
 20
-11.83420936219231
 30
0.0
 10
-22.3037440513911
 20
-11.82003730881376
 30
0.0
 10
-22.28220523489261
 20
-11.80737838366701
 30
0.0
 10
-22.25540696914016
 20
-11.79726203798069
 30
0.0
 10
-22.22817994588011
 20
-11.78698383632941
 30
0.0
 10
-22.19482911204969
 20
-11.77905694815092
 30
0.0
 10
-22.15812035788968
 20
-11.77407513728752
 30
0.0
 10
-22.12001391415582
 20
-11.76890364346532
 30
0.0
 10
-22.07730852321678
 20
-11.76676715178901
 30
0.0
 10
-22.03337751354804
 20
-11.76778628116677
 30
0.0
 10
-21.99803558628699
 20
-11.76860615752767
 30
0.0
 10
-21.96126607169201
 20
-11.77146115787322
 30
0.0
 10
-21.92480702333013
 20
-11.77619737379482
 30
0.0
  0
SPLINE
  5
F1
330
1F
100
AcDbEntity
  8
SK3
100
AcDbSpline
210
0.0
220
0.0
230
1.0
 70
     8
 71
     3
 72
    35
 73
    31
 74
     0
 42
0.0000000108547046
 43
0.0000000001
 12
1.0
 22
0.0
 32
0.0
 13
1.0
 23
0.0
 33
0.0
 40
0.0
 40
0.0
 40
0.0
 40
0.0
 40
0.1083883755863155
 40
0.1083883755863155
 40
0.1083883755863155
 40
0.2168179999571686
 40
0.2168179999571686
 40
0.2168179999571686
 40
0.3246404001976545
 40
0.3246404001976545
 40
0.3246404001976545
 40
0.4317872473300293
 40
0.4317872473300293
 40
0.4317872473300293
 40
0.5000273449599641
 40
0.5000273449599641
 40
0.5000273449599641
 40
0.6067241577127366
 40
0.6067241577127366
 40
0.6067241577127366
 40
0.7134119558140068
 40
0.7134119558140068
 40
0.7134119558140068
 40
0.8202451688318843
 40
0.8202451688318843
 40
0.8202451688318843
 40
0.9275322533741024
 40
0.9275322533741024
 40
0.9275322533741024
 40
1.0
 40
1.0
 40
1.0
 40
1.0
 10
-22.37855714965659
 20
-9.078327857354038
 30
0.0
 10
-22.42386454668153
 20
-9.07832785735404
 30
0.0
 10
-22.46979896881541
 20
-9.08159721055775
 30
0.0
 10
-22.51256242682777
 20
-9.087842932871142
 30
0.0
 10
-22.55533549841946
 20
-9.094090059274608
 30
0.0
 10
-22.59611799016382
 20
-9.103486857456323
 30
0.0
 10
-22.63146883676845
 20
-9.11514830148236
 30
0.0
 10
-22.6666232342842
 20
-9.126744941401165
 30
0.0
 10
-22.69738176055024
 20
-9.140897673152768
 30
0.0
 10
-22.72114196471597
 20
-9.156292474161095
 30
0.0
 10
-22.74475598661805
 20
-9.171592560206363
 30
0.0
 10
-22.76211296075489
 20
-9.188537577843697
 30
0.0
 10
-22.77175392977971
 20
-9.205621679741197
 30
0.0
 10
-22.77794655748864
 20
-9.216595211812551
 30
0.0
 10
-22.7810982677484
 20
-9.227785909969478
 30
0.0
 10
-22.7810982677484
 20
-9.23879522534217
 30
0.0
 10
-22.7810982677484
 20
-9.255864731582065
 30
0.0
 10
-22.7733967538589
 20
-9.272878744544455
 30
0.0
 10
-22.75863654414864
 20
-9.288472207288072
 30
0.0
 10
-22.74387702087991
 20
-9.304064944838716
 30
0.0
 10
-22.72165392773727
 20
-9.318670622602452
 30
0.0
 10
-22.69381783868483
 20
-9.33120160611583
 30
0.0
 10
-22.66594261600638
 20
-9.343750206429528
 30
0.0
 10
-22.63167636580518
 20
-9.354569044965752
 30
0.0
 10
-22.59385764742347
 20
-9.362915634473275
 30
0.0
 10
-22.55587790578573
 20
-9.37129776180642
 30
0.0
 10
-22.51328039435895
 20
-9.377422513922573
 30
0.0
 10
-22.46956569510013
 20
-9.380904515428472
 30
0.0
 10
-22.4398115879132
 20
-9.383274515629505
 30
0.0
 10
-22.40908778594802
 20
-9.384474603246112
 30
0.0
 10
-22.37855714965659
 20
-9.384474603246112
 30
0.0
  0
SPLINE
  5
F2
330
1F
100
AcDbEntity
  8
SK3
100
AcDbSpline
210
0.0
220
0.0
230
1.0
 70
     8
 71
     3
 72
    11
 73
     7
 74
     0
 42
0.0000003241340984
 43
0.0000000001
 12
1.0
 22
0.0
 32
0.0
 13
1.0
 23
0.0
 33
0.0
 40
0.0
 40
0.0
 40
0.0
 40
0.0
 40
0.4064253671022311
 40
0.4064253671022311
 40
0.4064253671022311
 40
0.9999999999999999
 40
0.9999999999999999
 40
0.9999999999999999
 40
0.9999999999999999
 10
-22.32711295018754
 20
11.92026736718136
 30
0.0
 10
-22.32959355691753
 20
11.91643557111327
 30
0.0
 10
-22.33172120180203
 20
11.91261163009906
 30
0.0
 10
-22.33348005343867
 20
11.90881056745874
 30
0.0
 10
-22.33607779763552
 20
11.90319657011522
 30
0.0
 10
-22.33790694807384
 20
11.89759241061832
 30
0.0
 10
-22.33895371692925
 20
11.89204888296549
 30
0.0
  0
SPLINE
  5
F3
330
1F
100
AcDbEntity
  8
SK1
  6
Continuous
100
AcDbSpline
210
0.0
220
0.0
230
1.0
 70
     8
 71
     3
 72
    11
 73
     7
 74
     0
 42
0.0000000003971097
 43
0.0000000001
 12
1.0
 22
0.0
 32
0.0
 13
1.0
 23
0.0
 33
0.0
 40
0.0
 40
0.0
 40
0.0
 40
0.0
 40
0.823327356453535
 40
0.823327356453535
 40
0.823327356453535
 40
1.0
 40
1.0
 40
1.0
 40
1.0
 10
-21.92480702333013
 20
-11.77619737379482
 30
0.0
 10
-15.0713945651538
 20
-12.66649052899588
 30
0.0
 10
-8.217968323331906
 20
-13.55669311849315
 30
0.0
 10
-1.364534694014654
 20
-14.44684715567229
 30
0.0
 10
0.1061005608924701
 20
-14.63785971670061
 30
0.0
 10
1.576736173438464
 20
-14.82886992746683
 30
0.0
 10
3.047372104566827
 20
-15.01987804456019
 30
0.0
  0
LINE
  5
F4
330
1F
100
AcDbEntity
  8
SK3
100
AcDbLine
 10
-22.3785571497
 20
-9.0783278574
 30
0.0
 11
12.26
 21
-9.0783278574
 31
0.0
  0
SPLINE
  5
F5
330
1F
100
AcDbEntity
  8
SK3
100
AcDbSpline
210
0.0
220
0.0
230
1.0
 70
     8
 71
     3
 72
    35
 73
    31
 74
     0
 42
0.0000000091770074
 43
0.0000000001
 12
1.0
 22
0.0
 32
0.0
 13
1.0
 23
0.0
 33
0.0
 40
0.0
 40
0.0
 40
0.0
 40
0.0
 40
0.1083883755863075
 40
0.1083883755863075
 40
0.1083883755863075
 40
0.2168179999571539
 40
0.2168179999571539
 40
0.2168179999571539
 40
0.3246404001976346
 40
0.3246404001976346
 40
0.3246404001976346
 40
0.4317872473300089
 40
0.4317872473300089
 40
0.4317872473300089
 40
0.500027344959965
 40
0.500027344959965
 40
0.500027344959965
 40
0.6067241577127374
 40
0.6067241577127374
 40
0.6067241577127374
 40
0.7134119558140103
 40
0.7134119558140103
 40
0.7134119558140103
 40
0.8202451688318894
 40
0.8202451688318894
 40
0.8202451688318894
 40
0.927532253374098
 40
0.927532253374098
 40
0.927532253374098
 40
1.0
 40
1.0
 40
1.0
 40
1.0
 10
-2.786653211690117
 20
-7.348251305766197
 30
0.0
 10
-2.741345814665182
 20
-7.348251305766197
 30
0.0
 10
-2.695411392531304
 20
-7.342981247230549
 30
0.0
 10
-2.652647934518951
 20
-7.332803976502343
 30
0.0
 10
-2.609874862927263
 20
-7.322624417839435
 30
0.0
 10
-2.569092371182907
 20
-7.307245385638694
 30
0.0
 10
-2.533741524578272
 20
-7.287829509312297
 30
0.0
 10
-2.49858712706252
 20
-7.268521529446112
 30
0.0
 10
-2.467828600796473
 20
-7.244678268975995
 30
0.0
 10
-2.444068396630747
 20
-7.218176138136561
 30
0.0
 10
-2.420454374728664
 20
-7.191837058988539
 30
0.0
 10
-2.403097400591828
 20
-7.162137153913425
 30
0.0
 10
-2.393456431567011
 20
-7.131475827226904
 30
0.0
 10
-2.387263803858074
 20
-7.111781315114792
 30
0.0
 10
-2.384112093598303
 20
-7.091410274374359
 30
0.0
 10
-2.384112093598303
 20
-7.071067712094775
 30
0.0
 10
-2.384112093598303
 20
-7.039527377204545
 30
0.0
 10
-2.391813607487799
 20
-7.007329484635661
 30
0.0
 10
-2.406573817198059
 20
-6.977176042542688
 30
0.0
 10
-2.421333340466796
 20
-6.947024002772253
 30
0.0
 10
-2.443556433609441
 20
-6.918089359556095
 30
0.0
 10
-2.471392522661881
 20
-6.892840529383658
 30
0.0
 10
-2.499267745340336
 20
-6.867556202907291
 30
0.0
 10
-2.533533995541526
 20
-6.845279053540657
 30
0.0
 10
-2.571352713923246
 20
-6.827916535508545
 30
0.0
 10
-2.609332455560978
 20
-6.810480091936234
 30
0.0
 10
-2.65192996698776
 20
-6.797525978771215
 30
0.0
 10
-2.695644666246572
 20
-6.790146375765501
 30
0.0
 10
-2.725398773433499
 20
-6.785123500106926
 30
0.0
 10
-2.756122575398692
 20
-6.78256588081696
 30
0.0
 10
-2.786653211690117
 20
-6.782565880816958
 30
0.0
  0
SPLINE
  5
F6
330
1F
100
AcDbEntity
  8
SK1
  6
Continuous
100
AcDbSpline
210
0.0
220
0.0
230
1.0
 70
     8
 71
     3
 72
    35
 73
    31
 74
     0
 42
0.0000000092453942
 43
0.0000000001
 12
1.0
 22
0.0
 32
0.0
 13
1.0
 23
0.0
 33
0.0
 40
0.0
 40
0.0
 40
0.0
 40
0.0
 40
0.1076873144994247
 40
0.1076873144994247
 40
0.1076873144994247
 40
0.2153859646719058
 40
0.2153859646719058
 40
0.2153859646719058
 40
0.3229211770831063
 40
0.3229211770831063
 40
0.3229211770831063
 40
0.4302974370948143
 40
0.4302974370948143
 40
0.4302974370948143
 40
0.5000063759059413
 40
0.5000063759059413
 40
0.5000063759059413
 40
0.6072943446396618
 40
0.6072943446396618
 40
0.6072943446396618
 40
0.7145807350372823
 40
0.7145807350372823
 40
0.7145807350372823
 40
0.8218927724991374
 40
0.8218927724991374
 40
0.8218927724991374
 40
0.9292995131762521
 40
0.9292995131762521
 40
0.9292995131762521
 40
1.0
 40
1.0
 40
1.0
 40
1.0
 10
-3.735991324229845
 20
-10.65570641405048
 30
0.0
 10
-3.691530379695964
 20
-10.66012630295089
 30
0.0
 10
-3.646483917846106
 20
-10.67022000480769
 30
0.0
 10
-3.604576299426381
 20
-10.68514162237904
 30
0.0
 10
-3.562666046495063
 20
-10.70006417799401
 30
0.0
 10
-3.522738413629952
 20
-10.72022656875956
 30
0.0
 10
-3.488104890183539
 20
-10.7439064775586
 30
0.0
 10
-3.453523374076317
 20
-10.76755082748501
 30
0.0
 10
-3.423264198387481
 20
-10.79535256937628
 30
0.0
 10
-3.399831878259519
 20
-10.82494092519027
 30
0.0
 10
-3.376433513498361
 20
-10.85448640503341
 30
0.0
 10
-3.3591952508632
 20
-10.88662618585534
 30
0.0
 10
-3.349538750650311
 20
-10.9186498709289
 30
0.0
 10
-3.343217909001926
 20
-10.93961156904782
 30
0.0
 10
-3.340000000001168
 20
-10.96083674184806
 30
0.0
 10
-3.340000000001168
 20
-10.98155788677075
 30
0.0
 10
-3.340000000001168
 20
-11.01318866718803
 30
0.0
 10
-3.347618441150335
 20
-11.04435440363019
 30
0.0
 10
-3.362228347636298
 20
-11.07249559395462
 30
0.0
 10
-3.376838136568114
 20
-11.10063655784957
 30
0.0
 10
-3.398842476523276
 20
-11.12653081611262
 30
0.0
 10
-3.426428906886115
 20
-11.14809233162973
 30
0.0
 10
-3.454022215766298
 20
-11.1696592233864
 30
0.0
 10
-3.487960741559361
 20
-11.18748845238462
 30
0.0
 10
-3.525446613184473
 20
-11.2001774902396
 30
0.0
 10
-3.562965835687052
 20
-11.21287781742916
 30
0.0
 10
-3.605070934507806
 20
-11.22078173802566
 30
0.0
 10
-3.648290735419578
 20
-11.22329447639528
 30
0.0
 10
-3.676969597924271
 20
-11.2249618250802
 30
0.0
 10
-3.706564389522369
 20
-11.22431718805494
 30
0.0
 10
-3.735991324229873
 20
-11.22139183899972
 30
0.0
  0
SPLINE
  5
F7
330
1F
100
AcDbEntity
  8
SK3
100
AcDbSpline
210
0.0
220
0.0
230
1.0
 70
     8
 71
     3
 72
    11
 73
     7
 74
     0
 42
0.0000002433287394
 43
0.0000000001
 12
1.0
 22
0.0
 32
0.0
 13
1.0
 23
0.0
 33
0.0
 40
0.0
 40
0.0
 40
0.0
 40
0.0
 40
0.41954596975618
 40
0.41954596975618
 40
0.41954596975618
 40
1.0
 40
1.0
 40
1.0
 40
1.0
 10
-2.399319482502746
 20
7.147718719168077
 30
0.0
 10
-2.397126890332462
 20
7.142343832417938
 30
0.0
 10
-2.395169810292463
 20
7.136925112301468
 30
0.0
 10
-2.393456431567008
 20
7.131476026768293
 30
0.0
 10
-2.391065673178095
 20
7.123872659948804
 30
0.0
 10
-2.389128152527736
 20
7.116168458986104
 30
0.0
 10
-2.387650244814695
 20
7.108403991136313
 30
0.0
  0
ELLIPSE
  5
F8
330
1F
100
AcDbEntity
  8
SK1
  6
Continuous
100
AcDbEllipse
 10
-76.7144558103
 20
-0.2828426151
 30
0.0
 11
74.59999998013497
 21
4.776539649595488E-9
 31
0.0
210
0.0
220
0.0
230
1.0
 40
0.7071067813
 41
-0.2088808539626044
 42
-0.1986429548795261
  0
LINE
  5
F9
330
1F
100
AcDbEntity
  8
SK3
100
AcDbLine
 10
-22.3785571497
 20
-4.1933233439
 30
0.0
 11
12.26
 21
-4.1933233439
 31
0.0
  0
LINE
  5
FA
330
1F
100
AcDbEntity
  8
SK1
  6
Continuous
100
AcDbLine
 10
-21.9248070233
 20
-5.3108174871
 30
0.0
 11
3.0473721046
 21
-6.6543940129
 31
0.0
  0
ELLIPSE
  5
FB
330
1F
100
AcDbEntity
  8
SK1
  6
Continuous
100
AcDbEllipse
 10
51.5492454611
 20
-0.3695517138
 30
0.0
 11
-74.59999999229983
 21
6.879668054783223E-10
 31
0.0
210
0.0
220
0.0
230
1.0
 40
0.3826834324
 41
0.1505749869152132
 42
0.1739612070934432
  0
SPLINE
  5
FC
330
1F
100
AcDbEntity
  8
SK1
  6
Continuous
100
AcDbSpline
210
0.0
220
0.0
230
1.0
 70
     8
 71
     3
 72
    35
 73
    31
 74
     0
 42
0.0000000080647976
 43
0.0000000001
 12
1.0
 22
0.0
 32
0.0
 13
1.0
 23
0.0
 33
0.0
 40
0.0
 40
0.0
 40
0.0
 40
0.0
 40
0.1140466951010062
 40
0.1140466951010062
 40
0.1140466951010062
 40
0.2282948207519138
 40
0.2282948207519138
 40
0.2282948207519138
 40
0.3392741566161988
 40
0.3392741566161988
 40
0.3392741566161988
 40
0.4452969336874772
 40
0.4452969336874772
 40
0.4452969336874772
 40
0.500219250876123
 40
0.500219250876123
 40
0.500219250876123
 40
0.6019916732935728
 40
0.6019916732935728
 40
0.6019916732935728
 40
0.7036615082091224
 40
0.7036615082091224
 40
0.7036615082091224
 40
0.8069310276856875
 40
0.8069310276856875
 40
0.8069310276856875
 40
0.9141591791608003
 40
0.9141591791608003
 40
0.9141591791608003
 40
1.0
 40
1.0
 40
1.0
 40
1.0
 10
-21.92480702333012
 20
-5.310817487080873
 30
0.0
 10
-21.9729445224499
 20
-5.308227282881904
 30
0.0
 10
-22.02179045614507
 20
-5.298100002729969
 30
0.0
 10
-22.06731538777647
 20
-5.281067264563375
 30
0.0
 10
-22.11288603359943
 20
-5.264017422848733
 30
0.0
 10
-22.15641801502277
 20
-5.239527606499707
 30
0.0
 10
-22.19389651275009
 20
-5.209426036455219
 30
0.0
 10
-22.23030119824959
 20
-5.180186919175667
 30
0.0
 10
-22.26204048341561
 20
-5.14477126188206
 30
0.0
 10
-22.28596647678825
 20
-5.106148632378488
 30
0.0
 10
-22.30883959766456
 20
-5.069225606469503
 30
0.0
 10
-22.32522337379348
 20
-5.028295387916765
 30
0.0
 10
-22.33348005343867
 20
-4.986910190619215
 30
0.0
 10
-22.33780546823055
 20
-4.965229787327787
 30
0.0
 10
-22.3400000000013
 20
-4.943175426888708
 30
0.0
 10
-22.3400000000013
 20
-4.92130592485892
 30
0.0
 10
-22.34000000000131
 20
-4.881193910905845
 30
0.0
 10
-22.33246049415489
 20
-4.840845898530235
 30
0.0
 10
-22.31809824177699
 20
-4.803637478039201
 30
0.0
 10
-22.3037440502307
 20
-4.766449940819451
 30
0.0
 10
-22.28220523305151
 20
-4.731388446112804
 30
0.0
 10
-22.25540696650935
 20
-4.701187040090765
 30
0.0
 10
-22.22817994286491
 20
-4.670502428660266
 30
0.0
 10
-22.19482910869401
 20
-4.644016734872016
 30
0.0
 10
-22.15812035425898
 20
-4.623592929938188
 30
0.0
 10
-22.12001391021717
 20
-4.602391486527473
 30
0.0
 10
-22.0773085190281
 20
-4.58715609716334
 30
0.0
 10
-22.03337750918332
 20
-4.578835095722725
 30
0.0
 10
-21.9980355832717
 20
-4.572140958313553
 30
0.0
 10
-21.96126607020311
 20
-4.569752056282902
 30
0.0
 10
-21.92480702333012
 20
-4.571713861071844
 30
0.0
  0
SPLINE
  5
FD
330
1F
100
AcDbEntity
  8
SK3
100
AcDbSpline
210
0.0
220
0.0
230
1.0
 70
     8
 71
     3
 72
    35
 73
    31
 74
     0
 42
0.000000008204522
 43
0.0000000001
 12
1.0
 22
0.0
 32
0.0
 13
1.0
 23
0.0
 33
0.0
 40
0.0
 40
0.0
 40
0.0
 40
0.0
 40
0.1083883755863149
 40
0.1083883755863149
 40
0.1083883755863149
 40
0.2168179999571724
 40
0.2168179999571724
 40
0.2168179999571724
 40
0.3246404001976484
 40
0.3246404001976484
 40
0.3246404001976484
 40
0.431787247330033
 40
0.431787247330033
 40
0.431787247330033
 40
0.5000273449599663
 40
0.5000273449599663
 40
0.5000273449599663
 40
0.606724157712739
 40
0.606724157712739
 40
0.606724157712739
 40
0.7134119558140123
 40
0.7134119558140123
 40
0.7134119558140123
 40
0.820245168831883
 40
0.820245168831883
 40
0.820245168831883
 40
0.927532253374103
 40
0.927532253374103
 40
0.927532253374103
 40
1.0
 40
1.0
 40
1.0
 40
1.0
 10
-22.37855714965659
 20
-3.454219717849126
 30
0.0
 10
-22.42386454668153
 20
-3.454219717849127
 30
0.0
 10
-22.46979896881541
 20
-3.461522599231206
 30
0.0
 10
-22.51256242682777
 20
-3.475557667333356
 30
0.0
 10
-22.55533549841946
 20
-3.489595890634991
 30
0.0
 10
-22.59611799016382
 20
-3.510763290474778
 30
0.0
 10
-22.63146883676846
 20
-3.537285002890742
 30
0.0
 10
-22.6666232342842
 20
-3.563659330824002
 30
0.0
 10
-22.69738176055024
 20
-3.596060904086561
 30
0.0
 10
-22.72114196471597
 20
-3.631739557884131
 30
0.0
 10
-22.74475598661805
 20
-3.667198702356806
 30
0.0
 10
-22.76211296075489
 20
-3.706875043224268
 30
0.0
 10
-22.7717539297797
 20
-3.747426308596304
 30
0.0
 10
-22.77794655748863
 20
-3.77347336765529
 30
0.0
 10
-22.7810982677484
 20
-3.80025538539501
 30
0.0
 10
-22.7810982677484
 20
-3.826834223880196
 30
0.0
 10
-22.7810982677484
 20
-3.868043657347568
 30
0.0
 10
-22.7733967538589
 20
-3.909700870396325
 30
0.0
 10
-22.75863654414864
 20
-3.94837277857546
 30
0.0
 10
-22.74387702087991
 20
-3.987042888270424
 30
0.0
 10
-22.72165392773726
 20
-4.023794183194596
 30
0.0
 10
-22.69381783868483
 20
-4.055649784695158
 30
0.0
 10
-22.66594261600637
 20
-4.087550170690884
 30
0.0
 10
-22.63167636580519
 20
-4.115419201192976
 30
0.0
 10
-22.59385764742347
 20
-4.137054486690556
 30
0.0
 10
-22.55587790578574
 20
-4.158781890172691
 30
0.0
 10
-22.51328039435895
 20
-4.174821291267309
 30
0.0
 10
-22.46956569510013
 20
-4.183951396388646
 30
0.0
 10
-22.4398115879132
 20
-4.190165739184413
 30
0.0
 10
-22.40908778594802
 20
-4.193323343858155
 30
0.0
 10
-22.37855714965659
 20
-4.193323343858156
 30
0.0
  0
LINE
  5
FE
330
1F
100
AcDbEntity
  8
SK1
  6
Continuous
100
AcDbLine
 10
-21.9248070233
 20
-4.5717138611
 30
0.0
 11
3.0473721046
 21
-5.9152903869
 31
0.0
  0
LINE
  5
FF
330
1F
100
AcDbEntity
  8
SK3
100
AcDbLine
 10
-22.3785571497
 20
-3.4542197178
 30
0.0
 11
12.26
 21
-3.4542197178
 31
0.0
  0
LINE
  5
100
330
1F
100
AcDbEntity
  8
SK3
100
AcDbLine
 10
-2.7866532117
 20
0.4000000998
 30
0.0
 11
-3.7359913242
 21
0.4000000998
 31
0.0
  0
ARC
  5
101
330
1F
100
AcDbEntity
  8
SK3
100
AcDbCircle
 10
-2.7840622354
 20
0.0000000998
 30
0.0
 40
0.4000083913593943
100
AcDbArc
 50
269.6288751805
 51
90.3711248195
  0
ARC
  5
102
330
1F
100
AcDbEntity
  8
SK1
  6
Continuous
100
AcDbCircle
 10
-3.7399955132
 20
0.0000000998
 30
0.0
 40
0.4000200414090899
100
AcDbArc
 50
270.5735386566
 51
89.4264613434
  0
LINE
  5
103
330
1F
100
AcDbEntity
  8
SK3
100
AcDbLine
 10
-3.7359913242
 20
-0.3999999002
 30
0.0
 11
-2.7866532117
 21
-0.3999999002
 31
0.0
  0
LINE
  5
104
330
1F
100
AcDbEntity
  8
SK3
100
AcDbLine
 10
-22.3785571497
 20
3.4542199174
 30
0.0
 11
12.26
 21
3.4542199174
 31
0.0
  0
LINE
  5
105
330
1F
100
AcDbEntity
  8
SK1
  6
Continuous
100
AcDbLine
 10
-21.9248070233
 20
4.5717140606
 30
0.0
 11
3.0473721046
 21
5.9152905865
 31
0.0
  0
SPLINE
  5
106
330
1F
100
AcDbEntity
  8
SK1
  6
Continuous
100
AcDbSpline
210
0.0
220
0.0
230
1.0
 70
     8
 71
     3
 72
    35
 73
    31
 74
     0
 42
0.0000000080645082
 43
0.0000000001
 12
1.0
 22
0.0
 32
0.0
 13
1.0
 23
0.0
 33
0.0
 40
0.0
 40
0.0
 40
0.0
 40
0.0
 40
0.1140466951010024
 40
0.1140466951010024
 40
0.1140466951010024
 40
0.228294820751903
 40
0.228294820751903
 40
0.228294820751903
 40
0.3392741566161929
 40
0.3392741566161929
 40
0.3392741566161929
 40
0.4452969336874799
 40
0.4452969336874799
 40
0.4452969336874799
 40
0.5002192508761273
 40
0.5002192508761273
 40
0.5002192508761273
 40
0.6019916732935722
 40
0.6019916732935722
 40
0.6019916732935722
 40
0.7036615082091147
 40
0.7036615082091147
 40
0.7036615082091147
 40
0.8069310276856788
 40
0.8069310276856788
 40
0.8069310276856788
 40
0.9141591791607987
 40
0.9141591791607987
 40
0.9141591791607987
 40
1.0
 40
1.0
 40
1.0
 40
1.0
 10
-21.92480702333012
 20
4.571714060613248
 30
0.0
 10
-21.97294452244991
 20
4.569123856414279
 30
0.0
 10
-22.02179045614507
 20
4.574195108533971
 30
0.0
 10
-22.06731538777646
 20
4.586685305793394
 30
0.0
 10
-22.11288603359943
 20
4.59918804517534
 30
0.0
 10
-22.15641801502277
 20
4.619514923609541
 30
0.0
 10
-22.19389651275009
 20
4.646140247503635
 30
0.0
 10
-22.23030119824958
 20
4.672002718025771
 30
0.0
 10
-22.2620404834156
 20
4.704588104702975
 30
0.0
 10
-22.28596647678824
 20
4.74111478410544
 30
0.0
 10
-22.30883959766454
 20
4.776034092999772
 30
0.0
 10
-22.32522337379347
 20
4.815570442817044
 30
0.0
 10
-22.33348005343866
 20
4.856254400451392
 30
0.0
 10
-22.33780546823055
 20
4.877567446337395
 30
0.0
 10
-22.3400000000013
 20
4.899436622370482
 30
0.0
 10
-22.3400000000013
 20
4.921306124400267
 30
0.0
 10
-22.3400000000013
 20
4.96141813835334
 30
0.0
 10
-22.33246049415489
 20
5.002399508981827
 30
0.0
 10
-22.31809824177698
 20
5.040840149772921
 30
0.0
 10
-22.3037440502307
 20
5.079259215707588
 30
0.0
 10
-22.28220523305153
 20
5.116184731780124
 30
0.0
 10
-22.25540696650937
 20
5.148779624082899
 30
0.0
 10
-22.22817994286494
 20
5.181896016220401
 30
0.0
 10
-22.19482910869402
 20
5.211425555577887
 30
0.0
 10
-22.15812035425899
 20
5.23532736682815
 30
0.0
 10
-22.12001391021718
 20
5.260139242004097
 30
0.0
 10
-22.07730851902811
 20
5.279548844797908
 30
0.0
 10
-22.03337750918332
 20
5.292335647471352
 30
0.0
 10
-21.99803558327171
 20
5.302622463875709
 30
0.0
 10
-21.96126607020312
 20
5.308855881833336
 30
0.0
 10
-21.92480702333012
 20
5.310817686622277
 30
0.0
  0
SPLINE
  5
107
330
1F
100
AcDbEntity
  8
SK3
100
AcDbSpline
210
0.0
220
0.0
230
1.0
 70
     8
 71
     3
 72
    35
 73
    31
 74
     0
 42
0.0000000082046254
 43
0.0000000001
 12
1.0
 22
0.0
 32
0.0
 13
1.0
 23
0.0
 33
0.0
 40
0.0
 40
0.0
 40
0.0
 40
0.0
 40
0.1083883755863145
 40
0.1083883755863145
 40
0.1083883755863145
 40
0.2168179999571691
 40
0.2168179999571691
 40
0.2168179999571691
 40
0.3246404001976531
 40
0.3246404001976531
 40
0.3246404001976531
 40
0.4317872473300237
 40
0.4317872473300237
 40
0.4317872473300237
 40
0.5000273449599649
 40
0.5000273449599649
 40
0.5000273449599649
 40
0.606724157712738
 40
0.606724157712738
 40
0.606724157712738
 40
0.7134119558140113
 40
0.7134119558140113
 40
0.7134119558140113
 40
0.8202451688318825
 40
0.8202451688318825
 40
0.8202451688318825
 40
0.9275322533741027
 40
0.9275322533741027
 40
0.9275322533741027
 40
1.0
 40
1.0
 40
1.0
 40
1.0
 10
-22.37855714965659
 20
4.193323543399559
 30
0.0
 10
-22.42386454668153
 20
4.193323543399559
 30
0.0
 10
-22.46979896881541
 20
4.186265062708328
 30
0.0
 10
-22.51256242682777
 20
4.172662201362829
 30
0.0
 10
-22.55533549841946
 20
4.159056281981502
 30
0.0
 10
-22.59611799016382
 20
4.138517856229617
 30
0.0
 10
-22.63146883676845
 20
4.11267193485964
 30
0.0
 10
-22.6666232342842
 20
4.086969642516753
 30
0.0
 10
-22.69738176055024
 20
4.055299629918213
 30
0.0
 10
-22.72114196471597
 20
4.020237194838796
 30
0.0
 10
-22.74475598661805
 20
3.985390477860667
 30
0.0
 10
-22.76211296075491
 20
3.946224676137911
 30
0.0
 10
-22.77175392977972
 20
3.905960628574895
 30
0.0
 10
-22.77794655748865
 20
3.880098056465093
 30
0.0
 10
-22.78109826774841
 20
3.85341326190679
 30
0.0
 10
-22.78109826774841
 20
3.826834423421599
 30
0.0
 10
-22.78109826774841
 20
3.785624989954226
 30
0.0
 10
-22.7733967538589
 20
3.7437268072524
 30
0.0
 10
-22.75863654414864
 20
3.704629932966233
 30
0.0
 10
-22.74387702087991
 20
3.665534876927806
 30
0.0
 10
-22.72165392773726
 20
3.628166374975005
 30
0.0
 10
-22.69381783868483
 20
3.595646734808736
 30
0.0
 10
-22.66594261600637
 20
3.563081376602339
 30
0.0
 10
-22.63167636580519
 20
3.534487454232315
 30
0.0
 10
-22.59385764742347
 20
3.512237129563347
 30
0.0
 10
-22.55587790578574
 20
3.489892068216906
 30
0.0
 10
-22.51328039435895
 20
3.473333681772704
 30
0.0
 10
-22.46956569510013
 20
3.463903764790118
 30
0.0
 10
-22.4398115879132
 20
3.457485357128143
 30
0.0
 10
-22.40908778594802
 20
3.454219917390531
 30
0.0
 10
-22.37855714965659
 20
3.45421991739053
 30
0.0
  0
SPLINE
  5
108
330
1F
100
AcDbEntity
  8
SK3
100
AcDbSpline
210
0.0
220
0.0
230
1.0
 70
     8
 71
     3
 72
     8
 73
     4
 74
     0
 42
0.0000001991690109
 43
0.0000000001
 12
1.0
 22
0.0
 32
0.0
 13
1.0
 23
0.0
 33
0.0
 40
0.0
 40
0.0
 40
0.0
 40
0.0
 40
0.9999999999999999
 40
0.9999999999999999
 40
0.9999999999999999
 40
0.9999999999999999
 10
-22.74186478652618
 20
-3.985518156237887
 30
0.0
 10
-22.74962351664303
 20
-3.970649052638167
 30
0.0
 10
-22.75631272328002
 20
-3.955257135017179
 30
0.0
 10
-22.76183986455142
 20
-3.939546701675012
 30
0.0
  0
LINE
  5
109
330
1F
100
AcDbEntity
  8
SK1
  6
Continuous
100
AcDbLine
 10
-21.9248070233
 20
5.3108176866
 30
0.0
 11
3.0473721046
 21
6.6543942125
 31
0.0
  0
LINE
  5
10A
330
1F
100
AcDbEntity
  8
SK3
100
AcDbLine
 10
-22.3785571497
 20
4.1933235434
 30
0.0
 11
12.26
 21
4.1933235434
 31
0.0
  0
ELLIPSE
  5
10B
330
1F
100
AcDbEntity
  8
SK1
  6
Continuous
100
AcDbEllipse
 10
51.5492454618
 20
0.3695519131
 30
0.0
 11
-74.59999999291929
 21
-3.288813125966503E-10
 31
0.0
210
0.0
220
0.0
230
1.0
 40
0.3826834324
 41
-0.1739612070909509
 42
-0.1504181765183432
  0
ELLIPSE
  5
10C
330
1F
100
AcDbEntity
  8
SK1
  6
Continuous
100
AcDbEllipse
 10
-76.7144558105
 20
0.2828428147
 30
0.0
 11
74.59999998035633
 21
-4.774736494125337E-9
 31
0.0
210
0.0
220
0.0
230
1.0
 40
0.7071067813
 41
0.1987062220383433
 42
0.2088808539622468
  0
SPLINE
  5
10D
330
1F
100
AcDbEntity
  8
SK3
100
AcDbSpline
210
0.0
220
0.0
230
1.0
 70
     8
 71
     3
 72
    35
 73
    31
 74
     0
 42
0.0000000091767838
 43
0.0000000001
 12
1.0
 22
0.0
 32
0.0
 13
1.0
 23
0.0
 33
0.0
 40
0.0
 40
0.0
 40
0.0
 40
0.0
 40
0.1083883755863073
 40
0.1083883755863073
 40
0.1083883755863073
 40
0.2168179999571546
 40
0.2168179999571546
 40
0.2168179999571546
 40
0.3246404001976355
 40
0.3246404001976355
 40
0.3246404001976355
 40
0.4317872473300094
 40
0.4317872473300094
 40
0.4317872473300094
 40
0.5000273449599661
 40
0.5000273449599661
 40
0.5000273449599661
 40
0.6067241577127389
 40
0.6067241577127389
 40
0.6067241577127389
 40
0.7134119558140098
 40
0.7134119558140098
 40
0.7134119558140098
 40
0.8202451688318869
 40
0.8202451688318869
 40
0.8202451688318869
 40
0.9275322533740964
 40
0.9275322533740964
 40
0.9275322533740964
 40
1.0
 40
1.0
 40
1.0
 40
1.0
 10
-2.786653211690117
 20
6.782566080358357
 30
0.0
 10
-2.741345814665182
 20
6.782566080358357
 30
0.0
 10
-2.695411392531304
 20
6.788287732486017
 30
0.0
 10
-2.652647934518951
 20
6.799263617166789
 30
0.0
 10
-2.609874862927263
 20
6.81024196931729
 30
0.0
 10
-2.569092371182907
 20
6.826783194090621
 30
0.0
 10
-2.53374152457827
 20
6.8474477694483
 30
0.0
 10
-2.498587127062518
 20
6.867997509168614
 30
0.0
 10
-2.467828600796472
 20
6.89319251748729
 30
0.0
 10
-2.444068396630745
 20
6.920833272049233
 30
0.0
 10
-2.420454374728663
 20
6.948303969651965
 30
0.0
 10
-2.403097400591825
 20
6.978947228059737
 30
0.0
 10
-2.393456431567009
 20
7.010139264056503
 30
0.0
 10
-2.387263803858072
 20
7.030174663601356
 30
0.0
 10
-2.384112093598303
 20
7.050725349356589
 30
0.0
 10
-2.384112093598303
 20
7.071067911636174
 30
0.0
 10
-2.384112093598303
 20
7.102608246526402
 30
0.0
 10
-2.391813607487801
 20
7.134360885234432
 30
0.0
 10
-2.406573817198061
 20
7.163729092350811
 30
0.0
 10
-2.421333340466798
 20
7.193095933662964
 30
0.0
 10
-2.443556433609434
 20
7.220890126996975
 30
0.0
 10
-2.471392522661874
 20
7.244911973705329
 30
0.0
 10
-2.499267745340329
 20
7.26896759175144
 30
0.0
 10
-2.533533995541522
 20
7.289905315597941
 30
0.0
 10
-2.571352713923241
 20
7.306131389425775
 30
0.0
 10
-2.609332455560974
 20
7.322426550080234
 30
0.0
 10
-2.651929966987757
 20
7.334421703360945
 30
0.0
 10
-2.695644666246571
 20
7.341247326282232
 30
0.0
 10
-2.725398773433498
 20
7.345893139234418
 30
0.0
 10
-2.75612257539869
 20
7.348251505307594
 30
0.0
 10
-2.786653211690117
 20
7.348251505307595
 30
0.0
  0
SPLINE
  5
10E
330
1F
100
AcDbEntity
  8
SK1
  6
Continuous
100
AcDbSpline
210
0.0
220
0.0
230
1.0
 70
     8
 71
     3
 72
    35
 73
    31
 74
     0
 42
0.0000000092457244
 43
0.0000000001
 12
1.0
 22
0.0
 32
0.0
 13
1.0
 23
0.0
 33
0.0
 40
0.0
 40
0.0
 40
0.0
 40
0.0
 40
0.1076873144994245
 40
0.1076873144994245
 40
0.1076873144994245
 40
0.2153859646719072
 40
0.2153859646719072
 40
0.2153859646719072
 40
0.3229211770831074
 40
0.3229211770831074
 40
0.3229211770831074
 40
0.4302974370948164
 40
0.4302974370948164
 40
0.4302974370948164
 40
0.5000063759059434
 40
0.5000063759059434
 40
0.5000063759059434
 40
0.6072943446396721
 40
0.6072943446396721
 40
0.6072943446396721
 40
0.714580735037296
 40
0.714580735037296
 40
0.714580735037296
 40
0.8218927724991485
 40
0.8218927724991485
 40
0.8218927724991485
 40
0.9292995131762495
 40
0.9292995131762495
 40
0.9292995131762495
 40
1.0
 40
1.0
 40
1.0
 40
1.0
 10
-3.735991324229845
 20
11.22139203854112
 30
0.0
 10
-3.691530379695964
 20
11.22581192744152
 30
0.0
 10
-3.646483917846107
 20
11.22496462470737
 30
0.0
 10
-3.604576299426382
 20
11.21888652697288
 30
0.0
 10
-3.562666046495063
 20
11.21280804714034
 30
0.0
 10
-3.522738413629952
 20
11.2013268563028
 30
0.0
 10
-3.488104890183539
 20
11.18533057995861
 30
0.0
 10
-3.453523374076317
 20
11.16935832438063
 30
0.0
 10
-3.423264198387482
 20
11.14843983019727
 30
0.0
 10
-3.39983187825952
 20
11.12424261834114
 30
0.0
 10
-3.376433513498363
 20
11.10008047024309
 30
0.0
 10
-3.359195250863201
 20
11.07197931003759
 30
0.0
 10
-3.349538750650313
 20
11.04222256540185
 30
0.0
 10
-3.343217909001928
 20
11.02274473527008
 30
0.0
 10
-3.340000000001156
 20
11.00227923123484
 30
0.0
 10
-3.340000000001156
 20
10.98155808631215
 30
0.0
 10
-3.340000000001156
 20
10.94992730589487
 30
0.0
 10
-3.347618441150341
 20
10.916959069162
 30
0.0
 10
-3.362228347636307
 20
10.88540535972543
 30
0.0
 10
-3.376838136568125
 20
10.85385190417615
 30
0.0
 10
-3.39884247652328
 20
10.82284497585947
 30
0.0
 10
-3.426428906886121
 20
10.79500489239854
 30
0.0
 10
-3.454022215766305
 20
10.76715786717333
 30
0.0
 10
-3.487960741559365
 20
10.7417152247803
 30
0.0
 10
-3.525446613184478
 20
10.72083997446527
 30
0.0
 10
-3.562965835687055
 20
10.69994615160851
 30
0.0
 10
-3.605070934507805
 20
10.68305527562237
 30
0.0
 10
-3.648290735419573
 20
10.67159765123846
 30
0.0
 10
-3.676969597924268
 20
10.66399484818513
 30
0.0
 10
-3.706564389522367
 20
10.65863196264711
 30
0.0
 10
-3.735991324229873
 20
10.65570661359188
 30
0.0
  0
SPLINE
  5
10F
330
1F
100
AcDbEntity
  8
SK3
100
AcDbSpline
210
0.0
220
0.0
230
1.0
 70
     8
 71
     3
 72
     8
 73
     4
 74
     0
 42
0.0000002670703985
 43
0.0000000001
 12
1.0
 22
0.0
 32
0.0
 13
1.0
 23
0.0
 33
0.0
 40
0.0
 40
0.0
 40
0.0
 40
0.0
 40
1.0
 40
1.0
 40
1.0
 40
1.0
 10
-2.38411209359829
 20
-7.071067712094779
 30
0.0
 10
-2.38411209359829
 20
-7.083475929939935
 30
0.0
 10
-2.385304055354964
 20
-7.095917006004298
 30
0.0
 10
-2.387648839176329
 20
-7.108232831129113
 30
0.0
  0
LINE
  5
110
330
1F
100
AcDbEntity
  8
SK1
  6
Continuous
100
AcDbLine
 10
3.0473721046
 20
16.4279549475
 30
0.0
 11
-3.34
 21
15.5302683403
 31
0.0
  0
LINE
  5
111
330
1F
100
AcDbEntity
  8
SK1
  6
Continuous
100
AcDbLine
 10
-3.34
 20
-15.5302681408
 30
0.0
 11
3.0473721046
 21
-16.4279547479
 31
0.0
  0
LINE
  5
112
330
1F
100
AcDbEntity
  8
SK3
100
AcDbLine
 10
-2.3841120936
 20
-9.9999999002
 30
0.0
 11
12.26
 21
-9.9999999002
 31
0.0
  0
LINE
  5
113
330
1F
100
AcDbEntity
  8
SK3
100
AcDbLine
 10
12.26
 20
10.0000000998
 30
0.0
 11
-2.3841120936
 21
10.0000000998
 31
0.0
  0
LINE
  5
114
330
1F
100
AcDbEntity
  8
SK1
  6
Continuous
100
AcDbLine
 10
7.16
 20
-16.4999999002
 30
0.0
 11
7.4631088913
 21
-16.4999999002
 31
0.0
  0
ARC
  5
115
330
1F
100
AcDbEntity
  8
SK3
100
AcDbCircle
 10
12.26
 20
-10.3999999002
 30
0.0
 40
0.3999999999999991
100
AcDbArc
 50
0.0
 51
90.0
  0
ARC
  5
116
330
1F
100
AcDbEntity
  8
SK1
  6
Continuous
100
AcDbCircle
 10
12.41
 20
-13.3552358524
 30
0.0
 40
0.2500000000000023
100
AcDbArc
 50
300.0
 51
0.0
  0
ARC
  5
117
330
1F
100
AcDbEntity
  8
SK1
  6
Continuous
100
AcDbCircle
 10
3.11
 20
-15.982334117
 30
0.0
 40
0.4500000000000015
100
AcDbArc
 50
262.0
 51
0.0
  0
ARC
  5
118
330
1F
100
AcDbEntity
  8
SK1
  6
Continuous
100
AcDbCircle
 10
6.96
 20
-14.7999999002
 30
0.0
 40
0.199999999999999
100
AcDbArc
 50
0.0
 51
90.0
  0
ARC
  5
119
330
1F
100
AcDbEntity
  8
SK1
  6
Continuous
100
AcDbCircle
 10
3.76
 20
-14.7999999002
 30
0.0
 40
0.1999999999999994
100
AcDbArc
 50
90.0
 51
180.0
  0
LINE
  5
11A
330
1F
100
AcDbEntity
  8
SK1
  6
Continuous
100
AcDbLine
 10
3.76
 20
-14.5999999002
 30
0.0
 11
6.96
 21
-14.5999999002
 31
0.0
  0
LINE
  5
11B
330
1F
100
AcDbEntity
  8
SK1
  6
Continuous
100
AcDbLine
 10
7.4631088913
 20
-16.4999999002
 30
0.0
 11
12.535
 21
-13.5717422033
 31
0.0
  0
LINE
  5
11C
330
1F
100
AcDbEntity
  8
SK1
  6
Continuous
100
AcDbLine
 10
7.4631088913
 20
16.5000000998
 30
0.0
 11
7.16
 21
16.5000000998
 31
0.0
  0
ARC
  5
11D
330
1F
100
AcDbEntity
  8
SK3
100
AcDbCircle
 10
12.26
 20
10.4000000998
 30
0.0
 40
0.3999999999999976
100
AcDbArc
 50
270.0
 51
0.0
  0
ARC
  5
11E
330
1F
100
AcDbEntity
  8
SK1
  6
Continuous
100
AcDbCircle
 10
12.41
 20
13.3552360519
 30
0.0
 40
0.2500000000000002
100
AcDbArc
 50
0.0
 51
60.0
  0
ARC
  5
11F
330
1F
100
AcDbEntity
  8
SK1
  6
Continuous
100
AcDbCircle
 10
3.11
 20
15.9823343165
 30
0.0
 40
0.45
100
AcDbArc
 50
0.0
 51
98.0
  0
ARC
  5
120
330
1F
100
AcDbEntity
  8
SK1
  6
Continuous
100
AcDbCircle
 10
6.96
 20
14.8000000998
 30
0.0
 40
0.1999999999999997
100
AcDbArc
 50
270.0
 51
0.0
  0
ARC
  5
121
330
1F
100
AcDbEntity
  8
SK1
  6
Continuous
100
AcDbCircle
 10
3.76
 20
14.8000000998
 30
0.0
 40
0.199999999999999
100
AcDbArc
 50
180.0
 51
270.0
  0
LINE
  5
122
330
1F
100
AcDbEntity
  8
SK1
  6
Continuous
100
AcDbLine
 10
6.96
 20
14.6000000998
 30
0.0
 11
3.76
 21
14.6000000998
 31
0.0
  0
LINE
  5
123
330
1F
100
AcDbEntity
  8
SK1
  6
Continuous
100
AcDbLine
 10
12.535
 20
13.5717424029
 30
0.0
 11
7.4631088913
 21
16.5000000998
 31
0.0
  0
ARC
  5
124
330
1F
100
AcDbEntity
  8
SK3
100
AcDbCircle
 10
39.2742771736
 20
0.2328314121
 30
0.0
 40
62.70608936629544
100
AcDbArc
 50
169.2836120154
 51
171.750112565
  0
ARC
  5
125
330
1F
100
AcDbEntity
  8
SK3
100
AcDbCircle
 10
-76.7144558302
 20
0.0000000998
 30
0.0
 40
75.00000000000001
100
AcDbArc
 50
348.0492930523
 51
352.3377506195
  0
ARC
  5
126
330
1F
100
AcDbEntity
  8
SK3
100
AcDbCircle
 10
-76.7144558302
 20
0.0000000998
 30
0.0
 40
75.00000000000001
100
AcDbArc
 50
7.6622500306
 51
11.9507057577
  0
ARC
  5
127
330
1F
100
AcDbEntity
  8
SK3
100
AcDbCircle
 10
39.176869771
 20
-0.2484378822
 30
0.0
 40
62.60745057345886
100
AcDbArc
 50
188.2485438786
 51
190.718424537
  0
ARC
  5
128
330
1F
100
AcDbEntity
  8
SK3
100
AcDbCircle
 10
-40.9016323174
 20
0.2255473932
 30
0.0
 40
39.20593680286385
100
AcDbArc
 50
343.3040184533
 51
349.2184765449
  0
ARC
  5
129
330
1F
100
AcDbEntity
  8
SK3
100
AcDbCircle
 10
-10.2570730138
 20
0.4551444907
 30
0.0
 40
13.25455555977026
100
AcDbArc
 50
199.3291568651
 51
204.6101221445
  0
ARC
  5
12A
330
1F
100
AcDbEntity
  8
SK3
100
AcDbCircle
 10
-10.2401202746
 20
-0.4616240003
 30
0.0
 40
13.2726974762769
100
AcDbArc
 50
155.3960009401
 51
160.6686709165
  0
ARC
  5
12B
330
1F
100
AcDbEntity
  8
SK3
100
AcDbCircle
 10
-40.911871889
 20
-0.2265111222
 30
0.0
 40
39.2161154978152
100
AcDbArc
 50
10.7804484555
 51
16.6928111806
  0
LINE
  5
12C
330
1F
100
AcDbEntity
  8
SK1
  6
Continuous
100
AcDbLine
 10
0.0
 20
15.9996747282
 30
0.0
 11
0.0
 21
-15.9996745287
 31
0.0
  0
LINE
  5
12E
330
1F
100
AcDbEntity
  8
SK4
  6
Continuous
100
AcDbLine
 10
12.66
 20
0.0000000998
 30
0.0
 11
-27.34
 21
0.0000000998
 31
0.0
  0
DIMENSION
  5
144
330
1F
100
AcDbEntity
  8
SK2
  6
Continuous
 62
   136
100
AcDbDimension
  2
DMBLK97
 10
12.66
 20
24.8076994598
 30
0.0
 11
-7.340000447
 21
24.8076994598
 31
0.0
 70
   160
  1
\A1;<>
 71
     5
 42
-1.0
  3
DIN
100
AcDbAlignedDimension
 13
-27.34
 23
11.8897757188
 33
0.0
 14
12.66
 24
12.180020447
 34
0.0
100
AcDbRotatedDimension
  0
INSERT
  5
158
330
1F
100
AcDbEntity
  8
SK2
 62
     7
100
AcDbBlockReference
  2
Nullpunkt
 10
0.0
 20
0.0000000998
 30
0.0
  0
INSERT
  5
163
330
1F
100
AcDbEntity
  8
SK2
 62
     7
100
AcDbBlockReference
  2
Einfügepunkt
 10
12.66
 20
0.0000000998
 30
0.0
  0
DIMENSION
  5
164
330
1F
100
AcDbEntity
  8
SK2
  6
Continuous
 62
   136
100
AcDbDimension
  2
DMBLK98
 10
21.4989602214
 20
-9.9999999002
 30
0.0
 11
21.4989602214
 21
-0.0000001237
 31
0.0
 70
   161
  1
\A1;ø <>
 71
     5
 42
-1.0
  3
DIN
100
AcDbAlignedDimension
 13
12.26
 23
-9.9999999002
 33
0.0
 14
12.26
 24
10.0000000998
 34
0.0
  0
DIMENSION
  5
16F
330
1F
100
AcDbEntity
  8
SK2
  6
Continuous
 62
   136
100
AcDbDimension
  2
DMBLK99
 10
12.66
 20
-24.2783517687
 30
0.0
 11
6.329999771
 21
-24.2783517687
 31
0.0
 70
   160
  1
\A1;<>
 71
     5
 42
-1.0
  3
DIN
100
AcDbAlignedDimension
 13
0.0
 23
-15.9996745287
 33
0.0
 14
12.66
 24
-12.1800202475
 34
0.0
100
AcDbRotatedDimension
  0
DIMENSION
  5
179
330
1F
100
AcDbEntity
  8
SK2
  6
Continuous
 62
   136
100
AcDbDimension
  2
DMBLK100
 10
-37.3400002718
 20
15.9996747282
 30
0.0
 11
-37.3400002718
 21
-0.0000000688
 31
0.0
 70
   161
  1
\A1;ø <>
 71
     5
 42
-1.0
  3
DIN
100
AcDbAlignedDimension
 13
0.0
 23
15.9996747282
 33
0.0
 14
0.0
 24
-15.9996745287
 34
0.0
  0
ENDSEC
  0
SECTION
  2
OBJECTS
  0
DICTIONARY
  5
C
330
0
100
AcDbDictionary
281
     1
  3
ACAD_GROUP
350
D
  3
ACAD_LAYOUT
350
1A
  3
ACAD_MATERIAL
350
3B
  3
ACAD_MLEADERSTYLE
350
186
  3
ACAD_MLINESTYLE
350
17
  3
ACAD_PLOTSETTINGS
350
19
  3
ACAD_PLOTSTYLENAME
350
E
  3
ACAD_VISUALSTYLE
350
2A
  3
AcDbVariableDictionary
350
184
  0
DICTIONARY
  5
D
102
{ACAD_REACTORS
330
C
102
}
330
C
100
AcDbDictionary
281
     1
  0
DICTIONARY
  5
1A
102
{ACAD_REACTORS
330
C
102
}
330
C
100
AcDbDictionary
281
     1
  3
Layout1
350
1E
  3
Model
350
22
  0
DICTIONARY
  5
3B
102
{ACAD_REACTORS
330
C
102
}
330
C
100
AcDbDictionary
281
     1
  3
ByBlock
350
3D
  3
ByLayer
350
3C
  3
Global
350
3E
  0
DICTIONARY
  5
186
102
{ACAD_REACTORS
330
C
102
}
330
C
100
AcDbDictionary
281
     1
  0
DICTIONARY
  5
17
102
{ACAD_REACTORS
330
C
102
}
330
C
100
AcDbDictionary
281
     1
  3
Standard
350
18
  0
DICTIONARY
  5
19
102
{ACAD_REACTORS
330
C
102
}
330
C
100
AcDbDictionary
281
     1
  0
ACDBDICTIONARYWDFLT
  5
E
102
{ACAD_REACTORS
330
C
102
}
330
C
100
AcDbDictionary
281
     1
  3
Normal
350
F
100
AcDbDictionaryWithDefault
340
F
  0
DICTIONARY
  5
2A
102
{ACAD_REACTORS
330
C
102
}
330
C
100
AcDbDictionary
281
     1
  3
2dWireframe
350
2F
  3
3D Hidden
350
31
  3
3dWireframe
350
30
  3
Basic
350
32
  3
Brighten
350
36
  3
ColorChange
350
3A
  3
Conceptual
350
34
  3
Dim
350
35
  3
Facepattern
350
39
  3
Flat
350
2B
  3
FlatWithEdges
350
2C
  3
Gouraud
350
2D
  3
GouraudWithEdges
350
2E
  3
Linepattern
350
38
  3
Realistic
350
33
  3
Thicken
350
37
  0
DICTIONARY
  5
184
102
{ACAD_REACTORS
330
C
102
}
330
C
100
AcDbDictionary
281
     1
  3
DIMASSOC
350
189
  3
HIDETEXT
350
18A
  3
PSOLHEIGHT
350
188
  3
PSOLWIDTH
350
187
  0
LAYOUT
  5
1E
102
{ACAD_REACTORS
330
1A
102
}
330
1A
100
AcDbPlotSettings
  1

  2
none_device
  4

  6

 40
0.0
 41
0.0
 42
0.0
 43
0.0
 44
0.0
 45
0.0
 46
0.0
 47
0.0
 48
0.0
 49
0.0
140
0.0
141
0.0
142
1.0
143
1.0
 70
   688
 72
     0
 73
     0
 74
     5
  7

 75
    16
147
1.0
148
0.0
149
0.0
100
AcDbLayout
  1
Layout1
 70
     1
 71
     1
 10
0.0
 20
0.0
 11
210.0
 21
297.0
 12
0.0
 22
0.0
 32
0.0
 14
0.0
 24
0.0
 34
0.0
 15
210.0
 25
297.0
 35
0.0
146
0.0
 13
0.0
 23
0.0
 33
0.0
 16
1.0
 26
0.0
 36
0.0
 17
0.0
 27
1.0
 37
0.0
 76
     0
330
1B
  0
LAYOUT
  5
22
102
{ACAD_REACTORS
330
1A
102
}
330
1A
100
AcDbPlotSettings
  1

  2
none_device
  4

  6

 40
0.0
 41
0.0
 42
0.0
 43
0.0
 44
0.0
 45
0.0
 46
0.0
 47
0.0
 48
0.0
 49
0.0
140
0.0
141
0.0
142
1.0
143
1.0
 70
  1712
 72
     0
 73
     0
 74
     0
  7

 75
     0
147
1.0
148
0.0
149
0.0
100
AcDbLayout
  1
Model
 70
     1
 71
     0
 10
0.0
 20
0.0
 11
210.0
 21
297.0
 12
0.0
 22
0.0
 32
0.0
 14
0.0
 24
0.0
 34
0.0
 15
210.0
 25
297.0
 35
0.0
146
0.0
 13
0.0
 23
0.0
 33
0.0
 16
1.0
 26
0.0
 36
0.0
 17
0.0
 27
1.0
 37
0.0
 76
     0
330
1F
331
29
  0
MATERIAL
  5
3D
102
{ACAD_REACTORS
330
3B
102
}
102
{ACAD_XDICTIONARY
360
1AD
102
}
330
3B
100
AcDbMaterial
  1
ByBlock
  0
MATERIAL
  5
3C
102
{ACAD_REACTORS
330
3B
102
}
102
{ACAD_XDICTIONARY
360
1AB
102
}
330
3B
100
AcDbMaterial
  1
ByLayer
  0
MATERIAL
  5
3E
102
{ACAD_REACTORS
330
3B
102
}
102
{ACAD_XDICTIONARY
360
1AF
102
}
330
3B
100
AcDbMaterial
  1
Global
  0
MLINESTYLE
  5
18
102
{ACAD_REACTORS
330
17
102
}
330
17
100
AcDbMlineStyle
  2
Standard
 70
     0
  3

 62
   256
 51
90.0
 52
90.0
 71
     2
 49
0.5
 62
   256
  6
BYLAYER
 49
-0.5
 62
   256
  6
BYLAYER
  0
ACDBPLACEHOLDER
  5
F
102
{ACAD_REACTORS
330
E
102
}
330
E
  0
VISUALSTYLE
  5
2F
102
{ACAD_REACTORS
330
2A
102
}
102
{ACAD_XDICTIONARY
360
193
102
}
330
2A
100
AcDbVisualStyle
  2
2dWireframe
 70
     4
 71
     0
 72
     2
 73
     0
 90
        0
 40
-0.6
 41
-30.0
 62
     5
 63
     7
 74
     1
 91
        4
 64
     7
 65
   257
 75
     1
175
     1
 42
1.0
 92
        0
 66
   257
 43
1.0
 76
     1
 77
     6
 78
     2
 67
     7
 79
     5
170
     0
171
     0
290
     0
174
     0
 93
        1
 44
0.0
173
     0
291
     0
 45
0.0
1001
ACAD
1000
AcDbSavedByObjectVersion
1070
     0
  0
VISUALSTYLE
  5
31
102
{ACAD_REACTORS
330
2A
102
}
102
{ACAD_XDICTIONARY
360
197
102
}
330
2A
100
AcDbVisualStyle
  2
3D Hidden
 70
     6
 71
     1
 72
     2
 73
     2
 90
        0
 40
-0.6
 41
-30.0
 62
     5
 63
     7
 74
     2
 91
        2
 64
     7
 65
   257
 75
     2
175
     1
 42
40.0
 92
        0
 66
   257
 43
1.0
 76
     1
 77
     6
 78
     2
 67
     7
 79
     3
170
     0
171
     0
290
     0
174
     0
 93
        1
 44
0.0
173
     0
291
     0
 45
0.0
1001
ACAD
1000
AcDbSavedByObjectVersion
1070
     0
  0
VISUALSTYLE
  5
30
102
{ACAD_REACTORS
330
2A
102
}
102
{ACAD_XDICTIONARY
360
195
102
}
330
2A
100
AcDbVisualStyle
  2
3dWireframe
 70
     5
 71
     0
 72
     2
 73
     0
 90
        0
 40
-0.6
 41
-30.0
 62
     5
 63
     7
 74
     1
 91
        4
 64
     7
 65
   257
 75
     1
175
     1
 42
1.0
 92
        0
 66
   257
 43
1.0
 76
     1
 77
     6
 78
     2
 67
     7
 79
     5
170
     0
171
     0
290
     0
174
     0
 93
        1
 44
0.0
173
     0
291
     0
 45
0.0
1001
ACAD
1000
AcDbSavedByObjectVersion
1070
     0
  0
VISUALSTYLE
  5
32
102
{ACAD_REACTORS
330
2A
102
}
102
{ACAD_XDICTIONARY
360
199
102
}
330
2A
100
AcDbVisualStyle
  2
Basic
 70
     7
 71
     1
 72
     0
 73
     1
 90
        0
 40
-0.6
 41
-30.0
 62
     5
 63
     7
 74
     0
 91
        4
 64
     7
 65
   257
 75
     1
175
     1
 42
1.0
 92
        8
 66
     7
 43
1.0
 76
     1
 77
     6
 78
     2
 67
     7
 79
     5
170
     0
171
     0
290
     0
174
     0
 93
        1
 44
0.0
173
     0
291
     1
 45
0.0
1001
ACAD
1000
AcDbSavedByObjectVersion
1070
     0
  0
VISUALSTYLE
  5
36
102
{ACAD_REACTORS
330
2A
102
}
102
{ACAD_XDICTIONARY
360
1A1
102
}
330
2A
100
AcDbVisualStyle
  2
Brighten
 70
    12
 71
     2
 72
     2
 73
     0
 90
        0
 40
-0.6
 41
-30.0
 62
     5
 63
     7
 74
     1
 91
        4
 64
     7
 65
   257
 75
     1
175
     1
 42
1.0
 92
        8
 66
     7
 43
1.0
 76
     1
 77
     6
 78
     2
 67
     7
 79
     5
170
     0
171
     0
290
     0
174
     0
 93
        1
 44
50.0
173
     0
291
     1
 45
0.0
1001
ACAD
1000
AcDbSavedByObjectVersion
1070
     0
  0
VISUALSTYLE
  5
3A
102
{ACAD_REACTORS
330
2A
102
}
102
{ACAD_XDICTIONARY
360
1A9
102
}
330
2A
100
AcDbVisualStyle
  2
ColorChange
 70
    16
 71
     2
 72
     2
 73
     3
 90
        0
 40
-0.6
 41
-30.0
 62
     5
 63
     8
 74
     1
 91
        4
 64
     7
 65
   257
 75
     1
175
     1
 42
1.0
 92
        8
 66
     8
 43
1.0
 76
     1
 77
     6
 78
     2
 67
     7
 79
     5
170
     0
171
     0
290
     0
174
     0
 93
        1
 44
0.0
173
     0
291
     1
 45
0.0
1001
ACAD
1000
AcDbSavedByObjectVersion
1070
     0
  0
VISUALSTYLE
  5
34
102
{ACAD_REACTORS
330
2A
102
}
102
{ACAD_XDICTIONARY
360
19D
102
}
330
2A
100
AcDbVisualStyle
  2
Conceptual
 70
     9
 71
     3
 72
     2
 73
     0
 90
        0
 40
-0.6
 41
-30.0
 62
     5
 63
     7
 74
     2
 91
        2
 64
     7
 65
   257
 75
     1
175
     1
 42
40.0
 92
        8
 66
     7
 43
1.0
 76
     1
 77
     6
 78
     2
 67
     7
 79
     3
170
     0
171
     0
290
     0
174
     0
 93
        1
 44
0.0
173
     0
291
     0
 45
0.0
1001
ACAD
1000
AcDbSavedByObjectVersion
1070
     0
  0
VISUALSTYLE
  5
35
102
{ACAD_REACTORS
330
2A
102
}
102
{ACAD_XDICTIONARY
360
19F
102
}
330
2A
100
AcDbVisualStyle
  2
Dim
 70
    11
 71
     2
 72
     2
 73
     0
 90
        0
 40
-0.6
 41
-30.0
 62
     5
 63
     7
 74
     1
 91
        4
 64
     7
 65
   257
 75
     1
175
     1
 42
1.0
 92
        8
 66
     7
 43
1.0
 76
     1
 77
     6
 78
     2
 67
     7
 79
     5
170
     0
171
     0
290
     0
174
     0
 93
        1
 44
-50.0
173
     0
291
     1
 45
0.0
1001
ACAD
1000
AcDbSavedByObjectVersion
1070
     0
  0
VISUALSTYLE
  5
39
102
{ACAD_REACTORS
330
2A
102
}
102
{ACAD_XDICTIONARY
360
1A7
102
}
330
2A
100
AcDbVisualStyle
  2
Facepattern
 70
    15
 71
     2
 72
     2
 73
     0
 90
        0
 40
-0.6
 41
-30.0
 62
     5
 63
     7
 74
     1
 91
        4
 64
     7
 65
   257
 75
     1
175
     1
 42
1.0
 92
        8
 66
     7
 43
1.0
 76
     1
 77
     6
 78
     2
 67
     7
 79
     5
170
     0
171
     0
290
     0
174
     0
 93
        1
 44
0.0
173
     0
291
     1
 45
0.0
1001
ACAD
1000
AcDbSavedByObjectVersion
1070
     0
  0
VISUALSTYLE
  5
2B
102
{ACAD_REACTORS
330
2A
102
}
102
{ACAD_XDICTIONARY
360
18B
102
}
330
2A
100
AcDbVisualStyle
  2
Flat
 70
     0
 71
     2
 72
     1
 73
     1
 90
        2
 40
-0.6
 41
30.0
 62
     5
 63
     7
 74
     0
 91
        4
 64
     7
 65
   257
 75
     1
175
     1
 42
1.0
 92
        8
 66
     7
 43
1.0
 76
     1
 77
     6
 78
     2
 67
     7
 79
     5
170
     0
171
     0
290
     0
174
     0
 93
       13
 44
0.0
173
     0
291
     1
 45
0.0
1001
ACAD
1000
AcDbSavedByObjectVersion
1070
     0
  0
VISUALSTYLE
  5
2C
102
{ACAD_REACTORS
330
2A
102
}
102
{ACAD_XDICTIONARY
360
18D
102
}
330
2A
100
AcDbVisualStyle
  2
FlatWithEdges
 70
     1
 71
     2
 72
     1
 73
     1
 90
        2
 40
-0.6
 41
30.0
 62
     5
 63
     7
 74
     1
 91
        4
 64
     7
 65
   257
 75
     1
175
     1
 42
1.0
 92
        0
 66
   257
 43
1.0
 76
     1
 77
     6
 78
     2
 67
     7
 79
     5
170
     0
171
     0
290
     0
174
     0
 93
       13
 44
0.0
173
     0
291
     1
 45
0.0
1001
ACAD
1000
AcDbSavedByObjectVersion
1070
     0
  0
VISUALSTYLE
  5
2D
102
{ACAD_REACTORS
330
2A
102
}
102
{ACAD_XDICTIONARY
360
18F
102
}
330
2A
100
AcDbVisualStyle
  2
Gouraud
 70
     2
 71
     2
 72
     2
 73
     1
 90
        2
 40
-0.6
 41
30.0
 62
     5
 63
     7
 74
     0
 91
        4
 64
     7
 65
   257
 75
     1
175
     1
 42
1.0
 92
        0
 66
     7
 43
1.0
 76
     1
 77
     6
 78
     2
 67
     7
 79
     5
170
     0
171
     0
290
     0
174
     0
 93
       13
 44
0.0
173
     0
291
     1
 45
0.0
1001
ACAD
1000
AcDbSavedByObjectVersion
1070
     0
  0
VISUALSTYLE
  5
2E
102
{ACAD_REACTORS
330
2A
102
}
102
{ACAD_XDICTIONARY
360
191
102
}
330
2A
100
AcDbVisualStyle
  2
GouraudWithEdges
 70
     3
 71
     2
 72
     2
 73
     1
 90
        2
 40
-0.6
 41
30.0
 62
     5
 63
     7
 74
     1
 91
        4
 64
     7
 65
   257
 75
     1
175
     1
 42
1.0
 92
        0
 66
   257
 43
1.0
 76
     1
 77
     6
 78
     2
 67
     7
 79
     5
170
     0
171
     0
290
     0
174
     0
 93
       13
 44
0.0
173
     0
291
     1
 45
0.0
1001
ACAD
1000
AcDbSavedByObjectVersion
1070
     0
  0
VISUALSTYLE
  5
38
102
{ACAD_REACTORS
330
2A
102
}
102
{ACAD_XDICTIONARY
360
1A5
102
}
330
2A
100
AcDbVisualStyle
  2
Linepattern
 70
    14
 71
     2
 72
     2
 73
     0
 90
        0
 40
-0.6
 41
-30.0
 62
     5
 63
     7
 74
     1
 91
        4
 64
     7
 65
   257
 75
     7
175
     7
 42
1.0
 92
        8
 66
     7
 43
1.0
 76
     1
 77
     6
 78
     2
 67
     7
 79
     5
170
     0
171
     0
290
     0
174
     0
 93
        1
 44
0.0
173
     0
291
     1
 45
0.0
1001
ACAD
1000
AcDbSavedByObjectVersion
1070
     0
  0
VISUALSTYLE
  5
33
102
{ACAD_REACTORS
330
2A
102
}
102
{ACAD_XDICTIONARY
360
19B
102
}
330
2A
100
AcDbVisualStyle
  2
Realistic
 70
     8
 71
     2
 72
     2
 73
     0
 90
        0
 40
-0.6
 41
-30.0
 62
     5
 63
     7
 74
     1
 91
        0
 64
     7
 65
   257
 75
     1
175
     1
 42
1.0
 92
        8
 66
     8
 43
1.0
 76
     1
 77
     6
 78
     2
 67
     7
 79
     5
170
     0
171
     0
290
     0
174
     0
 93
       13
 44
0.0
173
     0
291
     0
 45
0.0
1001
ACAD
1000
AcDbSavedByObjectVersion
1070
     0
  0
VISUALSTYLE
  5
37
102
{ACAD_REACTORS
330
2A
102
}
102
{ACAD_XDICTIONARY
360
1A3
102
}
330
2A
100
AcDbVisualStyle
  2
Thicken
 70
    13
 71
     2
 72
     2
 73
     0
 90
        0
 40
-0.6
 41
-30.0
 62
     5
 63
     7
 74
     1
 91
        4
 64
     7
 65
   257
 75
     1
175
     1
 42
1.0
 92
       12
 66
     7
 43
1.0
 76
     1
 77
     6
 78
     2
 67
     7
 79
     5
170
     0
171
     0
290
     0
174
     0
 93
        1
 44
0.0
173
     0
291
     1
 45
0.0
1001
ACAD
1000
AcDbSavedByObjectVersion
1070
     0
  0
DICTIONARYVAR
  5
189
102
{ACAD_REACTORS
330
184
102
}
330
184
100
DictionaryVariables
280
     0
  1
2
  0
DICTIONARYVAR
  5
18A
102
{ACAD_REACTORS
330
184
102
}
330
184
100
DictionaryVariables
280
     0
  1
1
  0
DICTIONARYVAR
  5
188
102
{ACAD_REACTORS
330
184
102
}
330
184
100
DictionaryVariables
280
     0
  1
80.000000
  0
DICTIONARYVAR
  5
187
102
{ACAD_REACTORS
330
184
102
}
330
184
100
DictionaryVariables
280
     0
  1
5.000000
  0
DICTIONARY
  5
1AD
330
3D
100
AcDbDictionary
280
     1
281
     1
  3
ACAD_XREC_ROUNDTRIP
360
1AE
  0
DICTIONARY
  5
1AB
330
3C
100
AcDbDictionary
280
     1
281
     1
  3
ACAD_XREC_ROUNDTRIP
360
1AC
  0
DICTIONARY
  5
1AF
330
3E
100
AcDbDictionary
280
     1
281
     1
  3
ACAD_XREC_ROUNDTRIP
360
1B0
  0
DICTIONARY
  5
193
330
2F
100
AcDbDictionary
280
     1
281
     1
  3
ACAD_XREC_ROUNDTRIP
360
194
  0
DICTIONARY
  5
197
330
31
100
AcDbDictionary
280
     1
281
     1
  3
ACAD_XREC_ROUNDTRIP
360
198
  0
DICTIONARY
  5
195
330
30
100
AcDbDictionary
280
     1
281
     1
  3
ACAD_XREC_ROUNDTRIP
360
196
  0
DICTIONARY
  5
199
330
32
100
AcDbDictionary
280
     1
281
     1
  3
ACAD_XREC_ROUNDTRIP
360
19A
  0
DICTIONARY
  5
1A1
330
36
100
AcDbDictionary
280
     1
281
     1
  3
ACAD_XREC_ROUNDTRIP
360
1A2
  0
DICTIONARY
  5
1A9
330
3A
100
AcDbDictionary
280
     1
281
     1
  3
ACAD_XREC_ROUNDTRIP
360
1AA
  0
DICTIONARY
  5
19D
330
34
100
AcDbDictionary
280
     1
281
     1
  3
ACAD_XREC_ROUNDTRIP
360
19E
  0
DICTIONARY
  5
19F
330
35
100
AcDbDictionary
280
     1
281
     1
  3
ACAD_XREC_ROUNDTRIP
360
1A0
  0
DICTIONARY
  5
1A7
330
39
100
AcDbDictionary
280
     1
281
     1
  3
ACAD_XREC_ROUNDTRIP
360
1A8
  0
DICTIONARY
  5
18B
330
2B
100
AcDbDictionary
280
     1
281
     1
  3
ACAD_XREC_ROUNDTRIP
360
18C
  0
DICTIONARY
  5
18D
330
2C
100
AcDbDictionary
280
     1
281
     1
  3
ACAD_XREC_ROUNDTRIP
360
18E
  0
DICTIONARY
  5
18F
330
2D
100
AcDbDictionary
280
     1
281
     1
  3
ACAD_XREC_ROUNDTRIP
360
190
  0
DICTIONARY
  5
191
330
2E
100
AcDbDictionary
280
     1
281
     1
  3
ACAD_XREC_ROUNDTRIP
360
192
  0
DICTIONARY
  5
1A5
330
38
100
AcDbDictionary
280
     1
281
     1
  3
ACAD_XREC_ROUNDTRIP
360
1A6
  0
DICTIONARY
  5
19B
330
33
100
AcDbDictionary
280
     1
281
     1
  3
ACAD_XREC_ROUNDTRIP
360
19C
  0
DICTIONARY
  5
1A3
330
37
100
AcDbDictionary
280
     1
281
     1
  3
ACAD_XREC_ROUNDTRIP
360
1A4
  0
XRECORD
  5
1AE
102
{ACAD_REACTORS
330
1AD
102
}
330
1AD
100
AcDbXrecord
280
     1
102
MATERIAL
148
0.0
149
0.0
149
0.0
 93
        0
 94
      127
282
     0
 72
     1
 77
     1
171
     1
175
     1
179
     1
273
     0
  0
XRECORD
  5
1AC
102
{ACAD_REACTORS
330
1AB
102
}
330
1AB
100
AcDbXrecord
280
     1
102
MATERIAL
148
0.0
149
0.0
149
0.0
 93
        0
 94
      127
282
     0
 72
     1
 77
     1
171
     1
175
     1
179
     1
273
     0
  0
XRECORD
  5
1B0
102
{ACAD_REACTORS
330
1AF
102
}
330
1AF
100
AcDbXrecord
280
     1
102
MATERIAL
148
0.0
149
0.0
149
0.0
 93
        0
 94
      127
282
     0
 72
     1
 77
     1
171
     1
175
     1
179
     1
273
     0
  0
XRECORD
  5
194
102
{ACAD_REACTORS
330
193
102
}
330
193
100
AcDbXrecord
280
     1
102
RTVSPropertyOp0
 70
     1
102
RTVSPropertyOp1
 70
     1
102
RTVSPropertyOp2
 70
     1
102
RTVSPropertyOp3
 70
     1
102
RTVSPropertyOp4
 70
     1
102
RTVSPropertyOp5
 70
     1
102
RTVSPropertyOp6
 70
     1
102
RTVSPropertyOp7
 70
     1
102
RTVSPropertyOp8
 70
     1
102
RTVSPropertyOp9
 70
     1
102
RTVSPropertyOp10
 70
     1
102
RTVSPropertyOp11
 70
     1
102
RTVSPropertyOp12
 70
     1
102
RTVSPropertyOp13
 70
     1
102
RTVSPropertyOp14
 70
     1
102
RTVSPropertyOp15
 70
     1
102
RTVSPropertyOp16
 70
     1
102
RTVSPropertyOp17
 70
     1
102
RTVSPropertyOp18
 70
     1
102
RTVSPropertyOp19
 70
     1
102
RTVSPropertyOp20
 70
     1
102
RTVSPropertyOp21
 70
     1
102
RTVSPropertyOp22
 70
     1
102
RTVSPropertyOp23
 70
     1
102
RTVSPropertyOp24
 70
     1
102
RTVSPropertyOp25
 70
     1
102
RTVSPropertyOp26
 70
     1
102
RTVSPropertyOp27
 70
     1
102
RTVSPropertyOp28
 70
     1
102
RTVSPropertyOp29
 70
     1
102
RTVSPropertyOp30
 70
     1
102
RTVSPropertyOp31
 70
     1
102
RTVSPropertyOp32
 70
     1
  0
XRECORD
  5
198
102
{ACAD_REACTORS
330
197
102
}
330
197
100
AcDbXrecord
280
     1
102
RTVSPropertyOp0
 70
     1
102
RTVSPropertyOp1
 70
     1
102
RTVSPropertyOp2
 70
     1
102
RTVSPropertyOp3
 70
     1
102
RTVSPropertyOp4
 70
     1
102
RTVSPropertyOp5
 70
     1
102
RTVSPropertyOp6
 70
     1
102
RTVSPropertyOp7
 70
     1
102
RTVSPropertyOp8
 70
     1
102
RTVSPropertyOp9
 70
     1
102
RTVSPropertyOp10
 70
     1
102
RTVSPropertyOp11
 70
     1
102
RTVSPropertyOp12
 70
     1
102
RTVSPropertyOp13
 70
     1
102
RTVSPropertyOp14
 70
     1
102
RTVSPropertyOp15
 70
     1
102
RTVSPropertyOp16
 70
     1
102
RTVSPropertyOp17
 70
     1
102
RTVSPropertyOp18
 70
     1
102
RTVSPropertyOp19
 70
     1
102
RTVSPropertyOp20
 70
     1
102
RTVSPropertyOp21
 70
     1
102
RTVSPropertyOp22
 70
     1
102
RTVSPropertyOp23
 70
     1
102
RTVSPropertyOp24
 70
     1
102
RTVSPropertyOp25
 70
     1
102
RTVSPropertyOp26
 70
     1
102
RTVSPropertyOp27
 70
     1
102
RTVSPropertyOp28
 70
     1
102
RTVSPropertyOp29
 70
     1
102
RTVSPropertyOp30
 70
     1
102
RTVSPropertyOp31
 70
     1
102
RTVSPropertyOp32
 70
     1
  0
XRECORD
  5
196
102
{ACAD_REACTORS
330
195
102
}
330
195
100
AcDbXrecord
280
     1
102
RTVSPropertyOp0
 70
     1
102
RTVSPropertyOp1
 70
     1
102
RTVSPropertyOp2
 70
     1
102
RTVSPropertyOp3
 70
     1
102
RTVSPropertyOp4
 70
     1
102
RTVSPropertyOp5
 70
     1
102
RTVSPropertyOp6
 70
     1
102
RTVSPropertyOp7
 70
     1
102
RTVSPropertyOp8
 70
     1
102
RTVSPropertyOp9
 70
     1
102
RTVSPropertyOp10
 70
     1
102
RTVSPropertyOp11
 70
     1
102
RTVSPropertyOp12
 70
     1
102
RTVSPropertyOp13
 70
     1
102
RTVSPropertyOp14
 70
     1
102
RTVSPropertyOp15
 70
     1
102
RTVSPropertyOp16
 70
     1
102
RTVSPropertyOp17
 70
     1
102
RTVSPropertyOp18
 70
     1
102
RTVSPropertyOp19
 70
     1
102
RTVSPropertyOp20
 70
     1
102
RTVSPropertyOp21
 70
     1
102
RTVSPropertyOp22
 70
     1
102
RTVSPropertyOp23
 70
     1
102
RTVSPropertyOp24
 70
     1
102
RTVSPropertyOp25
 70
     1
102
RTVSPropertyOp26
 70
     1
102
RTVSPropertyOp27
 70
     1
102
RTVSPropertyOp28
 70
     1
102
RTVSPropertyOp29
 70
     1
102
RTVSPropertyOp30
 70
     1
102
RTVSPropertyOp31
 70
     1
102
RTVSPropertyOp32
 70
     1
  0
XRECORD
  5
19A
102
{ACAD_REACTORS
330
199
102
}
330
199
100
AcDbXrecord
280
     1
102
RTVSPropertyOp0
 70
     1
102
RTVSPropertyOp1
 70
     1
102
RTVSPropertyOp2
 70
     1
102
RTVSPropertyOp3
 70
     1
102
RTVSPropertyOp4
 70
     1
102
RTVSPropertyOp5
 70
     1
102
RTVSPropertyOp6
 70
     1
102
RTVSPropertyOp7
 70
     1
102
RTVSPropertyOp8
 70
     1
102
RTVSPropertyOp9
 70
     1
102
RTVSPropertyOp10
 70
     1
102
RTVSPropertyOp11
 70
     1
102
RTVSPropertyOp12
 70
     1
102
RTVSPropertyOp13
 70
     1
102
RTVSPropertyOp14
 70
     1
102
RTVSPropertyOp15
 70
     1
102
RTVSPropertyOp16
 70
     1
102
RTVSPropertyOp17
 70
     1
102
RTVSPropertyOp18
 70
     1
102
RTVSPropertyOp19
 70
     1
102
RTVSPropertyOp20
 70
     1
102
RTVSPropertyOp21
 70
     1
102
RTVSPropertyOp22
 70
     1
102
RTVSPropertyOp23
 70
     1
102
RTVSPropertyOp24
 70
     1
102
RTVSPropertyOp25
 70
     1
102
RTVSPropertyOp26
 70
     1
102
RTVSPropertyOp27
 70
     1
102
RTVSPropertyOp28
 70
     1
102
RTVSPropertyOp29
 70
     1
102
RTVSPropertyOp30
 70
     1
102
RTVSPropertyOp31
 70
     1
102
RTVSPropertyOp32
 70
     1
  0
XRECORD
  5
1A2
102
{ACAD_REACTORS
330
1A1
102
}
330
1A1
100
AcDbXrecord
280
     1
102
RTVSPropertyOp0
 70
     1
102
RTVSPropertyOp1
 70
     1
102
RTVSPropertyOp2
 70
     1
102
RTVSPropertyOp3
 70
     1
102
RTVSPropertyOp4
 70
     1
102
RTVSPropertyOp5
 70
     1
102
RTVSPropertyOp6
 70
     1
102
RTVSPropertyOp7
 70
     1
102
RTVSPropertyOp8
 70
     1
102
RTVSPropertyOp9
 70
     1
102
RTVSPropertyOp10
 70
     1
102
RTVSPropertyOp11
 70
     1
102
RTVSPropertyOp12
 70
     1
102
RTVSPropertyOp13
 70
     1
102
RTVSPropertyOp14
 70
     1
102
RTVSPropertyOp15
 70
     1
102
RTVSPropertyOp16
 70
     1
102
RTVSPropertyOp17
 70
     1
102
RTVSPropertyOp18
 70
     1
102
RTVSPropertyOp19
 70
     1
102
RTVSPropertyOp20
 70
     1
102
RTVSPropertyOp21
 70
     1
102
RTVSPropertyOp22
 70
     1
102
RTVSPropertyOp23
 70
     1
102
RTVSPropertyOp24
 70
     1
102
RTVSPropertyOp25
 70
     1
102
RTVSPropertyOp26
 70
     1
102
RTVSPropertyOp27
 70
     1
102
RTVSPropertyOp28
 70
     1
102
RTVSPropertyOp29
 70
     1
102
RTVSPropertyOp30
 70
     1
102
RTVSPropertyOp31
 70
     1
102
RTVSPropertyOp32
 70
     1
  0
XRECORD
  5
1AA
102
{ACAD_REACTORS
330
1A9
102
}
330
1A9
100
AcDbXrecord
280
     1
102
RTVSPropertyOp0
 70
     1
102
RTVSPropertyOp1
 70
     1
102
RTVSPropertyOp2
 70
     1
102
RTVSPropertyOp3
 70
     1
102
RTVSPropertyOp4
 70
     1
102
RTVSPropertyOp5
 70
     1
102
RTVSPropertyOp6
 70
     1
102
RTVSPropertyOp7
 70
     1
102
RTVSPropertyOp8
 70
     1
102
RTVSPropertyOp9
 70
     1
102
RTVSPropertyOp10
 70
     1
102
RTVSPropertyOp11
 70
     1
102
RTVSPropertyOp12
 70
     1
102
RTVSPropertyOp13
 70
     1
102
RTVSPropertyOp14
 70
     1
102
RTVSPropertyOp15
 70
     1
102
RTVSPropertyOp16
 70
     1
102
RTVSPropertyOp17
 70
     1
102
RTVSPropertyOp18
 70
     1
102
RTVSPropertyOp19
 70
     1
102
RTVSPropertyOp20
 70
     1
102
RTVSPropertyOp21
 70
     1
102
RTVSPropertyOp22
 70
     1
102
RTVSPropertyOp23
 70
     1
102
RTVSPropertyOp24
 70
     1
102
RTVSPropertyOp25
 70
     1
102
RTVSPropertyOp26
 70
     1
102
RTVSPropertyOp27
 70
     1
102
RTVSPropertyOp28
 70
     1
102
RTVSPropertyOp29
 70
     1
102
RTVSPropertyOp30
 70
     1
102
RTVSPropertyOp31
 70
     1
102
RTVSPropertyOp32
 70
     1
  0
XRECORD
  5
19E
102
{ACAD_REACTORS
330
19D
102
}
330
19D
100
AcDbXrecord
280
     1
102
RTVSPropertyOp0
 70
     1
102
RTVSPropertyOp1
 70
     1
102
RTVSPropertyOp2
 70
     1
102
RTVSPropertyOp3
 70
     1
102
RTVSPropertyOp4
 70
     1
102
RTVSPropertyOp5
 70
     1
102
RTVSPropertyOp6
 70
     1
102
RTVSPropertyOp7
 70
     1
102
RTVSPropertyOp8
 70
     1
102
RTVSPropertyOp9
 70
     1
102
RTVSPropertyOp10
 70
     1
102
RTVSPropertyOp11
 70
     1
102
RTVSPropertyOp12
 70
     1
102
RTVSPropertyOp13
 70
     1
102
RTVSPropertyOp14
 70
     1
102
RTVSPropertyOp15
 70
     1
102
RTVSPropertyOp16
 70
     1
102
RTVSPropertyOp17
 70
     1
102
RTVSPropertyOp18
 70
     1
102
RTVSPropertyOp19
 70
     1
102
RTVSPropertyOp20
 70
     1
102
RTVSPropertyOp21
 70
     1
102
RTVSPropertyOp22
 70
     1
102
RTVSPropertyOp23
 70
     1
102
RTVSPropertyOp24
 70
     1
102
RTVSPropertyOp25
 70
     1
102
RTVSPropertyOp26
 70
     1
102
RTVSPropertyOp27
 70
     1
102
RTVSPropertyOp28
 70
     1
102
RTVSPropertyOp29
 70
     1
102
RTVSPropertyOp30
 70
     1
102
RTVSPropertyOp31
 70
     1
102
RTVSPropertyOp32
 70
     1
  0
XRECORD
  5
1A0
102
{ACAD_REACTORS
330
19F
102
}
330
19F
100
AcDbXrecord
280
     1
102
RTVSPropertyOp0
 70
     1
102
RTVSPropertyOp1
 70
     1
102
RTVSPropertyOp2
 70
     1
102
RTVSPropertyOp3
 70
     1
102
RTVSPropertyOp4
 70
     1
102
RTVSPropertyOp5
 70
     1
102
RTVSPropertyOp6
 70
     1
102
RTVSPropertyOp7
 70
     1
102
RTVSPropertyOp8
 70
     1
102
RTVSPropertyOp9
 70
     1
102
RTVSPropertyOp10
 70
     1
102
RTVSPropertyOp11
 70
     1
102
RTVSPropertyOp12
 70
     1
102
RTVSPropertyOp13
 70
     1
102
RTVSPropertyOp14
 70
     1
102
RTVSPropertyOp15
 70
     1
102
RTVSPropertyOp16
 70
     1
102
RTVSPropertyOp17
 70
     1
102
RTVSPropertyOp18
 70
     1
102
RTVSPropertyOp19
 70
     1
102
RTVSPropertyOp20
 70
     1
102
RTVSPropertyOp21
 70
     1
102
RTVSPropertyOp22
 70
     1
102
RTVSPropertyOp23
 70
     1
102
RTVSPropertyOp24
 70
     1
102
RTVSPropertyOp25
 70
     1
102
RTVSPropertyOp26
 70
     1
102
RTVSPropertyOp27
 70
     1
102
RTVSPropertyOp28
 70
     1
102
RTVSPropertyOp29
 70
     1
102
RTVSPropertyOp30
 70
     1
102
RTVSPropertyOp31
 70
     1
102
RTVSPropertyOp32
 70
     1
  0
XRECORD
  5
1A8
102
{ACAD_REACTORS
330
1A7
102
}
330
1A7
100
AcDbXrecord
280
     1
102
RTVSPropertyOp0
 70
     1
102
RTVSPropertyOp1
 70
     1
102
RTVSPropertyOp2
 70
     1
102
RTVSPropertyOp3
 70
     1
102
RTVSPropertyOp4
 70
     1
102
RTVSPropertyOp5
 70
     1
102
RTVSPropertyOp6
 70
     1
102
RTVSPropertyOp7
 70
     1
102
RTVSPropertyOp8
 70
     1
102
RTVSPropertyOp9
 70
     1
102
RTVSPropertyOp10
 70
     1
102
RTVSPropertyOp11
 70
     1
102
RTVSPropertyOp12
 70
     1
102
RTVSPropertyOp13
 70
     1
102
RTVSPropertyOp14
 70
     1
102
RTVSPropertyOp15
 70
     1
102
RTVSPropertyOp16
 70
     1
102
RTVSPropertyOp17
 70
     1
102
RTVSPropertyOp18
 70
     1
102
RTVSPropertyOp19
 70
     1
102
RTVSPropertyOp20
 70
     1
102
RTVSPropertyOp21
 70
     1
102
RTVSPropertyOp22
 70
     1
102
RTVSPropertyOp23
 70
     1
102
RTVSPropertyOp24
 70
     1
102
RTVSPropertyOp25
 70
     1
102
RTVSPropertyOp26
 70
     1
102
RTVSPropertyOp27
 70
     1
102
RTVSPropertyOp28
 70
     1
102
RTVSPropertyOp29
 70
     1
102
RTVSPropertyOp30
 70
     1
102
RTVSPropertyOp31
 70
     1
102
RTVSPropertyOp32
 70
     1
  0
XRECORD
  5
18C
102
{ACAD_REACTORS
330
18B
102
}
330
18B
100
AcDbXrecord
280
     1
102
RTVSPropertyOp0
 70
     1
102
RTVSPropertyOp1
 70
     1
102
RTVSPropertyOp2
 70
     1
102
RTVSPropertyOp3
 70
     1
102
RTVSPropertyOp4
 70
     1
102
RTVSPropertyOp5
 70
     1
102
RTVSPropertyOp6
 70
     1
102
RTVSPropertyOp7
 70
     1
102
RTVSPropertyOp8
 70
     1
102
RTVSPropertyOp9
 70
     1
102
RTVSPropertyOp10
 70
     1
102
RTVSPropertyOp11
 70
     1
102
RTVSPropertyOp12
 70
     1
102
RTVSPropertyOp13
 70
     1
102
RTVSPropertyOp14
 70
     1
102
RTVSPropertyOp15
 70
     1
102
RTVSPropertyOp16
 70
     1
102
RTVSPropertyOp17
 70
     1
102
RTVSPropertyOp18
 70
     1
102
RTVSPropertyOp19
 70
     1
102
RTVSPropertyOp20
 70
     1
102
RTVSPropertyOp21
 70
     1
102
RTVSPropertyOp22
 70
     1
102
RTVSPropertyOp23
 70
     1
102
RTVSPropertyOp24
 70
     1
102
RTVSPropertyOp25
 70
     1
102
RTVSPropertyOp26
 70
     1
102
RTVSPropertyOp27
 70
     1
102
RTVSPropertyOp28
 70
     1
102
RTVSPropertyOp29
 70
     1
102
RTVSPropertyOp30
 70
     1
102
RTVSPropertyOp31
 70
     1
102
RTVSPropertyOp32
 70
     1
  0
XRECORD
  5
18E
102
{ACAD_REACTORS
330
18D
102
}
330
18D
100
AcDbXrecord
280
     1
102
RTVSPropertyOp0
 70
     1
102
RTVSPropertyOp1
 70
     1
102
RTVSPropertyOp2
 70
     1
102
RTVSPropertyOp3
 70
     1
102
RTVSPropertyOp4
 70
     1
102
RTVSPropertyOp5
 70
     1
102
RTVSPropertyOp6
 70
     1
102
RTVSPropertyOp7
 70
     1
102
RTVSPropertyOp8
 70
     1
102
RTVSPropertyOp9
 70
     1
102
RTVSPropertyOp10
 70
     1
102
RTVSPropertyOp11
 70
     1
102
RTVSPropertyOp12
 70
     1
102
RTVSPropertyOp13
 70
     1
102
RTVSPropertyOp14
 70
     1
102
RTVSPropertyOp15
 70
     1
102
RTVSPropertyOp16
 70
     1
102
RTVSPropertyOp17
 70
     1
102
RTVSPropertyOp18
 70
     1
102
RTVSPropertyOp19
 70
     1
102
RTVSPropertyOp20
 70
     1
102
RTVSPropertyOp21
 70
     1
102
RTVSPropertyOp22
 70
     1
102
RTVSPropertyOp23
 70
     1
102
RTVSPropertyOp24
 70
     1
102
RTVSPropertyOp25
 70
     1
102
RTVSPropertyOp26
 70
     1
102
RTVSPropertyOp27
 70
     1
102
RTVSPropertyOp28
 70
     1
102
RTVSPropertyOp29
 70
     1
102
RTVSPropertyOp30
 70
     1
102
RTVSPropertyOp31
 70
     1
102
RTVSPropertyOp32
 70
     1
  0
XRECORD
  5
190
102
{ACAD_REACTORS
330
18F
102
}
330
18F
100
AcDbXrecord
280
     1
102
RTVSPropertyOp0
 70
     1
102
RTVSPropertyOp1
 70
     1
102
RTVSPropertyOp2
 70
     1
102
RTVSPropertyOp3
 70
     1
102
RTVSPropertyOp4
 70
     1
102
RTVSPropertyOp5
 70
     1
102
RTVSPropertyOp6
 70
     1
102
RTVSPropertyOp7
 70
     1
102
RTVSPropertyOp8
 70
     1
102
RTVSPropertyOp9
 70
     1
102
RTVSPropertyOp10
 70
     1
102
RTVSPropertyOp11
 70
     1
102
RTVSPropertyOp12
 70
     1
102
RTVSPropertyOp13
 70
     1
102
RTVSPropertyOp14
 70
     1
102
RTVSPropertyOp15
 70
     1
102
RTVSPropertyOp16
 70
     1
102
RTVSPropertyOp17
 70
     1
102
RTVSPropertyOp18
 70
     1
102
RTVSPropertyOp19
 70
     1
102
RTVSPropertyOp20
 70
     1
102
RTVSPropertyOp21
 70
     1
102
RTVSPropertyOp22
 70
     1
102
RTVSPropertyOp23
 70
     1
102
RTVSPropertyOp24
 70
     1
102
RTVSPropertyOp25
 70
     1
102
RTVSPropertyOp26
 70
     1
102
RTVSPropertyOp27
 70
     1
102
RTVSPropertyOp28
 70
     1
102
RTVSPropertyOp29
 70
     1
102
RTVSPropertyOp30
 70
     1
102
RTVSPropertyOp31
 70
     1
102
RTVSPropertyOp32
 70
     1
  0
XRECORD
  5
192
102
{ACAD_REACTORS
330
191
102
}
330
191
100
AcDbXrecord
280
     1
102
RTVSPropertyOp0
 70
     1
102
RTVSPropertyOp1
 70
     1
102
RTVSPropertyOp2
 70
     1
102
RTVSPropertyOp3
 70
     1
102
RTVSPropertyOp4
 70
     1
102
RTVSPropertyOp5
 70
     1
102
RTVSPropertyOp6
 70
     1
102
RTVSPropertyOp7
 70
     1
102
RTVSPropertyOp8
 70
     1
102
RTVSPropertyOp9
 70
     1
102
RTVSPropertyOp10
 70
     1
102
RTVSPropertyOp11
 70
     1
102
RTVSPropertyOp12
 70
     1
102
RTVSPropertyOp13
 70
     1
102
RTVSPropertyOp14
 70
     1
102
RTVSPropertyOp15
 70
     1
102
RTVSPropertyOp16
 70
     1
102
RTVSPropertyOp17
 70
     1
102
RTVSPropertyOp18
 70
     1
102
RTVSPropertyOp19
 70
     1
102
RTVSPropertyOp20
 70
     1
102
RTVSPropertyOp21
 70
     1
102
RTVSPropertyOp22
 70
     1
102
RTVSPropertyOp23
 70
     1
102
RTVSPropertyOp24
 70
     1
102
RTVSPropertyOp25
 70
     1
102
RTVSPropertyOp26
 70
     1
102
RTVSPropertyOp27
 70
     1
102
RTVSPropertyOp28
 70
     1
102
RTVSPropertyOp29
 70
     1
102
RTVSPropertyOp30
 70
     1
102
RTVSPropertyOp31
 70
     1
102
RTVSPropertyOp32
 70
     1
  0
XRECORD
  5
1A6
102
{ACAD_REACTORS
330
1A5
102
}
330
1A5
100
AcDbXrecord
280
     1
102
RTVSPropertyOp0
 70
     1
102
RTVSPropertyOp1
 70
     1
102
RTVSPropertyOp2
 70
     1
102
RTVSPropertyOp3
 70
     1
102
RTVSPropertyOp4
 70
     1
102
RTVSPropertyOp5
 70
     1
102
RTVSPropertyOp6
 70
     1
102
RTVSPropertyOp7
 70
     1
102
RTVSPropertyOp8
 70
     1
102
RTVSPropertyOp9
 70
     1
102
RTVSPropertyOp10
 70
     1
102
RTVSPropertyOp11
 70
     1
102
RTVSPropertyOp12
 70
     1
102
RTVSPropertyOp13
 70
     1
102
RTVSPropertyOp14
 70
     1
102
RTVSPropertyOp15
 70
     1
102
RTVSPropertyOp16
 70
     1
102
RTVSPropertyOp17
 70
     1
102
RTVSPropertyOp18
 70
     1
102
RTVSPropertyOp19
 70
     1
102
RTVSPropertyOp20
 70
     1
102
RTVSPropertyOp21
 70
     1
102
RTVSPropertyOp22
 70
     1
102
RTVSPropertyOp23
 70
     1
102
RTVSPropertyOp24
 70
     1
102
RTVSPropertyOp25
 70
     1
102
RTVSPropertyOp26
 70
     1
102
RTVSPropertyOp27
 70
     1
102
RTVSPropertyOp28
 70
     1
102
RTVSPropertyOp29
 70
     1
102
RTVSPropertyOp30
 70
     1
102
RTVSPropertyOp31
 70
     1
102
RTVSPropertyOp32
 70
     1
  0
XRECORD
  5
19C
102
{ACAD_REACTORS
330
19B
102
}
330
19B
100
AcDbXrecord
280
     1
102
RTVSPropertyOp0
 70
     1
102
RTVSPropertyOp1
 70
     1
102
RTVSPropertyOp2
 70
     1
102
RTVSPropertyOp3
 70
     1
102
RTVSPropertyOp4
 70
     1
102
RTVSPropertyOp5
 70
     1
102
RTVSPropertyOp6
 70
     1
102
RTVSPropertyOp7
 70
     1
102
RTVSPropertyOp8
 70
     1
102
RTVSPropertyOp9
 70
     1
102
RTVSPropertyOp10
 70
     1
102
RTVSPropertyOp11
 70
     1
102
RTVSPropertyOp12
 70
     1
102
RTVSPropertyOp13
 70
     1
102
RTVSPropertyOp14
 70
     1
102
RTVSPropertyOp15
 70
     1
102
RTVSPropertyOp16
 70
     1
102
RTVSPropertyOp17
 70
     1
102
RTVSPropertyOp18
 70
     1
102
RTVSPropertyOp19
 70
     1
102
RTVSPropertyOp20
 70
     1
102
RTVSPropertyOp21
 70
     1
102
RTVSPropertyOp22
 70
     1
102
RTVSPropertyOp23
 70
     1
102
RTVSPropertyOp24
 70
     1
102
RTVSPropertyOp25
 70
     1
102
RTVSPropertyOp26
 70
     1
102
RTVSPropertyOp27
 70
     1
102
RTVSPropertyOp28
 70
     1
102
RTVSPropertyOp29
 70
     1
102
RTVSPropertyOp30
 70
     1
102
RTVSPropertyOp31
 70
     1
102
RTVSPropertyOp32
 70
     1
  0
XRECORD
  5
1A4
102
{ACAD_REACTORS
330
1A3
102
}
330
1A3
100
AcDbXrecord
280
     1
102
RTVSPropertyOp0
 70
     1
102
RTVSPropertyOp1
 70
     1
102
RTVSPropertyOp2
 70
     1
102
RTVSPropertyOp3
 70
     1
102
RTVSPropertyOp4
 70
     1
102
RTVSPropertyOp5
 70
     1
102
RTVSPropertyOp6
 70
     1
102
RTVSPropertyOp7
 70
     1
102
RTVSPropertyOp8
 70
     1
102
RTVSPropertyOp9
 70
     1
102
RTVSPropertyOp10
 70
     1
102
RTVSPropertyOp11
 70
     1
102
RTVSPropertyOp12
 70
     1
102
RTVSPropertyOp13
 70
     1
102
RTVSPropertyOp14
 70
     1
102
RTVSPropertyOp15
 70
     1
102
RTVSPropertyOp16
 70
     1
102
RTVSPropertyOp17
 70
     1
102
RTVSPropertyOp18
 70
     1
102
RTVSPropertyOp19
 70
     1
102
RTVSPropertyOp20
 70
     1
102
RTVSPropertyOp21
 70
     1
102
RTVSPropertyOp22
 70
     1
102
RTVSPropertyOp23
 70
     1
102
RTVSPropertyOp24
 70
     1
102
RTVSPropertyOp25
 70
     1
102
RTVSPropertyOp26
 70
     1
102
RTVSPropertyOp27
 70
     1
102
RTVSPropertyOp28
 70
     1
102
RTVSPropertyOp29
 70
     1
102
RTVSPropertyOp30
 70
     1
102
RTVSPropertyOp31
 70
     1
102
RTVSPropertyOp32
 70
     1
  0
ENDSEC
  0
EOF
