  0
SECTION
  2
HEADER
  9
$ACADVER
  1
AC1015
  9
$ACADMAINTVER
 70
     6
  9
$DWGCODEPAGE
  3
ANSI_1252
  9
$INSBASE
 10
0.0
 20
0.0
 30
0.0
  9
$EXTMIN
 10
0.0
 20
0.0
 30
0.0
  9
$EXTMAX
 10
210.0
 20
297.0
 30
0.0
  9
$LIMMIN
 10
0.0
 20
0.0
  9
$LIMMAX
 10
210.0
 20
297.0
  9
$ORTHOMODE
 70
     0
  9
$REGENMODE
 70
     1
  9
$FILLMODE
 70
     1
  9
$QTEXTMODE
 70
     0
  9
$MIRRTEXT
 70
     1
  9
$LTSCALE
 40
1.0
  9
$ATTMODE
 70
     1
  9
$TEXTSIZE
 40
2.5
  9
$TRACEWID
 40
1.0
  9
$TEXTSTYLE
  7
Standard
  9
$CLAYER
  8
0
  9
$CELTYPE
  6
ByLayer
  9
$CECOLOR
 62
   256
  9
$CELTSCALE
 40
1.0
  9
$DISPSILH
 70
     0
  9
$DIMSCALE
 40
1.0
  9
$DIMASZ
 40
2.5
  9
$DIMEXO
 40
0.625
  9
$DIMDLI
 40
3.75
  9
$DIMRND
 40
0.0
  9
$DIMDLE
 40
0.0
  9
$DIMEXE
 40
1.25
  9
$DIMTP
 40
0.0
  9
$DIMTM
 40
0.0
  9
$DIMTXT
 40
2.5
  9
$DIMCEN
 40
2.5
  9
$DIMTSZ
 40
0.0
  9
$DIMTOL
 70
     0
  9
$DIMLIM
 70
     0
  9
$DIMTIH
 70
     0
  9
$DIMTOH
 70
     0
  9
$DIMSE1
 70
     0
  9
$DIMSE2
 70
     0
  9
$DIMTAD
 70
     1
  9
$DIMZIN
 70
     8
  9
$DIMBLK
  1

  9
$DIMASO
 70
     1
  9
$DIMSHO
 70
     1
  9
$DIMPOST
  1

  9
$DIMAPOST
  1

  9
$DIMALT
 70
     0
  9
$DIMALTD
 70
     3
  9
$DIMALTF
 40
0.0393700787
  9
$DIMLFAC
 40
1.0
  9
$DIMTOFL
 70
     1
  9
$DIMTVP
 40
0.0
  9
$DIMTIX
 70
     0
  9
$DIMSOXD
 70
     0
  9
$DIMSAH
 70
     0
  9
$DIMBLK1
  1

  9
$DIMBLK2
  1

  9
$DIMSTYLE
  2
ISO-25
  9
$DIMCLRD
 70
     0
  9
$DIMCLRE
 70
     0
  9
$DIMCLRT
 70
     0
  9
$DIMTFAC
 40
1.0
  9
$DIMGAP
 40
0.625
  9
$DIMJUST
 70
     0
  9
$DIMSD1
 70
     0
  9
$DIMSD2
 70
     0
  9
$DIMTOLJ
 70
     0
  9
$DIMTZIN
 70
     8
  9
$DIMALTZ
 70
     0
  9
$DIMALTTZ
 70
     0
  9
$DIMUPT
 70
     0
  9
$DIMDEC
 70
     2
  9
$DIMTDEC
 70
     2
  9
$DIMALTU
 70
     2
  9
$DIMALTTD
 70
     3
  9
$DIMTXSTY
  7
Standard
  9
$DIMAUNIT
 70
     0
  9
$DIMADEC
 70
     0
  9
$DIMALTRND
 40
0.0
  9
$DIMAZIN
 70
     0
  9
$DIMDSEP
 70
    44
  9
$DIMATFIT
 70
     3
  9
$DIMFRAC
 70
     0
  9
$DIMLDRBLK
  1

  9
$DIMLUNIT
 70
     2
  9
$DIMLWD
 70
    -2
  9
$DIMLWE
 70
    -2
  9
$DIMTMOVE
 70
     0
  9
$LUNITS
 70
     2
  9
$LUPREC
 70
     4
  9
$SKETCHINC
 40
1.0
  9
$FILLETRAD
 40
10.0
  9
$AUNITS
 70
     0
  9
$AUPREC
 70
     0
  9
$MENU
  1
.
  9
$ELEVATION
 40
0.0
  9
$PELEVATION
 40
0.0
  9
$THICKNESS
 40
0.0
  9
$LIMCHECK
 70
     0
  9
$CHAMFERA
 40
10.0
  9
$CHAMFERB
 40
10.0
  9
$CHAMFERC
 40
20.0
  9
$CHAMFERD
 40
0.0
  9
$SKPOLY
 70
     0
  9
$TDCREATE
 40
2457564.605864028
  9
$TDUCREATE
 40
2457564.522530694
  9
$TDUPDATE
 40
2457564.605865289
  9
$TDUUPDATE
 40
2457564.522531956
  9
$TDINDWG
 40
0.0000000116
  9
$TDUSRTIMER
 40
0.0000000116
  9
$USRTIMER
 70
     1
  9
$ANGBASE
 50
0.0
  9
$ANGDIR
 70
     0
  9
$PDMODE
 70
     0
  9
$PDSIZE
 40
0.0
  9
$PLINEWID
 40
0.0
  9
$SPLFRAME
 70
     0
  9
$SPLINETYPE
 70
     6
  9
$SPLINESEGS
 70
     8
  9
$HANDSEED
  5
1AE
  9
$SURFTAB1
 70
     6
  9
$SURFTAB2
 70
     6
  9
$SURFTYPE
 70
     6
  9
$SURFU
 70
     6
  9
$SURFV
 70
     6
  9
$UCSBASE
  2

  9
$UCSNAME
  2

  9
$UCSORG
 10
0.0
 20
0.0
 30
0.0
  9
$UCSXDIR
 10
1.0
 20
0.0
 30
0.0
  9
$UCSYDIR
 10
0.0
 20
1.0
 30
0.0
  9
$UCSORTHOREF
  2

  9
$UCSORTHOVIEW
 70
     0
  9
$UCSORGTOP
 10
0.0
 20
0.0
 30
0.0
  9
$UCSORGBOTTOM
 10
0.0
 20
0.0
 30
0.0
  9
$UCSORGLEFT
 10
0.0
 20
0.0
 30
0.0
  9
$UCSORGRIGHT
 10
0.0
 20
0.0
 30
0.0
  9
$UCSORGFRONT
 10
0.0
 20
0.0
 30
0.0
  9
$UCSORGBACK
 10
0.0
 20
0.0
 30
0.0
  9
$PUCSBASE
  2

  9
$PUCSNAME
  2

  9
$PUCSORG
 10
0.0
 20
0.0
 30
0.0
  9
$PUCSXDIR
 10
1.0
 20
0.0
 30
0.0
  9
$PUCSYDIR
 10
0.0
 20
1.0
 30
0.0
  9
$PUCSORTHOREF
  2

  9
$PUCSORTHOVIEW
 70
     0
  9
$PUCSORGTOP
 10
0.0
 20
0.0
 30
0.0
  9
$PUCSORGBOTTOM
 10
0.0
 20
0.0
 30
0.0
  9
$PUCSORGLEFT
 10
0.0
 20
0.0
 30
0.0
  9
$PUCSORGRIGHT
 10
0.0
 20
0.0
 30
0.0
  9
$PUCSORGFRONT
 10
0.0
 20
0.0
 30
0.0
  9
$PUCSORGBACK
 10
0.0
 20
0.0
 30
0.0
  9
$USERI1
 70
     0
  9
$USERI2
 70
     0
  9
$USERI3
 70
     0
  9
$USERI4
 70
     0
  9
$USERI5
 70
     0
  9
$USERR1
 40
0.0
  9
$USERR2
 40
0.0
  9
$USERR3
 40
0.0
  9
$USERR4
 40
0.0
  9
$USERR5
 40
0.0
  9
$WORLDVIEW
 70
     1
  9
$SHADEDGE
 70
     3
  9
$SHADEDIF
 70
    70
  9
$TILEMODE
 70
     1
  9
$MAXACTVP
 70
    64
  9
$PINSBASE
 10
0.0
 20
0.0
 30
0.0
  9
$PLIMCHECK
 70
     0
  9
$PEXTMIN
 10
0.0
 20
0.0
 30
0.0
  9
$PEXTMAX
 10
210.0
 20
297.0
 30
0.0
  9
$PLIMMIN
 10
0.0
 20
0.0
  9
$PLIMMAX
 10
210.0
 20
297.0
  9
$UNITMODE
 70
     0
  9
$VISRETAIN
 70
     1
  9
$PLINEGEN
 70
     0
  9
$PSLTSCALE
 70
     1
  9
$TREEDEPTH
 70
  3020
  9
$CMLSTYLE
  2
Standard
  9
$CMLJUST
 70
     0
  9
$CMLSCALE
 40
20.0
  9
$PROXYGRAPHICS
 70
     1
  9
$MEASUREMENT
 70
     1
  9
$CELWEIGHT
370
    -1
  9
$ENDCAPS
280
     0
  9
$JOINSTYLE
280
     0
  9
$LWDISPLAY
290
     0
  9
$INSUNITS
 70
     4
  9
$HYPERLINKBASE
  1

  9
$STYLESHEET
  1

  9
$XEDIT
290
     1
  9
$CEPSNTYPE
380
     0
  9
$PSTYLEMODE
290
     1
  9
$FINGERPRINTGUID
  2
{33913E5F-68D0-4AA3-9A3B-83A3AA2CB1D7}
  9
$VERSIONGUID
  2
{FAEB1C32-E019-11D5-929B-00C0DF256EC4}
  9
$EXTNAMES
290
     1
  9
$PSVPSCALE
 40
0.0
  9
$OLESTARTUP
290
     0
  0
ENDSEC
  0
SECTION
  2
CLASSES
  0
CLASS
  1
ACDBDICTIONARYWDFLT
  2
AcDbDictionaryWithDefault
  3
ObjectDBX Classes
 90
        0
280
     0
281
     0
  0
CLASS
  1
VISUALSTYLE
  2
AcDbVisualStyle
  3
ObjectDBX Classes
 90
     4095
280
     0
281
     0
  0
CLASS
  1
MATERIAL
  2
AcDbMaterial
  3
ObjectDBX Classes
 90
     1153
280
     0
281
     0
  0
CLASS
  1
DICTIONARYVAR
  2
AcDbDictionaryVar
  3
ObjectDBX Classes
 90
        0
280
     0
281
     0
  0
CLASS
  1
ACDBPLACEHOLDER
  2
AcDbPlaceHolder
  3
ObjectDBX Classes
 90
        0
280
     0
281
     0
  0
CLASS
  1
LAYOUT
  2
AcDbLayout
  3
ObjectDBX Classes
 90
        0
280
     0
281
     0
  0
ENDSEC
  0
SECTION
  2
TABLES
  0
TABLE
  2
VPORT
  5
8
330
0
100
AcDbSymbolTable
 70
     1
  0
VPORT
  5
29
330
8
100
AcDbSymbolTableRecord
100
AcDbViewportTableRecord
  2
*Active
 70
     0
 10
0.0
 20
0.0
 11
1.0
 21
1.0
 12
344.1869158879
 22
148.5
 13
0.0
 23
0.0
 14
10.0
 24
10.0
 15
10.0
 25
10.0
 16
0.0
 26
0.0
 36
1.0
 17
0.0
 27
0.0
 37
0.0
 40
297.0
 41
1.9729729729
 42
50.0
 43
0.0
 44
0.0
 50
0.0
 51
0.0
 71
     0
 72
   100
 73
     1
 74
     3
 75
     0
 76
     0
 77
     0
 78
     0
281
     0
 65
     1
110
0.0
120
0.0
130
0.0
111
1.0
121
0.0
131
0.0
112
0.0
122
1.0
132
0.0
 79
     0
146
0.0
  0
ENDTAB
  0
TABLE
  2
LTYPE
  5
5
330
0
100
AcDbSymbolTable
 70
     2
  0
LTYPE
  5
14
330
5
100
AcDbSymbolTableRecord
100
AcDbLinetypeTableRecord
  2
ByBlock
 70
     0
  3

 72
    65
 73
     0
 40
0.0
  0
LTYPE
  5
15
330
5
100
AcDbSymbolTableRecord
100
AcDbLinetypeTableRecord
  2
ByLayer
 70
     0
  3

 72
    65
 73
     0
 40
0.0
  0
LTYPE
  5
16
330
5
100
AcDbSymbolTableRecord
100
AcDbLinetypeTableRecord
  2
Continuous
 70
     0
  3
Solid line
 72
    65
 73
     0
 40
0.0
  0
LTYPE
  5
43
330
5
100
AcDbSymbolTableRecord
100
AcDbLinetypeTableRecord
  2
HIDDEN2
 70
     0
  3
Hidden (.5x) _ _ _ _ _ _ _ _ _ _ _ _ _ _ _ _ _ 
 72
    65
 73
     2
 40
4.7625
 49
3.175
 74
     4
 75
     0
340
0
 46
0.0
 50
0.0
 44
0.0
 45
0.0
 49
-1.5875
 74
     4
 75
     0
340
0
 46
0.0
 50
0.0
 44
0.0
 45
0.0
  0
ENDTAB
  0
TABLE
  2
LAYER
  5
2
330
0
100
AcDbSymbolTable
 70
     5
  0
LAYER
  5
10
330
2
100
AcDbSymbolTableRecord
100
AcDbLayerTableRecord
  2
0
 70
     0
 62
     7
  6
Continuous
370
    -3
390
F
  0
LAYER
  5
3F
330
2
100
AcDbSymbolTableRecord
100
AcDbLayerTableRecord
  2
SK1
 70
     0
 62
     4
  6
Continuous
370
    18
390
F
  0
LAYER
  5
42
330
2
100
AcDbSymbolTableRecord
100
AcDbLayerTableRecord
  2
SK3
 70
     0
 62
     1
  6
HIDDEN2
370
    15
390
F
  0
LAYER
  5
12A
330
2
100
AcDbSymbolTableRecord
100
AcDbLayerTableRecord
  2
SK4
 70
     0
 62
     2
  6
Continuous
370
    13
390
F
  0
LAYER
  5
12C
330
2
100
AcDbSymbolTableRecord
100
AcDbLayerTableRecord
  2
SK2
 70
     0
 62
     7
  6
Continuous
370
    15
390
F
  0
ENDTAB
  0
TABLE
  2
STYLE
  5
3
330
0
100
AcDbSymbolTable
 70
     2
  0
STYLE
  5
11
330
3
100
AcDbSymbolTableRecord
100
AcDbTextStyleTableRecord
  2
Standard
 70
     0
 40
0.0
 41
1.0
 50
0.0
 71
     0
 42
2.5
  3
txt
  4

  0
STYLE
  5
13F
330
3
100
AcDbSymbolTableRecord
100
AcDbTextStyleTableRecord
  2
SEACAD_Solid_Edge_ISO
 70
     0
 40
0.0
 41
1.0
 50
0.0
 71
     0
 42
0.2
  3
seiso.ttf
  4

1001
ACAD
1000
Solid Edge ISO
1071
        0
  0
ENDTAB
  0
TABLE
  2
VIEW
  5
6
330
0
100
AcDbSymbolTable
 70
     0
  0
ENDTAB
  0
TABLE
  2
UCS
  5
7
330
0
100
AcDbSymbolTable
 70
     0
  0
ENDTAB
  0
TABLE
  2
APPID
  5
9
330
0
100
AcDbSymbolTable
 70
     1
  0
APPID
  5
12
330
9
100
AcDbSymbolTableRecord
100
AcDbRegAppTableRecord
  2
ACAD
 70
     0
  0
ENDTAB
  0
TABLE
  2
DIMSTYLE
  5
A
330
0
100
AcDbSymbolTable
 70
     3
100
AcDbDimStyleTable
  0
DIMSTYLE
105
27
330
A
100
AcDbSymbolTableRecord
100
AcDbDimStyleTableRecord
  2
ISO-25
 70
     0
 41
2.5
 42
0.625
 43
3.75
 44
1.25
 73
     0
 74
     0
 77
     1
 78
     8
140
2.5
141
2.5
143
0.0393700787
147
0.625
171
     3
172
     1
178
     0
271
     2
272
     2
274
     3
278
    44
283
     0
284
     8
340
11
  0
DIMSTYLE
105
12D
330
A
100
AcDbSymbolTableRecord
100
AcDbDimStyleTableRecord
  2
Standard
 70
     0
178
     0
340
11
  0
DIMSTYLE
105
140
102
{ACAD_REACTORS
330
141
330
14B
330
156
330
160
102
}
330
A
100
AcDbSymbolTableRecord
100
AcDbDimStyleTableRecord
  2
DIN
 70
     0
 41
3.5
 42
0.0
 44
1.75
 73
     0
 74
     0
 77
     1
 78
     8
140
3.5
141
1.75
147
1.75
172
     1
173
     1
178
     0
179
     3
271
     2
272
     2
278
    44
284
     8
340
13F
343
13A
344
13A
  0
ENDTAB
  0
TABLE
  2
BLOCK_RECORD
  5
1
330
0
100
AcDbSymbolTable
 70
    10
  0
BLOCK_RECORD
  5
1F
330
1
100
AcDbSymbolTableRecord
100
AcDbBlockTableRecord
  2
*Model_Space
340
22
  0
BLOCK_RECORD
  5
1B
330
1
100
AcDbSymbolTableRecord
100
AcDbBlockTableRecord
  2
*Paper_Space
340
1E
  0
BLOCK_RECORD
  5
12E
330
1
100
AcDbSymbolTableRecord
100
AcDbBlockTableRecord
  2
_OBLIQUE
340
0
  0
BLOCK_RECORD
  5
132
330
1
100
AcDbSymbolTableRecord
100
AcDbBlockTableRecord
  2
_DOT
340
0
  0
BLOCK_RECORD
  5
13A
330
1
100
AcDbSymbolTableRecord
100
AcDbBlockTableRecord
  2
_SE_FILLED
340
0
  0
BLOCK_RECORD
  5
142
330
1
100
AcDbSymbolTableRecord
100
AcDbBlockTableRecord
  2
DMBLK183
340
0
  0
BLOCK_RECORD
  5
14C
330
1
100
AcDbSymbolTableRecord
100
AcDbBlockTableRecord
  2
DMBLK184
340
0
  0
BLOCK_RECORD
  5
157
330
1
100
AcDbSymbolTableRecord
100
AcDbBlockTableRecord
  2
DMBLK185
340
0
  0
BLOCK_RECORD
  5
161
330
1
100
AcDbSymbolTableRecord
100
AcDbBlockTableRecord
  2
DMBLK186
340
0
  0
BLOCK_RECORD
  5
16B
330
1
100
AcDbSymbolTableRecord
100
AcDbBlockTableRecord
  2
Nullpunkt
340
0
102
{BLKREFS
331
175
102
}
  0
BLOCK_RECORD
  5
176
330
1
100
AcDbSymbolTableRecord
100
AcDbBlockTableRecord
  2
Einfügepunkt
340
0
102
{BLKREFS
331
180
102
}
  0
ENDTAB
  0
ENDSEC
  0
SECTION
  2
BLOCKS
  0
BLOCK
  5
20
330
1F
100
AcDbEntity
  8
0
100
AcDbBlockBegin
  2
*Model_Space
 70
     0
 10
0.0
 20
0.0
 30
0.0
  3
*Model_Space
  1

  0
ENDBLK
  5
21
330
1F
100
AcDbEntity
  8
0
100
AcDbBlockEnd
  0
BLOCK
  5
1C
330
1B
100
AcDbEntity
 67
     1
  8
0
100
AcDbBlockBegin
  2
*Paper_Space
 70
     0
 10
0.0
 20
0.0
 30
0.0
  3
*Paper_Space
  1

  0
ENDBLK
  5
1D
330
1B
100
AcDbEntity
 67
     1
  8
0
100
AcDbBlockEnd
  0
BLOCK
  5
12F
330
12E
100
AcDbEntity
  8
0
100
AcDbBlockBegin
  2
_OBLIQUE
 70
     0
 10
0.0
 20
0.0
 30
0.0
  3
_OBLIQUE
  1

  0
LINE
  5
131
330
12E
100
AcDbEntity
  8
0
  6
ByBlock
 62
     0
370
    -2
100
AcDbLine
 10
-0.5
 20
-0.5
 30
0.0
 11
0.5
 21
0.5
 31
0.0
  0
ENDBLK
  5
130
330
12E
100
AcDbEntity
  8
0
100
AcDbBlockEnd
  0
BLOCK
  5
133
330
132
100
AcDbEntity
  8
0
100
AcDbBlockBegin
  2
_DOT
 70
     0
 10
0.0
 20
0.0
 30
0.0
  3
_DOT
  1

  0
POLYLINE
  5
135
330
132
100
AcDbEntity
  8
0
  6
ByBlock
 62
     0
100
AcDb2dPolyline
 66
     1
 10
0.0
 20
0.0
 30
0.0
 70
     1
 40
0.5
 41
0.5
  0
VERTEX
  5
137
330
135
100
AcDbEntity
  8
0
  6
ByBlock
 62
     0
100
AcDbVertex
100
AcDb2dVertex
 10
-0.25
 20
0.0
 30
0.0
 42
1.0
  0
VERTEX
  5
138
330
135
100
AcDbEntity
  8
0
  6
ByBlock
 62
     0
100
AcDbVertex
100
AcDb2dVertex
 10
0.25
 20
0.0
 30
0.0
 42
1.0
  0
SEQEND
  5
139
330
135
100
AcDbEntity
  8
0
  6
ByBlock
 62
     0
  0
LINE
  5
136
330
132
100
AcDbEntity
  8
0
  6
ByBlock
 62
     0
370
    -2
100
AcDbLine
 10
-0.5
 20
0.0
 30
0.0
 11
-1.0
 21
0.0
 31
0.0
  0
ENDBLK
  5
134
330
132
100
AcDbEntity
  8
0
100
AcDbBlockEnd
  0
BLOCK
  5
13D
330
13A
100
AcDbEntity
  8
0
100
AcDbBlockBegin
  2
_SE_FILLED
 70
     0
 10
0.0
 20
0.0
 30
0.0
  3
_SE_FILLED
  1

  0
SOLID
  5
13B
330
13A
100
AcDbEntity
  8
0
 62
     0
100
AcDbTrace
 10
0.0
 20
0.0
 30
0.0
 11
-1.0
 21
-0.1665
 31
0.0
 12
-1.0
 22
0.1665
 32
0.0
 13
0.0
 23
0.0
 33
0.0
  0
LINE
  5
13C
330
13A
100
AcDbEntity
  8
0
 62
     0
100
AcDbLine
 10
0.0
 20
0.0
 30
0.0
 11
-1.0
 21
0.0
 31
0.0
  0
ENDBLK
  5
13E
330
13A
100
AcDbEntity
  8
0
100
AcDbBlockEnd
  0
BLOCK
  5
149
330
142
100
AcDbEntity
  8
0
100
AcDbBlockBegin
  2
DMBLK183
 70
     0
 10
0.0
 20
0.0
 30
0.0
  3
DMBLK183
  1

  0
HATCH
  5
143
330
142
100
AcDbEntity
  8
SK2
  6
Continuous
 62
   136
100
AcDbHatch
 10
0.0
 20
0.0
 30
0.0
210
0.0
220
0.0
230
1.0
  2
SOLID
 70
     1
 71
     0
 91
        1
 92
        1
 93
        3
 72
     1
 10
-16.83999989199153
 20
19.20088042237007
 11
-20.34000000002495
 21
18.61754707103117
 72
     1
 10
-20.34000000002495
 20
18.61754707103117
 11
-16.83999989199153
 21
18.03421371969226
 72
     1
 10
-16.83999989199153
 20
18.03421371969226
 11
-16.83999989199153
 21
19.20088042237007
 97
        0
 75
     0
 76
     1
 98
        0
  0
HATCH
  5
144
330
142
100
AcDbEntity
  8
SK2
  6
Continuous
 62
   136
100
AcDbHatch
 10
0.0
 20
0.0
 30
0.0
210
0.0
220
0.0
230
1.0
  2
SOLID
 70
     1
 71
     0
 91
        1
 92
        1
 93
        3
 72
     1
 10
7.660000398581116
 20
19.20088042237007
 11
7.660000398581116
 21
18.03421371969226
 72
     1
 10
7.660000398581116
 20
18.03421371969226
 11
11.16000050661453
 21
18.61754707103117
 72
     1
 10
11.16000050661454
 20
18.61754707103117
 11
7.660000398581117
 21
19.20088042237007
 97
        0
 75
     0
 76
     1
 98
        0
  0
LINE
  5
145
330
142
100
AcDbEntity
  8
SK2
  6
Continuous
 62
   136
100
AcDbLine
 10
-20.34
 20
6.8737444938
 30
0.0
 11
-20.34
 21
20.367547125
 31
0.0
  0
LINE
  5
146
330
142
100
AcDbEntity
  8
SK2
  6
Continuous
 62
   136
100
AcDbLine
 10
11.16
 20
7.0254540846
 30
0.0
 11
11.16
 21
20.367547125
 31
0.0
  0
LINE
  5
147
330
142
100
AcDbEntity
  8
SK2
  6
Continuous
 62
   136
100
AcDbLine
 10
-20.34
 20
18.617547071
 30
0.0
 11
11.1600005066
 21
18.617547071
 31
0.0
  0
TEXT
  5
148
330
142
100
AcDbEntity
  8
SK2
  6
Continuous
 62
   136
100
AcDbText
 10
-7.5331815649
 20
19.492547071
 30
0.0
 40
3.5
  1
31,5
  7
SEACAD_Solid_Edge_ISO
 11
-7.5331815649
 21
22.992547071
 31
0.0
100
AcDbText
 73
     3
  0
ENDBLK
  5
14A
330
142
100
AcDbEntity
  8
0
100
AcDbBlockEnd
  0
BLOCK
  5
154
330
14C
100
AcDbEntity
  8
0
100
AcDbBlockBegin
  2
DMBLK184
 70
     0
 10
0.0
 20
0.0
 30
0.0
  3
DMBLK184
  1

  0
HATCH
  5
14D
330
14C
100
AcDbEntity
  8
SK2
  6
Continuous
 62
   136
100
AcDbHatch
 10
0.0
 20
0.0
 30
0.0
210
0.0
220
0.0
230
1.0
  2
SOLID
 70
     1
 71
     0
 91
        1
 92
        1
 93
        3
 72
     1
 10
20.54581180483103
 20
-8.500000108033348
 11
19.96247845349212
 21
-4.999999999999931
 72
     1
 10
19.96247845349212
 20
-4.999999999999929
 11
19.37914510215322
 21
-8.500000108033346
 72
     1
 10
19.37914510215322
 20
-8.500000108033348
 11
20.54581180483103
 21
-8.500000108033348
 97
        0
 75
     0
 76
     1
 98
        0
  0
HATCH
  5
14E
330
14C
100
AcDbEntity
  8
SK2
  6
Continuous
 62
   136
100
AcDbHatch
 10
0.0
 20
0.0
 30
0.0
210
0.0
220
0.0
230
1.0
  2
SOLID
 70
     1
 71
     0
 91
        1
 92
        1
 93
        3
 72
     1
 10
20.54581180483103
 20
8.500000108033497
 11
19.37914510215322
 21
8.500000108033497
 72
     1
 10
19.37914510215322
 20
8.500000108033497
 11
19.96247845349212
 21
5.00000000000008
 72
     1
 10
19.96247845349212
 20
5.000000000000078
 11
20.54581180483103
 21
8.500000108033495
 97
        0
 75
     0
 76
     1
 98
        0
  0
LINE
  5
14F
330
14C
100
AcDbEntity
  8
SK2
  6
Continuous
 62
   136
100
AcDbLine
 10
10.76
 20
-5.0
 30
0.0
 11
21.7124785075
 21
-5.0
 31
0.0
  0
LINE
  5
150
330
14C
100
AcDbEntity
  8
SK2
  6
Continuous
 62
   136
100
AcDbLine
 10
10.76
 20
5.0
 30
0.0
 11
21.7124785075
 21
5.0
 31
0.0
  0
LINE
  5
151
330
14C
100
AcDbEntity
  8
SK2
  6
Continuous
 62
   136
100
AcDbLine
 10
19.9624784535
 20
-12.0000002161
 30
0.0
 11
19.9624784535
 21
19.5759356767
 31
0.0
  0
TEXT
  5
152
330
14C
100
AcDbEntity
  8
SK2
  6
Continuous
 62
   136
100
AcDbText
 10
19.0874784535
 20
14.8509351768
 30
0.0
 40
3.5
  1
10
 50
90.0
  7
SEACAD_Solid_Edge_ISO
 11
15.5874784535
 21
14.8509351768
 31
0.0
100
AcDbText
 73
     3
  0
TEXT
  5
153
330
14C
100
AcDbEntity
  8
SK2
  6
Continuous
 62
   136
100
AcDbText
 10
19.0874784535
 20
10.7782079041
 30
0.0
 40
3.5
  1
ø
 50
90.0
  7
SEACAD_Solid_Edge_ISO
 11
15.5874784535
 21
10.7782079041
 31
0.0
100
AcDbText
 73
     3
  0
ENDBLK
  5
155
330
14C
100
AcDbEntity
  8
0
100
AcDbBlockEnd
  0
BLOCK
  5
15E
330
157
100
AcDbEntity
  8
0
100
AcDbBlockBegin
  2
DMBLK185
 70
     0
 10
0.0
 20
0.0
 30
0.0
  3
DMBLK185
  1

  0
HATCH
  5
158
330
157
100
AcDbEntity
  8
SK2
  6
Continuous
 62
   136
100
AcDbHatch
 10
0.0
 20
0.0
 30
0.0
210
0.0
220
0.0
230
1.0
  2
SOLID
 70
     1
 71
     0
 91
        1
 92
        1
 93
        3
 72
     1
 10
-3.500000108033419
 20
-18.5002212334787
 11
0.0
 21
-17.91688788213979
 72
     1
 10
0.0
 20
-17.91688788213979
 11
-3.500000108033419
 21
-17.33355453080089
 72
     1
 10
-3.500000108033419
 20
-17.33355453080089
 11
-3.500000108033419
 21
-18.5002212334787
 97
        0
 75
     0
 76
     1
 98
        0
  0
HATCH
  5
159
330
157
100
AcDbEntity
  8
SK2
  6
Continuous
 62
   136
100
AcDbHatch
 10
0.0
 20
0.0
 30
0.0
210
0.0
220
0.0
230
1.0
  2
SOLID
 70
     1
 71
     0
 91
        1
 92
        1
 93
        3
 72
     1
 10
14.66000010803681
 20
-18.5002212334787
 11
14.66000010803681
 21
-17.33355453080089
 72
     1
 10
14.66000010803681
 20
-17.33355453080089
 11
11.16000000000339
 21
-17.91688788213979
 72
     1
 10
11.16000000000339
 20
-17.91688788213979
 11
14.66000010803681
 21
-18.5002212334787
 97
        0
 75
     0
 76
     1
 98
        0
  0
LINE
  5
15A
330
157
100
AcDbEntity
  8
SK2
  6
Continuous
 62
   136
100
AcDbLine
 10
0.0
 20
-9.9996746285
 30
0.0
 11
0.0
 21
-19.6668879362
 31
0.0
  0
LINE
  5
15B
330
157
100
AcDbEntity
  8
SK2
  6
Continuous
 62
   136
100
AcDbLine
 10
11.16
 20
-7.025454038
 30
0.0
 11
11.16
 21
-19.6668879362
 31
0.0
  0
LINE
  5
15C
330
157
100
AcDbEntity
  8
SK2
  6
Continuous
 62
   136
100
AcDbLine
 10
-7.0000002161
 20
-17.9168878821
 30
0.0
 11
18.1600004435
 21
-17.9168878821
 31
0.0
  0
TEXT
  5
15D
330
157
100
AcDbEntity
  8
SK2
  6
Continuous
 62
   136
100
AcDbText
 10
2.0402273864
 20
-17.0418878821
 30
0.0
 40
3.5
  1
11,16
  7
SEACAD_Solid_Edge_ISO
 11
2.0402273864
 21
-13.5418878821
 31
0.0
100
AcDbText
 73
     3
  0
ENDBLK
  5
15F
330
157
100
AcDbEntity
  8
0
100
AcDbBlockEnd
  0
BLOCK
  5
169
330
161
100
AcDbEntity
  8
0
100
AcDbBlockBegin
  2
DMBLK186
 70
     0
 10
0.0
 20
0.0
 30
0.0
  3
DMBLK186
  1

  0
HATCH
  5
162
330
161
100
AcDbEntity
  8
SK2
  6
Continuous
 62
   136
100
AcDbHatch
 10
0.0
 20
0.0
 30
0.0
210
0.0
220
0.0
230
1.0
  2
SOLID
 70
     1
 71
     0
 91
        1
 92
        1
 93
        3
 72
     1
 10
-27.47303379389147
 20
6.499674520429631
 11
-26.30636709121367
 21
6.499674520429631
 72
     1
 10
-26.30636709121367
 20
6.499674520429631
 11
-26.88970044255257
 21
9.99967462846305
 72
     1
 10
-26.88970044255257
 20
9.99967462846305
 11
-27.47303379389147
 21
6.499674520429631
 97
        0
 75
     0
 76
     1
 98
        0
  0
HATCH
  5
163
330
161
100
AcDbEntity
  8
SK2
  6
Continuous
 62
   136
100
AcDbHatch
 10
0.0
 20
0.0
 30
0.0
210
0.0
220
0.0
230
1.0
  2
SOLID
 70
     1
 71
     0
 91
        1
 92
        1
 93
        3
 72
     1
 10
-27.47303379389147
 20
-6.499674753311615
 11
-26.88970044255257
 21
-9.999674861345033
 72
     1
 10
-26.88970044255257
 20
-9.999674861345033
 11
-26.30636709121367
 21
-6.499674753311615
 72
     1
 10
-26.30636709121367
 20
-6.499674753311615
 11
-27.47303379389147
 21
-6.499674753311615
 97
        0
 75
     0
 76
     1
 98
        0
  0
LINE
  5
164
330
161
100
AcDbEntity
  8
SK2
  6
Continuous
 62
   136
100
AcDbLine
 10
0.0
 20
9.9996746285
 30
0.0
 11
-28.6397004966
 21
9.9996746285
 31
0.0
  0
LINE
  5
165
330
161
100
AcDbEntity
  8
SK2
  6
Continuous
 62
   136
100
AcDbLine
 10
0.0
 20
-9.9996746285
 30
0.0
 11
-28.6397004966
 21
-9.9996746285
 31
0.0
  0
LINE
  5
166
330
161
100
AcDbEntity
  8
SK2
  6
Continuous
 62
   136
100
AcDbLine
 10
-26.8897004426
 20
9.9996746285
 30
0.0
 11
-26.8897004426
 21
-9.9996748613
 31
0.0
  0
TEXT
  5
167
330
161
100
AcDbEntity
  8
SK2
  6
Continuous
 62
   136
100
AcDbText
 10
-27.7647004426
 20
-0.0715910255
 30
0.0
 40
3.5
  1
20
 50
90.0
  7
SEACAD_Solid_Edge_ISO
 11
-31.2647004426
 21
-0.0715910255
 31
0.0
100
AcDbText
 73
     3
  0
TEXT
  5
168
330
161
100
AcDbEntity
  8
SK2
  6
Continuous
 62
   136
100
AcDbText
 10
-27.7647004426
 20
-4.1443182983
 30
0.0
 40
3.5
  1
ø
 50
90.0
  7
SEACAD_Solid_Edge_ISO
 11
-31.2647004426
 21
-4.1443182983
 31
0.0
100
AcDbText
 73
     3
  0
ENDBLK
  5
16A
330
161
100
AcDbEntity
  8
0
100
AcDbBlockEnd
  0
BLOCK
  5
173
330
16B
100
AcDbEntity
  8
0
100
AcDbBlockBegin
  2
Nullpunkt
 70
     0
 10
0.0
 20
0.0
 30
0.0
  3
Nullpunkt
  1

  0
HATCH
  5
16C
330
16B
100
AcDbEntity
  8
SK2
  6
Continuous
 62
     7
100
AcDbHatch
 10
0.0
 20
0.0
 30
0.0
210
0.0
220
0.0
230
1.0
  2
SOLID
 70
     1
 71
     0
 91
        1
 92
        1
 93
        3
 72
     1
 10
-1.0
 20
0.0
 11
0.0000000000000009
 21
0.0
 72
     1
 10
0.0
 20
0.0
 11
0.0
 21
1.000000000000001
 72
     2
 10
0.0
 20
0.0
 40
1.0
 50
90.0
 51
180.0
 73
     1
 97
        0
 75
     0
 76
     1
 98
        0
  0
HATCH
  5
16D
330
16B
100
AcDbEntity
  8
SK2
  6
Continuous
 62
     7
100
AcDbHatch
 10
0.0
 20
0.0
 30
0.0
210
0.0
220
0.0
230
1.0
  2
SOLID
 70
     1
 71
     0
 91
        1
 92
        1
 93
        3
 72
     2
 10
0.0
 20
0.0
 40
1.0
 50
270.0
 51
360.0
 73
     1
 72
     1
 10
1.0
 20
0.0
 11
-0.0000000000000009
 21
0.0
 72
     1
 10
0.0
 20
0.0
 11
0.0
 21
-1.000000000000001
 97
        0
 75
     0
 76
     1
 98
        0
  0
CIRCLE
  5
16E
330
16B
100
AcDbEntity
  8
SK2
  6
Continuous
 62
     7
100
AcDbCircle
 10
0.0
 20
0.0
 30
0.0
 40
1.0
  0
LINE
  5
16F
330
16B
100
AcDbEntity
  8
SK1
  6
Continuous
100
AcDbLine
 10
-1.0
 20
0.0
 30
0.0
 11
1.0
 21
0.0
 31
0.0
  0
LINE
  5
170
330
16B
100
AcDbEntity
  8
SK1
  6
Continuous
100
AcDbLine
 10
0.0
 20
1.0
 30
0.0
 11
0.0
 21
-1.0
 31
0.0
  0
POINT
  5
171
330
16B
100
AcDbEntity
  8
SK1
  6
Continuous
100
AcDbPoint
 10
0.0
 20
0.0
 30
0.0
  0
POINT
  5
172
330
16B
100
AcDbEntity
  8
SK1
  6
Continuous
100
AcDbPoint
 10
0.0
 20
0.0
 30
0.0
  0
ENDBLK
  5
174
330
16B
100
AcDbEntity
  8
0
100
AcDbBlockEnd
  0
BLOCK
  5
17E
330
176
100
AcDbEntity
  8
0
100
AcDbBlockBegin
  2
Einfügepunkt
 70
     0
 10
0.0
 20
0.0
 30
0.0
  3
Einfügepunkt
  1

  0
HATCH
  5
177
330
176
100
AcDbEntity
  8
SK2
  6
Continuous
 62
     7
100
AcDbHatch
 10
0.0
 20
0.0
 30
0.0
210
0.0
220
0.0
230
1.0
  2
SOLID
 70
     1
 71
     0
 91
        1
 92
        1
 93
        3
 72
     1
 10
-0.4502381196756744
 20
-0.0000000000000018
 11
0.0000000000000033
 21
-0.0000000000000018
 72
     1
 10
0.0
 20
-0.0000000000000018
 11
0.0
 21
0.4502381196756812
 72
     2
 10
0.0
 20
-0.0000000000000018
 40
0.4502381196756812
 50
90.0
 51
180.0
 73
     1
 97
        0
 75
     0
 76
     1
 98
        0
  0
HATCH
  5
178
330
176
100
AcDbEntity
  8
SK2
  6
Continuous
 62
     7
100
AcDbHatch
 10
0.0
 20
0.0
 30
0.0
210
0.0
220
0.0
230
1.0
  2
SOLID
 70
     1
 71
     0
 91
        1
 92
        1
 93
        3
 72
     2
 10
0.0
 20
-0.0000000000000018
 40
0.4502381196756812
 50
270.0
 51
360.0
 73
     1
 72
     1
 10
0.4502381196756815
 20
-0.0000000000000018
 11
0.0000000000000038
 21
-0.0000000000000018
 72
     1
 10
0.0
 20
-0.0000000000000018
 11
0.0
 21
-0.4502381196756812
 97
        0
 75
     0
 76
     1
 98
        0
  0
CIRCLE
  5
179
330
176
100
AcDbEntity
  8
SK2
  6
Continuous
 62
     7
100
AcDbCircle
 10
0.0
 20
0.0
 30
0.0
 40
0.4502381196756812
  0
LINE
  5
17A
330
176
100
AcDbEntity
  8
SK1
  6
Continuous
100
AcDbLine
 10
-0.4502381197
 20
0.0
 30
0.0
 11
0.4502381197
 21
0.0
 31
0.0
  0
LINE
  5
17B
330
176
100
AcDbEntity
  8
SK1
  6
Continuous
100
AcDbLine
 10
0.0
 20
0.4502381197
 30
0.0
 11
0.0
 21
-0.4502381197
 31
0.0
  0
POINT
  5
17C
330
176
100
AcDbEntity
  8
SK2
  6
Continuous
 62
     7
100
AcDbPoint
 10
0.0
 20
0.0
 30
0.0
  0
POINT
  5
17D
330
176
100
AcDbEntity
  8
SK2
  6
Continuous
 62
     7
100
AcDbPoint
 10
0.0
 20
0.0
 30
0.0
  0
ENDBLK
  5
17F
330
176
100
AcDbEntity
  8
0
100
AcDbBlockEnd
  0
ENDSEC
  0
SECTION
  2
ENTITIES
  0
LINE
  5
40
330
1F
100
AcDbEntity
  8
SK1
  6
Continuous
100
AcDbLine
 10
-20.34
 20
0.3
 30
0.0
 11
-20.34
 21
4.6483393093
 31
0.0
  0
LINE
  5
41
330
1F
100
AcDbEntity
  8
SK1
  6
Continuous
100
AcDbLine
 10
-20.0817519303
 20
0.3
 30
0.0
 11
-20.0817519303
 21
4.858598577
 31
0.0
  0
LINE
  5
44
330
1F
100
AcDbEntity
  8
SK3
100
AcDbLine
 10
-19.4141669751
 20
0.3
 30
0.0
 11
-19.4141669751
 21
3.3170321726
 31
0.0
  0
LINE
  5
45
330
1F
100
AcDbEntity
  8
SK1
  6
Continuous
100
AcDbLine
 10
-20.34
 20
-0.3
 30
0.0
 11
-20.0817519303
 21
-0.3
 31
0.0
  0
LINE
  5
46
330
1F
100
AcDbEntity
  8
SK1
  6
Continuous
100
AcDbLine
 10
-20.0817519303
 20
-0.3
 30
0.0
 11
-3.1363957032
 21
-0.3
 31
0.0
  0
LINE
  5
47
330
1F
100
AcDbEntity
  8
SK1
  6
Continuous
100
AcDbLine
 10
-20.34
 20
0.3
 30
0.0
 11
-20.0817519303
 21
0.3
 31
0.0
  0
LINE
  5
48
330
1F
100
AcDbEntity
  8
SK1
  6
Continuous
100
AcDbLine
 10
-20.0817519303
 20
0.3
 30
0.0
 11
-3.1363957032
 21
0.3
 31
0.0
  0
LINE
  5
49
330
1F
100
AcDbEntity
  8
SK3
100
AcDbLine
 10
-3.1363957032
 20
-0.3
 30
0.0
 11
-2.5988000625
 21
-0.3
 31
0.0
  0
ARC
  5
4A
330
1F
100
AcDbEntity
  8
SK1
  6
Continuous
100
AcDbCircle
 10
-3.1400087408
 20
0.0
 30
0.0
 40
0.3000217559456841
100
AcDbArc
 50
270.6900059939
 51
89.3099940061
  0
ARC
  5
4B
330
1F
100
AcDbEntity
  8
SK3
100
AcDbCircle
 10
-2.5985255836
 20
0.0
 30
0.0
 40
0.3000001255644301
100
AcDbArc
 50
269.9475784037
 51
90.0524215963
  0
SPLINE
  5
4C
330
1F
100
AcDbEntity
  8
SK3
100
AcDbSpline
210
0.0
220
0.0
230
1.0
 70
     8
 71
     3
 72
     8
 73
     4
 74
     0
 42
0.0000002497700186
 43
0.0000000001
 12
1.0
 22
0.0
 32
0.0
 13
1.0
 23
0.0
 33
0.0
 40
0.0
 40
0.0
 40
0.0
 40
0.0
 40
0.9999999999999999
 40
0.9999999999999999
 40
0.9999999999999999
 40
0.9999999999999999
 10
-15.31151467035695
 20
3.119470690332121
 30
0.0
 10
-15.31752179047895
 20
3.107490700251909
 30
0.0
 10
-15.32265107621881
 20
3.095122676897645
 30
0.0
 10
-15.32681904511319
 20
3.082549856723977
 30
0.0
  0
LINE
  5
4D
330
1F
100
AcDbEntity
  8
SK3
100
AcDbLine
 10
-2.5988000625
 20
0.3
 30
0.0
 11
-3.1363957032
 21
0.3
 31
0.0
  0
LINE
  5
4E
330
1F
100
AcDbEntity
  8
SK1
  6
Continuous
100
AcDbLine
 10
11.16
 20
7.255064144
 30
0.0
 11
11.16
 21
7.7343811406
 31
0.0
  0
LINE
  5
4F
330
1F
100
AcDbEntity
  8
SK3
100
AcDbLine
 10
-19.4141669751
 20
-3.3170321726
 30
0.0
 11
-19.4141669751
 21
-0.3
 31
0.0
  0
LINE
  5
50
330
1F
100
AcDbEntity
  8
SK1
  6
Continuous
100
AcDbLine
 10
-20.0817519303
 20
-4.858598577
 30
0.0
 11
-20.0817519303
 21
-0.3
 31
0.0
  0
LINE
  5
51
330
1F
100
AcDbEntity
  8
SK1
  6
Continuous
100
AcDbLine
 10
-20.34
 20
-4.6483393093
 30
0.0
 11
-20.34
 21
-0.3
 31
0.0
  0
LINE
  5
52
330
1F
100
AcDbEntity
  8
SK3
100
AcDbLine
 10
-20.34
 20
-3.695618068
 30
0.0
 11
-19.4141669751
 21
-3.3170321726
 31
0.0
  0
SPLINE
  5
53
330
1F
100
AcDbEntity
  8
SK1
  6
Continuous
100
AcDbSpline
210
0.0
220
0.0
230
1.0
 70
     8
 71
     3
 72
    10
 73
     6
 74
     0
 42
0.0000000269130255
 43
0.0000000001
 12
1.0
 22
0.0
 32
0.0
 13
1.0
 23
0.0
 33
0.0
 40
0.0
 40
0.0
 40
0.0
 40
0.0
 40
0.5
 40
0.5
 40
1.0
 40
1.0
 40
1.0
 40
1.0
 10
-20.34000000002484
 20
-5.072603378047139
 30
0.0
 10
-20.34000000002484
 20
-5.123143066141722
 30
0.0
 10
-20.31326377621729
 20
-5.173701626581071
 30
0.0
 10
-20.21985489208371
 20
-5.249866329586732
 30
0.0
 10
-20.15328210195917
 20
-5.275747947161897
 30
0.0
 10
-20.08175193031286
 20
-5.282862645692003
 30
0.0
  0
SPLINE
  5
54
330
1F
100
AcDbEntity
  8
SK1
  6
Continuous
100
AcDbSpline
210
0.0
220
0.0
230
1.0
 70
     8
 71
     3
 72
    11
 73
     7
 74
     0
 42
0.0000000005872358
 43
0.0000000001
 12
1.0
 22
0.0
 32
0.0
 13
1.0
 23
0.0
 33
0.0
 40
0.0
 40
0.0
 40
0.0
 40
0.0
 40
0.7363654467307729
 40
0.7363654467307729
 40
0.7363654467307729
 40
1.0
 40
1.0
 40
1.0
 40
1.0
 10
-20.08175193031286
 20
-5.282862645692003
 30
0.0
 10
-15.9224445791693
 20
-5.696565244543658
 30
0.0
 10
-11.76312064060971
 20
-6.110184461138868
 30
0.0
 10
-7.603788294765344
 20
-6.523761393935454
 30
0.0
 10
-6.114658502022613
 20
-6.671830766856299
 30
0.0
 10
-4.625527567712
 20
-6.819894399492109
 30
0.0
 10
-3.136395703209661
 20
-6.967953354223228
 30
0.0
  0
LINE
  5
55
330
1F
100
AcDbEntity
  8
SK1
  6
Continuous
100
AcDbLine
 10
-20.34
 20
-4.6483393093
 30
0.0
 11
-20.34
 21
-5.072603378
 31
0.0
  0
SPLINE
  5
56
330
1F
100
AcDbEntity
  8
SK1
  6
Continuous
100
AcDbSpline
210
0.0
220
0.0
230
1.0
 70
     8
 71
     3
 72
    10
 73
     6
 74
     0
 42
0.0000000269130255
 43
0.0000000001
 12
1.0
 22
0.0
 32
0.0
 13
1.0
 23
0.0
 33
0.0
 40
0.0
 40
0.0
 40
0.0
 40
0.0
 40
0.5
 40
0.5
 40
1.0
 40
1.0
 40
1.0
 40
1.0
 10
-20.34000000002484
 20
-4.648339309335212
 30
0.0
 10
-20.34000000002484
 20
-4.698878997429784
 30
0.0
 10
-20.31326377621729
 20
-4.749437557869145
 30
0.0
 10
-20.21985489208371
 20
-4.825602260874797
 30
0.0
 10
-20.15328210195917
 20
-4.851483878449969
 30
0.0
 10
-20.08175193031286
 20
-4.858598576980074
 30
0.0
  0
SPLINE
  5
57
330
1F
100
AcDbEntity
  8
SK1
  6
Continuous
100
AcDbSpline
210
0.0
220
0.0
230
1.0
 70
     8
 71
     3
 72
    11
 73
     7
 74
     0
 42
0.0000000005872358
 43
0.0000000001
 12
1.0
 22
0.0
 32
0.0
 13
1.0
 23
0.0
 33
0.0
 40
0.0
 40
0.0
 40
0.0
 40
0.0
 40
0.736365446730773
 40
0.736365446730773
 40
0.736365446730773
 40
1.0
 40
1.0
 40
1.0
 40
1.0
 10
-20.08175193031286
 20
-4.858598576980074
 30
0.0
 10
-15.9224445791693
 20
-5.272301175831729
 30
0.0
 10
-11.76312064060971
 20
-5.685920392426939
 30
0.0
 10
-7.603788294765344
 20
-6.099497325223526
 30
0.0
 10
-6.114658502022613
 20
-6.247566698144369
 30
0.0
 10
-4.625527567712
 20
-6.395630330780181
 30
0.0
 10
-3.136395703209662
 20
-6.543689285511298
 30
0.0
  0
LINE
  5
58
330
1F
100
AcDbEntity
  8
SK3
100
AcDbLine
 10
-20.34
 20
-4.1198821367
 30
0.0
 11
-19.4141669751
 21
-3.7412962414
 31
0.0
  0
LINE
  5
59
330
1F
100
AcDbEntity
  8
SK3
100
AcDbLine
 10
-2.5988000625
 20
-3.7412962414
 30
0.0
 11
-19.4141669751
 21
-3.7412962414
 31
0.0
  0
ELLIPSE
  5
5A
330
1F
100
AcDbEntity
  8
SK1
  6
Continuous
100
AcDbEllipse
 10
-64.5982355621
 20
-0.2121320328
 30
0.0
 11
62.20000001835565
 21
-3.008698176247648E-9
 31
0.0
210
0.0
220
0.0
230
1.0
 40
0.7071067811
 41
-0.154214618442996
 42
-0.1448828123244494
  0
SPLINE
  5
5B
330
1F
100
AcDbEntity
  8
SK1
  6
Continuous
100
AcDbSpline
210
0.0
220
0.0
230
1.0
 70
     8
 71
     3
 72
    35
 73
    31
 74
     0
 42
0.0000000123418823
 43
0.0000000001
 12
1.0
 22
0.0
 32
0.0
 13
1.0
 23
0.0
 33
0.0
 40
0.0
 40
0.0
 40
0.0
 40
0.0
 40
0.1074285959530424
 40
0.1074285959530424
 40
0.1074285959530424
 40
0.2148567029690131
 40
0.2148567029690131
 40
0.2148567029690131
 40
0.3222951556111772
 40
0.3222951556111772
 40
0.3222951556111772
 40
0.4297633880495585
 40
0.4297633880495585
 40
0.4297633880495585
 40
0.4999992835871162
 40
0.4999992835871162
 40
0.4999992835871162
 40
0.6074617884167727
 40
0.6074617884167727
 40
0.6074617884167727
 40
0.7149235977191587
 40
0.7149235977191587
 40
0.7149235977191587
 40
0.8223950033241767
 40
0.8223950033241767
 40
0.8223950033241767
 40
0.929857499613002
 40
0.929857499613002
 40
0.929857499613002
 40
1.0
 40
1.0
 40
1.0
 40
1.0
 10
-3.136395703209662
 20
-6.543689285511298
 30
0.0
 10
-3.103157912648631
 20
-6.546993997904706
 30
0.0
 10
-3.069487393884733
 20
-6.554569091893359
 30
0.0
 10
-3.03816861055815
 20
-6.565768015754904
 30
0.0
 10
-3.006849879389586
 20
-6.576966920965861
 30
0.0
 10
-2.977018914274508
 20
-6.592096522736385
 30
0.0
 10
-2.951134325888329
 20
-6.609853372502156
 30
0.0
 10
-2.925247179275222
 20
-6.627611977213791
 30
0.0
 10
-2.902592633809719
 20
-6.648485146132184
 30
0.0
 10
-2.885032287893935
 20
-6.670686386106848
 30
0.0
 10
-2.867467217372117
 20
-6.692893599318763
 30
0.0
 10
-2.854514141950209
 20
-6.717039601619472
 30
0.0
 10
-2.847236641976943
 20
-6.741083375980669
 30
0.0
 10
-2.842441561855528
 20
-6.756925605442251
 30
0.0
 10
-2.840000000024821
 20
-6.77296222590272
 30
0.0
 10
-2.840000000024821
 20
-6.788605988047925
 30
0.0
 10
-2.840000000024821
 20
-6.812347268695224
 30
0.0
 10
-2.845712459777098
 20
-6.835716893183571
 30
0.0
 10
-2.856668421704929
 20
-6.856799137803358
 30
0.0
 10
-2.867624342421124
 20
-6.877881303120769
 30
0.0
 10
-2.884126172472487
 20
-6.897259366623997
 30
0.0
 10
-2.90481878107648
 20
-6.913379466639249
 30
0.0
 10
-2.925513149049539
 20
-6.92950093725044
 30
0.0
 10
-2.950970593371542
 20
-6.942811360330754
 30
0.0
 10
-2.979096063283202
 20
-6.952267550645724
 30
0.0
 10
-3.007219105747958
 20
-6.961722924817888
 30
0.0
 10
-3.038786301056098
 20
-6.967588055795107
 30
0.0
 10
-3.071191070405165
 20
-6.969419648639038
 30
0.0
 10
-3.092515486608938
 20
-6.970624954182152
 30
0.0
 10
-3.114516384743072
 20
-6.970128735129362
 30
0.0
 10
-3.136395703209661
 20
-6.967953354223228
 30
0.0
  0
SPLINE
  5
5C
330
1F
100
AcDbEntity
  8
SK3
100
AcDbSpline
210
0.0
220
0.0
230
1.0
 70
     8
 71
     3
 72
    35
 73
    31
 74
     0
 42
0.0000000122781361
 43
0.0000000001
 12
1.0
 22
0.0
 32
0.0
 13
1.0
 23
0.0
 33
0.0
 40
0.0
 40
0.0
 40
0.0
 40
0.0
 40
0.1075504706610359
 40
0.1075504706610359
 40
0.1075504706610359
 40
0.2151175890981638
 40
0.2151175890981638
 40
0.2151175890981638
 40
0.3224625666047444
 40
0.3224625666047444
 40
0.3224625666047444
 40
0.4297566937894265
 40
0.4297566937894265
 40
0.4297566937894265
 40
0.500002684911552
 40
0.500002684911552
 40
0.500002684911552
 40
0.6073518700700292
 40
0.6073518700700292
 40
0.6073518700700292
 40
0.7147024782898009
 40
0.7147024782898009
 40
0.7147024782898009
 40
0.8220282520260762
 40
0.8220282520260762
 40
0.8220282520260762
 40
0.9293161609674714
 40
0.9293161609674714
 40
0.9293161609674714
 40
1.0
 40
1.0
 40
1.0
 40
1.0
 10
-2.59880006248012
 20
-3.74129624136015
 30
0.0
 10
-2.565170396845786
 20
-3.74129624136015
 30
0.0
 10
-2.531075768452719
 20
-3.737462285612877
 30
0.0
 10
-2.499338575788953
 20
-3.730055589876776
 30
0.0
 10
-2.467598296244005
 20
-3.722648173737015
 30
0.0
 10
-2.437341340622406
 20
-3.711458108266597
 30
0.0
 10
-2.411086090064658
 20
-3.697307535219652
 30
0.0
 10
-2.384883704132243
 20
-3.68318545417817
 30
0.0
 10
-2.361943139908184
 20
-3.665719948492058
 30
0.0
 10
-2.34416050751419
 20
-3.646241043903625
 30
0.0
 10
-2.326385920765324
 20
-3.626770952428477
 30
0.0
 10
-2.313273407343363
 20
-3.604747715429726
 30
0.0
 10
-2.305900725587281
 20
-3.581911786669775
 30
0.0
 10
-2.301034481610427
 20
-3.566839224953368
 30
0.0
 10
-2.298556571894081
 20
-3.551192267436536
 30
0.0
 10
-2.298556571894057
 20
-3.53553390593296
 30
0.0
 10
-2.29855657189402
 20
-3.511798543361949
 30
0.0
 10
-2.304340263324801
 20
-3.487483713138531
 30
0.0
 10
-2.315432614230395
 20
-3.464641404821101
 30
0.0
 10
-2.326525046218648
 20
-3.441798929531391
 30
0.0
 10
-2.343232987037685
 20
-3.419802385124876
 30
0.0
 10
-2.36417984412971
 20
-3.400573474455816
 30
0.0
 10
-2.385121857427426
 20
-3.3813490103196
 30
0.0
 10
-2.410879317434021
 20
-3.364366404467425
 30
0.0
 10
-2.439320620773348
 20
-3.351146003942772
 30
0.0
 10
-2.467752730711707
 20
-3.337929876796224
 30
0.0
 10
-2.499649293676395
 20
-3.32811450230165
 30
0.0
 10
-2.532370220031685
 20
-3.322580470258432
 30
0.0
 10
-2.55410156655682
 20
-3.318905086294464
 30
0.0
 10
-2.576519084678274
 20
-3.317032172648222
 30
0.0
 10
-2.59880006248012
 20
-3.317032172648222
 30
0.0
  0
SPLINE
  5
5D
330
1F
100
AcDbEntity
  8
SK3
100
AcDbSpline
210
0.0
220
0.0
230
1.0
 70
     8
 71
     3
 72
    11
 73
     7
 74
     0
 42
0.0000003739405234
 43
0.0000000001
 12
1.0
 22
0.0
 32
0.0
 13
1.0
 23
0.0
 33
0.0
 40
0.0
 40
0.0
 40
0.0
 40
0.0
 40
0.3278110228585559
 40
0.3278110228585559
 40
0.3278110228585559
 40
1.0
 40
1.0
 40
1.0
 40
1.0
 10
-15.32968533642641
 20
7.277211078547345
 30
0.0
 10
-15.33147438506366
 20
7.274529612473902
 30
0.0
 10
-15.33303343566971
 20
7.271851418502973
 30
0.0
 10
-15.33435301975099
 20
7.269185425863834
 30
0.0
 10
-15.33708658086567
 20
7.263662735863454
 30
0.0
 10
-15.33883838849511
 20
7.258140356397409
 30
0.0
 10
-15.33958510994276
 20
7.252702041972216
 30
0.0
  0
LINE
  5
5E
330
1F
100
AcDbEntity
  8
SK3
100
AcDbLine
 10
-2.5988000625
 20
-3.3170321726
 30
0.0
 11
-19.4141669751
 21
-3.3170321726
 31
0.0
  0
LINE
  5
5F
330
1F
100
AcDbEntity
  8
SK1
  6
Continuous
100
AcDbLine
 10
6.36
 20
9.811579829
 30
0.0
 11
6.36
 21
10.5
 31
0.0
  0
LINE
  5
60
330
1F
100
AcDbEntity
  8
SK1
  6
Continuous
100
AcDbLine
 10
6.6198076211
 20
9.811579829
 30
0.0
 11
6.6198076211
 21
10.5
 31
0.0
  0
LINE
  5
61
330
1F
100
AcDbEntity
  8
SK1
  6
Continuous
100
AcDbLine
 10
6.36
 20
9.811579829
 30
0.0
 11
6.6198076211
 21
9.811579829
 31
0.0
  0
LINE
  5
62
330
1F
100
AcDbEntity
  8
SK1
  6
Continuous
100
AcDbLine
 10
6.36
 20
9.5819697696
 30
0.0
 11
6.6198076211
 21
9.5819697696
 31
0.0
  0
LINE
  5
63
330
1F
100
AcDbEntity
  8
SK1
  6
Continuous
100
AcDbLine
 10
11.035
 20
7.455236463
 30
0.0
 11
11.035
 21
7.9508874915
 31
0.0
  0
LINE
  5
64
330
1F
100
AcDbEntity
  8
SK1
  6
Continuous
100
AcDbLine
 10
11.16
 20
7.0254540846
 30
0.0
 11
11.16
 21
3.2347560238
 31
0.0
  0
LINE
  5
65
330
1F
100
AcDbEntity
  8
SK1
  6
Continuous
100
AcDbLine
 10
3.1043307596
 20
9.7523901463
 30
0.0
 11
3.1043307596
 21
10.4359598646
 31
0.0
  0
LINE
  5
66
330
1F
100
AcDbEntity
  8
SK1
  6
Continuous
100
AcDbLine
 10
3.56
 20
9.3862775107
 30
0.0
 11
3.56
 21
10.0398526371
 31
0.0
  0
LINE
  5
67
330
1F
100
AcDbEntity
  8
SK1
  6
Continuous
100
AcDbLine
 10
3.76
 20
8.1477768539
 30
0.0
 11
3.76
 21
8.7
 31
0.0
  0
LINE
  5
68
330
1F
100
AcDbEntity
  8
SK1
  6
Continuous
100
AcDbLine
 10
6.16
 20
8.7
 30
0.0
 11
6.16
 21
8.1477768539
 31
0.0
  0
ARC
  5
69
330
1F
100
AcDbEntity
  8
SK1
  6
Continuous
100
AcDbCircle
 10
3.1698769151
 20
9.1377371284
 30
0.0
 40
0.3905821020576978
100
AcDbArc
 50
2.7780399913
 51
99.6608950409
  0
SPLINE
  5
6A
330
1F
100
AcDbEntity
  8
SK1
  6
Continuous
100
AcDbSpline
210
0.0
220
0.0
230
1.0
 70
     8
 71
     3
 72
     8
 73
     4
 74
     0
 42
0.0000000019981515
 43
0.0000000001
 12
1.0
 22
0.0
 32
0.0
 13
1.0
 23
0.0
 33
0.0
 40
0.0
 40
0.0
 40
0.0
 40
0.0
 40
1.0
 40
1.0
 40
1.0
 40
1.0
 10
6.619807621110477
 20
9.581969769560407
 30
0.0
 10
8.091586662782872
 20
8.796599117817932
 30
0.0
 10
9.56333296026385
 20
8.01117607176449
 30
0.0
 10
11.03499999997516
 20
7.225626403562011
 30
0.0
  0
ARC
  5
6B
330
1F
100
AcDbEntity
  8
SK1
  6
Continuous
100
AcDbCircle
 10
10.9314792455
 20
7.0218665972
 30
0.0
 40
0.2285489122187468
100
AcDbArc
 50
0.8993975288
 51
63.0670226622
  0
ARC
  5
6C
330
1F
100
AcDbEntity
  8
SK3
100
AcDbCircle
 10
10.7743658828
 20
4.8819486179
 30
0.0
 40
0.3859458576895341
100
AcDbArc
 50
267.866813109
 51
357.6969662707
  0
LINE
  5
6D
330
1F
100
AcDbEntity
  8
SK3
100
AcDbLine
 10
10.76
 20
4.4962702201
 30
0.0
 11
-15.3335878283
 21
4.4962702201
 31
0.0
  0
LINE
  5
6E
330
1F
100
AcDbEntity
  8
SK1
  6
Continuous
100
AcDbLine
 10
6.36
 20
9.811579829
 30
0.0
 11
6.36
 21
9.5819697696
 31
0.0
  0
ARC
  5
6F
330
1F
100
AcDbEntity
  8
SK1
  6
Continuous
100
AcDbCircle
 10
6.1672842399
 20
8.3405150226
 30
0.0
 40
0.1928757677871505
100
AcDbArc
 50
267.8356250557
 51
357.6660087198
  0
LINE
  5
70
330
1F
100
AcDbEntity
  8
SK1
  6
Continuous
100
AcDbLine
 10
6.16
 20
8.1477768539
 30
0.0
 11
3.76
 21
8.1477768539
 31
0.0
  0
ARC
  5
71
330
1F
100
AcDbEntity
  8
SK1
  6
Continuous
100
AcDbCircle
 10
3.7527240376
 20
8.3405239769
 30
0.0
 40
0.1928844032862168
100
AcDbArc
 50
182.3365487929
 51
272.161817433
  0
LINE
  5
72
330
1F
100
AcDbEntity
  8
SK1
  6
Continuous
100
AcDbLine
 10
3.56
 20
9.1566674513
 30
0.0
 11
3.56
 21
9.3862775107
 31
0.0
  0
ARC
  5
73
330
1F
100
AcDbEntity
  8
SK1
  6
Continuous
100
AcDbCircle
 10
6.1672842399
 20
8.1109049632
 30
0.0
 40
0.1928757677871545
100
AcDbArc
 50
267.8356250557
 51
357.6660087198
  0
LINE
  5
74
330
1F
100
AcDbEntity
  8
SK1
  6
Continuous
100
AcDbLine
 10
6.16
 20
7.9181667945
 30
0.0
 11
3.76
 21
7.9181667945
 31
0.0
  0
ARC
  5
75
330
1F
100
AcDbEntity
  8
SK1
  6
Continuous
100
AcDbCircle
 10
3.7527240376
 20
8.1109139175
 30
0.0
 40
0.1928844032862215
100
AcDbArc
 50
182.3365487929
 51
272.161817433
  0
ARC
  5
76
330
1F
100
AcDbEntity
  8
SK1
  6
Continuous
100
AcDbCircle
 10
3.1698769151
 20
9.3673471878
 30
0.0
 40
0.3905821020576984
100
AcDbArc
 50
2.7780399913
 51
99.6608950409
  0
SPLINE
  5
77
330
1F
100
AcDbEntity
  8
SK1
  6
Continuous
100
AcDbSpline
210
0.0
220
0.0
230
1.0
 70
     8
 71
     3
 72
     8
 73
     4
 74
     0
 42
0.0000000019981515
 43
0.0000000001
 12
1.0
 22
0.0
 32
0.0
 13
1.0
 23
0.0
 33
0.0
 40
0.0
 40
0.0
 40
0.0
 40
0.0
 40
1.0
 40
1.0
 40
1.0
 40
1.0
 10
6.619807621110477
 20
9.811579828979465
 30
0.0
 10
8.091586662782872
 20
9.026209177236986
 30
0.0
 10
9.563332960263848
 20
8.240786131183546
 30
0.0
 10
11.03499999997516
 20
7.455236462981065
 30
0.0
  0
ARC
  5
78
330
1F
100
AcDbEntity
  8
SK1
  6
Continuous
100
AcDbCircle
 10
10.9314792455
 20
7.2514766566
 30
0.0
 40
0.2285489122187445
100
AcDbArc
 50
0.8993975288
 51
63.0670226622
  0
LINE
  5
79
330
1F
100
AcDbEntity
  8
SK1
  6
Continuous
100
AcDbLine
 10
11.16
 20
7.255064144
 30
0.0
 11
11.16
 21
7.0254540846
 31
0.0
  0
ARC
  5
7A
330
1F
100
AcDbEntity
  8
SK3
100
AcDbCircle
 10
10.7743658828
 20
5.1115586773
 30
0.0
 40
0.3859458576895347
100
AcDbArc
 50
267.866813109
 51
357.6969662707
  0
LINE
  5
7B
330
1F
100
AcDbEntity
  8
SK3
100
AcDbLine
 10
10.76
 20
4.7258802795
 30
0.0
 11
-15.3335878283
 21
4.7258802795
 31
0.0
  0
LINE
  5
7C
330
1F
100
AcDbEntity
  8
SK1
  6
Continuous
100
AcDbLine
 10
-20.34
 20
-6.8737444938
 30
0.0
 11
-20.34
 21
-5.072603378
 31
0.0
  0
LINE
  5
7D
330
1F
100
AcDbEntity
  8
SK1
  6
Continuous
100
AcDbLine
 10
-20.0817519303
 20
-7.1710960017
 30
0.0
 11
-20.0817519303
 21
-5.2828626457
 31
0.0
  0
SPLINE
  5
7E
330
1F
100
AcDbEntity
  8
SK1
  6
Continuous
100
AcDbSpline
210
0.0
220
0.0
230
1.0
 70
     8
 71
     3
 72
    10
 73
     6
 74
     0
 42
0.0000000228003628
 43
0.0000000001
 12
1.0
 22
0.0
 32
0.0
 13
1.0
 23
0.0
 33
0.0
 40
0.0
 40
0.0
 40
0.0
 40
0.0
 40
0.5
 40
0.5
 40
1.0
 40
1.0
 40
1.0
 40
1.0
 10
-20.34000000002498
 20
-6.873744493773861
 30
0.0
 10
-20.34000000002484
 20
-6.94521840611532
 30
0.0
 10
-20.31326377621729
 20
-7.016719007982711
 30
0.0
 10
-20.21985489208372
 20
-7.124432163947445
 30
0.0
 10
-20.15328210195917
 20
-7.161034298538402
 30
0.0
 10
-20.08175193031286
 20
-7.171096001691873
 30
0.0
  0
LINE
  5
7F
330
1F
100
AcDbEntity
  8
SK3
100
AcDbLine
 10
-19.4141669751
 20
-4.9909918854
 30
0.0
 11
-19.4141669751
 21
-3.7412962414
 31
0.0
  0
LINE
  5
80
330
1F
100
AcDbEntity
  8
SK3
100
AcDbLine
 10
-20.34
 20
-5.5263931931
 30
0.0
 11
-19.4141669751
 21
-4.9909918854
 31
0.0
  0
SPLINE
  5
81
330
1F
100
AcDbEntity
  8
SK1
  6
Continuous
100
AcDbSpline
210
0.0
220
0.0
230
1.0
 70
     8
 71
     3
 72
    11
 73
     7
 74
     0
 42
0.0000000005843816
 43
0.0000000001
 12
1.0
 22
0.0
 32
0.0
 13
1.0
 23
0.0
 33
0.0
 40
0.0
 40
0.0
 40
0.0
 40
0.0
 40
0.7363654467307729
 40
0.7363654467307729
 40
0.7363654467307729
 40
1.0
 40
1.0
 40
1.0
 40
1.0
 10
-20.08175193031286
 20
-7.171096001691873
 30
0.0
 10
-15.9224445791693
 20
-7.756159827776878
 30
0.0
 10
-11.76312064060971
 20
-8.341105733543962
 30
0.0
 10
-7.603788294765344
 20
-8.92599184098956
 30
0.0
 10
-6.114658502022613
 20
-9.135393556346296
 30
0.0
 10
-4.625527567712
 20
-9.344787153714089
 30
0.0
 10
-3.136395703209661
 20
-9.554174135525617
 30
0.0
  0
SPLINE
  5
82
330
1F
100
AcDbEntity
  8
SK1
  6
Continuous
100
AcDbSpline
210
0.0
220
0.0
230
1.0
 70
     8
 71
     3
 72
    23
 73
    19
 74
     0
 42
0.0000000327670225
 43
0.0000000001
 12
1.0
 22
0.0
 32
0.0
 13
1.0
 23
0.0
 33
0.0
 40
0.0
 40
0.0
 40
0.0
 40
0.0
 40
0.1921625435936616
 40
0.1921625435936616
 40
0.1921625435936616
 40
0.3843242126027567
 40
0.3843242126027567
 40
0.3843242126027567
 40
0.5765043873162998
 40
0.5765043873162998
 40
0.5765043873162998
 40
0.768737830541246
 40
0.768737830541246
 40
0.768737830541246
 40
0.8943720550076588
 40
0.8943720550076588
 40
0.8943720550076588
 40
1.0
 40
1.0
 40
1.0
 40
1.0
 10
-3.136395703209661
 20
-9.554174135525617
 30
0.0
 10
-3.103157912648629
 20
-9.558847704612115
 30
0.0
 10
-3.069487393884733
 20
-9.563768650103066
 30
0.0
 10
-3.03816861055815
 20
-9.568500724630901
 30
0.0
 10
-3.006849879389588
 20
-9.57323279127798
 30
0.0
 10
-2.97701891427451
 20
-9.577903879094746
 30
0.0
 10
-2.951134325888333
 20
-9.582055357656968
 30
0.0
 10
-2.925247179275225
 20
-9.586207246518326
 30
0.0
 10
-2.902592633809722
 20
-9.58994997505247
 30
0.0
 10
-2.885032287893939
 20
-9.59289027004455
 30
0.0
 10
-2.867467217372121
 20
-9.595831356122158
 30
0.0
 10
-2.854514141950213
 20
-9.598047083071778
 30
0.0
 10
-2.847236641976947
 20
-9.599294976507972
 30
0.0
 10
-2.842441561855532
 20
-9.600117202414054
 30
0.0
 10
-2.840000000024816
 20
-9.600538657904613
 30
0.0
 10
-2.840000000024816
 20
-9.600538657904613
 30
0.0
 10
-2.840000000024816
 20
-9.600538657904613
 30
0.0
 10
-2.841724921058171
 20
-9.600240140766537
 30
0.0
 10
-2.845096950036265
 20
-9.599661290307774
 30
0.0
  0
ARC
  5
83
330
1F
100
AcDbEntity
  8
SK3
100
AcDbCircle
 10
-2.5986472484
 20
-9.994010872
 30
0.0
 40
5.003018988936977
100
AcDbArc
 50
86.5612251043
 51
90.001750064
  0
SPLINE
  5
84
330
1F
100
AcDbEntity
  8
SK1
  6
Continuous
100
AcDbSpline
210
0.0
220
0.0
230
1.0
 70
     8
 71
     3
 72
    14
 73
    10
 74
     0
 42
0.0000000005467597
 43
0.0000000001
 12
1.0
 22
0.0
 32
0.0
 13
1.0
 23
0.0
 33
0.0
 40
0.0
 40
0.0
 40
0.0
 40
0.0
 40
0.0842539479580858
 40
0.0842539479580858
 40
0.0842539479580858
 40
0.8608517021639168
 40
0.8608517021639168
 40
0.8608517021639168
 40
1.0
 40
1.0
 40
1.0
 40
1.0
 10
-15.0328236022129
 20
7.166512551581619
 30
0.0
 10
-14.52344972983641
 20
7.232698980107187
 30
0.0
 10
-14.01407566268372
 20
7.298884129161045
 30
0.0
 10
-13.50470141587453
 20
7.3650680979964
 30
0.0
 10
-8.809622957882464
 20
7.975108610036065
 30
0.0
 10
-4.114529814944629
 20
8.585052654571612
 30
0.0
 10
0.5805707733310301
 20
9.194947769884472
 30
0.0
 10
1.421823856453064
 20
9.304226822908221
 30
0.0
 10
2.26307719356505
 20
9.413504207016878
 30
0.0
 10
3.104330759590554
 20
9.52278008691553
 30
0.0
  0
SPLINE
  5
85
330
1F
100
AcDbEntity
  8
SK3
100
AcDbSpline
210
0.0
220
0.0
230
1.0
 70
     8
 71
     3
 72
    35
 73
    31
 74
     0
 42
0.000000014536278
 43
0.0000000001
 12
1.0
 22
0.0
 32
0.0
 13
1.0
 23
0.0
 33
0.0
 40
0.0
 40
0.0
 40
0.0
 40
0.0
 40
0.1075504706610336
 40
0.1075504706610336
 40
0.1075504706610336
 40
0.2151175890981578
 40
0.2151175890981578
 40
0.2151175890981578
 40
0.3224625666047423
 40
0.3224625666047423
 40
0.3224625666047423
 40
0.4297566937894171
 40
0.4297566937894171
 40
0.4297566937894171
 40
0.5000026849119049
 40
0.5000026849119049
 40
0.5000026849119049
 40
0.6073518700700236
 40
0.6073518700700236
 40
0.6073518700700236
 40
0.7147024782897898
 40
0.7147024782897898
 40
0.7147024782897898
 40
0.8220282520260714
 40
0.8220282520260714
 40
0.8220282520260714
 40
0.9293161609674733
 40
0.9293161609674733
 40
0.9293161609674733
 40
1.0
 40
1.0
 40
1.0
 40
1.0
 10
-15.33358782829596
 20
4.725880279548676
 30
0.0
 10
-15.36721749393029
 20
4.725880279548676
 30
0.0
 10
-15.40131212232336
 20
4.723998220815428
 30
0.0
 10
-15.43304931498712
 20
4.720330581226237
 30
0.0
 10
-15.46478959453207
 20
4.716662584908343
 30
0.0
 10
-15.49504655015367
 20
4.711102193178621
 30
0.0
 10
-15.52130180071141
 20
4.703976972988531
 30
0.0
 10
-15.54750418664383
 20
4.696866099342
 30
0.0
 10
-15.57044475086789
 20
4.687993434215167
 30
0.0
 10
-15.58822738326189
 20
4.67794174836668
 30
0.0
 10
-15.60600197001075
 20
4.66789461034303
 30
0.0
 10
-15.61911448343272
 20
4.656386077069088
 30
0.0
 10
-15.62648716518881
 20
4.644261262769963
 30
0.0
 10
-15.63135340916567
 20
4.63625843469386
 30
0.0
 10
-15.63383131888057
 20
4.62787190673695
 30
0.0
 10
-15.63383131888057
 20
4.619397662556512
 30
0.0
 10
-15.63383131888057
 20
4.606552176897596
 30
0.0
 10
-15.62804762745122
 20
4.593200109092947
 30
0.0
 10
-15.61695527654569
 20
4.580497524666691
 30
0.0
 10
-15.60586284455744
 20
4.567794847387249
 30
0.0
 10
-15.5891549037384
 20
4.555395816158053
 30
0.0
 10
-15.56820804664638
 20
4.54445730458186
 30
0.0
 10
-15.54726603334866
 20
4.533521322449574
 30
0.0
 10
-15.52150857334206
 20
4.523750875487797
 30
0.0
 10
-15.49306727000273
 20
4.516105737299323
 30
0.0
 10
-15.46463516006438
 20
4.508463070334475
 30
0.0
 10
-15.43273859709968
 20
4.502740430956238
 30
0.0
 10
-15.40001767074439
 20
4.499510897738908
 30
0.0
 10
-15.37828632421926
 20
4.497366028590091
 30
0.0
 10
-15.3558688060978
 20
4.496270220129621
 30
0.0
 10
-15.33358782829596
 20
4.496270220129621
 30
0.0
  0
SPLINE
  5
86
330
1F
100
AcDbEntity
  8
SK1
  6
Continuous
100
AcDbSpline
210
0.0
220
0.0
230
1.0
 70
     8
 71
     3
 72
    35
 73
    31
 74
     0
 42
0.0000000142051026
 43
0.0000000001
 12
1.0
 22
0.0
 32
0.0
 13
1.0
 23
0.0
 33
0.0
 40
0.0
 40
0.0
 40
0.0
 40
0.0
 40
0.1119615440540013
 40
0.1119615440540013
 40
0.1119615440540013
 40
0.2240715221133872
 40
0.2240715221133872
 40
0.2240715221133872
 40
0.3338400478832877
 40
0.3338400478832877
 40
0.3338400478832877
 40
0.4402527267872416
 40
0.4402527267872416
 40
0.4402527267872416
 40
0.5001438666164724
 40
0.5001438666164724
 40
0.5001438666164724
 40
0.6037319614880876
 40
0.6037319614880876
 40
0.6037319614880876
 40
0.7072541124840058
 40
0.7072541124840058
 40
0.7072541124840058
 40
0.8118158326264298
 40
0.8118158326264298
 40
0.8118158326264298
 40
0.919021404300797
 40
0.919021404300797
 40
0.919021404300797
 40
1.0
 40
1.0
 40
1.0
 40
1.0
 10
-15.0328236022129
 20
7.166512551581619
 30
0.0
 10
-15.06801576680876
 20
7.161939793116769
 30
0.0
 10
-15.1037306270527
 20
7.159825985339655
 30
0.0
 10
-15.13701949238595
 20
7.160362263840093
 30
0.0
 10
-15.17033369705091
 20
7.160898950553266
 30
0.0
 10
-15.20215095488185
 20
7.16411129631603
 30
0.0
 10
-15.22961869937624
 20
7.169707890628385
 30
0.0
 10
-15.25651319456212
 20
7.175187684530711
 30
0.0
 10
-15.2800002905204
 20
7.18311125752814
 30
0.0
 10
-15.29787731996236
 20
7.192734685276379
 30
0.0
 10
-15.3152161108755
 20
7.202068372516539
 30
0.0
 10
-15.32776705692304
 20
7.213263485535384
 30
0.0
 10
-15.33435301975099
 20
7.225306225168328
 30
0.0
 10
-15.33809767951027
 20
7.232153509866562
 30
0.0
 10
-15.34000000002512
 20
7.239357190808628
 30
0.0
 10
-15.34000000002512
 20
7.24670615882663
 30
0.0
 10
-15.34000000002513
 20
7.259296121192518
 30
0.0
 10
-15.33430832756592
 20
7.272596784844873
 30
0.0
 10
-15.32344120388479
 20
7.285527659274305
 30
0.0
 10
-15.31257792274925
 20
7.298453961429048
 30
0.0
 10
-15.29625564585981
 20
7.311365576559184
 30
0.0
 10
-15.27590021727161
 20
7.323300610414899
 30
0.0
 10
-15.25533652544066
 20
7.335357755620044
 30
0.0
 10
-15.2301185606072
 20
7.346745545367773
 30
0.0
 10
-15.20234460362663
 20
7.35668596177305
 30
0.0
 10
-15.17387223542267
 20
7.366876342502366
 30
0.0
 10
-15.14196696933783
 20
7.375821797886594
 30
0.0
 10
-15.10918837922253
 20
7.382935142481164
 30
0.0
 10
-15.08428261789429
 20
7.388339989428355
 30
0.0
 10
-15.0584503847013
 20
7.392792748007123
 30
0.0
 10
-15.0328236022129
 20
7.396122611000677
 30
0.0
  0
SPLINE
  5
87
330
1F
100
AcDbEntity
  8
SK1
  6
Continuous
100
AcDbSpline
210
0.0
220
0.0
230
1.0
 70
     8
 71
     3
 72
    14
 73
    10
 74
     0
 42
0.0000000005467597
 43
0.0000000001
 12
1.0
 22
0.0
 32
0.0
 13
1.0
 23
0.0
 33
0.0
 40
0.0
 40
0.0
 40
0.0
 40
0.0
 40
0.0842539479580858
 40
0.0842539479580858
 40
0.0842539479580858
 40
0.8608517021639168
 40
0.8608517021639168
 40
0.8608517021639168
 40
1.0
 40
1.0
 40
1.0
 40
1.0
 10
-15.0328236022129
 20
7.396122611000677
 30
0.0
 10
-14.52344972983641
 20
7.46230903952624
 30
0.0
 10
-14.01407566268372
 20
7.528494188580099
 30
0.0
 10
-13.50470141587453
 20
7.594678157415454
 30
0.0
 10
-8.809622957882464
 20
8.20471866945512
 30
0.0
 10
-4.114529814944629
 20
8.814662713990664
 30
0.0
 10
0.5805707733310301
 20
9.424557829303525
 30
0.0
 10
1.421823856453064
 20
9.533836882327273
 30
0.0
 10
2.263077193565053
 20
9.643114266435932
 30
0.0
 10
3.104330759590556
 20
9.752390146334584
 30
0.0
  0
ELLIPSE
  5
88
330
1F
100
AcDbEntity
  8
SK1
  6
Continuous
100
AcDbEllipse
 10
46.6658477158
 20
0.1148050238
 30
0.0
 11
-62.20000006277068
 21
3.995302774012658E-8
 31
0.0
210
0.0
220
0.0
230
1.0
 40
0.9238795321
 41
-0.1270495811818746
 42
-0.123002075465803
  0
LINE
  5
89
330
1F
100
AcDbEntity
  8
SK3
100
AcDbLine
 10
-2.5988000625
 20
-4.9909918854
 30
0.0
 11
-19.4141669751
 21
-4.9909918854
 31
0.0
  0
LINE
  5
8A
330
1F
100
AcDbEntity
  8
SK1
  6
Continuous
100
AcDbLine
 10
6.36
 20
4.2936994929
 30
0.0
 11
6.36
 21
9.5819697696
 31
0.0
  0
LINE
  5
8B
330
1F
100
AcDbEntity
  8
SK1
  6
Continuous
100
AcDbLine
 10
6.6198076211
 20
4.2936994929
 30
0.0
 11
6.6198076211
 21
9.5819697696
 31
0.0
  0
LINE
  5
8C
330
1F
100
AcDbEntity
  8
SK1
  6
Continuous
100
AcDbLine
 10
6.36
 20
4.2936994929
 30
0.0
 11
6.6198076211
 21
4.2936994929
 31
0.0
  0
LINE
  5
8D
330
1F
100
AcDbEntity
  8
SK1
  6
Continuous
100
AcDbLine
 10
6.36
 20
3.7393717734
 30
0.0
 11
6.6198076211
 21
3.7393717734
 31
0.0
  0
LINE
  5
8E
330
1F
100
AcDbEntity
  8
SK1
  6
Continuous
100
AcDbLine
 10
11.035
 20
3.3176701131
 30
0.0
 11
11.035
 21
7.2256264036
 31
0.0
  0
LINE
  5
8F
330
1F
100
AcDbEntity
  8
SK1
  6
Continuous
100
AcDbLine
 10
11.16
 20
2.6804283042
 30
0.0
 11
11.16
 21
-2.6804283042
 31
0.0
  0
LINE
  5
90
330
1F
100
AcDbEntity
  8
SK1
  6
Continuous
100
AcDbLine
 10
3.1043307596
 20
4.2691823236
 30
0.0
 11
3.1043307596
 21
9.5227800869
 31
0.0
  0
LINE
  5
91
330
1F
100
AcDbEntity
  8
SK1
  6
Continuous
100
AcDbLine
 10
3.56
 20
4.1175335046
 30
0.0
 11
3.56
 21
9.1566674513
 31
0.0
  0
LINE
  5
92
330
1F
100
AcDbEntity
  8
SK1
  6
Continuous
100
AcDbLine
 10
3.76
 20
3.6045297355
 30
0.0
 11
3.76
 21
7.9181667945
 31
0.0
  0
LINE
  5
93
330
1F
100
AcDbEntity
  8
SK1
  6
Continuous
100
AcDbLine
 10
6.16
 20
3.6045297355
 30
0.0
 11
6.16
 21
7.9181667945
 31
0.0
  0
SPLINE
  5
94
330
1F
100
AcDbEntity
  8
SK1
  6
Continuous
100
AcDbSpline
210
0.0
220
0.0
230
1.0
 70
     8
 71
     3
 72
    10
 73
     6
 74
     0
 42
0.0000000190345776
 43
0.0000000001
 12
1.0
 22
0.0
 32
0.0
 13
1.0
 23
0.0
 33
0.0
 40
0.0
 40
0.0
 40
0.0
 40
0.0
 40
0.5
 40
0.5
 40
1.0
 40
1.0
 40
1.0
 40
1.0
 10
3.104330759591118
 20
3.714854604076983
 30
0.0
 10
3.218332587580662
 20
3.720988459337682
 30
0.0
 10
3.336761943192155
 20
3.707288459508968
 30
0.0
 10
3.508067280597034
 20
3.650281186405414
 30
0.0
 10
3.559999999975158
 20
3.607094529435142
 30
0.0
 10
3.559999999975156
 20
3.563205785051183
 30
0.0
  0
LINE
  5
95
330
1F
100
AcDbEntity
  8
SK1
  6
Continuous
100
AcDbLine
 10
6.6198076211
 20
3.7393717734
 30
0.0
 11
11.035
 21
2.7633423936
 31
0.0
  0
SPLINE
  5
96
330
1F
100
AcDbEntity
  8
SK1
  6
Continuous
100
AcDbSpline
210
0.0
220
0.0
230
1.0
 70
     8
 71
     3
 72
     8
 73
     4
 74
     0
 42
0.0000000587426104
 43
0.0000000001
 12
1.0
 22
0.0
 32
0.0
 13
1.0
 23
0.0
 33
0.0
 40
0.0
 40
0.0
 40
0.0
 40
0.0
 40
1.0
 40
1.0
 40
1.0
 40
1.0
 10
11.03499999997516
 20
2.7633423935775
 30
0.0
 10
11.11129747162527
 20
2.746473035867425
 30
0.0
 10
11.15999999997516
 20
2.71396989919534
 30
0.0
 10
11.15999999997516
 20
2.680428304248986
 30
0.0
  0
SPLINE
  5
97
330
1F
100
AcDbEntity
  8
SK3
100
AcDbSpline
210
0.0
220
0.0
230
1.0
 70
     8
 71
     3
 72
    10
 73
     6
 74
     0
 42
0.000000021386319
 43
0.0000000001
 12
1.0
 22
0.0
 32
0.0
 13
1.0
 23
0.0
 33
0.0
 40
0.0
 40
0.0
 40
0.0
 40
0.0
 40
0.5000000000000001
 40
0.5000000000000001
 40
1.0
 40
1.0
 40
1.0
 40
1.0
 10
11.15999999997516
 20
1.786135181940237
 30
0.0
 10
11.15999999997517
 20
1.746186539288634
 30
0.0
 10
11.11763920492242
 20
1.706437132872291
 30
0.0
 10
10.96849204089508
 20
1.649172426671935
 30
0.0
 10
10.86573701751253
 20
1.632806045852788
 30
0.0
 10
10.75999999997516
 20
1.632806045852936
 30
0.0
  0
LINE
  5
98
330
1F
100
AcDbEntity
  8
SK3
100
AcDbLine
 10
10.76
 20
1.6328060459
 30
0.0
 11
-15.3335878283
 21
1.6328060459
 31
0.0
  0
LINE
  5
99
330
1F
100
AcDbEntity
  8
SK1
  6
Continuous
100
AcDbLine
 10
6.36
 20
4.2936994929
 30
0.0
 11
6.36
 21
3.7393717734
 31
0.0
  0
SPLINE
  5
9A
330
1F
100
AcDbEntity
  8
SK1
  6
Continuous
100
AcDbSpline
210
0.0
220
0.0
230
1.0
 70
     8
 71
     3
 72
    10
 73
     6
 74
     0
 42
0.0000000427808113
 43
0.0000000001
 12
1.0
 22
0.0
 32
0.0
 13
1.0
 23
0.0
 33
0.0
 40
0.0
 40
0.0
 40
0.0
 40
0.0
 40
0.5
 40
0.5
 40
1.0
 40
1.0
 40
1.0
 40
1.0
 10
6.359999999975146
 20
3.681110941636513
 30
0.0
 10
6.359999999975162
 20
3.66114791313036
 30
0.0
 10
6.338797885644282
 20
3.641286941291402
 30
0.0
 10
6.264194095974195
 20
3.612690369676942
 30
0.0
 10
6.212837205973042
 20
3.604529735509604
 30
0.0
 10
6.159999999975154
 20
3.604529735509907
 30
0.0
  0
LINE
  5
9B
330
1F
100
AcDbEntity
  8
SK1
  6
Continuous
100
AcDbLine
 10
6.16
 20
3.6045297355
 30
0.0
 11
3.76
 21
3.6045297355
 31
0.0
  0
SPLINE
  5
9C
330
1F
100
AcDbEntity
  8
SK1
  6
Continuous
100
AcDbSpline
210
0.0
220
0.0
230
1.0
 70
     8
 71
     3
 72
    10
 73
     6
 74
     0
 42
0.0000000427872622
 43
0.0000000001
 12
1.0
 22
0.0
 32
0.0
 13
1.0
 23
0.0
 33
0.0
 40
0.0
 40
0.0
 40
0.0
 40
0.0
 40
0.5
 40
0.5
 40
1.0
 40
1.0
 40
1.0
 40
1.0
 10
3.759999999975148
 20
3.604529735509907
 30
0.0
 10
3.707123214840093
 20
3.604529735509908
 30
0.0
 10
3.655403319821882
 20
3.612845671541619
 30
0.0
 10
3.581614556146792
 20
3.641127860983147
 30
0.0
 10
3.559999999975041
 20
3.661130633392039
 30
0.0
 10
3.559999999972804
 20
3.681110941636616
 30
0.0
  0
LINE
  5
9D
330
1F
100
AcDbEntity
  8
SK1
  6
Continuous
100
AcDbLine
 10
3.56
 20
3.6811109416
 30
0.0
 11
3.56
 21
4.1175335046
 31
0.0
  0
SPLINE
  5
9E
330
1F
100
AcDbEntity
  8
SK1
  6
Continuous
100
AcDbSpline
210
0.0
220
0.0
230
1.0
 70
     8
 71
     3
 72
    10
 73
     6
 74
     0
 42
0.0000000427808113
 43
0.0000000001
 12
1.0
 22
0.0
 32
0.0
 13
1.0
 23
0.0
 33
0.0
 40
0.0
 40
0.0
 40
0.0
 40
0.0
 40
0.5
 40
0.5
 40
1.0
 40
1.0
 40
1.0
 40
1.0
 10
6.359999999975146
 20
3.126783222129739
 30
0.0
 10
6.359999999975162
 20
3.106820193623587
 30
0.0
 10
6.338797885644282
 20
3.086959221784629
 30
0.0
 10
6.264194095974195
 20
3.058362650170172
 30
0.0
 10
6.212837205973042
 20
3.050202016002831
 30
0.0
 10
6.159999999975154
 20
3.050202016003135
 30
0.0
  0
LINE
  5
9F
330
1F
100
AcDbEntity
  8
SK1
  6
Continuous
100
AcDbLine
 10
6.16
 20
3.050202016
 30
0.0
 11
3.76
 21
3.050202016
 31
0.0
  0
SPLINE
  5
A0
330
1F
100
AcDbEntity
  8
SK1
  6
Continuous
100
AcDbSpline
210
0.0
220
0.0
230
1.0
 70
     8
 71
     3
 72
    10
 73
     6
 74
     0
 42
0.0000000427872622
 43
0.0000000001
 12
1.0
 22
0.0
 32
0.0
 13
1.0
 23
0.0
 33
0.0
 40
0.0
 40
0.0
 40
0.0
 40
0.0
 40
0.5
 40
0.5
 40
1.0
 40
1.0
 40
1.0
 40
1.0
 10
3.759999999975148
 20
3.050202016003135
 30
0.0
 10
3.70712321484009
 20
3.050202016003135
 30
0.0
 10
3.655403319821884
 20
3.058517952034846
 30
0.0
 10
3.581614556146792
 20
3.086800141476374
 30
0.0
 10
3.559999999975041
 20
3.106802913885268
 30
0.0
 10
3.559999999972804
 20
3.126783222129843
 30
0.0
  0
SPLINE
  5
A1
330
1F
100
AcDbEntity
  8
SK1
  6
Continuous
100
AcDbSpline
210
0.0
220
0.0
230
1.0
 70
     8
 71
     3
 72
    10
 73
     6
 74
     0
 42
0.0000000190345776
 43
0.0000000001
 12
1.0
 22
0.0
 32
0.0
 13
1.0
 23
0.0
 33
0.0
 40
0.0
 40
0.0
 40
0.0
 40
0.0
 40
0.5
 40
0.5
 40
1.0
 40
1.0
 40
1.0
 40
1.0
 10
3.104330759591118
 20
4.269182323583755
 30
0.0
 10
3.218332587580655
 20
4.275316178844454
 30
0.0
 10
3.336761943192152
 20
4.261616179015739
 30
0.0
 10
3.508067280597037
 20
4.204608905912187
 30
0.0
 10
3.559999999975158
 20
4.161422248941911
 30
0.0
 10
3.559999999975156
 20
4.117533504557957
 30
0.0
  0
LINE
  5
A2
330
1F
100
AcDbEntity
  8
SK1
  6
Continuous
100
AcDbLine
 10
6.6198076211
 20
4.2936994929
 30
0.0
 11
11.035
 21
3.3176701131
 31
0.0
  0
SPLINE
  5
A3
330
1F
100
AcDbEntity
  8
SK1
  6
Continuous
100
AcDbSpline
210
0.0
220
0.0
230
1.0
 70
     8
 71
     3
 72
     8
 73
     4
 74
     0
 42
0.0000000587426104
 43
0.0000000001
 12
1.0
 22
0.0
 32
0.0
 13
1.0
 23
0.0
 33
0.0
 40
0.0
 40
0.0
 40
0.0
 40
0.0
 40
1.0
 40
1.0
 40
1.0
 40
1.0
 10
11.03499999997516
 20
3.317670113084272
 30
0.0
 10
11.11129747162532
 20
3.300800755374188
 30
0.0
 10
11.15999999997516
 20
3.268297618702126
 30
0.0
 10
11.15999999997516
 20
3.234756023755758
 30
0.0
  0
LINE
  5
A4
330
1F
100
AcDbEntity
  8
SK1
  6
Continuous
100
AcDbLine
 10
11.16
 20
3.2347560238
 30
0.0
 11
11.16
 21
2.6804283043
 31
0.0
  0
SPLINE
  5
A5
330
1F
100
AcDbEntity
  8
SK3
100
AcDbSpline
210
0.0
220
0.0
230
1.0
 70
     8
 71
     3
 72
    10
 73
     6
 74
     0
 42
0.000000021386319
 43
0.0000000001
 12
1.0
 22
0.0
 32
0.0
 13
1.0
 23
0.0
 33
0.0
 40
0.0
 40
0.0
 40
0.0
 40
0.0
 40
0.5
 40
0.5
 40
1.0
 40
1.0
 40
1.0
 40
1.0
 10
11.15999999997516
 20
2.34046290144701
 30
0.0
 10
11.15999999997517
 20
2.300514258795406
 30
0.0
 10
11.11763920492242
 20
2.260764852379063
 30
0.0
 10
10.96849204089508
 20
2.203500146178709
 30
0.0
 10
10.86573701751253
 20
2.187133765359561
 30
0.0
 10
10.75999999997516
 20
2.187133765359709
 30
0.0
  0
LINE
  5
A6
330
1F
100
AcDbEntity
  8
SK3
100
AcDbLine
 10
10.76
 20
2.1871337654
 30
0.0
 11
-15.3335878283
 21
2.1871337654
 31
0.0
  0
LINE
  5
A7
330
1F
100
AcDbEntity
  8
SK1
  6
Continuous
100
AcDbLine
 10
-15.0328236022
 20
2.7388566344
 30
0.0
 11
3.1043307596
 21
3.7148546041
 31
0.0
  0
SPLINE
  5
A8
330
1F
100
AcDbEntity
  8
SK3
100
AcDbSpline
210
0.0
220
0.0
230
1.0
 70
     8
 71
     3
 72
    35
 73
    31
 74
     0
 42
0.0000000109717886
 43
0.0000000001
 12
1.0
 22
0.0
 32
0.0
 13
1.0
 23
0.0
 33
0.0
 40
0.0
 40
0.0
 40
0.0
 40
0.0
 40
0.1075504706610393
 40
0.1075504706610393
 40
0.1075504706610393
 40
0.2151175890981727
 40
0.2151175890981727
 40
0.2151175890981727
 40
0.3224625666047472
 40
0.3224625666047472
 40
0.3224625666047472
 40
0.4297566937894278
 40
0.4297566937894278
 40
0.4297566937894278
 40
0.5000026849119039
 40
0.5000026849119039
 40
0.5000026849119039
 40
0.6073518700700257
 40
0.6073518700700257
 40
0.6073518700700257
 40
0.7147024782897959
 40
0.7147024782897959
 40
0.7147024782897959
 40
0.8220282520260727
 40
0.8220282520260727
 40
0.8220282520260727
 40
0.9293161609674728
 40
0.9293161609674728
 40
0.9293161609674728
 40
1.0
 40
1.0
 40
1.0
 40
1.0
 10
-15.33358782829596
 20
2.187133765359708
 30
0.0
 10
-15.36721749393029
 20
2.187133765359708
 30
0.0
 10
-15.40131212232336
 20
2.181931597606033
 30
0.0
 10
-15.43304931498713
 20
2.171913448006977
 30
0.0
 10
-15.46478959453208
 20
2.161894324004237
 30
0.0
 10
-15.49504655015368
 20
2.146778170822797
 30
0.0
 10
-15.52130180071143
 20
2.127756541390126
 30
0.0
 10
-15.54750418664384
 20
2.108773211775278
 30
0.0
 10
-15.5704447508679
 20
2.085373830445393
 30
0.0
 10
-15.58822738326189
 20
2.059433193763897
 30
0.0
 10
-15.60600197001076
 20
2.033504293767525
 30
0.0
 10
-15.61911448343272
 20
2.004319191235886
 30
0.0
 10
-15.6264871651888
 20
1.974248711160604
 30
0.0
 10
-15.63135340916566
 20
1.954401076692033
 30
0.0
 10
-15.63383131888057
 20
1.933875797056791
 30
0.0
 10
-15.63383131888057
 20
1.91341716182552
 30
0.0
 10
-15.63383131888057
 20
1.882405416132498
 30
0.0
 10
-15.62804762745122
 20
1.850829535977402
 30
0.0
 10
-15.61695527654569
 20
1.821325038144324
 30
0.0
 10
-15.60586284455744
 20
1.791820324639652
 30
0.0
 10
-15.5891549037384
 20
1.763575041542537
 30
0.0
 10
-15.56820804664637
 20
1.738983159119465
 30
0.0
 10
-15.54726603334866
 20
1.714396963373855
 30
0.0
 10
-15.52150857334206
 20
1.692787646424574
 30
0.0
 10
-15.49306727000273
 20
1.67600466970039
 30
0.0
 10
-15.46463516006438
 20
1.659227117925709
 30
0.0
 10
-15.43273859709968
 20
1.646813310105008
 30
0.0
 10
-15.40001767074439
 20
1.639817285448356
 30
0.0
 10
-15.37828632421926
 20
1.635170930560315
 30
0.0
 10
-15.3558688060978
 20
1.632806045852936
 30
0.0
 10
-15.33358782829596
 20
1.632806045852936
 30
0.0
  0
SPLINE
  5
A9
330
1F
100
AcDbEntity
  8
SK1
  6
Continuous
100
AcDbSpline
210
0.0
220
0.0
230
1.0
 70
     8
 71
     3
 72
    35
 73
    31
 74
     0
 42
0.0000000108331195
 43
0.0000000001
 12
1.0
 22
0.0
 32
0.0
 13
1.0
 23
0.0
 33
0.0
 40
0.0
 40
0.0
 40
0.0
 40
0.0
 40
0.1119615440540013
 40
0.1119615440540013
 40
0.1119615440540013
 40
0.2240715221133876
 40
0.2240715221133876
 40
0.2240715221133876
 40
0.3338400478832896
 40
0.3338400478832896
 40
0.3338400478832896
 40
0.4402527267872389
 40
0.4402527267872389
 40
0.4402527267872389
 40
0.5001438666164727
 40
0.5001438666164727
 40
0.5001438666164727
 40
0.6037319614880875
 40
0.6037319614880875
 40
0.6037319614880875
 40
0.7072541124840077
 40
0.7072541124840077
 40
0.7072541124840077
 40
0.8118158326264336
 40
0.8118158326264336
 40
0.8118158326264336
 40
0.9190214043008006
 40
0.9190214043008006
 40
0.9190214043008006
 40
1.0
 40
1.0
 40
1.0
 40
1.0
 10
-15.0328236022129
 20
2.738856634363105
 30
0.0
 10
-15.06801576680876
 20
2.736962535789508
 30
0.0
 10
-15.1037306270527
 20
2.740704517482636
 30
0.0
 10
-15.13701949238595
 20
2.74987434445892
 30
0.0
 10
-15.17033369705091
 20
2.75905115146547
 30
0.0
 10
-15.20215095488185
 20
2.77394104657397
 30
0.0
 10
-15.22961869937624
 20
2.793376013906772
 30
0.0
 10
-15.25651319456212
 20
2.812405375253735
 30
0.0
 10
-15.28000029052041
 20
2.83634780967302
 30
0.0
 10
-15.29787731996237
 20
2.863158411887084
 30
0.0
 10
-15.3152161108755
 20
2.889161805099254
 30
0.0
 10
-15.32776705692304
 20
2.918603819385616
 30
0.0
 10
-15.33435301975099
 20
2.948940630068004
 30
0.0
 10
-15.33809767951027
 20
2.966189593834561
 30
0.0
 10
-15.34000000002512
 20
2.983941995260115
 30
0.0
 10
-15.34000000002512
 20
3.001683973518622
 30
0.0
 10
-15.34000000002513
 20
3.032078831412113
 30
0.0
 10
-15.33430832756593
 20
3.06311508487029
 30
0.0
 10
-15.3234412038848
 20
3.092221717971839
 30
0.0
 10
-15.31257792274926
 20
3.121318059153643
 30
0.0
 10
-15.29625564585981
 20
3.149281115349265
 30
0.0
 10
-15.27590021727161
 20
3.173919235537284
 30
0.0
 10
-15.25533652544066
 20
3.198809436627621
 30
0.0
 10
-15.2301185606072
 20
3.220977837613319
 30
0.0
 10
-15.20234460362662
 20
3.238814874833288
 30
0.0
 10
-15.17387223542267
 20
3.257100446880143
 30
0.0
 10
-15.14196696933783
 20
3.271327924702347
 30
0.0
 10
-15.10918837922253
 20
3.280541815828159
 30
0.0
 10
-15.08428261789429
 20
3.287542695746322
 30
0.0
 10
-15.0584503847013
 20
3.291805079457106
 30
0.0
 10
-15.0328236022129
 20
3.293184353869878
 30
0.0
  0
LINE
  5
AA
330
1F
100
AcDbEntity
  8
SK1
  6
Continuous
100
AcDbLine
 10
-15.0328236022
 20
3.2931843539
 30
0.0
 11
3.1043307596
 21
4.2691823236
 31
0.0
  0
ELLIPSE
  5
AB
330
1F
100
AcDbEntity
  8
SK1
  6
Continuous
100
AcDbEllipse
 10
46.6658477171
 20
0.2771638573
 30
0.0
 11
-62.20000006407277
 21
2.902416366819504E-9
 31
0.0
210
0.0
220
0.0
230
1.0
 40
0.3826834322
 41
-0.1270495817561006
 42
-0.1049663499196845
  0
LINE
  5
AC
330
1F
100
AcDbEntity
  8
SK1
  6
Continuous
100
AcDbLine
 10
6.36
 20
-3.7393717734
 30
0.0
 11
6.36
 21
3.7393717734
 31
0.0
  0
LINE
  5
AD
330
1F
100
AcDbEntity
  8
SK1
  6
Continuous
100
AcDbLine
 10
6.6198076211
 20
-3.7393717734
 30
0.0
 11
6.6198076211
 21
3.7393717734
 31
0.0
  0
LINE
  5
AE
330
1F
100
AcDbEntity
  8
SK1
  6
Continuous
100
AcDbLine
 10
6.36
 20
-3.7393717734
 30
0.0
 11
6.6198076211
 21
-3.7393717734
 31
0.0
  0
LINE
  5
AF
330
1F
100
AcDbEntity
  8
SK1
  6
Continuous
100
AcDbLine
 10
6.36
 20
-4.2936994929
 30
0.0
 11
6.6198076211
 21
-4.2936994929
 31
0.0
  0
LINE
  5
B0
330
1F
100
AcDbEntity
  8
SK1
  6
Continuous
100
AcDbLine
 10
11.035
 20
-2.7633423936
 30
0.0
 11
11.035
 21
2.7633423936
 31
0.0
  0
LINE
  5
B1
330
1F
100
AcDbEntity
  8
SK1
  6
Continuous
100
AcDbLine
 10
11.16
 20
-3.2347560238
 30
0.0
 11
11.16
 21
-7.0254540846
 31
0.0
  0
LINE
  5
B2
330
1F
100
AcDbEntity
  8
SK1
  6
Continuous
100
AcDbLine
 10
3.1043307596
 20
-3.7148546041
 30
0.0
 11
3.1043307596
 21
3.7148546041
 31
0.0
  0
LINE
  5
B3
330
1F
100
AcDbEntity
  8
SK1
  6
Continuous
100
AcDbLine
 10
3.56
 20
-3.5632057851
 30
0.0
 11
3.56
 21
3.5632057851
 31
0.0
  0
LINE
  5
B4
330
1F
100
AcDbEntity
  8
SK1
  6
Continuous
100
AcDbLine
 10
3.76
 20
-3.050202016
 30
0.0
 11
3.76
 21
3.050202016
 31
0.0
  0
LINE
  5
B5
330
1F
100
AcDbEntity
  8
SK1
  6
Continuous
100
AcDbLine
 10
6.16
 20
-3.050202016
 30
0.0
 11
6.16
 21
3.050202016
 31
0.0
  0
SPLINE
  5
B6
330
1F
100
AcDbEntity
  8
SK1
  6
Continuous
100
AcDbSpline
210
0.0
220
0.0
230
1.0
 70
     8
 71
     3
 72
    10
 73
     6
 74
     0
 42
0.0000000190350074
 43
0.0000000001
 12
1.0
 22
0.0
 32
0.0
 13
1.0
 23
0.0
 33
0.0
 40
0.0
 40
0.0
 40
0.0
 40
0.0
 40
0.5
 40
0.5
 40
1.0
 40
1.0
 40
1.0
 40
1.0
 10
3.104330759591118
 20
-4.269182323583616
 30
0.0
 10
3.216662709255795
 20
-4.275226331232847
 30
0.0
 10
3.33714625356119
 20
-4.261543354687847
 30
0.0
 10
3.508261414244434
 20
-4.204489048296487
 30
0.0
 10
3.559999999975158
 20
-4.161458325666406
 30
0.0
 10
3.559999999975156
 20
-4.117533504557815
 30
0.0
  0
SPLINE
  5
B7
330
1F
100
AcDbEntity
  8
SK1
  6
Continuous
100
AcDbSpline
210
0.0
220
0.0
230
1.0
 70
     8
 71
     3
 72
     8
 73
     4
 74
     0
 42
0.0000000022115151
 43
0.0000000001
 12
1.0
 22
0.0
 32
0.0
 13
1.0
 23
0.0
 33
0.0
 40
0.0
 40
0.0
 40
0.0
 40
0.0
 40
1.0
 40
1.0
 40
1.0
 40
1.0
 10
6.619807621110477
 20
-4.293699492888537
 30
0.0
 10
8.091586662782872
 20
-3.968388317447005
 30
0.0
 10
9.563332960263848
 20
-3.643055439571282
 30
0.0
 10
11.03499999997516
 20
-3.317670113084131
 30
0.0
  0
SPLINE
  5
B8
330
1F
100
AcDbEntity
  8
SK1
  6
Continuous
100
AcDbSpline
210
0.0
220
0.0
230
1.0
 70
     8
 71
     3
 72
    10
 73
     6
 74
     0
 42
0.0000000616158575
 43
0.0000000001
 12
1.0
 22
0.0
 32
0.0
 13
1.0
 23
0.0
 33
0.0
 40
0.0
 40
0.0
 40
0.0
 40
0.0
 40
0.5
 40
0.5
 40
1.0
 40
1.0
 40
1.0
 40
1.0
 10
11.03499999997516
 20
-3.317670113084131
 30
0.0
 10
11.07299689722856
 20
-3.309269005710874
 30
0.0
 10
11.10465472777435
 20
-3.297134732213096
 30
0.0
 10
11.14845795261302
 20
-3.268052728311453
 30
0.0
 10
11.15999999997433
 20
-3.251364629519987
 30
0.0
 10
11.16000000000339
 20
-3.234756023757199
 30
0.0
  0
LINE
  5
B9
330
1F
100
AcDbEntity
  8
SK1
  6
Continuous
100
AcDbLine
 10
11.16
 20
-3.2347560238
 30
0.0
 11
11.16
 21
-2.6804283042
 31
0.0
  0
SPLINE
  5
BA
330
1F
100
AcDbEntity
  8
SK3
100
AcDbSpline
210
0.0
220
0.0
230
1.0
 70
     8
 71
     3
 72
    10
 73
     6
 74
     0
 42
0.0000000213861871
 43
0.0000000001
 12
1.0
 22
0.0
 32
0.0
 13
1.0
 23
0.0
 33
0.0
 40
0.0
 40
0.0
 40
0.0
 40
0.0
 40
0.5
 40
0.5
 40
1.0
 40
1.0
 40
1.0
 40
1.0
 10
11.15999999997516
 20
-2.340462901446868
 30
0.0
 10
11.15999999997516
 20
-2.300336404123176
 30
0.0
 10
11.11714407178017
 20
-2.260549974688589
 30
0.0
 10
10.96874103977056
 20
-2.203620562320049
 30
0.0
 10
10.86475653370832
 20
-2.187133765359566
 30
0.0
 10
10.75999999997516
 20
-2.187133765359556
 30
0.0
  0
LINE
  5
BB
330
1F
100
AcDbEntity
  8
SK3
100
AcDbLine
 10
10.76
 20
-2.1871337654
 30
0.0
 11
-15.3335878283
 21
-2.1871337654
 31
0.0
  0
SPLINE
  5
BC
330
1F
100
AcDbEntity
  8
SK1
  6
Continuous
100
AcDbSpline
210
0.0
220
0.0
230
1.0
 70
     8
 71
     3
 72
    10
 73
     6
 74
     0
 42
0.0000000427791171
 43
0.0000000001
 12
1.0
 22
0.0
 32
0.0
 13
1.0
 23
0.0
 33
0.0
 40
0.0
 40
0.0
 40
0.0
 40
0.0
 40
0.5
 40
0.5
 40
1.0
 40
1.0
 40
1.0
 40
1.0
 10
6.359999999975146
 20
-3.1267832221296
 30
0.0
 10
6.359999999975156
 20
-3.106640210982465
 30
0.0
 10
6.338233388426771
 20
-3.086716212217779
 30
0.0
 10
6.26449139266307
 20
-3.058503335126722
 30
0.0
 10
6.212718345142027
 20
-3.050202016002994
 30
0.0
 10
6.159999999975154
 20
-3.050202016002994
 30
0.0
  0
LINE
  5
BD
330
1F
100
AcDbEntity
  8
SK1
  6
Continuous
100
AcDbLine
 10
6.16
 20
-3.050202016
 30
0.0
 11
3.76
 21
-3.050202016
 31
0.0
  0
SPLINE
  5
BE
330
1F
100
AcDbEntity
  8
SK1
  6
Continuous
100
AcDbSpline
210
0.0
220
0.0
230
1.0
 70
     8
 71
     3
 72
    10
 73
     6
 74
     0
 42
0.0000000427814578
 43
0.0000000001
 12
1.0
 22
0.0
 32
0.0
 13
1.0
 23
0.0
 33
0.0
 40
0.0
 40
0.0
 40
0.0
 40
0.0
 40
0.5
 40
0.5
 40
1.0
 40
1.0
 40
1.0
 40
1.0
 10
3.759999999975148
 20
-3.050202016002994
 30
0.0
 10
3.707834989232529
 20
-3.050202016002992
 30
0.0
 10
3.655952867542379
 20
-3.058328472208823
 30
0.0
 10
3.581273880816391
 20
-3.086909622574989
 30
0.0
 10
3.559999999975109
 20
-3.106806998502793
 30
0.0
 10
3.559999999974351
 20
-3.126783222129631
 30
0.0
  0
LINE
  5
BF
330
1F
100
AcDbEntity
  8
SK1
  6
Continuous
100
AcDbLine
 10
6.36
 20
-4.2936994929
 30
0.0
 11
6.36
 21
-3.7393717734
 31
0.0
  0
SPLINE
  5
C0
330
1F
100
AcDbEntity
  8
SK1
  6
Continuous
100
AcDbSpline
210
0.0
220
0.0
230
1.0
 70
     8
 71
     3
 72
    10
 73
     6
 74
     0
 42
0.0000000427791171
 43
0.0000000001
 12
1.0
 22
0.0
 32
0.0
 13
1.0
 23
0.0
 33
0.0
 40
0.0
 40
0.0
 40
0.0
 40
0.0
 40
0.5
 40
0.5
 40
1.0
 40
1.0
 40
1.0
 40
1.0
 10
6.359999999975146
 20
-3.681110941636372
 30
0.0
 10
6.359999999975156
 20
-3.660967930489238
 30
0.0
 10
6.338233388426769
 20
-3.641043931724551
 30
0.0
 10
6.26449139266307
 20
-3.612831054633495
 30
0.0
 10
6.212718345142027
 20
-3.604529735509766
 30
0.0
 10
6.159999999975154
 20
-3.604529735509766
 30
0.0
  0
LINE
  5
C1
330
1F
100
AcDbEntity
  8
SK1
  6
Continuous
100
AcDbLine
 10
6.16
 20
-3.6045297355
 30
0.0
 11
3.76
 21
-3.6045297355
 31
0.0
  0
SPLINE
  5
C2
330
1F
100
AcDbEntity
  8
SK1
  6
Continuous
100
AcDbSpline
210
0.0
220
0.0
230
1.0
 70
     8
 71
     3
 72
    10
 73
     6
 74
     0
 42
0.0000000427814578
 43
0.0000000001
 12
1.0
 22
0.0
 32
0.0
 13
1.0
 23
0.0
 33
0.0
 40
0.0
 40
0.0
 40
0.0
 40
0.0
 40
0.5
 40
0.5
 40
1.0
 40
1.0
 40
1.0
 40
1.0
 10
3.759999999975148
 20
-3.604529735509766
 30
0.0
 10
3.707834989232529
 20
-3.604529735509765
 30
0.0
 10
3.655952867542379
 20
-3.612656191715595
 30
0.0
 10
3.581273880816391
 20
-3.64123734208176
 30
0.0
 10
3.559999999975109
 20
-3.661134718009564
 30
0.0
 10
3.559999999974351
 20
-3.681110941636403
 30
0.0
  0
LINE
  5
C3
330
1F
100
AcDbEntity
  8
SK1
  6
Continuous
100
AcDbLine
 10
3.56
 20
-3.6811109416
 30
0.0
 11
3.56
 21
-4.1175335046
 31
0.0
  0
SPLINE
  5
C4
330
1F
100
AcDbEntity
  8
SK1
  6
Continuous
100
AcDbSpline
210
0.0
220
0.0
230
1.0
 70
     8
 71
     3
 72
    10
 73
     6
 74
     0
 42
0.0000000190350074
 43
0.0000000001
 12
1.0
 22
0.0
 32
0.0
 13
1.0
 23
0.0
 33
0.0
 40
0.0
 40
0.0
 40
0.0
 40
0.0
 40
0.5
 40
0.5
 40
1.0
 40
1.0
 40
1.0
 40
1.0
 10
3.104330759591118
 20
-3.714854604076843
 30
0.0
 10
3.216662709255795
 20
-3.720898611726076
 30
0.0
 10
3.33714625356119
 20
-3.707215635181074
 30
0.0
 10
3.508261414244433
 20
-3.650161328789715
 30
0.0
 10
3.559999999975159
 20
-3.607130606159635
 30
0.0
 10
3.559999999975156
 20
-3.563205785051044
 30
0.0
  0
SPLINE
  5
C5
330
1F
100
AcDbEntity
  8
SK1
  6
Continuous
100
AcDbSpline
210
0.0
220
0.0
230
1.0
 70
     8
 71
     3
 72
     8
 73
     4
 74
     0
 42
0.0000000022115151
 43
0.0000000001
 12
1.0
 22
0.0
 32
0.0
 13
1.0
 23
0.0
 33
0.0
 40
0.0
 40
0.0
 40
0.0
 40
0.0
 40
1.0
 40
1.0
 40
1.0
 40
1.0
 10
6.619807621110477
 20
-3.739371773381766
 30
0.0
 10
8.091586662782872
 20
-3.414060597940234
 30
0.0
 10
9.56333296026385
 20
-3.088727720064511
 30
0.0
 10
11.03499999997516
 20
-2.76334239357736
 30
0.0
  0
SPLINE
  5
C6
330
1F
100
AcDbEntity
  8
SK1
  6
Continuous
100
AcDbSpline
210
0.0
220
0.0
230
1.0
 70
     8
 71
     3
 72
    10
 73
     6
 74
     0
 42
0.0000000616158575
 43
0.0000000001
 12
1.0
 22
0.0
 32
0.0
 13
1.0
 23
0.0
 33
0.0
 40
0.0
 40
0.0
 40
0.0
 40
0.0
 40
0.5000000000000001
 40
0.5000000000000001
 40
1.0
 40
1.0
 40
1.0
 40
1.0
 10
11.03499999997516
 20
-2.76334239357736
 30
0.0
 10
11.07299689722856
 20
-2.754941286204101
 30
0.0
 10
11.10465472777435
 20
-2.742807012706324
 30
0.0
 10
11.14845795261302
 20
-2.713725008804682
 30
0.0
 10
11.15999999997433
 20
-2.697036910013214
 30
0.0
 10
11.16000000000339
 20
-2.680428304250427
 30
0.0
  0
SPLINE
  5
C7
330
1F
100
AcDbEntity
  8
SK3
100
AcDbSpline
210
0.0
220
0.0
230
1.0
 70
     8
 71
     3
 72
    10
 73
     6
 74
     0
 42
0.0000000213861871
 43
0.0000000001
 12
1.0
 22
0.0
 32
0.0
 13
1.0
 23
0.0
 33
0.0
 40
0.0
 40
0.0
 40
0.0
 40
0.0
 40
0.5
 40
0.5
 40
1.0
 40
1.0
 40
1.0
 40
1.0
 10
11.15999999997516
 20
-1.786135181940096
 30
0.0
 10
11.15999999997516
 20
-1.746008684616405
 30
0.0
 10
11.11714407178017
 20
-1.706222255181818
 30
0.0
 10
10.96874103977056
 20
-1.649292842813277
 30
0.0
 10
10.86475653370832
 20
-1.632806045852794
 30
0.0
 10
10.75999999997516
 20
-1.632806045852784
 30
0.0
  0
LINE
  5
C8
330
1F
100
AcDbEntity
  8
SK3
100
AcDbLine
 10
10.76
 20
-1.6328060459
 30
0.0
 11
-15.3335878283
 21
-1.6328060459
 31
0.0
  0
LINE
  5
C9
330
1F
100
AcDbEntity
  8
SK1
  6
Continuous
100
AcDbLine
 10
-15.0328236022
 20
-3.2931843539
 30
0.0
 11
3.1043307596
 21
-4.2691823236
 31
0.0
  0
ELLIPSE
  5
CA
330
1F
100
AcDbEntity
  8
SK1
  6
Continuous
100
AcDbEllipse
 10
46.6658477171
 20
-0.2771638571
 30
0.0
 11
-62.20000006411573
 21
-3.048301338856563E-9
 31
0.0
210
0.0
220
0.0
230
1.0
 40
0.3826834322
 41
0.1049059655025611
 42
0.1270495817551775
  0
SPLINE
  5
CB
330
1F
100
AcDbEntity
  8
SK3
100
AcDbSpline
210
0.0
220
0.0
230
1.0
 70
     8
 71
     3
 72
    35
 73
    31
 74
     0
 42
0.0000000109715802
 43
0.0000000001
 12
1.0
 22
0.0
 32
0.0
 13
1.0
 23
0.0
 33
0.0
 40
0.0
 40
0.0
 40
0.0
 40
0.0
 40
0.1075504706610336
 40
0.1075504706610336
 40
0.1075504706610336
 40
0.2151175890981578
 40
0.2151175890981578
 40
0.2151175890981578
 40
0.3224625666047423
 40
0.3224625666047423
 40
0.3224625666047423
 40
0.4297566937894171
 40
0.4297566937894171
 40
0.4297566937894171
 40
0.5000026849119049
 40
0.5000026849119049
 40
0.5000026849119049
 40
0.6073518700700236
 40
0.6073518700700236
 40
0.6073518700700236
 40
0.7147024782897898
 40
0.7147024782897898
 40
0.7147024782897898
 40
0.8220282520260714
 40
0.8220282520260714
 40
0.8220282520260714
 40
0.9293161609674733
 40
0.9293161609674733
 40
0.9293161609674733
 40
1.0
 40
1.0
 40
1.0
 40
1.0
 10
-15.33358782829596
 20
-1.632806045852794
 30
0.0
 10
-15.36721749393029
 20
-1.632806045852794
 30
0.0
 10
-15.40131212232336
 20
-1.638280963310529
 30
0.0
 10
-15.43304931498712
 20
-1.648781126754205
 30
0.0
 10
-15.46478959453207
 20
-1.659282311484082
 30
0.0
 10
-15.49504655015367
 20
-1.675099388594462
 30
0.0
 10
-15.52130180071141
 20
-1.694874814726486
 30
0.0
 10
-15.54750418664383
 20
-1.714610423280273
 30
0.0
 10
-15.57044475086789
 20
-1.738829480581306
 30
0.0
 10
-15.58822738326189
 20
-1.765463394944387
 30
0.0
 10
-15.60600197001075
 20
-1.79208525895302
 30
0.0
 10
-15.61911448343272
 20
-1.821850693498563
 30
0.0
 10
-15.62648716518881
 20
-1.85225195994897
 30
0.0
 10
-15.63135340916567
 20
-1.872317925719348
 30
0.0
 10
-15.63383131888057
 20
-1.892958526594104
 30
0.0
 10
-15.63383131888057
 20
-1.913417161825379
 30
0.0
 10
-15.63383131888057
 20
-1.9444289075184
 30
0.0
 10
-15.62804762745122
 20
-1.975731877672954
 30
0.0
 10
-15.61695527654569
 20
-2.004754954233243
 30
0.0
 10
-15.60586284455744
 20
-2.03377824294604
 30
0.0
 10
-15.5891549037384
 20
-2.061324074145853
 30
0.0
 10
-15.56820804664638
 20
-2.08516373621665
 30
0.0
 10
-15.54726603334866
 20
-2.10899788555497
 30
0.0
 10
-15.52150857334206
 20
-2.129787627696479
 30
0.0
 10
-15.49306727000273
 20
-2.145877202808339
 30
0.0
 10
-15.46463516006438
 20
-2.161961577106663
 30
0.0
 10
-15.43273859709968
 20
-2.173794713109158
 30
0.0
 10
-15.40001767074439
 20
-2.180459052843963
 30
0.0
 10
-15.37828632421926
 20
-2.18488512179341
 30
0.0
 10
-15.3558688060978
 20
-2.187133765359567
 30
0.0
 10
-15.33358782829596
 20
-2.187133765359566
 30
0.0
  0
SPLINE
  5
CC
330
1F
100
AcDbEntity
  8
SK1
  6
Continuous
100
AcDbSpline
210
0.0
220
0.0
230
1.0
 70
     8
 71
     3
 72
    35
 73
    31
 74
     0
 42
0.0000000108334332
 43
0.0000000001
 12
1.0
 22
0.0
 32
0.0
 13
1.0
 23
0.0
 33
0.0
 40
0.0
 40
0.0
 40
0.0
 40
0.0
 40
0.111961544054001
 40
0.111961544054001
 40
0.111961544054001
 40
0.224071522113387
 40
0.224071522113387
 40
0.224071522113387
 40
0.3338400478832876
 40
0.3338400478832876
 40
0.3338400478832876
 40
0.4402527267872414
 40
0.4402527267872414
 40
0.4402527267872414
 40
0.5001438666164721
 40
0.5001438666164721
 40
0.5001438666164721
 40
0.6037319614880875
 40
0.6037319614880875
 40
0.6037319614880875
 40
0.7072541124840058
 40
0.7072541124840058
 40
0.7072541124840058
 40
0.8118158326264296
 40
0.8118158326264296
 40
0.8118158326264296
 40
0.9190214043007972
 40
0.9190214043007972
 40
0.9190214043007972
 40
1.0
 40
1.0
 40
1.0
 40
1.0
 10
-15.0328236022129
 20
-3.293184353869737
 30
0.0
 10
-15.06801576680876
 20
-3.291290255296139
 30
0.0
 10
-15.1037306270527
 20
-3.283884486258454
 30
0.0
 10
-15.13701949238595
 20
-3.271452671084416
 30
0.0
 10
-15.17033369705091
 20
-3.259011392869648
 30
0.0
 10
-15.20215095488185
 20
-3.241166247027663
 30
0.0
 10
-15.22961869937624
 20
-3.219277646953691
 30
0.0
 10
-15.25651319456212
 20
-3.197845859955842
 30
0.0
 10
-15.2800002905204
 20
-3.171909717481284
 30
0.0
 10
-15.29787731996236
 20
-3.143617227963003
 30
0.0
 10
-15.3152161108755
 20
-3.11617656385479
 30
0.0
 10
-15.32776705692304
 20
-3.08573438096628
 30
0.0
 10
-15.33435301975099
 20
-3.054874391493043
 30
0.0
 10
-15.33809767951027
 20
-3.037327957695731
 30
0.0
 10
-15.34000000002512
 20
-3.019425951777089
 30
0.0
 10
-15.34000000002512
 20
-3.001683973518584
 30
0.0
 10
-15.34000000002513
 20
-2.971289115625091
 30
0.0
 10
-15.33430832756592
 20
-2.940697888711649
 30
0.0
 10
-15.32344120388479
 20
-2.912465767853853
 30
0.0
 10
-15.31257792274925
 20
-2.884243629693855
 30
0.0
 10
-15.29625564585981
 20
-2.857609511506737
 30
0.0
 10
-15.27590021727161
 20
-2.834700981641179
 30
0.0
 10
-15.25533652544066
 20
-2.811558066894175
 30
0.0
 10
-15.2301185606072
 20
-2.791595003311801
 30
0.0
 10
-15.20234460362663
 20
-2.776310039768045
 30
0.0
 10
-15.17387223542267
 20
-2.760640716512948
 30
0.0
 10
-15.14196696933783
 20
-2.749465479802658
 30
0.0
 10
-15.10918837922253
 20
-2.743548414604875
 30
0.0
 10
-15.08428261789429
 20
-2.739052522223254
 30
0.0
 10
-15.0584503847013
 20
-2.737477359950192
 30
0.0
 10
-15.0328236022129
 20
-2.738856634362967
 30
0.0
  0
LINE
  5
CD
330
1F
100
AcDbEntity
  8
SK1
  6
Continuous
100
AcDbLine
 10
-15.0328236022
 20
-2.7388566344
 30
0.0
 11
3.1043307596
 21
-3.7148546041
 31
0.0
  0
LINE
  5
CE
330
1F
100
AcDbEntity
  8
SK1
  6
Continuous
100
AcDbLine
 10
6.36
 20
-9.5819697696
 30
0.0
 11
6.36
 21
-4.2936994929
 31
0.0
  0
LINE
  5
CF
330
1F
100
AcDbEntity
  8
SK1
  6
Continuous
100
AcDbLine
 10
6.6198076211
 20
-9.5819697696
 30
0.0
 11
6.6198076211
 21
-4.2936994929
 31
0.0
  0
LINE
  5
D0
330
1F
100
AcDbEntity
  8
SK1
  6
Continuous
100
AcDbLine
 10
6.36
 20
-9.5819697696
 30
0.0
 11
6.6198076211
 21
-9.5819697696
 31
0.0
  0
LINE
  5
D1
330
1F
100
AcDbEntity
  8
SK1
  6
Continuous
100
AcDbLine
 10
6.36
 20
-9.811579829
 30
0.0
 11
6.6198076211
 21
-9.811579829
 31
0.0
  0
LINE
  5
D2
330
1F
100
AcDbEntity
  8
SK1
  6
Continuous
100
AcDbLine
 10
11.035
 20
-7.2256264036
 30
0.0
 11
11.035
 21
-3.3176701131
 31
0.0
  0
LINE
  5
D3
330
1F
100
AcDbEntity
  8
SK1
  6
Continuous
100
AcDbLine
 10
11.16
 20
-7.7343811406
 30
0.0
 11
11.16
 21
-7.255064144
 31
0.0
  0
LINE
  5
D4
330
1F
100
AcDbEntity
  8
SK1
  6
Continuous
100
AcDbLine
 10
3.1043307596
 20
-9.5227800869
 30
0.0
 11
3.1043307596
 21
-4.2691823236
 31
0.0
  0
LINE
  5
D5
330
1F
100
AcDbEntity
  8
SK1
  6
Continuous
100
AcDbLine
 10
3.56
 20
-9.1566674513
 30
0.0
 11
3.56
 21
-4.1175335046
 31
0.0
  0
LINE
  5
D6
330
1F
100
AcDbEntity
  8
SK1
  6
Continuous
100
AcDbLine
 10
3.76
 20
-7.9181667945
 30
0.0
 11
3.76
 21
-3.6045297355
 31
0.0
  0
LINE
  5
D7
330
1F
100
AcDbEntity
  8
SK1
  6
Continuous
100
AcDbLine
 10
6.16
 20
-7.9181667945
 30
0.0
 11
6.16
 21
-3.6045297355
 31
0.0
  0
ARC
  5
D8
330
1F
100
AcDbEntity
  8
SK1
  6
Continuous
100
AcDbCircle
 10
3.1698834536
 20
-9.3673553257
 30
0.0
 40
0.3905751769059511
100
AcDbArc
 50
260.3379590525
 51
357.2231059151
  0
LINE
  5
D9
330
1F
100
AcDbEntity
  8
SK1
  6
Continuous
100
AcDbLine
 10
6.6198076211
 20
-9.811579829
 30
0.0
 11
11.035
 21
-7.455236463
 31
0.0
  0
ARC
  5
DA
330
1F
100
AcDbEntity
  8
SK1
  6
Continuous
100
AcDbCircle
 10
10.92861756
 20
-7.2496896429
 30
0.0
 40
0.2314448504484454
100
AcDbArc
 50
297.3641944883
 51
358.6693853237
  0
LINE
  5
DB
330
1F
100
AcDbEntity
  8
SK1
  6
Continuous
100
AcDbLine
 10
11.16
 20
-7.255064144
 30
0.0
 11
11.16
 21
-7.0254540846
 31
0.0
  0
ARC
  5
DC
330
1F
100
AcDbEntity
  8
SK3
100
AcDbCircle
 10
10.7743584242
 20
-5.1115667369
 30
0.0
 40
0.3859536342132034
100
AcDbArc
 50
2.304184745
 51
92.1320358754
  0
LINE
  5
DD
330
1F
100
AcDbEntity
  8
SK3
100
AcDbLine
 10
10.76
 20
-4.7258802795
 30
0.0
 11
-15.3335878283
 21
-4.7258802795
 31
0.0
  0
ARC
  5
DE
330
1F
100
AcDbEntity
  8
SK1
  6
Continuous
100
AcDbCircle
 10
6.1672772448
 20
-8.1109125302
 30
0.0
 40
0.1928830653693318
100
AcDbArc
 50
2.3361525744
 51
92.1622136513
  0
LINE
  5
DF
330
1F
100
AcDbEntity
  8
SK1
  6
Continuous
100
AcDbLine
 10
6.16
 20
-7.9181667945
 30
0.0
 11
3.76
 21
-7.9181667945
 31
0.0
  0
ARC
  5
E0
330
1F
100
AcDbEntity
  8
SK1
  6
Continuous
100
AcDbCircle
 10
3.7527231138
 20
-8.1109129181
 30
0.0
 40
0.1928834395199233
100
AcDbArc
 50
87.837897152
 51
177.6637366217
  0
LINE
  5
E1
330
1F
100
AcDbEntity
  8
SK1
  6
Continuous
100
AcDbLine
 10
6.36
 20
-9.811579829
 30
0.0
 11
6.36
 21
-9.5819697696
 31
0.0
  0
ARC
  5
E2
330
1F
100
AcDbEntity
  8
SK1
  6
Continuous
100
AcDbCircle
 10
6.1672772448
 20
-8.3405225896
 30
0.0
 40
0.1928830653693278
100
AcDbArc
 50
2.3361525744
 51
92.1622136513
  0
LINE
  5
E3
330
1F
100
AcDbEntity
  8
SK1
  6
Continuous
100
AcDbLine
 10
6.16
 20
-8.1477768539
 30
0.0
 11
3.76
 21
-8.1477768539
 31
0.0
  0
ARC
  5
E4
330
1F
100
AcDbEntity
  8
SK1
  6
Continuous
100
AcDbCircle
 10
3.7527231138
 20
-8.3405229776
 30
0.0
 40
0.1928834395199225
100
AcDbArc
 50
87.837897152
 51
177.6637366217
  0
LINE
  5
E5
330
1F
100
AcDbEntity
  8
SK1
  6
Continuous
100
AcDbLine
 10
3.56
 20
-9.1566674513
 30
0.0
 11
3.56
 21
-9.3862775107
 31
0.0
  0
ARC
  5
E6
330
1F
100
AcDbEntity
  8
SK1
  6
Continuous
100
AcDbCircle
 10
3.1698834536
 20
-9.1377452663
 30
0.0
 40
0.3905751769059489
100
AcDbArc
 50
260.3379590525
 51
357.2231059151
  0
LINE
  5
E7
330
1F
100
AcDbEntity
  8
SK1
  6
Continuous
100
AcDbLine
 10
6.6198076211
 20
-9.5819697696
 30
0.0
 11
11.035
 21
-7.2256264036
 31
0.0
  0
ARC
  5
E8
330
1F
100
AcDbEntity
  8
SK1
  6
Continuous
100
AcDbCircle
 10
10.92861756
 20
-7.0200795834
 30
0.0
 40
0.2314448504483809
100
AcDbArc
 50
297.3641944883
 51
358.6693853238
  0
ARC
  5
E9
330
1F
100
AcDbEntity
  8
SK3
100
AcDbCircle
 10
10.7743584242
 20
-4.8819566775
 30
0.0
 40
0.385953634213204
100
AcDbArc
 50
2.304184745
 51
92.1320358754
  0
LINE
  5
EA
330
1F
100
AcDbEntity
  8
SK3
100
AcDbLine
 10
10.76
 20
-4.4962702201
 30
0.0
 11
-15.3335878283
 21
-4.4962702201
 31
0.0
  0
SPLINE
  5
EB
330
1F
100
AcDbEntity
  8
SK1
  6
Continuous
100
AcDbSpline
210
0.0
220
0.0
230
1.0
 70
     8
 71
     3
 72
    11
 73
     7
 74
     0
 42
0.0000000005467597
 43
0.0000000001
 12
1.0
 22
0.0
 32
0.0
 13
1.0
 23
0.0
 33
0.0
 40
0.0
 40
0.0
 40
0.0
 40
0.0
 40
0.7010206363227406
 40
0.7010206363227406
 40
0.7010206363227406
 40
1.0
 40
1.0
 40
1.0
 40
1.0
 10
-15.03282360221291
 20
-7.396122611000524
 30
0.0
 10
-10.79466497899661
 20
-7.946815526376789
 30
0.0
 10
-6.55649332373371
 20
-8.497422835830404
 30
0.0
 10
-2.318314740217023
 20
-9.047984616328534
 30
0.0
 10
-0.5107674719252651
 20
-9.282794552426006
 30
0.0
 10
1.296781118067362
 20
-9.517595804280031
 30
0.0
 10
3.104330759591118
 20
-9.752390146332376
 30
0.0
  0
ELLIPSE
  5
EC
330
1F
100
AcDbEntity
  8
SK1
  6
Continuous
100
AcDbEllipse
 10
46.6658477175
 20
-0.1148050234
 30
0.0
 11
-62.20000006456254
 21
-4.317353965316436E-8
 31
0.0
210
0.0
220
0.0
230
1.0
 40
0.923879532
 41
0.1229811445525078
 42
0.127049581132318
  0
SPLINE
  5
ED
330
1F
100
AcDbEntity
  8
SK3
100
AcDbSpline
210
0.0
220
0.0
230
1.0
 70
     8
 71
     3
 72
    35
 73
    31
 74
     0
 42
0.0000000145351939
 43
0.0000000001
 12
1.0
 22
0.0
 32
0.0
 13
1.0
 23
0.0
 33
0.0
 40
0.0
 40
0.0
 40
0.0
 40
0.0
 40
0.1075504706610394
 40
0.1075504706610394
 40
0.1075504706610394
 40
0.2151175890981705
 40
0.2151175890981705
 40
0.2151175890981705
 40
0.3224625666047437
 40
0.3224625666047437
 40
0.3224625666047437
 40
0.4297566937894278
 40
0.4297566937894278
 40
0.4297566937894278
 40
0.5000026849119049
 40
0.5000026849119049
 40
0.5000026849119049
 40
0.607351870070025
 40
0.607351870070025
 40
0.607351870070025
 40
0.714702478289795
 40
0.714702478289795
 40
0.714702478289795
 40
0.8220282520260731
 40
0.8220282520260731
 40
0.8220282520260731
 40
0.9293161609674729
 40
0.9293161609674729
 40
0.9293161609674729
 40
1.0
 40
1.0
 40
1.0
 40
1.0
 10
-15.33358782829596
 20
-4.496270220129474
 30
0.0
 10
-15.36721749393029
 20
-4.496270220129474
 30
0.0
 10
-15.40131212232336
 20
-4.498810754897405
 30
0.0
 10
-15.43304931498713
 20
-4.503642078847531
 30
0.0
 10
-15.46478959453208
 20
-4.508473872710771
 30
0.0
 10
-15.49504655015367
 20
-4.51572644449593
 30
0.0
 10
-15.52130180071142
 20
-4.52467149090088
 30
0.0
 10
-15.54750418664384
 20
-4.533598526564483
 30
0.0
 10
-15.57044475086789
 20
-4.544450064537606
 30
0.0
 10
-15.58822738326189
 20
-4.556175470767458
 30
0.0
 10
-15.60600197001075
 20
-4.567895571907751
 30
0.0
 10
-15.61911448343272
 20
-4.580805150600353
 30
0.0
 10
-15.6264871651888
 20
-4.593728553852559
 30
0.0
 10
-15.63135340916566
 20
-4.602258480318567
 30
0.0
 10
-15.63383131888057
 20
-4.610923418375926
 30
0.0
 10
-15.63383131888057
 20
-4.619397662556363
 30
0.0
 10
-15.63383131888057
 20
-4.632243148215278
 30
0.0
 10
-15.62804762745122
 20
-4.644936352995314
 30
0.0
 10
-15.61695527654569
 20
-4.656476683655591
 30
0.0
 10
-15.60586284455744
 20
-4.668017098673229
 30
0.0
 10
-15.5891549037384
 20
-4.678727503645726
 30
0.0
 10
-15.56820804664637
 20
-4.687849994645569
 30
0.0
 10
-15.54726603334866
 20
-4.696970376141834
 30
0.0
 10
-15.52150857334206
 20
-4.704762194487318
 30
0.0
 10
-15.49306727000273
 20
-4.710733313099146
 30
0.0
 10
-15.46463516006438
 20
-4.71670250159944
 30
0.0
 10
-15.43273859709968
 20
-4.721023275198869
 30
0.0
 10
-15.40001767074439
 20
-4.72345205017944
 30
0.0
 10
-15.37828632421926
 20
-4.725065102027704
 30
0.0
 10
-15.3558688060978
 20
-4.725880279548528
 30
0.0
 10
-15.33358782829596
 20
-4.725880279548528
 30
0.0
  0
SPLINE
  5
EE
330
1F
100
AcDbEntity
  8
SK1
  6
Continuous
100
AcDbSpline
210
0.0
220
0.0
230
1.0
 70
     8
 71
     3
 72
    35
 73
    31
 74
     0
 42
0.0000000142044397
 43
0.0000000001
 12
1.0
 22
0.0
 32
0.0
 13
1.0
 23
0.0
 33
0.0
 40
0.0
 40
0.0
 40
0.0
 40
0.0
 40
0.1119615440540031
 40
0.1119615440540031
 40
0.1119615440540031
 40
0.2240715221133949
 40
0.2240715221133949
 40
0.2240715221133949
 40
0.3338400478832972
 40
0.3338400478832972
 40
0.3338400478832972
 40
0.440252726787243
 40
0.440252726787243
 40
0.440252726787243
 40
0.500143866616469
 40
0.500143866616469
 40
0.500143866616469
 40
0.603731961488086
 40
0.603731961488086
 40
0.603731961488086
 40
0.7072541124840037
 40
0.7072541124840037
 40
0.7072541124840037
 40
0.8118158326264289
 40
0.8118158326264289
 40
0.8118158326264289
 40
0.9190214043007998
 40
0.9190214043007998
 40
0.9190214043007998
 40
1.0
 40
1.0
 40
1.0
 40
1.0
 10
-15.03282360221291
 20
-7.396122611000524
 30
0.0
 10
-15.06801576680877
 20
-7.391549852535673
 30
0.0
 10
-15.10373062705271
 20
-7.384818495215904
 30
0.0
 10
-15.13701949238596
 20
-7.376407080568148
 30
0.0
 10
-15.17033369705092
 20
-7.367989263190114
 30
0.0
 10
-15.20215095488186
 20
-7.357642311026345
 30
0.0
 10
-15.22961869937625
 20
-7.346122123273177
 30
0.0
 10
-15.25651319456213
 20
-7.33484236078189
 30
0.0
 10
-15.28000029052042
 20
-7.32210555075802
 30
0.0
 10
-15.29787731996237
 20
-7.308904530582033
 30
0.0
 10
-15.31521611087551
 20
-7.296100964451845
 30
0.0
 10
-15.32776705692304
 20
-7.282491230829035
 30
0.0
 10
-15.33435301975099
 20
-7.269185425863682
 30
0.0
 10
-15.33809767951027
 20
-7.261619984982799
 30
0.0
 10
-15.34000000002512
 20
-7.254055126844525
 30
0.0
 10
-15.34000000002512
 20
-7.246706158826523
 30
0.0
 10
-15.34000000002513
 20
-7.234116196460635
 30
0.0
 10
-15.33430832756593
 20
-7.221889921928186
 30
0.0
 10
-15.3234412038848
 20
-7.211070306818085
 30
0.0
 10
-15.31257792274926
 20
-7.20025451745485
 30
0.0
 10
-15.29625564585982
 20
-7.190551242488405
 30
0.0
 10
-15.27590021727162
 20
-7.182791809046522
 30
0.0
 10
-15.25533652544067
 20
-7.174952986228802
 30
0.0
 10
-15.2301185606072
 20
-7.168889351949796
 30
0.0
 10
-15.20234460362663
 20
-7.165110186425807
 30
0.0
 10
-15.17387223542267
 20
-7.161235989012096
 30
0.0
 10
-15.14196696933783
 20
-7.159659295515874
 30
0.0
 10
-15.10918837922253
 20
-7.160505192789534
 30
0.0
 10
-15.08428261789429
 20
-7.161147920726639
 30
0.0
 10
-15.0584503847013
 20
-7.163182688587919
 30
0.0
 10
-15.0328236022129
 20
-7.166512551581471
 30
0.0
  0
SPLINE
  5
EF
330
1F
100
AcDbEntity
  8
SK1
  6
Continuous
100
AcDbSpline
210
0.0
220
0.0
230
1.0
 70
     8
 71
     3
 72
    11
 73
     7
 74
     0
 42
0.0000000005467597
 43
0.0000000001
 12
1.0
 22
0.0
 32
0.0
 13
1.0
 23
0.0
 33
0.0
 40
0.0
 40
0.0
 40
0.0
 40
0.0
 40
0.7010206363227405
 40
0.7010206363227405
 40
0.7010206363227405
 40
1.0
 40
1.0
 40
1.0
 40
1.0
 10
-15.0328236022129
 20
-7.166512551581471
 30
0.0
 10
-10.79466497899661
 20
-7.717205466957736
 30
0.0
 10
-6.55649332373371
 20
-8.26781277641135
 30
0.0
 10
-2.318314740217025
 20
-8.818374556909479
 30
0.0
 10
-0.5107674719252667
 20
-9.053184493006954
 30
0.0
 10
1.29678111806736
 20
-9.287985744860979
 30
0.0
 10
3.104330759591118
 20
-9.522780086913322
 30
0.0
  0
LINE
  5
F0
330
1F
100
AcDbEntity
  8
SK1
  6
Continuous
100
AcDbLine
 10
6.36
 20
-10.5
 30
0.0
 11
6.36
 21
-9.811579829
 31
0.0
  0
LINE
  5
F1
330
1F
100
AcDbEntity
  8
SK1
  6
Continuous
100
AcDbLine
 10
6.6198076211
 20
-10.5
 30
0.0
 11
6.6198076211
 21
-9.811579829
 31
0.0
  0
LINE
  5
F2
330
1F
100
AcDbEntity
  8
SK1
  6
Continuous
100
AcDbLine
 10
11.035
 20
-7.9508874915
 30
0.0
 11
11.035
 21
-7.455236463
 31
0.0
  0
LINE
  5
F3
330
1F
100
AcDbEntity
  8
SK1
  6
Continuous
100
AcDbLine
 10
3.1043307596
 20
-9.7523901463
 30
0.0
 11
3.1043307596
 21
-10.4359598646
 31
0.0
  0
LINE
  5
F4
330
1F
100
AcDbEntity
  8
SK1
  6
Continuous
100
AcDbLine
 10
3.56
 20
-9.3862775107
 30
0.0
 11
3.56
 21
-10.0398526371
 31
0.0
  0
LINE
  5
F5
330
1F
100
AcDbEntity
  8
SK1
  6
Continuous
100
AcDbLine
 10
3.76
 20
-8.1477768539
 30
0.0
 11
3.76
 21
-8.7
 31
0.0
  0
LINE
  5
F6
330
1F
100
AcDbEntity
  8
SK1
  6
Continuous
100
AcDbLine
 10
6.16
 20
-8.1477768539
 30
0.0
 11
6.16
 21
-8.7
 31
0.0
  0
SPLINE
  5
F7
330
1F
100
AcDbEntity
  8
SK1
  6
Continuous
100
AcDbSpline
210
0.0
220
0.0
230
1.0
 70
     8
 71
     3
 72
    10
 73
     6
 74
     0
 42
0.0000000228003628
 43
0.0000000001
 12
1.0
 22
0.0
 32
0.0
 13
1.0
 23
0.0
 33
0.0
 40
0.0
 40
0.0
 40
0.0
 40
0.0
 40
0.5
 40
0.5
 40
1.0
 40
1.0
 40
1.0
 40
1.0
 10
-20.34000000002484
 20
6.873744493774023
 30
0.0
 10
-20.34000000002484
 20
6.945218406115491
 30
0.0
 10
-20.31326377621729
 20
7.016719007982879
 30
0.0
 10
-20.2198548920837
 20
7.124432163947601
 30
0.0
 10
-20.15328210195917
 20
7.161034298538554
 30
0.0
 10
-20.08175193031286
 20
7.171096001692022
 30
0.0
  0
SPLINE
  5
F8
330
1F
100
AcDbEntity
  8
SK1
  6
Continuous
100
AcDbSpline
210
0.0
220
0.0
230
1.0
 70
     8
 71
     3
 72
    11
 73
     7
 74
     0
 42
0.0000000005843816
 43
0.0000000001
 12
1.0
 22
0.0
 32
0.0
 13
1.0
 23
0.0
 33
0.0
 40
0.0
 40
0.0
 40
0.0
 40
0.0
 40
0.7363654467307729
 40
0.7363654467307729
 40
0.7363654467307729
 40
1.0
 40
1.0
 40
1.0
 40
1.0
 10
-20.08175193031286
 20
7.171096001692022
 30
0.0
 10
-15.9224445791693
 20
7.756159827777028
 30
0.0
 10
-11.76312064060971
 20
8.341105733544111
 30
0.0
 10
-7.603788294765344
 20
8.925991840989708
 30
0.0
 10
-6.114658502022613
 20
9.135393556346443
 30
0.0
 10
-4.625527567712
 20
9.344787153714234
 30
0.0
 10
-3.136395703209662
 20
9.554174135525766
 30
0.0
  0
LINE
  5
F9
330
1F
100
AcDbEntity
  8
SK3
100
AcDbLine
 10
-20.34
 20
5.5263931931
 30
0.0
 11
-19.4141669751
 21
4.9909918854
 31
0.0
  0
LINE
  5
FA
330
1F
100
AcDbEntity
  8
SK3
100
AcDbLine
 10
-2.5988000625
 20
4.9909918854
 30
0.0
 11
-19.4141669751
 21
4.9909918854
 31
0.0
  0
SPLINE
  5
FB
330
1F
100
AcDbEntity
  8
SK1
  6
Continuous
100
AcDbSpline
210
0.0
220
0.0
230
1.0
 70
     8
 71
     3
 72
    20
 73
    16
 74
     0
 42
0.0000000333319097
 43
0.0000000001
 12
1.0
 22
0.0
 32
0.0
 13
1.0
 23
0.0
 33
0.0
 40
0.0
 40
0.0
 40
0.0
 40
0.0
 40
0.2149247017096551
 40
0.2149247017096551
 40
0.2149247017096551
 40
0.4298480123667657
 40
0.4298480123667657
 40
0.4298480123667657
 40
0.644790515601643
 40
0.644790515601643
 40
0.644790515601643
 40
0.8597152002296615
 40
0.8597152002296615
 40
0.8597152002296615
 40
1.0
 40
1.0
 40
1.0
 40
1.0
 10
-2.840000000024816
 20
9.600538657904764
 30
0.0
 10
-2.840000000024816
 20
9.600538657904764
 30
0.0
 10
-2.8457124597771
 20
9.599550051989675
 30
0.0
 10
-2.856668421704931
 20
9.597682428907252
 30
0.0
 10
-2.867624342421125
 20
9.595814812850026
 30
0.0
 10
-2.884126172472485
 20
9.593019183818457
 30
0.0
 10
-2.904818781076476
 20
9.58959812190493
 30
0.0
 10
-2.925513149049536
 20
9.586176769118913
 30
0.0
 10
-2.95097059337154
 20
9.58203939991906
 30
0.0
 10
-2.9790960632832
 20
9.577612465985634
 30
0.0
 10
-3.007219105747954
 20
9.573185914131052
 30
0.0
 10
-3.038786301056093
 20
9.568351374715718
 30
0.0
 10
-3.07119107040516
 20
9.56356943423853
 30
0.0
 10
-3.092515486608936
 20
9.560422610760208
 30
0.0
 10
-3.114516384743072
 20
9.557250588705102
 30
0.0
 10
-3.136395703209662
 20
9.554174135525766
 30
0.0
  0
ARC
  5
FC
330
1F
100
AcDbEntity
  8
SK3
100
AcDbCircle
 10
-2.5986472484
 20
9.994010872
 30
0.0
 40
5.00301898893728
100
AcDbArc
 50
269.998249936
 51
273.3793485413
  0
SPLINE
  5
FD
330
1F
100
AcDbEntity
  8
SK3
100
AcDbSpline
210
0.0
220
0.0
230
1.0
 70
     8
 71
     3
 72
    11
 73
     7
 74
     0
 42
0.0000003307463388
 43
0.0000000001
 12
1.0
 22
0.0
 32
0.0
 13
1.0
 23
0.0
 33
0.0
 40
0.0
 40
0.0
 40
0.0
 40
0.0
 40
0.2356967090397507
 40
0.2356967090397507
 40
0.2356967090397507
 40
1.0
 40
1.0
 40
1.0
 40
1.0
 10
-15.62218127686438
 20
-4.650455667631031
 30
0.0
 10
-15.62378256323154
 20
-4.648411942894389
 30
0.0
 10
-15.62521968469547
 20
-4.646345709938141
 30
0.0
 10
-15.6264871651888
 20
-4.644261262769815
 30
0.0
 10
-15.6306307505799
 20
-4.637446889782929
 30
0.0
 10
-15.63304268668979
 20
-4.630354317201715
 30
0.0
 10
-15.63366767210206
 20
-4.623166277180464
 30
0.0
  0
LINE
  5
FE
330
1F
100
AcDbEntity
  8
SK1
  6
Continuous
100
AcDbLine
 10
-20.34
 20
5.072603378
 30
0.0
 11
-20.34
 21
6.8737444938
 31
0.0
  0
LINE
  5
FF
330
1F
100
AcDbEntity
  8
SK1
  6
Continuous
100
AcDbLine
 10
-20.0817519303
 20
5.2828626457
 30
0.0
 11
-20.0817519303
 21
7.1710960017
 31
0.0
  0
SPLINE
  5
100
330
1F
100
AcDbEntity
  8
SK1
  6
Continuous
100
AcDbSpline
210
0.0
220
0.0
230
1.0
 70
     8
 71
     3
 72
    10
 73
     6
 74
     0
 42
0.0000000269130255
 43
0.0000000001
 12
1.0
 22
0.0
 32
0.0
 13
1.0
 23
0.0
 33
0.0
 40
0.0
 40
0.0
 40
0.0
 40
0.0
 40
0.5
 40
0.5
 40
1.0
 40
1.0
 40
1.0
 40
1.0
 10
-20.34000000002484
 20
4.648339309335364
 30
0.0
 10
-20.34000000002484
 20
4.698878997429945
 30
0.0
 10
-20.31326377621729
 20
4.749437557869295
 30
0.0
 10
-20.2198548920837
 20
4.825602260874956
 30
0.0
 10
-20.15328210195917
 20
4.85148387845012
 30
0.0
 10
-20.08175193031286
 20
4.858598576980224
 30
0.0
  0
SPLINE
  5
101
330
1F
100
AcDbEntity
  8
SK1
  6
Continuous
100
AcDbSpline
210
0.0
220
0.0
230
1.0
 70
     8
 71
     3
 72
    10
 73
     6
 74
     0
 42
0.0000000269130255
 43
0.0000000001
 12
1.0
 22
0.0
 32
0.0
 13
1.0
 23
0.0
 33
0.0
 40
0.0
 40
0.0
 40
0.0
 40
0.0
 40
0.5
 40
0.5
 40
1.0
 40
1.0
 40
1.0
 40
1.0
 10
-20.34000000002498
 20
5.072603378047283
 30
0.0
 10
-20.34000000002485
 20
5.123143066141861
 30
0.0
 10
-20.3132637762173
 20
5.173701626581214
 30
0.0
 10
-20.21985489208372
 20
5.249866329586881
 30
0.0
 10
-20.15328210195917
 20
5.275747947162047
 30
0.0
 10
-20.08175193031286
 20
5.282862645692154
 30
0.0
  0
LINE
  5
102
330
1F
100
AcDbEntity
  8
SK3
100
AcDbLine
 10
-19.4141669751
 20
3.7412962414
 30
0.0
 11
-19.4141669751
 21
4.9909918854
 31
0.0
  0
LINE
  5
103
330
1F
100
AcDbEntity
  8
SK3
100
AcDbLine
 10
-20.34
 20
4.1198821367
 30
0.0
 11
-19.4141669751
 21
3.7412962414
 31
0.0
  0
SPLINE
  5
104
330
1F
100
AcDbEntity
  8
SK1
  6
Continuous
100
AcDbSpline
210
0.0
220
0.0
230
1.0
 70
     8
 71
     3
 72
    11
 73
     7
 74
     0
 42
0.0000000005872358
 43
0.0000000001
 12
1.0
 22
0.0
 32
0.0
 13
1.0
 23
0.0
 33
0.0
 40
0.0
 40
0.0
 40
0.0
 40
0.0
 40
0.736365446730773
 40
0.736365446730773
 40
0.736365446730773
 40
1.0
 40
1.0
 40
1.0
 40
1.0
 10
-20.08175193031286
 20
4.858598576980224
 30
0.0
 10
-15.9224445791693
 20
5.27230117583188
 30
0.0
 10
-11.76312064060971
 20
5.68592039242709
 30
0.0
 10
-7.603788294765344
 20
6.099497325223678
 30
0.0
 10
-6.114658502022613
 20
6.247566698144521
 30
0.0
 10
-4.625527567712004
 20
6.395630330780332
 30
0.0
 10
-3.136395703209666
 20
6.54368928551145
 30
0.0
  0
SPLINE
  5
105
330
1F
100
AcDbEntity
  8
SK1
  6
Continuous
100
AcDbSpline
210
0.0
220
0.0
230
1.0
 70
     8
 71
     3
 72
    11
 73
     7
 74
     0
 42
0.0000000005872358
 43
0.0000000001
 12
1.0
 22
0.0
 32
0.0
 13
1.0
 23
0.0
 33
0.0
 40
0.0
 40
0.0
 40
0.0
 40
0.0
 40
0.7363654467307728
 40
0.7363654467307728
 40
0.7363654467307728
 40
1.0
 40
1.0
 40
1.0
 40
1.0
 10
-20.08175193031286
 20
5.282862645692154
 30
0.0
 10
-15.9224445791693
 20
5.69656524454381
 30
0.0
 10
-11.76312064060971
 20
6.110184461139021
 30
0.0
 10
-7.603788294765344
 20
6.523761393935606
 30
0.0
 10
-6.114658502022613
 20
6.67183076685645
 30
0.0
 10
-4.625527567712
 20
6.81989439949226
 30
0.0
 10
-3.136395703209659
 20
6.967953354223379
 30
0.0
  0
LINE
  5
106
330
1F
100
AcDbEntity
  8
SK1
  6
Continuous
100
AcDbLine
 10
-20.34
 20
4.6483393093
 30
0.0
 11
-20.34
 21
5.072603378
 31
0.0
  0
LINE
  5
107
330
1F
100
AcDbEntity
  8
SK3
100
AcDbLine
 10
-20.34
 20
3.695618068
 30
0.0
 11
-19.4141669751
 21
3.3170321726
 31
0.0
  0
LINE
  5
108
330
1F
100
AcDbEntity
  8
SK3
100
AcDbLine
 10
-2.5988000625
 20
3.3170321726
 30
0.0
 11
-19.4141669751
 21
3.3170321726
 31
0.0
  0
SPLINE
  5
109
330
1F
100
AcDbEntity
  8
SK1
  6
Continuous
100
AcDbSpline
210
0.0
220
0.0
230
1.0
 70
     8
 71
     3
 72
    35
 73
    31
 74
     0
 42
0.0000000123423821
 43
0.0000000001
 12
1.0
 22
0.0
 32
0.0
 13
1.0
 23
0.0
 33
0.0
 40
0.0
 40
0.0
 40
0.0
 40
0.0
 40
0.1074285959530351
 40
0.1074285959530351
 40
0.1074285959530351
 40
0.2148567029689949
 40
0.2148567029689949
 40
0.2148567029689949
 40
0.3222951556111677
 40
0.3222951556111677
 40
0.3222951556111677
 40
0.4297633880495463
 40
0.4297633880495463
 40
0.4297633880495463
 40
0.4999992835871162
 40
0.4999992835871162
 40
0.4999992835871162
 40
0.607461788416774
 40
0.607461788416774
 40
0.607461788416774
 40
0.7149235977191608
 40
0.7149235977191608
 40
0.7149235977191608
 40
0.822395003324176
 40
0.822395003324176
 40
0.822395003324176
 40
0.9298574996130002
 40
0.9298574996130002
 40
0.9298574996130002
 40
1.0
 40
1.0
 40
1.0
 40
1.0
 10
-3.136395703209659
 20
6.967953354223379
 30
0.0
 10
-3.103157912648631
 20
6.971258066616786
 30
0.0
 10
-3.069487393884735
 20
6.970642240481133
 30
0.0
 10
-3.038168610558154
 20
6.966135480595016
 30
0.0
 10
-3.006849879389593
 20
6.961628728214414
 30
0.0
 10
-2.977018914274517
 20
6.953105042185393
 30
0.0
 10
-2.95113432588834
 20
6.941219269706219
 30
0.0
 10
-2.925247179275229
 20
6.929332322531785
 30
0.0
 10
-2.902592633809724
 20
6.913752171066657
 30
0.0
 10
-2.885032287893939
 20
6.895709136147171
 30
0.0
 10
-2.867467217372121
 20
6.877661246754314
 30
0.0
 10
-2.854514141950214
 20
6.856648755556275
 30
0.0
 10
-2.847236641976947
 20
6.834369769016941
 30
0.0
 10
-2.84244156185553
 20
6.819690342583074
 30
0.0
 10
-2.840000000024824
 20
6.804249750193287
 30
0.0
 10
-2.840000000024824
 20
6.78860598804808
 30
0.0
 10
-2.840000000024824
 20
6.764864707400781
 30
0.0
 10
-2.845712459777102
 20
6.740096983019472
 30
0.0
 10
-2.856668421704933
 20
6.716373520507121
 30
0.0
 10
-2.867624342421127
 20
6.692650147232277
 30
0.0
 10
-2.884126172472487
 20
6.669318467237239
 30
0.0
 10
-2.90481878107648
 20
6.648360255066158
 30
0.0
 10
-2.925513149049539
 20
6.627400260943323
 30
0.0
 10
-2.95097059337154
 20
6.608238714228034
 30
0.0
 10
-2.9790960632832
 20
6.592521893904681
 30
0.0
 10
-3.007219105747954
 20
6.576806430065218
 30
0.0
 10
-3.038786301056095
 20
6.564104227879004
 30
0.0
 10
-3.071191070405162
 20
6.555509949957774
 30
0.0
 10
-3.092515486608934
 20
6.549854363973224
 30
0.0
 10
-3.11451638474307
 20
6.545864666415537
 30
0.0
 10
-3.136395703209666
 20
6.54368928551145
 30
0.0
  0
SPLINE
  5
10A
330
1F
100
AcDbEntity
  8
SK3
100
AcDbSpline
210
0.0
220
0.0
230
1.0
 70
     8
 71
     3
 72
    35
 73
    31
 74
     0
 42
0.0000000122776863
 43
0.0000000001
 12
1.0
 22
0.0
 32
0.0
 13
1.0
 23
0.0
 33
0.0
 40
0.0
 40
0.0
 40
0.0
 40
0.0
 40
0.1075504706610357
 40
0.1075504706610357
 40
0.1075504706610357
 40
0.2151175890981637
 40
0.2151175890981637
 40
0.2151175890981637
 40
0.322462566604745
 40
0.322462566604745
 40
0.322462566604745
 40
0.4297566937894253
 40
0.4297566937894253
 40
0.4297566937894253
 40
0.500002684911551
 40
0.500002684911551
 40
0.500002684911551
 40
0.607351870070029
 40
0.607351870070029
 40
0.607351870070029
 40
0.7147024782898007
 40
0.7147024782898007
 40
0.7147024782898007
 40
0.8220282520260761
 40
0.8220282520260761
 40
0.8220282520260761
 40
0.9293161609674713
 40
0.9293161609674713
 40
0.9293161609674713
 40
1.0
 40
1.0
 40
1.0
 40
1.0
 10
-2.59880006248012
 20
3.317032172648372
 30
0.0
 10
-2.565170396845786
 20
3.317032172648372
 30
0.0
 10
-2.531075768452719
 20
3.321370104133812
 30
0.0
 10
-2.499338575788953
 20
3.329667445320779
 30
0.0
 10
-2.467598296244005
 20
3.337965593539
 30
0.0
 10
-2.437341340622406
 20
3.350450797553007
 30
0.0
 10
-2.411086090064658
 20
3.365994205284374
 30
0.0
 10
-2.384883704132243
 20
3.381506316554703
 30
0.0
 10
-2.361943139908182
 20
3.400486385946882
 30
0.0
 10
-2.344160507514188
 20
3.421246300656036
 30
0.0
 10
-2.326385920765322
 20
3.441996822666576
 30
0.0
 10
-2.31327340734336
 20
3.465092373404751
 30
0.0
 10
-2.305900725587277
 20
3.488539515687928
 30
0.0
 10
-2.301034481610424
 20
3.50401550104642
 30
0.0
 10
-2.298556571894077
 20
3.519875544429068
 30
0.0
 10
-2.298556571894053
 20
3.535533905932646
 30
0.0
 10
-2.298556571894017
 20
3.55926926850366
 30
0.0
 10
-2.304340263324801
 20
3.58307982679952
 30
0.0
 10
-2.315432614230395
 20
3.605032584596057
 30
0.0
 10
-2.326525046218648
 20
3.626985502862455
 30
0.0
 10
-2.343232987037685
 20
3.647689628685181
 30
0.0
 10
-2.36417984412971
 20
3.665528617379433
 30
0.0
 10
-2.385121857427426
 20
3.683363480949256
 30
0.0
 10
-2.410879317434021
 20
3.698831710020912
 30
0.0
 10
-2.439320620773348
 20
3.710770871430691
 30
0.0
 10
-2.467752730711707
 20
3.72270617361163
 30
0.0
 10
-2.499649293676395
 20
3.731448606490306
 30
0.0
 10
-2.532370220031685
 20
3.73636976471245
 30
0.0
 10
-2.55410156655682
 20
3.739638113336484
 30
0.0
 10
-2.576519084678274
 20
3.741296241360301
 30
0.0
 10
-2.59880006248012
 20
3.741296241360301
 30
0.0
  0
LINE
  5
10B
330
1F
100
AcDbEntity
  8
SK3
100
AcDbLine
 10
-2.5988000625
 20
3.7412962414
 30
0.0
 11
-19.4141669751
 21
3.7412962414
 31
0.0
  0
ELLIPSE
  5
10C
330
1F
100
AcDbEntity
  8
SK1
  6
Continuous
100
AcDbEllipse
 10
-64.5982355621
 20
0.2121320328
 30
0.0
 11
62.20000001828364
 21
3.059565696119332E-9
 31
0.0
210
0.0
220
0.0
230
1.0
 40
0.7071067811
 41
0.1448744248215346
 42
0.1542146184425077
  0
LINE
  5
10D
330
1F
100
AcDbEntity
  8
SK1
  6
Continuous
100
AcDbLine
 10
3.1043307596
 20
10.4359598646
 30
0.0
 11
-2.84
 21
9.6005386579
 31
0.0
  0
LINE
  5
10E
330
1F
100
AcDbEntity
  8
SK1
  6
Continuous
100
AcDbLine
 10
-2.84
 20
-9.6005386579
 30
0.0
 11
3.1043307596
 21
-10.4359598646
 31
0.0
  0
LINE
  5
10F
330
1F
100
AcDbEntity
  8
SK3
100
AcDbLine
 10
-2.2985565719
 20
-5.0
 30
0.0
 11
10.76
 21
-5.0
 31
0.0
  0
LINE
  5
110
330
1F
100
AcDbEntity
  8
SK3
100
AcDbLine
 10
10.76
 20
5.0
 30
0.0
 11
-2.2985565719
 21
5.0
 31
0.0
  0
ARC
  5
111
330
1F
100
AcDbEntity
  8
SK3
100
AcDbCircle
 10
-34.0276623488
 20
0.0486961506
 30
0.0
 40
31.9316924617532
100
AcDbArc
 50
347.5776584401
 51
353.5246363801
  0
LINE
  5
112
330
1F
100
AcDbEntity
  8
SK1
  6
Continuous
100
AcDbLine
 10
6.6198076211
 20
10.5
 30
0.0
 11
6.36
 21
10.5
 31
0.0
  0
ARC
  5
113
330
1F
100
AcDbEntity
  8
SK1
  6
Continuous
100
AcDbCircle
 10
10.91
 20
7.7343811406
 30
0.0
 40
0.2500000000000002
100
AcDbArc
 50
0.0
 51
60.0
  0
ARC
  5
114
330
1F
100
AcDbEntity
  8
SK3
100
AcDbCircle
 10
10.76
 20
5.4
 30
0.0
 40
0.4000000000000015
100
AcDbArc
 50
270.0
 51
360.0
  0
ARC
  5
115
330
1F
100
AcDbEntity
  8
SK1
  6
Continuous
100
AcDbCircle
 10
3.16
 20
10.0398526371
 30
0.0
 40
0.3999999999999993
100
AcDbArc
 50
0.0
 51
98.0
  0
ARC
  5
116
330
1F
100
AcDbEntity
  8
SK1
  6
Continuous
100
AcDbCircle
 10
3.76
 20
8.9
 30
0.0
 40
0.1999999999999997
100
AcDbArc
 50
180.0
 51
270.0
  0
LINE
  5
117
330
1F
100
AcDbEntity
  8
SK1
  6
Continuous
100
AcDbLine
 10
6.16
 20
8.7
 30
0.0
 11
3.76
 21
8.7
 31
0.0
  0
ARC
  5
118
330
1F
100
AcDbEntity
  8
SK1
  6
Continuous
100
AcDbCircle
 10
6.16
 20
8.9
 30
0.0
 40
0.1999999999999953
100
AcDbArc
 50
270.0
 51
0.0
  0
LINE
  5
119
330
1F
100
AcDbEntity
  8
SK1
  6
Continuous
100
AcDbLine
 10
11.035
 20
7.9508874915
 30
0.0
 11
6.6198076211
 21
10.5
 31
0.0
  0
ARC
  5
11A
330
1F
100
AcDbEntity
  8
SK3
100
AcDbCircle
 10
-64.5982355438
 20
0.0
 30
0.0
 40
62.50000000000001
100
AcDbArc
 50
351.1639152495
 51
355.4114521433
  0
ARC
  5
11B
330
1F
100
AcDbEntity
  8
SK3
100
AcDbCircle
 10
36.9713727756
 20
0.063699414
 30
0.0
 40
52.80226803603208
100
AcDbArc
 50
172.1744503479
 51
175.0640061144
  0
ARC
  5
11C
330
1F
100
AcDbEntity
  8
SK3
100
AcDbCircle
 10
-5.7059010987
 20
-0.1177224632
 30
0.0
 40
10.13889343114481
100
AcDbArc
 50
161.5993260483
 51
168.1810965865
  0
ARC
  5
11D
330
1F
100
AcDbEntity
  8
SK3
100
AcDbCircle
 10
-5.6088774305
 20
0.1416762502
 30
0.0
 40
10.23876699895891
100
AcDbArc
 50
191.8389015639
 51
198.3571343933
  0
ARC
  5
11E
330
1F
100
AcDbEntity
  8
SK3
100
AcDbCircle
 10
37.604457251
 20
0.0015527294
 30
0.0
 40
53.43862019704658
100
AcDbArc
 50
184.9472922715
 51
187.8021935649
  0
LINE
  5
11F
330
1F
100
AcDbEntity
  8
SK1
  6
Continuous
100
AcDbLine
 10
6.36
 20
-10.5
 30
0.0
 11
6.6198076211
 21
-10.5
 31
0.0
  0
ARC
  5
120
330
1F
100
AcDbEntity
  8
SK1
  6
Continuous
100
AcDbCircle
 10
10.91
 20
-7.7343811406
 30
0.0
 40
0.2500000000000008
100
AcDbArc
 50
300.0
 51
0.0
  0
ARC
  5
121
330
1F
100
AcDbEntity
  8
SK3
100
AcDbCircle
 10
10.76
 20
-5.4
 30
0.0
 40
0.4
100
AcDbArc
 50
0.0
 51
90.0
  0
ARC
  5
122
330
1F
100
AcDbEntity
  8
SK1
  6
Continuous
100
AcDbCircle
 10
3.16
 20
-10.0398526371
 30
0.0
 40
0.3999999999999992
100
AcDbArc
 50
262.0
 51
0.0
  0
ARC
  5
123
330
1F
100
AcDbEntity
  8
SK1
  6
Continuous
100
AcDbCircle
 10
3.76
 20
-8.9
 30
0.0
 40
0.2000000000000005
100
AcDbArc
 50
90.0
 51
180.0
  0
LINE
  5
124
330
1F
100
AcDbEntity
  8
SK1
  6
Continuous
100
AcDbLine
 10
3.76
 20
-8.7
 30
0.0
 11
6.16
 21
-8.7
 31
0.0
  0
ARC
  5
125
330
1F
100
AcDbEntity
  8
SK1
  6
Continuous
100
AcDbCircle
 10
6.16
 20
-8.9
 30
0.0
 40
0.1999999999999997
100
AcDbArc
 50
0.0
 51
90.0
  0
LINE
  5
126
330
1F
100
AcDbEntity
  8
SK1
  6
Continuous
100
AcDbLine
 10
6.6198076211
 20
-10.5
 30
0.0
 11
11.035
 21
-7.9508874915
 31
0.0
  0
ARC
  5
127
330
1F
100
AcDbEntity
  8
SK3
100
AcDbCircle
 10
-64.5982355438
 20
0.0
 30
0.0
 40
62.50000000000001
100
AcDbArc
 50
4.5885564698
 51
8.8361022736
  0
ARC
  5
128
330
1F
100
AcDbEntity
  8
SK3
100
AcDbCircle
 10
-34.0330367324
 20
-0.0503907622
 30
0.0
 40
31.93726477435067
100
AcDbArc
 50
6.477336882
 51
12.4233052032
  0
LINE
  5
129
330
1F
100
AcDbEntity
  8
SK1
  6
Continuous
100
AcDbLine
 10
0.0
 20
9.9996746285
 30
0.0
 11
0.0
 21
-9.9996746285
 31
0.0
  0
LINE
  5
12B
330
1F
100
AcDbEntity
  8
SK4
  6
Continuous
100
AcDbLine
 10
11.16
 20
0.0
 30
0.0
 11
-20.34
 21
0.0
 31
0.0
  0
DIMENSION
  5
141
330
1F
100
AcDbEntity
  8
SK2
  6
Continuous
 62
   136
100
AcDbDimension
  2
DMBLK183
 10
-20.34
 20
18.617547071
 30
0.0
 11
-4.5899997467
 21
18.617547071
 31
0.0
 70
   161
  1
\A1;<>
 71
     5
 42
-1.0
  3
DIN
100
AcDbAlignedDimension
 13
-20.34
 23
6.8737444938
 33
0.0
 14
11.16
 24
7.0254540846
 34
0.0
  0
DIMENSION
  5
14B
330
1F
100
AcDbEntity
  8
SK2
  6
Continuous
 62
   136
100
AcDbDimension
  2
DMBLK184
 10
19.9624784535
 20
-5.0
 30
0.0
 11
19.9624784535
 21
9.5532079041
 31
0.0
 70
   161
  1
\A1;ø <>
 71
     5
 42
-1.0
  3
DIN
100
AcDbAlignedDimension
 13
10.76
 23
-5.0
 33
0.0
 14
10.76
 24
5.0
 34
0.0
  0
DIMENSION
  5
156
330
1F
100
AcDbEntity
  8
SK2
  6
Continuous
 62
   136
100
AcDbDimension
  2
DMBLK185
 10
11.16
 20
-17.9168878821
 30
0.0
 11
5.5800001137
 21
-17.9168878821
 31
0.0
 70
   160
  1
\A1;<>
 71
     5
 42
-1.0
  3
DIN
100
AcDbAlignedDimension
 13
0.0
 23
-9.9996746285
 33
0.0
 14
11.16
 24
-3.2347560238
 34
0.0
100
AcDbRotatedDimension
  0
DIMENSION
  5
160
330
1F
100
AcDbEntity
  8
SK2
  6
Continuous
 62
   136
100
AcDbDimension
  2
DMBLK186
 10
-26.8897004426
 20
9.9996746285
 30
0.0
 11
-26.8897004426
 21
-0.0000001164
 31
0.0
 70
   161
  1
\A1;ø <>
 71
     5
 42
-1.0
  3
DIN
100
AcDbAlignedDimension
 13
0.0
 23
9.9996746285
 33
0.0
 14
0.0
 24
-9.9996746285
 34
0.0
  0
INSERT
  5
175
330
1F
100
AcDbEntity
  8
SK2
 62
     7
100
AcDbBlockReference
  2
Nullpunkt
 10
0.0
 20
0.0000000998
 30
0.0
  0
INSERT
  5
180
330
1F
100
AcDbEntity
  8
SK2
 62
     7
100
AcDbBlockReference
  2
Einfügepunkt
 10
11.16
 20
0.0
 30
0.0
  0
ENDSEC
  0
SECTION
  2
OBJECTS
  0
DICTIONARY
  5
C
330
0
100
AcDbDictionary
281
     1
  3
ACAD_GROUP
350
D
  3
ACAD_LAYOUT
350
1A
  3
ACAD_MATERIAL
350
3B
  3
ACAD_MLEADERSTYLE
350
183
  3
ACAD_MLINESTYLE
350
17
  3
ACAD_PLOTSETTINGS
350
19
  3
ACAD_PLOTSTYLENAME
350
E
  3
ACAD_VISUALSTYLE
350
2A
  3
AcDbVariableDictionary
350
181
  0
DICTIONARY
  5
D
102
{ACAD_REACTORS
330
C
102
}
330
C
100
AcDbDictionary
281
     1
  0
DICTIONARY
  5
1A
102
{ACAD_REACTORS
330
C
102
}
330
C
100
AcDbDictionary
281
     1
  3
Layout1
350
1E
  3
Model
350
22
  0
DICTIONARY
  5
3B
102
{ACAD_REACTORS
330
C
102
}
330
C
100
AcDbDictionary
281
     1
  3
ByBlock
350
3D
  3
ByLayer
350
3C
  3
Global
350
3E
  0
DICTIONARY
  5
183
102
{ACAD_REACTORS
330
C
102
}
330
C
100
AcDbDictionary
281
     1
  0
DICTIONARY
  5
17
102
{ACAD_REACTORS
330
C
102
}
330
C
100
AcDbDictionary
281
     1
  3
Standard
350
18
  0
DICTIONARY
  5
19
102
{ACAD_REACTORS
330
C
102
}
330
C
100
AcDbDictionary
281
     1
  0
ACDBDICTIONARYWDFLT
  5
E
102
{ACAD_REACTORS
330
C
102
}
330
C
100
AcDbDictionary
281
     1
  3
Normal
350
F
100
AcDbDictionaryWithDefault
340
F
  0
DICTIONARY
  5
2A
102
{ACAD_REACTORS
330
C
102
}
330
C
100
AcDbDictionary
281
     1
  3
2dWireframe
350
2F
  3
3D Hidden
350
31
  3
3dWireframe
350
30
  3
Basic
350
32
  3
Brighten
350
36
  3
ColorChange
350
3A
  3
Conceptual
350
34
  3
Dim
350
35
  3
Facepattern
350
39
  3
Flat
350
2B
  3
FlatWithEdges
350
2C
  3
Gouraud
350
2D
  3
GouraudWithEdges
350
2E
  3
Linepattern
350
38
  3
Realistic
350
33
  3
Thicken
350
37
  0
DICTIONARY
  5
181
102
{ACAD_REACTORS
330
C
102
}
330
C
100
AcDbDictionary
281
     1
  3
DIMASSOC
350
186
  3
HIDETEXT
350
187
  3
PSOLHEIGHT
350
185
  3
PSOLWIDTH
350
184
  0
LAYOUT
  5
1E
102
{ACAD_REACTORS
330
1A
102
}
330
1A
100
AcDbPlotSettings
  1

  2
none_device
  4

  6

 40
0.0
 41
0.0
 42
0.0
 43
0.0
 44
0.0
 45
0.0
 46
0.0
 47
0.0
 48
0.0
 49
0.0
140
0.0
141
0.0
142
1.0
143
1.0
 70
   688
 72
     0
 73
     0
 74
     5
  7

 75
    16
147
1.0
148
0.0
149
0.0
100
AcDbLayout
  1
Layout1
 70
     1
 71
     1
 10
0.0
 20
0.0
 11
210.0
 21
297.0
 12
0.0
 22
0.0
 32
0.0
 14
0.0
 24
0.0
 34
0.0
 15
210.0
 25
297.0
 35
0.0
146
0.0
 13
0.0
 23
0.0
 33
0.0
 16
1.0
 26
0.0
 36
0.0
 17
0.0
 27
1.0
 37
0.0
 76
     0
330
1B
  0
LAYOUT
  5
22
102
{ACAD_REACTORS
330
1A
102
}
330
1A
100
AcDbPlotSettings
  1

  2
none_device
  4

  6

 40
0.0
 41
0.0
 42
0.0
 43
0.0
 44
0.0
 45
0.0
 46
0.0
 47
0.0
 48
0.0
 49
0.0
140
0.0
141
0.0
142
1.0
143
1.0
 70
  1712
 72
     0
 73
     0
 74
     0
  7

 75
     0
147
1.0
148
0.0
149
0.0
100
AcDbLayout
  1
Model
 70
     1
 71
     0
 10
0.0
 20
0.0
 11
210.0
 21
297.0
 12
0.0
 22
0.0
 32
0.0
 14
0.0
 24
0.0
 34
0.0
 15
210.0
 25
297.0
 35
0.0
146
0.0
 13
0.0
 23
0.0
 33
0.0
 16
1.0
 26
0.0
 36
0.0
 17
0.0
 27
1.0
 37
0.0
 76
     0
330
1F
331
29
  0
MATERIAL
  5
3D
102
{ACAD_REACTORS
330
3B
102
}
102
{ACAD_XDICTIONARY
360
1AA
102
}
330
3B
100
AcDbMaterial
  1
ByBlock
  0
MATERIAL
  5
3C
102
{ACAD_REACTORS
330
3B
102
}
102
{ACAD_XDICTIONARY
360
1A8
102
}
330
3B
100
AcDbMaterial
  1
ByLayer
  0
MATERIAL
  5
3E
102
{ACAD_REACTORS
330
3B
102
}
102
{ACAD_XDICTIONARY
360
1AC
102
}
330
3B
100
AcDbMaterial
  1
Global
  0
MLINESTYLE
  5
18
102
{ACAD_REACTORS
330
17
102
}
330
17
100
AcDbMlineStyle
  2
Standard
 70
     0
  3

 62
   256
 51
90.0
 52
90.0
 71
     2
 49
0.5
 62
   256
  6
BYLAYER
 49
-0.5
 62
   256
  6
BYLAYER
  0
ACDBPLACEHOLDER
  5
F
102
{ACAD_REACTORS
330
E
102
}
330
E
  0
VISUALSTYLE
  5
2F
102
{ACAD_REACTORS
330
2A
102
}
102
{ACAD_XDICTIONARY
360
190
102
}
330
2A
100
AcDbVisualStyle
  2
2dWireframe
 70
     4
 71
     0
 72
     2
 73
     0
 90
        0
 40
-0.6
 41
-30.0
 62
     5
 63
     7
 74
     1
 91
        4
 64
     7
 65
   257
 75
     1
175
     1
 42
1.0
 92
        0
 66
   257
 43
1.0
 76
     1
 77
     6
 78
     2
 67
     7
 79
     5
170
     0
171
     0
290
     0
174
     0
 93
        1
 44
0.0
173
     0
291
     0
 45
0.0
1001
ACAD
1000
AcDbSavedByObjectVersion
1070
     0
  0
VISUALSTYLE
  5
31
102
{ACAD_REACTORS
330
2A
102
}
102
{ACAD_XDICTIONARY
360
194
102
}
330
2A
100
AcDbVisualStyle
  2
3D Hidden
 70
     6
 71
     1
 72
     2
 73
     2
 90
        0
 40
-0.6
 41
-30.0
 62
     5
 63
     7
 74
     2
 91
        2
 64
     7
 65
   257
 75
     2
175
     1
 42
40.0
 92
        0
 66
   257
 43
1.0
 76
     1
 77
     6
 78
     2
 67
     7
 79
     3
170
     0
171
     0
290
     0
174
     0
 93
        1
 44
0.0
173
     0
291
     0
 45
0.0
1001
ACAD
1000
AcDbSavedByObjectVersion
1070
     0
  0
VISUALSTYLE
  5
30
102
{ACAD_REACTORS
330
2A
102
}
102
{ACAD_XDICTIONARY
360
192
102
}
330
2A
100
AcDbVisualStyle
  2
3dWireframe
 70
     5
 71
     0
 72
     2
 73
     0
 90
        0
 40
-0.6
 41
-30.0
 62
     5
 63
     7
 74
     1
 91
        4
 64
     7
 65
   257
 75
     1
175
     1
 42
1.0
 92
        0
 66
   257
 43
1.0
 76
     1
 77
     6
 78
     2
 67
     7
 79
     5
170
     0
171
     0
290
     0
174
     0
 93
        1
 44
0.0
173
     0
291
     0
 45
0.0
1001
ACAD
1000
AcDbSavedByObjectVersion
1070
     0
  0
VISUALSTYLE
  5
32
102
{ACAD_REACTORS
330
2A
102
}
102
{ACAD_XDICTIONARY
360
196
102
}
330
2A
100
AcDbVisualStyle
  2
Basic
 70
     7
 71
     1
 72
     0
 73
     1
 90
        0
 40
-0.6
 41
-30.0
 62
     5
 63
     7
 74
     0
 91
        4
 64
     7
 65
   257
 75
     1
175
     1
 42
1.0
 92
        8
 66
     7
 43
1.0
 76
     1
 77
     6
 78
     2
 67
     7
 79
     5
170
     0
171
     0
290
     0
174
     0
 93
        1
 44
0.0
173
     0
291
     1
 45
0.0
1001
ACAD
1000
AcDbSavedByObjectVersion
1070
     0
  0
VISUALSTYLE
  5
36
102
{ACAD_REACTORS
330
2A
102
}
102
{ACAD_XDICTIONARY
360
19E
102
}
330
2A
100
AcDbVisualStyle
  2
Brighten
 70
    12
 71
     2
 72
     2
 73
     0
 90
        0
 40
-0.6
 41
-30.0
 62
     5
 63
     7
 74
     1
 91
        4
 64
     7
 65
   257
 75
     1
175
     1
 42
1.0
 92
        8
 66
     7
 43
1.0
 76
     1
 77
     6
 78
     2
 67
     7
 79
     5
170
     0
171
     0
290
     0
174
     0
 93
        1
 44
50.0
173
     0
291
     1
 45
0.0
1001
ACAD
1000
AcDbSavedByObjectVersion
1070
     0
  0
VISUALSTYLE
  5
3A
102
{ACAD_REACTORS
330
2A
102
}
102
{ACAD_XDICTIONARY
360
1A6
102
}
330
2A
100
AcDbVisualStyle
  2
ColorChange
 70
    16
 71
     2
 72
     2
 73
     3
 90
        0
 40
-0.6
 41
-30.0
 62
     5
 63
     8
 74
     1
 91
        4
 64
     7
 65
   257
 75
     1
175
     1
 42
1.0
 92
        8
 66
     8
 43
1.0
 76
     1
 77
     6
 78
     2
 67
     7
 79
     5
170
     0
171
     0
290
     0
174
     0
 93
        1
 44
0.0
173
     0
291
     1
 45
0.0
1001
ACAD
1000
AcDbSavedByObjectVersion
1070
     0
  0
VISUALSTYLE
  5
34
102
{ACAD_REACTORS
330
2A
102
}
102
{ACAD_XDICTIONARY
360
19A
102
}
330
2A
100
AcDbVisualStyle
  2
Conceptual
 70
     9
 71
     3
 72
     2
 73
     0
 90
        0
 40
-0.6
 41
-30.0
 62
     5
 63
     7
 74
     2
 91
        2
 64
     7
 65
   257
 75
     1
175
     1
 42
40.0
 92
        8
 66
     7
 43
1.0
 76
     1
 77
     6
 78
     2
 67
     7
 79
     3
170
     0
171
     0
290
     0
174
     0
 93
        1
 44
0.0
173
     0
291
     0
 45
0.0
1001
ACAD
1000
AcDbSavedByObjectVersion
1070
     0
  0
VISUALSTYLE
  5
35
102
{ACAD_REACTORS
330
2A
102
}
102
{ACAD_XDICTIONARY
360
19C
102
}
330
2A
100
AcDbVisualStyle
  2
Dim
 70
    11
 71
     2
 72
     2
 73
     0
 90
        0
 40
-0.6
 41
-30.0
 62
     5
 63
     7
 74
     1
 91
        4
 64
     7
 65
   257
 75
     1
175
     1
 42
1.0
 92
        8
 66
     7
 43
1.0
 76
     1
 77
     6
 78
     2
 67
     7
 79
     5
170
     0
171
     0
290
     0
174
     0
 93
        1
 44
-50.0
173
     0
291
     1
 45
0.0
1001
ACAD
1000
AcDbSavedByObjectVersion
1070
     0
  0
VISUALSTYLE
  5
39
102
{ACAD_REACTORS
330
2A
102
}
102
{ACAD_XDICTIONARY
360
1A4
102
}
330
2A
100
AcDbVisualStyle
  2
Facepattern
 70
    15
 71
     2
 72
     2
 73
     0
 90
        0
 40
-0.6
 41
-30.0
 62
     5
 63
     7
 74
     1
 91
        4
 64
     7
 65
   257
 75
     1
175
     1
 42
1.0
 92
        8
 66
     7
 43
1.0
 76
     1
 77
     6
 78
     2
 67
     7
 79
     5
170
     0
171
     0
290
     0
174
     0
 93
        1
 44
0.0
173
     0
291
     1
 45
0.0
1001
ACAD
1000
AcDbSavedByObjectVersion
1070
     0
  0
VISUALSTYLE
  5
2B
102
{ACAD_REACTORS
330
2A
102
}
102
{ACAD_XDICTIONARY
360
188
102
}
330
2A
100
AcDbVisualStyle
  2
Flat
 70
     0
 71
     2
 72
     1
 73
     1
 90
        2
 40
-0.6
 41
30.0
 62
     5
 63
     7
 74
     0
 91
        4
 64
     7
 65
   257
 75
     1
175
     1
 42
1.0
 92
        8
 66
     7
 43
1.0
 76
     1
 77
     6
 78
     2
 67
     7
 79
     5
170
     0
171
     0
290
     0
174
     0
 93
       13
 44
0.0
173
     0
291
     1
 45
0.0
1001
ACAD
1000
AcDbSavedByObjectVersion
1070
     0
  0
VISUALSTYLE
  5
2C
102
{ACAD_REACTORS
330
2A
102
}
102
{ACAD_XDICTIONARY
360
18A
102
}
330
2A
100
AcDbVisualStyle
  2
FlatWithEdges
 70
     1
 71
     2
 72
     1
 73
     1
 90
        2
 40
-0.6
 41
30.0
 62
     5
 63
     7
 74
     1
 91
        4
 64
     7
 65
   257
 75
     1
175
     1
 42
1.0
 92
        0
 66
   257
 43
1.0
 76
     1
 77
     6
 78
     2
 67
     7
 79
     5
170
     0
171
     0
290
     0
174
     0
 93
       13
 44
0.0
173
     0
291
     1
 45
0.0
1001
ACAD
1000
AcDbSavedByObjectVersion
1070
     0
  0
VISUALSTYLE
  5
2D
102
{ACAD_REACTORS
330
2A
102
}
102
{ACAD_XDICTIONARY
360
18C
102
}
330
2A
100
AcDbVisualStyle
  2
Gouraud
 70
     2
 71
     2
 72
     2
 73
     1
 90
        2
 40
-0.6
 41
30.0
 62
     5
 63
     7
 74
     0
 91
        4
 64
     7
 65
   257
 75
     1
175
     1
 42
1.0
 92
        0
 66
     7
 43
1.0
 76
     1
 77
     6
 78
     2
 67
     7
 79
     5
170
     0
171
     0
290
     0
174
     0
 93
       13
 44
0.0
173
     0
291
     1
 45
0.0
1001
ACAD
1000
AcDbSavedByObjectVersion
1070
     0
  0
VISUALSTYLE
  5
2E
102
{ACAD_REACTORS
330
2A
102
}
102
{ACAD_XDICTIONARY
360
18E
102
}
330
2A
100
AcDbVisualStyle
  2
GouraudWithEdges
 70
     3
 71
     2
 72
     2
 73
     1
 90
        2
 40
-0.6
 41
30.0
 62
     5
 63
     7
 74
     1
 91
        4
 64
     7
 65
   257
 75
     1
175
     1
 42
1.0
 92
        0
 66
   257
 43
1.0
 76
     1
 77
     6
 78
     2
 67
     7
 79
     5
170
     0
171
     0
290
     0
174
     0
 93
       13
 44
0.0
173
     0
291
     1
 45
0.0
1001
ACAD
1000
AcDbSavedByObjectVersion
1070
     0
  0
VISUALSTYLE
  5
38
102
{ACAD_REACTORS
330
2A
102
}
102
{ACAD_XDICTIONARY
360
1A2
102
}
330
2A
100
AcDbVisualStyle
  2
Linepattern
 70
    14
 71
     2
 72
     2
 73
     0
 90
        0
 40
-0.6
 41
-30.0
 62
     5
 63
     7
 74
     1
 91
        4
 64
     7
 65
   257
 75
     7
175
     7
 42
1.0
 92
        8
 66
     7
 43
1.0
 76
     1
 77
     6
 78
     2
 67
     7
 79
     5
170
     0
171
     0
290
     0
174
     0
 93
        1
 44
0.0
173
     0
291
     1
 45
0.0
1001
ACAD
1000
AcDbSavedByObjectVersion
1070
     0
  0
VISUALSTYLE
  5
33
102
{ACAD_REACTORS
330
2A
102
}
102
{ACAD_XDICTIONARY
360
198
102
}
330
2A
100
AcDbVisualStyle
  2
Realistic
 70
     8
 71
     2
 72
     2
 73
     0
 90
        0
 40
-0.6
 41
-30.0
 62
     5
 63
     7
 74
     1
 91
        0
 64
     7
 65
   257
 75
     1
175
     1
 42
1.0
 92
        8
 66
     8
 43
1.0
 76
     1
 77
     6
 78
     2
 67
     7
 79
     5
170
     0
171
     0
290
     0
174
     0
 93
       13
 44
0.0
173
     0
291
     0
 45
0.0
1001
ACAD
1000
AcDbSavedByObjectVersion
1070
     0
  0
VISUALSTYLE
  5
37
102
{ACAD_REACTORS
330
2A
102
}
102
{ACAD_XDICTIONARY
360
1A0
102
}
330
2A
100
AcDbVisualStyle
  2
Thicken
 70
    13
 71
     2
 72
     2
 73
     0
 90
        0
 40
-0.6
 41
-30.0
 62
     5
 63
     7
 74
     1
 91
        4
 64
     7
 65
   257
 75
     1
175
     1
 42
1.0
 92
       12
 66
     7
 43
1.0
 76
     1
 77
     6
 78
     2
 67
     7
 79
     5
170
     0
171
     0
290
     0
174
     0
 93
        1
 44
0.0
173
     0
291
     1
 45
0.0
1001
ACAD
1000
AcDbSavedByObjectVersion
1070
     0
  0
DICTIONARYVAR
  5
186
102
{ACAD_REACTORS
330
181
102
}
330
181
100
DictionaryVariables
280
     0
  1
2
  0
DICTIONARYVAR
  5
187
102
{ACAD_REACTORS
330
181
102
}
330
181
100
DictionaryVariables
280
     0
  1
1
  0
DICTIONARYVAR
  5
185
102
{ACAD_REACTORS
330
181
102
}
330
181
100
DictionaryVariables
280
     0
  1
80.000000
  0
DICTIONARYVAR
  5
184
102
{ACAD_REACTORS
330
181
102
}
330
181
100
DictionaryVariables
280
     0
  1
5.000000
  0
DICTIONARY
  5
1AA
330
3D
100
AcDbDictionary
280
     1
281
     1
  3
ACAD_XREC_ROUNDTRIP
360
1AB
  0
DICTIONARY
  5
1A8
330
3C
100
AcDbDictionary
280
     1
281
     1
  3
ACAD_XREC_ROUNDTRIP
360
1A9
  0
DICTIONARY
  5
1AC
330
3E
100
AcDbDictionary
280
     1
281
     1
  3
ACAD_XREC_ROUNDTRIP
360
1AD
  0
DICTIONARY
  5
190
330
2F
100
AcDbDictionary
280
     1
281
     1
  3
ACAD_XREC_ROUNDTRIP
360
191
  0
DICTIONARY
  5
194
330
31
100
AcDbDictionary
280
     1
281
     1
  3
ACAD_XREC_ROUNDTRIP
360
195
  0
DICTIONARY
  5
192
330
30
100
AcDbDictionary
280
     1
281
     1
  3
ACAD_XREC_ROUNDTRIP
360
193
  0
DICTIONARY
  5
196
330
32
100
AcDbDictionary
280
     1
281
     1
  3
ACAD_XREC_ROUNDTRIP
360
197
  0
DICTIONARY
  5
19E
330
36
100
AcDbDictionary
280
     1
281
     1
  3
ACAD_XREC_ROUNDTRIP
360
19F
  0
DICTIONARY
  5
1A6
330
3A
100
AcDbDictionary
280
     1
281
     1
  3
ACAD_XREC_ROUNDTRIP
360
1A7
  0
DICTIONARY
  5
19A
330
34
100
AcDbDictionary
280
     1
281
     1
  3
ACAD_XREC_ROUNDTRIP
360
19B
  0
DICTIONARY
  5
19C
330
35
100
AcDbDictionary
280
     1
281
     1
  3
ACAD_XREC_ROUNDTRIP
360
19D
  0
DICTIONARY
  5
1A4
330
39
100
AcDbDictionary
280
     1
281
     1
  3
ACAD_XREC_ROUNDTRIP
360
1A5
  0
DICTIONARY
  5
188
330
2B
100
AcDbDictionary
280
     1
281
     1
  3
ACAD_XREC_ROUNDTRIP
360
189
  0
DICTIONARY
  5
18A
330
2C
100
AcDbDictionary
280
     1
281
     1
  3
ACAD_XREC_ROUNDTRIP
360
18B
  0
DICTIONARY
  5
18C
330
2D
100
AcDbDictionary
280
     1
281
     1
  3
ACAD_XREC_ROUNDTRIP
360
18D
  0
DICTIONARY
  5
18E
330
2E
100
AcDbDictionary
280
     1
281
     1
  3
ACAD_XREC_ROUNDTRIP
360
18F
  0
DICTIONARY
  5
1A2
330
38
100
AcDbDictionary
280
     1
281
     1
  3
ACAD_XREC_ROUNDTRIP
360
1A3
  0
DICTIONARY
  5
198
330
33
100
AcDbDictionary
280
     1
281
     1
  3
ACAD_XREC_ROUNDTRIP
360
199
  0
DICTIONARY
  5
1A0
330
37
100
AcDbDictionary
280
     1
281
     1
  3
ACAD_XREC_ROUNDTRIP
360
1A1
  0
XRECORD
  5
1AB
102
{ACAD_REACTORS
330
1AA
102
}
330
1AA
100
AcDbXrecord
280
     1
102
MATERIAL
148
0.0
149
0.0
149
0.0
 93
        0
 94
      127
282
     0
 72
     1
 77
     1
171
     1
175
     1
179
     1
273
     0
  0
XRECORD
  5
1A9
102
{ACAD_REACTORS
330
1A8
102
}
330
1A8
100
AcDbXrecord
280
     1
102
MATERIAL
148
0.0
149
0.0
149
0.0
 93
        0
 94
      127
282
     0
 72
     1
 77
     1
171
     1
175
     1
179
     1
273
     0
  0
XRECORD
  5
1AD
102
{ACAD_REACTORS
330
1AC
102
}
330
1AC
100
AcDbXrecord
280
     1
102
MATERIAL
148
0.0
149
0.0
149
0.0
 93
        0
 94
      127
282
     0
 72
     1
 77
     1
171
     1
175
     1
179
     1
273
     0
  0
XRECORD
  5
191
102
{ACAD_REACTORS
330
190
102
}
330
190
100
AcDbXrecord
280
     1
102
RTVSPropertyOp0
 70
     1
102
RTVSPropertyOp1
 70
     1
102
RTVSPropertyOp2
 70
     1
102
RTVSPropertyOp3
 70
     1
102
RTVSPropertyOp4
 70
     1
102
RTVSPropertyOp5
 70
     1
102
RTVSPropertyOp6
 70
     1
102
RTVSPropertyOp7
 70
     1
102
RTVSPropertyOp8
 70
     1
102
RTVSPropertyOp9
 70
     1
102
RTVSPropertyOp10
 70
     1
102
RTVSPropertyOp11
 70
     1
102
RTVSPropertyOp12
 70
     1
102
RTVSPropertyOp13
 70
     1
102
RTVSPropertyOp14
 70
     1
102
RTVSPropertyOp15
 70
     1
102
RTVSPropertyOp16
 70
     1
102
RTVSPropertyOp17
 70
     1
102
RTVSPropertyOp18
 70
     1
102
RTVSPropertyOp19
 70
     1
102
RTVSPropertyOp20
 70
     1
102
RTVSPropertyOp21
 70
     1
102
RTVSPropertyOp22
 70
     1
102
RTVSPropertyOp23
 70
     1
102
RTVSPropertyOp24
 70
     1
102
RTVSPropertyOp25
 70
     1
102
RTVSPropertyOp26
 70
     1
102
RTVSPropertyOp27
 70
     1
102
RTVSPropertyOp28
 70
     1
102
RTVSPropertyOp29
 70
     1
102
RTVSPropertyOp30
 70
     1
102
RTVSPropertyOp31
 70
     1
102
RTVSPropertyOp32
 70
     1
  0
XRECORD
  5
195
102
{ACAD_REACTORS
330
194
102
}
330
194
100
AcDbXrecord
280
     1
102
RTVSPropertyOp0
 70
     1
102
RTVSPropertyOp1
 70
     1
102
RTVSPropertyOp2
 70
     1
102
RTVSPropertyOp3
 70
     1
102
RTVSPropertyOp4
 70
     1
102
RTVSPropertyOp5
 70
     1
102
RTVSPropertyOp6
 70
     1
102
RTVSPropertyOp7
 70
     1
102
RTVSPropertyOp8
 70
     1
102
RTVSPropertyOp9
 70
     1
102
RTVSPropertyOp10
 70
     1
102
RTVSPropertyOp11
 70
     1
102
RTVSPropertyOp12
 70
     1
102
RTVSPropertyOp13
 70
     1
102
RTVSPropertyOp14
 70
     1
102
RTVSPropertyOp15
 70
     1
102
RTVSPropertyOp16
 70
     1
102
RTVSPropertyOp17
 70
     1
102
RTVSPropertyOp18
 70
     1
102
RTVSPropertyOp19
 70
     1
102
RTVSPropertyOp20
 70
     1
102
RTVSPropertyOp21
 70
     1
102
RTVSPropertyOp22
 70
     1
102
RTVSPropertyOp23
 70
     1
102
RTVSPropertyOp24
 70
     1
102
RTVSPropertyOp25
 70
     1
102
RTVSPropertyOp26
 70
     1
102
RTVSPropertyOp27
 70
     1
102
RTVSPropertyOp28
 70
     1
102
RTVSPropertyOp29
 70
     1
102
RTVSPropertyOp30
 70
     1
102
RTVSPropertyOp31
 70
     1
102
RTVSPropertyOp32
 70
     1
  0
XRECORD
  5
193
102
{ACAD_REACTORS
330
192
102
}
330
192
100
AcDbXrecord
280
     1
102
RTVSPropertyOp0
 70
     1
102
RTVSPropertyOp1
 70
     1
102
RTVSPropertyOp2
 70
     1
102
RTVSPropertyOp3
 70
     1
102
RTVSPropertyOp4
 70
     1
102
RTVSPropertyOp5
 70
     1
102
RTVSPropertyOp6
 70
     1
102
RTVSPropertyOp7
 70
     1
102
RTVSPropertyOp8
 70
     1
102
RTVSPropertyOp9
 70
     1
102
RTVSPropertyOp10
 70
     1
102
RTVSPropertyOp11
 70
     1
102
RTVSPropertyOp12
 70
     1
102
RTVSPropertyOp13
 70
     1
102
RTVSPropertyOp14
 70
     1
102
RTVSPropertyOp15
 70
     1
102
RTVSPropertyOp16
 70
     1
102
RTVSPropertyOp17
 70
     1
102
RTVSPropertyOp18
 70
     1
102
RTVSPropertyOp19
 70
     1
102
RTVSPropertyOp20
 70
     1
102
RTVSPropertyOp21
 70
     1
102
RTVSPropertyOp22
 70
     1
102
RTVSPropertyOp23
 70
     1
102
RTVSPropertyOp24
 70
     1
102
RTVSPropertyOp25
 70
     1
102
RTVSPropertyOp26
 70
     1
102
RTVSPropertyOp27
 70
     1
102
RTVSPropertyOp28
 70
     1
102
RTVSPropertyOp29
 70
     1
102
RTVSPropertyOp30
 70
     1
102
RTVSPropertyOp31
 70
     1
102
RTVSPropertyOp32
 70
     1
  0
XRECORD
  5
197
102
{ACAD_REACTORS
330
196
102
}
330
196
100
AcDbXrecord
280
     1
102
RTVSPropertyOp0
 70
     1
102
RTVSPropertyOp1
 70
     1
102
RTVSPropertyOp2
 70
     1
102
RTVSPropertyOp3
 70
     1
102
RTVSPropertyOp4
 70
     1
102
RTVSPropertyOp5
 70
     1
102
RTVSPropertyOp6
 70
     1
102
RTVSPropertyOp7
 70
     1
102
RTVSPropertyOp8
 70
     1
102
RTVSPropertyOp9
 70
     1
102
RTVSPropertyOp10
 70
     1
102
RTVSPropertyOp11
 70
     1
102
RTVSPropertyOp12
 70
     1
102
RTVSPropertyOp13
 70
     1
102
RTVSPropertyOp14
 70
     1
102
RTVSPropertyOp15
 70
     1
102
RTVSPropertyOp16
 70
     1
102
RTVSPropertyOp17
 70
     1
102
RTVSPropertyOp18
 70
     1
102
RTVSPropertyOp19
 70
     1
102
RTVSPropertyOp20
 70
     1
102
RTVSPropertyOp21
 70
     1
102
RTVSPropertyOp22
 70
     1
102
RTVSPropertyOp23
 70
     1
102
RTVSPropertyOp24
 70
     1
102
RTVSPropertyOp25
 70
     1
102
RTVSPropertyOp26
 70
     1
102
RTVSPropertyOp27
 70
     1
102
RTVSPropertyOp28
 70
     1
102
RTVSPropertyOp29
 70
     1
102
RTVSPropertyOp30
 70
     1
102
RTVSPropertyOp31
 70
     1
102
RTVSPropertyOp32
 70
     1
  0
XRECORD
  5
19F
102
{ACAD_REACTORS
330
19E
102
}
330
19E
100
AcDbXrecord
280
     1
102
RTVSPropertyOp0
 70
     1
102
RTVSPropertyOp1
 70
     1
102
RTVSPropertyOp2
 70
     1
102
RTVSPropertyOp3
 70
     1
102
RTVSPropertyOp4
 70
     1
102
RTVSPropertyOp5
 70
     1
102
RTVSPropertyOp6
 70
     1
102
RTVSPropertyOp7
 70
     1
102
RTVSPropertyOp8
 70
     1
102
RTVSPropertyOp9
 70
     1
102
RTVSPropertyOp10
 70
     1
102
RTVSPropertyOp11
 70
     1
102
RTVSPropertyOp12
 70
     1
102
RTVSPropertyOp13
 70
     1
102
RTVSPropertyOp14
 70
     1
102
RTVSPropertyOp15
 70
     1
102
RTVSPropertyOp16
 70
     1
102
RTVSPropertyOp17
 70
     1
102
RTVSPropertyOp18
 70
     1
102
RTVSPropertyOp19
 70
     1
102
RTVSPropertyOp20
 70
     1
102
RTVSPropertyOp21
 70
     1
102
RTVSPropertyOp22
 70
     1
102
RTVSPropertyOp23
 70
     1
102
RTVSPropertyOp24
 70
     1
102
RTVSPropertyOp25
 70
     1
102
RTVSPropertyOp26
 70
     1
102
RTVSPropertyOp27
 70
     1
102
RTVSPropertyOp28
 70
     1
102
RTVSPropertyOp29
 70
     1
102
RTVSPropertyOp30
 70
     1
102
RTVSPropertyOp31
 70
     1
102
RTVSPropertyOp32
 70
     1
  0
XRECORD
  5
1A7
102
{ACAD_REACTORS
330
1A6
102
}
330
1A6
100
AcDbXrecord
280
     1
102
RTVSPropertyOp0
 70
     1
102
RTVSPropertyOp1
 70
     1
102
RTVSPropertyOp2
 70
     1
102
RTVSPropertyOp3
 70
     1
102
RTVSPropertyOp4
 70
     1
102
RTVSPropertyOp5
 70
     1
102
RTVSPropertyOp6
 70
     1
102
RTVSPropertyOp7
 70
     1
102
RTVSPropertyOp8
 70
     1
102
RTVSPropertyOp9
 70
     1
102
RTVSPropertyOp10
 70
     1
102
RTVSPropertyOp11
 70
     1
102
RTVSPropertyOp12
 70
     1
102
RTVSPropertyOp13
 70
     1
102
RTVSPropertyOp14
 70
     1
102
RTVSPropertyOp15
 70
     1
102
RTVSPropertyOp16
 70
     1
102
RTVSPropertyOp17
 70
     1
102
RTVSPropertyOp18
 70
     1
102
RTVSPropertyOp19
 70
     1
102
RTVSPropertyOp20
 70
     1
102
RTVSPropertyOp21
 70
     1
102
RTVSPropertyOp22
 70
     1
102
RTVSPropertyOp23
 70
     1
102
RTVSPropertyOp24
 70
     1
102
RTVSPropertyOp25
 70
     1
102
RTVSPropertyOp26
 70
     1
102
RTVSPropertyOp27
 70
     1
102
RTVSPropertyOp28
 70
     1
102
RTVSPropertyOp29
 70
     1
102
RTVSPropertyOp30
 70
     1
102
RTVSPropertyOp31
 70
     1
102
RTVSPropertyOp32
 70
     1
  0
XRECORD
  5
19B
102
{ACAD_REACTORS
330
19A
102
}
330
19A
100
AcDbXrecord
280
     1
102
RTVSPropertyOp0
 70
     1
102
RTVSPropertyOp1
 70
     1
102
RTVSPropertyOp2
 70
     1
102
RTVSPropertyOp3
 70
     1
102
RTVSPropertyOp4
 70
     1
102
RTVSPropertyOp5
 70
     1
102
RTVSPropertyOp6
 70
     1
102
RTVSPropertyOp7
 70
     1
102
RTVSPropertyOp8
 70
     1
102
RTVSPropertyOp9
 70
     1
102
RTVSPropertyOp10
 70
     1
102
RTVSPropertyOp11
 70
     1
102
RTVSPropertyOp12
 70
     1
102
RTVSPropertyOp13
 70
     1
102
RTVSPropertyOp14
 70
     1
102
RTVSPropertyOp15
 70
     1
102
RTVSPropertyOp16
 70
     1
102
RTVSPropertyOp17
 70
     1
102
RTVSPropertyOp18
 70
     1
102
RTVSPropertyOp19
 70
     1
102
RTVSPropertyOp20
 70
     1
102
RTVSPropertyOp21
 70
     1
102
RTVSPropertyOp22
 70
     1
102
RTVSPropertyOp23
 70
     1
102
RTVSPropertyOp24
 70
     1
102
RTVSPropertyOp25
 70
     1
102
RTVSPropertyOp26
 70
     1
102
RTVSPropertyOp27
 70
     1
102
RTVSPropertyOp28
 70
     1
102
RTVSPropertyOp29
 70
     1
102
RTVSPropertyOp30
 70
     1
102
RTVSPropertyOp31
 70
     1
102
RTVSPropertyOp32
 70
     1
  0
XRECORD
  5
19D
102
{ACAD_REACTORS
330
19C
102
}
330
19C
100
AcDbXrecord
280
     1
102
RTVSPropertyOp0
 70
     1
102
RTVSPropertyOp1
 70
     1
102
RTVSPropertyOp2
 70
     1
102
RTVSPropertyOp3
 70
     1
102
RTVSPropertyOp4
 70
     1
102
RTVSPropertyOp5
 70
     1
102
RTVSPropertyOp6
 70
     1
102
RTVSPropertyOp7
 70
     1
102
RTVSPropertyOp8
 70
     1
102
RTVSPropertyOp9
 70
     1
102
RTVSPropertyOp10
 70
     1
102
RTVSPropertyOp11
 70
     1
102
RTVSPropertyOp12
 70
     1
102
RTVSPropertyOp13
 70
     1
102
RTVSPropertyOp14
 70
     1
102
RTVSPropertyOp15
 70
     1
102
RTVSPropertyOp16
 70
     1
102
RTVSPropertyOp17
 70
     1
102
RTVSPropertyOp18
 70
     1
102
RTVSPropertyOp19
 70
     1
102
RTVSPropertyOp20
 70
     1
102
RTVSPropertyOp21
 70
     1
102
RTVSPropertyOp22
 70
     1
102
RTVSPropertyOp23
 70
     1
102
RTVSPropertyOp24
 70
     1
102
RTVSPropertyOp25
 70
     1
102
RTVSPropertyOp26
 70
     1
102
RTVSPropertyOp27
 70
     1
102
RTVSPropertyOp28
 70
     1
102
RTVSPropertyOp29
 70
     1
102
RTVSPropertyOp30
 70
     1
102
RTVSPropertyOp31
 70
     1
102
RTVSPropertyOp32
 70
     1
  0
XRECORD
  5
1A5
102
{ACAD_REACTORS
330
1A4
102
}
330
1A4
100
AcDbXrecord
280
     1
102
RTVSPropertyOp0
 70
     1
102
RTVSPropertyOp1
 70
     1
102
RTVSPropertyOp2
 70
     1
102
RTVSPropertyOp3
 70
     1
102
RTVSPropertyOp4
 70
     1
102
RTVSPropertyOp5
 70
     1
102
RTVSPropertyOp6
 70
     1
102
RTVSPropertyOp7
 70
     1
102
RTVSPropertyOp8
 70
     1
102
RTVSPropertyOp9
 70
     1
102
RTVSPropertyOp10
 70
     1
102
RTVSPropertyOp11
 70
     1
102
RTVSPropertyOp12
 70
     1
102
RTVSPropertyOp13
 70
     1
102
RTVSPropertyOp14
 70
     1
102
RTVSPropertyOp15
 70
     1
102
RTVSPropertyOp16
 70
     1
102
RTVSPropertyOp17
 70
     1
102
RTVSPropertyOp18
 70
     1
102
RTVSPropertyOp19
 70
     1
102
RTVSPropertyOp20
 70
     1
102
RTVSPropertyOp21
 70
     1
102
RTVSPropertyOp22
 70
     1
102
RTVSPropertyOp23
 70
     1
102
RTVSPropertyOp24
 70
     1
102
RTVSPropertyOp25
 70
     1
102
RTVSPropertyOp26
 70
     1
102
RTVSPropertyOp27
 70
     1
102
RTVSPropertyOp28
 70
     1
102
RTVSPropertyOp29
 70
     1
102
RTVSPropertyOp30
 70
     1
102
RTVSPropertyOp31
 70
     1
102
RTVSPropertyOp32
 70
     1
  0
XRECORD
  5
189
102
{ACAD_REACTORS
330
188
102
}
330
188
100
AcDbXrecord
280
     1
102
RTVSPropertyOp0
 70
     1
102
RTVSPropertyOp1
 70
     1
102
RTVSPropertyOp2
 70
     1
102
RTVSPropertyOp3
 70
     1
102
RTVSPropertyOp4
 70
     1
102
RTVSPropertyOp5
 70
     1
102
RTVSPropertyOp6
 70
     1
102
RTVSPropertyOp7
 70
     1
102
RTVSPropertyOp8
 70
     1
102
RTVSPropertyOp9
 70
     1
102
RTVSPropertyOp10
 70
     1
102
RTVSPropertyOp11
 70
     1
102
RTVSPropertyOp12
 70
     1
102
RTVSPropertyOp13
 70
     1
102
RTVSPropertyOp14
 70
     1
102
RTVSPropertyOp15
 70
     1
102
RTVSPropertyOp16
 70
     1
102
RTVSPropertyOp17
 70
     1
102
RTVSPropertyOp18
 70
     1
102
RTVSPropertyOp19
 70
     1
102
RTVSPropertyOp20
 70
     1
102
RTVSPropertyOp21
 70
     1
102
RTVSPropertyOp22
 70
     1
102
RTVSPropertyOp23
 70
     1
102
RTVSPropertyOp24
 70
     1
102
RTVSPropertyOp25
 70
     1
102
RTVSPropertyOp26
 70
     1
102
RTVSPropertyOp27
 70
     1
102
RTVSPropertyOp28
 70
     1
102
RTVSPropertyOp29
 70
     1
102
RTVSPropertyOp30
 70
     1
102
RTVSPropertyOp31
 70
     1
102
RTVSPropertyOp32
 70
     1
  0
XRECORD
  5
18B
102
{ACAD_REACTORS
330
18A
102
}
330
18A
100
AcDbXrecord
280
     1
102
RTVSPropertyOp0
 70
     1
102
RTVSPropertyOp1
 70
     1
102
RTVSPropertyOp2
 70
     1
102
RTVSPropertyOp3
 70
     1
102
RTVSPropertyOp4
 70
     1
102
RTVSPropertyOp5
 70
     1
102
RTVSPropertyOp6
 70
     1
102
RTVSPropertyOp7
 70
     1
102
RTVSPropertyOp8
 70
     1
102
RTVSPropertyOp9
 70
     1
102
RTVSPropertyOp10
 70
     1
102
RTVSPropertyOp11
 70
     1
102
RTVSPropertyOp12
 70
     1
102
RTVSPropertyOp13
 70
     1
102
RTVSPropertyOp14
 70
     1
102
RTVSPropertyOp15
 70
     1
102
RTVSPropertyOp16
 70
     1
102
RTVSPropertyOp17
 70
     1
102
RTVSPropertyOp18
 70
     1
102
RTVSPropertyOp19
 70
     1
102
RTVSPropertyOp20
 70
     1
102
RTVSPropertyOp21
 70
     1
102
RTVSPropertyOp22
 70
     1
102
RTVSPropertyOp23
 70
     1
102
RTVSPropertyOp24
 70
     1
102
RTVSPropertyOp25
 70
     1
102
RTVSPropertyOp26
 70
     1
102
RTVSPropertyOp27
 70
     1
102
RTVSPropertyOp28
 70
     1
102
RTVSPropertyOp29
 70
     1
102
RTVSPropertyOp30
 70
     1
102
RTVSPropertyOp31
 70
     1
102
RTVSPropertyOp32
 70
     1
  0
XRECORD
  5
18D
102
{ACAD_REACTORS
330
18C
102
}
330
18C
100
AcDbXrecord
280
     1
102
RTVSPropertyOp0
 70
     1
102
RTVSPropertyOp1
 70
     1
102
RTVSPropertyOp2
 70
     1
102
RTVSPropertyOp3
 70
     1
102
RTVSPropertyOp4
 70
     1
102
RTVSPropertyOp5
 70
     1
102
RTVSPropertyOp6
 70
     1
102
RTVSPropertyOp7
 70
     1
102
RTVSPropertyOp8
 70
     1
102
RTVSPropertyOp9
 70
     1
102
RTVSPropertyOp10
 70
     1
102
RTVSPropertyOp11
 70
     1
102
RTVSPropertyOp12
 70
     1
102
RTVSPropertyOp13
 70
     1
102
RTVSPropertyOp14
 70
     1
102
RTVSPropertyOp15
 70
     1
102
RTVSPropertyOp16
 70
     1
102
RTVSPropertyOp17
 70
     1
102
RTVSPropertyOp18
 70
     1
102
RTVSPropertyOp19
 70
     1
102
RTVSPropertyOp20
 70
     1
102
RTVSPropertyOp21
 70
     1
102
RTVSPropertyOp22
 70
     1
102
RTVSPropertyOp23
 70
     1
102
RTVSPropertyOp24
 70
     1
102
RTVSPropertyOp25
 70
     1
102
RTVSPropertyOp26
 70
     1
102
RTVSPropertyOp27
 70
     1
102
RTVSPropertyOp28
 70
     1
102
RTVSPropertyOp29
 70
     1
102
RTVSPropertyOp30
 70
     1
102
RTVSPropertyOp31
 70
     1
102
RTVSPropertyOp32
 70
     1
  0
XRECORD
  5
18F
102
{ACAD_REACTORS
330
18E
102
}
330
18E
100
AcDbXrecord
280
     1
102
RTVSPropertyOp0
 70
     1
102
RTVSPropertyOp1
 70
     1
102
RTVSPropertyOp2
 70
     1
102
RTVSPropertyOp3
 70
     1
102
RTVSPropertyOp4
 70
     1
102
RTVSPropertyOp5
 70
     1
102
RTVSPropertyOp6
 70
     1
102
RTVSPropertyOp7
 70
     1
102
RTVSPropertyOp8
 70
     1
102
RTVSPropertyOp9
 70
     1
102
RTVSPropertyOp10
 70
     1
102
RTVSPropertyOp11
 70
     1
102
RTVSPropertyOp12
 70
     1
102
RTVSPropertyOp13
 70
     1
102
RTVSPropertyOp14
 70
     1
102
RTVSPropertyOp15
 70
     1
102
RTVSPropertyOp16
 70
     1
102
RTVSPropertyOp17
 70
     1
102
RTVSPropertyOp18
 70
     1
102
RTVSPropertyOp19
 70
     1
102
RTVSPropertyOp20
 70
     1
102
RTVSPropertyOp21
 70
     1
102
RTVSPropertyOp22
 70
     1
102
RTVSPropertyOp23
 70
     1
102
RTVSPropertyOp24
 70
     1
102
RTVSPropertyOp25
 70
     1
102
RTVSPropertyOp26
 70
     1
102
RTVSPropertyOp27
 70
     1
102
RTVSPropertyOp28
 70
     1
102
RTVSPropertyOp29
 70
     1
102
RTVSPropertyOp30
 70
     1
102
RTVSPropertyOp31
 70
     1
102
RTVSPropertyOp32
 70
     1
  0
XRECORD
  5
1A3
102
{ACAD_REACTORS
330
1A2
102
}
330
1A2
100
AcDbXrecord
280
     1
102
RTVSPropertyOp0
 70
     1
102
RTVSPropertyOp1
 70
     1
102
RTVSPropertyOp2
 70
     1
102
RTVSPropertyOp3
 70
     1
102
RTVSPropertyOp4
 70
     1
102
RTVSPropertyOp5
 70
     1
102
RTVSPropertyOp6
 70
     1
102
RTVSPropertyOp7
 70
     1
102
RTVSPropertyOp8
 70
     1
102
RTVSPropertyOp9
 70
     1
102
RTVSPropertyOp10
 70
     1
102
RTVSPropertyOp11
 70
     1
102
RTVSPropertyOp12
 70
     1
102
RTVSPropertyOp13
 70
     1
102
RTVSPropertyOp14
 70
     1
102
RTVSPropertyOp15
 70
     1
102
RTVSPropertyOp16
 70
     1
102
RTVSPropertyOp17
 70
     1
102
RTVSPropertyOp18
 70
     1
102
RTVSPropertyOp19
 70
     1
102
RTVSPropertyOp20
 70
     1
102
RTVSPropertyOp21
 70
     1
102
RTVSPropertyOp22
 70
     1
102
RTVSPropertyOp23
 70
     1
102
RTVSPropertyOp24
 70
     1
102
RTVSPropertyOp25
 70
     1
102
RTVSPropertyOp26
 70
     1
102
RTVSPropertyOp27
 70
     1
102
RTVSPropertyOp28
 70
     1
102
RTVSPropertyOp29
 70
     1
102
RTVSPropertyOp30
 70
     1
102
RTVSPropertyOp31
 70
     1
102
RTVSPropertyOp32
 70
     1
  0
XRECORD
  5
199
102
{ACAD_REACTORS
330
198
102
}
330
198
100
AcDbXrecord
280
     1
102
RTVSPropertyOp0
 70
     1
102
RTVSPropertyOp1
 70
     1
102
RTVSPropertyOp2
 70
     1
102
RTVSPropertyOp3
 70
     1
102
RTVSPropertyOp4
 70
     1
102
RTVSPropertyOp5
 70
     1
102
RTVSPropertyOp6
 70
     1
102
RTVSPropertyOp7
 70
     1
102
RTVSPropertyOp8
 70
     1
102
RTVSPropertyOp9
 70
     1
102
RTVSPropertyOp10
 70
     1
102
RTVSPropertyOp11
 70
     1
102
RTVSPropertyOp12
 70
     1
102
RTVSPropertyOp13
 70
     1
102
RTVSPropertyOp14
 70
     1
102
RTVSPropertyOp15
 70
     1
102
RTVSPropertyOp16
 70
     1
102
RTVSPropertyOp17
 70
     1
102
RTVSPropertyOp18
 70
     1
102
RTVSPropertyOp19
 70
     1
102
RTVSPropertyOp20
 70
     1
102
RTVSPropertyOp21
 70
     1
102
RTVSPropertyOp22
 70
     1
102
RTVSPropertyOp23
 70
     1
102
RTVSPropertyOp24
 70
     1
102
RTVSPropertyOp25
 70
     1
102
RTVSPropertyOp26
 70
     1
102
RTVSPropertyOp27
 70
     1
102
RTVSPropertyOp28
 70
     1
102
RTVSPropertyOp29
 70
     1
102
RTVSPropertyOp30
 70
     1
102
RTVSPropertyOp31
 70
     1
102
RTVSPropertyOp32
 70
     1
  0
XRECORD
  5
1A1
102
{ACAD_REACTORS
330
1A0
102
}
330
1A0
100
AcDbXrecord
280
     1
102
RTVSPropertyOp0
 70
     1
102
RTVSPropertyOp1
 70
     1
102
RTVSPropertyOp2
 70
     1
102
RTVSPropertyOp3
 70
     1
102
RTVSPropertyOp4
 70
     1
102
RTVSPropertyOp5
 70
     1
102
RTVSPropertyOp6
 70
     1
102
RTVSPropertyOp7
 70
     1
102
RTVSPropertyOp8
 70
     1
102
RTVSPropertyOp9
 70
     1
102
RTVSPropertyOp10
 70
     1
102
RTVSPropertyOp11
 70
     1
102
RTVSPropertyOp12
 70
     1
102
RTVSPropertyOp13
 70
     1
102
RTVSPropertyOp14
 70
     1
102
RTVSPropertyOp15
 70
     1
102
RTVSPropertyOp16
 70
     1
102
RTVSPropertyOp17
 70
     1
102
RTVSPropertyOp18
 70
     1
102
RTVSPropertyOp19
 70
     1
102
RTVSPropertyOp20
 70
     1
102
RTVSPropertyOp21
 70
     1
102
RTVSPropertyOp22
 70
     1
102
RTVSPropertyOp23
 70
     1
102
RTVSPropertyOp24
 70
     1
102
RTVSPropertyOp25
 70
     1
102
RTVSPropertyOp26
 70
     1
102
RTVSPropertyOp27
 70
     1
102
RTVSPropertyOp28
 70
     1
102
RTVSPropertyOp29
 70
     1
102
RTVSPropertyOp30
 70
     1
102
RTVSPropertyOp31
 70
     1
102
RTVSPropertyOp32
 70
     1
  0
ENDSEC
  0
EOF
