  0
SECTION
  2
HEADER
  9
$ACADVER
  1
AC1015
  9
$ACADMAINTVER
 70
     6
  9
$DWGCODEPAGE
  3
ANSI_1252
  9
$INSBASE
 10
0.0
 20
0.0
 30
0.0
  9
$EXTMIN
 10
0.0
 20
0.0
 30
0.0
  9
$EXTMAX
 10
210.0
 20
297.0
 30
0.0
  9
$LIMMIN
 10
0.0
 20
0.0
  9
$LIMMAX
 10
210.0
 20
297.0
  9
$ORTHOMODE
 70
     0
  9
$REGENMODE
 70
     1
  9
$FILLMODE
 70
     1
  9
$QTEXTMODE
 70
     0
  9
$MIRRTEXT
 70
     1
  9
$LTSCALE
 40
1.0
  9
$ATTMODE
 70
     1
  9
$TEXTSIZE
 40
2.5
  9
$TRACEWID
 40
1.0
  9
$TEXTSTYLE
  7
Standard
  9
$CLAYER
  8
0
  9
$CELTYPE
  6
ByLayer
  9
$CECOLOR
 62
   256
  9
$CELTSCALE
 40
1.0
  9
$DISPSILH
 70
     0
  9
$DIMSCALE
 40
1.0
  9
$DIMASZ
 40
2.5
  9
$DIMEXO
 40
0.625
  9
$DIMDLI
 40
3.75
  9
$DIMRND
 40
0.0
  9
$DIMDLE
 40
0.0
  9
$DIMEXE
 40
1.25
  9
$DIMTP
 40
0.0
  9
$DIMTM
 40
0.0
  9
$DIMTXT
 40
2.5
  9
$DIMCEN
 40
2.5
  9
$DIMTSZ
 40
0.0
  9
$DIMTOL
 70
     0
  9
$DIMLIM
 70
     0
  9
$DIMTIH
 70
     0
  9
$DIMTOH
 70
     0
  9
$DIMSE1
 70
     0
  9
$DIMSE2
 70
     0
  9
$DIMTAD
 70
     1
  9
$DIMZIN
 70
     8
  9
$DIMBLK
  1

  9
$DIMASO
 70
     1
  9
$DIMSHO
 70
     1
  9
$DIMPOST
  1

  9
$DIMAPOST
  1

  9
$DIMALT
 70
     0
  9
$DIMALTD
 70
     3
  9
$DIMALTF
 40
0.0393700787
  9
$DIMLFAC
 40
1.0
  9
$DIMTOFL
 70
     1
  9
$DIMTVP
 40
0.0
  9
$DIMTIX
 70
     0
  9
$DIMSOXD
 70
     0
  9
$DIMSAH
 70
     0
  9
$DIMBLK1
  1

  9
$DIMBLK2
  1

  9
$DIMSTYLE
  2
ISO-25
  9
$DIMCLRD
 70
     0
  9
$DIMCLRE
 70
     0
  9
$DIMCLRT
 70
     0
  9
$DIMTFAC
 40
1.0
  9
$DIMGAP
 40
0.625
  9
$DIMJUST
 70
     0
  9
$DIMSD1
 70
     0
  9
$DIMSD2
 70
     0
  9
$DIMTOLJ
 70
     0
  9
$DIMTZIN
 70
     8
  9
$DIMALTZ
 70
     0
  9
$DIMALTTZ
 70
     0
  9
$DIMUPT
 70
     0
  9
$DIMDEC
 70
     2
  9
$DIMTDEC
 70
     2
  9
$DIMALTU
 70
     2
  9
$DIMALTTD
 70
     3
  9
$DIMTXSTY
  7
Standard
  9
$DIMAUNIT
 70
     0
  9
$DIMADEC
 70
     0
  9
$DIMALTRND
 40
0.0
  9
$DIMAZIN
 70
     0
  9
$DIMDSEP
 70
    44
  9
$DIMATFIT
 70
     3
  9
$DIMFRAC
 70
     0
  9
$DIMLDRBLK
  1

  9
$DIMLUNIT
 70
     2
  9
$DIMLWD
 70
    -2
  9
$DIMLWE
 70
    -2
  9
$DIMTMOVE
 70
     0
  9
$LUNITS
 70
     2
  9
$LUPREC
 70
     4
  9
$SKETCHINC
 40
1.0
  9
$FILLETRAD
 40
10.0
  9
$AUNITS
 70
     0
  9
$AUPREC
 70
     0
  9
$MENU
  1
.
  9
$ELEVATION
 40
0.0
  9
$PELEVATION
 40
0.0
  9
$THICKNESS
 40
0.0
  9
$LIMCHECK
 70
     0
  9
$CHAMFERA
 40
10.0
  9
$CHAMFERB
 40
10.0
  9
$CHAMFERC
 40
20.0
  9
$CHAMFERD
 40
0.0
  9
$SKPOLY
 70
     0
  9
$TDCREATE
 40
2457564.407871678
  9
$TDUCREATE
 40
2457564.324538345
  9
$TDUPDATE
 40
2457564.407873796
  9
$TDUUPDATE
 40
2457564.324540463
  9
$TDINDWG
 40
0.0000000116
  9
$TDUSRTIMER
 40
0.0000000116
  9
$USRTIMER
 70
     1
  9
$ANGBASE
 50
0.0
  9
$ANGDIR
 70
     0
  9
$PDMODE
 70
     0
  9
$PDSIZE
 40
0.0
  9
$PLINEWID
 40
0.0
  9
$SPLFRAME
 70
     0
  9
$SPLINETYPE
 70
     6
  9
$SPLINESEGS
 70
     8
  9
$HANDSEED
  5
1A9
  9
$SURFTAB1
 70
     6
  9
$SURFTAB2
 70
     6
  9
$SURFTYPE
 70
     6
  9
$SURFU
 70
     6
  9
$SURFV
 70
     6
  9
$UCSBASE
  2

  9
$UCSNAME
  2

  9
$UCSORG
 10
0.0
 20
0.0
 30
0.0
  9
$UCSXDIR
 10
1.0
 20
0.0
 30
0.0
  9
$UCSYDIR
 10
0.0
 20
1.0
 30
0.0
  9
$UCSORTHOREF
  2

  9
$UCSORTHOVIEW
 70
     0
  9
$UCSORGTOP
 10
0.0
 20
0.0
 30
0.0
  9
$UCSORGBOTTOM
 10
0.0
 20
0.0
 30
0.0
  9
$UCSORGLEFT
 10
0.0
 20
0.0
 30
0.0
  9
$UCSORGRIGHT
 10
0.0
 20
0.0
 30
0.0
  9
$UCSORGFRONT
 10
0.0
 20
0.0
 30
0.0
  9
$UCSORGBACK
 10
0.0
 20
0.0
 30
0.0
  9
$PUCSBASE
  2

  9
$PUCSNAME
  2

  9
$PUCSORG
 10
0.0
 20
0.0
 30
0.0
  9
$PUCSXDIR
 10
1.0
 20
0.0
 30
0.0
  9
$PUCSYDIR
 10
0.0
 20
1.0
 30
0.0
  9
$PUCSORTHOREF
  2

  9
$PUCSORTHOVIEW
 70
     0
  9
$PUCSORGTOP
 10
0.0
 20
0.0
 30
0.0
  9
$PUCSORGBOTTOM
 10
0.0
 20
0.0
 30
0.0
  9
$PUCSORGLEFT
 10
0.0
 20
0.0
 30
0.0
  9
$PUCSORGRIGHT
 10
0.0
 20
0.0
 30
0.0
  9
$PUCSORGFRONT
 10
0.0
 20
0.0
 30
0.0
  9
$PUCSORGBACK
 10
0.0
 20
0.0
 30
0.0
  9
$USERI1
 70
     0
  9
$USERI2
 70
     0
  9
$USERI3
 70
     0
  9
$USERI4
 70
     0
  9
$USERI5
 70
     0
  9
$USERR1
 40
0.0
  9
$USERR2
 40
0.0
  9
$USERR3
 40
0.0
  9
$USERR4
 40
0.0
  9
$USERR5
 40
0.0
  9
$WORLDVIEW
 70
     1
  9
$SHADEDGE
 70
     3
  9
$SHADEDIF
 70
    70
  9
$TILEMODE
 70
     1
  9
$MAXACTVP
 70
    64
  9
$PINSBASE
 10
0.0
 20
0.0
 30
0.0
  9
$PLIMCHECK
 70
     0
  9
$PEXTMIN
 10
0.0
 20
0.0
 30
0.0
  9
$PEXTMAX
 10
210.0
 20
297.0
 30
0.0
  9
$PLIMMIN
 10
0.0
 20
0.0
  9
$PLIMMAX
 10
210.0
 20
297.0
  9
$UNITMODE
 70
     0
  9
$VISRETAIN
 70
     1
  9
$PLINEGEN
 70
     0
  9
$PSLTSCALE
 70
     1
  9
$TREEDEPTH
 70
  3020
  9
$CMLSTYLE
  2
Standard
  9
$CMLJUST
 70
     0
  9
$CMLSCALE
 40
20.0
  9
$PROXYGRAPHICS
 70
     1
  9
$MEASUREMENT
 70
     1
  9
$CELWEIGHT
370
    -1
  9
$ENDCAPS
280
     0
  9
$JOINSTYLE
280
     0
  9
$LWDISPLAY
290
     0
  9
$INSUNITS
 70
     4
  9
$HYPERLINKBASE
  1

  9
$STYLESHEET
  1

  9
$XEDIT
290
     1
  9
$CEPSNTYPE
380
     0
  9
$PSTYLEMODE
290
     1
  9
$FINGERPRINTGUID
  2
{0D2AC8D6-FE1F-4914-BE51-D5852AE0C455}
  9
$VERSIONGUID
  2
{FAEB1C32-E019-11D5-929B-00C0DF256EC4}
  9
$EXTNAMES
290
     1
  9
$PSVPSCALE
 40
0.0
  9
$OLESTARTUP
290
     0
  0
ENDSEC
  0
SECTION
  2
CLASSES
  0
CLASS
  1
ACDBDICTIONARYWDFLT
  2
AcDbDictionaryWithDefault
  3
ObjectDBX Classes
 90
        0
280
     0
281
     0
  0
CLASS
  1
VISUALSTYLE
  2
AcDbVisualStyle
  3
ObjectDBX Classes
 90
     4095
280
     0
281
     0
  0
CLASS
  1
MATERIAL
  2
AcDbMaterial
  3
ObjectDBX Classes
 90
     1153
280
     0
281
     0
  0
CLASS
  1
DICTIONARYVAR
  2
AcDbDictionaryVar
  3
ObjectDBX Classes
 90
        0
280
     0
281
     0
  0
CLASS
  1
ACDBPLACEHOLDER
  2
AcDbPlaceHolder
  3
ObjectDBX Classes
 90
        0
280
     0
281
     0
  0
CLASS
  1
LAYOUT
  2
AcDbLayout
  3
ObjectDBX Classes
 90
        0
280
     0
281
     0
  0
ENDSEC
  0
SECTION
  2
TABLES
  0
TABLE
  2
VPORT
  5
8
330
0
100
AcDbSymbolTable
 70
     1
  0
VPORT
  5
29
330
8
100
AcDbSymbolTableRecord
100
AcDbViewportTableRecord
  2
*Active
 70
     0
 10
0.0
 20
0.0
 11
1.0
 21
1.0
 12
344.1869158879
 22
148.5
 13
0.0
 23
0.0
 14
10.0
 24
10.0
 15
10.0
 25
10.0
 16
0.0
 26
0.0
 36
1.0
 17
0.0
 27
0.0
 37
0.0
 40
297.0
 41
1.9729729729
 42
50.0
 43
0.0
 44
0.0
 50
0.0
 51
0.0
 71
     0
 72
   100
 73
     1
 74
     3
 75
     0
 76
     0
 77
     0
 78
     0
281
     0
 65
     1
110
0.0
120
0.0
130
0.0
111
1.0
121
0.0
131
0.0
112
0.0
122
1.0
132
0.0
 79
     0
146
0.0
  0
ENDTAB
  0
TABLE
  2
LTYPE
  5
5
330
0
100
AcDbSymbolTable
 70
     2
  0
LTYPE
  5
14
330
5
100
AcDbSymbolTableRecord
100
AcDbLinetypeTableRecord
  2
ByBlock
 70
     0
  3

 72
    65
 73
     0
 40
0.0
  0
LTYPE
  5
15
330
5
100
AcDbSymbolTableRecord
100
AcDbLinetypeTableRecord
  2
ByLayer
 70
     0
  3

 72
    65
 73
     0
 40
0.0
  0
LTYPE
  5
16
330
5
100
AcDbSymbolTableRecord
100
AcDbLinetypeTableRecord
  2
Continuous
 70
     0
  3
Solid line
 72
    65
 73
     0
 40
0.0
  0
LTYPE
  5
50
330
5
100
AcDbSymbolTableRecord
100
AcDbLinetypeTableRecord
  2
HIDDEN2
 70
     0
  3
Hidden (.5x) _ _ _ _ _ _ _ _ _ _ _ _ _ _ _ _ _ 
 72
    65
 73
     2
 40
4.7625
 49
3.175
 74
     4
 75
     0
340
0
 46
0.0
 50
0.0
 44
0.0
 45
0.0
 49
-1.5875
 74
     4
 75
     0
340
0
 46
0.0
 50
0.0
 44
0.0
 45
0.0
  0
ENDTAB
  0
TABLE
  2
LAYER
  5
2
330
0
100
AcDbSymbolTable
 70
     5
  0
LAYER
  5
10
330
2
100
AcDbSymbolTableRecord
100
AcDbLayerTableRecord
  2
0
 70
     0
 62
     7
  6
Continuous
370
    -3
390
F
  0
LAYER
  5
3F
330
2
100
AcDbSymbolTableRecord
100
AcDbLayerTableRecord
  2
SK1
 70
     0
 62
     4
  6
Continuous
370
    18
390
F
  0
LAYER
  5
4F
330
2
100
AcDbSymbolTableRecord
100
AcDbLayerTableRecord
  2
SK3
 70
     0
 62
     1
  6
HIDDEN2
370
    15
390
F
  0
LAYER
  5
125
330
2
100
AcDbSymbolTableRecord
100
AcDbLayerTableRecord
  2
SK4
 70
     0
 62
     2
  6
Continuous
370
    13
390
F
  0
LAYER
  5
127
330
2
100
AcDbSymbolTableRecord
100
AcDbLayerTableRecord
  2
SK2
 70
     0
 62
     7
  6
Continuous
370
    15
390
F
  0
ENDTAB
  0
TABLE
  2
STYLE
  5
3
330
0
100
AcDbSymbolTable
 70
     2
  0
STYLE
  5
11
330
3
100
AcDbSymbolTableRecord
100
AcDbTextStyleTableRecord
  2
Standard
 70
     0
 40
0.0
 41
1.0
 50
0.0
 71
     0
 42
2.5
  3
txt
  4

  0
STYLE
  5
13A
330
3
100
AcDbSymbolTableRecord
100
AcDbTextStyleTableRecord
  2
SEACAD_Solid_Edge_ISO
 70
     0
 40
0.0
 41
1.0
 50
0.0
 71
     0
 42
0.2
  3
seiso.ttf
  4

1001
ACAD
1000
Solid Edge ISO
1071
        0
  0
ENDTAB
  0
TABLE
  2
VIEW
  5
6
330
0
100
AcDbSymbolTable
 70
     0
  0
ENDTAB
  0
TABLE
  2
UCS
  5
7
330
0
100
AcDbSymbolTable
 70
     0
  0
ENDTAB
  0
TABLE
  2
APPID
  5
9
330
0
100
AcDbSymbolTable
 70
     1
  0
APPID
  5
12
330
9
100
AcDbSymbolTableRecord
100
AcDbRegAppTableRecord
  2
ACAD
 70
     0
  0
ENDTAB
  0
TABLE
  2
DIMSTYLE
  5
A
330
0
100
AcDbSymbolTable
 70
     3
100
AcDbDimStyleTable
  0
DIMSTYLE
105
27
330
A
100
AcDbSymbolTableRecord
100
AcDbDimStyleTableRecord
  2
ISO-25
 70
     0
 41
2.5
 42
0.625
 43
3.75
 44
1.25
 73
     0
 74
     0
 77
     1
 78
     8
140
2.5
141
2.5
143
0.0393700787
147
0.625
171
     3
172
     1
178
     0
271
     2
272
     2
274
     3
278
    44
283
     0
284
     8
340
11
  0
DIMSTYLE
105
128
330
A
100
AcDbSymbolTableRecord
100
AcDbDimStyleTableRecord
  2
Standard
 70
     0
178
     0
340
11
  0
DIMSTYLE
105
13B
102
{ACAD_REACTORS
330
13C
330
146
330
151
330
15B
102
}
330
A
100
AcDbSymbolTableRecord
100
AcDbDimStyleTableRecord
  2
DIN
 70
     0
 41
3.5
 42
0.0
 44
1.75
 73
     0
 74
     0
 77
     1
 78
     8
140
3.5
141
1.75
147
1.75
172
     1
173
     1
178
     0
179
     3
271
     2
272
     2
278
    44
284
     8
340
13A
343
135
344
135
  0
ENDTAB
  0
TABLE
  2
BLOCK_RECORD
  5
1
330
0
100
AcDbSymbolTable
 70
    10
  0
BLOCK_RECORD
  5
1F
330
1
100
AcDbSymbolTableRecord
100
AcDbBlockTableRecord
  2
*Model_Space
340
22
  0
BLOCK_RECORD
  5
1B
330
1
100
AcDbSymbolTableRecord
100
AcDbBlockTableRecord
  2
*Paper_Space
340
1E
  0
BLOCK_RECORD
  5
129
330
1
100
AcDbSymbolTableRecord
100
AcDbBlockTableRecord
  2
_OBLIQUE
340
0
  0
BLOCK_RECORD
  5
12D
330
1
100
AcDbSymbolTableRecord
100
AcDbBlockTableRecord
  2
_DOT
340
0
  0
BLOCK_RECORD
  5
135
330
1
100
AcDbSymbolTableRecord
100
AcDbBlockTableRecord
  2
_SE_FILLED
340
0
  0
BLOCK_RECORD
  5
13D
330
1
100
AcDbSymbolTableRecord
100
AcDbBlockTableRecord
  2
DMBLK87
340
0
  0
BLOCK_RECORD
  5
147
330
1
100
AcDbSymbolTableRecord
100
AcDbBlockTableRecord
  2
DMBLK88
340
0
  0
BLOCK_RECORD
  5
152
330
1
100
AcDbSymbolTableRecord
100
AcDbBlockTableRecord
  2
DMBLK89
340
0
  0
BLOCK_RECORD
  5
15C
330
1
100
AcDbSymbolTableRecord
100
AcDbBlockTableRecord
  2
DMBLK90
340
0
  0
BLOCK_RECORD
  5
166
330
1
100
AcDbSymbolTableRecord
100
AcDbBlockTableRecord
  2
Nullpunkt
340
0
102
{BLKREFS
331
170
102
}
  0
BLOCK_RECORD
  5
171
330
1
100
AcDbSymbolTableRecord
100
AcDbBlockTableRecord
  2
Einfügepunkt
340
0
102
{BLKREFS
331
17B
102
}
  0
ENDTAB
  0
ENDSEC
  0
SECTION
  2
BLOCKS
  0
BLOCK
  5
20
330
1F
100
AcDbEntity
  8
0
100
AcDbBlockBegin
  2
*Model_Space
 70
     0
 10
0.0
 20
0.0
 30
0.0
  3
*Model_Space
  1

  0
ENDBLK
  5
21
330
1F
100
AcDbEntity
  8
0
100
AcDbBlockEnd
  0
BLOCK
  5
1C
330
1B
100
AcDbEntity
 67
     1
  8
0
100
AcDbBlockBegin
  2
*Paper_Space
 70
     0
 10
0.0
 20
0.0
 30
0.0
  3
*Paper_Space
  1

  0
ENDBLK
  5
1D
330
1B
100
AcDbEntity
 67
     1
  8
0
100
AcDbBlockEnd
  0
BLOCK
  5
12A
330
129
100
AcDbEntity
  8
0
100
AcDbBlockBegin
  2
_OBLIQUE
 70
     0
 10
0.0
 20
0.0
 30
0.0
  3
_OBLIQUE
  1

  0
LINE
  5
12C
330
129
100
AcDbEntity
  8
0
  6
ByBlock
 62
     0
370
    -2
100
AcDbLine
 10
-0.5
 20
-0.5
 30
0.0
 11
0.5
 21
0.5
 31
0.0
  0
ENDBLK
  5
12B
330
129
100
AcDbEntity
  8
0
100
AcDbBlockEnd
  0
BLOCK
  5
12E
330
12D
100
AcDbEntity
  8
0
100
AcDbBlockBegin
  2
_DOT
 70
     0
 10
0.0
 20
0.0
 30
0.0
  3
_DOT
  1

  0
POLYLINE
  5
130
330
12D
100
AcDbEntity
  8
0
  6
ByBlock
 62
     0
100
AcDb2dPolyline
 66
     1
 10
0.0
 20
0.0
 30
0.0
 70
     1
 40
0.5
 41
0.5
  0
VERTEX
  5
132
330
130
100
AcDbEntity
  8
0
  6
ByBlock
 62
     0
100
AcDbVertex
100
AcDb2dVertex
 10
-0.25
 20
0.0
 30
0.0
 42
1.0
  0
VERTEX
  5
133
330
130
100
AcDbEntity
  8
0
  6
ByBlock
 62
     0
100
AcDbVertex
100
AcDb2dVertex
 10
0.25
 20
0.0
 30
0.0
 42
1.0
  0
SEQEND
  5
134
330
130
100
AcDbEntity
  8
0
  6
ByBlock
 62
     0
  0
LINE
  5
131
330
12D
100
AcDbEntity
  8
0
  6
ByBlock
 62
     0
370
    -2
100
AcDbLine
 10
-0.5
 20
0.0
 30
0.0
 11
-1.0
 21
0.0
 31
0.0
  0
ENDBLK
  5
12F
330
12D
100
AcDbEntity
  8
0
100
AcDbBlockEnd
  0
BLOCK
  5
138
330
135
100
AcDbEntity
  8
0
100
AcDbBlockBegin
  2
_SE_FILLED
 70
     0
 10
0.0
 20
0.0
 30
0.0
  3
_SE_FILLED
  1

  0
SOLID
  5
136
330
135
100
AcDbEntity
  8
0
 62
     0
100
AcDbTrace
 10
0.0
 20
0.0
 30
0.0
 11
-1.0
 21
-0.1665
 31
0.0
 12
-1.0
 22
0.1665
 32
0.0
 13
0.0
 23
0.0
 33
0.0
  0
LINE
  5
137
330
135
100
AcDbEntity
  8
0
 62
     0
100
AcDbLine
 10
0.0
 20
0.0
 30
0.0
 11
-1.0
 21
0.0
 31
0.0
  0
ENDBLK
  5
139
330
135
100
AcDbEntity
  8
0
100
AcDbBlockEnd
  0
BLOCK
  5
144
330
13D
100
AcDbEntity
  8
0
100
AcDbBlockBegin
  2
DMBLK87
 70
     0
 10
0.0
 20
0.0
 30
0.0
  3
DMBLK87
  1

  0
HATCH
  5
13E
330
13D
100
AcDbEntity
  8
SK2
  6
Continuous
 62
   136
100
AcDbHatch
 10
0.0
 20
0.0
 30
0.0
210
0.0
220
0.0
230
1.0
  2
SOLID
 70
     1
 71
     0
 91
        1
 92
        1
 93
        3
 72
     1
 10
-13.74415947183651
 20
18.10474084216389
 11
-17.24415957986992
 21
17.52140749082499
 72
     1
 10
-17.24415957986993
 20
17.52140749082499
 11
-13.74415947183651
 21
16.93807413948608
 72
     1
 10
-13.74415947183651
 20
16.93807413948608
 11
-13.74415947183651
 21
18.10474084216389
 97
        0
 75
     0
 76
     1
 98
        0
  0
HATCH
  5
13F
330
13D
100
AcDbEntity
  8
SK2
  6
Continuous
 62
   136
100
AcDbHatch
 10
0.0
 20
0.0
 30
0.0
210
0.0
220
0.0
230
1.0
  2
SOLID
 70
     1
 71
     0
 91
        1
 92
        1
 93
        3
 72
     1
 10
6.755840163085044
 20
18.10474084216389
 11
6.755840163085044
 21
16.93807413948608
 72
     1
 10
6.755840163085044
 20
16.93807413948608
 11
10.25584027111846
 21
17.52140749082499
 72
     1
 10
10.25584027111846
 20
17.52140749082499
 11
6.755840163085045
 21
18.10474084216389
 97
        0
 75
     0
 76
     1
 98
        0
  0
LINE
  5
140
330
13D
100
AcDbEntity
  8
SK2
  6
Continuous
 62
   136
100
AcDbLine
 10
-17.2441595799
 20
5.3100828438
 30
0.0
 11
-17.2441595799
 21
19.2714075448
 31
0.0
  0
LINE
  5
141
330
13D
100
AcDbEntity
  8
SK2
  6
Continuous
 62
   136
100
AcDbLine
 10
10.2558404201
 20
5.6011509413
 30
0.0
 11
10.2558404201
 21
19.2714075448
 31
0.0
  0
LINE
  5
142
330
13D
100
AcDbEntity
  8
SK2
  6
Continuous
 62
   136
100
AcDbLine
 10
-17.2441595799
 20
17.5214074908
 30
0.0
 11
10.2558402711
 21
17.5214074908
 31
0.0
  0
TEXT
  5
143
330
13D
100
AcDbEntity
  8
SK2
  6
Continuous
 62
   136
100
AcDbText
 10
-6.9941596544
 20
18.3964074908
 30
0.0
 40
3.5
  1
27,5
  7
SEACAD_Solid_Edge_ISO
 11
-6.9941596544
 21
21.8964074908
 31
0.0
100
AcDbText
 73
     3
  0
ENDBLK
  5
145
330
13D
100
AcDbEntity
  8
0
100
AcDbBlockEnd
  0
BLOCK
  5
14F
330
147
100
AcDbEntity
  8
0
100
AcDbBlockBegin
  2
DMBLK88
 70
     0
 10
0.0
 20
0.0
 30
0.0
  3
DMBLK88
  1

  0
HATCH
  5
148
330
147
100
AcDbEntity
  8
SK2
  6
Continuous
 62
   136
100
AcDbHatch
 10
0.0
 20
0.0
 30
0.0
210
0.0
220
0.0
230
1.0
  2
SOLID
 70
     1
 71
     0
 91
        1
 92
        1
 93
        3
 72
     1
 10
20.36989711823879
 20
-6.000000108033422
 11
19.78656376689989
 21
-2.500000000000004
 72
     1
 10
19.78656376689989
 20
-2.500000000000004
 11
19.20323041556098
 21
-6.000000108033422
 72
     1
 10
19.20323041556098
 20
-6.000000108033422
 11
20.36989711823879
 21
-6.000000108033422
 97
        0
 75
     0
 76
     1
 98
        0
  0
HATCH
  5
149
330
147
100
AcDbEntity
  8
SK2
  6
Continuous
 62
   136
100
AcDbHatch
 10
0.0
 20
0.0
 30
0.0
210
0.0
220
0.0
230
1.0
  2
SOLID
 70
     1
 71
     0
 91
        1
 92
        1
 93
        3
 72
     1
 10
20.36989711823879
 20
6.000000108033398
 11
19.20323041556098
 21
6.000000108033398
 72
     1
 10
19.20323041556098
 20
6.000000108033398
 11
19.78656376689989
 21
2.49999999999998
 72
     1
 10
19.78656376689989
 20
2.49999999999998
 11
20.36989711823879
 21
6.000000108033398
 97
        0
 75
     0
 76
     1
 98
        0
  0
LINE
  5
14A
330
147
100
AcDbEntity
  8
SK2
  6
Continuous
 62
   136
100
AcDbLine
 10
9.8558404201
 20
-2.5
 30
0.0
 11
21.5365638209
 21
-2.5
 31
0.0
  0
LINE
  5
14B
330
147
100
AcDbEntity
  8
SK2
  6
Continuous
 62
   136
100
AcDbLine
 10
9.8558404201
 20
2.5
 30
0.0
 11
21.5365638209
 21
2.5
 31
0.0
  0
LINE
  5
14C
330
147
100
AcDbEntity
  8
SK2
  6
Continuous
 62
   136
100
AcDbLine
 10
19.7865637669
 20
-9.5000002161
 30
0.0
 11
19.7865637669
 21
16.0116156936
 31
0.0
  0
TEXT
  5
14D
330
147
100
AcDbEntity
  8
SK2
  6
Continuous
 62
   136
100
AcDbText
 10
18.9115637669
 20
12.7979794376
 30
0.0
 40
3.5
  1
5
 50
90.0
  7
SEACAD_Solid_Edge_ISO
 11
15.4115637669
 21
12.7979794376
 31
0.0
100
AcDbText
 73
     3
  0
TEXT
  5
14E
330
147
100
AcDbEntity
  8
SK2
  6
Continuous
 62
   136
100
AcDbText
 10
18.9115637669
 20
8.7252521649
 30
0.0
 40
3.5
  1
ø
 50
90.0
  7
SEACAD_Solid_Edge_ISO
 11
15.4115637669
 21
8.7252521649
 31
0.0
100
AcDbText
 73
     3
  0
ENDBLK
  5
150
330
147
100
AcDbEntity
  8
0
100
AcDbBlockEnd
  0
BLOCK
  5
159
330
152
100
AcDbEntity
  8
0
100
AcDbBlockBegin
  2
DMBLK89
 70
     0
 10
0.0
 20
0.0
 30
0.0
  3
DMBLK89
  1

  0
HATCH
  5
153
330
152
100
AcDbEntity
  8
SK2
  6
Continuous
 62
   136
100
AcDbHatch
 10
0.0
 20
0.0
 30
0.0
210
0.0
220
0.0
230
1.0
  2
SOLID
 70
     1
 71
     0
 91
        1
 92
        1
 93
        3
 72
     1
 10
-3.500000108033419
 20
-16.64555291017153
 11
0.0
 21
-16.06221955883263
 72
     1
 10
0.0
 20
-16.06221955883263
 11
-3.500000108033418
 21
-15.47888620749373
 72
     1
 10
-3.500000108033419
 20
-15.47888620749373
 11
-3.500000108033419
 21
-16.64555291017154
 97
        0
 75
     0
 76
     1
 98
        0
  0
HATCH
  5
154
330
152
100
AcDbEntity
  8
SK2
  6
Continuous
 62
   136
100
AcDbHatch
 10
0.0
 20
0.0
 30
0.0
210
0.0
220
0.0
230
1.0
  2
SOLID
 70
     1
 71
     0
 91
        1
 92
        1
 93
        3
 72
     1
 10
13.75584052816349
 20
-16.64555291017153
 11
13.75584052816349
 21
-15.47888620749373
 72
     1
 10
13.75584052816349
 20
-15.47888620749373
 11
10.25584042013007
 21
-16.06221955883263
 72
     1
 10
10.25584042013007
 20
-16.06221955883263
 11
13.75584052816349
 21
-16.64555291017153
 97
        0
 75
     0
 76
     1
 98
        0
  0
LINE
  5
155
330
152
100
AcDbEntity
  8
SK2
  6
Continuous
 62
   136
100
AcDbLine
 10
0.0
 20
-8.0002592193
 30
0.0
 11
0.0
 21
-17.8122196128
 31
0.0
  0
LINE
  5
156
330
152
100
AcDbEntity
  8
SK2
  6
Continuous
 62
   136
100
AcDbLine
 10
10.2558404201
 20
-5.6011509339
 30
0.0
 11
10.2558404201
 21
-17.8122196128
 31
0.0
  0
LINE
  5
157
330
152
100
AcDbEntity
  8
SK2
  6
Continuous
 62
   136
100
AcDbLine
 10
-7.0000002161
 20
-16.0622195588
 30
0.0
 11
17.2558408231
 21
-16.0622195588
 31
0.0
  0
TEXT
  5
158
330
152
100
AcDbEntity
  8
SK2
  6
Continuous
 62
   136
100
AcDbText
 10
0.9120112126
 20
-15.1872195588
 30
0.0
 40
3.5
  1
10,26
  7
SEACAD_Solid_Edge_ISO
 11
0.9120112126
 21
-11.6872195588
 31
0.0
100
AcDbText
 73
     3
  0
ENDBLK
  5
15A
330
152
100
AcDbEntity
  8
0
100
AcDbBlockEnd
  0
BLOCK
  5
164
330
15C
100
AcDbEntity
  8
0
100
AcDbBlockBegin
  2
DMBLK90
 70
     0
 10
0.0
 20
0.0
 30
0.0
  3
DMBLK90
  1

  0
HATCH
  5
15D
330
15C
100
AcDbEntity
  8
SK2
  6
Continuous
 62
   136
100
AcDbHatch
 10
0.0
 20
0.0
 30
0.0
210
0.0
220
0.0
230
1.0
  2
SOLID
 70
     1
 71
     0
 91
        1
 92
        1
 93
        3
 72
     1
 10
-23.69485741170744
 20
4.500259111252989
 11
-22.52819070902963
 21
4.500259111252989
 72
     1
 10
-22.52819070902963
 20
4.500259111252989
 11
-23.11152406036854
 21
8.000259219286407
 72
     1
 10
-23.11152406036854
 20
8.000259219286407
 11
-23.69485741170744
 21
4.500259111252989
 97
        0
 75
     0
 76
     1
 98
        0
  0
HATCH
  5
15E
330
15C
100
AcDbEntity
  8
SK2
  6
Continuous
 62
   136
100
AcDbHatch
 10
0.0
 20
0.0
 30
0.0
210
0.0
220
0.0
230
1.0
  2
SOLID
 70
     1
 71
     0
 91
        1
 92
        1
 93
        3
 72
     1
 10
-23.69485741170744
 20
-4.500259247990881
 11
-23.11152406036854
 21
-8.0002593560243
 72
     1
 10
-23.11152406036854
 20
-8.0002593560243
 11
-22.52819070902963
 21
-4.500259247990881
 72
     1
 10
-22.52819070902963
 20
-4.500259247990881
 11
-23.69485741170744
 21
-4.500259247990881
 97
        0
 75
     0
 76
     1
 98
        0
  0
LINE
  5
15F
330
15C
100
AcDbEntity
  8
SK2
  6
Continuous
 62
   136
100
AcDbLine
 10
0.0
 20
8.0002592193
 30
0.0
 11
-24.8615241144
 21
8.0002592193
 31
0.0
  0
LINE
  5
160
330
15C
100
AcDbEntity
  8
SK2
  6
Continuous
 62
   136
100
AcDbLine
 10
0.0
 20
-8.0002592193
 30
0.0
 11
-24.8615241144
 21
-8.0002592193
 31
0.0
  0
LINE
  5
161
330
15C
100
AcDbEntity
  8
SK2
  6
Continuous
 62
   136
100
AcDbLine
 10
-23.1115240604
 20
8.0002592193
 30
0.0
 11
-23.1115240604
 21
-8.000259356
 31
0.0
  0
TEXT
  5
162
330
15C
100
AcDbEntity
  8
SK2
  6
Continuous
 62
   136
100
AcDbText
 10
-23.9865240604
 20
0.2465908407
 30
0.0
 40
3.5
  1
16
 50
90.0
  7
SEACAD_Solid_Edge_ISO
 11
-27.4865240604
 21
0.2465908407
 31
0.0
100
AcDbText
 73
     3
  0
TEXT
  5
163
330
15C
100
AcDbEntity
  8
SK2
  6
Continuous
 62
   136
100
AcDbText
 10
-23.9865240604
 20
-3.826136432
 30
0.0
 40
3.5
  1
ø
 50
90.0
  7
SEACAD_Solid_Edge_ISO
 11
-27.4865240604
 21
-3.826136432
 31
0.0
100
AcDbText
 73
     3
  0
ENDBLK
  5
165
330
15C
100
AcDbEntity
  8
0
100
AcDbBlockEnd
  0
BLOCK
  5
16E
330
166
100
AcDbEntity
  8
0
100
AcDbBlockBegin
  2
Nullpunkt
 70
     0
 10
0.0
 20
0.0
 30
0.0
  3
Nullpunkt
  1

  0
HATCH
  5
167
330
166
100
AcDbEntity
  8
SK2
  6
Continuous
 62
     7
100
AcDbHatch
 10
0.0
 20
0.0
 30
0.0
210
0.0
220
0.0
230
1.0
  2
SOLID
 70
     1
 71
     0
 91
        1
 92
        1
 93
        3
 72
     1
 10
-1.0
 20
0.0
 11
0.0000000000000009
 21
0.0
 72
     1
 10
0.0
 20
0.0
 11
0.0
 21
1.000000000000001
 72
     2
 10
0.0
 20
0.0
 40
1.0
 50
90.0
 51
180.0
 73
     1
 97
        0
 75
     0
 76
     1
 98
        0
  0
HATCH
  5
168
330
166
100
AcDbEntity
  8
SK2
  6
Continuous
 62
     7
100
AcDbHatch
 10
0.0
 20
0.0
 30
0.0
210
0.0
220
0.0
230
1.0
  2
SOLID
 70
     1
 71
     0
 91
        1
 92
        1
 93
        3
 72
     2
 10
0.0
 20
0.0
 40
1.0
 50
270.0
 51
360.0
 73
     1
 72
     1
 10
1.0
 20
0.0
 11
-0.0000000000000009
 21
0.0
 72
     1
 10
0.0
 20
0.0
 11
0.0
 21
-1.000000000000001
 97
        0
 75
     0
 76
     1
 98
        0
  0
CIRCLE
  5
169
330
166
100
AcDbEntity
  8
SK2
  6
Continuous
 62
     7
100
AcDbCircle
 10
0.0
 20
0.0
 30
0.0
 40
1.0
  0
LINE
  5
16A
330
166
100
AcDbEntity
  8
SK1
  6
Continuous
100
AcDbLine
 10
-1.0
 20
0.0
 30
0.0
 11
1.0
 21
0.0
 31
0.0
  0
LINE
  5
16B
330
166
100
AcDbEntity
  8
SK1
  6
Continuous
100
AcDbLine
 10
0.0
 20
1.0
 30
0.0
 11
0.0
 21
-1.0
 31
0.0
  0
POINT
  5
16C
330
166
100
AcDbEntity
  8
SK1
  6
Continuous
100
AcDbPoint
 10
0.0
 20
0.0
 30
0.0
  0
POINT
  5
16D
330
166
100
AcDbEntity
  8
SK1
  6
Continuous
100
AcDbPoint
 10
0.0
 20
0.0
 30
0.0
  0
ENDBLK
  5
16F
330
166
100
AcDbEntity
  8
0
100
AcDbBlockEnd
  0
BLOCK
  5
179
330
171
100
AcDbEntity
  8
0
100
AcDbBlockBegin
  2
Einfügepunkt
 70
     0
 10
0.0
 20
0.0
 30
0.0
  3
Einfügepunkt
  1

  0
HATCH
  5
172
330
171
100
AcDbEntity
  8
SK2
  6
Continuous
 62
     7
100
AcDbHatch
 10
0.0
 20
0.0
 30
0.0
210
0.0
220
0.0
230
1.0
  2
SOLID
 70
     1
 71
     0
 91
        1
 92
        1
 93
        3
 72
     1
 10
-0.4502381196756744
 20
-0.0000000000000018
 11
0.0000000000000033
 21
-0.0000000000000018
 72
     1
 10
0.0
 20
-0.0000000000000018
 11
0.0
 21
0.4502381196756812
 72
     2
 10
0.0
 20
-0.0000000000000018
 40
0.4502381196756812
 50
90.0
 51
180.0
 73
     1
 97
        0
 75
     0
 76
     1
 98
        0
  0
HATCH
  5
173
330
171
100
AcDbEntity
  8
SK2
  6
Continuous
 62
     7
100
AcDbHatch
 10
0.0
 20
0.0
 30
0.0
210
0.0
220
0.0
230
1.0
  2
SOLID
 70
     1
 71
     0
 91
        1
 92
        1
 93
        3
 72
     2
 10
0.0
 20
-0.0000000000000018
 40
0.4502381196756812
 50
270.0
 51
360.0
 73
     1
 72
     1
 10
0.4502381196756815
 20
-0.0000000000000018
 11
0.0000000000000038
 21
-0.0000000000000018
 72
     1
 10
0.0
 20
-0.0000000000000018
 11
0.0
 21
-0.4502381196756812
 97
        0
 75
     0
 76
     1
 98
        0
  0
CIRCLE
  5
174
330
171
100
AcDbEntity
  8
SK2
  6
Continuous
 62
     7
100
AcDbCircle
 10
0.0
 20
0.0
 30
0.0
 40
0.4502381196756812
  0
LINE
  5
175
330
171
100
AcDbEntity
  8
SK1
  6
Continuous
100
AcDbLine
 10
-0.4502381197
 20
0.0
 30
0.0
 11
0.4502381197
 21
0.0
 31
0.0
  0
LINE
  5
176
330
171
100
AcDbEntity
  8
SK1
  6
Continuous
100
AcDbLine
 10
0.0
 20
0.4502381197
 30
0.0
 11
0.0
 21
-0.4502381197
 31
0.0
  0
POINT
  5
177
330
171
100
AcDbEntity
  8
SK2
  6
Continuous
 62
     7
100
AcDbPoint
 10
0.0
 20
0.0
 30
0.0
  0
POINT
  5
178
330
171
100
AcDbEntity
  8
SK2
  6
Continuous
 62
     7
100
AcDbPoint
 10
0.0
 20
0.0
 30
0.0
  0
ENDBLK
  5
17A
330
171
100
AcDbEntity
  8
0
100
AcDbBlockEnd
  0
ENDSEC
  0
SECTION
  2
ENTITIES
  0
LINE
  5
40
330
1F
100
AcDbEntity
  8
SK1
  6
Continuous
100
AcDbLine
 10
10.2558404201
 20
5.7924926575
 30
0.0
 11
10.2558404201
 21
6.1712613559
 31
0.0
  0
LINE
  5
41
330
1F
100
AcDbEntity
  8
SK1
  6
Continuous
100
AcDbLine
 10
10.1308404201
 20
5.9926771997
 30
0.0
 11
10.1308404201
 21
6.3877677069
 31
0.0
  0
LINE
  5
42
330
1F
100
AcDbEntity
  8
SK1
  6
Continuous
100
AcDbLine
 10
6.0558404201
 20
6.4662540213
 30
0.0
 11
6.0558404201
 21
6.9
 31
0.0
  0
LINE
  5
43
330
1F
100
AcDbEntity
  8
SK1
  6
Continuous
100
AcDbLine
 10
3.7558404201
 20
6.4662540213
 30
0.0
 11
3.7558404201
 21
6.9
 31
0.0
  0
LINE
  5
44
330
1F
100
AcDbEntity
  8
SK1
  6
Continuous
100
AcDbLine
 10
3.2140884898
 20
7.9008561913
 30
0.0
 11
3.2140884898
 21
8.4519698985
 31
0.0
  0
LINE
  5
45
330
1F
100
AcDbEntity
  8
SK1
  6
Continuous
100
AcDbLine
 10
6.2558404201
 20
7.6337506883
 30
0.0
 11
6.2558404201
 21
3.432601117
 31
0.0
  0
LINE
  5
46
330
1F
100
AcDbEntity
  8
SK1
  6
Continuous
100
AcDbLine
 10
6.6975133761
 20
7.6337506883
 30
0.0
 11
6.6975133761
 21
3.432601117
 31
0.0
  0
LINE
  5
47
330
1F
100
AcDbEntity
  8
SK1
  6
Continuous
100
AcDbLine
 10
6.6975133761
 20
7.8250924045
 30
0.0
 11
6.2558404201
 21
7.8250924045
 31
0.0
  0
LINE
  5
48
330
1F
100
AcDbEntity
  8
SK1
  6
Continuous
100
AcDbLine
 10
6.6975133761
 20
7.6337506883
 30
0.0
 11
6.2558404201
 21
7.6337506883
 31
0.0
  0
LINE
  5
49
330
1F
100
AcDbEntity
  8
SK1
  6
Continuous
100
AcDbLine
 10
3.5558404201
 20
7.4349234293
 30
0.0
 11
3.5558404201
 21
3.3502441697
 31
0.0
  0
LINE
  5
4A
330
1F
100
AcDbEntity
  8
SK1
  6
Continuous
100
AcDbLine
 10
3.2140884898
 20
-8.4519698985
 30
0.0
 11
3.2140884898
 21
-7.9008561913
 31
0.0
  0
LINE
  5
4B
330
1F
100
AcDbEntity
  8
SK1
  6
Continuous
100
AcDbLine
 10
10.2558404201
 20
-6.1712613559
 30
0.0
 11
10.2558404201
 21
-5.7924926575
 31
0.0
  0
LINE
  5
4C
330
1F
100
AcDbEntity
  8
SK1
  6
Continuous
100
AcDbLine
 10
10.1308404201
 20
-6.3877677069
 30
0.0
 11
10.1308404201
 21
-5.9926771997
 31
0.0
  0
LINE
  5
4D
330
1F
100
AcDbEntity
  8
SK1
  6
Continuous
100
AcDbLine
 10
6.0558404201
 20
-6.9
 30
0.0
 11
6.0558404201
 21
-6.4662540213
 31
0.0
  0
LINE
  5
4E
330
1F
100
AcDbEntity
  8
SK1
  6
Continuous
100
AcDbLine
 10
3.7558404201
 20
-6.9
 30
0.0
 11
3.7558404201
 21
-6.4662540213
 31
0.0
  0
ARC
  5
51
330
1F
100
AcDbEntity
  8
SK3
100
AcDbCircle
 10
9.8696964919
 20
2.5886384053
 30
0.0
 40
0.3864364344378748
100
AcDbArc
 50
267.9451610296
 51
357.7705714667
  0
ARC
  5
52
330
1F
100
AcDbEntity
  8
SK1
  6
Continuous
100
AcDbCircle
 10
10.0272984242
 20
5.5975626322
 30
0.0
 40
0.2285701639912161
100
AcDbArc
 50
0.899519913
 51
63.0637567096
  0
LINE
  5
53
330
1F
100
AcDbEntity
  8
SK1
  6
Continuous
100
AcDbLine
 10
10.1308404201
 20
5.8013354835
 30
0.0
 11
6.6975133761
 21
7.6337506883
 31
0.0
  0
ARC
  5
54
330
1F
100
AcDbEntity
  8
SK1
  6
Continuous
100
AcDbCircle
 10
6.0631133888
 20
6.4676622201
 30
0.0
 40
0.1928870804277125
100
AcDbArc
 50
267.8391024684
 51
357.6657748029
  0
LINE
  5
55
330
1F
100
AcDbEntity
  8
SK1
  6
Continuous
100
AcDbLine
 10
6.0558404201
 20
6.2749123051
 30
0.0
 11
3.7558404201
 21
6.2749123051
 31
0.0
  0
ARC
  5
56
330
1F
100
AcDbEntity
  8
SK1
  6
Continuous
100
AcDbCircle
 10
3.7485614624
 20
6.4676557417
 30
0.0
 40
0.1928808325846506
100
AcDbArc
 50
182.332374834
 51
272.1627478967
  0
ARC
  5
57
330
1F
100
AcDbEntity
  8
SK1
  6
Continuous
100
AcDbCircle
 10
3.2632608532
 20
7.4207484601
 30
0.0
 40
0.2929227419085962
100
AcDbArc
 50
2.773711649
 51
99.6638848365
  0
SPLINE
  5
58
330
1F
100
AcDbEntity
  8
SK1
  6
Continuous
100
AcDbSpline
210
0.0
220
0.0
230
1.0
 70
     8
 71
     3
 72
    14
 73
    10
 74
     0
 42
0.0000000006523137
 43
0.0000000001
 12
1.0
 22
0.0
 32
0.0
 13
1.0
 23
0.0
 33
0.0
 40
0.0
 40
0.0
 40
0.0
 40
0.0
 40
0.1706920846189538
 40
0.1706920846189538
 40
0.1706920846189538
 40
0.913956500035061
 40
0.913956500035061
 40
0.913956500035061
 40
1.0
 40
1.0
 40
1.0
 40
1.0
 10
3.214088489841941
 20
7.709514475102206
 30
0.0
 10
2.34911607093238
 20
7.597154870615861
 30
0.0
 10
1.484143968160014
 20
7.484793188808295
 30
0.0
 10
0.6191722263783634
 20
7.372429135093596
 30
0.0
 10
-3.147274925560053
 20
6.883149255010732
 30
0.0
 10
-6.913715631592839
 20
6.393827014761353
 30
0.0
 10
-10.68014362273973
 20
5.904421253242128
 30
0.0
 10
-11.11616159973805
 20
5.847765527825231
 30
0.0
 10
-11.552179399644
 20
5.791108639095413
 30
0.0
 10
-11.98819700649169
 20
5.734450482256853
 30
0.0
  0
LINE
  5
59
330
1F
100
AcDbEntity
  8
SK3
100
AcDbLine
 10
9.8558404201
 20
2.3937921787
 30
0.0
 11
-12.3278174953
 21
2.3937921787
 31
0.0
  0
LINE
  5
5A
330
1F
100
AcDbEntity
  8
SK3
100
AcDbLine
 10
9.8558404201
 20
2.2024504625
 30
0.0
 11
-12.3278174953
 21
2.2024504625
 31
0.0
  0
ARC
  5
5B
330
1F
100
AcDbEntity
  8
SK3
100
AcDbCircle
 10
9.8696964919
 20
2.7799801215
 30
0.0
 40
0.3864364344378751
100
AcDbArc
 50
267.9451610296
 51
357.7705714667
  0
LINE
  5
5C
330
1F
100
AcDbEntity
  8
SK1
  6
Continuous
100
AcDbLine
 10
10.2558404201
 20
5.6011509413
 30
0.0
 11
10.2558404201
 21
5.7924926575
 31
0.0
  0
ARC
  5
5D
330
1F
100
AcDbEntity
  8
SK1
  6
Continuous
100
AcDbCircle
 10
10.0272984242
 20
5.7889043483
 30
0.0
 40
0.2285701639912161
100
AcDbArc
 50
0.899519913
 51
63.0637567096
  0
LINE
  5
5E
330
1F
100
AcDbEntity
  8
SK1
  6
Continuous
100
AcDbLine
 10
10.1308404201
 20
5.9926771997
 30
0.0
 11
6.6975133761
 21
7.8250924045
 31
0.0
  0
LINE
  5
5F
330
1F
100
AcDbEntity
  8
SK1
  6
Continuous
100
AcDbLine
 10
6.2558404201
 20
7.8250924045
 30
0.0
 11
6.2558404201
 21
7.6337506883
 31
0.0
  0
ARC
  5
60
330
1F
100
AcDbEntity
  8
SK1
  6
Continuous
100
AcDbCircle
 10
6.0631133888
 20
6.6590039363
 30
0.0
 40
0.1928870804277115
100
AcDbArc
 50
267.8391024684
 51
357.6657748029
  0
LINE
  5
61
330
1F
100
AcDbEntity
  8
SK1
  6
Continuous
100
AcDbLine
 10
6.0558404201
 20
6.4662540213
 30
0.0
 11
3.7558404201
 21
6.4662540213
 31
0.0
  0
ARC
  5
62
330
1F
100
AcDbEntity
  8
SK1
  6
Continuous
100
AcDbCircle
 10
3.7485614624
 20
6.6589974579
 30
0.0
 40
0.1928808325846517
100
AcDbArc
 50
182.332374834
 51
272.1627478967
  0
LINE
  5
63
330
1F
100
AcDbEntity
  8
SK1
  6
Continuous
100
AcDbLine
 10
3.5558404201
 20
7.4349234293
 30
0.0
 11
3.5558404201
 21
7.6262651455
 31
0.0
  0
ARC
  5
64
330
1F
100
AcDbEntity
  8
SK1
  6
Continuous
100
AcDbCircle
 10
3.2632608532
 20
7.6120901763
 30
0.0
 40
0.2929227419085968
100
AcDbArc
 50
2.773711649
 51
99.6638848365
  0
SPLINE
  5
65
330
1F
100
AcDbEntity
  8
SK1
  6
Continuous
100
AcDbSpline
210
0.0
220
0.0
230
1.0
 70
     8
 71
     3
 72
    14
 73
    10
 74
     0
 42
0.0000000006523137
 43
0.0000000001
 12
1.0
 22
0.0
 32
0.0
 13
1.0
 23
0.0
 33
0.0
 40
0.0
 40
0.0
 40
0.0
 40
0.0
 40
0.1706920846189539
 40
0.1706920846189539
 40
0.1706920846189539
 40
0.9139565000350611
 40
0.9139565000350611
 40
0.9139565000350611
 40
1.0
 40
1.0
 40
1.0
 40
1.0
 10
3.214088489841941
 20
7.900856191284753
 30
0.0
 10
2.34911607093238
 20
7.788496586798406
 30
0.0
 10
1.484143968160014
 20
7.676134904990841
 30
0.0
 10
0.6191722263783634
 20
7.563770851276139
 30
0.0
 10
-3.147274925560053
 20
7.074490971193276
 30
0.0
 10
-6.913715631592839
 20
6.585168730943899
 30
0.0
 10
-10.68014362273973
 20
6.095762969424672
 30
0.0
 10
-11.11616159973805
 20
6.039107244007775
 30
0.0
 10
-11.552179399644
 20
5.982450355277958
 30
0.0
 10
-11.98819700649168
 20
5.925792198439398
 30
0.0
  0
LINE
  5
66
330
1F
100
AcDbEntity
  8
SK1
  6
Continuous
100
AcDbLine
 10
6.6975133761
 20
2.9706613507
 30
0.0
 11
6.6975133761
 21
-2.9706613507
 31
0.0
  0
LINE
  5
67
330
1F
100
AcDbEntity
  8
SK1
  6
Continuous
100
AcDbLine
 10
6.2558404201
 20
2.9706613507
 30
0.0
 11
6.2558404201
 21
-2.9706613507
 31
0.0
  0
LINE
  5
68
330
1F
100
AcDbEntity
  8
SK1
  6
Continuous
100
AcDbLine
 10
3.2140884898
 20
3.463983505
 30
0.0
 11
3.2140884898
 21
7.7095144751
 31
0.0
  0
LINE
  5
69
330
1F
100
AcDbEntity
  8
SK1
  6
Continuous
100
AcDbLine
 10
3.5558404201
 20
2.8883044034
 30
0.0
 11
3.5558404201
 21
-2.8883044034
 31
0.0
  0
LINE
  5
6A
330
1F
100
AcDbEntity
  8
SK1
  6
Continuous
100
AcDbLine
 10
10.2558404201
 20
2.5906707348
 30
0.0
 11
10.2558404201
 21
5.6011509413
 31
0.0
  0
LINE
  5
6B
330
1F
100
AcDbEntity
  8
SK1
  6
Continuous
100
AcDbLine
 10
10.1308404201
 20
2.6735898872
 30
0.0
 11
10.1308404201
 21
5.8013354835
 31
0.0
  0
LINE
  5
6C
330
1F
100
AcDbEntity
  8
SK1
  6
Continuous
100
AcDbLine
 10
6.0558404201
 20
2.8697518296
 30
0.0
 11
6.0558404201
 21
6.2749123051
 31
0.0
  0
LINE
  5
6D
330
1F
100
AcDbEntity
  8
SK1
  6
Continuous
100
AcDbLine
 10
3.7558404201
 20
2.8697518296
 30
0.0
 11
3.7558404201
 21
6.2749123051
 31
0.0
  0
SPLINE
  5
6E
330
1F
100
AcDbEntity
  8
SK3
100
AcDbSpline
210
0.0
220
0.0
230
1.0
 70
     8
 71
     3
 72
    10
 73
     6
 74
     0
 42
0.0000000213797122
 43
0.0000000001
 12
1.0
 22
0.0
 32
0.0
 13
1.0
 23
0.0
 33
0.0
 40
0.0
 40
0.0
 40
0.0
 40
0.0
 40
0.5
 40
0.5
 40
1.0
 40
1.0
 40
1.0
 40
1.0
 10
9.855840420130075
 20
0.7209431358524305
 30
0.0
 10
9.961799215481468
 20
0.7209431358524303
 30
0.0
 10
10.06535771719697
 20
0.7377278092289383
 30
0.0
 10
10.21276635511098
 20
0.7945498579047672
 30
0.0
 10
10.25584042013009
 20
0.8346437172748791
 30
0.0
 10
10.25584042013007
 20
0.8746806367122512
 30
0.0
  0
SPLINE
  5
6F
330
1F
100
AcDbEntity
  8
SK1
  6
Continuous
100
AcDbSpline
210
0.0
220
0.0
230
1.0
 70
     8
 71
     3
 72
     8
 73
     4
 74
     0
 42
0.0000000587422145
 43
0.0000000001
 12
1.0
 22
0.0
 32
0.0
 13
1.0
 23
0.0
 33
0.0
 40
0.0
 40
0.0
 40
0.0
 40
0.0
 40
1.0
 40
1.0
 40
1.0
 40
1.0
 10
10.25584042013007
 20
2.12873096859316
 30
0.0
 10
10.25584042013007
 20
2.162269401475082
 30
0.0
 10
10.20713864899513
 20
2.194779683064049
 30
0.0
 10
10.13084042013007
 20
2.211650120961059
 30
0.0
  0
LINE
  5
70
330
1F
100
AcDbEntity
  8
SK1
  6
Continuous
100
AcDbLine
 10
10.1308404201
 20
2.211650121
 30
0.0
 11
6.6975133761
 21
2.9706613507
 31
0.0
  0
LINE
  5
71
330
1F
100
AcDbEntity
  8
SK1
  6
Continuous
100
AcDbLine
 10
6.6975133761
 20
2.9706613507
 30
0.0
 11
6.2558404201
 21
2.9706613507
 31
0.0
  0
SPLINE
  5
72
330
1F
100
AcDbEntity
  8
SK1
  6
Continuous
100
AcDbSpline
210
0.0
220
0.0
230
1.0
 70
     8
 71
     3
 72
    10
 73
     6
 74
     0
 42
0.0000000427803786
 43
0.0000000001
 12
1.0
 22
0.0
 32
0.0
 13
1.0
 23
0.0
 33
0.0
 40
0.0
 40
0.0
 40
0.0
 40
0.0
 40
0.5
 40
0.5
 40
1.0
 40
1.0
 40
1.0
 40
1.0
 10
6.25584042013007
 20
2.484397618170137
 30
0.0
 10
6.255840420130078
 20
2.464433972490195
 30
0.0
 10
6.234639604037191
 20
2.44457235141236
 30
0.0
 10
6.160037048968219
 20
2.415973795423534
 30
0.0
 10
6.108679182365125
 20
2.407812063294555
 30
0.0
 10
6.055840420130071
 20
2.407812063294861
 30
0.0
  0
LINE
  5
73
330
1F
100
AcDbEntity
  8
SK1
  6
Continuous
100
AcDbLine
 10
6.0558404201
 20
2.4078120633
 30
0.0
 11
3.7558404201
 21
2.4078120633
 31
0.0
  0
SPLINE
  5
74
330
1F
100
AcDbEntity
  8
SK1
  6
Continuous
100
AcDbSpline
210
0.0
220
0.0
230
1.0
 70
     8
 71
     3
 72
    10
 73
     6
 74
     0
 42
0.000000042786832
 43
0.0000000001
 12
1.0
 22
0.0
 32
0.0
 13
1.0
 23
0.0
 33
0.0
 40
0.0
 40
0.0
 40
0.0
 40
0.0
 40
0.5
 40
0.5
 40
1.0
 40
1.0
 40
1.0
 40
1.0
 10
3.755840420130075
 20
2.407812063294862
 30
0.0
 10
3.702962133045869
 20
2.407812063294861
 30
0.0
 10
3.651241199917997
 20
2.41612911500533
 30
0.0
 10
3.577453701369359
 20
2.444413246896218
 30
0.0
 10
3.555840420129966
 20
2.464416714240624
 30
0.0
 10
3.555840420127737
 20
2.48439761817024
 30
0.0
  0
SPLINE
  5
75
330
1F
100
AcDbEntity
  8
SK1
  6
Continuous
100
AcDbSpline
210
0.0
220
0.0
230
1.0
 70
     8
 71
     3
 72
    10
 73
     6
 74
     0
 42
0.0000000253791694
 43
0.0000000001
 12
1.0
 22
0.0
 32
0.0
 13
1.0
 23
0.0
 33
0.0
 40
0.0
 40
0.0
 40
0.0
 40
0.0
 40
0.5
 40
0.5
 40
1.0
 40
1.0
 40
1.0
 40
1.0
 10
3.55584042013008
 20
2.888304403428562
 30
0.0
 10
3.55584042013008
 20
2.921218973322017
 30
0.0
 10
3.517031787475895
 20
2.953537901282219
 30
0.0
 10
3.388561045818213
 20
2.996346997945312
 30
0.0
 10
3.299593622496665
 20
3.006644444297555
 30
0.0
 10
3.214088489842054
 20
3.002043738713754
 30
0.0
  0
LINE
  5
76
330
1F
100
AcDbEntity
  8
SK1
  6
Continuous
100
AcDbLine
 10
3.2140884898
 20
3.0020437387
 30
0.0
 11
-11.9881970065
 21
2.1839454463
 31
0.0
  0
LINE
  5
77
330
1F
100
AcDbEntity
  8
SK3
100
AcDbLine
 10
9.8558404201
 20
1.1828829021
 30
0.0
 11
-12.3278174953
 21
1.1828829021
 31
0.0
  0
LINE
  5
78
330
1F
100
AcDbEntity
  8
SK3
100
AcDbLine
 10
9.8558404201
 20
0.7209431359
 30
0.0
 11
-12.3278174953
 21
0.7209431359
 31
0.0
  0
SPLINE
  5
79
330
1F
100
AcDbEntity
  8
SK3
100
AcDbSpline
210
0.0
220
0.0
230
1.0
 70
     8
 71
     3
 72
    10
 73
     6
 74
     0
 42
0.0000000213797122
 43
0.0000000001
 12
1.0
 22
0.0
 32
0.0
 13
1.0
 23
0.0
 33
0.0
 40
0.0
 40
0.0
 40
0.0
 40
0.0
 40
0.5
 40
0.5
 40
1.0
 40
1.0
 40
1.0
 40
1.0
 10
9.855840420130075
 20
1.182882902108074
 30
0.0
 10
9.96179921548147
 20
1.182882902108074
 30
0.0
 10
10.06535771719697
 20
1.199667575484581
 30
0.0
 10
10.21276635511098
 20
1.25648962416041
 30
0.0
 10
10.25584042013009
 20
1.296583483530522
 30
0.0
 10
10.25584042013007
 20
1.336620402967895
 30
0.0
  0
LINE
  5
7A
330
1F
100
AcDbEntity
  8
SK1
  6
Continuous
100
AcDbLine
 10
10.2558404201
 20
2.1287309686
 30
0.0
 11
10.2558404201
 21
2.5906707348
 31
0.0
  0
SPLINE
  5
7B
330
1F
100
AcDbEntity
  8
SK1
  6
Continuous
100
AcDbSpline
210
0.0
220
0.0
230
1.0
 70
     8
 71
     3
 72
     8
 73
     4
 74
     0
 42
0.0000000587422145
 43
0.0000000001
 12
1.0
 22
0.0
 32
0.0
 13
1.0
 23
0.0
 33
0.0
 40
0.0
 40
0.0
 40
0.0
 40
0.0
 40
1.0
 40
1.0
 40
1.0
 40
1.0
 10
10.25584042013007
 20
2.590670734848803
 30
0.0
 10
10.25584042013007
 20
2.624209167730726
 30
0.0
 10
10.20713864899511
 20
2.656719449319697
 30
0.0
 10
10.13084042013007
 20
2.673589887216701
 30
0.0
  0
LINE
  5
7C
330
1F
100
AcDbEntity
  8
SK1
  6
Continuous
100
AcDbLine
 10
10.1308404201
 20
2.6735898872
 30
0.0
 11
6.6975133761
 21
3.432601117
 31
0.0
  0
LINE
  5
7D
330
1F
100
AcDbEntity
  8
SK1
  6
Continuous
100
AcDbLine
 10
6.6975133761
 20
3.432601117
 30
0.0
 11
6.2558404201
 21
3.432601117
 31
0.0
  0
LINE
  5
7E
330
1F
100
AcDbEntity
  8
SK1
  6
Continuous
100
AcDbLine
 10
6.2558404201
 20
3.432601117
 30
0.0
 11
6.2558404201
 21
2.9706613507
 31
0.0
  0
SPLINE
  5
7F
330
1F
100
AcDbEntity
  8
SK1
  6
Continuous
100
AcDbSpline
210
0.0
220
0.0
230
1.0
 70
     8
 71
     3
 72
    10
 73
     6
 74
     0
 42
0.0000000427803786
 43
0.0000000001
 12
1.0
 22
0.0
 32
0.0
 13
1.0
 23
0.0
 33
0.0
 40
0.0
 40
0.0
 40
0.0
 40
0.0
 40
0.5
 40
0.5
 40
1.0
 40
1.0
 40
1.0
 40
1.0
 10
6.25584042013007
 20
2.94633738442578
 30
0.0
 10
6.255840420130078
 20
2.926373738745838
 30
0.0
 10
6.234639604037191
 20
2.906512117668002
 30
0.0
 10
6.160037048968217
 20
2.877913561679177
 30
0.0
 10
6.108679182365125
 20
2.869751829550198
 30
0.0
 10
6.055840420130071
 20
2.869751829550505
 30
0.0
  0
LINE
  5
80
330
1F
100
AcDbEntity
  8
SK1
  6
Continuous
100
AcDbLine
 10
6.0558404201
 20
2.8697518296
 30
0.0
 11
3.7558404201
 21
2.8697518296
 31
0.0
  0
SPLINE
  5
81
330
1F
100
AcDbEntity
  8
SK1
  6
Continuous
100
AcDbSpline
210
0.0
220
0.0
230
1.0
 70
     8
 71
     3
 72
    10
 73
     6
 74
     0
 42
0.000000042786832
 43
0.0000000001
 12
1.0
 22
0.0
 32
0.0
 13
1.0
 23
0.0
 33
0.0
 40
0.0
 40
0.0
 40
0.0
 40
0.0
 40
0.5
 40
0.5
 40
1.0
 40
1.0
 40
1.0
 40
1.0
 10
3.755840420130075
 20
2.869751829550505
 30
0.0
 10
3.702962133045869
 20
2.869751829550506
 30
0.0
 10
3.651241199917999
 20
2.878068881260972
 30
0.0
 10
3.577453701369357
 20
2.906353013151861
 30
0.0
 10
3.555840420129966
 20
2.926356480496268
 30
0.0
 10
3.555840420127737
 20
2.946337384425882
 30
0.0
  0
LINE
  5
82
330
1F
100
AcDbEntity
  8
SK1
  6
Continuous
100
AcDbLine
 10
3.5558404201
 20
2.9463373844
 30
0.0
 11
3.5558404201
 21
3.3502441697
 31
0.0
  0
SPLINE
  5
83
330
1F
100
AcDbEntity
  8
SK1
  6
Continuous
100
AcDbSpline
210
0.0
220
0.0
230
1.0
 70
     8
 71
     3
 72
    10
 73
     6
 74
     0
 42
0.0000000253791694
 43
0.0000000001
 12
1.0
 22
0.0
 32
0.0
 13
1.0
 23
0.0
 33
0.0
 40
0.0
 40
0.0
 40
0.0
 40
0.0
 40
0.5
 40
0.5
 40
1.0
 40
1.0
 40
1.0
 40
1.0
 10
3.55584042013008
 20
3.350244169684206
 30
0.0
 10
3.555840420130081
 20
3.38315873957766
 30
0.0
 10
3.517031787475896
 20
3.415477667537861
 30
0.0
 10
3.388561045818213
 20
3.458286764200956
 30
0.0
 10
3.299593622496668
 20
3.468584210553197
 30
0.0
 10
3.214088489842054
 20
3.463983504969395
 30
0.0
  0
LINE
  5
84
330
1F
100
AcDbEntity
  8
SK1
  6
Continuous
100
AcDbLine
 10
3.2140884898
 20
3.463983505
 30
0.0
 11
-11.9881970065
 21
2.6458852126
 31
0.0
  0
LINE
  5
85
330
1F
100
AcDbEntity
  8
SK1
  6
Continuous
100
AcDbLine
 10
6.6975133761
 20
-3.432601117
 30
0.0
 11
6.6975133761
 21
-7.6337506883
 31
0.0
  0
LINE
  5
86
330
1F
100
AcDbEntity
  8
SK1
  6
Continuous
100
AcDbLine
 10
6.2558404201
 20
-3.432601117
 30
0.0
 11
6.2558404201
 21
-7.6337506883
 31
0.0
  0
LINE
  5
87
330
1F
100
AcDbEntity
  8
SK1
  6
Continuous
100
AcDbLine
 10
3.5558404201
 20
-3.3502441697
 30
0.0
 11
3.5558404201
 21
-7.4349234293
 31
0.0
  0
LINE
  5
88
330
1F
100
AcDbEntity
  8
SK1
  6
Continuous
100
AcDbLine
 10
3.2140884898
 20
-3.0020437387
 30
0.0
 11
3.2140884898
 21
3.0020437387
 31
0.0
  0
LINE
  5
89
330
1F
100
AcDbEntity
  8
SK1
  6
Continuous
100
AcDbLine
 10
10.2558404201
 20
-2.1287309686
 30
0.0
 11
10.2558404201
 21
2.1287309686
 31
0.0
  0
LINE
  5
8A
330
1F
100
AcDbEntity
  8
SK1
  6
Continuous
100
AcDbLine
 10
10.1308404201
 20
-2.211650121
 30
0.0
 11
10.1308404201
 21
2.211650121
 31
0.0
  0
LINE
  5
8B
330
1F
100
AcDbEntity
  8
SK1
  6
Continuous
100
AcDbLine
 10
6.0558404201
 20
-2.4078120633
 30
0.0
 11
6.0558404201
 21
2.4078120633
 31
0.0
  0
LINE
  5
8C
330
1F
100
AcDbEntity
  8
SK1
  6
Continuous
100
AcDbLine
 10
3.7558404201
 20
-2.4078120633
 30
0.0
 11
3.7558404201
 21
2.4078120633
 31
0.0
  0
SPLINE
  5
8D
330
1F
100
AcDbEntity
  8
SK3
100
AcDbSpline
210
0.0
220
0.0
230
1.0
 70
     8
 71
     3
 72
    10
 73
     6
 74
     0
 42
0.0000000213729618
 43
0.0000000001
 12
1.0
 22
0.0
 32
0.0
 13
1.0
 23
0.0
 33
0.0
 40
0.0
 40
0.0
 40
0.0
 40
0.0
 40
0.5
 40
0.5
 40
1.0
 40
1.0
 40
1.0
 40
1.0
 10
9.855840420130075
 20
-1.182882902108088
 30
0.0
 10
9.961123092868489
 20
-1.182882902108088
 30
0.0
 10
10.06478230109113
 20
-1.199458314721834
 30
0.0
 10
10.21321784502693
 20
-1.256651125195733
 30
0.0
 10
10.25584042013008
 20
-1.296248855284826
 30
0.0
 10
10.25584042013007
 20
-1.336620402967908
 30
0.0
  0
LINE
  5
8E
330
1F
100
AcDbEntity
  8
SK1
  6
Continuous
100
AcDbLine
 10
10.2558404201
 20
-2.1287309686
 30
0.0
 11
10.2558404201
 21
-2.5906707348
 31
0.0
  0
SPLINE
  5
8F
330
1F
100
AcDbEntity
  8
SK1
  6
Continuous
100
AcDbSpline
210
0.0
220
0.0
230
1.0
 70
     8
 71
     3
 72
    10
 73
     6
 74
     0
 42
0.0000000616090775
 43
0.0000000001
 12
1.0
 22
0.0
 32
0.0
 13
1.0
 23
0.0
 33
0.0
 40
0.0
 40
0.0
 40
0.0
 40
0.0
 40
0.5000000000000001
 40
0.5000000000000001
 40
1.0
 40
1.0
 40
1.0
 40
1.0
 10
10.25584042013007
 20
-2.590670734848815
 30
0.0
 10
10.25584042013007
 20
-2.60740748424019
 30
0.0
 10
10.24422244797915
 20
-2.62403664732987
 30
0.0
 10
10.20044721466763
 20
-2.653068555838045
 30
0.0
 10
10.16844656267259
 20
-2.665274725754261
 30
0.0
 10
10.13084042013007
 20
-2.673589887216713
 30
0.0
  0
LINE
  5
90
330
1F
100
AcDbEntity
  8
SK1
  6
Continuous
100
AcDbLine
 10
10.1308404201
 20
-2.6735898872
 30
0.0
 11
6.6975133761
 21
-3.432601117
 31
0.0
  0
LINE
  5
91
330
1F
100
AcDbEntity
  8
SK1
  6
Continuous
100
AcDbLine
 10
6.6975133761
 20
-3.432601117
 30
0.0
 11
6.2558404201
 21
-3.432601117
 31
0.0
  0
LINE
  5
92
330
1F
100
AcDbEntity
  8
SK1
  6
Continuous
100
AcDbLine
 10
6.2558404201
 20
-3.432601117
 30
0.0
 11
6.2558404201
 21
-2.9706613507
 31
0.0
  0
SPLINE
  5
93
330
1F
100
AcDbEntity
  8
SK1
  6
Continuous
100
AcDbSpline
210
0.0
220
0.0
230
1.0
 70
     8
 71
     3
 72
    10
 73
     6
 74
     0
 42
0.0000000427806241
 43
0.0000000001
 12
1.0
 22
0.0
 32
0.0
 13
1.0
 23
0.0
 33
0.0
 40
0.0
 40
0.0
 40
0.0
 40
0.0
 40
0.5
 40
0.5
 40
1.0
 40
1.0
 40
1.0
 40
1.0
 10
6.25584042013007
 20
-2.946337384425791
 30
0.0
 10
6.255840420130078
 20
-2.926345814326242
 30
0.0
 10
6.234551569919199
 20
-2.906459808069496
 30
0.0
 10
6.159941212384409
 20
-2.877895431082185
 30
0.0
 10
6.108043464680149
 20
-2.869751829550527
 30
0.0
 10
6.055840420130153
 20
-2.869751829550216
 30
0.0
  0
LINE
  5
94
330
1F
100
AcDbEntity
  8
SK1
  6
Continuous
100
AcDbLine
 10
6.0558404201
 20
-2.8697518296
 30
0.0
 11
3.7558404201
 21
-2.8697518296
 31
0.0
  0
SPLINE
  5
95
330
1F
100
AcDbEntity
  8
SK1
  6
Continuous
100
AcDbSpline
210
0.0
220
0.0
230
1.0
 70
     8
 71
     3
 72
    10
 73
     6
 74
     0
 42
0.0000000427907261
 43
0.0000000001
 12
1.0
 22
0.0
 32
0.0
 13
1.0
 23
0.0
 33
0.0
 40
0.0
 40
0.0
 40
0.0
 40
0.0
 40
0.5
 40
0.5
 40
1.0
 40
1.0
 40
1.0
 40
1.0
 10
3.755840420130075
 20
-2.869751829550516
 30
0.0
 10
3.703652397056029
 20
-2.869751829550514
 30
0.0
 10
3.651444137495349
 20
-2.878030911651994
 30
0.0
 10
3.577648494338017
 20
-2.906238739372972
 30
0.0
 10
3.555840420130215
 20
-2.926378844712948
 30
0.0
 10
3.555840420126797
 20
-2.946337384425641
 30
0.0
  0
LINE
  5
96
330
1F
100
AcDbEntity
  8
SK1
  6
Continuous
100
AcDbLine
 10
3.5558404201
 20
-2.9463373844
 30
0.0
 11
3.5558404201
 21
-3.3502441697
 31
0.0
  0
SPLINE
  5
97
330
1F
100
AcDbEntity
  8
SK1
  6
Continuous
100
AcDbSpline
210
0.0
220
0.0
230
1.0
 70
     8
 71
     3
 72
    10
 73
     6
 74
     0
 42
0.0000000253855723
 43
0.0000000001
 12
1.0
 22
0.0
 32
0.0
 13
1.0
 23
0.0
 33
0.0
 40
0.0
 40
0.0
 40
0.0
 40
0.0
 40
0.5
 40
0.5
 40
1.0
 40
1.0
 40
1.0
 40
1.0
 10
3.55584042013008
 20
-3.350244169684216
 30
0.0
 10
3.555840420130089
 20
-3.382858943578981
 30
0.0
 10
3.517183079550811
 20
-3.415434432589506
 30
0.0
 10
3.388334768190957
 20
-3.45835498170023
 30
0.0
 10
3.298940756404888
 20
-3.468549082314921
 30
0.0
 10
3.214088489842054
 20
-3.463983504969407
 30
0.0
  0
LINE
  5
98
330
1F
100
AcDbEntity
  8
SK1
  6
Continuous
100
AcDbLine
 10
3.2140884898
 20
-3.463983505
 30
0.0
 11
-11.9881970065
 21
-2.6458852126
 31
0.0
  0
LINE
  5
99
330
1F
100
AcDbEntity
  8
SK3
100
AcDbLine
 10
9.8558404201
 20
-0.7209431359
 30
0.0
 11
-12.3278174953
 21
-0.7209431359
 31
0.0
  0
LINE
  5
9A
330
1F
100
AcDbEntity
  8
SK3
100
AcDbLine
 10
9.8558404201
 20
-1.1828829021
 30
0.0
 11
-12.3278174953
 21
-1.1828829021
 31
0.0
  0
SPLINE
  5
9B
330
1F
100
AcDbEntity
  8
SK3
100
AcDbSpline
210
0.0
220
0.0
230
1.0
 70
     8
 71
     3
 72
    10
 73
     6
 74
     0
 42
0.0000000213729618
 43
0.0000000001
 12
1.0
 22
0.0
 32
0.0
 13
1.0
 23
0.0
 33
0.0
 40
0.0
 40
0.0
 40
0.0
 40
0.0
 40
0.5
 40
0.5
 40
1.0
 40
1.0
 40
1.0
 40
1.0
 10
9.855840420130075
 20
-0.720943135852444
 30
0.0
 10
9.961123092868489
 20
-0.720943135852444
 30
0.0
 10
10.06478230109113
 20
-0.7375185484661901
 30
0.0
 10
10.21321784502693
 20
-0.7947113589400889
 30
0.0
 10
10.25584042013008
 20
-0.8343090890291825
 30
0.0
 10
10.25584042013007
 20
-0.8746806367122646
 30
0.0
  0
SPLINE
  5
9C
330
1F
100
AcDbEntity
  8
SK1
  6
Continuous
100
AcDbSpline
210
0.0
220
0.0
230
1.0
 70
     8
 71
     3
 72
    10
 73
     6
 74
     0
 42
0.0000000616090775
 43
0.0000000001
 12
1.0
 22
0.0
 32
0.0
 13
1.0
 23
0.0
 33
0.0
 40
0.0
 40
0.0
 40
0.0
 40
0.0
 40
0.5
 40
0.5
 40
1.0
 40
1.0
 40
1.0
 40
1.0
 10
10.25584042013007
 20
-2.128730968593172
 30
0.0
 10
10.25584042013007
 20
-2.145467717984544
 30
0.0
 10
10.24422244797915
 20
-2.162096881074225
 30
0.0
 10
10.20044721466763
 20
-2.1911287895824
 30
0.0
 10
10.16844656267259
 20
-2.203334959498618
 30
0.0
 10
10.13084042013007
 20
-2.211650120961069
 30
0.0
  0
LINE
  5
9D
330
1F
100
AcDbEntity
  8
SK1
  6
Continuous
100
AcDbLine
 10
10.1308404201
 20
-2.211650121
 30
0.0
 11
6.6975133761
 21
-2.9706613507
 31
0.0
  0
LINE
  5
9E
330
1F
100
AcDbEntity
  8
SK1
  6
Continuous
100
AcDbLine
 10
6.6975133761
 20
-2.9706613507
 30
0.0
 11
6.2558404201
 21
-2.9706613507
 31
0.0
  0
SPLINE
  5
9F
330
1F
100
AcDbEntity
  8
SK1
  6
Continuous
100
AcDbSpline
210
0.0
220
0.0
230
1.0
 70
     8
 71
     3
 72
    10
 73
     6
 74
     0
 42
0.0000000427806241
 43
0.0000000001
 12
1.0
 22
0.0
 32
0.0
 13
1.0
 23
0.0
 33
0.0
 40
0.0
 40
0.0
 40
0.0
 40
0.0
 40
0.5
 40
0.5
 40
1.0
 40
1.0
 40
1.0
 40
1.0
 10
6.25584042013007
 20
-2.484397618170147
 30
0.0
 10
6.255840420130075
 20
-2.464406048070598
 30
0.0
 10
6.234551569919197
 20
-2.444520041813851
 30
0.0
 10
6.159941212384408
 20
-2.415955664826542
 30
0.0
 10
6.108043464680149
 20
-2.407812063294884
 30
0.0
 10
6.055840420130153
 20
-2.407812063294573
 30
0.0
  0
LINE
  5
A0
330
1F
100
AcDbEntity
  8
SK1
  6
Continuous
100
AcDbLine
 10
6.0558404201
 20
-2.4078120633
 30
0.0
 11
3.7558404201
 21
-2.4078120633
 31
0.0
  0
SPLINE
  5
A1
330
1F
100
AcDbEntity
  8
SK1
  6
Continuous
100
AcDbSpline
210
0.0
220
0.0
230
1.0
 70
     8
 71
     3
 72
    10
 73
     6
 74
     0
 42
0.0000000427907261
 43
0.0000000001
 12
1.0
 22
0.0
 32
0.0
 13
1.0
 23
0.0
 33
0.0
 40
0.0
 40
0.0
 40
0.0
 40
0.0
 40
0.5
 40
0.5
 40
1.0
 40
1.0
 40
1.0
 40
1.0
 10
3.755840420130075
 20
-2.407812063294872
 30
0.0
 10
3.703652397056029
 20
-2.40781206329487
 30
0.0
 10
3.651444137495349
 20
-2.416091145396351
 30
0.0
 10
3.577648494338017
 20
-2.44429897311733
 30
0.0
 10
3.555840420130215
 20
-2.464439078457305
 30
0.0
 10
3.555840420126797
 20
-2.484397618169996
 30
0.0
  0
SPLINE
  5
A2
330
1F
100
AcDbEntity
  8
SK1
  6
Continuous
100
AcDbSpline
210
0.0
220
0.0
230
1.0
 70
     8
 71
     3
 72
    10
 73
     6
 74
     0
 42
0.0000000253855723
 43
0.0000000001
 12
1.0
 22
0.0
 32
0.0
 13
1.0
 23
0.0
 33
0.0
 40
0.0
 40
0.0
 40
0.0
 40
0.0
 40
0.5
 40
0.5
 40
1.0
 40
1.0
 40
1.0
 40
1.0
 10
3.55584042013008
 20
-2.888304403428572
 30
0.0
 10
3.555840420130089
 20
-2.920919177323337
 30
0.0
 10
3.517183079550809
 20
-2.953494666333863
 30
0.0
 10
3.388334768190959
 20
-2.996415215444586
 30
0.0
 10
3.298940756404888
 20
-3.006609316059278
 30
0.0
 10
3.214088489842054
 20
-3.002043738713763
 30
0.0
  0
LINE
  5
A3
330
1F
100
AcDbEntity
  8
SK1
  6
Continuous
100
AcDbLine
 10
3.2140884898
 20
-3.0020437387
 30
0.0
 11
-11.9881970065
 21
-2.1839454463
 31
0.0
  0
LINE
  5
A4
330
1F
100
AcDbEntity
  8
SK1
  6
Continuous
100
AcDbLine
 10
6.2558404201
 20
7.8250924045
 30
0.0
 11
6.2558404201
 21
8.37
 31
0.0
  0
LINE
  5
A5
330
1F
100
AcDbEntity
  8
SK1
  6
Continuous
100
AcDbLine
 10
6.6975133761
 20
8.37
 30
0.0
 11
6.6975133761
 21
7.8250924045
 31
0.0
  0
LINE
  5
A6
330
1F
100
AcDbEntity
  8
SK1
  6
Continuous
100
AcDbLine
 10
3.5558404201
 20
8.1548894778
 30
0.0
 11
3.5558404201
 21
7.6262651455
 31
0.0
  0
LINE
  5
A7
330
1F
100
AcDbEntity
  8
SK1
  6
Continuous
100
AcDbLine
 10
6.6975133761
 20
-7.8250924045
 30
0.0
 11
6.6975133761
 21
-8.37
 31
0.0
  0
LINE
  5
A8
330
1F
100
AcDbEntity
  8
SK1
  6
Continuous
100
AcDbLine
 10
6.2558404201
 20
-7.8250924045
 30
0.0
 11
6.2558404201
 21
-8.37
 31
0.0
  0
LINE
  5
A9
330
1F
100
AcDbEntity
  8
SK1
  6
Continuous
100
AcDbLine
 10
3.5558404201
 20
-7.6262651455
 30
0.0
 11
3.5558404201
 21
-8.1548894778
 31
0.0
  0
LINE
  5
AA
330
1F
100
AcDbEntity
  8
SK1
  6
Continuous
100
AcDbLine
 10
3.2140884898
 20
-7.7095144751
 30
0.0
 11
3.2140884898
 21
-3.463983505
 31
0.0
  0
LINE
  5
AB
330
1F
100
AcDbEntity
  8
SK1
  6
Continuous
100
AcDbLine
 10
10.2558404201
 20
-5.6011509413
 30
0.0
 11
10.2558404201
 21
-2.5906707348
 31
0.0
  0
LINE
  5
AC
330
1F
100
AcDbEntity
  8
SK1
  6
Continuous
100
AcDbLine
 10
10.1308404201
 20
-5.8013354835
 30
0.0
 11
10.1308404201
 21
-2.6735898872
 31
0.0
  0
LINE
  5
AD
330
1F
100
AcDbEntity
  8
SK1
  6
Continuous
100
AcDbLine
 10
6.0558404201
 20
-6.2749123051
 30
0.0
 11
6.0558404201
 21
-2.8697518296
 31
0.0
  0
LINE
  5
AE
330
1F
100
AcDbEntity
  8
SK1
  6
Continuous
100
AcDbLine
 10
3.7558404201
 20
-6.2749123051
 30
0.0
 11
3.7558404201
 21
-2.8697518296
 31
0.0
  0
ARC
  5
AF
330
1F
100
AcDbEntity
  8
SK3
100
AcDbCircle
 10
9.869683571
 20
-2.7799940465
 30
0.0
 40
0.3864498874865891
100
AcDbArc
 50
2.2314170044
 51
92.0528504993
  0
LINE
  5
B0
330
1F
100
AcDbEntity
  8
SK1
  6
Continuous
100
AcDbLine
 10
10.2558404201
 20
-5.6011509413
 30
0.0
 11
10.2558404201
 21
-5.7924926575
 31
0.0
  0
ARC
  5
B1
330
1F
100
AcDbEntity
  8
SK1
  6
Continuous
100
AcDbCircle
 10
10.0244308648
 20
-5.7871137759
 30
0.0
 40
0.2314720602209281
100
AcDbArc
 50
297.3682661762
 51
358.6684572011
  0
LINE
  5
B2
330
1F
100
AcDbEntity
  8
SK1
  6
Continuous
100
AcDbLine
 10
10.1308404201
 20
-5.9926771997
 30
0.0
 11
6.6975133761
 21
-7.8250924045
 31
0.0
  0
LINE
  5
B3
330
1F
100
AcDbEntity
  8
SK1
  6
Continuous
100
AcDbLine
 10
6.6975133761
 20
-7.8250924045
 30
0.0
 11
6.2558404201
 21
-7.8250924045
 31
0.0
  0
LINE
  5
B4
330
1F
100
AcDbEntity
  8
SK1
  6
Continuous
100
AcDbLine
 10
6.2558404201
 20
-7.8250924045
 30
0.0
 11
6.2558404201
 21
-7.6337506883
 31
0.0
  0
ARC
  5
B5
330
1F
100
AcDbEntity
  8
SK1
  6
Continuous
100
AcDbCircle
 10
6.0631126228
 20
-6.6590047649
 30
0.0
 40
0.1928878795548943
100
AcDbArc
 50
2.3344618538
 51
92.1606608749
  0
LINE
  5
B6
330
1F
100
AcDbEntity
  8
SK1
  6
Continuous
100
AcDbLine
 10
6.0558404201
 20
-6.4662540213
 30
0.0
 11
3.7558404201
 21
-6.4662540213
 31
0.0
  0
ARC
  5
B7
330
1F
100
AcDbEntity
  8
SK1
  6
Continuous
100
AcDbCircle
 10
3.7485685764
 20
-6.6590051532
 30
0.0
 40
0.1928882540548511
100
AcDbArc
 50
87.8394500293
 51
177.6654272414
  0
LINE
  5
B8
330
1F
100
AcDbEntity
  8
SK1
  6
Continuous
100
AcDbLine
 10
3.5558404201
 20
-7.4349234293
 30
0.0
 11
3.5558404201
 21
-7.6262651455
 31
0.0
  0
ARC
  5
B9
330
1F
100
AcDbEntity
  8
SK1
  6
Continuous
100
AcDbCircle
 10
3.2632600017
 20
-7.6120891165
 30
0.0
 40
0.2929236437426294
100
AcDbArc
 50
260.3363141607
 51
357.2260893526
  0
LINE
  5
BA
330
1F
100
AcDbEntity
  8
SK1
  6
Continuous
100
AcDbLine
 10
3.2140884898
 20
-7.9008561913
 30
0.0
 11
-11.9881970065
 21
-5.9257921984
 31
0.0
  0
LINE
  5
BB
330
1F
100
AcDbEntity
  8
SK3
100
AcDbLine
 10
9.8558404201
 20
-2.2024504625
 30
0.0
 11
-12.3278174953
 21
-2.2024504625
 31
0.0
  0
LINE
  5
BC
330
1F
100
AcDbEntity
  8
SK3
100
AcDbLine
 10
9.8558404201
 20
-2.3937921787
 30
0.0
 11
-12.3278174953
 21
-2.3937921787
 31
0.0
  0
ARC
  5
BD
330
1F
100
AcDbEntity
  8
SK3
100
AcDbCircle
 10
9.869683571
 20
-2.5886523304
 30
0.0
 40
0.3864498874865895
100
AcDbArc
 50
2.2314170044
 51
92.0528504993
  0
ARC
  5
BE
330
1F
100
AcDbEntity
  8
SK1
  6
Continuous
100
AcDbCircle
 10
10.0244308648
 20
-5.5957720597
 30
0.0
 40
0.231472060220926
100
AcDbArc
 50
297.3682661762
 51
358.6684572011
  0
LINE
  5
BF
330
1F
100
AcDbEntity
  8
SK1
  6
Continuous
100
AcDbLine
 10
10.1308404201
 20
-5.8013354835
 30
0.0
 11
6.6975133761
 21
-7.6337506883
 31
0.0
  0
LINE
  5
C0
330
1F
100
AcDbEntity
  8
SK1
  6
Continuous
100
AcDbLine
 10
6.6975133761
 20
-7.6337506883
 30
0.0
 11
6.2558404201
 21
-7.6337506883
 31
0.0
  0
ARC
  5
C1
330
1F
100
AcDbEntity
  8
SK1
  6
Continuous
100
AcDbCircle
 10
6.0631126228
 20
-6.4676630487
 30
0.0
 40
0.192887879554894
100
AcDbArc
 50
2.3344618538
 51
92.1606608749
  0
LINE
  5
C2
330
1F
100
AcDbEntity
  8
SK1
  6
Continuous
100
AcDbLine
 10
6.0558404201
 20
-6.2749123051
 30
0.0
 11
3.7558404201
 21
-6.2749123051
 31
0.0
  0
ARC
  5
C3
330
1F
100
AcDbEntity
  8
SK1
  6
Continuous
100
AcDbCircle
 10
3.7485685764
 20
-6.467663437
 30
0.0
 40
0.1928882540548496
100
AcDbArc
 50
87.8394500293
 51
177.6654272414
  0
ARC
  5
C4
330
1F
100
AcDbEntity
  8
SK1
  6
Continuous
100
AcDbCircle
 10
3.2632600017
 20
-7.4207474003
 30
0.0
 40
0.2929236437426274
100
AcDbArc
 50
260.3363141607
 51
357.2260893526
  0
LINE
  5
C5
330
1F
100
AcDbEntity
  8
SK1
  6
Continuous
100
AcDbLine
 10
3.2140884898
 20
-7.7095144751
 30
0.0
 11
-11.9881970065
 21
-5.7344504823
 31
0.0
  0
SPLINE
  5
C6
330
1F
100
AcDbEntity
  8
SK3
100
AcDbSpline
210
0.0
220
0.0
230
1.0
 70
     8
 71
     3
 72
    35
 73
    31
 74
     0
 42
0.0000000174638218
 43
0.0000000001
 12
1.0
 22
0.0
 32
0.0
 13
1.0
 23
0.0
 33
0.0
 40
0.0
 40
0.0
 40
0.0
 40
0.0
 40
0.1070408206634399
 40
0.1070408206634399
 40
0.1070408206634399
 40
0.2140781629102654
 40
0.2140781629102654
 40
0.2140781629102654
 40
0.3212011312155889
 40
0.3212011312155889
 40
0.3212011312155889
 40
0.4286340731558397
 40
0.4286340731558397
 40
0.4286340731558397
 40
0.499992618059118
 40
0.499992618059118
 40
0.499992618059118
 40
0.6073891770196633
 40
0.6073891770196633
 40
0.6073891770196633
 40
0.7147791935245003
 40
0.7147791935245003
 40
0.7147791935245003
 40
0.8222583109229875
 40
0.8222583109229875
 40
0.8222583109229875
 40
0.9296310164782771
 40
0.9296310164782771
 40
0.9296310164782771
 40
1.0
 40
1.0
 40
1.0
 40
1.0
 10
-12.32781749525087
 20
2.393792178712922
 30
0.0
 10
-12.35569251017971
 20
2.393792178712922
 30
0.0
 10
-12.38395270646899
 20
2.392417077361645
 30
0.0
 10
-12.41025592441254
 20
2.389706340907621
 30
0.0
 10
-12.43655892862233
 20
2.386995626480404
 30
0.0
 10
-12.4616285364773
 20
2.382868530699695
 30
0.0
 10
-12.48340132641391
 20
2.377486640376608
 30
0.0
 10
-12.50519223756392
 20
2.372100270775333
 30
0.0
 10
-12.52428187618131
 20
2.365299389087247
 30
0.0
 10
-12.53911313530786
 20
2.35743405057275
 30
0.0
 10
-12.55398610474292
 20
2.349546592176639
 30
0.0
 10
-12.56498673642034
 20
2.340361864927714
 30
0.0
 10
-12.57121187970253
 20
2.330489536214877
 30
0.0
 10
-12.57537963232771
 20
2.323879981696303
 30
0.0
 10
-12.57750322737549
 20
2.31686661334095
 30
0.0
 10
-12.57750322737549
 20
2.309698831278197
 30
0.0
 10
-12.57750322737549
 20
2.298996450131189
 30
0.0
 10
-12.57269567979072
 20
2.287689229902994
 30
0.0
 10
-12.56347656614298
 20
2.276783577711769
 30
0.0
 10
-12.55425777997531
 20
2.265878312909619
 30
0.0
 10
-12.5403740540249
 20
2.255080005538696
 30
0.0
 10
-12.52296259737827
 20
2.245459245823904
 30
0.0
 10
-12.505537461429
 20
2.235830927563811
 30
0.0
 10
-12.48409606312203
 20
2.227125893657897
 30
0.0
 10
-12.46040294644235
 20
2.220278440107309
 30
0.0
 10
-12.43673401305435
 20
2.213437975673804
 30
0.0
 10
-12.41016172083005
 20
2.208272114969342
 30
0.0
 10
-12.38289477781541
 20
2.205360256481891
 30
0.0
 10
-12.36487839267454
 20
2.203436272412337
 30
0.0
 10
-12.34629120415704
 20
2.202450462530377
 30
0.0
 10
-12.32781749525087
 20
2.202450462530377
 30
0.0
  0
SPLINE
  5
C7
330
1F
100
AcDbEntity
  8
SK1
  6
Continuous
100
AcDbSpline
210
0.0
220
0.0
230
1.0
 70
     8
 71
     3
 72
    35
 73
    31
 74
     0
 42
0.0000000170478064
 43
0.0000000001
 12
1.0
 22
0.0
 32
0.0
 13
1.0
 23
0.0
 33
0.0
 40
0.0
 40
0.0
 40
0.0
 40
0.0
 40
0.1119424531710252
 40
0.1119424531710252
 40
0.1119424531710252
 40
0.2240345666904086
 40
0.2240345666904086
 40
0.2240345666904086
 40
0.3337704451044346
 40
0.3337704451044346
 40
0.3337704451044346
 40
0.4401696129257955
 40
0.4401696129257955
 40
0.4401696129257955
 40
0.5001428880339058
 40
0.5001428880339058
 40
0.5001428880339058
 40
0.6037598120862858
 40
0.6037598120862858
 40
0.6037598120862858
 40
0.7073120184048061
 40
0.7073120184048061
 40
0.7073120184048061
 40
0.8118849247208981
 40
0.8118849247208981
 40
0.8118849247208981
 40
0.9190694947710648
 40
0.9190694947710648
 40
0.9190694947710648
 40
1.0
 40
1.0
 40
1.0
 40
1.0
 10
-11.98819700649169
 20
5.734450482256853
 30
0.0
 10
-12.01751691470289
 20
5.730640516943909
 30
0.0
 10
-12.0472734928679
 20
5.728885820236124
 30
0.0
 10
-12.07500986239993
 20
5.729344878805936
 30
0.0
 10
-12.10276754522911
 20
5.729804290127455
 30
0.0
 10
-12.12927894171192
 20
5.732499147131325
 30
0.0
 10
-12.15216620963921
 20
5.737182099468915
 30
0.0
 10
-12.17457290288722
 20
5.741766721663962
 30
0.0
 10
-12.19414120217425
 20
5.748388734594491
 30
0.0
 10
-12.20903733653444
 20
5.756422724768375
 30
0.0
 10
-12.22348746505441
 20
5.764216168874988
 30
0.0
 10
-12.23394896818773
 20
5.773557079863694
 30
0.0
 10
-12.23944239776759
 20
5.783597498957501
 30
0.0
 10
-12.24257047633964
 20
5.789314732493511
 30
0.0
 10
-12.24415957987016
 20
5.795327725369421
 30
0.0
 10
-12.24415957987017
 20
5.801459775861134
 30
0.0
 10
-12.24415957987017
 20
5.81195362435938
 30
0.0
 10
-12.2394154651969
 20
5.823032935820167
 30
0.0
 10
-12.23035687381564
 20
5.833798930143359
 30
0.0
 10
-12.22130142433275
 20
5.844561190369426
 30
0.0
 10
-12.20769485556507
 20
5.855305952687064
 30
0.0
 10
-12.19072522206203
 20
5.865235126162178
 30
0.0
 10
-12.17358511529219
 20
5.875264045965853
 30
0.0
 10
-12.15256521020837
 20
5.884733387952672
 30
0.0
 10
-12.12941521526043
 20
5.892998902172618
 30
0.0
 10
-12.10569011030286
 20
5.9014697546647
 30
0.0
 10
-12.07910553261239
 20
5.908905940588607
 30
0.0
 10
-12.05179495817513
 20
5.914821795501055
 30
0.0
 10
-12.03105197500227
 20
5.919315017684421
 30
0.0
 10
-12.0095387220819
 20
5.923018956602087
 30
0.0
 10
-11.98819700649168
 20
5.925792198439398
 30
0.0
  0
ELLIPSE
  5
C8
330
1F
100
AcDbEntity
  8
SK1
  6
Continuous
100
AcDbEllipse
 10
37.3599576667
 20
0.0956708576
 30
0.0
 11
-49.75000000551598
 21
3.181591663787627E-9
 31
0.0
210
0.0
220
0.0
230
1.0
 40
0.9238795325
 41
-0.1271864014959831
 42
-0.1229694665637231
  0
SPLINE
  5
C9
330
1F
100
AcDbEntity
  8
SK3
100
AcDbSpline
210
0.0
220
0.0
230
1.0
 70
     8
 71
     3
 72
    35
 73
    31
 74
     0
 42
0.0000000131801922
 43
0.0000000001
 12
1.0
 22
0.0
 32
0.0
 13
1.0
 23
0.0
 33
0.0
 40
0.0
 40
0.0
 40
0.0
 40
0.0
 40
0.1070408206634463
 40
0.1070408206634463
 40
0.1070408206634463
 40
0.2140781629102756
 40
0.2140781629102756
 40
0.2140781629102756
 40
0.3212011312156204
 40
0.3212011312156204
 40
0.3212011312156204
 40
0.4286340731558638
 40
0.4286340731558638
 40
0.4286340731558638
 40
0.4999926180591216
 40
0.4999926180591216
 40
0.4999926180591216
 40
0.6073891770196623
 40
0.6073891770196623
 40
0.6073891770196623
 40
0.7147791935245001
 40
0.7147791935245001
 40
0.7147791935245001
 40
0.822258310922992
 40
0.822258310922992
 40
0.822258310922992
 40
0.9296310164782677
 40
0.9296310164782677
 40
0.9296310164782677
 40
1.0
 40
1.0
 40
1.0
 40
1.0
 10
-12.32781749525087
 20
1.182882902108074
 30
0.0
 10
-12.35569251017971
 20
1.182882902108074
 30
0.0
 10
-12.38395270646899
 20
1.178651609062981
 30
0.0
 10
-12.41025592441254
 20
1.170497478095486
 30
0.0
 10
-12.43655892862233
 20
1.162343413386543
 30
0.0
 10
-12.4616285364773
 20
1.150040395948507
 30
0.0
 10
-12.48340132641391
 20
1.134530451593814
 30
0.0
 10
-12.50519223756393
 20
1.119007598511652
 30
0.0
 10
-12.52428187618133
 20
1.099842569847476
 30
0.0
 10
-12.53911313530788
 20
1.078525492917364
 30
0.0
 10
-12.55398610474294
 20
1.057148465456557
 30
0.0
 10
-12.56498673642034
 20
1.033013463081118
 30
0.0
 10
-12.57121187970253
 20
1.008053986896664
 30
0.0
 10
-12.57537963232771
 20
0.99134354061851
 30
0.0
 10
-12.57750322737549
 20
0.9740131375807393
 30
0.0
 10
-12.57750322737549
 20
0.9567085809127134
 30
0.0
 10
-12.57750322737549
 20
0.930870747197918
 30
0.0
 10
-12.57269567979073
 20
0.9044873128140567
 30
0.0
 10
-12.56347656614299
 20
0.8797727744290567
 30
0.0
 10
-12.55425777997533
 20
0.8550591139504841
 30
0.0
 10
-12.5403740540249
 20
0.8313349962548554
 30
0.0
 10
-12.52296259737828
 20
0.8106331492621446
 30
0.0
 10
-12.50553746142901
 20
0.7899150378731757
 30
0.0
 10
-12.48409606312204
 20
0.7716557512311195
 30
0.0
 10
-12.46040294644235
 20
0.757458203307028
 30
0.0
 10
-12.43673401305436
 20
0.7432751466568155
 30
0.0
 10
-12.41016172083006
 20
0.7327585117599823
 30
0.0
 10
-12.38289477781542
 20
0.7268430224599154
 30
0.0
 10
-12.36487839267455
 20
0.7229344165898136
 30
0.0
 10
-12.34629120415705
 20
0.7209431358524305
 30
0.0
 10
-12.32781749525087
 20
0.7209431358524304
 30
0.0
  0
SPLINE
  5
CA
330
1F
100
AcDbEntity
  8
SK1
  6
Continuous
100
AcDbSpline
210
0.0
220
0.0
230
1.0
 70
     8
 71
     3
 72
    35
 73
    31
 74
     0
 42
0.0000000130001778
 43
0.0000000001
 12
1.0
 22
0.0
 32
0.0
 13
1.0
 23
0.0
 33
0.0
 40
0.0
 40
0.0
 40
0.0
 40
0.0
 40
0.1119424531710311
 40
0.1119424531710311
 40
0.1119424531710311
 40
0.2240345666904237
 40
0.2240345666904237
 40
0.2240345666904237
 40
0.3337704451044508
 40
0.3337704451044508
 40
0.3337704451044508
 40
0.4401696129257949
 40
0.4401696129257949
 40
0.4401696129257949
 40
0.5001428880339149
 40
0.5001428880339149
 40
0.5001428880339149
 40
0.6037598120862935
 40
0.6037598120862935
 40
0.6037598120862935
 40
0.7073120184047998
 40
0.7073120184047998
 40
0.7073120184047998
 40
0.811884924720902
 40
0.811884924720902
 40
0.811884924720902
 40
0.9190694947710636
 40
0.9190694947710636
 40
0.9190694947710636
 40
1.0
 40
1.0
 40
1.0
 40
1.0
 10
-11.98819700649167
 20
2.183945446325178
 30
0.0
 10
-12.01751691470288
 20
2.182367307020387
 30
0.0
 10
-12.0472734928679
 20
2.18548640366477
 30
0.0
 10
-12.07500986239993
 20
2.193130380264954
 30
0.0
 10
-12.10276754522911
 20
2.200780230681631
 30
0.0
 10
-12.12927894171193
 20
2.213192895404137
 30
0.0
 10
-12.15216620963921
 20
2.229393271375878
 30
0.0
 10
-12.17457290288722
 20
2.245253480469181
 30
0.0
 10
-12.19414120217424
 20
2.265206834723857
 30
0.0
 10
-12.20903733653444
 20
2.287547352428019
 30
0.0
 10
-12.2234874650544
 20
2.309218971669746
 30
0.0
 10
-12.23394896818773
 20
2.333753698655593
 30
0.0
 10
-12.2394423977676
 20
2.359031638267604
 30
0.0
 10
-12.24257047633964
 20
2.373425448199324
 30
0.0
 10
-12.24415957987017
 20
2.388239241261363
 30
0.0
 10
-12.24415957987017
 20
2.403043320723616
 30
0.0
 10
-12.24415957987017
 20
2.42837771208957
 30
0.0
 10
-12.2394154651969
 20
2.454243855391845
 30
0.0
 10
-12.23035687381564
 20
2.478499692656739
 30
0.0
 10
-12.22130142433276
 20
2.502747116982749
 30
0.0
 10
-12.20769485556509
 20
2.526047967136898
 30
0.0
 10
-12.19072522206205
 20
2.546575872898918
 30
0.0
 10
-12.17358511529221
 20
2.567309997561025
 30
0.0
 10
-12.15256521020839
 20
2.585774737606967
 30
0.0
 10
-12.12941521526044
 20
2.600629415836119
 30
0.0
 10
-12.10569011030288
 20
2.61585312542612
 30
0.0
 10
-12.0791055326124
 20
2.627696435860476
 30
0.0
 10
-12.05179495817514
 20
2.635365362861279
 30
0.0
 10
-12.03105197500229
 20
2.641190081931065
 30
0.0
 10
-12.00953872208191
 20
2.644736498200064
 30
0.0
 10
-11.9881970064917
 20
2.64588521258082
 30
0.0
  0
ELLIPSE
  5
CB
330
1F
100
AcDbEntity
  8
SK1
  6
Continuous
100
AcDbEllipse
 10
37.3599576668
 20
0.2309698829
 30
0.0
 11
-49.75000000560863
 21
2.301891552911804E-10
 31
0.0
210
0.0
220
0.0
230
1.0
 40
0.3826834323
 41
-0.1271864015531596
 42
-0.1041805581620565
  0
ELLIPSE
  5
CC
330
1F
100
AcDbEntity
  8
SK1
  6
Continuous
100
AcDbEllipse
 10
37.3599576667
 20
-0.2309698829
 30
0.0
 11
-49.75000000544549
 21
-2.094648081152339E-10
 31
0.0
210
0.0
220
0.0
230
1.0
 40
0.3826834323
 41
0.1041050709322432
 42
0.1271864015535285
  0
SPLINE
  5
CD
330
1F
100
AcDbEntity
  8
SK3
100
AcDbSpline
210
0.0
220
0.0
230
1.0
 70
     8
 71
     3
 72
    35
 73
    31
 74
     0
 42
0.0000000131797832
 43
0.0000000001
 12
1.0
 22
0.0
 32
0.0
 13
1.0
 23
0.0
 33
0.0
 40
0.0
 40
0.0
 40
0.0
 40
0.0
 40
0.1070408206634399
 40
0.1070408206634399
 40
0.1070408206634399
 40
0.2140781629102655
 40
0.2140781629102655
 40
0.2140781629102655
 40
0.3212011312155891
 40
0.3212011312155891
 40
0.3212011312155891
 40
0.4286340731558398
 40
0.4286340731558398
 40
0.4286340731558398
 40
0.4999926180591181
 40
0.4999926180591181
 40
0.4999926180591181
 40
0.6073891770196634
 40
0.6073891770196634
 40
0.6073891770196634
 40
0.7147791935245005
 40
0.7147791935245005
 40
0.7147791935245005
 40
0.8222583109229877
 40
0.8222583109229877
 40
0.8222583109229877
 40
0.9296310164782773
 40
0.9296310164782773
 40
0.9296310164782773
 40
1.0
 40
1.0
 40
1.0
 40
1.0
 10
-12.32781749525087
 20
-0.7209431358524442
 30
0.0
 10
-12.35569251017971
 20
-0.7209431358524442
 30
0.0
 10
-12.38395270646899
 20
-0.7255519865119073
 30
0.0
 10
-12.41025592441254
 20
-0.7343729326614797
 30
0.0
 10
-12.43655892862233
 20
-0.7431938071341164
 30
0.0
 10
-12.4616285364773
 20
-0.7564658054723923
 30
0.0
 10
-12.48340132641391
 20
-0.7730182888073638
 30
0.0
 10
-12.50519223756392
 20
-0.7895845485616043
 30
0.0
 10
-12.52428187618131
 20
-0.80988711033366
 30
0.0
 10
-12.53911313530786
 20
-0.8321686711238708
 30
0.0
 10
-12.55398610474292
 20
-0.8545128948860543
 30
0.0
 10
-12.56498673642034
 20
-0.8794602153243788
 30
0.0
 10
-12.57121187970253
 20
-0.9048859163413266
 30
0.0
 10
-12.57537963232771
 20
-0.9219085015826329
 30
0.0
 10
-12.57750322737549
 20
-0.939404024244696
 30
0.0
 10
-12.57750322737549
 20
-0.9567085809127274
 30
0.0
 10
-12.57750322737549
 20
-0.9825464146275235
 30
0.0
 10
-12.57269567979072
 20
-1.008551005126963
 30
0.0
 10
-12.56347656614298
 20
-1.032596988307597
 30
0.0
 10
-12.55425777997531
 20
-1.056642117330128
 30
0.0
 10
-12.5403740540249
 20
-1.079394778959706
 30
0.0
 10
-12.52296259737827
 20
-1.099050852028177
 30
0.0
 10
-12.505537461429
 20
-1.118722367881119
 30
0.0
 10
-12.48409606312203
 20
-1.135839864783656
 30
0.0
 10
-12.46040294644235
 20
-1.149070776059759
 30
0.0
 10
-12.43673401305435
 20
-1.162288182696895
 30
0.0
 10
-12.41016172083005
 20
-1.171995089694061
 30
0.0
 10
-12.38289477781541
 20
-1.177448996402837
 30
0.0
 10
-12.36487839267454
 20
-1.181052615764749
 30
0.0
 10
-12.34629120415704
 20
-1.182882902108088
 30
0.0
 10
-12.32781749525087
 20
-1.182882902108088
 30
0.0
  0
SPLINE
  5
CE
330
1F
100
AcDbEntity
  8
SK1
  6
Continuous
100
AcDbSpline
210
0.0
220
0.0
230
1.0
 70
     8
 71
     3
 72
    35
 73
    31
 74
     0
 42
0.0000000130005586
 43
0.0000000001
 12
1.0
 22
0.0
 32
0.0
 13
1.0
 23
0.0
 33
0.0
 40
0.0
 40
0.0
 40
0.0
 40
0.0
 40
0.1119424531710308
 40
0.1119424531710308
 40
0.1119424531710308
 40
0.2240345666904205
 40
0.2240345666904205
 40
0.2240345666904205
 40
0.3337704451044522
 40
0.3337704451044522
 40
0.3337704451044522
 40
0.4401696129258043
 40
0.4401696129258043
 40
0.4401696129258043
 40
0.5001428880339027
 40
0.5001428880339027
 40
0.5001428880339027
 40
0.6037598120862828
 40
0.6037598120862828
 40
0.6037598120862828
 40
0.7073120184047975
 40
0.7073120184047975
 40
0.7073120184047975
 40
0.8118849247208926
 40
0.8118849247208926
 40
0.8118849247208926
 40
0.9190694947710514
 40
0.9190694947710514
 40
0.9190694947710514
 40
1.0
 40
1.0
 40
1.0
 40
1.0
 10
-11.98819700649169
 20
-2.645885212580831
 30
0.0
 10
-12.01751691470289
 20
-2.644307073276039
 30
0.0
 10
-12.04727349286791
 20
-2.638141307791412
 30
0.0
 10
-12.07500986239994
 20
-2.627790150982779
 30
0.0
 10
-12.10276754522912
 20
-2.617431040094908
 30
0.0
 10
-12.12927894171193
 20
-2.602571738303012
 30
0.0
 10
-12.15216620963921
 20
-2.584343899225824
 30
0.0
 10
-12.17457290288722
 20
-2.566498798619048
 30
0.0
 10
-12.19414120217425
 20
-2.544902507347785
 30
0.0
 10
-12.20903733653445
 20
-2.521342234394004
 30
0.0
 10
-12.22348746505441
 20
-2.49848738065038
 30
0.0
 10
-12.23394896818773
 20
-2.473130947986568
 30
0.0
 10
-12.23944239776759
 20
-2.447422962052217
 30
0.0
 10
-12.24257047633964
 20
-2.432784274368573
 30
0.0
 10
-12.24415957987017
 20
-2.417847400185967
 30
0.0
 10
-12.24415957987017
 20
-2.40304332072372
 30
0.0
 10
-12.24415957987017
 20
-2.377708929357766
 30
0.0
 10
-12.2394154651969
 20
-2.352207990154189
 30
0.0
 10
-12.23035687381564
 20
-2.328671050450653
 30
0.0
 10
-12.22130142433275
 20
-2.305142274342258
 30
0.0
 10
-12.20769485556507
 20
-2.282934658357077
 30
0.0
 10
-12.19072522206204
 20
-2.263832989096427
 30
0.0
 10
-12.1735851152922
 20
-2.244539428599019
 30
0.0
 10
-12.15256521020838
 20
-2.22789568478717
 30
0.0
 10
-12.12941521526043
 20
-2.215153511590763
 30
0.0
 10
-12.10569011030287
 20
-2.202094787511038
 30
0.0
 10
-12.07910553261239
 20
-2.192782003195279
 30
0.0
 10
-12.05179495817514
 20
-2.187852357534343
 30
0.0
 10
-12.03105197500228
 20
-2.184108183012206
 30
0.0
 10
-12.00953872208191
 20
-2.182796731944432
 30
0.0
 10
-11.98819700649168
 20
-2.183945446325188
 30
0.0
  0
SPLINE
  5
CF
330
1F
100
AcDbEntity
  8
SK3
100
AcDbSpline
210
0.0
220
0.0
230
1.0
 70
     8
 71
     3
 72
     8
 73
     4
 74
     0
 42
0.0000003001034264
 43
0.0000000001
 12
1.0
 22
0.0
 32
0.0
 13
1.0
 23
0.0
 33
0.0
 40
0.0
 40
0.0
 40
0.0
 40
0.0
 40
1.0
 40
1.0
 40
1.0
 40
1.0
 10
-12.22041662989838
 20
2.501203593017143
 30
0.0
 10
-12.22541750690697
 20
2.491233706067247
 30
0.0
 10
-12.22968840951353
 20
2.480940980071095
 30
0.0
 10
-12.23316006483614
 20
2.470477478688616
 30
0.0
  0
ELLIPSE
  5
D0
330
1F
100
AcDbEntity
  8
SK1
  6
Continuous
100
AcDbEllipse
 10
37.3599576664
 20
-0.0956708577
 30
0.0
 11
-49.75000000521108
 21
-2.827721721729803E-9
 31
0.0
210
0.0
220
0.0
230
1.0
 40
0.9238795325
 41
0.122954215647634
 42
0.1271864015029546
  0
SPLINE
  5
D1
330
1F
100
AcDbEntity
  8
SK3
100
AcDbSpline
210
0.0
220
0.0
230
1.0
 70
     8
 71
     3
 72
    35
 73
    31
 74
     0
 42
0.0000000174616921
 43
0.0000000001
 12
1.0
 22
0.0
 32
0.0
 13
1.0
 23
0.0
 33
0.0
 40
0.0
 40
0.0
 40
0.0
 40
0.0
 40
0.1070408206634461
 40
0.1070408206634461
 40
0.1070408206634461
 40
0.2140781629102751
 40
0.2140781629102751
 40
0.2140781629102751
 40
0.32120113121562
 40
0.32120113121562
 40
0.32120113121562
 40
0.428634073155863
 40
0.428634073155863
 40
0.428634073155863
 40
0.4999926180591209
 40
0.4999926180591209
 40
0.4999926180591209
 40
0.6073891770196618
 40
0.6073891770196618
 40
0.6073891770196618
 40
0.7147791935244991
 40
0.7147791935244991
 40
0.7147791935244991
 40
0.8222583109229904
 40
0.8222583109229904
 40
0.8222583109229904
 40
0.9296310164782717
 40
0.9296310164782717
 40
0.9296310164782717
 40
1.0
 40
1.0
 40
1.0
 40
1.0
 10
-12.32781749525087
 20
-2.202450462530398
 30
0.0
 10
-12.35569251017971
 20
-2.202450462530397
 30
0.0
 10
-12.38395270646899
 20
-2.204737068594875
 30
0.0
 10
-12.41025592441254
 20
-2.20905763930507
 30
0.0
 10
-12.43655892862233
 20
-2.213378174907322
 30
0.0
 10
-12.4616285364773
 20
-2.219844597519066
 30
0.0
 10
-12.48340132641391
 20
-2.227743399587645
 30
0.0
 10
-12.50519223756393
 20
-2.235648775727729
 30
0.0
 10
-12.52428187618133
 20
-2.245195905272517
 30
0.0
 10
-12.53911313530788
 20
-2.25538971380277
 30
0.0
 10
-12.55398610474294
 20
-2.265612190627142
 30
0.0
 10
-12.56498673642034
 20
-2.276758027160454
 30
0.0
 10
-12.57121187970253
 20
-2.287755922187008
 30
0.0
 10
-12.57537963232771
 20
-2.295119046823753
 30
0.0
 10
-12.57750322737549
 20
-2.30253104921547
 30
0.0
 10
-12.57750322737549
 20
-2.309698831278219
 30
0.0
 10
-12.57750322737549
 20
-2.320401212425228
 30
0.0
 10
-12.57269567979073
 20
-2.330793822609635
 30
0.0
 10
-12.56347656614299
 20
-2.340085439759282
 30
0.0
 10
-12.55425777997533
 20
-2.349376726853384
 30
0.0
 10
-12.5403740540249
 20
-2.357829731814385
 30
0.0
 10
-12.52296259737828
 20
-2.364925769938103
 30
0.0
 10
-12.50553746142901
 20
-2.372027383060803
 30
0.0
 10
-12.48409606312203
 20
-2.377975892692198
 30
0.0
 10
-12.46040294644235
 20
-2.382489678937327
 30
0.0
 10
-12.43673401305436
 20
-2.386998858012749
 30
0.0
 10
-12.41016172083006
 20
-2.390209862640001
 30
0.0
 10
-12.38289477781542
 20
-2.392007362175403
 30
0.0
 10
-12.36487839267454
 20
-2.393195043680549
 30
0.0
 10
-12.34629120415705
 20
-2.393792178712943
 30
0.0
 10
-12.32781749525087
 20
-2.393792178712943
 30
0.0
  0
SPLINE
  5
D2
330
1F
100
AcDbEntity
  8
SK1
  6
Continuous
100
AcDbSpline
210
0.0
220
0.0
230
1.0
 70
     8
 71
     3
 72
    35
 73
    31
 74
     0
 42
0.0000000170470363
 43
0.0000000001
 12
1.0
 22
0.0
 32
0.0
 13
1.0
 23
0.0
 33
0.0
 40
0.0
 40
0.0
 40
0.0
 40
0.0
 40
0.111942453171034
 40
0.111942453171034
 40
0.111942453171034
 40
0.2240345666904351
 40
0.2240345666904351
 40
0.2240345666904351
 40
0.333770445104483
 40
0.333770445104483
 40
0.333770445104483
 40
0.4401696129258312
 40
0.4401696129258312
 40
0.4401696129258312
 40
0.5001428880339067
 40
0.5001428880339067
 40
0.5001428880339067
 40
0.6037598120862887
 40
0.6037598120862887
 40
0.6037598120862887
 40
0.7073120184048024
 40
0.7073120184048024
 40
0.7073120184048024
 40
0.8118849247209016
 40
0.8118849247209016
 40
0.8118849247209016
 40
0.9190694947710675
 40
0.9190694947710675
 40
0.9190694947710675
 40
1.0
 40
1.0
 40
1.0
 40
1.0
 10
-11.98819700649168
 20
-5.92579219843942
 30
0.0
 10
-12.01751691470289
 20
-5.921982233126483
 30
0.0
 10
-12.04727349286791
 20
-5.916381620600092
 30
0.0
 10
-12.07500986239994
 20
-5.909386850855255
 30
0.0
 10
-12.10276754522912
 20
-5.902386706160179
 30
0.0
 10
-12.12927894171193
 20
-5.893785144761194
 30
0.0
 10
-12.15216620963922
 20
-5.884207463497219
 30
0.0
 10
-12.17457290288723
 20
-5.874830889290508
 30
0.0
 10
-12.19414120217427
 20
-5.864242475532399
 30
0.0
 10
-12.20903733653446
 20
-5.853263735692114
 30
0.0
 10
-12.22348746505443
 20
-5.842613710803554
 30
0.0
 10
-12.23394896818774
 20
-5.831289026822847
 30
0.0
 10
-12.2394423977676
 20
-5.820210384065203
 30
0.0
 10
-12.24257047633964
 20
-5.813901963339369
 30
0.0
 10
-12.24415957987017
 20
-5.807591826352902
 30
0.0
 10
-12.24415957987017
 20
-5.801459775861193
 30
0.0
 10
-12.24415957987017
 20
-5.790965927362946
 30
0.0
 10
-12.23941546519689
 20
-5.780768296590272
 30
0.0
 10
-12.23035687381563
 20
-5.771737874509669
 30
0.0
 10
-12.22130142433275
 20
-5.762710584557148
 30
0.0
 10
-12.20769485556508
 20
-5.754605122997078
 30
0.0
 10
-12.19072522206204
 20
-5.748119189026719
 30
0.0
 10
-12.1735851152922
 20
-5.741568098766924
 30
0.0
 10
-12.15256521020838
 20
-5.736495030585487
 30
0.0
 10
-12.12941521526043
 20
-5.733329554666171
 30
0.0
 10
-12.10569011030287
 20
-5.730085439555336
 30
0.0
 10
-12.07910553261239
 20
-5.728758484106895
 30
0.0
 10
-12.05179495817513
 20
-5.729455839356309
 30
0.0
 10
-12.03105197500228
 20
-5.729985496036997
 30
0.0
 10
-12.0095387220819
 20
-5.731677240419563
 30
0.0
 10
-11.98819700649169
 20
-5.734450482256872
 30
0.0
  0
SPLINE
  5
D3
330
1F
100
AcDbEntity
  8
SK3
100
AcDbSpline
210
0.0
220
0.0
230
1.0
 70
     8
 71
     3
 72
    11
 73
     7
 74
     0
 42
0.0000004485901364
 43
0.0000000001
 12
1.0
 22
0.0
 32
0.0
 13
1.0
 23
0.0
 33
0.0
 40
0.0
 40
0.0
 40
0.0
 40
0.0
 40
0.3272823823971263
 40
0.3272823823971263
 40
0.3272823823971263
 40
1.0
 40
1.0
 40
1.0
 40
1.0
 10
-12.23555324997749
 20
5.826886849244466
 30
0.0
 10
-12.23704353867989
 20
5.824656424334549
 30
0.0
 10
-12.238342541494
 20
5.822428472886164
 30
0.0
 10
-12.2394423977676
 20
5.820210384065189
 30
0.0
 10
-12.24172621142995
 20
5.815604599041013
 30
0.0
 10
-12.24318967807476
 20
5.810997899168155
 30
0.0
 10
-12.24381328876285
 20
5.806460259845542
 30
0.0
  0
ARC
  5
D4
330
1F
100
AcDbEntity
  8
SK3
100
AcDbCircle
 10
-16.1646350884
 20
-5.3053383833
 30
0.0
 40
3.369671216550372
100
AcDbArc
 50
89.8265611654
 51
108.6849958783
  0
ARC
  5
D5
330
1F
100
AcDbEntity
  8
SK3
100
AcDbCircle
 10
-16.1646350884
 20
-4.9517849927
 30
0.0
 40
3.369671216550458
100
AcDbArc
 50
89.8265611654
 51
108.6849958783
  0
LINE
  5
D6
330
1F
100
AcDbEntity
  8
SK1
  6
Continuous
100
AcDbLine
 10
-16.9859115102
 20
-3.7883068216
 30
0.0
 11
-16.9859115102
 21
-0.25
 31
0.0
  0
LINE
  5
D7
330
1F
100
AcDbEntity
  8
SK1
  6
Continuous
100
AcDbLine
 10
-17.2441595799
 20
-3.5780188922
 30
0.0
 11
-17.2441595799
 21
-0.25
 31
0.0
  0
LINE
  5
D8
330
1F
100
AcDbEntity
  8
SK3
100
AcDbLine
 10
-16.154434844
 20
-1.5821292146
 30
0.0
 11
-2.4731627217
 21
-1.5821292146
 31
0.0
  0
LINE
  5
D9
330
1F
100
AcDbEntity
  8
SK1
  6
Continuous
100
AcDbLine
 10
-17.2441595799
 20
-3.5780188922
 30
0.0
 11
-17.2441595799
 21
-3.9315722828
 31
0.0
  0
SPLINE
  5
DA
330
1F
100
AcDbEntity
  8
SK1
  6
Continuous
100
AcDbSpline
210
0.0
220
0.0
230
1.0
 70
     8
 71
     3
 72
    10
 73
     6
 74
     0
 42
0.0000000269114884
 43
0.0000000001
 12
1.0
 22
0.0
 32
0.0
 13
1.0
 23
0.0
 33
0.0
 40
0.0
 40
0.0
 40
0.0
 40
0.0
 40
0.5
 40
0.5
 40
1.0
 40
1.0
 40
1.0
 40
1.0
 10
-17.24415957986993
 20
-3.931572282778879
 30
0.0
 10
-17.24415957986994
 20
-3.982115377910208
 30
0.0
 10
-17.21742809866897
 20
-4.032679055727401
 30
0.0
 10
-17.12402242880895
 20
-4.108856014559535
 30
0.0
 10
-17.05744723238062
 20
-4.134744118070854
 30
0.0
 10
-16.98591151015795
 20
-4.141860212238156
 30
0.0
  0
SPLINE
  5
DB
330
1F
100
AcDbEntity
  8
SK1
  6
Continuous
100
AcDbSpline
210
0.0
220
0.0
230
1.0
 70
     8
 71
     3
 72
    11
 73
     7
 74
     0
 42
0.0000000007110443
 43
0.0000000001
 12
1.0
 22
0.0
 32
0.0
 13
1.0
 23
0.0
 33
0.0
 40
0.0
 40
0.0
 40
0.0
 40
0.0
 40
0.6972813970218762
 40
0.6972813970218762
 40
0.6972813970218762
 40
1.0
 40
1.0
 40
1.0
 40
1.0
 10
-16.98591151015795
 20
-4.141860212238156
 30
0.0
 10
-13.73316000725202
 20
-4.46543122382947
 30
0.0
 10
-10.48039376852009
 20
-4.788928169769957
 30
0.0
 10
-7.227620062473386
 20
-5.112387561342105
 30
0.0
 10
-5.815456886312466
 20
-5.252814619305739
 30
0.0
 10
-4.403292221934963
 20
-5.393234194485275
 30
0.0
 10
-2.991126395001712
 20
-5.533647923449843
 30
0.0
  0
SPLINE
  5
DC
330
1F
100
AcDbEntity
  8
SK1
  6
Continuous
100
AcDbSpline
210
0.0
220
0.0
230
1.0
 70
     8
 71
     3
 72
    10
 73
     6
 74
     0
 42
0.0000000269114884
 43
0.0000000001
 12
1.0
 22
0.0
 32
0.0
 13
1.0
 23
0.0
 33
0.0
 40
0.0
 40
0.0
 40
0.0
 40
0.0
 40
0.5
 40
0.5
 40
1.0
 40
1.0
 40
1.0
 40
1.0
 10
-17.24415957986993
 20
-3.578018892185604
 30
0.0
 10
-17.24415957986994
 20
-3.628561987316935
 30
0.0
 10
-17.21742809866897
 20
-3.679125665134127
 30
0.0
 10
-17.12402242880895
 20
-3.755302623966261
 30
0.0
 10
-17.05744723238062
 20
-3.78119072747758
 30
0.0
 10
-16.98591151015795
 20
-3.788306821644883
 30
0.0
  0
SPLINE
  5
DD
330
1F
100
AcDbEntity
  8
SK1
  6
Continuous
100
AcDbSpline
210
0.0
220
0.0
230
1.0
 70
     8
 71
     3
 72
    11
 73
     7
 74
     0
 42
0.0000000007110443
 43
0.0000000001
 12
1.0
 22
0.0
 32
0.0
 13
1.0
 23
0.0
 33
0.0
 40
0.0
 40
0.0
 40
0.0
 40
0.0
 40
0.6972813970218761
 40
0.6972813970218761
 40
0.6972813970218761
 40
1.0
 40
1.0
 40
1.0
 40
1.0
 10
-16.98591151015795
 20
-3.788306821644883
 30
0.0
 10
-13.73316000725202
 20
-4.111877833236196
 30
0.0
 10
-10.48039376852009
 20
-4.435374779176682
 30
0.0
 10
-7.227620062473386
 20
-4.758834170748831
 30
0.0
 10
-5.815456886312466
 20
-4.899261228712465
 30
0.0
 10
-4.403292221934963
 20
-5.039680803892
 30
0.0
 10
-2.991126395001712
 20
-5.180094532856568
 30
0.0
  0
LINE
  5
DE
330
1F
100
AcDbEntity
  8
SK3
100
AcDbLine
 10
-16.154434844
 20
-1.9356826052
 30
0.0
 11
-2.4731627217
 21
-1.9356826052
 31
0.0
  0
LINE
  5
DF
330
1F
100
AcDbEntity
  8
SK1
  6
Continuous
100
AcDbLine
 10
-16.9859115102
 20
0.25
 30
0.0
 11
-16.9859115102
 21
3.7883068216
 31
0.0
  0
LINE
  5
E0
330
1F
100
AcDbEntity
  8
SK1
  6
Continuous
100
AcDbLine
 10
-17.2441595799
 20
0.25
 30
0.0
 11
-17.2441595799
 21
3.5780188922
 31
0.0
  0
LINE
  5
E1
330
1F
100
AcDbEntity
  8
SK1
  6
Continuous
100
AcDbLine
 10
-17.2441595799
 20
0.25
 30
0.0
 11
-16.9859115102
 21
0.25
 31
0.0
  0
LINE
  5
E2
330
1F
100
AcDbEntity
  8
SK1
  6
Continuous
100
AcDbLine
 10
-16.9859115102
 20
0.25
 30
0.0
 11
-2.991126395
 21
0.25
 31
0.0
  0
LINE
  5
E3
330
1F
100
AcDbEntity
  8
SK1
  6
Continuous
100
AcDbLine
 10
-17.2441595799
 20
-0.25
 30
0.0
 11
-16.9859115102
 21
-0.25
 31
0.0
  0
LINE
  5
E4
330
1F
100
AcDbEntity
  8
SK1
  6
Continuous
100
AcDbLine
 10
-16.9859115102
 20
-0.25
 30
0.0
 11
-2.991126395
 21
-0.25
 31
0.0
  0
LINE
  5
E5
330
1F
100
AcDbEntity
  8
SK1
  6
Continuous
100
AcDbLine
 10
-17.2441595799
 20
3.9315722828
 30
0.0
 11
-17.2441595799
 21
5.3100828438
 31
0.0
  0
LINE
  5
E6
330
1F
100
AcDbEntity
  8
SK1
  6
Continuous
100
AcDbLine
 10
-16.9859115102
 20
4.1418602122
 30
0.0
 11
-16.9859115102
 21
5.6074748856
 31
0.0
  0
ARC
  5
E7
330
1F
100
AcDbEntity
  8
SK3
100
AcDbCircle
 10
-16.1646350884
 20
5.3053383833
 30
0.0
 40
3.369671216550423
100
AcDbArc
 50
251.3150041217
 51
270.1734388346
  0
LINE
  5
E8
330
1F
100
AcDbEntity
  8
SK3
100
AcDbLine
 10
-16.154434844
 20
1.9356826052
 30
0.0
 11
-2.4731627217
 21
1.9356826052
 31
0.0
  0
SPLINE
  5
E9
330
1F
100
AcDbEntity
  8
SK1
  6
Continuous
100
AcDbSpline
210
0.0
220
0.0
230
1.0
 70
     8
 71
     3
 72
    10
 73
     6
 74
     0
 42
0.0000000269114884
 43
0.0000000001
 12
1.0
 22
0.0
 32
0.0
 13
1.0
 23
0.0
 33
0.0
 40
0.0
 40
0.0
 40
0.0
 40
0.0
 40
0.5
 40
0.5
 40
1.0
 40
1.0
 40
1.0
 40
1.0
 10
-17.24415957986993
 20
3.931572282778855
 30
0.0
 10
-17.24415957986994
 20
3.982115377910186
 30
0.0
 10
-17.21742809866897
 20
4.032679055727377
 30
0.0
 10
-17.12402242880895
 20
4.108856014559511
 30
0.0
 10
-17.05744723238062
 20
4.13474411807083
 30
0.0
 10
-16.98591151015795
 20
4.141860212238133
 30
0.0
  0
SPLINE
  5
EA
330
1F
100
AcDbEntity
  8
SK1
  6
Continuous
100
AcDbSpline
210
0.0
220
0.0
230
1.0
 70
     8
 71
     3
 72
    11
 73
     7
 74
     0
 42
0.0000000007110443
 43
0.0000000001
 12
1.0
 22
0.0
 32
0.0
 13
1.0
 23
0.0
 33
0.0
 40
0.0
 40
0.0
 40
0.0
 40
0.0
 40
0.6972813970218763
 40
0.6972813970218763
 40
0.6972813970218763
 40
1.0
 40
1.0
 40
1.0
 40
1.0
 10
-16.98591151015795
 20
4.141860212238133
 30
0.0
 10
-13.73316000725202
 20
4.465431223829446
 30
0.0
 10
-10.48039376852009
 20
4.788928169769932
 30
0.0
 10
-7.227620062473386
 20
5.112387561342081
 30
0.0
 10
-5.815456886312466
 20
5.252814619305716
 30
0.0
 10
-4.403292221934965
 20
5.393234194485252
 30
0.0
 10
-2.991126395001714
 20
5.533647923449819
 30
0.0
  0
LINE
  5
EB
330
1F
100
AcDbEntity
  8
SK1
  6
Continuous
100
AcDbLine
 10
-17.2441595799
 20
3.5780188922
 30
0.0
 11
-17.2441595799
 21
3.9315722828
 31
0.0
  0
SPLINE
  5
EC
330
1F
100
AcDbEntity
  8
SK1
  6
Continuous
100
AcDbSpline
210
0.0
220
0.0
230
1.0
 70
     8
 71
     3
 72
    10
 73
     6
 74
     0
 42
0.0000000269114884
 43
0.0000000001
 12
1.0
 22
0.0
 32
0.0
 13
1.0
 23
0.0
 33
0.0
 40
0.0
 40
0.0
 40
0.0
 40
0.0
 40
0.5
 40
0.5
 40
1.0
 40
1.0
 40
1.0
 40
1.0
 10
-17.24415957986993
 20
3.578018892185581
 30
0.0
 10
-17.24415957986994
 20
3.628561987316912
 30
0.0
 10
-17.21742809866897
 20
3.679125665134104
 30
0.0
 10
-17.12402242880895
 20
3.755302623966239
 30
0.0
 10
-17.05744723238062
 20
3.781190727477556
 30
0.0
 10
-16.98591151015795
 20
3.788306821644859
 30
0.0
  0
SPLINE
  5
ED
330
1F
100
AcDbEntity
  8
SK1
  6
Continuous
100
AcDbSpline
210
0.0
220
0.0
230
1.0
 70
     8
 71
     3
 72
    11
 73
     7
 74
     0
 42
0.0000000007110443
 43
0.0000000001
 12
1.0
 22
0.0
 32
0.0
 13
1.0
 23
0.0
 33
0.0
 40
0.0
 40
0.0
 40
0.0
 40
0.0
 40
0.6972813970218761
 40
0.6972813970218761
 40
0.6972813970218761
 40
1.0
 40
1.0
 40
1.0
 40
1.0
 10
-16.98591151015795
 20
3.788306821644859
 30
0.0
 10
-13.73316000725202
 20
4.111877833236171
 30
0.0
 10
-10.48039376852009
 20
4.435374779176658
 30
0.0
 10
-7.227620062473386
 20
4.758834170748807
 30
0.0
 10
-5.815456886312466
 20
4.899261228712442
 30
0.0
 10
-4.403292221934963
 20
5.039680803891978
 30
0.0
 10
-2.991126395001712
 20
5.180094532856546
 30
0.0
  0
ARC
  5
EE
330
1F
100
AcDbEntity
  8
SK3
100
AcDbCircle
 10
-16.1646350884
 20
4.9517849927
 30
0.0
 40
3.369671216550395
100
AcDbArc
 50
251.3150041217
 51
270.1734388346
  0
LINE
  5
EF
330
1F
100
AcDbEntity
  8
SK3
100
AcDbLine
 10
-16.154434844
 20
1.5821292146
 30
0.0
 11
-2.4731627217
 21
1.5821292146
 31
0.0
  0
SPLINE
  5
F0
330
1F
100
AcDbEntity
  8
SK3
100
AcDbSpline
210
0.0
220
0.0
230
1.0
 70
     8
 71
     3
 72
    10
 73
     6
 74
     0
 42
0.000000008847158
 43
0.0000000001
 12
1.0
 22
0.0
 32
0.0
 13
1.0
 23
0.0
 33
0.0
 40
0.0
 40
0.0
 40
0.0
 40
0.0
 40
0.5
 40
0.5
 40
1.0
 40
1.0
 40
1.0
 40
1.0
 10
-16.15443484398475
 20
-2.487468592766552
 30
0.0
 10
-16.34381760062389
 20
-2.487468592766551
 30
0.0
 10
-16.52956118914409
 20
-2.508822126283068
 30
0.0
 10
-16.89405187777334
 20
-2.592582462882634
 30
0.0
 10
-17.07385359836016
 20
-2.655786870160098
 30
0.0
 10
-17.24415957986993
 20
-2.738612787525832
 30
0.0
  0
LINE
  5
F1
330
1F
100
AcDbEntity
  8
SK1
  6
Continuous
100
AcDbLine
 10
-16.9859115102
 20
-5.6074748856
 30
0.0
 11
-16.9859115102
 21
-4.1418602122
 31
0.0
  0
LINE
  5
F2
330
1F
100
AcDbEntity
  8
SK1
  6
Continuous
100
AcDbLine
 10
-17.2441595799
 20
-5.3100828438
 30
0.0
 11
-17.2441595799
 21
-3.9315722828
 31
0.0
  0
SPLINE
  5
F3
330
1F
100
AcDbEntity
  8
SK1
  6
Continuous
100
AcDbSpline
210
0.0
220
0.0
230
1.0
 70
     8
 71
     3
 72
    10
 73
     6
 74
     0
 42
0.0000000227986358
 43
0.0000000001
 12
1.0
 22
0.0
 32
0.0
 13
1.0
 23
0.0
 33
0.0
 40
0.0
 40
0.0
 40
0.0
 40
0.0
 40
0.5
 40
0.5
 40
1.0
 40
1.0
 40
1.0
 40
1.0
 10
-17.24415957986993
 20
5.31008284375601
 30
0.0
 10
-17.24415957986994
 20
5.381561574375051
 30
0.0
 10
-17.21742809866897
 20
5.453069413307587
 30
0.0
 10
-17.12402242880895
 20
5.56079990162833
 30
0.0
 10
-17.05744723238062
 20
5.597411208718155
 30
0.0
 10
-16.98591151015795
 20
5.607474885600677
 30
0.0
  0
SPLINE
  5
F4
330
1F
100
AcDbEntity
  8
SK1
  6
Continuous
100
AcDbSpline
210
0.0
220
0.0
230
1.0
 70
     8
 71
     3
 72
    11
 73
     7
 74
     0
 42
0.0000000007075878
 43
0.0000000001
 12
1.0
 22
0.0
 32
0.0
 13
1.0
 23
0.0
 33
0.0
 40
0.0
 40
0.0
 40
0.0
 40
0.0
 40
0.6972813970218761
 40
0.6972813970218761
 40
0.6972813970218761
 40
1.0
 40
1.0
 40
1.0
 40
1.0
 10
-16.98591151015795
 20
5.607474885600677
 30
0.0
 10
-13.73316000725202
 20
6.065073398583895
 30
0.0
 10
-10.48039376852009
 20
6.522567166919206
 30
0.0
 10
-7.227620062473386
 20
6.98000782535749
 30
0.0
 10
-5.815456886312466
 20
7.178601675253815
 30
0.0
 10
-4.403292221934963
 20
7.377184942895383
 30
0.0
 10
-2.991126395001712
 20
7.575759942740453
 30
0.0
  0
SPLINE
  5
F5
330
1F
100
AcDbEntity
  8
SK1
  6
Continuous
100
AcDbSpline
210
0.0
220
0.0
230
1.0
 70
     8
 71
     3
 72
    10
 73
     6
 74
     0
 42
0.0000000227950353
 43
0.0000000001
 12
1.0
 22
0.0
 32
0.0
 13
1.0
 23
0.0
 33
0.0
 40
0.0
 40
0.0
 40
0.0
 40
0.0
 40
0.5
 40
0.5
 40
1.0
 40
1.0
 40
1.0
 40
1.0
 10
-16.98591151015795
 20
-5.607474885600703
 30
0.0
 10
-17.05747086628909
 20
-5.597407883886496
 30
0.0
 10
-17.12356942961129
 20
-5.561274838461181
 30
0.0
 10
-17.21771066843375
 20
-5.452790957194549
 30
0.0
 10
-17.24415957986994
 20
-5.381589766512467
 30
0.0
 10
-17.24415957986993
 20
-5.310082843756034
 30
0.0
  0
SPLINE
  5
F6
330
1F
100
AcDbEntity
  8
SK3
100
AcDbSpline
210
0.0
220
0.0
230
1.0
 70
     8
 71
     3
 72
    10
 73
     6
 74
     0
 42
0.0000000088471237
 43
0.0000000001
 12
1.0
 22
0.0
 32
0.0
 13
1.0
 23
0.0
 33
0.0
 40
0.0
 40
0.0
 40
0.0
 40
0.0
 40
0.5
 40
0.5
 40
1.0
 40
1.0
 40
1.0
 40
1.0
 10
-17.24415957986993
 20
2.738612787525811
 30
0.0
 10
-17.07317260190964
 20
2.65545567712025
 30
0.0
 10
-16.89666088293709
 20
2.593429283532068
 30
0.0
 10
-16.5331708453894
 20
2.509408554284042
 30
0.0
 10
-16.3445852627814
 20
2.487468592766523
 30
0.0
 10
-16.15443484398475
 20
2.487468592766529
 30
0.0
  0
LINE
  5
F7
330
1F
100
AcDbEntity
  8
SK3
100
AcDbLine
 10
-16.154434844
 20
2.4874685928
 30
0.0
 11
-2.4731627217
 21
2.4874685928
 31
0.0
  0
ELLIPSE
  5
F8
330
1F
100
AcDbEntity
  8
SK1
  6
Continuous
100
AcDbEllipse
 10
-52.1609378766
 20
-0.1767766954
 30
0.0
 11
49.74999999838729
 21
2.250151752806306E-10
 31
0.0
210
0.0
220
0.0
230
1.0
 40
0.7071067812
 41
-0.1528713109389033
 42
-0.1431466479448904
  0
SPLINE
  5
F9
330
1F
100
AcDbEntity
  8
SK3
100
AcDbSpline
210
0.0
220
0.0
230
1.0
 70
     8
 71
     3
 72
    35
 73
    31
 74
     0
 42
0.0000000147504975
 43
0.0000000001
 12
1.0
 22
0.0
 32
0.0
 13
1.0
 23
0.0
 33
0.0
 40
0.0
 40
0.0
 40
0.0
 40
0.0
 40
0.1070408206634432
 40
0.1070408206634432
 40
0.1070408206634432
 40
0.214078162910267
 40
0.214078162910267
 40
0.214078162910267
 40
0.3212011312155905
 40
0.3212011312155905
 40
0.3212011312155905
 40
0.4286340731558472
 40
0.4286340731558472
 40
0.4286340731558472
 40
0.499992618058672
 40
0.499992618058672
 40
0.499992618058672
 40
0.6073891770196717
 40
0.6073891770196717
 40
0.6073891770196717
 40
0.7147791935245142
 40
0.7147791935245142
 40
0.7147791935245142
 40
0.8222583109230006
 40
0.8222583109230006
 40
0.8222583109230006
 40
0.9296310164782895
 40
0.9296310164782895
 40
0.9296310164782895
 40
1.0
 40
1.0
 40
1.0
 40
1.0
 10
-2.473162721695716
 20
-1.935682605230429
 30
0.0
 10
-2.44528770676688
 20
-1.935682605230429
 30
0.0
 10
-2.417027510477607
 20
-1.932648446447231
 30
0.0
 10
-2.390724292534054
 20
-1.9267684225701
 30
0.0
 10
-2.364421288324271
 20
-1.920888446472661
 30
0.0
 10
-2.339351680469299
 20
-1.911996533273715
 30
0.0
 10
-2.317578890532692
 20
-1.900689953821202
 30
0.0
 10
-2.295787979382683
 20
-1.889373964047838
 30
0.0
 10
-2.27669834076528
 20
-1.875321314628452
 30
0.0
 10
-2.261867081638738
 20
-1.859527905196987
 30
0.0
 10
-2.246994112203672
 20
-1.843690079578438
 30
0.0
 10
-2.235993480526253
 20
-1.825657571847808
 30
0.0
 10
-2.229768337244064
 20
-1.806806734876339
 30
0.0
 10
-2.2256005846189
 20
-1.794186041389781
 30
0.0
 10
-2.223476989569614
 20
-1.781011287249242
 30
0.0
 10
-2.223476989569588
 20
-1.76776695296673
 30
0.0
 10
-2.22347698956955
 20
-1.747991531184878
 30
0.0
 10
-2.228284537155803
 20
-1.727593495896797
 30
0.0
 10
-2.237503650803614
 20
-1.708315987670341
 30
0.0
 10
-2.246722436971275
 20
-1.689039164217015
 30
0.0
 10
-2.260606162921701
 20
-1.670355762403408
 30
0.0
 10
-2.278017619568329
 20
-1.65394528590704
 30
0.0
 10
-2.295442755517602
 20
-1.637521916527608
 30
0.0
 10
-2.316884153824569
 20
-1.622928931403956
 30
0.0
 10
-2.340577270504254
 20
-1.611539458678288
 30
0.0
 10
-2.364246203892245
 20
-1.600161611056438
 30
0.0
 10
-2.390818496116548
 20
-1.591674305596456
 30
0.0
 10
-2.418085439131188
 20
-1.586896979399218
 30
0.0
 10
-2.43610182427206
 20
-1.583740404470125
 30
0.0
 10
-2.454689012789554
 20
-1.582129214637155
 30
0.0
 10
-2.473162721695716
 20
-1.582129214637155
 30
0.0
  0
SPLINE
  5
FA
330
1F
100
AcDbEntity
  8
SK1
  6
Continuous
100
AcDbSpline
210
0.0
220
0.0
230
1.0
 70
     8
 71
     3
 72
    35
 73
    31
 74
     0
 42
0.0000000148108988
 43
0.0000000001
 12
1.0
 22
0.0
 32
0.0
 13
1.0
 23
0.0
 33
0.0
 40
0.0
 40
0.0
 40
0.0
 40
0.0
 40
0.1074234019303372
 40
0.1074234019303372
 40
0.1074234019303372
 40
0.2148459619237621
 40
0.2148459619237621
 40
0.2148459619237621
 40
0.3222840399780784
 40
0.3222840399780784
 40
0.3222840399780784
 40
0.4297552518845085
 40
0.4297552518845085
 40
0.4297552518845085
 40
0.4999992296437523
 40
0.4999992296437523
 40
0.4999992296437523
 40
0.6074586881261401
 40
0.6074586881261401
 40
0.6074586881261401
 40
0.7149171980774097
 40
0.7149171980774097
 40
0.7149171980774097
 40
0.8223891058106549
 40
0.8223891058106549
 40
0.8223891058106549
 40
0.9298545103993331
 40
0.9298545103993331
 40
0.9298545103993331
 40
1.0
 40
1.0
 40
1.0
 40
1.0
 10
-2.991126395001712
 20
-5.180094532856568
 30
0.0
 10
-2.963429564855624
 20
-5.182848469488611
 30
0.0
 10
-2.935373246445251
 20
-5.189166357991295
 30
0.0
 10
-2.909277487619232
 20
-5.198507943683281
 30
0.0
 10
-2.883181822082964
 20
-5.207849495980023
 30
0.0
 10
-2.858326815768449
 20
-5.220470590022812
 30
0.0
 10
-2.836760190442817
 20
-5.235281811915996
 30
0.0
 10
-2.815190412705802
 20
-5.25009519877768
 30
0.0
 10
-2.796314573405158
 20
-5.267505294839002
 30
0.0
 10
-2.781683117595919
 20
-5.286019712485415
 30
0.0
 10
-2.767047292308495
 20
-5.304539659201871
 30
0.0
 10
-2.756254303246561
 20
-5.324673238174088
 30
0.0
 10
-2.750190182402445
 20
-5.344716797673581
 30
0.0
 10
-2.746194240417502
 20
-5.357924466681276
 30
0.0
 10
-2.744159579869927
 20
-5.371292198657499
 30
0.0
 10
-2.744159579869927
 20
-5.384330163400088
 30
0.0
 10
-2.744159579869927
 20
-5.404114026795433
 30
0.0
 10
-2.748918647403873
 20
-5.423582757944085
 30
0.0
 10
-2.75804616754784
 20
-5.44114121826132
 30
0.0
 10
-2.767173641141802
 20
-5.458699589031077
 30
0.0
 10
-2.780921465917992
 20
-5.474833552325783
 30
0.0
 10
-2.798161108333214
 20
-5.488251714614393
 30
0.0
 10
-2.81540281588419
 20
-5.501671484263876
 30
0.0
 10
-2.83661341660797
 20
-5.512747405796407
 30
0.0
 10
-2.860048044707113
 20
-5.520614046390365
 30
0.0
 10
-2.883481137630442
 20
-5.52848017164965
 30
0.0
 10
-2.909785134560939
 20
-5.533356605928871
 30
0.0
 10
-2.936788331729537
 20
-5.534876515851026
 30
0.0
 10
-2.954558450120977
 20
-5.535876729977242
 30
0.0
 10
-2.972892863721662
 20
-5.535460910333033
 30
0.0
 10
-2.991126395001712
 20
-5.533647923449843
 30
0.0
  0
LINE
  5
FB
330
1F
100
AcDbEntity
  8
SK3
100
AcDbLine
 10
-2.991126395
 20
-0.25
 30
0.0
 11
-2.4731627217
 21
-0.25
 31
0.0
  0
ARC
  5
FC
330
1F
100
AcDbEntity
  8
SK3
100
AcDbCircle
 10
-2.4734524523
 20
0.0
 30
0.0
 40
0.2500001678875974
100
AcDbArc
 50
270.0664013351
 51
89.9335986649
  0
ARC
  5
FD
330
1F
100
AcDbEntity
  8
SK1
  6
Continuous
100
AcDbCircle
 10
-2.9941663206
 20
0.0
 30
0.0
 40
0.2500184816117031
100
AcDbArc
 50
270.6966652843
 51
89.3033347157
  0
LINE
  5
FE
330
1F
100
AcDbEntity
  8
SK3
100
AcDbLine
 10
-2.4731627217
 20
0.25
 30
0.0
 11
-2.991126395
 21
0.25
 31
0.0
  0
SPLINE
  5
FF
330
1F
100
AcDbEntity
  8
SK3
100
AcDbSpline
210
0.0
220
0.0
230
1.0
 70
     8
 71
     3
 72
    35
 73
    31
 74
     0
 42
0.0000000147496176
 43
0.0000000001
 12
1.0
 22
0.0
 32
0.0
 13
1.0
 23
0.0
 33
0.0
 40
0.0
 40
0.0
 40
0.0
 40
0.0
 40
0.1070408206634434
 40
0.1070408206634434
 40
0.1070408206634434
 40
0.2140781629102672
 40
0.2140781629102672
 40
0.2140781629102672
 40
0.3212011312155906
 40
0.3212011312155906
 40
0.3212011312155906
 40
0.4286340731558476
 40
0.4286340731558476
 40
0.4286340731558476
 40
0.4999926180586731
 40
0.4999926180586731
 40
0.4999926180586731
 40
0.6073891770196724
 40
0.6073891770196724
 40
0.6073891770196724
 40
0.7147791935245149
 40
0.7147791935245149
 40
0.7147791935245149
 40
0.8222583109229995
 40
0.8222583109229995
 40
0.8222583109229995
 40
0.9296310164782902
 40
0.9296310164782902
 40
0.9296310164782902
 40
1.0
 40
1.0
 40
1.0
 40
1.0
 10
-2.473162721695716
 20
1.582129214637131
 30
0.0
 10
-2.44528770676688
 20
1.582129214637131
 30
0.0
 10
-2.417027510477607
 20
1.585861008924857
 30
0.0
 10
-2.390724292534054
 20
1.592973146599368
 30
0.0
 10
-2.364421288324271
 20
1.60008522648232
 30
0.0
 10
-2.339351680469299
 20
1.610767582923515
 30
0.0
 10
-2.317578890532692
 20
1.624000523227478
 30
0.0
 10
-2.295787979382683
 20
1.637244477137684
 30
0.0
 10
-2.27669834076528
 20
1.653399013668924
 30
0.0
 10
-2.261867081638738
 20
1.670974556895965
 30
0.0
 10
-2.246994112203672
 20
1.688599528248038
 30
0.0
 10
-2.235993480526253
 20
1.708133004043052
 30
0.0
 10
-2.229768337244064
 20
1.727845312175098
 30
0.0
 10
-2.2256005846189
 20
1.741042763260355
 30
0.0
 10
-2.223476989569614
 20
1.754522618683695
 30
0.0
 10
-2.223476989569588
 20
1.767766952966211
 30
0.0
 10
-2.22347698956955
 20
1.787542374748069
 30
0.0
 10
-2.228284537155803
 20
1.807240397814272
 30
0.0
 10
-2.237503650803614
 20
1.825282577101382
 30
0.0
 10
-2.246722436971275
 20
1.843324115496555
 30
0.0
 10
-2.260606162921701
 20
1.860212500557838
 30
0.0
 10
-2.278017619568329
 20
1.874690638805729
 30
0.0
 10
-2.295442755517602
 20
1.889180151796056
 30
0.0
 10
-2.316884153824568
 20
1.901663384578166
 30
0.0
 10
-2.340577270504252
 20
1.91126674567493
 30
0.0
 10
-2.364246203892244
 20
1.920860304731474
 30
0.0
 10
-2.390818496116548
 20
1.927851428124643
 30
0.0
 10
-2.418085439131188
 20
1.931775860904568
 30
0.0
 10
-2.43610182427206
 20
1.934368894248446
 30
0.0
 10
-2.454689012789555
 20
1.935682605230405
 30
0.0
 10
-2.473162721695716
 20
1.935682605230404
 30
0.0
  0
SPLINE
  5
100
330
1F
100
AcDbEntity
  8
SK1
  6
Continuous
100
AcDbSpline
210
0.0
220
0.0
230
1.0
 70
     8
 71
     3
 72
    35
 73
    31
 74
     0
 42
0.0000000148115123
 43
0.0000000001
 12
1.0
 22
0.0
 32
0.0
 13
1.0
 23
0.0
 33
0.0
 40
0.0
 40
0.0
 40
0.0
 40
0.0
 40
0.1074234019303351
 40
0.1074234019303351
 40
0.1074234019303351
 40
0.2148459619237618
 40
0.2148459619237618
 40
0.2148459619237618
 40
0.3222840399780722
 40
0.3222840399780722
 40
0.3222840399780722
 40
0.429755251884506
 40
0.429755251884506
 40
0.429755251884506
 40
0.499999229643749
 40
0.499999229643749
 40
0.499999229643749
 40
0.6074586881261376
 40
0.6074586881261376
 40
0.6074586881261376
 40
0.7149171980774064
 40
0.7149171980774064
 40
0.7149171980774064
 40
0.8223891058106564
 40
0.8223891058106564
 40
0.8223891058106564
 40
0.9298545103993323
 40
0.9298545103993323
 40
0.9298545103993323
 40
1.0
 40
1.0
 40
1.0
 40
1.0
 10
-2.991126395001714
 20
5.533647923449819
 30
0.0
 10
-2.963429564855624
 20
5.536401860081861
 30
0.0
 10
-2.935373246445251
 20
5.535894349059032
 30
0.0
 10
-2.909277487619232
 20
5.532148834122286
 30
0.0
 10
-2.883181822082964
 20
5.528403332575387
 30
0.0
 10
-2.858326815768447
 20
5.521315074949688
 30
0.0
 10
-2.836760190442815
 20
5.511426418871841
 30
0.0
 10
-2.815190412705802
 20
5.501536317360996
 30
0.0
 10
-2.796314573405161
 20
5.488569942005013
 30
0.0
 10
-2.781683117595922
 20
5.473548534283053
 30
0.0
 10
-2.767047292308499
 20
5.458522640629262
 30
0.0
 10
-2.756254303246563
 20
5.441023734421941
 30
0.0
 10
-2.750190182402447
 20
5.422464223402047
 30
0.0
 10
-2.746194240417504
 20
5.41023446558375
 30
0.0
 10
-2.744159579869929
 20
5.397368128142654
 30
0.0
 10
-2.744159579869929
 20
5.384330163400066
 30
0.0
 10
-2.744159579869929
 20
5.36454630000472
 30
0.0
 10
-2.748918647403875
 20
5.343901668105221
 30
0.0
 10
-2.758046167547842
 20
5.324123110296298
 30
0.0
 10
-2.767173641141804
 20
5.304344653357267
 30
0.0
 10
-2.780921465917991
 20
5.284888297194763
 30
0.0
 10
-2.798161108333213
 20
5.267408532683259
 30
0.0
 10
-2.81540281588419
 20
5.24992667427179
 30
0.0
 10
-2.836613416607974
 20
5.233942053609518
 30
0.0
 10
-2.860048044707117
 20
5.220830370199002
 30
0.0
 10
-2.883481137630445
 20
5.207719545719943
 30
0.0
 10
-2.90978513456094
 20
5.197121927340858
 30
0.0
 10
-2.936788331729539
 20
5.189952777769872
 30
0.0
 10
-2.954558450120978
 20
5.185234942476261
 30
0.0
 10
-2.972892863721663
 20
5.181907519738034
 30
0.0
 10
-2.991126395001712
 20
5.180094532856546
 30
0.0
  0
ELLIPSE
  5
101
330
1F
100
AcDbEntity
  8
SK1
  6
Continuous
100
AcDbEllipse
 10
-52.1609378767
 20
0.1767766954
 30
0.0
 11
49.74999999851654
 21
-2.209983049660995E-10
 31
0.0
210
0.0
220
0.0
230
1.0
 40
0.7071067812
 41
0.1431526619773021
 42
0.1528713109386541
  0
SPLINE
  5
102
330
1F
100
AcDbEntity
  8
SK1
  6
Continuous
100
AcDbSpline
210
0.0
220
0.0
230
1.0
 70
     8
 71
     3
 72
    23
 73
    19
 74
     0
 42
0.0000000393198601
 43
0.0000000001
 12
1.0
 22
0.0
 32
0.0
 13
1.0
 23
0.0
 33
0.0
 40
0.0
 40
0.0
 40
0.0
 40
0.0
 40
0.1921502917672239
 40
0.1921502917672239
 40
0.1921502917672239
 40
0.3842990775458079
 40
0.3842990775458079
 40
0.3842990775458079
 40
0.5764756207764395
 40
0.5764756207764395
 40
0.5764756207764395
 40
0.7687114311614904
 40
0.7687114311614904
 40
0.7687114311614904
 40
0.8943581764589711
 40
0.8943581764589711
 40
0.8943581764589711
 40
1.0
 40
1.0
 40
1.0
 40
1.0
 10
-2.991126395001714
 20
-7.575759942740476
 30
0.0
 10
-2.963429564855631
 20
-7.579654597275476
 30
0.0
 10
-2.935373246445251
 20
-7.583763154592686
 30
0.0
 10
-2.909277487619232
 20
-7.587720174171716
 30
0.0
 10
-2.883181822082964
 20
-7.591677179604794
 30
0.0
 10
-2.858326815768449
 20
-7.595589485754512
 30
0.0
 10
-2.836760190442817
 20
-7.599070265423377
 30
0.0
 10
-2.815190412705802
 20
-7.602551553880671
 30
0.0
 10
-2.796314573405158
 20
-7.605693738925114
 30
0.0
 10
-2.781683117595919
 20
-7.608163669929448
 30
0.0
 10
-2.767047292308497
 20
-7.610634338543883
 30
0.0
 10
-2.756254303246556
 20
-7.612497333522151
 30
0.0
 10
-2.75019018240244
 20
-7.613546714265684
 30
0.0
 10
-2.746194240417497
 20
-7.614238201899106
 30
0.0
 10
-2.744159579869927
 20
-7.614592741374944
 30
0.0
 10
-2.744159579869927
 20
-7.614592741374944
 30
0.0
 10
-2.744159579869927
 20
-7.614592741374944
 30
0.0
 10
-2.745597120266006
 20
-7.614341579417163
 30
0.0
 10
-2.748407353128286
 20
-7.613854716277496
 30
0.0
  0
ARC
  5
103
330
1F
100
AcDbEntity
  8
SK3
100
AcDbCircle
 10
-2.4733258791
 20
-4.9844538078
 30
0.0
 40
2.496985220345487
100
AcDbArc
 50
84.257361799
 51
89.9962561919
  0
ARC
  5
104
330
1F
100
AcDbEntity
  8
SK3
100
AcDbCircle
 10
-2.4733258791
 20
4.9844538078
 30
0.0
 40
2.49698522034579
100
AcDbArc
 50
270.0037438081
 51
275.742638201
  0
SPLINE
  5
105
330
1F
100
AcDbEntity
  8
SK1
  6
Continuous
100
AcDbSpline
210
0.0
220
0.0
230
1.0
 70
     8
 71
     3
 72
    20
 73
    16
 74
     0
 42
0.0000000399979446
 43
0.0000000001
 12
1.0
 22
0.0
 32
0.0
 13
1.0
 23
0.0
 33
0.0
 40
0.0
 40
0.0
 40
0.0
 40
0.0
 40
0.2149185858370247
 40
0.2149185858370247
 40
0.2149185858370247
 40
0.4298352746147308
 40
0.4298352746147308
 40
0.4298352746147308
 40
0.644778758915119
 40
0.644778758915119
 40
0.644778758915119
 40
0.8597092369463973
 40
0.8597092369463973
 40
0.8597092369463973
 40
1.0
 40
1.0
 40
1.0
 40
1.0
 10
-2.744159579869921
 20
7.614592741374921
 30
0.0
 10
-2.744159579869921
 20
7.614592741374921
 30
0.0
 10
-2.748918647403873
 20
7.613761253979992
 30
0.0
 10
-2.75804616754784
 20
7.612191407988726
 30
0.0
 10
-2.767173641141802
 20
7.610621570003613
 30
0.0
 10
-2.780921465917989
 20
7.608272283477026
 30
0.0
 10
-2.798161108333211
 20
7.605400297002737
 30
0.0
 10
-2.815402815884188
 20
7.602527966493356
 30
0.0
 10
-2.836613416607972
 20
7.59905699205191
 30
0.0
 10
-2.860048044707117
 20
7.595348186708708
 30
0.0
 10
-2.883481137630445
 20
7.591639624325122
 30
0.0
 10
-2.90978513456094
 20
7.587594136251692
 30
0.0
 10
-2.936788331729539
 20
7.583599520587456
 30
0.0
 10
-2.954558450120978
 20
7.580970765450108
 30
0.0
 10
-2.972892863721663
 20
7.578323893377862
 30
0.0
 10
-2.991126395001712
 20
7.575759942740453
 30
0.0
  0
LINE
  5
106
330
1F
100
AcDbEntity
  8
SK3
100
AcDbLine
 10
-2.4731627217
 20
-2.4874685928
 30
0.0
 11
-16.154434844
 21
-2.4874685928
 31
0.0
  0
LINE
  5
107
330
1F
100
AcDbEntity
  8
SK1
  6
Continuous
100
AcDbLine
 10
-2.991126395
 20
-7.5757599427
 30
0.0
 11
-16.9859115102
 21
-5.6074748856
 31
0.0
  0
ARC
  5
108
330
1F
100
AcDbEntity
  8
SK1
  6
Continuous
100
AcDbCircle
 10
10.0058404201
 20
6.1712613559
 30
0.0
 40
0.2500000000000001
100
AcDbArc
 50
0.0
 51
60.0
  0
LINE
  5
109
330
1F
100
AcDbEntity
  8
SK1
  6
Continuous
100
AcDbLine
 10
10.1308404201
 20
6.3877677069
 30
0.0
 11
6.6975133761
 21
8.37
 31
0.0
  0
ARC
  5
10A
330
1F
100
AcDbEntity
  8
SK1
  6
Continuous
100
AcDbCircle
 10
6.0558404201
 20
7.1
 30
0.0
 40
0.1999999999999988
100
AcDbArc
 50
270.0
 51
360.0
  0
LINE
  5
10B
330
1F
100
AcDbEntity
  8
SK1
  6
Continuous
100
AcDbLine
 10
6.0558404201
 20
6.9
 30
0.0
 11
3.7558404201
 21
6.9
 31
0.0
  0
ARC
  5
10C
330
1F
100
AcDbEntity
  8
SK1
  6
Continuous
100
AcDbCircle
 10
3.7558404201
 20
7.1
 30
0.0
 40
0.2000000000000003
100
AcDbArc
 50
180.0
 51
270.0
  0
LINE
  5
10D
330
1F
100
AcDbEntity
  8
SK1
  6
Continuous
100
AcDbLine
 10
3.2140884898
 20
8.4519698985
 30
0.0
 11
-2.7441595799
 21
7.6145927414
 31
0.0
  0
LINE
  5
10E
330
1F
100
AcDbEntity
  8
SK1
  6
Continuous
100
AcDbLine
 10
-2.7441595799
 20
-7.6145927414
 30
0.0
 11
3.2140884898
 21
-8.4519698985
 31
0.0
  0
LINE
  5
10F
330
1F
100
AcDbEntity
  8
SK3
100
AcDbLine
 10
-2.2234769896
 20
-2.5
 30
0.0
 11
9.8558404201
 21
-2.5
 31
0.0
  0
LINE
  5
110
330
1F
100
AcDbEntity
  8
SK3
100
AcDbLine
 10
9.8558404201
 20
2.5
 30
0.0
 11
-2.2234769896
 21
2.5
 31
0.0
  0
ARC
  5
111
330
1F
100
AcDbEntity
  8
SK1
  6
Continuous
100
AcDbCircle
 10
3.2558404201
 20
8.1548894778
 30
0.0
 40
0.299999999999999
100
AcDbArc
 50
0.0
 51
98.0
  0
ARC
  5
112
330
1F
100
AcDbEntity
  8
SK3
100
AcDbCircle
 10
9.8558404201
 20
2.9
 30
0.0
 40
0.3999999999999984
100
AcDbArc
 50
270.0
 51
0.0
  0
LINE
  5
113
330
1F
100
AcDbEntity
  8
SK1
  6
Continuous
100
AcDbLine
 10
6.6975133761
 20
8.37
 30
0.0
 11
6.2558404201
 21
8.37
 31
0.0
  0
LINE
  5
114
330
1F
100
AcDbEntity
  8
SK1
  6
Continuous
100
AcDbLine
 10
6.2558404201
 20
-8.37
 30
0.0
 11
6.6975133761
 21
-8.37
 31
0.0
  0
ARC
  5
115
330
1F
100
AcDbEntity
  8
SK3
100
AcDbCircle
 10
9.8558404201
 20
-2.9
 30
0.0
 40
0.4000000000000006
100
AcDbArc
 50
0.0
 51
90.0
  0
ARC
  5
116
330
1F
100
AcDbEntity
  8
SK1
  6
Continuous
100
AcDbCircle
 10
3.2558404201
 20
-8.1548894778
 30
0.0
 40
0.3000000000000006
100
AcDbArc
 50
262.0
 51
0.0
  0
ARC
  5
117
330
1F
100
AcDbEntity
  8
SK1
  6
Continuous
100
AcDbCircle
 10
10.0058404201
 20
-6.1712613559
 30
0.0
 40
0.2499999999999999
100
AcDbArc
 50
300.0
 51
0.0
  0
ARC
  5
118
330
1F
100
AcDbEntity
  8
SK1
  6
Continuous
100
AcDbCircle
 10
6.0558404201
 20
-7.1
 30
0.0
 40
0.2000000000000003
100
AcDbArc
 50
0.0
 51
90.0
  0
LINE
  5
119
330
1F
100
AcDbEntity
  8
SK1
  6
Continuous
100
AcDbLine
 10
3.7558404201
 20
-6.9
 30
0.0
 11
6.0558404201
 21
-6.9
 31
0.0
  0
ARC
  5
11A
330
1F
100
AcDbEntity
  8
SK1
  6
Continuous
100
AcDbCircle
 10
3.7558404201
 20
-7.1
 30
0.0
 40
0.1999999999999988
100
AcDbArc
 50
90.0
 51
180.0
  0
LINE
  5
11B
330
1F
100
AcDbEntity
  8
SK1
  6
Continuous
100
AcDbLine
 10
6.6975133761
 20
-8.37
 30
0.0
 11
10.1308404201
 21
-6.3877677069
 31
0.0
  0
ARC
  5
11C
330
1F
100
AcDbEntity
  8
SK3
100
AcDbCircle
 10
29.8483218664
 20
0.0230743153
 30
0.0
 40
42.4872618861382
100
AcDbArc
 50
172.1761207926
 51
176.9122770153
  0
ARC
  5
11D
330
1F
100
AcDbEntity
  8
SK3
100
AcDbCircle
 10
-4.6600991624
 20
-0.058123564
 30
0.0
 40
7.983753244261989
100
AcDbArc
 50
161.5344094296
 51
172.4976711181
  0
ARC
  5
11E
330
1F
100
AcDbEntity
  8
SK3
100
AcDbCircle
 10
-4.6762530617
 20
0.0562274255
 30
0.0
 40
7.967573785089126
100
AcDbArc
 50
187.503713687
 51
198.4910143841
  0
ARC
  5
11F
330
1F
100
AcDbEntity
  8
SK3
100
AcDbCircle
 10
29.7048426423
 20
-0.0328902312
 30
0.0
 40
42.34353748179427
100
AcDbArc
 50
183.0849019994
 51
187.8369040796
  0
ARC
  5
120
330
1F
100
AcDbEntity
  8
SK3
100
AcDbCircle
 10
-27.6493923448
 20
0.0295675366
 30
0.0
 40
25.48959119694295
100
AcDbArc
 50
347.6768962142
 51
355.9368216296
  0
ARC
  5
121
330
1F
100
AcDbEntity
  8
SK3
100
AcDbCircle
 10
-27.6473910878
 20
-0.0283984639
 30
0.0
 40
25.48744612254549
100
AcDbArc
 50
4.0608390034
 51
12.3215608841
  0
ARC
  5
122
330
1F
100
AcDbEntity
  8
SK3
100
AcDbCircle
 10
-52.1609378782
 20
0.0
 30
0.0
 40
50.0
100
AcDbArc
 50
351.2402563727
 51
357.134019141
  0
ARC
  5
123
330
1F
100
AcDbEntity
  8
SK3
100
AcDbCircle
 10
-52.1609378782
 20
0.0
 30
0.0
 40
50.0
100
AcDbArc
 50
2.8659673793
 51
8.7597853495
  0
LINE
  5
124
330
1F
100
AcDbEntity
  8
SK1
  6
Continuous
100
AcDbLine
 10
0.0
 20
8.0002592193
 30
0.0
 11
0.0
 21
-8.0002592193
 31
0.0
  0
LINE
  5
126
330
1F
100
AcDbEntity
  8
SK4
  6
Continuous
100
AcDbLine
 10
10.2558404201
 20
0.0
 30
0.0
 11
-17.2441595799
 21
0.0
 31
0.0
  0
DIMENSION
  5
13C
330
1F
100
AcDbEntity
  8
SK2
  6
Continuous
 62
   136
100
AcDbDimension
  2
DMBLK87
 10
10.2558404201
 20
17.5214074908
 30
0.0
 11
-3.4941596544
 21
17.5214074908
 31
0.0
 70
   160
  1
\A1;<>
 71
     5
 42
-1.0
  3
DIN
100
AcDbAlignedDimension
 13
-17.2441595799
 23
5.3100828438
 33
0.0
 14
10.2558404201
 24
5.6011509413
 34
0.0
100
AcDbRotatedDimension
  0
DIMENSION
  5
146
330
1F
100
AcDbEntity
  8
SK2
  6
Continuous
 62
   136
100
AcDbDimension
  2
DMBLK88
 10
19.7865637669
 20
-2.5
 30
0.0
 11
19.7865637669
 21
7.5002521649
 31
0.0
 70
   161
  1
\A1;ø <>
 71
     5
 42
-1.0
  3
DIN
100
AcDbAlignedDimension
 13
9.8558404201
 23
-2.5
 33
0.0
 14
9.8558404201
 24
2.5
 34
0.0
  0
DIMENSION
  5
151
330
1F
100
AcDbEntity
  8
SK2
  6
Continuous
 62
   136
100
AcDbDimension
  2
DMBLK89
 10
10.2558404201
 20
-16.0622195588
 30
0.0
 11
5.1279203035
 21
-16.0622195588
 31
0.0
 70
   160
  1
\A1;<>
 71
     5
 42
-1.0
  3
DIN
100
AcDbAlignedDimension
 13
0.0
 23
-8.0002592193
 33
0.0
 14
10.2558404201
 24
-2.5906707348
 34
0.0
100
AcDbRotatedDimension
  0
DIMENSION
  5
15B
330
1F
100
AcDbEntity
  8
SK2
  6
Continuous
 62
   136
100
AcDbDimension
  2
DMBLK90
 10
-23.1115240604
 20
8.0002592193
 30
0.0
 11
-23.1115240604
 21
-0.0000000684
 31
0.0
 70
   161
  1
\A1;ø <>
 71
     5
 42
-1.0
  3
DIN
100
AcDbAlignedDimension
 13
0.0
 23
8.0002592193
 33
0.0
 14
0.0
 24
-8.0002592193
 34
0.0
  0
INSERT
  5
170
330
1F
100
AcDbEntity
  8
SK2
 62
     7
100
AcDbBlockReference
  2
Nullpunkt
 10
0.0
 20
0.0000000998
 30
0.0
  0
INSERT
  5
17B
330
1F
100
AcDbEntity
  8
SK2
 62
     7
100
AcDbBlockReference
  2
Einfügepunkt
 10
10.2558404201
 20
0.0
 30
0.0
  0
ENDSEC
  0
SECTION
  2
OBJECTS
  0
DICTIONARY
  5
C
330
0
100
AcDbDictionary
281
     1
  3
ACAD_GROUP
350
D
  3
ACAD_LAYOUT
350
1A
  3
ACAD_MATERIAL
350
3B
  3
ACAD_MLEADERSTYLE
350
17E
  3
ACAD_MLINESTYLE
350
17
  3
ACAD_PLOTSETTINGS
350
19
  3
ACAD_PLOTSTYLENAME
350
E
  3
ACAD_VISUALSTYLE
350
2A
  3
AcDbVariableDictionary
350
17C
  0
DICTIONARY
  5
D
102
{ACAD_REACTORS
330
C
102
}
330
C
100
AcDbDictionary
281
     1
  0
DICTIONARY
  5
1A
102
{ACAD_REACTORS
330
C
102
}
330
C
100
AcDbDictionary
281
     1
  3
Layout1
350
1E
  3
Model
350
22
  0
DICTIONARY
  5
3B
102
{ACAD_REACTORS
330
C
102
}
330
C
100
AcDbDictionary
281
     1
  3
ByBlock
350
3D
  3
ByLayer
350
3C
  3
Global
350
3E
  0
DICTIONARY
  5
17E
102
{ACAD_REACTORS
330
C
102
}
330
C
100
AcDbDictionary
281
     1
  0
DICTIONARY
  5
17
102
{ACAD_REACTORS
330
C
102
}
330
C
100
AcDbDictionary
281
     1
  3
Standard
350
18
  0
DICTIONARY
  5
19
102
{ACAD_REACTORS
330
C
102
}
330
C
100
AcDbDictionary
281
     1
  0
ACDBDICTIONARYWDFLT
  5
E
102
{ACAD_REACTORS
330
C
102
}
330
C
100
AcDbDictionary
281
     1
  3
Normal
350
F
100
AcDbDictionaryWithDefault
340
F
  0
DICTIONARY
  5
2A
102
{ACAD_REACTORS
330
C
102
}
330
C
100
AcDbDictionary
281
     1
  3
2dWireframe
350
2F
  3
3D Hidden
350
31
  3
3dWireframe
350
30
  3
Basic
350
32
  3
Brighten
350
36
  3
ColorChange
350
3A
  3
Conceptual
350
34
  3
Dim
350
35
  3
Facepattern
350
39
  3
Flat
350
2B
  3
FlatWithEdges
350
2C
  3
Gouraud
350
2D
  3
GouraudWithEdges
350
2E
  3
Linepattern
350
38
  3
Realistic
350
33
  3
Thicken
350
37
  0
DICTIONARY
  5
17C
102
{ACAD_REACTORS
330
C
102
}
330
C
100
AcDbDictionary
281
     1
  3
DIMASSOC
350
181
  3
HIDETEXT
350
182
  3
PSOLHEIGHT
350
180
  3
PSOLWIDTH
350
17F
  0
LAYOUT
  5
1E
102
{ACAD_REACTORS
330
1A
102
}
330
1A
100
AcDbPlotSettings
  1

  2
none_device
  4

  6

 40
0.0
 41
0.0
 42
0.0
 43
0.0
 44
0.0
 45
0.0
 46
0.0
 47
0.0
 48
0.0
 49
0.0
140
0.0
141
0.0
142
1.0
143
1.0
 70
   688
 72
     0
 73
     0
 74
     5
  7

 75
    16
147
1.0
148
0.0
149
0.0
100
AcDbLayout
  1
Layout1
 70
     1
 71
     1
 10
0.0
 20
0.0
 11
210.0
 21
297.0
 12
0.0
 22
0.0
 32
0.0
 14
0.0
 24
0.0
 34
0.0
 15
210.0
 25
297.0
 35
0.0
146
0.0
 13
0.0
 23
0.0
 33
0.0
 16
1.0
 26
0.0
 36
0.0
 17
0.0
 27
1.0
 37
0.0
 76
     0
330
1B
  0
LAYOUT
  5
22
102
{ACAD_REACTORS
330
1A
102
}
330
1A
100
AcDbPlotSettings
  1

  2
none_device
  4

  6

 40
0.0
 41
0.0
 42
0.0
 43
0.0
 44
0.0
 45
0.0
 46
0.0
 47
0.0
 48
0.0
 49
0.0
140
0.0
141
0.0
142
1.0
143
1.0
 70
  1712
 72
     0
 73
     0
 74
     0
  7

 75
     0
147
1.0
148
0.0
149
0.0
100
AcDbLayout
  1
Model
 70
     1
 71
     0
 10
0.0
 20
0.0
 11
210.0
 21
297.0
 12
0.0
 22
0.0
 32
0.0
 14
0.0
 24
0.0
 34
0.0
 15
210.0
 25
297.0
 35
0.0
146
0.0
 13
0.0
 23
0.0
 33
0.0
 16
1.0
 26
0.0
 36
0.0
 17
0.0
 27
1.0
 37
0.0
 76
     0
330
1F
331
29
  0
MATERIAL
  5
3D
102
{ACAD_REACTORS
330
3B
102
}
102
{ACAD_XDICTIONARY
360
1A5
102
}
330
3B
100
AcDbMaterial
  1
ByBlock
  0
MATERIAL
  5
3C
102
{ACAD_REACTORS
330
3B
102
}
102
{ACAD_XDICTIONARY
360
1A3
102
}
330
3B
100
AcDbMaterial
  1
ByLayer
  0
MATERIAL
  5
3E
102
{ACAD_REACTORS
330
3B
102
}
102
{ACAD_XDICTIONARY
360
1A7
102
}
330
3B
100
AcDbMaterial
  1
Global
  0
MLINESTYLE
  5
18
102
{ACAD_REACTORS
330
17
102
}
330
17
100
AcDbMlineStyle
  2
Standard
 70
     0
  3

 62
   256
 51
90.0
 52
90.0
 71
     2
 49
0.5
 62
   256
  6
BYLAYER
 49
-0.5
 62
   256
  6
BYLAYER
  0
ACDBPLACEHOLDER
  5
F
102
{ACAD_REACTORS
330
E
102
}
330
E
  0
VISUALSTYLE
  5
2F
102
{ACAD_REACTORS
330
2A
102
}
102
{ACAD_XDICTIONARY
360
18B
102
}
330
2A
100
AcDbVisualStyle
  2
2dWireframe
 70
     4
 71
     0
 72
     2
 73
     0
 90
        0
 40
-0.6
 41
-30.0
 62
     5
 63
     7
 74
     1
 91
        4
 64
     7
 65
   257
 75
     1
175
     1
 42
1.0
 92
        0
 66
   257
 43
1.0
 76
     1
 77
     6
 78
     2
 67
     7
 79
     5
170
     0
171
     0
290
     0
174
     0
 93
        1
 44
0.0
173
     0
291
     0
 45
0.0
1001
ACAD
1000
AcDbSavedByObjectVersion
1070
     0
  0
VISUALSTYLE
  5
31
102
{ACAD_REACTORS
330
2A
102
}
102
{ACAD_XDICTIONARY
360
18F
102
}
330
2A
100
AcDbVisualStyle
  2
3D Hidden
 70
     6
 71
     1
 72
     2
 73
     2
 90
        0
 40
-0.6
 41
-30.0
 62
     5
 63
     7
 74
     2
 91
        2
 64
     7
 65
   257
 75
     2
175
     1
 42
40.0
 92
        0
 66
   257
 43
1.0
 76
     1
 77
     6
 78
     2
 67
     7
 79
     3
170
     0
171
     0
290
     0
174
     0
 93
        1
 44
0.0
173
     0
291
     0
 45
0.0
1001
ACAD
1000
AcDbSavedByObjectVersion
1070
     0
  0
VISUALSTYLE
  5
30
102
{ACAD_REACTORS
330
2A
102
}
102
{ACAD_XDICTIONARY
360
18D
102
}
330
2A
100
AcDbVisualStyle
  2
3dWireframe
 70
     5
 71
     0
 72
     2
 73
     0
 90
        0
 40
-0.6
 41
-30.0
 62
     5
 63
     7
 74
     1
 91
        4
 64
     7
 65
   257
 75
     1
175
     1
 42
1.0
 92
        0
 66
   257
 43
1.0
 76
     1
 77
     6
 78
     2
 67
     7
 79
     5
170
     0
171
     0
290
     0
174
     0
 93
        1
 44
0.0
173
     0
291
     0
 45
0.0
1001
ACAD
1000
AcDbSavedByObjectVersion
1070
     0
  0
VISUALSTYLE
  5
32
102
{ACAD_REACTORS
330
2A
102
}
102
{ACAD_XDICTIONARY
360
191
102
}
330
2A
100
AcDbVisualStyle
  2
Basic
 70
     7
 71
     1
 72
     0
 73
     1
 90
        0
 40
-0.6
 41
-30.0
 62
     5
 63
     7
 74
     0
 91
        4
 64
     7
 65
   257
 75
     1
175
     1
 42
1.0
 92
        8
 66
     7
 43
1.0
 76
     1
 77
     6
 78
     2
 67
     7
 79
     5
170
     0
171
     0
290
     0
174
     0
 93
        1
 44
0.0
173
     0
291
     1
 45
0.0
1001
ACAD
1000
AcDbSavedByObjectVersion
1070
     0
  0
VISUALSTYLE
  5
36
102
{ACAD_REACTORS
330
2A
102
}
102
{ACAD_XDICTIONARY
360
199
102
}
330
2A
100
AcDbVisualStyle
  2
Brighten
 70
    12
 71
     2
 72
     2
 73
     0
 90
        0
 40
-0.6
 41
-30.0
 62
     5
 63
     7
 74
     1
 91
        4
 64
     7
 65
   257
 75
     1
175
     1
 42
1.0
 92
        8
 66
     7
 43
1.0
 76
     1
 77
     6
 78
     2
 67
     7
 79
     5
170
     0
171
     0
290
     0
174
     0
 93
        1
 44
50.0
173
     0
291
     1
 45
0.0
1001
ACAD
1000
AcDbSavedByObjectVersion
1070
     0
  0
VISUALSTYLE
  5
3A
102
{ACAD_REACTORS
330
2A
102
}
102
{ACAD_XDICTIONARY
360
1A1
102
}
330
2A
100
AcDbVisualStyle
  2
ColorChange
 70
    16
 71
     2
 72
     2
 73
     3
 90
        0
 40
-0.6
 41
-30.0
 62
     5
 63
     8
 74
     1
 91
        4
 64
     7
 65
   257
 75
     1
175
     1
 42
1.0
 92
        8
 66
     8
 43
1.0
 76
     1
 77
     6
 78
     2
 67
     7
 79
     5
170
     0
171
     0
290
     0
174
     0
 93
        1
 44
0.0
173
     0
291
     1
 45
0.0
1001
ACAD
1000
AcDbSavedByObjectVersion
1070
     0
  0
VISUALSTYLE
  5
34
102
{ACAD_REACTORS
330
2A
102
}
102
{ACAD_XDICTIONARY
360
195
102
}
330
2A
100
AcDbVisualStyle
  2
Conceptual
 70
     9
 71
     3
 72
     2
 73
     0
 90
        0
 40
-0.6
 41
-30.0
 62
     5
 63
     7
 74
     2
 91
        2
 64
     7
 65
   257
 75
     1
175
     1
 42
40.0
 92
        8
 66
     7
 43
1.0
 76
     1
 77
     6
 78
     2
 67
     7
 79
     3
170
     0
171
     0
290
     0
174
     0
 93
        1
 44
0.0
173
     0
291
     0
 45
0.0
1001
ACAD
1000
AcDbSavedByObjectVersion
1070
     0
  0
VISUALSTYLE
  5
35
102
{ACAD_REACTORS
330
2A
102
}
102
{ACAD_XDICTIONARY
360
197
102
}
330
2A
100
AcDbVisualStyle
  2
Dim
 70
    11
 71
     2
 72
     2
 73
     0
 90
        0
 40
-0.6
 41
-30.0
 62
     5
 63
     7
 74
     1
 91
        4
 64
     7
 65
   257
 75
     1
175
     1
 42
1.0
 92
        8
 66
     7
 43
1.0
 76
     1
 77
     6
 78
     2
 67
     7
 79
     5
170
     0
171
     0
290
     0
174
     0
 93
        1
 44
-50.0
173
     0
291
     1
 45
0.0
1001
ACAD
1000
AcDbSavedByObjectVersion
1070
     0
  0
VISUALSTYLE
  5
39
102
{ACAD_REACTORS
330
2A
102
}
102
{ACAD_XDICTIONARY
360
19F
102
}
330
2A
100
AcDbVisualStyle
  2
Facepattern
 70
    15
 71
     2
 72
     2
 73
     0
 90
        0
 40
-0.6
 41
-30.0
 62
     5
 63
     7
 74
     1
 91
        4
 64
     7
 65
   257
 75
     1
175
     1
 42
1.0
 92
        8
 66
     7
 43
1.0
 76
     1
 77
     6
 78
     2
 67
     7
 79
     5
170
     0
171
     0
290
     0
174
     0
 93
        1
 44
0.0
173
     0
291
     1
 45
0.0
1001
ACAD
1000
AcDbSavedByObjectVersion
1070
     0
  0
VISUALSTYLE
  5
2B
102
{ACAD_REACTORS
330
2A
102
}
102
{ACAD_XDICTIONARY
360
183
102
}
330
2A
100
AcDbVisualStyle
  2
Flat
 70
     0
 71
     2
 72
     1
 73
     1
 90
        2
 40
-0.6
 41
30.0
 62
     5
 63
     7
 74
     0
 91
        4
 64
     7
 65
   257
 75
     1
175
     1
 42
1.0
 92
        8
 66
     7
 43
1.0
 76
     1
 77
     6
 78
     2
 67
     7
 79
     5
170
     0
171
     0
290
     0
174
     0
 93
       13
 44
0.0
173
     0
291
     1
 45
0.0
1001
ACAD
1000
AcDbSavedByObjectVersion
1070
     0
  0
VISUALSTYLE
  5
2C
102
{ACAD_REACTORS
330
2A
102
}
102
{ACAD_XDICTIONARY
360
185
102
}
330
2A
100
AcDbVisualStyle
  2
FlatWithEdges
 70
     1
 71
     2
 72
     1
 73
     1
 90
        2
 40
-0.6
 41
30.0
 62
     5
 63
     7
 74
     1
 91
        4
 64
     7
 65
   257
 75
     1
175
     1
 42
1.0
 92
        0
 66
   257
 43
1.0
 76
     1
 77
     6
 78
     2
 67
     7
 79
     5
170
     0
171
     0
290
     0
174
     0
 93
       13
 44
0.0
173
     0
291
     1
 45
0.0
1001
ACAD
1000
AcDbSavedByObjectVersion
1070
     0
  0
VISUALSTYLE
  5
2D
102
{ACAD_REACTORS
330
2A
102
}
102
{ACAD_XDICTIONARY
360
187
102
}
330
2A
100
AcDbVisualStyle
  2
Gouraud
 70
     2
 71
     2
 72
     2
 73
     1
 90
        2
 40
-0.6
 41
30.0
 62
     5
 63
     7
 74
     0
 91
        4
 64
     7
 65
   257
 75
     1
175
     1
 42
1.0
 92
        0
 66
     7
 43
1.0
 76
     1
 77
     6
 78
     2
 67
     7
 79
     5
170
     0
171
     0
290
     0
174
     0
 93
       13
 44
0.0
173
     0
291
     1
 45
0.0
1001
ACAD
1000
AcDbSavedByObjectVersion
1070
     0
  0
VISUALSTYLE
  5
2E
102
{ACAD_REACTORS
330
2A
102
}
102
{ACAD_XDICTIONARY
360
189
102
}
330
2A
100
AcDbVisualStyle
  2
GouraudWithEdges
 70
     3
 71
     2
 72
     2
 73
     1
 90
        2
 40
-0.6
 41
30.0
 62
     5
 63
     7
 74
     1
 91
        4
 64
     7
 65
   257
 75
     1
175
     1
 42
1.0
 92
        0
 66
   257
 43
1.0
 76
     1
 77
     6
 78
     2
 67
     7
 79
     5
170
     0
171
     0
290
     0
174
     0
 93
       13
 44
0.0
173
     0
291
     1
 45
0.0
1001
ACAD
1000
AcDbSavedByObjectVersion
1070
     0
  0
VISUALSTYLE
  5
38
102
{ACAD_REACTORS
330
2A
102
}
102
{ACAD_XDICTIONARY
360
19D
102
}
330
2A
100
AcDbVisualStyle
  2
Linepattern
 70
    14
 71
     2
 72
     2
 73
     0
 90
        0
 40
-0.6
 41
-30.0
 62
     5
 63
     7
 74
     1
 91
        4
 64
     7
 65
   257
 75
     7
175
     7
 42
1.0
 92
        8
 66
     7
 43
1.0
 76
     1
 77
     6
 78
     2
 67
     7
 79
     5
170
     0
171
     0
290
     0
174
     0
 93
        1
 44
0.0
173
     0
291
     1
 45
0.0
1001
ACAD
1000
AcDbSavedByObjectVersion
1070
     0
  0
VISUALSTYLE
  5
33
102
{ACAD_REACTORS
330
2A
102
}
102
{ACAD_XDICTIONARY
360
193
102
}
330
2A
100
AcDbVisualStyle
  2
Realistic
 70
     8
 71
     2
 72
     2
 73
     0
 90
        0
 40
-0.6
 41
-30.0
 62
     5
 63
     7
 74
     1
 91
        0
 64
     7
 65
   257
 75
     1
175
     1
 42
1.0
 92
        8
 66
     8
 43
1.0
 76
     1
 77
     6
 78
     2
 67
     7
 79
     5
170
     0
171
     0
290
     0
174
     0
 93
       13
 44
0.0
173
     0
291
     0
 45
0.0
1001
ACAD
1000
AcDbSavedByObjectVersion
1070
     0
  0
VISUALSTYLE
  5
37
102
{ACAD_REACTORS
330
2A
102
}
102
{ACAD_XDICTIONARY
360
19B
102
}
330
2A
100
AcDbVisualStyle
  2
Thicken
 70
    13
 71
     2
 72
     2
 73
     0
 90
        0
 40
-0.6
 41
-30.0
 62
     5
 63
     7
 74
     1
 91
        4
 64
     7
 65
   257
 75
     1
175
     1
 42
1.0
 92
       12
 66
     7
 43
1.0
 76
     1
 77
     6
 78
     2
 67
     7
 79
     5
170
     0
171
     0
290
     0
174
     0
 93
        1
 44
0.0
173
     0
291
     1
 45
0.0
1001
ACAD
1000
AcDbSavedByObjectVersion
1070
     0
  0
DICTIONARYVAR
  5
181
102
{ACAD_REACTORS
330
17C
102
}
330
17C
100
DictionaryVariables
280
     0
  1
2
  0
DICTIONARYVAR
  5
182
102
{ACAD_REACTORS
330
17C
102
}
330
17C
100
DictionaryVariables
280
     0
  1
1
  0
DICTIONARYVAR
  5
180
102
{ACAD_REACTORS
330
17C
102
}
330
17C
100
DictionaryVariables
280
     0
  1
80.000000
  0
DICTIONARYVAR
  5
17F
102
{ACAD_REACTORS
330
17C
102
}
330
17C
100
DictionaryVariables
280
     0
  1
5.000000
  0
DICTIONARY
  5
1A5
330
3D
100
AcDbDictionary
280
     1
281
     1
  3
ACAD_XREC_ROUNDTRIP
360
1A6
  0
DICTIONARY
  5
1A3
330
3C
100
AcDbDictionary
280
     1
281
     1
  3
ACAD_XREC_ROUNDTRIP
360
1A4
  0
DICTIONARY
  5
1A7
330
3E
100
AcDbDictionary
280
     1
281
     1
  3
ACAD_XREC_ROUNDTRIP
360
1A8
  0
DICTIONARY
  5
18B
330
2F
100
AcDbDictionary
280
     1
281
     1
  3
ACAD_XREC_ROUNDTRIP
360
18C
  0
DICTIONARY
  5
18F
330
31
100
AcDbDictionary
280
     1
281
     1
  3
ACAD_XREC_ROUNDTRIP
360
190
  0
DICTIONARY
  5
18D
330
30
100
AcDbDictionary
280
     1
281
     1
  3
ACAD_XREC_ROUNDTRIP
360
18E
  0
DICTIONARY
  5
191
330
32
100
AcDbDictionary
280
     1
281
     1
  3
ACAD_XREC_ROUNDTRIP
360
192
  0
DICTIONARY
  5
199
330
36
100
AcDbDictionary
280
     1
281
     1
  3
ACAD_XREC_ROUNDTRIP
360
19A
  0
DICTIONARY
  5
1A1
330
3A
100
AcDbDictionary
280
     1
281
     1
  3
ACAD_XREC_ROUNDTRIP
360
1A2
  0
DICTIONARY
  5
195
330
34
100
AcDbDictionary
280
     1
281
     1
  3
ACAD_XREC_ROUNDTRIP
360
196
  0
DICTIONARY
  5
197
330
35
100
AcDbDictionary
280
     1
281
     1
  3
ACAD_XREC_ROUNDTRIP
360
198
  0
DICTIONARY
  5
19F
330
39
100
AcDbDictionary
280
     1
281
     1
  3
ACAD_XREC_ROUNDTRIP
360
1A0
  0
DICTIONARY
  5
183
330
2B
100
AcDbDictionary
280
     1
281
     1
  3
ACAD_XREC_ROUNDTRIP
360
184
  0
DICTIONARY
  5
185
330
2C
100
AcDbDictionary
280
     1
281
     1
  3
ACAD_XREC_ROUNDTRIP
360
186
  0
DICTIONARY
  5
187
330
2D
100
AcDbDictionary
280
     1
281
     1
  3
ACAD_XREC_ROUNDTRIP
360
188
  0
DICTIONARY
  5
189
330
2E
100
AcDbDictionary
280
     1
281
     1
  3
ACAD_XREC_ROUNDTRIP
360
18A
  0
DICTIONARY
  5
19D
330
38
100
AcDbDictionary
280
     1
281
     1
  3
ACAD_XREC_ROUNDTRIP
360
19E
  0
DICTIONARY
  5
193
330
33
100
AcDbDictionary
280
     1
281
     1
  3
ACAD_XREC_ROUNDTRIP
360
194
  0
DICTIONARY
  5
19B
330
37
100
AcDbDictionary
280
     1
281
     1
  3
ACAD_XREC_ROUNDTRIP
360
19C
  0
XRECORD
  5
1A6
102
{ACAD_REACTORS
330
1A5
102
}
330
1A5
100
AcDbXrecord
280
     1
102
MATERIAL
148
0.0
149
0.0
149
0.0
 93
        0
 94
      127
282
     0
 72
     1
 77
     1
171
     1
175
     1
179
     1
273
     0
  0
XRECORD
  5
1A4
102
{ACAD_REACTORS
330
1A3
102
}
330
1A3
100
AcDbXrecord
280
     1
102
MATERIAL
148
0.0
149
0.0
149
0.0
 93
        0
 94
      127
282
     0
 72
     1
 77
     1
171
     1
175
     1
179
     1
273
     0
  0
XRECORD
  5
1A8
102
{ACAD_REACTORS
330
1A7
102
}
330
1A7
100
AcDbXrecord
280
     1
102
MATERIAL
148
0.0
149
0.0
149
0.0
 93
        0
 94
      127
282
     0
 72
     1
 77
     1
171
     1
175
     1
179
     1
273
     0
  0
XRECORD
  5
18C
102
{ACAD_REACTORS
330
18B
102
}
330
18B
100
AcDbXrecord
280
     1
102
RTVSPropertyOp0
 70
     1
102
RTVSPropertyOp1
 70
     1
102
RTVSPropertyOp2
 70
     1
102
RTVSPropertyOp3
 70
     1
102
RTVSPropertyOp4
 70
     1
102
RTVSPropertyOp5
 70
     1
102
RTVSPropertyOp6
 70
     1
102
RTVSPropertyOp7
 70
     1
102
RTVSPropertyOp8
 70
     1
102
RTVSPropertyOp9
 70
     1
102
RTVSPropertyOp10
 70
     1
102
RTVSPropertyOp11
 70
     1
102
RTVSPropertyOp12
 70
     1
102
RTVSPropertyOp13
 70
     1
102
RTVSPropertyOp14
 70
     1
102
RTVSPropertyOp15
 70
     1
102
RTVSPropertyOp16
 70
     1
102
RTVSPropertyOp17
 70
     1
102
RTVSPropertyOp18
 70
     1
102
RTVSPropertyOp19
 70
     1
102
RTVSPropertyOp20
 70
     1
102
RTVSPropertyOp21
 70
     1
102
RTVSPropertyOp22
 70
     1
102
RTVSPropertyOp23
 70
     1
102
RTVSPropertyOp24
 70
     1
102
RTVSPropertyOp25
 70
     1
102
RTVSPropertyOp26
 70
     1
102
RTVSPropertyOp27
 70
     1
102
RTVSPropertyOp28
 70
     1
102
RTVSPropertyOp29
 70
     1
102
RTVSPropertyOp30
 70
     1
102
RTVSPropertyOp31
 70
     1
102
RTVSPropertyOp32
 70
     1
  0
XRECORD
  5
190
102
{ACAD_REACTORS
330
18F
102
}
330
18F
100
AcDbXrecord
280
     1
102
RTVSPropertyOp0
 70
     1
102
RTVSPropertyOp1
 70
     1
102
RTVSPropertyOp2
 70
     1
102
RTVSPropertyOp3
 70
     1
102
RTVSPropertyOp4
 70
     1
102
RTVSPropertyOp5
 70
     1
102
RTVSPropertyOp6
 70
     1
102
RTVSPropertyOp7
 70
     1
102
RTVSPropertyOp8
 70
     1
102
RTVSPropertyOp9
 70
     1
102
RTVSPropertyOp10
 70
     1
102
RTVSPropertyOp11
 70
     1
102
RTVSPropertyOp12
 70
     1
102
RTVSPropertyOp13
 70
     1
102
RTVSPropertyOp14
 70
     1
102
RTVSPropertyOp15
 70
     1
102
RTVSPropertyOp16
 70
     1
102
RTVSPropertyOp17
 70
     1
102
RTVSPropertyOp18
 70
     1
102
RTVSPropertyOp19
 70
     1
102
RTVSPropertyOp20
 70
     1
102
RTVSPropertyOp21
 70
     1
102
RTVSPropertyOp22
 70
     1
102
RTVSPropertyOp23
 70
     1
102
RTVSPropertyOp24
 70
     1
102
RTVSPropertyOp25
 70
     1
102
RTVSPropertyOp26
 70
     1
102
RTVSPropertyOp27
 70
     1
102
RTVSPropertyOp28
 70
     1
102
RTVSPropertyOp29
 70
     1
102
RTVSPropertyOp30
 70
     1
102
RTVSPropertyOp31
 70
     1
102
RTVSPropertyOp32
 70
     1
  0
XRECORD
  5
18E
102
{ACAD_REACTORS
330
18D
102
}
330
18D
100
AcDbXrecord
280
     1
102
RTVSPropertyOp0
 70
     1
102
RTVSPropertyOp1
 70
     1
102
RTVSPropertyOp2
 70
     1
102
RTVSPropertyOp3
 70
     1
102
RTVSPropertyOp4
 70
     1
102
RTVSPropertyOp5
 70
     1
102
RTVSPropertyOp6
 70
     1
102
RTVSPropertyOp7
 70
     1
102
RTVSPropertyOp8
 70
     1
102
RTVSPropertyOp9
 70
     1
102
RTVSPropertyOp10
 70
     1
102
RTVSPropertyOp11
 70
     1
102
RTVSPropertyOp12
 70
     1
102
RTVSPropertyOp13
 70
     1
102
RTVSPropertyOp14
 70
     1
102
RTVSPropertyOp15
 70
     1
102
RTVSPropertyOp16
 70
     1
102
RTVSPropertyOp17
 70
     1
102
RTVSPropertyOp18
 70
     1
102
RTVSPropertyOp19
 70
     1
102
RTVSPropertyOp20
 70
     1
102
RTVSPropertyOp21
 70
     1
102
RTVSPropertyOp22
 70
     1
102
RTVSPropertyOp23
 70
     1
102
RTVSPropertyOp24
 70
     1
102
RTVSPropertyOp25
 70
     1
102
RTVSPropertyOp26
 70
     1
102
RTVSPropertyOp27
 70
     1
102
RTVSPropertyOp28
 70
     1
102
RTVSPropertyOp29
 70
     1
102
RTVSPropertyOp30
 70
     1
102
RTVSPropertyOp31
 70
     1
102
RTVSPropertyOp32
 70
     1
  0
XRECORD
  5
192
102
{ACAD_REACTORS
330
191
102
}
330
191
100
AcDbXrecord
280
     1
102
RTVSPropertyOp0
 70
     1
102
RTVSPropertyOp1
 70
     1
102
RTVSPropertyOp2
 70
     1
102
RTVSPropertyOp3
 70
     1
102
RTVSPropertyOp4
 70
     1
102
RTVSPropertyOp5
 70
     1
102
RTVSPropertyOp6
 70
     1
102
RTVSPropertyOp7
 70
     1
102
RTVSPropertyOp8
 70
     1
102
RTVSPropertyOp9
 70
     1
102
RTVSPropertyOp10
 70
     1
102
RTVSPropertyOp11
 70
     1
102
RTVSPropertyOp12
 70
     1
102
RTVSPropertyOp13
 70
     1
102
RTVSPropertyOp14
 70
     1
102
RTVSPropertyOp15
 70
     1
102
RTVSPropertyOp16
 70
     1
102
RTVSPropertyOp17
 70
     1
102
RTVSPropertyOp18
 70
     1
102
RTVSPropertyOp19
 70
     1
102
RTVSPropertyOp20
 70
     1
102
RTVSPropertyOp21
 70
     1
102
RTVSPropertyOp22
 70
     1
102
RTVSPropertyOp23
 70
     1
102
RTVSPropertyOp24
 70
     1
102
RTVSPropertyOp25
 70
     1
102
RTVSPropertyOp26
 70
     1
102
RTVSPropertyOp27
 70
     1
102
RTVSPropertyOp28
 70
     1
102
RTVSPropertyOp29
 70
     1
102
RTVSPropertyOp30
 70
     1
102
RTVSPropertyOp31
 70
     1
102
RTVSPropertyOp32
 70
     1
  0
XRECORD
  5
19A
102
{ACAD_REACTORS
330
199
102
}
330
199
100
AcDbXrecord
280
     1
102
RTVSPropertyOp0
 70
     1
102
RTVSPropertyOp1
 70
     1
102
RTVSPropertyOp2
 70
     1
102
RTVSPropertyOp3
 70
     1
102
RTVSPropertyOp4
 70
     1
102
RTVSPropertyOp5
 70
     1
102
RTVSPropertyOp6
 70
     1
102
RTVSPropertyOp7
 70
     1
102
RTVSPropertyOp8
 70
     1
102
RTVSPropertyOp9
 70
     1
102
RTVSPropertyOp10
 70
     1
102
RTVSPropertyOp11
 70
     1
102
RTVSPropertyOp12
 70
     1
102
RTVSPropertyOp13
 70
     1
102
RTVSPropertyOp14
 70
     1
102
RTVSPropertyOp15
 70
     1
102
RTVSPropertyOp16
 70
     1
102
RTVSPropertyOp17
 70
     1
102
RTVSPropertyOp18
 70
     1
102
RTVSPropertyOp19
 70
     1
102
RTVSPropertyOp20
 70
     1
102
RTVSPropertyOp21
 70
     1
102
RTVSPropertyOp22
 70
     1
102
RTVSPropertyOp23
 70
     1
102
RTVSPropertyOp24
 70
     1
102
RTVSPropertyOp25
 70
     1
102
RTVSPropertyOp26
 70
     1
102
RTVSPropertyOp27
 70
     1
102
RTVSPropertyOp28
 70
     1
102
RTVSPropertyOp29
 70
     1
102
RTVSPropertyOp30
 70
     1
102
RTVSPropertyOp31
 70
     1
102
RTVSPropertyOp32
 70
     1
  0
XRECORD
  5
1A2
102
{ACAD_REACTORS
330
1A1
102
}
330
1A1
100
AcDbXrecord
280
     1
102
RTVSPropertyOp0
 70
     1
102
RTVSPropertyOp1
 70
     1
102
RTVSPropertyOp2
 70
     1
102
RTVSPropertyOp3
 70
     1
102
RTVSPropertyOp4
 70
     1
102
RTVSPropertyOp5
 70
     1
102
RTVSPropertyOp6
 70
     1
102
RTVSPropertyOp7
 70
     1
102
RTVSPropertyOp8
 70
     1
102
RTVSPropertyOp9
 70
     1
102
RTVSPropertyOp10
 70
     1
102
RTVSPropertyOp11
 70
     1
102
RTVSPropertyOp12
 70
     1
102
RTVSPropertyOp13
 70
     1
102
RTVSPropertyOp14
 70
     1
102
RTVSPropertyOp15
 70
     1
102
RTVSPropertyOp16
 70
     1
102
RTVSPropertyOp17
 70
     1
102
RTVSPropertyOp18
 70
     1
102
RTVSPropertyOp19
 70
     1
102
RTVSPropertyOp20
 70
     1
102
RTVSPropertyOp21
 70
     1
102
RTVSPropertyOp22
 70
     1
102
RTVSPropertyOp23
 70
     1
102
RTVSPropertyOp24
 70
     1
102
RTVSPropertyOp25
 70
     1
102
RTVSPropertyOp26
 70
     1
102
RTVSPropertyOp27
 70
     1
102
RTVSPropertyOp28
 70
     1
102
RTVSPropertyOp29
 70
     1
102
RTVSPropertyOp30
 70
     1
102
RTVSPropertyOp31
 70
     1
102
RTVSPropertyOp32
 70
     1
  0
XRECORD
  5
196
102
{ACAD_REACTORS
330
195
102
}
330
195
100
AcDbXrecord
280
     1
102
RTVSPropertyOp0
 70
     1
102
RTVSPropertyOp1
 70
     1
102
RTVSPropertyOp2
 70
     1
102
RTVSPropertyOp3
 70
     1
102
RTVSPropertyOp4
 70
     1
102
RTVSPropertyOp5
 70
     1
102
RTVSPropertyOp6
 70
     1
102
RTVSPropertyOp7
 70
     1
102
RTVSPropertyOp8
 70
     1
102
RTVSPropertyOp9
 70
     1
102
RTVSPropertyOp10
 70
     1
102
RTVSPropertyOp11
 70
     1
102
RTVSPropertyOp12
 70
     1
102
RTVSPropertyOp13
 70
     1
102
RTVSPropertyOp14
 70
     1
102
RTVSPropertyOp15
 70
     1
102
RTVSPropertyOp16
 70
     1
102
RTVSPropertyOp17
 70
     1
102
RTVSPropertyOp18
 70
     1
102
RTVSPropertyOp19
 70
     1
102
RTVSPropertyOp20
 70
     1
102
RTVSPropertyOp21
 70
     1
102
RTVSPropertyOp22
 70
     1
102
RTVSPropertyOp23
 70
     1
102
RTVSPropertyOp24
 70
     1
102
RTVSPropertyOp25
 70
     1
102
RTVSPropertyOp26
 70
     1
102
RTVSPropertyOp27
 70
     1
102
RTVSPropertyOp28
 70
     1
102
RTVSPropertyOp29
 70
     1
102
RTVSPropertyOp30
 70
     1
102
RTVSPropertyOp31
 70
     1
102
RTVSPropertyOp32
 70
     1
  0
XRECORD
  5
198
102
{ACAD_REACTORS
330
197
102
}
330
197
100
AcDbXrecord
280
     1
102
RTVSPropertyOp0
 70
     1
102
RTVSPropertyOp1
 70
     1
102
RTVSPropertyOp2
 70
     1
102
RTVSPropertyOp3
 70
     1
102
RTVSPropertyOp4
 70
     1
102
RTVSPropertyOp5
 70
     1
102
RTVSPropertyOp6
 70
     1
102
RTVSPropertyOp7
 70
     1
102
RTVSPropertyOp8
 70
     1
102
RTVSPropertyOp9
 70
     1
102
RTVSPropertyOp10
 70
     1
102
RTVSPropertyOp11
 70
     1
102
RTVSPropertyOp12
 70
     1
102
RTVSPropertyOp13
 70
     1
102
RTVSPropertyOp14
 70
     1
102
RTVSPropertyOp15
 70
     1
102
RTVSPropertyOp16
 70
     1
102
RTVSPropertyOp17
 70
     1
102
RTVSPropertyOp18
 70
     1
102
RTVSPropertyOp19
 70
     1
102
RTVSPropertyOp20
 70
     1
102
RTVSPropertyOp21
 70
     1
102
RTVSPropertyOp22
 70
     1
102
RTVSPropertyOp23
 70
     1
102
RTVSPropertyOp24
 70
     1
102
RTVSPropertyOp25
 70
     1
102
RTVSPropertyOp26
 70
     1
102
RTVSPropertyOp27
 70
     1
102
RTVSPropertyOp28
 70
     1
102
RTVSPropertyOp29
 70
     1
102
RTVSPropertyOp30
 70
     1
102
RTVSPropertyOp31
 70
     1
102
RTVSPropertyOp32
 70
     1
  0
XRECORD
  5
1A0
102
{ACAD_REACTORS
330
19F
102
}
330
19F
100
AcDbXrecord
280
     1
102
RTVSPropertyOp0
 70
     1
102
RTVSPropertyOp1
 70
     1
102
RTVSPropertyOp2
 70
     1
102
RTVSPropertyOp3
 70
     1
102
RTVSPropertyOp4
 70
     1
102
RTVSPropertyOp5
 70
     1
102
RTVSPropertyOp6
 70
     1
102
RTVSPropertyOp7
 70
     1
102
RTVSPropertyOp8
 70
     1
102
RTVSPropertyOp9
 70
     1
102
RTVSPropertyOp10
 70
     1
102
RTVSPropertyOp11
 70
     1
102
RTVSPropertyOp12
 70
     1
102
RTVSPropertyOp13
 70
     1
102
RTVSPropertyOp14
 70
     1
102
RTVSPropertyOp15
 70
     1
102
RTVSPropertyOp16
 70
     1
102
RTVSPropertyOp17
 70
     1
102
RTVSPropertyOp18
 70
     1
102
RTVSPropertyOp19
 70
     1
102
RTVSPropertyOp20
 70
     1
102
RTVSPropertyOp21
 70
     1
102
RTVSPropertyOp22
 70
     1
102
RTVSPropertyOp23
 70
     1
102
RTVSPropertyOp24
 70
     1
102
RTVSPropertyOp25
 70
     1
102
RTVSPropertyOp26
 70
     1
102
RTVSPropertyOp27
 70
     1
102
RTVSPropertyOp28
 70
     1
102
RTVSPropertyOp29
 70
     1
102
RTVSPropertyOp30
 70
     1
102
RTVSPropertyOp31
 70
     1
102
RTVSPropertyOp32
 70
     1
  0
XRECORD
  5
184
102
{ACAD_REACTORS
330
183
102
}
330
183
100
AcDbXrecord
280
     1
102
RTVSPropertyOp0
 70
     1
102
RTVSPropertyOp1
 70
     1
102
RTVSPropertyOp2
 70
     1
102
RTVSPropertyOp3
 70
     1
102
RTVSPropertyOp4
 70
     1
102
RTVSPropertyOp5
 70
     1
102
RTVSPropertyOp6
 70
     1
102
RTVSPropertyOp7
 70
     1
102
RTVSPropertyOp8
 70
     1
102
RTVSPropertyOp9
 70
     1
102
RTVSPropertyOp10
 70
     1
102
RTVSPropertyOp11
 70
     1
102
RTVSPropertyOp12
 70
     1
102
RTVSPropertyOp13
 70
     1
102
RTVSPropertyOp14
 70
     1
102
RTVSPropertyOp15
 70
     1
102
RTVSPropertyOp16
 70
     1
102
RTVSPropertyOp17
 70
     1
102
RTVSPropertyOp18
 70
     1
102
RTVSPropertyOp19
 70
     1
102
RTVSPropertyOp20
 70
     1
102
RTVSPropertyOp21
 70
     1
102
RTVSPropertyOp22
 70
     1
102
RTVSPropertyOp23
 70
     1
102
RTVSPropertyOp24
 70
     1
102
RTVSPropertyOp25
 70
     1
102
RTVSPropertyOp26
 70
     1
102
RTVSPropertyOp27
 70
     1
102
RTVSPropertyOp28
 70
     1
102
RTVSPropertyOp29
 70
     1
102
RTVSPropertyOp30
 70
     1
102
RTVSPropertyOp31
 70
     1
102
RTVSPropertyOp32
 70
     1
  0
XRECORD
  5
186
102
{ACAD_REACTORS
330
185
102
}
330
185
100
AcDbXrecord
280
     1
102
RTVSPropertyOp0
 70
     1
102
RTVSPropertyOp1
 70
     1
102
RTVSPropertyOp2
 70
     1
102
RTVSPropertyOp3
 70
     1
102
RTVSPropertyOp4
 70
     1
102
RTVSPropertyOp5
 70
     1
102
RTVSPropertyOp6
 70
     1
102
RTVSPropertyOp7
 70
     1
102
RTVSPropertyOp8
 70
     1
102
RTVSPropertyOp9
 70
     1
102
RTVSPropertyOp10
 70
     1
102
RTVSPropertyOp11
 70
     1
102
RTVSPropertyOp12
 70
     1
102
RTVSPropertyOp13
 70
     1
102
RTVSPropertyOp14
 70
     1
102
RTVSPropertyOp15
 70
     1
102
RTVSPropertyOp16
 70
     1
102
RTVSPropertyOp17
 70
     1
102
RTVSPropertyOp18
 70
     1
102
RTVSPropertyOp19
 70
     1
102
RTVSPropertyOp20
 70
     1
102
RTVSPropertyOp21
 70
     1
102
RTVSPropertyOp22
 70
     1
102
RTVSPropertyOp23
 70
     1
102
RTVSPropertyOp24
 70
     1
102
RTVSPropertyOp25
 70
     1
102
RTVSPropertyOp26
 70
     1
102
RTVSPropertyOp27
 70
     1
102
RTVSPropertyOp28
 70
     1
102
RTVSPropertyOp29
 70
     1
102
RTVSPropertyOp30
 70
     1
102
RTVSPropertyOp31
 70
     1
102
RTVSPropertyOp32
 70
     1
  0
XRECORD
  5
188
102
{ACAD_REACTORS
330
187
102
}
330
187
100
AcDbXrecord
280
     1
102
RTVSPropertyOp0
 70
     1
102
RTVSPropertyOp1
 70
     1
102
RTVSPropertyOp2
 70
     1
102
RTVSPropertyOp3
 70
     1
102
RTVSPropertyOp4
 70
     1
102
RTVSPropertyOp5
 70
     1
102
RTVSPropertyOp6
 70
     1
102
RTVSPropertyOp7
 70
     1
102
RTVSPropertyOp8
 70
     1
102
RTVSPropertyOp9
 70
     1
102
RTVSPropertyOp10
 70
     1
102
RTVSPropertyOp11
 70
     1
102
RTVSPropertyOp12
 70
     1
102
RTVSPropertyOp13
 70
     1
102
RTVSPropertyOp14
 70
     1
102
RTVSPropertyOp15
 70
     1
102
RTVSPropertyOp16
 70
     1
102
RTVSPropertyOp17
 70
     1
102
RTVSPropertyOp18
 70
     1
102
RTVSPropertyOp19
 70
     1
102
RTVSPropertyOp20
 70
     1
102
RTVSPropertyOp21
 70
     1
102
RTVSPropertyOp22
 70
     1
102
RTVSPropertyOp23
 70
     1
102
RTVSPropertyOp24
 70
     1
102
RTVSPropertyOp25
 70
     1
102
RTVSPropertyOp26
 70
     1
102
RTVSPropertyOp27
 70
     1
102
RTVSPropertyOp28
 70
     1
102
RTVSPropertyOp29
 70
     1
102
RTVSPropertyOp30
 70
     1
102
RTVSPropertyOp31
 70
     1
102
RTVSPropertyOp32
 70
     1
  0
XRECORD
  5
18A
102
{ACAD_REACTORS
330
189
102
}
330
189
100
AcDbXrecord
280
     1
102
RTVSPropertyOp0
 70
     1
102
RTVSPropertyOp1
 70
     1
102
RTVSPropertyOp2
 70
     1
102
RTVSPropertyOp3
 70
     1
102
RTVSPropertyOp4
 70
     1
102
RTVSPropertyOp5
 70
     1
102
RTVSPropertyOp6
 70
     1
102
RTVSPropertyOp7
 70
     1
102
RTVSPropertyOp8
 70
     1
102
RTVSPropertyOp9
 70
     1
102
RTVSPropertyOp10
 70
     1
102
RTVSPropertyOp11
 70
     1
102
RTVSPropertyOp12
 70
     1
102
RTVSPropertyOp13
 70
     1
102
RTVSPropertyOp14
 70
     1
102
RTVSPropertyOp15
 70
     1
102
RTVSPropertyOp16
 70
     1
102
RTVSPropertyOp17
 70
     1
102
RTVSPropertyOp18
 70
     1
102
RTVSPropertyOp19
 70
     1
102
RTVSPropertyOp20
 70
     1
102
RTVSPropertyOp21
 70
     1
102
RTVSPropertyOp22
 70
     1
102
RTVSPropertyOp23
 70
     1
102
RTVSPropertyOp24
 70
     1
102
RTVSPropertyOp25
 70
     1
102
RTVSPropertyOp26
 70
     1
102
RTVSPropertyOp27
 70
     1
102
RTVSPropertyOp28
 70
     1
102
RTVSPropertyOp29
 70
     1
102
RTVSPropertyOp30
 70
     1
102
RTVSPropertyOp31
 70
     1
102
RTVSPropertyOp32
 70
     1
  0
XRECORD
  5
19E
102
{ACAD_REACTORS
330
19D
102
}
330
19D
100
AcDbXrecord
280
     1
102
RTVSPropertyOp0
 70
     1
102
RTVSPropertyOp1
 70
     1
102
RTVSPropertyOp2
 70
     1
102
RTVSPropertyOp3
 70
     1
102
RTVSPropertyOp4
 70
     1
102
RTVSPropertyOp5
 70
     1
102
RTVSPropertyOp6
 70
     1
102
RTVSPropertyOp7
 70
     1
102
RTVSPropertyOp8
 70
     1
102
RTVSPropertyOp9
 70
     1
102
RTVSPropertyOp10
 70
     1
102
RTVSPropertyOp11
 70
     1
102
RTVSPropertyOp12
 70
     1
102
RTVSPropertyOp13
 70
     1
102
RTVSPropertyOp14
 70
     1
102
RTVSPropertyOp15
 70
     1
102
RTVSPropertyOp16
 70
     1
102
RTVSPropertyOp17
 70
     1
102
RTVSPropertyOp18
 70
     1
102
RTVSPropertyOp19
 70
     1
102
RTVSPropertyOp20
 70
     1
102
RTVSPropertyOp21
 70
     1
102
RTVSPropertyOp22
 70
     1
102
RTVSPropertyOp23
 70
     1
102
RTVSPropertyOp24
 70
     1
102
RTVSPropertyOp25
 70
     1
102
RTVSPropertyOp26
 70
     1
102
RTVSPropertyOp27
 70
     1
102
RTVSPropertyOp28
 70
     1
102
RTVSPropertyOp29
 70
     1
102
RTVSPropertyOp30
 70
     1
102
RTVSPropertyOp31
 70
     1
102
RTVSPropertyOp32
 70
     1
  0
XRECORD
  5
194
102
{ACAD_REACTORS
330
193
102
}
330
193
100
AcDbXrecord
280
     1
102
RTVSPropertyOp0
 70
     1
102
RTVSPropertyOp1
 70
     1
102
RTVSPropertyOp2
 70
     1
102
RTVSPropertyOp3
 70
     1
102
RTVSPropertyOp4
 70
     1
102
RTVSPropertyOp5
 70
     1
102
RTVSPropertyOp6
 70
     1
102
RTVSPropertyOp7
 70
     1
102
RTVSPropertyOp8
 70
     1
102
RTVSPropertyOp9
 70
     1
102
RTVSPropertyOp10
 70
     1
102
RTVSPropertyOp11
 70
     1
102
RTVSPropertyOp12
 70
     1
102
RTVSPropertyOp13
 70
     1
102
RTVSPropertyOp14
 70
     1
102
RTVSPropertyOp15
 70
     1
102
RTVSPropertyOp16
 70
     1
102
RTVSPropertyOp17
 70
     1
102
RTVSPropertyOp18
 70
     1
102
RTVSPropertyOp19
 70
     1
102
RTVSPropertyOp20
 70
     1
102
RTVSPropertyOp21
 70
     1
102
RTVSPropertyOp22
 70
     1
102
RTVSPropertyOp23
 70
     1
102
RTVSPropertyOp24
 70
     1
102
RTVSPropertyOp25
 70
     1
102
RTVSPropertyOp26
 70
     1
102
RTVSPropertyOp27
 70
     1
102
RTVSPropertyOp28
 70
     1
102
RTVSPropertyOp29
 70
     1
102
RTVSPropertyOp30
 70
     1
102
RTVSPropertyOp31
 70
     1
102
RTVSPropertyOp32
 70
     1
  0
XRECORD
  5
19C
102
{ACAD_REACTORS
330
19B
102
}
330
19B
100
AcDbXrecord
280
     1
102
RTVSPropertyOp0
 70
     1
102
RTVSPropertyOp1
 70
     1
102
RTVSPropertyOp2
 70
     1
102
RTVSPropertyOp3
 70
     1
102
RTVSPropertyOp4
 70
     1
102
RTVSPropertyOp5
 70
     1
102
RTVSPropertyOp6
 70
     1
102
RTVSPropertyOp7
 70
     1
102
RTVSPropertyOp8
 70
     1
102
RTVSPropertyOp9
 70
     1
102
RTVSPropertyOp10
 70
     1
102
RTVSPropertyOp11
 70
     1
102
RTVSPropertyOp12
 70
     1
102
RTVSPropertyOp13
 70
     1
102
RTVSPropertyOp14
 70
     1
102
RTVSPropertyOp15
 70
     1
102
RTVSPropertyOp16
 70
     1
102
RTVSPropertyOp17
 70
     1
102
RTVSPropertyOp18
 70
     1
102
RTVSPropertyOp19
 70
     1
102
RTVSPropertyOp20
 70
     1
102
RTVSPropertyOp21
 70
     1
102
RTVSPropertyOp22
 70
     1
102
RTVSPropertyOp23
 70
     1
102
RTVSPropertyOp24
 70
     1
102
RTVSPropertyOp25
 70
     1
102
RTVSPropertyOp26
 70
     1
102
RTVSPropertyOp27
 70
     1
102
RTVSPropertyOp28
 70
     1
102
RTVSPropertyOp29
 70
     1
102
RTVSPropertyOp30
 70
     1
102
RTVSPropertyOp31
 70
     1
102
RTVSPropertyOp32
 70
     1
  0
ENDSEC
  0
EOF
