0
SECTION
2
HEADER
9
$ACADVER
1
AC1015
9
$DWGCODEPAGE
3
ANSI_1252
9
$HANDSEED
5
2dd
9
$ANGBASE
50
0
9
$ANGDIR
70
0
9
$ATTMODE
70
1
9
$AUNITS
70
0
9
$AUPREC
70
0
9
$CECOLOR
62
256
9
$CELTSCALE
40
1
9
$CELTYPE
6
ByLayer
9
$CELWEIGHT
370
18
9
$CLAYER
8
0
9
$CMLJUST
70
0
9
$CMLSCALE
40
1
9
$CMLSTYLE
2
Standard
9
$DIMSTYLE
2
Standard
9
$TEXTSIZE
40
0.2
9
$TEXTSTYLE
7
Standard
9
$LUNITS
70
2
9
$LUPREC
70
4
9
$EXTNAMES
290
1
9
$INSUNITS
70
4
9
$LTSCALE
40
1
9
$LWDISPLAY
290
1
9
$PDMODE
70
0
9
$PDSIZE
40
0
9
$PLINEGEN
70
0
0
ENDSEC
0
SECTION
2
CLASSES
0
CLASS
1
RASTERVARIABLES
2
AcDbRasterVariables
3
ISM
90
0
280
0
281
0
0
ENDSEC
0
SECTION
2
TABLES
0
TABLE
2
VPORT
5
2d3
100
AcDbSymbolTable
0
VPORT
5
1
100
AcDbSymbolTableRecord
100
AcDbViewportTableRecord
2
*Active
70
0
10
0
20
0
11
1
21
1
12
-1
22
1
13
0
23
0
14
0.5
24
0.5
15
10
25
10
16
0
26
0
36
1
17
0
27
0
37
0
0
ENDTAB
0
TABLE
2
LTYPE
5
2d4
100
AcDbSymbolTable
0
LTYPE
5
14
100
AcDbSymbolTableRecord
100
AcDbLinetypeTableRecord
70
0
2
ByBlock
3

72
65
73
0
40
0
0
LTYPE
5
15
100
AcDbSymbolTableRecord
100
AcDbLinetypeTableRecord
70
0
2
ByLayer
3

72
65
73
0
40
0
0
LTYPE
5
16
100
AcDbSymbolTableRecord
100
AcDbLinetypeTableRecord
70
0
2
CONTINUOUS
3
Solid line
72
65
73
0
40
0
0
LTYPE
5
6A
100
AcDbSymbolTableRecord
100
AcDbLinetypeTableRecord
70
0
2
CENTER
3
____ _ ____ _ ____ _ ____
72
65
73
4
40
47.5
49
22
74
0
49
-8.5
74
0
49
8.5
74
0
49
-8.5
74
0
0
LTYPE
5
6B
100
AcDbSymbolTableRecord
100
AcDbLinetypeTableRecord
70
0
2
DASHED
3
__ __ __ __ __ __ __ __ __
72
65
73
2
40
25.72
49
12.86
74
0
49
-12.86
74
0
0
ENDTAB
0
TABLE
2
LAYER
5
2d5
100
AcDbSymbolTable
0
LAYER
5
10
100
AcDbSymbolTableRecord
100
AcDbLayerTableRecord
2
0
70
0
62
7
6
CONTINUOUS
290
1
370
-3
390
0
0
LAYER
5
6D
100
AcDbSymbolTableRecord
100
AcDbLayerTableRecord
2
81
70
0
62
-3
6
CONTINUOUS
290
1
370
-3
390
0
0
LAYER
5
6F
100
AcDbSymbolTableRecord
100
AcDbLayerTableRecord
2
80
70
0
62
-6
6
CONTINUOUS
290
1
370
-3
390
0
0
LAYER
5
71
100
AcDbSymbolTableRecord
100
AcDbLayerTableRecord
2
1
70
0
62
4
6
CONTINUOUS
290
1
370
-3
390
0
0
LAYER
5
C0
100
AcDbSymbolTableRecord
100
AcDbLayerTableRecord
2
4
70
0
62
-2
6
CENTER
290
1
370
-3
390
0
0
LAYER
5
24A
100
AcDbSymbolTableRecord
100
AcDbLayerTableRecord
2
2
70
0
62
7
6
CONTINUOUS
290
1
370
-3
390
0
0
LAYER
5
2be
100
AcDbSymbolTableRecord
100
AcDbLayerTableRecord
2
SK4
70
0
62
2
6
CENTER
290
1
370
-3
390
0
0
LAYER
5
2bf
100
AcDbSymbolTableRecord
100
AcDbLayerTableRecord
2
SK3
70
0
62
1
6
DASHED
290
1
370
-3
390
0
0
LAYER
5
2c0
100
AcDbSymbolTableRecord
100
AcDbLayerTableRecord
2
SK1
70
0
62
4
6
CONTINUOUS
290
1
370
-3
390
0
0
LAYER
5
2c1
100
AcDbSymbolTableRecord
100
AcDbLayerTableRecord
2
SK6
70
0
62
5
6
CONTINUOUS
290
1
370
-3
390
0
0
LAYER
5
2c2
100
AcDbSymbolTableRecord
100
AcDbLayerTableRecord
2
SK2
70
0
62
7
6
CONTINUOUS
290
1
370
-3
390
0
0
ENDTAB
0
TABLE
2
STYLE
5
2d6
100
AcDbSymbolTable
0
STYLE
5
11
100
AcDbSymbolTableRecord
100
AcDbTextStyleTableRecord
2
Standard
3
txt
70
0
71
0
40
0
41
1
42
0
50
0
0
STYLE
5
1E7
100
AcDbSymbolTableRecord
100
AcDbTextStyleTableRecord
2
iso_b_vert
3
simplex.shx
70
0
71
0
40
0
41
1
42
0
50
0
0
STYLE
5
1E8
100
AcDbSymbolTableRecord
100
AcDbTextStyleTableRecord
2
DWGDirectTextStyle
3
simplex
70
0
71
0
40
0
41
1
42
0
50
0
0
ENDTAB
0
TABLE
2
DIMSTYLE
5
2d7
100
AcDbSymbolTable
100
AcDbDimStyleTable
0
DIMSTYLE
105
27
100
AcDbSymbolTableRecord
100
AcDbDimStyleTableRecord
2
Standard
70
0
3
<>
41
0.18
42
0.0625
44
0.18
140
0.18
147
0.09
73
0
74
0
77
1
271
2
275
0
278
52
280
0
340
11
0
ENDTAB
0
TABLE
2
VIEW
5
2d8
100
AcDbSymbolTable
0
ENDTAB
0
TABLE
2
UCS
5
2d9
100
AcDbSymbolTable
0
ENDTAB
0
TABLE
2
APPID
5
2da
100
AcDbSymbolTable
0
APPID
5
12
100
AcDbSymbolTableRecord
100
AcDbRegAppTableRecord
2
ACAD
70
0
0
ENDTAB
0
TABLE
2
BLOCK_RECORD
5
2db
100
AcDbSymbolTable
0
BLOCK_RECORD
5
1F
100
AcDbSymbolTableRecord
100
AcDbBlockTableRecord
2
*Model_Space
340
0
70
0
0
BLOCK_RECORD
5
1B
100
AcDbSymbolTableRecord
100
AcDbBlockTableRecord
2
*Paper_Space
340
0
70
0
0
BLOCK_RECORD
5
23
100
AcDbSymbolTableRecord
100
AcDbBlockTableRecord
2
*Paper_Space0
340
0
70
0
0
BLOCK_RECORD
5
1EA
100
AcDbSymbolTableRecord
100
AcDbBlockTableRecord
2
LABLE3D_1
340
0
70
0
0
BLOCK_RECORD
5
1EB
100
AcDbSymbolTableRecord
100
AcDbBlockTableRecord
2
_CLOSED
340
0
70
0
0
BLOCK_RECORD
5
1F8
100
AcDbSymbolTableRecord
100
AcDbBlockTableRecord
2
DimnDraft3D1
340
0
70
0
0
BLOCK_RECORD
5
202
100
AcDbSymbolTableRecord
100
AcDbBlockTableRecord
2
DimnDraft3D2
340
0
70
0
0
BLOCK_RECORD
5
210
100
AcDbSymbolTableRecord
100
AcDbBlockTableRecord
2
DimnDraft3D3
340
0
70
0
0
BLOCK_RECORD
5
21E
100
AcDbSymbolTableRecord
100
AcDbBlockTableRecord
2
DimnDraft3D4
340
0
70
0
0
BLOCK_RECORD
5
22C
100
AcDbSymbolTableRecord
100
AcDbBlockTableRecord
2
DimnDraft3D5
340
0
70
0
0
BLOCK_RECORD
5
23A
100
AcDbSymbolTableRecord
100
AcDbBlockTableRecord
2
DimnDraft3D6
340
0
70
0
0
BLOCK_RECORD
5
248
100
AcDbSymbolTableRecord
100
AcDbBlockTableRecord
2
DimnDraft3D7
340
0
70
0
0
BLOCK_RECORD
5
257
100
AcDbSymbolTableRecord
100
AcDbBlockTableRecord
2
DimnDraft3D8
340
0
70
0
0
ENDTAB
0
ENDSEC
0
SECTION
2
BLOCKS
0
BLOCK
5
20
100
AcDbEntity
8
0
100
AcDbBlockBegin
2
*Model_Space
70
0
10
0
20
0
30
0
3
*Model_Space
0
ENDBLK
5
21
100
AcDbEntity
8
0
100
AcDbBlockEnd
0
BLOCK
5
1C
100
AcDbEntity
8
0
100
AcDbBlockBegin
2
*Paper_Space
70
0
10
0
20
0
30
0
3
*Paper_Space
0
ENDBLK
5
1D
100
AcDbEntity
8
0
100
AcDbBlockEnd
0
BLOCK
5
24
100
AcDbEntity
8
0
100
AcDbBlockBegin
2
*Paper_Space0
70
0
10
0
20
0
30
0
3
*Paper_Space0
0
ENDBLK
5
25
100
AcDbEntity
8
0
100
AcDbBlockEnd
0
BLOCK
5
1F6
100
AcDbEntity
8
0
100
AcDbBlockBegin
2
LABLE3D_1
70
0
10
0
20
0
30
0
3
LABLE3D_1
0
MTEXT
5
1F4
100
AcDbEntity
8
SK2
62
256
6
ByLayer
370
18
48
1
60
0
100
AcDbMText
10
-37.05087
20
-52.526757
30
0
210
0
220
0
230
1
1
\W0.7886;Combination of\PHSK-A/C/T 63
40
3
41
0
44
1.084337
50
0
71
7
72
5
7
iso_b_vert
0
ENDBLK
5
1F7
100
AcDbEntity
8
0
100
AcDbBlockEnd
0
BLOCK
5
1EC
100
AcDbEntity
8
0
100
AcDbBlockBegin
2
_CLOSED
70
0
10
0
20
0
30
0
3
_CLOSED
0
LINE
5
1EE
100
AcDbEntity
8
0
62
256
6
ByLayer
370
-2
48
1
60
0
100
AcDbLine
10
-1
20
0.166667
30
0
11
0
21
0
31
0
39
0
210
0
220
0
230
1
0
LINE
5
1EF
100
AcDbEntity
8
0
62
256
6
ByLayer
370
-2
48
1
60
0
100
AcDbLine
10
0
20
0
30
0
11
-1
21
-0.166667
31
0
39
0
210
0
220
0
230
1
0
LINE
5
1F0
100
AcDbEntity
8
0
62
256
6
ByLayer
370
-2
48
1
60
0
100
AcDbLine
10
-1
20
0.166667
30
0
11
-1
21
-0.166667
31
0
39
0
210
0
220
0
230
1
0
LINE
5
1F1
100
AcDbEntity
8
0
62
256
6
ByLayer
370
-2
48
1
60
0
100
AcDbLine
10
0
20
0
30
0
11
-1
21
0
31
0
39
0
210
0
220
0
230
1
0
ENDBLK
5
1ED
100
AcDbEntity
8
0
100
AcDbBlockEnd
0
BLOCK
5
1FF
100
AcDbEntity
8
0
100
AcDbBlockBegin
2
DimnDraft3D1
70
0
10
0
20
0
30
0
3
DimnDraft3D1
0
MTEXT
5
1F9
100
AcDbEntity
8
SK2
62
256
6
ByLayer
370
18
48
1
60
0
100
AcDbMText
10
11.99738
20
46.222458
30
0
210
0
220
0
230
1
1
\W0.6563;26
40
3.000007
41
0
44
1.084337
50
0
71
7
72
5
7
iso_b_vert
0
LINE
5
1FA
100
AcDbEntity
8
SK2
62
256
6
ByLayer
370
13
48
1
60
0
100
AcDbLine
10
1.3E-05
20
32.5875
30
0
11
1.3E-05
21
48.647457
31
0
39
0
210
0
220
0
230
1
0
LINE
5
1FB
100
AcDbEntity
8
SK2
62
256
6
ByLayer
370
13
48
1
60
0
100
AcDbLine
10
26.000013
20
32.5875
30
0
11
26.000013
21
48.647457
31
0
39
0
210
0
220
0
230
1
0
LINE
5
1FC
100
AcDbEntity
8
SK2
62
256
6
ByLayer
370
13
48
1
60
0
100
AcDbLine
10
1.3E-05
20
45.472457
30
0
11
26.000013
21
45.472457
31
0
39
0
210
0
220
0
230
1
0
SOLID
5
1FD
100
AcDbEntity
8
SK2
62
256
6
ByLayer
370
13
48
1
60
0
100
AcDbTrace
10
1.3E-05
20
45.472457
30
0
11
3.175012
21
45.975327
31
0
12
3.175015
22
44.969586
32
0
13
1.3E-05
23
45.472457
33
0
39
0
210
0
220
0
230
1
0
SOLID
5
1FE
100
AcDbEntity
8
SK2
62
256
6
ByLayer
370
13
48
1
60
0
100
AcDbTrace
10
26.000013
20
45.472457
30
0
11
22.825015
21
44.969586
31
0
12
22.825012
22
45.975327
32
0
13
26.000013
23
45.472457
33
0
39
0
210
0
220
0
230
1
0
ENDBLK
5
200
100
AcDbEntity
8
0
100
AcDbBlockEnd
0
BLOCK
5
20D
100
AcDbEntity
8
0
100
AcDbBlockBegin
2
DimnDraft3D2
70
0
10
0
20
0
30
0
3
DimnDraft3D2
0
MTEXT
5
203
100
AcDbEntity
8
SK2
62
256
6
ByLayer
370
18
48
1
60
0
100
AcDbMText
10
-17.002616
20
59.288283
30
0
210
0
220
0
230
1
1
\W0.6563;32
40
2.999994
41
0
44
1.084337
50
0
71
7
72
5
7
iso_b_vert
0
LINE
5
204
100
AcDbEntity
8
SK2
62
256
6
ByLayer
370
13
48
1
60
0
100
AcDbLine
10
1.3E-05
20
32.499997
30
0
11
1.3E-05
21
61.538279
31
0
39
0
210
0
220
0
230
1
0
LINE
5
205
100
AcDbEntity
8
SK2
62
256
6
ByLayer
370
13
48
1
60
0
100
AcDbLine
10
-31.999987
20
23.073498
30
0
11
-31.999987
21
61.538279
31
0
39
0
210
0
220
0
230
1
0
LINE
5
206
100
AcDbEntity
8
SK2
62
256
6
ByLayer
370
13
48
1
60
0
100
AcDbLine
10
1.3E-05
20
58.538285
30
0
11
-31.999987
21
58.538285
31
0
39
0
210
0
220
0
230
1
0
LINE
5
207
100
AcDbEntity
8
SK2
62
256
6
ByLayer
370
13
48
1
60
0
100
AcDbLine
10
1.3E-05
20
58.538285
30
0
11
-2.999979
21
58.038286
31
0
39
0
210
0
220
0
230
1
0
LINE
5
208
100
AcDbEntity
8
SK2
62
256
6
ByLayer
370
13
48
1
60
0
100
AcDbLine
10
1.3E-05
20
58.538285
30
0
11
-2.999982
21
59.038284
31
0
39
0
210
0
220
0
230
1
0
LINE
5
209
100
AcDbEntity
8
SK2
62
256
6
ByLayer
370
13
48
1
60
0
100
AcDbLine
10
-2.999979
20
58.038286
30
0
11
-2.999982
21
59.038284
31
0
39
0
210
0
220
0
230
1
0
LINE
5
20A
100
AcDbEntity
8
SK2
62
256
6
ByLayer
370
13
48
1
60
0
100
AcDbLine
10
-31.999987
20
58.538285
30
0
11
-28.999994
21
59.038284
31
0
39
0
210
0
220
0
230
1
0
LINE
5
20B
100
AcDbEntity
8
SK2
62
256
6
ByLayer
370
13
48
1
60
0
100
AcDbLine
10
-31.999987
20
58.538285
30
0
11
-28.999991
21
58.038286
31
0
39
0
210
0
220
0
230
1
0
LINE
5
20C
100
AcDbEntity
8
SK2
62
256
6
ByLayer
370
13
48
1
60
0
100
AcDbLine
10
-28.999994
20
59.038284
30
0
11
-28.999991
21
58.038286
31
0
39
0
210
0
220
0
230
1
0
ENDBLK
5
20E
100
AcDbEntity
8
0
100
AcDbBlockEnd
0
BLOCK
5
21B
100
AcDbEntity
8
0
100
AcDbBlockBegin
2
DimnDraft3D3
70
0
10
0
20
0
30
0
3
DimnDraft3D3
0
MTEXT
5
211
100
AcDbEntity
8
SK2
62
256
6
ByLayer
370
18
48
1
60
0
100
AcDbMText
10
-56.33407
20
-3.323684
30
0
210
0
220
0
230
1
1
\W0.7884;%%c 63
40
3
41
0
44
1.084337
50
90
71
7
72
5
7
iso_b_vert
0
LINE
5
212
100
AcDbEntity
8
SK2
62
256
6
ByLayer
370
13
48
1
60
0
100
AcDbLine
10
-0.999987
20
-31.5
30
0
11
-58.58407
21
-31.5
31
0
39
0
210
0
220
0
230
1
0
LINE
5
213
100
AcDbEntity
8
SK2
62
256
6
ByLayer
370
13
48
1
60
0
100
AcDbLine
10
-0.999987
20
31.5
30
0
11
-58.58407
21
31.5
31
0
39
0
210
0
220
0
230
1
0
LINE
5
214
100
AcDbEntity
8
SK2
62
256
6
ByLayer
370
13
48
1
60
0
100
AcDbLine
10
-55.58407
20
-31.5
30
0
11
-55.58407
21
31.5
31
0
39
0
210
0
220
0
230
1
0
LINE
5
215
100
AcDbEntity
8
SK2
62
256
6
ByLayer
370
13
48
1
60
0
100
AcDbLine
10
-55.58407
20
-31.5
30
0
11
-56.113051
21
-28.500002
31
0
39
0
210
0
220
0
230
1
0
LINE
5
216
100
AcDbEntity
8
SK2
62
256
6
ByLayer
370
13
48
1
60
0
100
AcDbLine
10
-55.58407
20
-31.5
30
0
11
-55.055089
21
-28.499998
31
0
39
0
210
0
220
0
230
1
0
LINE
5
217
100
AcDbEntity
8
SK2
62
256
6
ByLayer
370
13
48
1
60
0
100
AcDbLine
10
-56.113051
20
-28.500002
30
0
11
-55.055089
21
-28.499998
31
0
39
0
210
0
220
0
230
1
0
LINE
5
218
100
AcDbEntity
8
SK2
62
256
6
ByLayer
370
13
48
1
60
0
100
AcDbLine
10
-55.58407
20
31.5
30
0
11
-55.055089
21
28.500002
31
0
39
0
210
0
220
0
230
1
0
LINE
5
219
100
AcDbEntity
8
SK2
62
256
6
ByLayer
370
13
48
1
60
0
100
AcDbLine
10
-55.58407
20
31.5
30
0
11
-56.113051
21
28.499998
31
0
39
0
210
0
220
0
230
1
0
LINE
5
21A
100
AcDbEntity
8
SK2
62
256
6
ByLayer
370
13
48
1
60
0
100
AcDbLine
10
-55.055089
20
28.500002
30
0
11
-56.113051
21
28.499998
31
0
39
0
210
0
220
0
230
1
0
ENDBLK
5
21C
100
AcDbEntity
8
0
100
AcDbBlockEnd
0
BLOCK
5
229
100
AcDbEntity
8
0
100
AcDbBlockBegin
2
DimnDraft3D4
70
0
10
0
20
0
30
0
3
DimnDraft3D4
0
MTEXT
5
21F
100
AcDbEntity
8
SK2
62
256
6
ByLayer
370
18
48
1
60
0
100
AcDbMText
10
-43.285949
20
-3.481579
30
0
210
0
220
0
230
1
1
\W0.8203;%%c 48
40
3
41
0
44
1.084337
50
90
71
7
72
5
7
iso_b_vert
0
LINE
5
220
100
AcDbEntity
8
SK2
62
256
6
ByLayer
370
13
48
1
60
0
100
AcDbLine
10
-7.799987
20
-24
30
0
11
-45.535949
21
-24
31
0
39
0
210
0
220
0
230
1
0
LINE
5
221
100
AcDbEntity
8
SK2
62
256
6
ByLayer
370
13
48
1
60
0
100
AcDbLine
10
-7.799987
20
24
30
0
11
-45.535949
21
24
31
0
39
0
210
0
220
0
230
1
0
LINE
5
222
100
AcDbEntity
8
SK2
62
256
6
ByLayer
370
13
48
1
60
0
100
AcDbLine
10
-42.535949
20
-24
30
0
11
-42.535949
21
24
31
0
39
0
210
0
220
0
230
1
0
LINE
5
223
100
AcDbEntity
8
SK2
62
256
6
ByLayer
370
13
48
1
60
0
100
AcDbLine
10
-42.535949
20
-24
30
0
11
-43.06493
21
-21.000002
31
0
39
0
210
0
220
0
230
1
0
LINE
5
224
100
AcDbEntity
8
SK2
62
256
6
ByLayer
370
13
48
1
60
0
100
AcDbLine
10
-42.535949
20
-24
30
0
11
-42.006968
21
-20.999998
31
0
39
0
210
0
220
0
230
1
0
LINE
5
225
100
AcDbEntity
8
SK2
62
256
6
ByLayer
370
13
48
1
60
0
100
AcDbLine
10
-43.06493
20
-21.000002
30
0
11
-42.006968
21
-20.999998
31
0
39
0
210
0
220
0
230
1
0
LINE
5
226
100
AcDbEntity
8
SK2
62
256
6
ByLayer
370
13
48
1
60
0
100
AcDbLine
10
-42.535949
20
24
30
0
11
-42.006968
21
21.000002
31
0
39
0
210
0
220
0
230
1
0
LINE
5
227
100
AcDbEntity
8
SK2
62
256
6
ByLayer
370
13
48
1
60
0
100
AcDbLine
10
-42.535949
20
24
30
0
11
-43.06493
21
20.999998
31
0
39
0
210
0
220
0
230
1
0
LINE
5
228
100
AcDbEntity
8
SK2
62
256
6
ByLayer
370
13
48
1
60
0
100
AcDbLine
10
-42.006968
20
21.000002
30
0
11
-43.06493
21
20.999998
31
0
39
0
210
0
220
0
230
1
0
ENDBLK
5
22A
100
AcDbEntity
8
0
100
AcDbBlockEnd
0
BLOCK
5
237
100
AcDbEntity
8
0
100
AcDbBlockBegin
2
DimnDraft3D5
70
0
10
0
20
0
30
0
3
DimnDraft3D5
0
MTEXT
5
22D
100
AcDbEntity
8
SK2
62
256
6
ByLayer
370
18
48
1
60
0
100
AcDbMText
10
19.839925
20
59.288282
30
0
210
0
220
0
230
1
1
\W0.7183;42
40
3
41
0
44
1.084337
50
0
71
7
72
5
7
iso_b_vert
0
LINE
5
22E
100
AcDbEntity
8
SK2
62
256
6
ByLayer
370
13
48
1
60
0
100
AcDbLine
10
1.3E-05
20
32.5
30
0
11
1.3E-05
21
61.538282
31
0
39
0
210
0
220
0
230
1
0
LINE
5
22F
100
AcDbEntity
8
SK2
62
256
6
ByLayer
370
13
48
1
60
0
100
AcDbLine
10
42.000888
20
27.75
30
0
11
42.000888
21
61.538282
31
0
39
0
210
0
220
0
230
1
0
LINE
5
230
100
AcDbEntity
8
SK2
62
256
6
ByLayer
370
13
48
1
60
0
100
AcDbLine
10
1.3E-05
20
58.538282
30
0
11
42.000888
21
58.538282
31
0
39
0
210
0
220
0
230
1
0
LINE
5
231
100
AcDbEntity
8
SK2
62
256
6
ByLayer
370
13
48
1
60
0
100
AcDbLine
10
1.3E-05
20
58.538282
30
0
11
3.000012
21
59.067263
31
0
39
0
210
0
220
0
230
1
0
LINE
5
232
100
AcDbEntity
8
SK2
62
256
6
ByLayer
370
13
48
1
60
0
100
AcDbLine
10
1.3E-05
20
58.538282
30
0
11
3.000015
21
58.009301
31
0
39
0
210
0
220
0
230
1
0
LINE
5
233
100
AcDbEntity
8
SK2
62
256
6
ByLayer
370
13
48
1
60
0
100
AcDbLine
10
3.000012
20
59.067263
30
0
11
3.000015
21
58.009301
31
0
39
0
210
0
220
0
230
1
0
LINE
5
234
100
AcDbEntity
8
SK2
62
256
6
ByLayer
370
13
48
1
60
0
100
AcDbLine
10
42.000888
20
58.538282
30
0
11
39.00089
21
58.009301
31
0
39
0
210
0
220
0
230
1
0
LINE
5
235
100
AcDbEntity
8
SK2
62
256
6
ByLayer
370
13
48
1
60
0
100
AcDbLine
10
42.000888
20
58.538282
30
0
11
39.000886
21
59.067263
31
0
39
0
210
0
220
0
230
1
0
LINE
5
236
100
AcDbEntity
8
SK2
62
256
6
ByLayer
370
13
48
1
60
0
100
AcDbLine
10
39.00089
20
58.009301
30
0
11
39.000886
21
59.067263
31
0
39
0
210
0
220
0
230
1
0
ENDBLK
5
238
100
AcDbEntity
8
0
100
AcDbBlockEnd
0
BLOCK
5
245
100
AcDbEntity
8
0
100
AcDbBlockBegin
2
DimnDraft3D6
70
0
10
0
20
0
30
0
3
DimnDraft3D6
0
MTEXT
5
23B
100
AcDbEntity
8
SK2
62
256
6
ByLayer
370
18
48
1
60
0
100
AcDbMText
10
98.276554
20
14.872368
30
0
210
0
220
0
230
1
1
\W0.6139;31
40
3
41
0
44
1.084337
50
90
71
7
72
5
7
iso_b_vert
0
LINE
5
23C
100
AcDbEntity
8
SK2
62
256
6
ByLayer
370
18
48
1
60
0
100
AcDbLine
10
73.021538
20
0
30
0
11
101.026554
21
0
31
0
39
0
210
0
220
0
230
1
0
LINE
5
23D
100
AcDbEntity
8
SK2
62
256
6
ByLayer
370
18
48
1
60
0
100
AcDbLine
10
62.000019
20
31
30
0
11
101.026554
21
31
31
0
39
0
210
0
220
0
230
1
0
LINE
5
23E
100
AcDbEntity
8
SK2
62
256
6
ByLayer
370
18
48
1
60
0
100
AcDbLine
10
99.026554
20
0
30
0
11
99.026554
21
31
31
0
39
0
210
0
220
0
230
1
0
LINE
5
23F
100
AcDbEntity
8
SK2
62
256
6
ByLayer
370
18
48
1
60
0
100
AcDbLine
10
99.026554
20
0
30
0
11
98.608557
21
3.174998
31
0
39
0
210
0
220
0
230
1
0
LINE
5
240
100
AcDbEntity
8
SK2
62
256
6
ByLayer
370
18
48
1
60
0
100
AcDbLine
10
99.026554
20
0
30
0
11
99.44455
21
3.175002
31
0
39
0
210
0
220
0
230
1
0
LINE
5
241
100
AcDbEntity
8
SK2
62
256
6
ByLayer
370
18
48
1
60
0
100
AcDbLine
10
98.608557
20
3.174998
30
0
11
99.44455
21
3.175002
31
0
39
0
210
0
220
0
230
1
0
LINE
5
242
100
AcDbEntity
8
SK2
62
256
6
ByLayer
370
18
48
1
60
0
100
AcDbLine
10
99.026554
20
31
30
0
11
99.44455
21
27.825002
31
0
39
0
210
0
220
0
230
1
0
LINE
5
243
100
AcDbEntity
8
SK2
62
256
6
ByLayer
370
18
48
1
60
0
100
AcDbLine
10
99.026554
20
31
30
0
11
98.608557
21
27.824998
31
0
39
0
210
0
220
0
230
1
0
LINE
5
244
100
AcDbEntity
8
SK2
62
256
6
ByLayer
370
18
48
1
60
0
100
AcDbLine
10
99.44455
20
27.825002
30
0
11
98.608557
21
27.824998
31
0
39
0
210
0
220
0
230
1
0
ENDBLK
5
246
100
AcDbEntity
8
0
100
AcDbBlockEnd
0
BLOCK
5
254
100
AcDbEntity
8
0
100
AcDbBlockBegin
2
DimnDraft3D7
70
0
10
0
20
0
30
0
3
DimnDraft3D7
0
MTEXT
5
249
100
AcDbEntity
8
2
62
256
6
ByLayer
370
18
48
1
60
0
100
AcDbMText
10
28.997385
20
73.526678
30
0
210
0
220
0
230
1
1
\W0.6563;60
40
3
41
0
44
1.084337
50
0
71
7
72
5
7
iso_b_vert
0
LINE
5
24B
100
AcDbEntity
8
2
62
256
6
ByLayer
370
18
48
1
60
0
100
AcDbLine
10
1.3E-05
20
33
30
0
11
1.3E-05
21
74.776678
31
0
39
0
210
0
220
0
230
1
0
LINE
5
24C
100
AcDbEntity
8
2
62
256
6
ByLayer
370
18
48
1
60
0
100
AcDbLine
10
60.000019
20
33
30
0
11
60.000019
21
74.776678
31
0
39
0
210
0
220
0
230
1
0
LINE
5
24D
100
AcDbEntity
8
2
62
256
6
ByLayer
370
18
48
1
60
0
100
AcDbLine
10
1.3E-05
20
72.776678
30
0
11
60.000019
21
72.776678
31
0
39
0
210
0
220
0
230
1
0
LINE
5
24E
100
AcDbEntity
8
2
62
256
6
ByLayer
370
18
48
1
60
0
100
AcDbLine
10
1.3E-05
20
72.776678
30
0
11
3.175012
21
73.194674
31
0
39
0
210
0
220
0
230
1
0
LINE
5
24F
100
AcDbEntity
8
2
62
256
6
ByLayer
370
18
48
1
60
0
100
AcDbLine
10
1.3E-05
20
72.776678
30
0
11
3.175015
21
72.358681
31
0
39
0
210
0
220
0
230
1
0
LINE
5
250
100
AcDbEntity
8
2
62
256
6
ByLayer
370
18
48
1
60
0
100
AcDbLine
10
3.175012
20
73.194674
30
0
11
3.175015
21
72.358681
31
0
39
0
210
0
220
0
230
1
0
LINE
5
251
100
AcDbEntity
8
2
62
256
6
ByLayer
370
18
48
1
60
0
100
AcDbLine
10
60.000019
20
72.776678
30
0
11
56.825021
21
72.358681
31
0
39
0
210
0
220
0
230
1
0
LINE
5
252
100
AcDbEntity
8
2
62
256
6
ByLayer
370
18
48
1
60
0
100
AcDbLine
10
60.000019
20
72.776678
30
0
11
56.825018
21
73.194674
31
0
39
0
210
0
220
0
230
1
0
LINE
5
253
100
AcDbEntity
8
2
62
256
6
ByLayer
370
18
48
1
60
0
100
AcDbLine
10
56.825021
20
72.358681
30
0
11
56.825018
21
73.194674
31
0
39
0
210
0
220
0
230
1
0
ENDBLK
5
255
100
AcDbEntity
8
0
100
AcDbBlockEnd
0
BLOCK
5
262
100
AcDbEntity
8
0
100
AcDbBlockBegin
2
DimnDraft3D8
70
0
10
0
20
0
30
0
3
DimnDraft3D8
0
MTEXT
5
258
100
AcDbEntity
8
SK2
62
256
6
ByLayer
370
18
48
1
60
0
100
AcDbMText
10
63.878756
20
53.985889
30
0
210
0
220
0
230
1
1
\W0.7884;%%c 32
40
3
41
0
44
1.084337
50
0
71
7
72
5
7
iso_b_vert
0
LINE
5
259
100
AcDbEntity
8
SK2
62
256
6
ByLayer
370
18
48
1
60
0
100
AcDbLine
10
76.000019
20
32.5
30
0
11
76.000019
21
55.235889
31
0
39
0
210
0
220
0
230
1
0
LINE
5
25A
100
AcDbEntity
8
SK2
62
256
6
ByLayer
370
18
48
1
60
0
100
AcDbLine
10
44.000019
20
32.5
30
0
11
44.000019
21
55.235889
31
0
39
0
210
0
220
0
230
1
0
LINE
5
25B
100
AcDbEntity
8
SK2
62
256
6
ByLayer
370
18
48
1
60
0
100
AcDbLine
10
76.000019
20
53.235889
30
0
11
44.000019
21
53.235889
31
0
39
0
210
0
220
0
230
1
0
LINE
5
25C
100
AcDbEntity
8
SK2
62
256
6
ByLayer
370
18
48
1
60
0
100
AcDbLine
10
76.000019
20
53.235889
30
0
11
72.825021
21
52.817893
31
0
39
0
210
0
220
0
230
1
0
LINE
5
25D
100
AcDbEntity
8
SK2
62
256
6
ByLayer
370
18
48
1
60
0
100
AcDbLine
10
76.000019
20
53.235889
30
0
11
72.825018
21
53.653886
31
0
39
0
210
0
220
0
230
1
0
LINE
5
25E
100
AcDbEntity
8
SK2
62
256
6
ByLayer
370
18
48
1
60
0
100
AcDbLine
10
72.825021
20
52.817893
30
0
11
72.825018
21
53.653886
31
0
39
0
210
0
220
0
230
1
0
LINE
5
25F
100
AcDbEntity
8
SK2
62
256
6
ByLayer
370
18
48
1
60
0
100
AcDbLine
10
44.000019
20
53.235889
30
0
11
47.175018
21
53.653886
31
0
39
0
210
0
220
0
230
1
0
LINE
5
260
100
AcDbEntity
8
SK2
62
256
6
ByLayer
370
18
48
1
60
0
100
AcDbLine
10
44.000019
20
53.235889
30
0
11
47.175021
21
52.817893
31
0
39
0
210
0
220
0
230
1
0
LINE
5
261
100
AcDbEntity
8
SK2
62
256
6
ByLayer
370
18
48
1
60
0
100
AcDbLine
10
47.175018
20
53.653886
30
0
11
47.175021
21
52.817893
31
0
39
0
210
0
220
0
230
1
0
ENDBLK
5
263
100
AcDbEntity
8
0
100
AcDbBlockEnd
0
ENDSEC
0
SECTION
2
ENTITIES
0
ARC
5
126
100
AcDbEntity
8
1
62
256
6
ByLayer
370
18
48
1
60
0
100
AcDbCircle
39
0
10
-71.528219
20
40.675481
30
0
40
0.500000000000026
210
0
220
0
230
-1
100
AcDbArc
50
90
51
180
0
ARC
5
127
100
AcDbEntity
8
1
62
256
6
ByLayer
370
18
48
1
60
0
100
AcDbCircle
39
0
10
-70.478219
20
35.975481
30
0
40
0.199999999999931
210
0
220
0
230
-1
100
AcDbArc
50
0
51
90
0
ARC
5
128
100
AcDbEntity
8
1
62
256
6
ByLayer
370
18
48
1
60
0
100
AcDbCircle
39
0
10
-65.078219
20
35.975481
30
0
40
0.199999999999945
210
0
220
0
230
-1
100
AcDbArc
50
90
51
180
0
ARC
5
129
100
AcDbEntity
8
1
62
256
6
ByLayer
370
18
48
1
60
0
100
AcDbCircle
39
0
10
-64.028219
20
40.675481
30
0
40
0.500000000000034
210
0
220
0
230
-1
100
AcDbArc
50
0
51
90
0
ARC
5
12A
100
AcDbEntity
8
1
62
256
6
ByLayer
370
18
48
1
60
0
100
AcDbCircle
39
0
10
-55.971819
20
40.675481
30
0
40
0.500000000000019
210
0
220
0
230
-1
100
AcDbArc
50
90
51
180
0
ARC
5
12B
100
AcDbEntity
8
1
62
256
6
ByLayer
370
18
48
1
60
0
100
AcDbCircle
39
0
10
-54.921819
20
35.975481
30
0
40
0.19999999999993
210
0
220
0
230
-1
100
AcDbArc
50
0
51
90
0
ARC
5
12C
100
AcDbEntity
8
1
62
256
6
ByLayer
370
18
48
1
60
0
100
AcDbCircle
39
0
10
-49.521819
20
35.975481
30
0
40
0.19999999999993
210
0
220
0
230
-1
100
AcDbArc
50
90
51
180
0
ARC
5
12D
100
AcDbEntity
8
1
62
256
6
ByLayer
370
18
48
1
60
0
100
AcDbCircle
39
0
10
-48.471819
20
40.675481
30
0
40
0.500000000000019
210
0
220
0
230
-1
100
AcDbArc
50
0
51
90
0
ARC
5
12E
100
AcDbEntity
8
SK1
62
256
6
ByLayer
370
18
48
1
60
0
100
AcDbCircle
39
0
10
0.495072
20
24.615
30
0
40
0.6
210
0
220
0
230
-1
100
AcDbArc
50
214.397094
51
270
0
ARC
5
12F
100
AcDbEntity
8
SK1
62
256
6
ByLayer
370
18
48
1
60
0
100
AcDbCircle
39
0
10
-0.495072
20
-24.615
30
0
40
0.6
210
0
220
0
230
1
100
AcDbArc
50
34.397094
51
90
0
ARC
5
130
100
AcDbEntity
8
SK1
62
256
6
ByLayer
370
18
48
1
60
0
100
AcDbCircle
39
0
10
-30.799987
20
21.573501
30
0
40
1.2
210
0
220
0
230
1
100
AcDbArc
50
92.862405
51
180
0
ARC
5
131
100
AcDbEntity
8
SK1
62
256
6
ByLayer
370
18
48
1
60
0
100
AcDbCircle
39
0
10
-30.799987
20
-21.573501
30
0
40
1.2
210
0
220
0
230
1
100
AcDbArc
50
180
51
267.137595
0
ARC
5
132
100
AcDbEntity
8
1
62
256
6
ByLayer
370
18
48
1
60
0
100
AcDbCircle
39
0
10
-19.515013
20
27.875
30
0
40
0.4
210
0
220
0
230
-1
100
AcDbArc
50
180
51
270
0
ARC
5
133
100
AcDbEntity
8
1
62
256
6
ByLayer
370
18
48
1
60
0
100
AcDbCircle
39
0
10
-16.485013
20
27.875
30
0
40
0.4
210
0
220
0
230
-1
100
AcDbArc
50
270
51
0
0
ARC
5
134
100
AcDbEntity
8
1
62
256
6
ByLayer
370
18
48
1
60
0
100
AcDbCircle
39
0
10
16.485013
20
-27.875
30
0
40
0.4
210
0
220
0
230
1
100
AcDbArc
50
90
51
180
0
ARC
5
135
100
AcDbEntity
8
1
62
256
6
ByLayer
370
18
48
1
60
0
100
AcDbCircle
39
0
10
19.515013
20
-27.875
30
0
40
0.4
210
0
220
0
230
1
100
AcDbArc
50
0
51
90
0
ARC
5
136
100
AcDbEntity
8
1
62
256
6
ByLayer
370
18
48
1
60
0
100
AcDbCircle
39
0
10
27.000013
20
27.25
30
0
40
1
210
0
220
0
230
1
100
AcDbArc
50
180
51
270
0
ARC
5
137
100
AcDbEntity
8
1
62
256
6
ByLayer
370
18
48
1
60
0
100
AcDbCircle
39
0
10
27.000013
20
-27.25
30
0
40
1
210
0
220
0
230
1
100
AcDbArc
50
90
51
180
0
ARC
5
138
100
AcDbEntity
8
1
62
256
6
ByLayer
370
18
48
1
60
0
100
AcDbCircle
39
0
10
-12.177418
20
27.85
30
0
40
8
210
0
220
0
230
-1
100
AcDbArc
50
270
51
334.612067
0
ARC
5
139
100
AcDbEntity
8
1
62
256
6
ByLayer
370
18
48
1
60
0
100
AcDbCircle
39
0
10
-42.002686
20
27.25
30
0
40
1
210
0
220
0
230
-1
100
AcDbArc
50
195
51
270
0
ARC
5
13A
100
AcDbEntity
8
1
62
256
6
ByLayer
370
18
48
1
60
0
100
AcDbCircle
39
0
10
59.660898
20
16.393004
30
0
40
16
210
0
220
0
230
1
100
AcDbArc
50
295
51
340.004583
0
ARC
5
13B
100
AcDbEntity
8
1
62
256
6
ByLayer
370
18
48
1
60
0
100
AcDbCircle
39
0
10
49.954827
20
-23.441105
30
0
40
16
210
0
220
0
230
1
100
AcDbArc
50
115
51
165
0
ARC
5
13C
100
AcDbEntity
8
1
62
256
6
ByLayer
370
18
48
1
60
0
100
AcDbCircle
39
0
10
-42.002686
20
27.25
30
0
40
1
210
0
220
0
230
-1
100
AcDbArc
50
195
51
270
0
ELLIPSE
5
13D
100
AcDbEntity
8
1
62
256
6
ByLayer
370
18
48
1
60
0
100
AcDbEllipse
10
37.174143
20
0
30
0
11
3.07506502357821E-14
21
26.2499999999828
31
0
210
0
220
0
230
1
40
0.176327
41
1.21038848920881
42
1.93120416438098
0
ELLIPSE
5
13E
100
AcDbEntity
8
1
62
256
6
ByLayer
370
18
48
1
60
0
100
AcDbEllipse
10
42.69101
20
1.96805
30
0
11
7.83287231942037
21
9.86936999309244
31
0
210
0
220
0
230
1
40
0.629889
41
-2.26075765086906
42
-2.24165686396535
0
ELLIPSE
5
13F
100
AcDbEntity
8
1
62
256
6
ByLayer
370
18
48
1
60
0
100
AcDbEllipse
10
58.296638
20
-17.061632
30
0
11
14.1015177688052
21
17.7744814571492
31
0
210
0
220
0
230
1
40
0.629805
41
0.457701153639722
42
0.461624245567422
0
ELLIPSE
5
140
100
AcDbEntity
8
1
62
256
6
ByLayer
370
18
48
1
60
0
100
AcDbEllipse
10
58.29665
20
-17.061599
30
0
11
14.1015089370594
21
17.7744453734448
31
0
210
0
220
0
230
1
40
0.629805
41
0.457701910743847
42
0.461625005907061
0
ELLIPSE
5
141
100
AcDbEntity
8
1
62
256
6
ByLayer
370
18
48
1
60
0
100
AcDbEllipse
10
37.174143
20
0
30
0
11
3.07506502358232E-14
21
26.2500000000179
31
0
210
0
220
0
230
1
40
0.176327
41
1.2103884892093
42
1.93120416438049
0
ELLIPSE
5
142
100
AcDbEntity
8
1
62
256
6
ByLayer
370
18
48
1
60
0
100
AcDbEllipse
10
49.954827
20
-23.441104
30
0
11
14.3484106230704
21
7.07976747667424
31
0
210
0
220
0
230
1
40
1
41
1.54876029060934
42
1.59710864114692
0
POINT
5
6C
100
AcDbEntity
8
81
62
256
6
ByLayer
370
18
48
1
60
0
100
AcDbPoint
10
60.000019
20
31
30
0
39
0
210
0
220
0
230
1
50
360
0
POINT
5
6E
100
AcDbEntity
8
80
62
256
6
ByLayer
370
18
48
1
60
0
100
AcDbPoint
10
0
20
0
30
0
39
0
210
0
220
0
230
1
50
360
0
SPLINE
5
143
100
AcDbEntity
8
1
62
256
6
ByLayer
370
18
48
1
60
0
100
AcDbSpline
70
4
71
3
72
29
73
25
40
0
40
0
40
0
40
0
40
0.029949306638806
40
0.0734306065300749
40
0.116739839742049
40
0.156835740742794
40
0.197043687856705
40
0.237302729349758
40
0.277535559232344
40
0.317652388984096
40
0.362629165349
40
0.407729661278784
40
0.452918064213671
40
0.498135214629196
40
0.543302152407351
40
0.58832335595568
40
0.638903939190095
40
0.689543792054115
40
0.740194207574177
40
0.790789210756887
40
0.843065623443148
40
0.895386895527929
40
0.947714688190121
40
1
40
1
40
1
40
1
41
1
10
44.1959809471095
20
30.6959618942718
30
0
41
1
10
44.1959895644931
20
30.6959703907451
30
0
41
1
10
44.1960931243128
20
30.6960728001292
30
0
41
1
10
44.1965619301459
20
30.6965366825077
30
0
41
1
10
44.197521455761
20
30.6974860721448
30
0
41
1
10
44.1988659284211
20
30.6988163922471
30
0
41
1
10
44.2005359375626
20
30.7004689813012
30
0
41
1
10
44.2025466381107
20
30.7024589422735
30
0
41
1
10
44.2048758714311
20
30.7047644650637
30
0
41
1
10
44.2076134042181
20
30.7074745294667
30
0
41
1
10
44.2107898592204
20
30.7106196832712
30
0
41
1
10
44.2144182660316
20
30.7142131111136
30
0
41
1
10
44.2183523622804
20
30.7181101634089
30
0
41
1
10
44.222560257224
20
30.7222794478791
30
0
41
1
10
44.2270101536591
20
30.7266896596948
30
0
41
1
10
44.2318719774274
20
30.731509480513
30
0
41
1
10
44.2371589842681
20
30.7367524870518
30
0
41
1
10
44.2428773893207
20
30.742425243394
30
0
41
1
10
44.2488002646017
20
30.7483029191955
30
0
41
1
10
44.2549703773227
20
30.7544282082568
30
0
41
1
10
44.2613757815623
20
30.7607895896298
30
0
41
1
10
44.2680050584815
20
30.7673759711464
30
0
41
1
10
44.274771064901
20
30.7741009510124
30
0
41
1
10
44.279357723793
20
30.7786617669443
30
0
41
1
10
44.2816704128661
20
30.7809618943233
30
0
0
SPLINE
5
144
100
AcDbEntity
8
1
62
256
6
ByLayer
370
18
48
1
60
0
100
AcDbSpline
70
4
71
3
72
25
73
21
40
0
40
0
40
0
40
0
40
0.0428248163823431
40
0.0856614691446975
40
0.128509213979997
40
0.171362821274878
40
0.214213005081915
40
0.257046845128357
40
0.3218610859344
40
0.386686643302905
40
0.451514449308683
40
0.5163317569543
40
0.576671427170309
40
0.637018056563222
40
0.6973648048958
40
0.757704637320928
40
0.818275195231454
40
0.878853486648527
40
0.939430789842497
40
1
40
1
40
1
40
1
41
1
10
55.0193739004258
20
31.5
30
0
41
1
10
55.0115115861353
20
31.4999964482771
30
0
41
1
10
54.9957498189505
20
31.499857471465
30
0
41
1
10
54.971989954816
20
31.4992384356307
30
0
41
1
10
54.9481381144135
20
31.4982529904006
30
0
41
1
10
54.9242115319484
20
31.4969296249926
30
0
41
1
10
54.9002300604056
20
31.4953002230614
30
0
41
1
10
54.8720989131473
20
31.4930729149085
30
0
41
1
10
54.8397983683932
20
31.4900960424835
30
0
41
1
10
54.8033123368335
20
31.4861794302783
30
0
41
1
10
54.7667765461986
20
31.4817356763483
30
0
41
1
10
54.7310498572165
20
31.4769076721172
30
0
41
1
10
54.6961456719992
20
31.4717581557663
30
0
41
1
10
54.662071144462
20
31.4663237480501
30
0
41
1
10
54.627992986101
20
31.4604846932124
30
0
41
1
10
54.5938767740646
20
31.4542362949739
30
0
41
1
10
54.5597286031631
20
31.4475801877763
30
0
41
1
10
54.525555502337
20
31.4405036890911
30
0
41
1
10
54.4914100521347
20
31.4330058006684
30
0
41
1
10
54.4686744582464
20
31.4277164097285
30
0
41
1
10
54.4573135099262
20
31.425
30
0
0
SPLINE
5
145
100
AcDbEntity
8
1
62
256
6
ByLayer
370
18
48
1
60
0
100
AcDbSpline
70
4
71
3
72
27
73
23
40
0
40
0
40
0
40
0
40
0.0499264551625741
40
0.0998538471545488
40
0.149781574766244
40
0.199709010947845
40
0.249635503173381
40
0.299561648963405
40
0.349488667647002
40
0.399416000441008
40
0.449343062944421
40
0.499269245487197
40
0.549195086373739
40
0.599121737266933
40
0.649048680785123
40
0.698975374510758
40
0.748901251321864
40
0.79912047297967
40
0.849340456695681
40
0.899560716788769
40
0.949780742837115
40
1
40
1
40
1
40
1
41
1
10
54.4573135099262
20
31.425
30
0
41
1
10
54.4191729714882
20
31.4158752122754
30
0
41
1
10
54.3429455885444
20
31.3974586981904
30
0
41
1
10
54.2287662986103
20
31.3693315469124
30
0
41
1
10
54.114751161158
20
31.3407077366253
30
0
41
1
10
54.0009031486924
20
31.3115912843309
30
0
41
1
10
53.88722451046
20
31.2819865049691
30
0
41
1
10
53.7737159748882
20
31.2518971782684
30
0
41
1
10
53.6603780798957
20
31.2213273135327
30
0
41
1
10
53.5472122116364
20
31.1902810836745
30
0
41
1
10
53.4342210833434
20
31.1587630224711
30
0
41
1
10
53.3214065264934
20
31.1267774067477
30
0
41
1
10
53.2087690110732
20
31.0943281216393
30
0
41
1
10
53.0963088165626
20
31.0614191838883
30
0
41
1
10
52.9840269939535
20
31.0280547850059
30
0
41
1
10
52.8719258282318
20
30.9942394786986
30
0
41
1
10
52.7597873575588
20
30.9599103859476
30
0
41
1
10
52.6476130398238
20
30.925068376606
30
0
41
1
10
52.5354041852233
20
30.8897144320558
30
0
41
1
10
52.4233806595503
20
30.8539209583304
30
0
41
1
10
52.3115443077816
20
30.8176921194832
30
0
41
1
10
52.2371121386453
20
30.7932531993136
30
0
41
1
10
52.1999275556605
20
30.7809618943233
30
0
0
SPLINE
5
146
100
AcDbEntity
8
1
62
256
6
ByLayer
370
18
48
1
60
0
100
AcDbSpline
70
4
71
3
72
26
73
22
40
0
40
0
40
0
40
0
40
0.0623920112052171
40
0.124797772215993
40
0.187203674775925
40
0.249595879045183
40
0.311995361643678
40
0.374410148834928
40
0.436822897963705
40
0.499219600687945
40
0.550803171526093
40
0.602409187216691
40
0.654017398214192
40
0.705613219754357
40
0.757188237075343
40
0.799581815458061
40
0.842006239319693
40
0.884430216302563
40
0.926833801757638
40
0.969209890738451
40
1
40
1
40
1
40
1
41
1
10
52.1999275556605
20
30.7809618943233
30
0
41
1
10
52.191109437643
20
30.7780474603408
30
0
41
1
10
52.1734667069343
20
30.7723382932208
30
0
41
1
10
52.1469823801538
20
30.7641345497902
30
0
41
1
10
52.1204955338781
20
30.7562934300343
30
0
41
1
10
52.0940177367685
20
30.7488171564301
30
0
41
1
10
52.0675589349846
20
30.7417068723495
30
0
41
1
10
52.041129949893
20
30.7349784298038
30
0
41
1
10
52.0147481348002
20
30.7286501012372
30
0
41
1
10
51.9899512071643
20
30.7230827974043
30
0
41
1
10
51.966737407663
20
30.718207334234
30
0
41
1
10
51.9451022914838
20
30.7139692553211
30
0
41
1
10
51.923547240366
20
30.710078892664
30
0
41
1
10
51.9020958411997
20
30.7065647186204
30
0
41
1
10
51.8820344651699
20
30.7036414177735
30
0
41
1
10
51.8633510995726
20
30.7012471197851
30
0
41
1
10
51.8460379642743
20
30.6993407253365
30
0
41
1
10
51.8288670535982
20
30.6978051829136
30
0
41
1
10
51.8118796343831
20
30.6966875509674
30
0
41
1
10
51.7966341686787
20
30.6960837403845
30
0
41
1
10
51.7871194066056
20
30.6959667645335
30
0
41
1
10
51.783137410832
20
30.6959618952394
30
0
0
SPLINE
5
147
100
AcDbEntity
8
1
62
256
6
ByLayer
370
18
48
1
60
0
100
AcDbSpline
70
4
71
3
72
11
73
7
40
0
40
0
40
0
40
0
40
0.249995562084005
40
0.49999116592031
40
0.749995566590619
40
1
40
1
40
1
40
1
41
1
10
52.3351107741359
20
31.4250000000005
30
0
41
1
10
52.2823095987391
20
31.3716046879943
30
0
41
1
10
52.1768965533396
20
31.2646746460019
30
0
41
1
10
52.0193554768096
20
31.1038492237337
30
0
41
1
10
51.8623556997097
20
30.9426241379638
30
0
41
1
10
51.7580288798903
20
30.8348915876429
30
0
41
1
10
51.7059524645424
20
30.7809618943233
30
0
0
SPLINE
5
148
100
AcDbEntity
8
1
62
256
6
ByLayer
370
18
48
1
60
0
100
AcDbSpline
70
4
71
3
72
35
73
31
40
0
40
0
40
0
40
0
40
0.0612136440261556
40
0.122442332907503
40
0.183643683298221
40
0.230379262422874
40
0.277158252516226
40
0.323914648267282
40
0.370619385577497
40
0.405800675428943
40
0.441091839111245
40
0.476373970764509
40
0.511575251373769
40
0.546680935045834
40
0.57273641177249
40
0.598864074951856
40
0.624967417019251
40
0.650989630956365
40
0.67728120694795
40
0.703695672519663
40
0.730101295588618
40
0.756380756498093
40
0.786831146669359
40
0.817377379115934
40
0.847856044338204
40
0.881853544826645
40
0.915968753792357
40
0.95013422276059
40
0.984200478044536
40
1
40
1
40
1
40
1
41
1
10
52.2636849021951
20
31.5
30
0
41
1
10
52.2672468126894
20
31.5000044198328
30
0
41
1
10
52.2743140971043
20
31.4999079740992
30
0
41
1
10
52.2847588319718
20
31.4994665309503
30
0
41
1
10
52.2941898194955
20
31.498733824565
30
0
41
1
10
52.3026329759253
20
31.4977764701946
30
0
41
1
10
52.3101119808481
20
31.4966493368547
30
0
41
1
10
52.3173723140996
20
31.4952261610287
30
0
41
1
10
52.323790205841
20
31.4936153923111
30
0
41
1
10
52.3294022128228
20
31.4918782354144
30
0
41
1
10
52.3342462523848
20
31.4900720008451
30
0
41
1
10
52.3388222421784
20
31.4879970161758
30
0
41
1
10
52.3430641638219
20
31.4856272917268
30
0
41
1
10
52.3465810895794
20
31.483168832213
30
0
41
1
10
52.3494249546082
20
31.4806866790946
30
0
41
1
10
52.3516748681323
20
31.478254637887
30
0
41
1
10
52.3535854138949
20
31.4756140986722
30
0
41
1
10
52.35511817485
20
31.4727559647488
30
0
41
1
10
52.3562064223272
20
31.4696674546798
30
0
41
1
10
52.3568306873077
20
31.4663695896204
30
0
41
1
10
52.3569805334874
20
31.4629075912461
30
0
41
1
10
52.3566176555258
20
31.459123462226
30
0
41
1
10
52.3556307397844
20
31.4550249854866
30
0
41
1
10
52.354002829985
20
31.4506561708805
30
0
41
1
10
52.351751536673
20
31.4460910273397
30
0
41
1
10
52.3488641069122
20
31.4413709921161
30
0
41
1
10
52.3453738171917
20
31.4365323972125
30
0
41
1
10
52.3414680395284
20
31.431772279536
30
0
41
1
10
52.3379784003271
20
31.4279416793525
30
0
41
1
10
52.3358090047076
20
31.4257050900621
30
0
41
1
10
52.3351107741359
20
31.4250000000005
30
0
0
SPLINE
5
149
100
AcDbEntity
8
1
62
256
6
ByLayer
370
18
48
1
60
0
100
AcDbSpline
70
4
71
3
72
24
73
20
40
0
40
0
40
0
40
0
40
0.0673826784946731
40
0.134788205348715
40
0.202194815587164
40
0.269578971920824
40
0.336966357938508
40
0.404377533768192
40
0.471785982907128
40
0.539169649370086
40
0.595781547566095
40
0.652430499027928
40
0.709082278253837
40
0.765712819909393
40
0.822309267919014
40
0.866633062508535
40
0.910955471661144
40
0.955479174747087
40
1
40
1
40
1
40
1
41
1
10
51.6018785198155
20
31.425
30
0
41
1
10
51.6095210489253
20
31.4278771278417
30
0
41
1
10
51.6248191653909
20
31.4334900257247
30
0
41
1
10
51.6478064242385
20
31.4414828818782
30
0
41
1
10
51.670810750446
20
31.4490484435982
30
0
41
1
10
51.6938167035429
20
31.4561852466074
30
0
41
1
10
51.716812213955
20
31.4628937617433
30
0
41
1
10
51.7397841602583
20
31.4691581306457
30
0
41
1
10
51.7627122927334
20
31.4749595482613
30
0
41
1
10
51.7843570407009
20
31.4799936214085
30
0
41
1
10
51.8047177823457
20
31.4843355852704
30
0
41
1
10
51.8237951585802
20
31.4880412114569
30
0
41
1
10
51.8427798470015
20
31.4913341463597
30
0
41
1
10
51.861639591839
20
31.4941782251914
30
0
41
1
10
51.8789948608288
20
31.4963688970151
30
0
41
1
10
51.8948558213609
20
31.4979878944116
30
0
41
1
10
51.9092578787941
20
31.4991060068644
30
0
41
1
10
51.9235164665608
20
31.4998295331946
30
0
41
1
10
51.9328826506724
20
31.499993376606
30
0
41
1
10
51.9375307742158
20
31.5
30
0
0
SPLINE
5
14A
100
AcDbEntity
8
1
62
256
6
ByLayer
370
18
48
1
60
0
100
AcDbSpline
70
4
71
3
72
19
73
15
40
0
40
0
40
0
40
0
40
0.0832912032957416
40
0.166583310863891
40
0.24987537874222
40
0.333166527914895
40
0.416458157083129
40
0.499750780134422
40
0.583043360202905
40
0.66633493075751
40
0.749750677765717
40
0.833167520394034
40
0.916584316471317
40
1
40
1
40
1
40
1
41
1
10
50.0233913500384
20
30.7809618943233
30
0
41
1
10
50.0666102648207
20
30.7999304886898
30
0
41
1
10
50.1531489211018
20
30.8376940922228
30
0
41
1
10
50.2832578246839
20
30.8938216685581
30
0
41
1
10
50.4136685156705
20
30.9494209437636
30
0
41
1
10
50.5443813703158
20
31.0044850842507
30
0
41
1
10
50.6753975560523
20
31.0590065121178
30
0
41
1
10
50.8067180744839
20
31.1129777377819
30
0
41
1
10
50.9383425928321
20
31.1663906333771
30
0
41
1
10
51.0703364935704
20
31.2192633809787
30
0
41
1
10
51.2027011623789
20
31.271587344796
30
0
41
1
10
51.3354377978893
20
31.3233534230022
30
0
41
1
10
51.4684801647221
20
31.3745281419127
30
0
41
1
10
51.5573786337213
20
31.408242674477
30
0
41
1
10
51.6018785198155
20
31.425
30
0
0
SPLINE
5
14B
100
AcDbEntity
8
1
62
256
6
ByLayer
370
18
48
1
60
0
100
AcDbSpline
70
4
71
3
72
33
73
29
40
0
40
0
40
0
40
0
40
0.0390195604942207
40
0.0781158269043948
40
0.117183852817412
40
0.156164822691616
40
0.187958504535447
40
0.219886280598627
40
0.251835176493309
40
0.283715923764576
40
0.315470000251163
40
0.352038881490205
40
0.388772787349218
40
0.42551600244345
40
0.462097634773085
40
0.494694023084632
40
0.527374811667766
40
0.560075196835586
40
0.592698373978956
40
0.636434492120139
40
0.680294561836692
40
0.724247567656556
40
0.768202506038539
40
0.81201843043057
40
0.860513489544296
40
0.90905711361136
40
0.957617065978469
40
1
40
1
40
1
40
1
41
1
10
49.6752978645855
20
30.7809618943233
30
0
41
1
10
49.6736900058225
20
30.7790955574819
30
0
41
1
10
49.6705806235544
20
30.7753455980858
30
0
41
1
10
49.6662227122366
20
30.769671566339
30
0
41
1
10
49.662239689851
20
30.7639739126907
30
0
41
1
10
49.6589004376397
20
30.7586281281792
30
0
41
1
10
49.656177173149
20
30.753654922081
30
0
41
1
10
49.6540044335564
20
30.7490650294393
30
0
41
1
10
49.6522174232088
20
30.7445378148577
30
0
41
1
10
49.6508531320416
20
30.7401137959889
30
0
41
1
10
49.6498989696435
20
30.7356099461769
30
0
41
1
10
49.6494897103243
20
30.7310882458027
30
0
41
1
10
49.6497010789757
20
30.7266128524531
30
0
41
1
10
49.6505311437239
20
30.7224276754736
30
0
41
1
10
49.6519201197616
20
30.7187140837682
30
0
41
1
10
49.6537803454096
20
30.7154578217469
30
0
41
1
10
49.6559872960569
20
30.7126002132222
30
0
41
1
10
49.6585755100038
20
30.7100130034679
30
0
41
1
10
49.6618414060849
20
30.7074303580245
30
0
41
1
10
49.665890620962
20
30.7049522968414
30
0
41
1
10
49.6707955438378
20
30.7026670277061
30
0
41
1
10
49.6761157027597
20
30.7007730212199
30
0
41
1
10
49.6817790629906
20
30.6992396269942
30
0
41
1
10
49.687941262485
20
30.6979918547996
30
0
41
1
10
49.6945916482319
20
30.6970345374703
30
0
41
1
10
49.7017252366118
20
30.6963735150602
30
0
41
1
10
49.7087747427677
20
30.6960295589671
30
0
41
1
10
49.7134769871089
20
30.6959594106499
30
0
41
1
10
49.7156933797327
20
30.6959618946843
30
0
0
SPLINE
5
14C
100
AcDbEntity
8
1
62
256
6
ByLayer
370
18
48
1
60
0
100
AcDbSpline
70
4
71
2
72
6
73
3
40
0
40
0
40
0
40
1
40
1
40
1
41
1
10
49.6752978645855
20
30.7809618943233
30
0
41
1
10
49.9523886550814
20
31.1033085997444
30
0
41
1
10
50.230493002719
20
31.425
30
0
0
SPLINE
5
14D
100
AcDbEntity
8
1
62
256
6
ByLayer
370
18
48
1
60
0
100
AcDbSpline
70
4
71
3
72
32
73
28
40
0
40
0
40
0
40
0
40
0.0385582926476182
40
0.0771920186230626
40
0.115797656947859
40
0.154317568170597
40
0.193666011673148
40
0.233176623733894
40
0.272646930764654
40
0.311940175779937
40
0.34807230746767
40
0.384366323838675
40
0.420670376731283
40
0.456816255189497
40
0.489151024037297
40
0.521568577361689
40
0.554005696523515
40
0.586367211378121
40
0.63021707647716
40
0.67419078905561
40
0.718257995768924
40
0.762327662450427
40
0.806258246240352
40
0.854660416676138
40
0.90311030217128
40
0.951576104585094
40
1
40
1
40
1
40
1
41
1
10
50.230493002719
20
31.425
30
0
41
1
10
50.2319010226914
20
31.426625016713
30
0
41
1
10
50.2346242567706
20
31.4298910947497
30
0
41
1
10
50.2384420960779
20
31.4348357187574
30
0
41
1
10
50.2419323626055
20
31.4398044371983
30
0
41
1
10
50.2450732978073
20
31.4448105573967
30
0
41
1
10
50.2477883652875
20
31.4498328908075
30
0
41
1
10
50.2500184865481
20
31.4548343023669
30
0
41
1
10
50.2516960482149
20
31.4597284374358
30
0
41
1
10
50.252733103945
20
31.464330017673
30
0
41
1
10
50.2531204987448
20
31.4685975789946
30
0
41
1
10
50.2529392246808
20
31.4725270199858
30
0
41
1
10
50.2522193167621
20
31.4762066645028
30
0
41
1
10
50.2510122624431
20
31.4794812421048
30
0
41
1
10
50.2493933638162
20
31.4823617554796
30
0
41
1
10
50.2474697026623
20
31.4848975756951
30
0
41
1
10
50.245213908871
20
31.4871980632277
30
0
41
1
10
50.2423559508283
20
31.4895098532352
30
0
41
1
10
50.2387995621525
20
31.4917414533271
30
0
41
1
10
50.2344775209998
20
31.4938106791327
30
0
41
1
10
50.2297888926248
20
31.4955311357196
30
0
41
1
10
50.224797958386
20
31.4969297599991
30
0
41
1
10
50.2193771967276
20
31.4980724222383
30
0
41
1
10
50.2135380456932
20
31.4989558912019
30
0
41
1
10
50.2072858053002
20
31.4995756494719
30
0
41
1
10
50.2008373374301
20
31.4999258766335
30
0
41
1
10
50.1964344104169
20
31.5000026720338
30
0
41
1
10
50.1942057269722
20
31.5
30
0
0
SPLINE
5
14E
100
AcDbEntity
8
1
62
256
6
ByLayer
370
18
48
1
60
0
100
AcDbSpline
70
4
71
3
72
25
73
21
40
0
40
0
40
0
40
0
40
0.0446665709676243
40
0.0893813751914966
40
0.134113572769355
40
0.178803885867151
40
0.224628837798345
40
0.270478474390278
40
0.316334206900381
40
0.362167475723132
40
0.425092707566483
40
0.488069107897228
40
0.551071983210053
40
0.614065958966991
40
0.677005943806069
40
0.741575201525807
40
0.806188116654603
40
0.870816124665464
40
0.935429965421754
40
1
40
1
40
1
40
1
41
1
10
49.9650497777682
20
31.5
30
0
41
1
10
49.9617442448074
20
31.4999945572268
30
0
41
1
10
49.9550385038278
20
31.4998296963285
30
0
41
1
10
49.9446793045543
20
31.499097624736
30
0
41
1
10
49.9340923401052
20
31.4979475234931
30
0
41
1
10
49.9232270168037
20
31.4964081624434
30
0
41
1
10
49.9121138329302
20
31.4945115164383
30
0
41
1
10
49.9007669865724
20
31.4922693636785
30
0
41
1
10
49.8893026864268
20
31.4897229517265
30
0
41
1
10
49.8763049075225
20
31.4865442948976
30
0
41
1
10
49.8617465693062
20
31.4826312822572
30
0
41
1
10
49.8456083396069
20
31.4778712034655
30
0
41
1
10
49.8293645780607
20
31.4726804967092
30
0
41
1
10
49.8130466579482
20
31.467088039217
30
0
41
1
10
49.7965353696038
20
31.4610681775682
30
0
41
1
10
49.7798417756494
20
31.4546294506271
30
0
41
1
10
49.7629736728667
20
31.4477662715775
30
0
41
1
10
49.7460893862535
20
31.4405427891693
30
0
41
1
10
49.7292098053527
20
31.4329694730136
30
0
41
1
10
49.7179732056662
20
31.4276941424387
30
0
41
1
10
49.7123592562969
20
31.425
30
0
0
SPLINE
5
14F
100
AcDbEntity
8
1
62
256
6
ByLayer
370
18
48
1
60
0
100
AcDbSpline
70
4
71
3
72
17
73
13
40
0
40
0
40
0
40
0
40
0.0999763622313467
40
0.199954139549259
40
0.29993245759225
40
0.399910365538136
40
0.499886837329984
40
0.599908588727862
40
0.699931580350133
40
0.799955046009332
40
0.899978152369304
40
1
40
1
40
1
40
1
41
1
10
49.7123592562969
20
31.425
30
0
41
1
10
49.6692989077404
20
31.4043341631395
30
0
41
1
10
49.5832844765641
20
31.3628371804753
30
0
41
1
10
49.4545837071383
20
31.3000928044136
30
0
41
1
10
49.3262013402169
20
31.2368602190758
30
0
41
1
10
49.1981369728192
20
31.1731468614873
30
0
41
1
10
49.0703696202917
20
31.1089509641398
30
0
41
1
10
48.9428967829374
20
31.0442794141522
30
0
41
1
10
48.8157159704148
20
30.9791387055816
30
0
41
1
10
48.6888445874501
20
30.9135459877851
30
0
41
1
10
48.5622819058243
20
30.8475081464727
30
0
41
1
10
48.4781105923701
20
30.8031926483475
30
0
41
1
10
48.4360762444271
20
30.7809618943233
30
0
0
SPLINE
5
150
100
AcDbEntity
8
1
62
256
6
ByLayer
370
18
48
1
60
0
100
AcDbSpline
70
4
71
3
72
26
73
22
40
0
40
0
40
0
40
0
40
0.069445099201143
40
0.138930939540284
40
0.208415012976782
40
0.277857701340498
40
0.334595114545055
40
0.391377398273288
40
0.448167838868167
40
0.504936994793394
40
0.561663389078737
40
0.613763407571692
40
0.665929506724399
40
0.718100068707617
40
0.77023206762986
40
0.822303451145188
40
0.865612760743587
40
0.908941126963483
40
0.952239473798688
40
0.985603579850591
40
1
40
1
40
1
40
1
41
1
10
48.4360762444271
20
30.7809618943233
30
0
41
1
10
48.4300266216525
20
30.7777623582381
30
0
41
1
10
48.4179264786545
20
30.7714935829795
30
0
41
1
10
48.3997725791625
20
30.7624799260034
30
0
41
1
10
48.3816468948601
20
30.7538758099239
30
0
41
1
10
48.3646751107955
20
30.7461955559296
30
0
41
1
10
48.3488631558885
20
30.7393644116233
30
0
41
1
10
48.3342073857264
20
30.7333156149324
30
0
41
1
10
48.3196286832572
20
30.7275954942085
30
0
41
1
10
48.3051532426114
20
30.7222274183575
30
0
41
1
10
48.2911928539662
20
30.7173696902511
30
0
41
1
10
48.2777497877049
20
30.7130043182689
30
0
41
1
10
48.2648319919892
20
30.709126641215
30
0
41
1
10
48.2520869392649
20
30.7056497655726
30
0
41
1
10
48.2395603917058
20
30.7026158786091
30
0
41
1
10
48.227980435455
20
30.7002080972629
30
0
41
1
10
48.2173360652433
20
30.6983739816079
30
0
41
1
10
48.2076145334046
20
30.6970668826524
30
0
41
1
10
48.1989123623432
20
30.6962816883639
30
0
41
1
10
48.1925259370604
20
30.695996356592
30
0
41
1
10
48.1892627592773
20
30.6959622164863
30
0
41
1
10
48.1882864254373
20
30.6959618966663
30
0
0
SPLINE
5
151
100
AcDbEntity
8
1
62
256
6
ByLayer
370
18
48
1
60
0
100
AcDbSpline
70
4
71
1
72
4
73
2
40
0
40
0
40
1
40
1
41
1
10
48.7023883469342
20
31.425
30
0
41
1
10
48.171739606561
20
30.7809618943233
30
0
0
SPLINE
5
152
100
AcDbEntity
8
1
62
256
6
ByLayer
370
18
48
1
60
0
100
AcDbSpline
70
4
71
3
72
30
73
26
40
0
40
0
40
0
40
0
40
0.0469114707344502
40
0.0939313965886132
40
0.140956189899419
40
0.187914963212456
40
0.234775031410654
40
0.282448811606501
40
0.330272836449611
40
0.378050338253018
40
0.425660466468385
40
0.46540217615163
40
0.505282523996772
40
0.545150565032037
40
0.584875433187981
40
0.624609794654522
40
0.664481779655901
40
0.70437109737404
40
0.74412917430505
40
0.785040257846572
40
0.826076830726299
40
0.867191338829431
40
0.908294199677575
40
0.949261057137262
40
1
40
1
40
1
40
1
41
1
10
48.6882073556318
20
31.5
30
0
41
1
10
48.6899901366757
20
31.5000023935296
30
0
41
1
10
48.693487204462
20
31.4999154211376
30
0
41
1
10
48.6985311631787
20
31.4995197393446
30
0
41
1
10
48.7033295797718
20
31.4988266419272
30
0
41
1
10
48.7078409317367
20
31.4978141156463
30
0
41
1
10
48.7120491753086
20
31.4964510462311
30
0
41
1
10
48.7158988788361
20
31.4946952805107
30
0
41
1
10
48.7193303880154
20
31.4925160612911
30
0
41
1
10
48.7222621522691
20
31.489908173013
30
0
41
1
10
48.7244964625523
20
31.4870235715321
30
0
41
1
10
48.7260701434765
20
31.4839233929494
30
0
41
1
10
48.7270811212082
20
31.4807001122528
30
0
41
1
10
48.7276125649303
20
31.4771840437771
30
0
41
1
10
48.7276435743119
20
31.4733940982439
30
0
41
1
10
48.727149733884
20
31.4693429207898
30
0
41
1
10
48.7261647173902
20
31.4650710002608
30
0
41
1
10
48.724716605406
20
31.4606206219488
30
0
41
1
10
48.7228093398805
20
31.4559850266015
30
0
41
1
10
48.7204482442941
20
31.4511875509386
30
0
41
1
10
48.7176690415662
20
31.4462540439548
30
0
41
1
10
48.7145341374535
20
31.4412586801758
30
0
41
1
10
48.7110898164726
20
31.436236327309
30
0
41
1
10
48.7070705327771
20
31.4308084702725
30
0
41
1
10
48.7040974427952
20
31.4270685040968
30
0
41
1
10
48.7023883469341
20
31.425
30
0
0
SPLINE
5
153
100
AcDbEntity
8
1
62
256
6
ByLayer
370
18
48
1
60
0
100
AcDbSpline
70
4
71
3
72
25
73
21
40
0
40
0
40
0
40
0
40
0.0724747265536758
40
0.145001670581596
40
0.217526404218654
40
0.289998114414436
40
0.349506186322422
40
0.409072901918835
40
0.468650045575731
40
0.528199117061692
40
0.587692376450454
40
0.638324035359543
40
0.688993722474171
40
0.739653046491375
40
0.790270562761099
40
0.832186939769391
40
0.874178078336648
40
0.916171974457474
40
0.958119915138989
40
1
40
1
40
1
40
1
41
1
10
48.3105740802852
20
31.425
30
0
41
1
10
48.315806213292
20
31.4279734864806
30
0
41
1
10
48.3262718270738
20
31.4337920631514
30
0
41
1
10
48.3419749166867
20
31.4421364470839
30
0
41
1
10
48.3576500908915
20
31.4500740658198
30
0
41
1
10
48.3723417760068
20
31.4571389852365
30
0
41
1
10
48.386043647231
20
31.4634019924022
30
0
41
1
10
48.398758622025
20
31.4689279137762
30
0
41
1
10
48.4113938533685
20
31.4741184022253
30
0
41
1
10
48.4239211422338
20
31.4789478505928
30
0
41
1
10
48.4357021165673
20
31.4831718979638
30
0
41
1
10
48.4467405436155
20
31.4868341674349
30
0
41
1
10
48.4570414335096
20
31.489972373685
30
0
41
1
10
48.4671848043956
20
31.4927588492553
30
0
41
1
10
48.4765687463247
20
31.4950244249268
30
0
41
1
10
48.4852072840246
20
31.4968181232541
30
0
41
1
10
48.4931156460544
20
31.4981850556866
30
0
41
1
10
48.5008152888691
20
31.4992065556549
30
0
41
1
10
48.5082649857513
20
31.4998510533515
30
0
41
1
10
48.5130247569142
20
31.4999958402736
30
0
41
1
10
48.5153553894881
20
31.5
30
0
0
SPLINE
5
154
100
AcDbEntity
8
1
62
256
6
ByLayer
370
18
48
1
60
0
100
AcDbSpline
70
4
71
3
72
15
73
11
40
0
40
0
40
0
40
0
40
0.124983858336386
40
0.249968642743153
40
0.374953372871257
40
0.499937157190737
40
0.624952378490291
40
0.749968652140153
40
0.874984863560115
40
1
40
1
40
1
40
1
41
1
10
47.2165748286812
20
30.7809618943233
30
0
41
1
10
47.2616633418832
20
30.8084098067114
30
0
41
1
10
47.3519609365074
20
30.8631563087091
30
0
41
1
10
47.4877664255569
20
30.9448314574313
30
0
41
1
10
47.6239361024844
20
31.0260502343123
30
0
41
1
10
47.7604843601791
20
31.1068116046526
30
0
41
1
10
47.8974153789187
20
31.1871069711246
30
0
41
1
10
48.0347335197896
20
31.2669271124024
30
0
41
1
10
48.172430303838
20
31.3462568725588
30
0
41
1
10
48.2644838372943
20
31.3988078039293
30
0
41
1
10
48.3105740802852
20
31.425
30
0
0
SPLINE
5
155
100
AcDbEntity
8
1
62
256
6
ByLayer
370
18
48
1
60
0
100
AcDbSpline
70
4
71
3
72
31
73
27
40
0
40
0
40
0
40
0
40
0.0442763426997161
40
0.0886614133116725
40
0.133057114466951
40
0.177392069897243
40
0.221626281034614
40
0.266662260143783
40
0.311910534494519
40
0.357194960147939
40
0.402373686707331
40
0.447351067363478
40
0.486491576637968
40
0.525797039060404
40
0.565164283643863
40
0.604480319292681
40
0.643629733991772
40
0.687438503325637
40
0.731367407457795
40
0.775320068693038
40
0.819161319657249
40
0.864208017650769
40
0.909368618811149
40
0.954622017689581
40
0.99991525882466
40
1
40
1
40
1
40
1
41
1
10
47.0109266402293
20
30.7809618943233
30
0
41
1
10
47.0092864356152
20
30.7789554011231
30
0
41
1
10
47.0060884192704
20
30.774944505907
30
0
41
1
10
47.0015353444383
20
30.7689384026946
30
0
41
1
10
46.9972672767539
20
30.7629666152192
30
0
41
1
10
46.9933234965266
20
30.7570587017869
30
0
41
1
10
46.9897183375169
20
30.7512053991377
30
0
41
1
10
46.986508500861
20
30.7454320270816
30
0
41
1
10
46.9837371518536
20
30.7397714988311
30
0
41
1
10
46.9814559126346
20
30.7342985351465
30
0
41
1
10
46.9797120477212
20
30.7290729806859
30
0
41
1
10
46.9785991181389
20
30.7243575374343
30
0
41
1
10
46.9780775581988
20
30.7201541807924
30
0
41
1
10
46.9780471935074
20
30.7164210644086
30
0
41
1
10
46.978474009165
20
30.7129759123766
30
0
41
1
10
46.9793498359483
20
30.70984366259
30
0
41
1
10
46.9807253863094
20
30.7069344020812
30
0
41
1
10
46.9826577360447
20
30.7043077677457
30
0
41
1
10
46.9851564901621
20
30.7019913636546
30
0
41
1
10
46.9881069053713
20
30.7000709311966
30
0
41
1
10
46.9915084198602
20
30.6985310479325
30
0
41
1
10
46.9953118217701
20
30.6973406841504
30
0
41
1
10
46.9995984226771
20
30.6965941581259
30
0
41
1
10
47.0038794366385
20
30.6958589692974
30
0
41
1
10
47.0077500287613
20
30.6964119488601
30
0
41
1
10
47.0089551343245
20
30.6959640567813
30
0
41
1
10
47.0089645079536
20
30.6959605703686
30
0
0
SPLINE
5
156
100
AcDbEntity
8
1
62
256
6
ByLayer
370
18
48
1
60
0
100
AcDbSpline
70
4
71
1
72
4
73
2
40
0
40
0
40
1
40
1
41
1
10
47.0109266402293
20
30.7809618943233
30
0
41
1
10
47.5369022721122
20
31.425
30
0
0
SPLINE
5
157
100
AcDbEntity
8
1
62
256
6
ByLayer
370
18
48
1
60
0
100
AcDbSpline
70
4
71
3
72
29
73
25
40
0
40
0
40
0
40
0
40
0.055669808532134
40
0.111470240426996
40
0.167226930002632
40
0.222836941277339
40
0.268157987707583
40
0.313692476333439
40
0.359264162352856
40
0.404730373140877
40
0.449993891217643
40
0.489374522815738
40
0.528919016683001
40
0.56852539587566
40
0.608081388255259
40
0.647471704112204
40
0.691816543006106
40
0.736282500434372
40
0.780772368841446
40
0.825149899411864
40
0.868817876410162
40
0.912555407637242
40
0.956309459942477
40
1
40
1
40
1
40
1
41
1
10
47.5369022721122
20
31.425
30
0
41
1
10
47.5387203105396
20
31.4272227829751
30
0
41
1
10
47.542236648031
20
31.4316612913393
30
0
41
1
10
47.5471642489778
20
31.4382979862608
30
0
41
1
10
47.5516676393352
20
31.4448655659449
30
0
41
1
10
47.5554408831105
20
31.4509235080288
30
0
41
1
10
47.5585149424801
20
31.4564549180779
30
0
41
1
10
47.5609673161103
20
31.4614658109762
30
0
41
1
10
47.5629861262668
20
31.4663086484745
30
0
41
1
10
47.5645304149209
20
31.4709303283536
30
0
41
1
10
47.5655179258238
20
31.4750981132406
30
0
41
1
10
47.5659848236953
20
31.4788106821095
30
0
41
1
10
47.5660203015069
20
31.4821056323512
30
0
41
1
10
47.5656550622323
20
31.4851443286291
30
0
41
1
10
47.5648968157431
20
31.4879049806948
30
0
41
1
10
47.5636995603765
20
31.4904724992981
30
0
41
1
10
47.5620106893579
20
31.4927914178901
30
0
41
1
10
47.5598194289359
20
31.4948346674343
30
0
41
1
10
47.5572280839475
20
31.4965202448384
30
0
41
1
10
47.5542871389676
20
31.4978490897337
30
0
41
1
10
47.5510326266257
20
31.4988388538129
30
0
41
1
10
47.5475069070812
20
31.4995206139262
30
0
41
1
10
47.5437208307976
20
31.4999147871063
30
0
41
1
10
47.5410485395924
20
31.5000017537704
30
0
41
1
10
47.5396742436293
20
31.5
30
0
0
SPLINE
5
158
100
AcDbEntity
8
1
62
256
6
ByLayer
370
18
48
1
60
0
100
AcDbSpline
70
4
71
3
72
27
73
23
40
0
40
0
40
0
40
0
40
0.0402538565220372
40
0.0805679242754509
40
0.120898452119874
40
0.161174786107812
40
0.203009505515965
40
0.244881331098286
40
0.286761649165437
40
0.328607959076305
40
0.385028425784377
40
0.441503042055827
40
0.497989264672569
40
0.554425572808929
40
0.612350553879155
40
0.670314476530702
40
0.728283326420369
40
0.786215030864217
40
0.839561665544659
40
0.892908575887887
40
0.946454231791643
40
1
40
1
40
1
40
1
41
1
10
47.4065925703851
20
31.5
30
0
41
1
10
47.4048826590305
20
31.4999963627229
30
0
41
1
10
47.4013625461461
20
31.4998630348674
30
0
41
1
10
47.395767843137
20
31.499269560823
30
0
41
1
10
47.3899161895327
20
31.4983266510852
30
0
41
1
10
47.383761955044
20
31.4970439831109
30
0
41
1
10
47.3773262809775
20
31.4954356197558
30
0
41
1
10
47.3706233577725
20
31.4935109311043
30
0
41
1
10
47.3637591685578
20
31.4913125575631
30
0
41
1
10
47.3559438673559
20
31.488577455095
30
0
41
1
10
47.3471382521428
20
31.4852195938192
30
0
41
1
10
47.3373130476024
20
31.481153924439
30
0
41
1
10
47.3273296611053
20
31.4767285640561
30
0
41
1
10
47.3171284517544
20
31.4719320563855
30
0
41
1
10
47.3067264456291
20
31.4667795764651
30
0
41
1
10
47.2961359777504
20
31.461279286005
30
0
41
1
10
47.285466521107
20
31.4554951634835
30
0
41
1
10
47.2750192171279
20
31.4496051901239
30
0
41
1
10
47.2648129253097
20
31.4436472027585
30
0
41
1
10
47.2548471851199
20
31.4376433805683
30
0
41
1
10
47.2448462274772
20
31.4314351146438
30
0
41
1
10
47.2381637801463
20
31.4271662364486
30
0
41
1
10
47.2348201337725
20
31.425
30
0
0
SPLINE
5
159
100
AcDbEntity
8
1
62
256
6
ByLayer
370
18
48
1
60
0
100
AcDbSpline
70
4
71
3
72
15
73
11
40
0
40
0
40
0
40
0
40
0.124989818622805
40
0.249980286858293
40
0.374970791284342
40
0.499960659258162
40
0.624970188172858
40
0.749980292262707
40
0.874990427970169
40
1
40
1
40
1
40
1
41
1
10
47.2348201337725
20
31.425
30
0
41
1
10
47.1940878884168
20
31.3986118664374
30
0
41
1
10
47.1127226738281
20
31.3457211835311
30
0
41
1
10
46.990974707959
20
31.2660394439357
30
0
41
1
10
46.8695221734782
20
31.1860204592194
30
0
41
1
10
46.7483559429423
20
31.1056655158134
30
0
41
1
10
46.6274724646376
20
31.0249805062855
30
0
41
1
10
46.50686839384
20
30.9439708980035
30
0
41
1
10
46.3865474190962
20
30.8626460089399
30
0
41
1
10
46.3065192422697
20
30.8082243565879
30
0
41
1
10
46.2665519309471
20
30.7809618943233
30
0
0
SPLINE
5
15A
100
AcDbEntity
8
1
62
256
6
ByLayer
370
18
48
1
60
0
100
AcDbSpline
70
4
71
3
72
27
73
23
40
0
40
0
40
0
40
0
40
0.0686477155474185
40
0.137351815446971
40
0.206050605329789
40
0.274691073895439
40
0.331345384235288
40
0.388070228463922
40
0.444806574214606
40
0.501508125866603
40
0.558142876814848
40
0.60295181489991
40
0.647856562855641
40
0.692789799966699
40
0.737698874047945
40
0.782547806102265
40
0.827319461688563
40
0.863500297652575
40
0.899795188342357
40
0.936123718332507
40
0.972422802752948
40
1
40
1
40
1
40
1
41
1
10
46.2665519309471
20
30.7809618943233
30
0
41
1
10
46.2620002622049
20
30.7778566920663
30
0
41
1
10
46.2529108222584
20
30.771754354239
30
0
41
1
10
46.239317185183
20
30.7629219929274
30
0
41
1
10
46.2257987758251
20
30.7544418024785
30
0
41
1
10
46.2131631260252
20
30.7468092995104
30
0
41
1
10
46.2014099695305
20
30.7399705871813
30
0
41
1
10
46.1905301689484
20
30.7338716867726
30
0
41
1
10
46.1797736713647
20
30.7280872618672
30
0
41
1
10
46.169173293085
20
30.7226473609171
30
0
41
1
10
46.1594812704436
20
30.717932072472
30
0
41
1
10
46.1506733196679
20
30.7138764890326
30
0
41
1
10
46.1427196933004
20
30.7104162443341
30
0
41
1
10
46.1349331152359
20
30.7072482912932
30
0
41
1
10
46.1273484229713
20
30.7044020667174
30
0
41
1
10
46.1200009177118
20
30.7019075375268
30
0
41
1
10
46.1133731741536
20
30.6999270548444
30
0
41
1
10
46.1074335322114
20
30.6984069550273
30
0
41
1
10
46.1021434084322
20
30.6972887013719
30
0
41
1
10
46.0970959570603
20
30.6964827341781
30
0
41
1
10
46.0927072352008
20
30.6960509345227
30
0
41
1
10
46.0900744741109
20
30.6959648512783
30
0
41
1
10
46.0889670768617
20
30.6959618951623
30
0
0
SPLINE
5
15B
100
AcDbEntity
8
1
62
256
6
ByLayer
370
18
48
1
60
0
100
AcDbSpline
70
4
71
1
72
4
73
2
40
0
40
0
40
1
40
1
41
1
10
46.6388027828633
20
31.425
30
0
41
1
10
46.1066807661857
20
30.7809618943233
30
0
0
SPLINE
5
15C
100
AcDbEntity
8
1
62
256
6
ByLayer
370
18
48
1
60
0
100
AcDbSpline
70
4
71
3
72
27
73
23
40
0
40
0
40
0
40
0
40
0.0525862506501816
40
0.105315529616721
40
0.158010290262683
40
0.210549336712104
40
0.253150575401148
40
0.295926246326874
40
0.338748930280217
40
0.381501048595977
40
0.424082453444127
40
0.473049641733927
40
0.522190857261641
40
0.571350653676027
40
0.620343267793369
40
0.669699166643788
40
0.719179221730726
40
0.768686011472363
40
0.818078454721622
40
0.878684219142897
40
0.939368978250343
40
1
40
1
40
1
40
1
41
1
10
46.6559828697448
20
31.5
30
0
41
1
10
46.6573288343823
20
31.5000020163885
30
0
41
1
10
46.6598872898523
20
31.4998587750115
30
0
41
1
10
46.6633331676103
20
31.4992115058502
30
0
41
1
10
46.6663269673339
20
31.4981012025242
30
0
41
1
10
46.6686653316553
20
31.4966077118285
30
0
41
1
10
46.6703996323357
20
31.4948011589326
30
0
41
1
10
46.6716275781278
20
31.4927830220353
30
0
41
1
10
46.6724652979473
20
31.490433322317
30
0
41
1
10
46.6728976530422
20
31.4877638587696
30
0
41
1
10
46.6729096276636
20
31.4846315447044
30
0
41
1
10
46.6724048247726
20
31.4809793752312
30
0
41
1
10
46.6713354346993
20
31.4767959041359
30
0
41
1
10
46.6697521240109
20
31.4722929810364
30
0
41
1
10
46.6676716139952
20
31.4674998304938
30
0
41
1
10
46.6651096975738
20
31.4624465590975
30
0
41
1
10
46.6621140594397
20
31.4571745208809
30
0
41
1
10
46.6587330268602
20
31.4517376234905
30
0
41
1
10
46.6547231943535
20
31.4457523562511
30
0
41
1
10
46.6500286794467
20
31.439216953996
30
0
41
1
10
46.6446152169063
20
31.4321440952386
30
0
41
1
10
46.6407798825929
20
31.4273889139942
30
0
41
1
10
46.6388027828633
20
31.425
30
0
0
SPLINE
5
15D
100
AcDbEntity
8
1
62
256
6
ByLayer
370
18
48
1
60
0
100
AcDbSpline
70
4
71
3
72
26
73
22
40
0
40
0
40
0
40
0
40
0.0656735741405434
40
0.131400430850403
40
0.197122412866756
40
0.262789334214616
40
0.316950715499705
40
0.371176474847665
40
0.425413840607458
40
0.47962049327901
40
0.533765831012232
40
0.582432874565806
40
0.631119729173032
40
0.679780494396056
40
0.729437190266662
40
0.7791241235732
40
0.828768280856351
40
0.871277391938553
40
0.913783387459268
40
0.956893966331987
40
1
40
1
40
1
40
1
41
1
10
46.4074665655278
20
31.425
30
0
41
1
10
46.4111075761905
20
31.427627573751
30
0
41
1
10
46.4183762239071
20
31.4327966637077
30
0
41
1
10
46.4292397701723
20
31.4402948378527
30
0
41
1
10
46.4400371686286
20
31.4475111917527
30
0
41
1
10
46.4501223633362
20
31.454021889313
30
0
41
1
10
46.4594971216137
20
31.4598693723992
30
0
41
1
10
46.4681703657016
20
31.4650980323462
30
0
41
1
10
46.476743930222
20
31.4700752824122
30
0
41
1
10
46.4851932769348
20
31.4747778510934
30
0
41
1
10
46.4932180831961
20
31.4790362627013
30
0
41
1
10
46.5008166066795
20
31.4828646459761
30
0
41
1
10
46.5079881756191
20
31.4862767796723
30
0
41
1
10
46.5150322996238
20
31.4894090252156
30
0
41
1
10
46.5219185397011
20
31.492227959705
30
0
41
1
10
46.5286076815243
20
31.4946928695775
30
0
41
1
10
46.5347077611052
20
31.4966502563585
30
0
41
1
10
46.5402245579843
20
31.4981319500706
30
0
41
1
10
46.5451987069091
20
31.4991823418219
30
0
41
1
10
46.5498841245163
20
31.4998461599285
30
0
41
1
10
46.552770552251
20
31.4999961252522
30
0
41
1
10
46.5541541986302
20
31.5
30
0
0
SPLINE
5
15E
100
AcDbEntity
8
1
62
256
6
ByLayer
370
18
48
1
60
0
100
AcDbSpline
70
4
71
3
72
13
73
9
40
0
40
0
40
0
40
0
40
0.166658625480528
40
0.333317652988805
40
0.49997624024425
40
0.666650690728546
40
0.833325593244725
40
1
40
1
40
1
40
1
41
1
10
45.532821945451
20
30.7809618943233
30
0
41
1
10
45.5810108252539
20
30.8171453052011
30
0
41
1
10
45.6775200610119
20
30.8893800373939
30
0
41
1
10
45.8226750364686
20
30.9973396361722
30
0
41
1
10
45.9682344767491
20
31.1048979421184
30
0
41
1
10
46.1142041210837
20
31.2120466408695
30
0
41
1
10
46.2605901329531
20
31.318776866993
30
0
41
1
10
46.3584613827518
20
31.3896401916908
30
0
41
1
10
46.4074665655278
20
31.425
30
0
0
SPLINE
5
15F
100
AcDbEntity
8
1
62
256
6
ByLayer
370
18
48
1
60
0
100
AcDbSpline
70
4
71
3
72
29
73
25
40
0
40
0
40
0
40
0
40
0.0558497524514146
40
0.111854867749079
40
0.167876002944736
40
0.223810958260242
40
0.279601708958619
40
0.325105872010239
40
0.370761597615505
40
0.416443271452994
40
0.462050292106141
40
0.507513473191388
40
0.553317480639349
40
0.599329023473862
40
0.645403273008699
40
0.691399412835852
40
0.737190443432697
40
0.777071405487936
40
0.81707245767896
40
0.857127311732223
40
0.89715314546996
40
0.9370549556433
40
0.988960245568947
40
1
40
1
40
1
40
1
41
1
10
45.4112159562359
20
30.7809618943233
30
0
41
1
10
45.4091207409612
20
30.7784863768992
30
0
41
1
10
45.4050209493378
20
30.773557359695
30
0
41
1
10
45.3991412252427
20
30.7662340314413
30
0
41
1
10
45.3935822344095
20
30.7590191703925
30
0
41
1
10
45.388394159627
20
30.7519570386405
30
0
41
1
10
45.3839176658429
20
30.7455093156551
30
0
41
1
10
45.3801119978217
20
30.7396702644605
30
0
41
1
10
45.3769112241661
20
30.7344155303276
30
0
41
1
10
45.3740764191565
20
30.7293666642058
30
0
41
1
10
45.3716454843095
20
30.7245671751809
30
0
41
1
10
45.3696453491849
20
30.7200412306741
30
0
41
1
10
45.3681246464557
20
30.7158313789832
30
0
41
1
10
45.3670936690743
20
30.7119584577709
30
0
41
1
10
45.3665602435349
20
30.7084551657811
30
0
41
1
10
45.3665349705768
20
30.7053563475004
30
0
41
1
10
45.3670100570244
20
30.7028066858018
30
0
41
1
10
45.3679197739029
20
30.7007651487212
30
0
41
1
10
45.369164594299
20
30.6991522502339
30
0
41
1
10
45.3707698694239
20
30.6978682465686
30
0
41
1
10
45.3727158801049
20
30.6969111676517
30
0
41
1
10
45.375211820843
20
30.6962116492121
30
0
41
1
10
45.3774792699373
20
30.6959908167028
30
0
41
1
10
45.3789672145503
20
30.6959630578868
30
0
41
1
10
45.3792317387201
20
30.6959618951296
30
0
0
SPLINE
5
160
100
AcDbEntity
8
1
62
256
6
ByLayer
370
18
48
1
60
0
100
AcDbSpline
70
4
71
2
72
6
73
3
40
0
40
0
40
0
40
1
40
1
40
1
41
1
10
45.4112159562359
20
30.7809618943233
30
0
41
1
10
45.6837172879787
20
31.1031325901648
30
0
41
1
10
45.9566960651665
20
31.425
30
0
0
SPLINE
5
161
100
AcDbEntity
8
1
62
256
6
ByLayer
370
18
48
1
60
0
100
AcDbSpline
70
4
71
3
72
27
73
23
40
0
40
0
40
0
40
0
40
0.0566104485312658
40
0.113379896348244
40
0.170166044190073
40
0.2268642699813
40
0.283414822026041
40
0.329499260919427
40
0.375737219999836
40
0.422001896283422
40
0.468191358658378
40
0.514234990731966
40
0.560616624405756
40
0.60720721195194
40
0.65386105443907
40
0.700436378875191
40
0.746805153883481
40
0.797444716543796
40
0.848251013116908
40
0.899078485837849
40
0.949747017892701
40
1
40
1
40
1
40
1
41
1
10
45.9566960651665
20
31.425
30
0
41
1
10
45.9585725690257
20
31.4272112659369
30
0
41
1
10
45.9622449755164
20
31.4316131439624
30
0
41
1
10
45.9675132336123
20
31.4381504526135
30
0
41
1
10
45.972496223375
20
31.4445871805211
30
0
41
1
10
45.9771492621039
20
31.4508830777676
30
0
41
1
10
45.9811660221727
20
31.4566246999218
30
0
41
1
10
45.9845831931477
20
31.4618176983464
30
0
41
1
10
45.9874603067701
20
31.4664847615667
30
0
41
1
10
45.9900136219784
20
31.470963686813
30
0
41
1
10
45.9922099204014
20
31.4752154393234
30
0
41
1
10
45.9940256635984
20
31.4792179387964
30
0
41
1
10
45.9954186863953
20
31.48293292972
30
0
41
1
10
45.9963804986863
20
31.4863418420247
30
0
41
1
10
45.9969041676068
20
31.4894158079055
30
0
41
1
10
45.9969804266576
20
31.4921240162691
30
0
41
1
10
45.9965855887417
20
31.494510227262
30
0
41
1
10
45.9956582456643
20
31.4965077590332
30
0
41
1
10
45.9941881849817
20
31.498090669439
30
0
41
1
10
45.9922344941917
20
31.499209018919
30
0
41
1
10
45.9898254015522
20
31.4998615565207
30
0
41
1
10
45.9879460070069
20
31.5000030983146
30
0
41
1
10
45.9869390720835
20
31.5
30
0
0
SPLINE
5
162
100
AcDbEntity
8
1
62
256
6
ByLayer
370
18
48
1
60
0
100
AcDbSpline
70
4
71
3
72
25
73
21
40
0
40
0
40
0
40
0
40
0.0423045988703934
40
0.0846608830028911
40
0.126978006306254
40
0.170799183741659
40
0.214660218178502
40
0.258491554410693
40
0.31426832185445
40
0.370100771122344
40
0.425893360969347
40
0.483227532430271
40
0.540601377701238
40
0.597945068655324
40
0.664275289256084
40
0.7306489278434
40
0.796987962127102
40
0.864645507446007
40
0.93233796002622
40
1
40
1
40
1
40
1
41
1
10
45.9114359875935
20
31.5
30
0
41
1
10
45.9104466719255
20
31.4999967804194
30
0
41
1
10
45.9083464342358
20
31.4998550633674
30
0
41
1
10
45.9048178954173
20
31.4992239824347
30
0
41
1
10
45.9009161342533
20
31.4981997145147
30
0
41
1
10
45.8966561717251
20
31.4967877766463
30
0
41
1
10
45.8920631689477
20
31.4950050500471
30
0
41
1
10
45.8867770023422
20
31.4927026089439
30
0
41
1
10
45.8807470806462
20
31.4898006312929
30
0
41
1
10
45.8739407347661
20
31.4862328330912
30
0
41
1
10
45.8667994644449
20
31.482227622132
30
0
41
1
10
45.8593539522884
20
31.477810989018
30
0
41
1
10
45.8516307933154
20
31.4730060668837
30
0
41
1
10
45.8433144664069
20
31.4676164968552
30
0
41
1
10
45.8344009340911
20
31.4616145239962
30
0
41
1
10
45.8248935152129
20
31.4549779534444
30
0
41
1
10
45.815178982997
20
31.4479762980371
30
0
41
1
10
45.8052813864297
20
31.4406320124755
30
0
41
1
10
45.7952194426569
20
31.4329611396817
30
0
41
1
10
45.7884641726687
20
31.4276819290428
30
0
41
1
10
45.7850740020383
20
31.425
30
0
0
SPLINE
5
163
100
AcDbEntity
8
1
62
256
6
ByLayer
370
18
48
1
60
0
100
AcDbSpline
70
4
71
3
72
13
73
9
40
0
40
0
40
0
40
0
40
0.166661427669304
40
0.333323165726028
40
0.499984620001256
40
0.666656313315648
40
0.833328283364891
40
1
40
1
40
1
40
1
41
1
10
45.7850740020383
20
31.425
30
0
41
1
10
45.7402253086059
20
31.3895272196709
30
0
41
1
10
45.6506382936475
20
31.3184775061546
30
0
41
1
10
45.5165916470926
20
31.2115875982875
30
0
41
1
10
45.3828686719483
20
31.1043894376737
30
0
41
1
10
45.2494644008441
20
30.9968891330292
30
0
41
1
10
45.1163742109747
20
30.8890924066149
30
0
41
1
10
45.0278539129752
20
30.817037439362
30
0
41
1
10
44.9836458189337
20
30.7809618943233
30
0
0
SPLINE
5
164
100
AcDbEntity
8
1
62
256
6
ByLayer
370
18
48
1
60
0
100
AcDbSpline
70
4
71
3
72
27
73
23
40
0
40
0
40
0
40
0
40
0.0590058448518898
40
0.118056815848848
40
0.177102551747687
40
0.23610125225404
40
0.296853895029533
40
0.357674897486787
40
0.41848204378543
40
0.47921576974813
40
0.525522928198244
40
0.571951580325935
40
0.6184188895308
40
0.664858521057912
40
0.711223223437941
40
0.757487646586985
40
0.801552390203261
40
0.845761036501787
40
0.889989236499423
40
0.934141833440684
40
0.978159419063468
40
1
40
1
40
1
40
1
41
1
10
44.9836458189337
20
30.7809618943233
30
0
41
1
10
44.9804239829949
20
30.7783324898186
30
0
41
1
10
44.9740039880661
20
30.7731405656041
30
0
41
1
10
44.9644437345973
20
30.7655507973004
30
0
41
1
10
44.9549779076867
20
30.7581839942756
30
0
41
1
10
44.9455332746745
20
30.7509887562805
30
0
41
1
10
44.9361314996697
20
30.7439925730599
30
0
41
1
10
44.9268016935443
20
30.7372308190676
30
0
41
1
10
44.9176692258189
20
30.7308057146583
30
0
41
1
10
44.9094752460415
20
30.7252327180641
30
0
41
1
10
44.9021844604442
20
30.7204425376946
30
0
41
1
10
44.895749486178
20
30.7163577275108
30
0
41
1
10
44.8895095063826
20
30.7125517111153
30
0
41
1
10
44.8834994789481
20
30.7090552668258
30
0
41
1
10
44.8777548077768
20
30.705899662469
30
0
41
1
10
44.8723916548552
20
30.7031564115223
30
0
41
1
10
44.8674249004914
20
30.7008375918116
30
0
41
1
10
44.8628659341798
20
30.6989479752595
30
0
41
1
10
44.858670244364
20
30.6974781533379
30
0
41
1
10
44.8548873133559
20
30.6964636312279
30
0
41
1
10
44.8521192331518
20
30.6960271290934
30
0
41
1
10
44.850651012657
20
30.6959623958035
30
0
41
1
10
44.8501839495359
20
30.6959618948184
30
0
0
SPLINE
5
165
100
AcDbEntity
8
1
62
256
6
ByLayer
370
18
48
1
60
0
100
AcDbSpline
70
4
71
2
72
6
73
3
40
0
40
0
40
0
40
1
40
1
40
1
41
1
10
45.4601517611778
20
31.425
30
0
41
1
10
45.1774577752098
20
31.1032772497714
30
0
41
1
10
44.8956652819712
20
30.7809618943233
30
0
0
SPLINE
5
166
100
AcDbEntity
8
1
62
256
6
ByLayer
370
18
48
1
60
0
100
AcDbSpline
70
4
71
3
72
28
73
24
40
0
40
0
40
0
40
0
40
0.0423436678003397
40
0.0848321233796538
40
0.127359062759935
40
0.1698272554194
40
0.212153871034687
40
0.254785986737618
40
0.297567296372783
40
0.340407664740475
40
0.383204885445529
40
0.42585039300457
40
0.478097684237196
40
0.530487799259134
40
0.582903408313326
40
0.635185556022849
40
0.686814972357185
40
0.738582152950245
40
0.790452123538023
40
0.842359663955969
40
0.894213674949391
40
0.945901148712939
40
1
40
1
40
1
40
1
41
1
10
45.5027945102455
20
31.5
30
0
41
1
10
45.5034078686641
20
31.4999997553735
30
0
41
1
10
45.5045282610273
20
31.4998890640674
30
0
41
1
10
45.5058877649505
20
31.4993912478008
30
0
41
1
10
45.5069143460398
20
31.4985608013854
30
0
41
1
10
45.5075946061353
20
31.4973960893143
30
0
41
1
10
45.5079158155904
20
31.4958898158681
30
0
41
1
10
45.5078576505494
20
31.4940293748665
30
0
41
1
10
45.5074304994172
20
31.4918310430561
30
0
41
1
10
45.5066453989622
20
31.4893183737115
30
0
41
1
10
45.5055134393633
20
31.4865138119622
30
0
41
1
10
45.5039306335845
20
31.4832011653645
30
0
41
1
10
45.5018095213474
20
31.4793167039209
30
0
41
1
10
45.4990972135213
20
31.4748306043815
30
0
41
1
10
45.4959712248351
20
31.4700409300257
30
0
41
1
10
45.4924821403803
20
31.4650097186365
30
0
41
1
10
45.4886624512821
20
31.459769722993
30
0
41
1
10
45.4845498365542
20
31.4543523969973
30
0
41
1
10
45.4801578326164
20
31.4487632943791
30
0
41
1
10
45.4755200486114
20
31.4430350503645
30
0
41
1
10
45.4706707104326
20
31.4372007688003
30
0
41
1
10
45.4655526271863
20
31.4311877039279
30
0
41
1
10
45.4620006542941
20
31.4271031761748
30
0
41
1
10
45.4601517611778
20
31.425
30
0
0
SPLINE
5
167
100
AcDbEntity
8
1
62
256
6
ByLayer
370
18
48
1
60
0
100
AcDbSpline
70
4
71
3
72
26
73
22
40
0
40
0
40
0
40
0
40
0.0650360491004607
40
0.130230905053171
40
0.195483120740994
40
0.260707623065161
40
0.325838450985593
40
0.390831717440959
40
0.441290840647695
40
0.491890733611008
40
0.54253614122681
40
0.593150303344831
40
0.643677997208034
40
0.694088864762716
40
0.740708628437363
40
0.787479101638206
40
0.834270496596737
40
0.88098314455815
40
0.927554257554424
40
0.963777922910885
40
1
40
1
40
1
40
1
41
1
10
45.3415115410131
20
31.425
30
0
41
1
10
45.3444962487942
20
31.4275580305173
30
0
41
1
10
45.3504396435828
20
31.4326079774611
30
0
41
1
10
45.3592703697699
20
31.4399810556524
30
0
41
1
10
45.367990178155
20
31.4471224377324
30
0
41
1
10
45.376565996328
20
31.4539989497778
30
0
41
1
10
45.3849619497651
20
31.4605743413259
30
0
41
1
10
45.3925402717627
20
31.4663539125973
30
0
41
1
10
45.3993315609414
20
31.4713950336157
30
0
41
1
10
45.4053755975625
20
31.4757620558946
30
0
41
1
10
45.4112438776766
20
31.4798729770564
30
0
41
1
10
45.4169030657826
20
31.4836965525227
30
0
41
1
10
45.422319463659
20
31.4872011460135
30
0
41
1
10
45.4273358720846
20
31.4902801084693
30
0
41
1
10
45.4319474262895
20
31.4929329184794
30
0
41
1
10
45.436154552982
20
31.4951673553316
30
0
41
1
10
45.440046020785
20
31.4970258318741
30
0
41
1
10
45.4435784632718
20
31.4984740754443
30
0
41
1
10
45.4464786540224
20
31.4994030249798
30
0
41
1
10
45.4488144905403
20
31.499897361833
30
0
41
1
10
45.4500477051991
20
31.499998604622
30
0
41
1
10
45.4506182440428
20
31.5
30
0
0
SPLINE
5
168
100
AcDbEntity
8
1
62
256
6
ByLayer
370
18
48
1
60
0
100
AcDbSpline
70
4
71
3
72
13
73
9
40
0
40
0
40
0
40
0
40
0.166663511768476
40
0.333327182048593
40
0.499990679613775
40
0.666660399449979
40
0.833330296340049
40
1
40
1
40
1
40
1
41
1
10
44.5992678355809
20
30.7809618943233
30
0
41
1
10
44.6402524437479
20
30.8169567600542
30
0
41
1
10
44.7223038372636
20
30.88887606141
30
0
41
1
10
44.845625440483
20
30.9965456007959
30
0
41
1
10
44.9691987501283
20
31.1040010801027
30
0
41
1
10
45.0930275105871
20
31.2112384511305
30
0
41
1
10
45.2171157416696
20
31.3182533908449
30
0
41
1
10
45.3000171880035
20
31.3894431578997
30
0
41
1
10
45.3415115410131
20
31.425
30
0
0
SPLINE
5
169
100
AcDbEntity
8
1
62
256
6
ByLayer
370
18
48
1
60
0
100
AcDbSpline
70
4
71
3
72
28
73
24
40
0
40
0
40
0
40
0
40
0.0555879783868143
40
0.11134307624326
40
0.167151975045918
40
0.222923384024684
40
0.278591845195082
40
0.334121906986346
40
0.384155569319905
40
0.434350366915105
40
0.484570204011976
40
0.534708354002751
40
0.584694356628213
40
0.627271901367737
40
0.669994598224332
40
0.712754089638965
40
0.755453062163041
40
0.798010642103892
40
0.840660647136917
40
0.88346360176457
40
0.926325045987233
40
0.969140389837068
40
1
40
1
40
1
40
1
41
1
10
44.5420169219167
20
30.7809618943233
30
0
41
1
10
44.539791737135
20
30.7785180641921
30
0
41
1
10
44.535401773319
20
30.773661587233
30
0
41
1
10
44.5290018809292
20
30.7664767460973
30
0
41
1
10
44.5228199499057
20
30.7594202588009
30
0
41
1
10
44.5168927693092
20
30.7525273550298
30
0
41
1
10
44.511260630145
20
30.7458362958345
30
0
41
1
10
44.5061317647214
20
30.7395908694799
30
0
41
1
10
44.5015029528003
20
30.7337937553229
30
0
41
1
10
44.4973599183344
20
30.7284396622067
30
0
41
1
10
44.4935719569493
20
30.7233577673305
30
0
41
1
10
44.4901832589046
20
30.7185952703527
30
0
41
1
10
44.4873779831239
20
30.7144095517558
30
0
41
1
10
44.4851226245478
20
30.7107793437367
30
0
41
1
10
44.4833524511858
20
30.7076545302455
30
0
41
1
10
44.4819570673452
20
30.7048548812306
30
0
41
1
10
44.4809556030378
20
30.7024073273906
30
0
41
1
10
44.4803649995559
20
30.7003332842537
30
0
41
1
10
44.4802088301423
20
30.6986593322009
30
0
41
1
10
44.480475408511
20
30.6973799290644
30
0
41
1
10
44.4811542890613
20
30.6964941769864
30
0
41
1
10
44.4821371811475
20
30.6960488113758
30
0
41
1
10
44.4829549857941
20
30.6959633693201
30
0
41
1
10
44.4833321970455
20
30.6959618945232
30
0
0
SPLINE
5
16A
100
AcDbEntity
8
1
62
256
6
ByLayer
370
18
48
1
60
0
100
AcDbSpline
70
4
71
3
72
11
73
7
40
0
40
0
40
0
40
0
40
0.249999553851202
40
0.499999105797058
40
0.749999553979355
40
1
40
1
40
1
40
1
41
1
10
44.5420169219167
20
30.7809618943233
30
0
41
1
10
44.5909462704208
20
30.8347114284
30
0
41
1
10
44.6888626791484
20
30.9421710077366
30
0
41
1
10
44.8359087054063
20
31.1032434997497
30
0
41
1
10
44.9831318408802
20
31.264194925733
30
0
41
1
10
45.0814027970359
20
31.3714121202377
30
0
41
1
10
45.1305684516182
20
31.425
30
0
0
SPLINE
5
16B
100
AcDbEntity
8
1
62
256
6
ByLayer
370
18
48
1
60
0
100
AcDbSpline
70
4
71
3
72
27
73
23
40
0
40
0
40
0
40
0
40
0.0566228708204675
40
0.11341795227315
40
0.170268874828463
40
0.227081641619604
40
0.283788545863491
40
0.340352468179314
40
0.391167299977395
40
0.442145611185784
40
0.493149603302669
40
0.544070980739251
40
0.594837912183485
40
0.638064351849291
40
0.681438069372765
40
0.724848782490431
40
0.768197782740259
40
0.811403422080111
40
0.858481284209753
40
0.905696847276438
40
0.952916518940685
40
1
40
1
40
1
40
1
41
1
10
45.1305684516182
20
31.425
30
0
41
1
10
45.1325847847742
20
31.4271973198542
30
0
41
1
10
45.1365641877225
20
31.4315622407263
30
0
41
1
10
45.1423696456494
20
31.4380149304338
30
0
41
1
10
45.1479824196825
20
31.4443463660997
30
0
41
1
10
45.1533695569149
20
31.4505241125708
30
0
41
1
10
45.1584950262548
20
31.4565129096453
30
0
41
1
10
45.1631654107657
20
31.462088884311
30
0
41
1
10
45.1673846456414
20
31.4672504378509
30
0
41
1
10
45.1711668855214
20
31.4720036170614
30
0
41
1
10
45.1746364961886
20
31.476505174599
30
0
41
1
10
45.1777543039113
20
31.4807125027993
30
0
41
1
10
45.1803511191389
20
31.4843975840338
30
0
41
1
10
45.1824567566374
20
31.4875805481014
30
0
41
1
10
45.1841282732409
20
31.4903075186879
30
0
41
1
10
45.1854691137677
20
31.4927363713097
30
0
41
1
10
45.1864618594037
20
31.4948430705414
30
0
41
1
10
45.187108749588
20
31.4966588615637
30
0
41
1
10
45.187350848301
20
31.4981234148844
30
0
41
1
10
45.1871592103983
20
31.4992023025567
30
0
41
1
10
45.1865345483599
20
31.4998538932
30
0
41
1
10
45.1858324374882
20
31.4999991335896
30
0
41
1
10
45.1854104407392
20
31.5
30
0
0
SPLINE
5
16C
100
AcDbEntity
8
1
62
256
6
ByLayer
370
18
48
1
60
0
100
AcDbSpline
70
4
71
3
72
26
73
22
40
0
40
0
40
0
40
0
40
0.0471723711151338
40
0.0945337886734062
40
0.141988939259814
40
0.189405669386939
40
0.236624621804107
40
0.283620163446079
40
0.330727990628457
40
0.37789650458884
40
0.425047128228349
40
0.472078652001908
40
0.532961788269923
40
0.594006759055083
40
0.655171799654328
40
0.716380218895497
40
0.777525444378019
40
0.838475612897853
40
0.892308879142406
40
0.946163662276551
40
1
40
1
40
1
40
1
41
1
10
45.1547519618206
20
31.5
30
0
41
1
10
45.1543286667337
20
31.4999961910227
30
0
41
1
10
45.1533256725565
20
31.4998275391784
30
0
41
1
10
45.1513357188461
20
31.4990746580761
30
0
41
1
10
45.1489101595577
20
31.4978634114662
30
0
41
1
10
45.1460822865061
20
31.4962193245547
30
0
41
1
10
45.1428848207586
20
31.4941674018416
30
0
41
1
10
45.139343362028
20
31.491730566133
30
0
41
1
10
45.1354955704096
20
31.4889476000797
30
0
41
1
10
45.131364923447
20
31.4858420186279
30
0
41
1
10
45.126986320148
20
31.4824462790356
30
0
41
1
10
45.1219343627889
20
31.4784260205244
30
0
41
1
10
45.1161492888895
20
31.4737068266142
30
0
41
1
10
45.1095859283155
20
31.46822816366
30
0
41
1
10
45.1027545089932
20
31.4624138929673
30
0
41
1
10
45.0956977361312
20
31.4563068067541
30
0
41
1
10
45.088458055771
20
31.4499494068729
30
0
41
1
10
45.0813509641542
20
31.443626977326
30
0
41
1
10
45.0744156463668
20
31.4373890427797
30
0
41
1
10
45.0676757272637
20
31.4312689839552
30
0
41
1
10
45.0631289076809
20
31.4271041827992
30
0
41
1
10
45.0608416273169
20
31.425
30
0
0
SPLINE
5
16D
100
AcDbEntity
8
1
62
256
6
ByLayer
370
18
48
1
60
0
100
AcDbSpline
70
4
71
3
72
11
73
7
40
0
40
0
40
0
40
0
40
0.249997064269343
40
0.499994142531975
40
0.749997065109894
40
1
40
1
40
1
40
1
41
1
10
45.0608416273169
20
31.425
30
0
41
1
10
45.002764581333
20
31.3715748106607
30
0
41
1
10
44.8867625653783
20
31.2646011364336
30
0
41
1
10
44.7132194137356
20
31.1037646672315
30
0
41
1
10
44.5401211768259
20
30.942566702273
30
0
41
1
10
44.4250097610569
20
30.8348692116017
30
0
41
1
10
44.3675268966981
20
30.7809618943233
30
0
0
SPLINE
5
16E
100
AcDbEntity
8
1
62
256
6
ByLayer
370
18
48
1
60
0
100
AcDbSpline
70
4
71
3
72
28
73
24
40
0
40
0
40
0
40
0
40
0.0681395657654709
40
0.136317644356332
40
0.204447802342524
40
0.256923800639784
40
0.309453481957041
40
0.361973201724661
40
0.41443560172153
40
0.45963900914232
40
0.504971168980123
40
0.550346793261686
40
0.59569607295421
40
0.640967356085796
40
0.686130072453027
40
0.730420624794411
40
0.774859266040068
40
0.819325477537921
40
0.8637208009608
40
0.907974903517286
40
0.952532914131359
40
0.997289268099212
40
1
40
1
40
1
40
1
41
1
10
44.3675268966981
20
30.7809618943233
30
0
41
1
10
44.3643199111217
20
30.7779542640242
30
0
41
1
10
44.3579630377462
20
30.7720169015879
30
0
41
1
10
44.3485911612997
20
30.7633360377881
30
0
41
1
10
44.340127568012
20
30.7555682667895
30
0
41
1
10
44.332546510976
20
30.7486725501817
30
0
41
1
10
44.3258116895465
20
30.7425988555711
30
0
41
1
10
44.3192621816843
20
30.7367481194023
30
0
41
1
10
44.3132162446162
20
30.731404386443
30
0
41
1
10
44.3076614200491
20
30.7265501488377
30
0
41
1
10
44.3025787245665
20
30.7221611923219
30
0
41
1
10
44.2977079712586
20
30.7180122257107
30
0
41
1
10
44.293080218701
20
30.7141326268691
30
0
41
1
10
44.2887268599274
20
30.7105521089244
30
0
41
1
10
44.2847003788311
20
30.7073169540176
30
0
41
1
10
44.2810237005017
20
30.7044496603041
30
0
41
1
10
44.2777107007534
20
30.7019620490477
30
0
41
1
10
44.2747658116296
20
30.6998606826768
30
0
41
1
10
44.2722188888722
20
30.6981706914346
30
0
41
1
10
44.2701218164885
20
30.6969421647278
30
0
41
1
10
44.2684237963975
20
30.6961225962666
30
0
41
1
10
44.2677876708079
20
30.6960920498248
30
0
41
1
10
44.2673515719286
20
30.6959688770044
30
0
41
1
10
44.2673267176927
20
30.6959618943282
30
0
0
SPLINE
5
16F
100
AcDbEntity
8
1
62
256
6
ByLayer
370
18
48
1
60
0
100
AcDbSpline
70
4
71
3
72
11
73
7
40
0
40
0
40
0
40
0
40
0.249999058564244
40
0.499998121528653
40
0.749999058824701
40
1
40
1
40
1
40
1
41
1
10
44.9569681154402
20
31.425
30
0
41
1
10
44.9053250548513
20
31.3714534006313
30
0
41
1
10
44.8021251134307
20
31.2642980650732
30
0
41
1
10
44.6475862521221
20
31.1033759376811
30
0
41
1
10
44.4932997561457
20
30.9422716246877
30
0
41
1
10
44.3906050020709
20
30.8347515317445
30
0
41
1
10
44.3392988611087
20
30.7809618943233
30
0
0
SPLINE
5
170
100
AcDbEntity
8
1
62
256
6
ByLayer
370
18
48
1
60
0
100
AcDbSpline
70
4
71
3
72
27
73
23
40
0
40
0
40
0
40
0
40
0.0442205808529649
40
0.0886116354036575
40
0.133067120848927
40
0.177470399226392
40
0.22170127206365
40
0.265964175655661
40
0.310356948557974
40
0.354812549649888
40
0.399240855845927
40
0.443533650865206
40
0.493098862621523
40
0.542798680200705
40
0.592595795702755
40
0.642426072146022
40
0.692202531224355
40
0.741818989082961
40
0.806304400605512
40
0.870887025480703
40
0.935488646709881
40
1
40
1
40
1
40
1
41
1
10
45.0241806048246
20
31.5
30
0
41
1
10
45.0243255226893
20
31.4999981805794
30
0
41
1
10
45.0244835575124
20
31.4998615567321
30
0
41
1
10
45.0243171404628
20
31.499249636982
30
0
41
1
10
45.0237615097909
20
31.4982483405636
30
0
41
1
10
45.0228237832045
20
31.4968679786204
30
0
41
1
10
45.0215079507177
20
31.4951150297875
30
0
41
1
10
45.01981698691
20
31.4929942789887
30
0
41
1
10
45.0177799001244
20
31.4905357328508
30
0
41
1
10
45.0154196387077
20
31.487764080596
30
0
41
1
10
45.0127627261741
20
31.4847080150797
30
0
41
1
10
45.0097122261822
20
31.4812567896798
30
0
41
1
10
45.0062447650285
20
31.4773898064475
30
0
41
1
10
45.0023513851497
20
31.4731002901126
30
0
41
1
10
44.9981863636348
20
31.4685576839946
30
0
41
1
10
44.9937811399837
20
31.4637942983478
30
0
41
1
10
44.9891669356903
20
31.4588422093881
30
0
41
1
10
44.9838862303025
20
31.4532125961902
30
0
41
1
10
44.9778871511598
20
31.4468609448526
30
0
41
1
10
44.9711330752492
20
31.4397581794888
30
0
41
1
10
44.9641562581027
20
31.4324657386962
30
0
41
1
10
44.9593846761823
20
31.4275054223992
30
0
41
1
10
44.9569681154402
20
31.425
30
0
0
SPLINE
5
171
100
AcDbEntity
8
1
62
256
6
ByLayer
370
18
48
1
60
0
100
AcDbSpline
70
4
71
3
72
26
73
22
40
0
40
0
40
0
40
0
40
0.0695257757279804
40
0.139095388899637
40
0.208609273421899
40
0.262358766413709
40
0.31617224204869
40
0.369973253616014
40
0.423705729196395
40
0.476276043453379
40
0.529005152348111
40
0.581756759172824
40
0.63442592995027
40
0.68694582616101
40
0.730936789484605
40
0.77507635864963
40
0.819247372439901
40
0.863350728743453
40
0.907311219336436
40
0.953656333059013
40
1
40
1
40
1
40
1
41
1
10
44.9339577948923
20
31.425
30
0
41
1
10
44.9367203983809
20
31.4277073424614
30
0
41
1
10
44.942184921444
20
31.4330537735623
30
0
41
1
10
44.9502076691162
20
31.4408773539019
30
0
41
1
10
44.957423586392
20
31.4478872515625
30
0
41
1
10
44.9638599395202
20
31.4541157580308
30
0
41
1
10
44.9695546734214
20
31.4596055678879
30
0
41
1
10
44.9750561507697
20
31.4648859717277
30
0
41
1
10
44.9803000434722
20
31.4698938639449
30
0
41
1
10
44.9852671875835
20
31.4746094704704
30
0
41
1
10
44.9899386028754
20
31.4790136445858
30
0
41
1
10
44.9943186417611
20
31.4831087617606
30
0
41
1
10
44.998363836252
20
31.4868516309937
30
0
41
1
10
45.0018380735074
20
31.4900234356656
30
0
41
1
10
45.0047722214496
20
31.4926577092263
30
0
41
1
10
45.0072213769853
20
31.4948127503342
30
0
41
1
10
45.0093441252524
20
31.4966299034531
30
0
41
1
10
45.0111145803556
20
31.4980847351341
30
0
41
1
10
45.0125317123519
20
31.4991713708256
30
0
41
1
10
45.0135504656097
20
31.4998451090853
30
0
41
1
10
45.0139424328615
20
31.4999987457715
30
0
41
1
10
45.0140640911974
20
31.5
30
0
0
SPLINE
5
172
100
AcDbEntity
8
1
62
256
6
ByLayer
370
18
48
1
60
0
100
AcDbSpline
70
4
71
3
72
11
73
7
40
0
40
0
40
0
40
0
40
0.249998337354417
40
0.49999666758443
40
0.749998337835895
40
1
40
1
40
1
40
1
41
1
10
44.2816704128661
20
30.7809618943233
30
0
41
1
10
44.3358022981101
20
30.8348020073256
30
0
41
1
10
44.4441775527379
20
30.9423978163932
30
0
41
1
10
44.6070720546278
20
31.1035420898665
30
0
41
1
10
44.7703088644971
20
31.2644276490569
30
0
41
1
10
44.8793693393389
20
31.3715054595127
30
0
41
1
10
44.9339577948923
20
31.425
30
0
0
SPLINE
5
173
100
AcDbEntity
8
1
62
256
6
ByLayer
370
18
48
1
60
0
100
AcDbSpline
70
4
71
3
72
28
73
24
40
0
40
0
40
0
40
0
40
0.052648448798744
40
0.10534031432524
40
0.1580254613988
40
0.210664740901965
40
0.265049716690796
40
0.319504711412735
40
0.373945226606338
40
0.428310431197601
40
0.479258444797046
40
0.530360699704929
40
0.58148530128513
40
0.63253029015958
40
0.683430132997112
40
0.726583759187408
40
0.769883762840669
40
0.813216338312592
40
0.856483736726616
40
0.899609925436716
40
0.94291854206729
40
0.986398952210182
40
1
40
1
40
1
40
1
41
1
10
75.7183676928104
20
30.7809618943233
30
0
41
1
10
75.720696423564
20
30.778645812759
30
0
41
1
10
75.7253146007402
20
30.7740536629088
30
0
41
1
10
75.7321262313236
20
30.7672833657662
30
0
41
1
10
75.7387989866076
20
30.7606538346149
30
0
41
1
10
75.7453866996663
20
30.7541114599967
30
0
41
1
10
75.7518648706875
20
30.7476805195636
30
0
41
1
10
75.758203074248
20
30.7413910159951
30
0
41
1
10
75.7643001155849
20
30.7353431043876
30
0
41
1
10
75.7700008804999
20
30.7296903354808
30
0
41
1
10
75.7752940517729
20
30.7244435485599
30
0
41
1
10
75.7801737325755
20
30.7196081167848
30
0
41
1
10
75.7847207956979
20
30.715103559439
30
0
41
1
10
75.7888881849737
20
30.7109762012649
30
0
41
1
10
75.7924453322573
20
30.7074540860622
30
0
41
1
10
75.795423181315
20
30.7045061475068
30
0
41
1
10
75.7978807157373
20
30.7020736759612
30
0
41
1
10
75.7999663796969
20
30.7000095795756
30
0
41
1
10
75.8016538514909
20
30.6983397657118
30
0
41
1
10
75.8029180967589
20
30.6970888656822
30
0
41
1
10
75.8037378867164
20
30.6962777649443
30
0
41
1
10
75.8039943648835
20
30.6960239148228
30
0
41
1
10
75.8040501248573
20
30.6959688297422
30
0
41
1
10
75.8040572461898
20
30.6959618078748
30
0
0
SPLINE
5
174
100
AcDbEntity
8
1
62
256
6
ByLayer
370
18
48
1
60
0
100
AcDbSpline
70
4
71
3
72
11
73
7
40
0
40
0
40
0
40
0
40
0.24999828039272
40
0.499996568872384
40
0.749998280873791
40
1
40
1
40
1
40
1
41
1
10
75.0660803107842
20
31.425
30
0
41
1
10
75.120668027946
20
31.3715061831566
30
0
41
1
10
75.2297270291075
20
31.2644298223474
30
0
41
1
10
75.3929631100105
20
31.1035449939816
30
0
41
1
10
75.5558583531983
20
30.9423999990508
30
0
41
1
10
75.6642350753402
20
30.8348027356527
30
0
41
1
10
75.7183676928104
20
30.7809618943233
30
0
0
SPLINE
5
175
100
AcDbEntity
8
1
62
256
6
ByLayer
370
18
48
1
60
0
100
AcDbSpline
70
4
71
3
72
26
73
22
40
0
40
0
40
0
40
0
40
0.0455575086292631
40
0.0912957987450317
40
0.13711296799263
40
0.182884030544144
40
0.228469136332414
40
0.273954757801527
40
0.319561235199423
40
0.365230027495264
40
0.410876866154693
40
0.456396431301714
40
0.511290540455325
40
0.566331567435027
40
0.621480870074753
40
0.676668726085167
40
0.731798856437092
40
0.786752542702892
40
0.857810694324303
40
0.928928771139987
40
1
40
1
40
1
40
1
41
1
10
74.9859740144791
20
31.5
30
0
41
1
10
74.9860951042138
20
31.4999972421169
30
0
41
1
10
74.9864815838162
20
31.4998455016305
30
0
41
1
10
74.9875060957245
20
31.4991670599097
30
0
41
1
10
74.9889444521368
20
31.4980666080121
30
0
41
1
10
74.9907770323563
20
31.4965616196522
30
0
41
1
10
74.9929868214897
20
31.4946671920824
30
0
41
1
10
74.9955591638884
20
31.4923971262767
30
0
41
1
10
74.9984594651224
20
31.4897864414753
30
0
41
1
10
75.001663314605
20
31.4868593716077
30
0
41
1
10
75.0051392866342
20
31.4836467150457
30
0
41
1
10
75.0091196286478
20
31.4799330736095
30
0
41
1
10
75.0136473356836
20
31.4756724184404
30
0
41
1
10
75.0187512781476
20
31.4708331914629
30
0
41
1
10
75.0241269914266
20
31.4657042768725
30
0
41
1
10
75.0297375664136
20
31.4603229038841
30
0
41
1
10
75.0355463314019
20
31.454726056581
30
0
41
1
10
75.0421121965759
20
31.44837451222
30
0
41
1
10
75.0494770105294
20
31.4412215606529
30
0
41
1
10
75.0576715276496
20
31.433231414512
30
0
41
1
10
75.0632561698474
20
31.4277676582887
30
0
41
1
10
75.0660803107842
20
31.425
30
0
0
SPLINE
5
176
100
AcDbEntity
8
1
62
256
6
ByLayer
370
18
48
1
60
0
100
AcDbSpline
70
4
71
3
72
26
73
22
40
0
40
0
40
0
40
0
40
0.071457358873258
40
0.142967295274768
40
0.214407594713295
40
0.270033396974209
40
0.325743175226084
40
0.381434845213213
40
0.437035915628901
40
0.486309948021401
40
0.535737147342128
40
0.585189472920764
40
0.634565444017164
40
0.683796380733492
40
0.733452603526039
40
0.783339875097497
40
0.833285044743418
40
0.88313233882177
40
0.932754878164965
40
0.96637740245739
40
1
40
1
40
1
40
1
41
1
10
75.0430699902363
20
31.425
30
0
41
1
10
75.0403924208167
20
31.4277759781818
30
0
41
1
10
75.0351163947604
20
31.4332622714709
30
0
41
1
10
75.0274289265362
20
31.4413049172341
30
0
41
1
10
75.0205683023256
20
31.448532215431
30
0
41
1
10
75.014500817993
20
31.4549685563112
30
0
41
1
10
75.009179079169
20
31.4606525013469
30
0
41
1
10
75.0041094810004
20
31.466109305691
30
0
41
1
10
74.9995069371595
20
31.4711080435701
30
0
41
1
10
74.9953661924595
20
31.475651164432
30
0
41
1
10
74.9916695196045
20
31.4797529330127
30
0
41
1
10
74.9882739682578
20
31.4835715718428
30
0
41
1
10
74.9852165338669
20
31.4870681850018
30
0
41
1
10
74.9825201507873
20
31.4902196921432
30
0
41
1
10
74.980229791575
20
31.4929808151885
30
0
41
1
10
74.9783653245337
20
31.495329641375
30
0
41
1
10
74.9769490988331
20
31.4972392896591
30
0
41
1
10
74.9760053892682
20
31.4986810544355
30
0
41
1
10
74.9756087107646
20
31.4995234451349
30
0
41
1
10
74.9756000164763
20
31.4999226339128
30
0
41
1
10
74.975746113762
20
31.499999936227
30
0
41
1
10
74.9758575008519
20
31.5
30
0
0
SPLINE
5
177
100
AcDbEntity
8
1
62
256
6
ByLayer
370
18
48
1
60
0
100
AcDbSpline
70
4
71
3
72
11
73
7
40
0
40
0
40
0
40
0
40
0.249999089567421
40
0.499998175255705
40
0.749999089827998
40
1
40
1
40
1
40
1
41
1
10
75.6607392445678
20
30.7809618943233
30
0
41
1
10
75.6094334835891
20
30.8347511333483
30
0
41
1
10
75.5067394907218
20
30.9422704303908
30
0
41
1
10
75.3524533784033
20
31.1033743476249
30
0
41
1
10
75.1979141384329
20
31.2642968743699
30
0
41
1
10
75.0947134333067
20
31.3714530040318
30
0
41
1
10
75.0430699902363
20
31.425
30
0
0
SPLINE
5
178
100
AcDbEntity
8
1
62
256
6
ByLayer
370
18
48
1
60
0
100
AcDbSpline
70
4
71
3
72
27
73
23
40
0
40
0
40
0
40
0
40
0.0600738705683482
40
0.120337283310135
40
0.180661830169164
40
0.240943914193097
40
0.301109190988617
40
0.361117448777056
40
0.412848592228229
40
0.46474250377125
40
0.51666022178783
40
0.568494073048944
40
0.620174689431572
40
0.66354950198574
40
0.707071456820146
40
0.750627563914076
40
0.794119449094154
40
0.837468957745283
40
0.880973085193139
40
0.924644171335849
40
0.968374873136792
40
1
40
1
40
1
40
1
41
1
10
75.6607392445678
20
30.7809618943233
30
0
41
1
10
75.6632576768674
20
30.7783219236368
30
0
41
1
10
75.6682362250096
20
30.7730845072854
30
0
41
1
10
75.6755237088582
20
30.7653628360534
30
0
41
1
10
75.6825946625419
20
30.7578091309081
30
0
41
1
10
75.6894073406468
20
30.7504641670326
30
0
41
1
10
75.6959161756604
20
30.7433722642245
30
0
41
1
10
75.7018002342143
20
30.7368819965252
30
0
41
1
10
75.7070766381892
20
30.7309817457884
30
0
41
1
10
75.7117755537208
20
30.7256479622971
30
0
41
1
10
75.7161287015729
20
30.7206175841967
30
0
41
1
10
75.7200884912493
20
30.7159393950993
30
0
41
1
10
75.7234249474332
20
30.7118844870085
30
0
41
1
10
75.7261750307681
20
30.7084225165952
30
0
41
1
10
75.7284055464172
20
30.7054943721203
30
0
41
1
10
75.7302640170641
20
30.7029123723587
30
0
41
1
10
75.7317258158721
20
30.7007048555046
30
0
41
1
10
75.732770762834
20
30.6988937456251
30
0
41
1
10
75.7333681408076
20
30.697510900466
30
0
41
1
10
75.7335259300126
20
30.6965516634874
30
0
41
1
10
75.7332683035386
20
30.6960715350287
30
0
41
1
10
75.7329018539644
20
30.6959687613644
30
0
41
1
10
75.7327112398882
20
30.6959618944176
30
0
0
SPLINE
5
179
100
AcDbEntity
8
1
62
256
6
ByLayer
370
18
48
1
60
0
100
AcDbSpline
70
4
71
3
72
11
73
7
40
0
40
0
40
0
40
0
40
0.249997162771093
40
0.499994313231154
40
0.74999716361286
40
1
40
1
40
1
40
1
41
1
10
75.6325112089785
20
30.7809618943233
30
0
41
1
10
75.5750296717397
20
30.834867966924
30
0
41
1
10
75.4599209170388
20
30.9425629737461
30
0
41
1
10
75.2868240274836
20
31.103759710298
30
0
41
1
10
75.1132795559847
20
31.2645974301082
30
0
41
1
10
74.9972748652119
20
31.3715735770831
30
0
41
1
10
74.9391964783596
20
31.425
30
0
0
SPLINE
5
17A
100
AcDbEntity
8
1
62
256
6
ByLayer
370
18
48
1
60
0
100
AcDbSpline
70
4
71
3
72
25
73
21
40
0
40
0
40
0
40
0
40
0.0679325461190528
40
0.136076815299983
40
0.204292487409295
40
0.272464579177701
40
0.340508130690043
40
0.408373338828555
40
0.464662963088589
40
0.521118147869673
40
0.577593681103128
40
0.633980387095833
40
0.690212414075134
40
0.734958063965697
40
0.779848520751391
40
0.824764397607062
40
0.869609578266399
40
0.914317134737576
40
0.957159626008307
40
1
40
1
40
1
40
1
41
1
10
74.9391964783596
20
31.425
30
0
41
1
10
74.9363092155257
20
31.427656275028
30
0
41
1
10
74.9305732300742
20
31.4329042978581
30
0
41
1
10
74.9220927298338
20
31.4405771091022
30
0
41
1
10
74.9137697802463
20
31.4480134350364
30
0
41
1
10
74.9056466639392
20
31.455170348414
30
0
41
1
10
74.8977692302725
20
31.4620010560789
30
0
41
1
10
74.8906057350448
20
31.4680997126537
30
0
41
1
10
74.8841340640917
20
31.4735010085679
30
0
41
1
10
74.8783215781047
20
31.4782504338151
30
0
41
1
10
74.8727905146211
20
31.4826574713861
30
0
41
1
10
74.8675913014072
20
31.486673717786
30
0
41
1
10
74.8630956409966
20
31.4900128503043
30
0
41
1
10
74.8592586570484
20
31.4927322820036
30
0
41
1
10
74.8560121701694
20
31.4949126992532
30
0
41
1
10
74.8530794085239
20
31.4967461639394
30
0
41
1
10
74.8504938298212
20
31.4982044180841
30
0
41
1
10
74.8483188672323
20
31.4992438919829
30
0
41
1
10
74.8465619964647
20
31.4998617450344
30
0
41
1
10
74.8456686467984
20
31.4999983490498
30
0
41
1
10
74.845286143856
20
31.5
30
0
0
SPLINE
5
17B
100
AcDbEntity
8
1
62
256
6
ByLayer
370
18
48
1
60
0
100
AcDbSpline
70
4
71
3
72
27
73
23
40
0
40
0
40
0
40
0
40
0.0431426659771197
40
0.0864436670287081
40
0.129795492596031
40
0.173090857947959
40
0.216228779909935
40
0.259534833746913
40
0.302980177998478
40
0.346487389361665
40
0.389960376165641
40
0.433289689801443
40
0.488395068050863
40
0.543637968139542
40
0.59890856090804
40
0.654051792631355
40
0.71153860913142
40
0.76917622926149
40
0.826926260815151
40
0.884717325738088
40
0.942449778629882
40
1
40
1
40
1
40
1
41
1
10
74.8146276649373
20
31.5
30
0
41
1
10
74.8142413019843
20
31.4999990169043
30
0
41
1
10
74.8135876343937
20
31.4998760422253
30
0
41
1
10
74.8129691073357
20
31.4993241803913
30
0
41
1
10
74.8127126059036
20
31.4984126639829
30
0
41
1
10
74.8128220961534
20
31.4971454470756
30
0
41
1
10
74.8133035905683
20
31.495521568889
30
0
41
1
10
74.8141660030085
20
31.4935369602628
30
0
41
1
10
74.8153884494015
20
31.4912153711699
30
0
41
1
10
74.8169522951461
20
31.4885813674135
30
0
41
1
10
74.8188376285711
20
31.4856609580432
30
0
41
1
10
74.8212291851181
20
31.4821836447084
30
0
41
1
10
74.8242164939231
20
31.4780759571072
30
0
41
1
10
74.827859000868
20
31.4732949880218
30
0
41
1
10
74.8318839819327
20
31.4682020351643
30
0
41
1
10
74.8363128354645
20
31.4627638885455
30
0
41
1
10
74.8411315451033
20
31.4569985445832
30
0
41
1
10
74.846321116523
20
31.4509258801529
30
0
41
1
10
74.8517832019273
20
31.4446558584164
30
0
41
1
10
74.8574799061071
20
31.438225616131
30
0
41
1
10
74.8633763962174
20
31.4316694570881
30
0
41
1
10
74.8674202269193
20
31.4272333764957
30
0
41
1
10
74.8694696540584
20
31.425
30
0
0
SPLINE
5
17C
100
AcDbEntity
8
1
62
256
6
ByLayer
370
18
48
1
60
0
100
AcDbSpline
70
4
71
3
72
11
73
7
40
0
40
0
40
0
40
0
40
0.249999538622056
40
0.499999079405741
40
0.749999538750196
40
1
40
1
40
1
40
1
41
1
10
74.8694696540584
20
31.425
30
0
41
1
10
74.9186351301934
20
31.3714123147424
30
0
41
1
10
75.0169057298858
20
31.264195509543
30
0
41
1
10
75.1641286882232
20
31.1032442789643
30
0
41
1
10
75.3111748933315
20
30.9421715927213
30
0
41
1
10
75.4090916576654
20
30.834711623492
30
0
41
1
10
75.4580211837598
20
30.7809618943233
30
0
0
SPLINE
5
17D
100
AcDbEntity
8
1
62
256
6
ByLayer
370
18
48
1
60
0
100
AcDbSpline
70
4
71
3
72
28
73
24
40
0
40
0
40
0
40
0
40
0.0657099055372001
40
0.131451336144667
40
0.197154977747995
40
0.247507994883354
40
0.297901565888199
40
0.348288535363145
40
0.39863254294615
40
0.446951530809302
40
0.495405011259601
40
0.543902206891655
40
0.592369836348126
40
0.640754998257878
40
0.689028324277339
40
0.734565551430606
40
0.780251743887788
40
0.825960550077316
40
0.871593314186202
40
0.917085587977128
40
0.955392613150553
40
0.993830081453772
40
1
40
1
40
1
40
1
41
1
10
75.4007702700956
20
30.7809618943233
30
0
41
1
10
75.4040861244397
20
30.7780494115966
30
0
41
1
10
75.4106760634594
20
30.7723028491849
30
0
41
1
10
75.4204415465129
20
30.7639112726853
30
0
41
1
10
75.4293047003388
20
30.7564164673326
30
0
41
1
10
75.4372843247492
20
30.7497721502772
30
0
41
1
10
75.4444080660833
20
30.7439263852756
30
0
41
1
10
75.4513928438284
20
30.7382855116029
30
0
41
1
10
75.4581269513528
20
30.7329422220423
30
0
41
1
10
75.4646029743986
20
30.7279027232561
30
0
41
1
10
75.4708116485959
20
30.7231742210711
30
0
41
1
10
75.4768174199513
20
30.7187115129251
30
0
41
1
10
75.4825847772517
20
30.7145473610706
30
0
41
1
10
75.4880778139699
20
30.7107149585617
30
0
41
1
10
75.4931683432934
20
30.7073085314469
30
0
41
1
10
75.4978447667476
20
30.7043369489286
30
0
41
1
10
75.5021021949381
20
30.7017997489122
30
0
41
1
10
75.5059981517784
20
30.6996674594838
30
0
41
1
10
75.5094884967198
20
30.6979754089558
30
0
41
1
10
75.5123671087877
20
30.6968271439263
30
0
41
1
10
75.514693000699
20
30.6961541235154
30
0
41
1
10
75.5159699098449
20
30.6960061775363
30
0
41
1
10
75.5166176375852
20
30.6959661673198
30
0
41
1
10
75.5167059926675
20
30.6959618944731
30
0
0
SPLINE
5
17E
100
AcDbEntity
8
1
62
256
6
ByLayer
370
18
48
1
60
0
100
AcDbSpline
70
4
71
3
72
13
73
9
40
0
40
0
40
0
40
0
40
0.166663399094996
40
0.333326991398295
40
0.499990406667149
40
0.666660208797876
40
0.833330183663786
40
1
40
1
40
1
40
1
41
1
10
74.6585265646634
20
31.425
30
0
41
1
10
74.7000193481135
20
31.3894445029373
30
0
41
1
10
74.7829176618651
20
31.3182574316465
30
0
41
1
10
74.9070012139298
20
31.2112465528746
30
0
41
1
10
75.0308284372702
20
31.1040105550265
30
0
41
1
10
75.1544033288766
20
30.9965537412975
30
0
41
1
10
75.2777296111253
20
30.8888801409863
30
0
41
1
10
75.3597841115923
20
30.8169581217098
30
0
41
1
10
75.4007702700956
20
30.7809618943233
30
0
0
SPLINE
5
17F
100
AcDbEntity
8
1
62
256
6
ByLayer
370
18
48
1
60
0
100
AcDbSpline
70
4
71
3
72
27
73
23
40
0
40
0
40
0
40
0
40
0.040330212441679
40
0.0807072536043958
40
0.121046042561739
40
0.162840696581543
40
0.20467503229906
40
0.24647831772444
40
0.296640968715515
40
0.346853087047599
40
0.397028271890189
40
0.448619143940647
40
0.500247021982133
40
0.551846528915305
40
0.60700711712794
40
0.662224897812557
40
0.717452242526186
40
0.772625885704511
40
0.829443946840176
40
0.886306938022337
40
0.94317500794536
40
1
40
1
40
1
40
1
41
1
10
74.5494198616337
20
31.5
30
0
41
1
10
74.5500559740975
20
31.4999977554978
30
0
41
1
10
74.5514418202765
20
31.4998722579288
30
0
41
1
10
74.5538708754243
20
31.4993123156226
30
0
41
1
10
74.5566485080789
20
31.4983952501123
30
0
41
1
10
74.5597684896695
20
31.4971204541945
30
0
41
1
10
74.5632122546728
20
31.4955003274198
30
0
41
1
10
74.5671646845324
20
31.4934430093262
30
0
41
1
10
74.5716621506806
20
31.4908969742304
30
0
41
1
10
74.5767266205639
20
31.4878237936691
30
0
41
1
10
74.5821092160926
20
31.4843737781393
30
0
41
1
10
74.5877867766681
20
31.4805662095048
30
0
41
1
10
74.5937367832086
20
31.4764211178182
30
0
41
1
10
74.6000217194493
20
31.4718987269122
30
0
41
1
10
74.6066331141386
20
31.4670018557883
30
0
41
1
10
74.613561780396
20
31.4617342758325
30
0
41
1
10
74.6206382969544
20
31.4562284511149
30
0
41
1
10
74.6279121002022
20
31.4504506270201
30
0
41
1
10
74.6353714295731
20
31.4444113406629
30
0
41
1
10
74.6430057730405
20
31.4381197847138
30
0
41
1
10
74.6507269559422
20
31.4316510499711
30
0
41
1
10
74.6559191296015
20
31.4272345933047
30
0
41
1
10
74.6585265646634
20
31.425
30
0
0
SPLINE
5
180
100
AcDbEntity
8
1
62
256
6
ByLayer
370
18
48
1
60
0
100
AcDbSpline
70
4
71
3
72
26
73
22
40
0
40
0
40
0
40
0
40
0.0623355332095773
40
0.124856278541634
40
0.187396754214184
40
0.249834976839479
40
0.312101098979471
40
0.360769921022562
40
0.409598389824259
40
0.458453375873491
40
0.507228993690412
40
0.555853347450484
40
0.604881075665599
40
0.654138603795591
40
0.703459880547323
40
0.752689401546281
40
0.801693530839044
40
0.85118445917735
40
0.900830112458393
40
0.950489831765368
40
1
40
1
40
1
40
1
41
1
10
74.5398863444987
20
31.425
30
0
41
1
10
74.5377554587843
20
31.4274240097881
30
0
41
1
10
74.5335751302541
20
31.4322395256594
30
0
41
1
10
74.5275485515883
20
31.439361742404
30
0
41
1
10
74.5218155367951
20
31.446340261069
30
0
41
1
10
74.5164267424725
20
31.4531270933588
30
0
41
1
10
74.5117934865471
20
31.4592021198663
30
0
41
1
10
74.5078641787337
20
31.4645853717663
30
0
41
1
10
74.5045626084548
20
31.4693190456206
30
0
41
1
10
74.5015806754559
20
31.4738323179711
30
0
41
1
10
74.4989546836711
20
31.4780841207094
30
0
41
1
10
74.4967087271623
20
31.4820517911684
30
0
41
1
10
74.4948884640508
20
31.4856925672057
30
0
41
1
10
74.4935084610907
20
31.4889844885811
30
0
41
1
10
74.4925829280224
20
31.4918957223544
30
0
41
1
10
74.4921286261422
20
31.4943924550487
30
0
41
1
10
74.4921642280266
20
31.4964506445554
30
0
41
1
10
74.492711790662
20
31.4980387392249
30
0
41
1
10
74.4937431587753
20
31.4991716752177
30
0
41
1
10
74.4952370716211
20
31.4998491429964
30
0
41
1
10
74.4965258701571
20
31.4999998955517
30
0
41
1
10
74.4972435954311
20
31.5
30
0
0
SPLINE
5
181
100
AcDbEntity
8
1
62
256
6
ByLayer
370
18
48
1
60
0
100
AcDbSpline
70
4
71
2
72
6
73
3
40
0
40
0
40
0
40
1
40
1
40
1
41
1
10
75.1043728237053
20
30.7809618943233
30
0
41
1
10
74.822580330455
20
31.1032772497632
30
0
41
1
10
74.5398863444987
20
31.425
30
0
0
SPLINE
5
182
100
AcDbEntity
8
1
62
256
6
ByLayer
370
18
48
1
60
0
100
AcDbSpline
70
4
71
3
72
29
73
25
40
0
40
0
40
0
40
0
40
0.0510988476413637
40
0.102343659202334
40
0.153635369128021
40
0.204894287036027
40
0.256063323643116
40
0.307111522702439
40
0.355091569400262
40
0.403229046421203
40
0.451392311310585
40
0.499476972553639
40
0.54741258060303
40
0.595750010604317
40
0.644314527719404
40
0.692942321275565
40
0.741479689014834
40
0.789794242578741
40
0.83125607044684
40
0.872851781258897
40
0.914504686532853
40
0.956122695530303
40
0.997603286274789
40
1
40
1
40
1
40
1
41
1
10
75.1043728237053
20
30.7809618943233
30
0
41
1
10
75.1063424719462
20
30.7787098157454
30
0
41
1
10
75.1102205813646
20
30.7742272024517
30
0
41
1
10
75.1158516315361
20
30.7675737096113
30
0
41
1
10
75.121266593477
20
30.7610145494842
30
0
41
1
10
75.1264329905617
20
30.7545798743033
30
0
41
1
10
75.1313151209887
20
30.7483023936752
30
0
41
1
10
75.1357918873141
20
30.7423302861366
30
0
41
1
10
75.1398530259621
20
30.7366755459228
30
0
41
1
10
75.143497461871
20
30.7313464063717
30
0
41
1
10
75.1467798763762
20
30.7262569487199
30
0
41
1
10
75.1496590760307
20
30.7214528187185
30
0
41
1
10
75.1521074883872
20
30.7169587567913
30
0
41
1
10
75.1540726999384
20
30.7128220088888
30
0
41
1
10
75.155537983025
20
30.7090669157732
30
0
41
1
10
75.1564879187923
20
30.7057292312188
30
0
41
1
10
75.1569039980092
20
30.7028469556678
30
0
41
1
10
75.1567725105455
20
30.7005668437275
30
0
41
1
10
75.1561649920384
20
30.6988374461395
30
0
41
1
10
75.1551914739905
20
30.6975644061801
30
0
41
1
10
75.1538356385281
20
30.696653259531
30
0
41
1
10
75.1521157159866
20
30.6961005441623
30
0
41
1
10
75.150694068777
20
30.6959653059392
30
0
41
1
10
75.1499006188001
20
30.6959618843525
30
0
41
1
10
75.149857084743
20
30.6959618943519
30
0
0
SPLINE
5
183
100
AcDbEntity
8
1
62
256
6
ByLayer
370
18
48
1
60
0
100
AcDbSpline
70
4
71
3
72
13
73
9
40
0
40
0
40
0
40
0
40
0.166661612839986
40
0.333323479047844
40
0.499985068572862
40
0.666656626642219
40
0.833328468542915
40
1
40
1
40
1
40
1
41
1
10
75.0163922867428
20
30.7809618943233
30
0
41
1
10
74.9721868725687
20
30.8170352523434
30
0
41
1
10
74.8836719470497
20
30.8890858573539
30
0
41
1
10
74.7505898536594
20
30.9968760753002
30
0
41
1
10
74.6171883266026
20
31.104374252541
30
0
41
1
10
74.4834626983891
20
31.2115746254588
30
0
41
1
10
74.3494079553758
20
31.3184710418339
30
0
41
1
10
74.2598155159372
20
31.3895250690561
30
0
41
1
10
74.2149641036382
20
31.425
30
0
0
SPLINE
5
184
100
AcDbEntity
8
1
62
256
6
ByLayer
370
18
48
1
60
0
100
AcDbSpline
70
4
71
3
72
27
73
23
40
0
40
0
40
0
40
0
40
0.0608225769398563
40
0.1216927014174
40
0.182557804448544
40
0.243373528505199
40
0.306022193534152
40
0.368741706923003
40
0.431447219363596
40
0.494076769816723
40
0.540298361522904
40
0.586538784167617
40
0.632755104034288
40
0.679884159997634
40
0.727040825958476
40
0.774160388392066
40
0.811316453521946
40
0.84849225829668
40
0.885642683083638
40
0.923754721920034
40
0.961896313707843
40
1
40
1
40
1
40
1
41
1
10
74.2149641036382
20
31.425
30
0
41
1
10
74.211916992531
20
31.4274104378198
30
0
41
1
10
74.205841217073
20
31.4321645214335
30
0
41
1
10
74.1967820741432
20
31.4390977590379
30
0
41
1
10
74.1877999284732
20
31.4458095216679
30
0
41
1
10
74.1788232346369
20
31.4523466985999
30
0
41
1
10
74.1698710781793
20
31.458682810458
30
0
41
1
10
74.1609693342316
20
31.4647837794737
30
0
41
1
10
74.1522370827562
20
31.4705549174479
30
0
41
1
10
74.1444526247336
20
31.4754896222647
30
0
41
1
10
74.1375845820486
20
31.4796640960159
30
0
41
1
10
74.1315886196534
20
31.4831614515261
30
0
41
1
10
74.1257189928545
20
31.4864252695446
30
0
41
1
10
74.120001305701
20
31.489427757153
30
0
41
1
10
74.1144666994505
20
31.4921368829983
30
0
41
1
10
74.1095542630022
20
31.4943384133888
30
0
41
1
10
74.1052334311749
20
31.4960867626339
30
0
41
1
10
74.1014619754765
20
31.4974445610823
30
0
41
1
10
74.0978745237368
20
31.4985480533917
30
0
41
1
10
74.0945020514291
20
31.4993686677692
30
0
41
1
10
74.091372706981
20
31.499882440823
30
0
41
1
10
74.0894924117416
20
31.4999976727355
30
0
41
1
10
74.088602118083
20
31.5
30
0
0
SPLINE
5
185
100
AcDbEntity
8
1
62
256
6
ByLayer
370
18
48
1
60
0
100
AcDbSpline
70
4
71
3
72
27
73
23
40
0
40
0
40
0
40
0
40
0.0524086979158131
40
0.104980016941753
40
0.157524074725401
40
0.209895479269544
40
0.252221695755108
40
0.294708068952718
40
0.337248570392751
40
0.379734344898591
40
0.422060057356173
40
0.472252519079549
40
0.522599039490648
40
0.572968308555491
40
0.623191883770941
40
0.677972230295393
40
0.732922818531287
40
0.787973470694328
40
0.843003487775096
40
0.897850666597731
40
0.948924157964853
40
1
40
1
40
1
40
1
41
1
10
74.0130990335931
20
31.5
30
0
41
1
10
74.0120508947485
20
31.5000009067109
30
0
41
1
10
74.0101047751359
20
31.4998442965712
30
0
41
1
10
74.0076313193881
20
31.4991388019613
30
0
41
1
10
74.0056487791736
20
31.4979454367687
30
0
41
1
10
74.0042867498768
20
31.4963582955131
30
0
41
1
10
74.0034743280425
20
31.4944620561259
30
0
41
1
10
74.0030969826531
20
31.492369579136
30
0
41
1
10
74.0030929139121
20
31.4899573911203
30
0
41
1
10
74.0034624654275
20
31.4872432572708
30
0
41
1
10
74.00425498122
20
31.4840520368941
30
0
41
1
10
74.0055599776469
20
31.4803252664047
30
0
41
1
10
74.0074263595642
20
31.4760430927236
30
0
41
1
10
74.0097481739163
20
31.4714552276059
30
0
41
1
10
74.0125779665129
20
31.4664556001513
30
0
41
1
10
74.0159363716868
20
31.4610465393032
30
0
41
1
10
74.0198160340914
20
31.4552467927084
30
0
41
1
10
74.0240760614248
20
31.4492524963574
30
0
41
1
10
74.0286658719241
20
31.4431128441381
30
0
41
1
10
74.0334352485841
20
31.4370056329372
30
0
41
1
10
74.0383330440797
20
31.4309627647387
30
0
41
1
10
74.0416493865972
20
31.4269946447187
30
0
41
1
10
74.04334204051
20
31.425
30
0
0
SPLINE
5
186
100
AcDbEntity
8
1
62
256
6
ByLayer
370
18
48
1
60
0
100
AcDbSpline
70
4
71
2
72
6
73
3
40
0
40
0
40
0
40
1
40
1
40
1
41
1
10
74.04334204051
20
31.425
30
0
41
1
10
74.3163208176996
20
31.103132590166
30
0
41
1
10
74.5888221494406
20
30.7809618943233
30
0
0
SPLINE
5
187
100
AcDbEntity
8
1
62
256
6
ByLayer
370
18
48
1
60
0
100
AcDbSpline
70
4
71
3
72
27
73
23
40
0
40
0
40
0
40
0
40
0.0634490895874874
40
0.126948551326906
40
0.190442685691077
40
0.25388450479711
40
0.306194424553396
40
0.358566693830522
40
0.410949953469137
40
0.463303234372339
40
0.515597209873972
40
0.561713989809287
40
0.607942958296281
40
0.654206411046057
40
0.70044286994546
40
0.746609474586192
40
0.792684586769714
40
0.836396138986798
40
0.880248657928
40
0.924116031504134
40
0.96790530915467
40
1
40
1
40
1
40
1
41
1
10
74.4672161602255
20
30.7809618943233
30
0
41
1
10
74.471007313995
20
30.778114918559
30
0
41
1
10
74.4785703747941
20
30.7725055409363
30
0
41
1
10
74.4898584336696
20
30.7643423662356
30
0
41
1
10
74.5010610635523
20
30.756457944655
30
0
41
1
10
74.5115070896573
20
30.7493171120922
30
0
41
1
10
74.5212007369723
20
30.7428787529768
30
0
41
1
10
74.5301537447617
20
30.7370990615639
30
0
41
1
10
74.5389884646985
20
30.7315717932544
30
0
41
1
10
74.5476784301622
20
30.7263216440259
30
0
41
1
10
74.5558660526244
20
30.7215655121182
30
0
41
1
10
74.5635586794663
20
30.7172812821929
30
0
41
1
10
74.5707643758006
20
30.7134470034475
30
0
41
1
10
74.5777865328189
20
30.7099044026669
30
0
41
1
10
74.5845891885951
20
30.7066843092145
30
0
41
1
10
74.5911359268874
20
30.7038181000645
30
0
41
1
10
74.5972889724757
20
30.7013760566879
30
0
41
1
10
74.6030341864421
20
30.6993686038335
30
0
41
1
10
74.6083570644705
20
30.697802235033
30
0
41
1
10
74.6133150184981
20
30.6966746861513
30
0
41
1
10
74.6174556029945
20
30.6960792651314
30
0
41
1
10
74.6198382127903
20
30.6959649349411
30
0
41
1
10
74.6208051335625
20
30.6959618954492
30
0
0
SPLINE
5
188
100
AcDbEntity
8
1
62
256
6
ByLayer
370
18
48
1
60
0
100
AcDbSpline
70
4
71
3
72
13
73
9
40
0
40
0
40
0
40
0
40
0.166658321525437
40
0.333317138668936
40
0.499975503906799
40
0.666650176396258
40
0.833325289270451
40
1
40
1
40
1
40
1
41
1
10
73.5925715401487
20
31.425
30
0
41
1
10
73.6415719937188
20
31.3896436043642
30
0
41
1
10
73.7394338116992
20
31.3187871324008
30
0
41
1
10
73.8858057566436
20
31.2120672687246
30
0
41
1
10
74.0317708038758
20
31.1049221179872
30
0
41
1
10
74.1773350240079
20
30.9973604501422
30
0
41
1
10
74.3225040664232
20
30.8893904890104
30
0
41
1
10
74.419022629551
20
30.8171487976801
30
0
41
1
10
74.4672161602255
20
30.7809618943233
30
0
0
SPLINE
5
189
100
AcDbEntity
8
1
62
256
6
ByLayer
370
18
48
1
60
0
100
AcDbSpline
70
4
71
3
72
26
73
22
40
0
40
0
40
0
40
0
40
0.0447950599600143
40
0.0896466323306664
40
0.134458733468639
40
0.180804954907739
40
0.227190565296574
40
0.273548123147931
40
0.320746134757648
40
0.36799080334059
40
0.415245190652956
40
0.462456467676685
40
0.527115024521973
40
0.591816773493215
40
0.656485545151035
40
0.713388243748175
40
0.770312206880714
40
0.827217920204881
40
0.88480536393576
40
0.942411118140355
40
1
40
1
40
1
40
1
41
1
10
73.4458839070463
20
31.5
30
0
41
1
10
73.4473223302338
20
31.4999955188733
30
0
41
1
10
73.4503287375649
20
31.4998335437621
30
0
41
1
10
73.4552449517052
20
31.4991136456508
30
0
41
1
10
73.4605582435569
20
31.4979565410246
30
0
41
1
10
73.4662435220996
20
31.496375956658
30
0
41
1
10
73.4722692086277
20
31.4943936552115
30
0
41
1
10
73.4785743767507
20
31.4920447798597
30
0
41
1
10
73.4851321085435
20
31.4893520876347
30
0
41
1
10
73.4919210258892
20
31.4863342524367
30
0
41
1
10
73.4988759383529
20
31.4830318535657
30
0
41
1
10
73.506846908681
20
31.4790292755839
30
0
41
1
10
73.5158774091205
20
31.4742296041342
30
0
41
1
10
73.5259959918622
20
31.4685416278844
30
0
41
1
10
73.5358655896955
20
31.462718554092
30
0
41
1
10
73.5454376074184
20
31.4568401383422
30
0
41
1
10
73.5546796532882
20
31.4509673541318
30
0
41
1
10
73.5640301415033
20
31.4448363626617
30
0
41
1
10
73.5734756837303
20
31.4384592398599
30
0
41
1
10
73.5830055159921
20
31.4318444572487
30
0
41
1
10
73.5893792100659
20
31.4273036454759
30
0
41
1
10
73.5925715401487
20
31.425
30
0
0
SPLINE
5
18A
100
AcDbEntity
8
1
62
256
6
ByLayer
370
18
48
1
60
0
100
AcDbSpline
70
4
71
3
72
29
73
25
40
0
40
0
40
0
40
0
40
0.0507051749146955
40
0.101544323134184
40
0.152397229194121
40
0.203175827788121
40
0.253830089726208
40
0.296797510014973
40
0.339909825132453
40
0.383048248899959
40
0.426116495123907
40
0.469046832717432
40
0.512256666639994
40
0.555654166337563
40
0.5991128889231
40
0.642505166877981
40
0.685710602294298
40
0.733612944654098
40
0.781663285228752
40
0.829736320856182
40
0.877669703905035
40
0.918432341665837
40
0.959229754378839
40
1
40
1
40
1
40
1
41
1
10
73.3612353228132
20
31.425
30
0
41
1
10
73.3595834785299
20
31.4269968453819
30
0
41
1
10
73.3563576646537
20
31.4309799887224
30
0
41
1
10
73.3517503264905
20
31.4369195437712
30
0
41
1
10
73.3474148917919
20
31.4427958361929
30
0
41
1
10
73.3433906986927
20
31.4485757889103
30
0
41
1
10
73.3399010188226
20
31.4539440883065
30
0
41
1
10
73.3369238149562
20
31.4588969937373
30
0
41
1
10
73.3344160791967
20
31.4634424461492
30
0
41
1
10
73.3322322381146
20
31.4678334188168
30
0
41
1
10
73.3304026623202
20
31.4720331738265
30
0
41
1
10
73.3289500503356
20
31.4760204723483
30
0
41
1
10
73.3279131930028
20
31.479761397528
30
0
41
1
10
73.3272954225393
20
31.4832399785847
30
0
41
1
10
73.327097951563
20
31.4864298341714
30
0
41
1
10
73.3273239707261
20
31.489302694732
30
0
41
1
10
73.3280039861149
20
31.4919258799872
30
0
41
1
10
73.3291986109611
20
31.4942358547366
30
0
41
1
10
73.330920296556
20
31.496203498195
30
0
41
1
10
73.3330949179605
20
31.4977563064296
30
0
41
1
10
73.3355632175524
20
31.4988412741367
30
0
41
1
10
73.3382296034978
20
31.499534164893
30
0
41
1
10
73.3410069871958
20
31.4999168151063
30
0
41
1
10
73.3430127248801
20
31.5000012977861
30
0
41
1
10
73.3440552359316
20
31.5
30
0
0
SPLINE
5
18B
100
AcDbEntity
8
1
62
256
6
ByLayer
370
18
48
1
60
0
100
AcDbSpline
70
4
71
1
72
4
73
2
40
0
40
0
40
1
40
1
41
1
10
73.8933573394908
20
30.7809618943233
30
0
41
1
10
73.3612353228132
20
31.425
30
0
0
SPLINE
5
18C
100
AcDbEntity
8
1
62
256
6
ByLayer
370
18
48
1
60
0
100
AcDbSpline
70
4
71
3
72
29
73
25
40
0
40
0
40
0
40
0
40
0.0501896158584115
40
0.100510818873064
40
0.150845351787233
40
0.201106736220104
40
0.251246054813676
40
0.293772525608441
40
0.336442355790751
40
0.379137555304303
40
0.421762891461319
40
0.464251921927543
40
0.507026633513404
40
0.549988774713727
40
0.59301164460011
40
0.635967755010742
40
0.678737386406486
40
0.725958662857332
40
0.773326010907287
40
0.820716043192915
40
0.867968345616214
40
0.920117961790708
40
0.972427689237805
40
1
40
1
40
1
40
1
41
1
10
73.8933573394908
20
30.7809618943233
30
0
41
1
10
73.8952122079419
20
30.7787176506643
30
0
41
1
10
73.8988344011976
20
30.7742404828442
30
0
41
1
10
73.904007771411
20
30.7675627455546
30
0
41
1
10
73.9088754063202
20
30.7609539802984
30
0
41
1
10
73.9133930107313
20
30.7544508488219
30
0
41
1
10
73.9173096837631
20
30.7484079264373
30
0
41
1
10
73.9206501201421
20
30.7428294396573
30
0
41
1
10
73.9234620794687
20
30.7377067313455
30
0
41
1
10
73.9259083516261
20
30.7327543960545
30
0
41
1
10
73.9279541072584
20
30.7280135410377
30
0
41
1
10
73.9295733565087
20
30.7235074780784
30
0
41
1
10
73.9307211461759
20
30.7192741992074
30
0
41
1
10
73.9313927086342
20
30.7153318293866
30
0
41
1
10
73.9315862717706
20
30.7117105095435
30
0
41
1
10
73.9312977380287
20
30.7084423452614
30
0
41
1
10
73.9304918943217
20
30.7054548394317
30
0
41
1
10
73.9291018881241
20
30.7028167747562
30
0
41
1
10
73.9271162917335
20
30.7005578354824
30
0
41
1
10
73.9246184225234
20
30.6987573577682
30
0
41
1
10
73.9215396069228
20
30.6973643847247
30
0
41
1
10
73.9178536040557
20
30.6964229993593
30
0
41
1
10
73.9142349413204
20
30.6960311353415
30
0
41
1
10
73.9118923990175
20
30.695963655397
30
0
41
1
10
73.9110638524866
20
30.6959618970051
30
0
0
SPLINE
5
18D
100
AcDbEntity
8
1
62
256
6
ByLayer
370
18
48
1
60
0
100
AcDbSpline
70
4
71
3
72
15
73
11
40
0
40
0
40
0
40
0
40
0.12499020336271
40
0.249980970136583
40
0.374971705312762
40
0.499961865587514
40
0.624971102218458
40
0.749980975590615
40
0.874990812750154
40
1
40
1
40
1
40
1
41
1
10
73.7334861747294
20
30.7809618943233
30
0
41
1
10
73.6935250557322
20
30.8082201324165
30
0
41
1
10
73.6135092927642
20
30.8626333687304
30
0
41
1
10
73.4932070255125
20
30.9439457296012
30
0
41
1
10
73.3726217509671
20
31.0249429091848
30
0
41
1
10
73.2517446720371
20
31.1056239263951
30
0
41
1
10
73.1305723408586
20
31.1859831989104
30
0
41
1
10
73.0091010997867
20
31.2660147134897
30
0
41
1
10
72.8873343367996
20
31.3457088803382
30
0
41
1
10
72.8059565290915
20
31.3986077770802
30
0
41
1
10
72.765217971904
20
31.425
30
0
0
SPLINE
5
18E
100
AcDbEntity
8
1
62
256
6
ByLayer
370
18
48
1
60
0
100
AcDbSpline
70
4
71
3
72
27
73
23
40
0
40
0
40
0
40
0
40
0.071475534976458
40
0.143010957700959
40
0.214541932374015
40
0.286011396674561
40
0.34500807704135
40
0.404077284164163
40
0.463158611004311
40
0.522204437906152
40
0.581181485567866
40
0.632910626054204
40
0.684661053187345
40
0.736382159829297
40
0.776018342163077
40
0.815689761877016
40
0.855352001709458
40
0.894975654363414
40
0.921164384387488
40
0.947352578058055
40
0.973676644710736
40
1
40
1
40
1
40
1
41
1
10
72.765217971904
20
31.425
30
0
41
1
10
72.7607535173548
20
31.4278927118188
30
0
41
1
10
72.7518316034625
20
31.4335653478068
30
0
41
1
10
72.7384690836377
20
31.4417386960716
30
0
41
1
10
72.7251597438951
20
31.4495474637603
30
0
41
1
10
72.7126982030661
20
31.4565377030212
30
0
41
1
10
72.7010870637715
20
31.4627668606287
30
0
41
1
10
72.6903203367328
20
31.4682910428345
30
0
41
1
10
72.6796561298987
20
31.4734960799993
30
0
41
1
10
72.6691252912844
20
31.4783533460807
30
0
41
1
10
72.6591780693215
20
31.4826532114813
30
0
41
1
10
72.6498153449673
20
31.4864227008778
30
0
41
1
10
72.6410366896433
20
31.4896864087803
30
0
41
1
10
72.6331218773505
20
31.4923569070667
30
0
41
1
10
72.6260463916066
20
31.4945031121569
30
0
41
1
10
72.6197758617436
20
31.4961972819136
30
0
41
1
10
72.6136821388361
20
31.4976156595639
30
0
41
1
10
72.6084571225374
20
31.4986091845716
30
0
41
1
10
72.6040474346957
20
31.4992688137641
30
0
41
1
10
72.6003859150114
20
31.499683480689
30
0
41
1
10
72.5968386826006
20
31.499941127767
30
0
41
1
10
72.5945618610559
20
31.4999989371167
30
0
41
1
10
72.5934455352914
20
31.5
30
0
0
SPLINE
5
18F
100
AcDbEntity
8
1
62
256
6
ByLayer
370
18
48
1
60
0
100
AcDbSpline
70
4
71
3
72
28
73
24
40
0
40
0
40
0
40
0
40
0.054124818810294
40
0.108378108661906
40
0.162590230367873
40
0.216658769637118
40
0.26065054245576
40
0.304842543118737
40
0.349072238384854
40
0.393205691164361
40
0.437148140833394
40
0.485665099042692
40
0.534389558328426
40
0.583125462020574
40
0.631658092292893
40
0.676084641510304
40
0.720630742691756
40
0.765201054235489
40
0.809660703089761
40
0.85718954302592
40
0.904804049560589
40
0.952440789605831
40
1
40
1
40
1
40
1
41
1
10
72.4603638620473
20
31.5
30
0
41
1
10
72.4586595968235
20
31.500003135933
30
0
41
1
10
72.4553710621398
20
31.4998680651998
30
0
41
1
10
72.4507864173377
20
31.4992556206707
30
0
41
1
10
72.4466236344432
20
31.4981889931269
30
0
41
1
10
72.4431668124524
20
31.4967368954244
30
0
41
1
10
72.4403818847501
20
31.4949573051207
30
0
41
1
10
72.4381892146535
20
31.4929415849818
30
0
41
1
10
72.4364157706871
20
31.490566792214
30
0
41
1
10
72.4350973462995
20
31.4878369532303
30
0
41
1
10
72.4342382736398
20
31.4846446488813
30
0
41
1
10
72.4339437483449
20
31.4809347333285
30
0
41
1
10
72.4342573502795
20
31.4767088466697
30
0
41
1
10
72.4351695399533
20
31.4721377523669
30
0
41
1
10
72.436629083723
20
31.4674024376323
30
0
41
1
10
72.4385686736588
20
31.462566317049
30
0
41
1
10
72.4408836844472
20
31.4576938539866
30
0
41
1
10
72.4435944547374
20
31.4526794958977
30
0
41
1
10
72.4467362663881
20
31.4474407622544
30
0
41
1
10
72.4503067477946
20
31.4419955324936
30
0
41
1
10
72.4542880843365
20
31.4363635399708
30
0
41
1
10
72.4585658899204
20
31.4306896280088
30
0
41
1
10
72.4615839426312
20
31.4268980609912
30
0
41
1
10
72.4631358335643
20
31.425
30
0
0
SPLINE
5
190
100
AcDbEntity
8
1
62
256
6
ByLayer
370
18
48
1
60
0
100
AcDbSpline
70
4
71
1
72
4
73
2
40
0
40
0
40
1
40
1
41
1
10
72.4631358335643
20
31.425
30
0
41
1
10
72.9891114654472
20
30.7809618943233
30
0
0
SPLINE
5
191
100
AcDbEntity
8
1
62
256
6
ByLayer
370
18
48
1
60
0
100
AcDbSpline
70
4
71
3
72
27
73
23
40
0
40
0
40
0
40
0
40
0.0600762114345032
40
0.120202365252733
40
0.180342087087987
40
0.240462238572501
40
0.300533411646895
40
0.352231506175728
40
0.403995129719566
40
0.455781527687875
40
0.507555635447465
40
0.559290880080583
40
0.610970033077589
40
0.660519748350361
40
0.710153825900064
40
0.759793548365718
40
0.809383867994659
40
0.858896823160235
40
0.900046652079451
40
0.941220627623786
40
0.982358273937999
40
1
40
1
40
1
40
1
41
1
10
72.7834632769953
20
30.7809618943233
30
0
41
1
10
72.7879661275958
20
30.7782206008035
30
0
41
1
10
72.7969691401297
20
30.7728266221323
30
0
41
1
10
72.8104640704408
20
30.7650012894328
30
0
41
1
10
72.8239292949327
20
30.7574580354159
30
0
41
1
10
72.8373432995152
20
30.7502127617344
30
0
41
1
10
72.850068325893
20
30.7436023273894
30
0
41
1
10
72.8621057384513
20
30.7375869065496
30
0
41
1
10
72.8734597870534
20
30.7321313477748
30
0
41
1
10
72.8847304511823
20
30.7269461717726
30
0
41
1
10
72.8958930789727
20
30.7220537785718
30
0
41
1
10
72.9069229598221
20
30.7174766820195
30
0
41
1
10
72.9176504947511
20
30.7132938911993
30
0
41
1
10
72.9280686244328
20
30.7095079435863
30
0
41
1
10
72.9381604720554
20
30.7061339830665
30
0
41
1
10
72.9480351374989
20
30.7031569418517
30
0
41
1
10
72.9576417419746
20
30.7006201827793
30
0
41
1
10
72.9664119938816
20
30.6986806337884
30
0
41
1
10
72.9743628706412
20
30.6972864375646
30
0
41
1
10
72.9815161100662
20
30.6963854759024
30
0
41
1
10
72.9870346223304
20
30.6960137485685
30
0
41
1
10
72.9901420411832
20
30.6959627496795
30
0
41
1
10
72.9910631334864
20
30.6959618957332
30
0
0
SPLINE
5
192
100
AcDbEntity
8
1
62
256
6
ByLayer
370
18
48
1
60
0
100
AcDbSpline
70
4
71
3
72
15
73
11
40
0
40
0
40
0
40
0
40
0.124983197174572
40
0.249967468519763
40
0.374951802032346
40
0.499935083981356
40
0.624950807602709
40
0.749967477776175
40
0.87498420228475
40
1
40
1
40
1
40
1
41
1
10
71.6894640253913
20
31.425
30
0
41
1
10
71.7355424932839
20
31.3988144961237
30
0
41
1
10
71.8275725409484
20
31.3462770333693
30
0
41
1
10
71.9652342915314
20
31.2669677316632
30
0
41
1
10
72.1025175904552
20
31.1871682945304
30
0
41
1
10
72.2394372807053
20
31.1068801944031
30
0
41
1
10
72.3759974995095
20
31.026112363501
30
0
41
1
10
72.5122022082033
20
30.9448731245199
30
0
41
1
10
72.6480425408563
20
30.8631772758643
30
0
41
1
10
72.7383632417188
20
30.8084168214617
30
0
41
1
10
72.7834632769953
20
30.7809618943233
30
0
0
SPLINE
5
193
100
AcDbEntity
8
1
62
256
6
ByLayer
370
18
48
1
60
0
100
AcDbSpline
70
4
71
3
72
26
73
22
40
0
40
0
40
0
40
0
40
0.0362649706143776
40
0.0725666884478267
40
0.108878731551114
40
0.145157795611936
40
0.194772274277706
40
0.244416426943879
40
0.294040633747917
40
0.35666985508988
40
0.419359626913335
40
0.482063931916002
40
0.544712989547897
40
0.608998576452221
40
0.673326486444823
40
0.737659370518485
40
0.801951744630324
40
0.851397884528271
40
0.900844113356573
40
0.950422061565534
40
1
40
1
40
1
40
1
41
1
10
71.4846827161884
20
31.5
30
0
41
1
10
71.4866998558001
20
31.4999970798016
30
0
41
1
10
71.4908090566558
20
31.4998873375737
30
0
41
1
10
71.4972076977711
20
31.4993987612706
30
0
41
1
10
71.5037973045002
20
31.4986219143289
30
0
41
1
10
71.5113798375564
20
31.4974508879802
30
0
41
1
10
71.5200013696164
20
31.4957930423313
30
0
41
1
10
71.5296970771667
20
31.4935562731514
30
0
41
1
10
71.5404453452402
20
31.4907129886913
30
0
41
1
10
71.5522684528685
20
31.487186323376
30
0
41
1
10
71.5651797939956
20
31.4828976025287
30
0
41
1
10
71.5782591857303
20
31.4781508359557
30
0
41
1
10
71.5915843989803
20
31.4729415509496
30
0
41
1
10
71.6051335121582
20
31.467290652827
30
0
41
1
10
71.6188916370626
20
31.4612057461816
30
0
41
1
10
71.6327191415668
20
31.4547576210739
30
0
41
1
10
71.6455265118335
20
31.4484899261127
30
0
41
1
10
71.6572876313206
20
31.4425019613139
30
0
41
1
10
71.6680007283049
20
31.4368652965307
30
0
41
1
10
71.678729408374
20
31.4310396919872
30
0
41
1
10
71.6858858552154
20
31.4270333035968
30
0
41
1
10
71.6894640253913
20
31.425
30
0
0
SPLINE
5
194
100
AcDbEntity
8
1
62
256
6
ByLayer
370
18
48
1
60
0
100
AcDbSpline
70
4
71
3
72
30
73
26
40
0
40
0
40
0
40
0
40
0.047434710365908
40
0.0949719930544873
40
0.142473685280708
40
0.189859751516667
40
0.228499690283186
40
0.26730980943874
40
0.306149474717648
40
0.344905106479493
40
0.383499149834943
40
0.426897037711766
40
0.470484579805719
40
0.514083231733416
40
0.557496334861772
40
0.596814997944173
40
0.636237069417084
40
0.675681666295215
40
0.715031123363692
40
0.766028560928341
40
0.817174216881169
40
0.86842443572157
40
0.919671482980241
40
0.970754218767226
40
1
40
1
40
1
40
1
41
1
10
71.2976497587424
20
31.425
30
0
41
1
10
71.2960530183293
20
31.4269336143322
30
0
41
1
10
71.2929676906173
20
31.4308062413473
30
0
41
1
10
71.2886522434767
20
31.436630164817
30
0
41
1
10
71.2847179010477
20
31.442434397775
30
0
41
1
10
71.2814308334689
20
31.4478331137137
30
0
41
1
10
71.2787623579098
20
31.4528082912453
30
0
41
1
10
71.2766434287461
20
31.4573573752249
30
0
41
1
10
71.2749110234502
20
31.4617992201265
30
0
41
1
10
71.2736001226197
20
31.4660902478374
30
0
41
1
10
71.2727071744767
20
31.4703643031064
30
0
41
1
10
71.272345146486
20
31.4745536632251
30
0
41
1
10
71.2725683431647
20
31.4785997841026
30
0
41
1
10
71.2733712587141
20
31.4823118936221
30
0
41
1
10
71.2747022771205
20
31.4855493784663
30
0
41
1
10
71.2764887303759
20
31.4883289296765
30
0
41
1
10
71.2786227364079
20
31.4907101884821
30
0
41
1
10
71.2811278374601
20
31.4927904080831
30
0
41
1
10
71.2842498098468
20
31.4947508529258
30
0
41
1
10
71.2880756698968
20
31.4964970664991
30
0
41
1
10
71.2926621797557
20
31.4979500631574
30
0
41
1
10
71.2976356781211
20
31.4989975077561
30
0
41
1
10
71.3029311173116
20
31.4996714978522
30
0
41
1
10
71.3077080749487
20
31.4999548385648
30
0
41
1
10
71.3107203486895
20
31.5000008142492
30
0
41
1
10
71.3118307500447
20
31.5
30
0
0
SPLINE
5
195
100
AcDbEntity
8
1
62
256
6
ByLayer
370
18
48
1
60
0
100
AcDbSpline
70
4
71
1
72
4
73
2
40
0
40
0
40
1
40
1
41
1
10
71.8282984991155
20
30.7809618943233
30
0
41
1
10
71.2976497587424
20
31.425
30
0
0
SPLINE
5
196
100
AcDbEntity
8
1
62
256
6
ByLayer
370
18
48
1
60
0
100
AcDbSpline
70
4
71
3
72
31
73
27
40
0
40
0
40
0
40
0
40
0.0474834831425002
40
0.0950694800575108
40
0.14261996890158
40
0.190054920714621
40
0.228695718554689
40
0.267506877918413
40
0.306347063256391
40
0.345102609631109
40
0.383696563847708
40
0.418402121922759
40
0.453251868380711
40
0.488156958329923
40
0.523018503271757
40
0.557733998220944
40
0.596811791337483
40
0.6359932243891
40
0.675197019693561
40
0.714305384432234
40
0.764717932942338
40
0.815276956216631
40
0.865939500193231
40
0.91659906676046
40
0.967096200046811
40
1
40
1
40
1
40
1
41
1
10
71.8282984991155
20
30.7809618943233
30
0
41
1
10
71.830112482005
20
30.7787633714553
30
0
41
1
10
71.8336178992643
20
30.7743606764146
30
0
41
1
10
71.8385218722995
20
30.7677410269849
30
0
41
1
10
71.8429940035435
20
30.761145231656
30
0
41
1
10
71.846730698965
20
30.7550134376696
30
0
41
1
10
71.8497650928056
20
30.7493657701038
30
0
41
1
10
71.8521753347213
20
30.744204547175
30
0
41
1
10
71.8541472705834
20
30.7391656305133
30
0
41
1
10
71.855640483292
20
30.7342984955209
30
0
41
1
10
71.856585358772
20
30.7297999832617
30
0
41
1
10
71.8570002465827
20
30.7256831169515
30
0
41
1
10
71.8569592734356
20
30.7219286328989
30
0
41
1
10
71.8564877934379
20
30.7184055053877
30
0
41
1
10
71.8555951439099
20
30.7151389564511
30
0
41
1
10
71.8542294752989
20
30.7120243810217
30
0
41
1
10
71.8523362767577
20
30.7091150717782
30
0
41
1
10
71.8499066115287
20
30.7064372597388
30
0
41
1
10
71.847054664289
20
30.7040981160644
30
0
41
1
10
71.8435075455403
20
30.7018984595109
30
0
41
1
10
71.8391685808966
20
30.6999411581363
30
0
41
1
10
71.8339757512806
20
30.6983109647473
30
0
41
1
10
71.8283452156992
20
30.6971303250673
30
0
41
1
10
71.8223502354138
20
30.696362826214
30
0
41
1
10
71.8167754920241
20
30.6960199178618
30
0
41
1
10
71.8131876136164
20
30.695960390145
30
0
41
1
10
71.8117520330774
20
30.6959618966009
30
0
0
SPLINE
5
197
100
AcDbEntity
8
1
62
256
6
ByLayer
370
18
48
1
60
0
100
AcDbSpline
70
4
71
3
72
17
73
13
40
0
40
0
40
0
40
0
40
0.0999773350888443
40
0.199955927185034
40
0.299934878115431
40
0.39991335568146
40
0.499890594711542
40
0.599911578948674
40
0.69993400122187
40
0.7999568340993
40
0.899979125515485
40
1
40
1
40
1
40
1
41
1
10
71.5639618612494
20
30.7809618943233
30
0
41
1
10
71.5219462195891
20
30.8031827543238
30
0
41
1
10
71.4378124106202
20
30.8474785953842
30
0
41
1
10
71.3113062585735
20
30.9134873405313
30
0
41
1
10
71.1844916820329
20
30.9790513646979
30
0
41
1
10
71.0573679536537
20
31.0441637915175
30
0
41
1
10
70.9299146558998
20
31.1088266715868
30
0
41
1
10
70.8021289741488
20
31.1730330371635
30
0
41
1
10
70.6740080811107
20
31.2367755070814
30
0
41
1
10
70.5455689074585
20
31.3000367866761
30
0
41
1
10
70.4168110496109
20
31.3628094291198
30
0
41
1
10
70.3307583694682
20
31.4043249613607
30
0
41
1
10
70.2876788493796
20
31.425
30
0
0
SPLINE
5
198
100
AcDbEntity
8
1
62
256
6
ByLayer
370
18
48
1
60
0
100
AcDbSpline
70
4
71
3
72
26
73
22
40
0
40
0
40
0
40
0
40
0.0576774816267984
40
0.115375595235686
40
0.173073918105243
40
0.230751685189368
40
0.288436650589892
40
0.346143799181072
40
0.403848836096057
40
0.461530920811535
40
0.522276153797812
40
0.583057529419281
40
0.643830081867583
40
0.704563275776196
40
0.753412362794564
40
0.802274809493322
40
0.851117331843188
40
0.888330478369396
40
0.925569571338724
40
0.962799440598813
40
1
40
1
40
1
40
1
41
1
10
70.2876788493796
20
31.425
30
0
41
1
10
70.2826644780329
20
31.427406292871
30
0
41
1
10
70.2726295632766
20
31.4321282534631
30
0
41
1
10
70.2575582343482
20
31.438939004161
30
0
41
1
10
70.2424835462394
20
31.4454713873901
30
0
41
1
10
70.2274160002386
20
31.4517207677028
30
0
41
1
10
70.2123643359354
20
31.4576832096972
30
0
41
1
10
70.1973381214333
20
31.4633483344155
30
0
41
1
10
70.1823521330972
20
31.468703112366
30
0
41
1
10
70.1671572748726
20
31.47382278482
30
0
41
1
10
70.1517680417824
20
31.4786755372626
30
0
41
1
10
70.1362086150864
20
31.4832121013
30
0
41
1
10
70.1207706807667
20
31.4873159486187
30
0
41
1
10
70.1064826183731
20
31.4907159035683
30
0
41
1
10
70.0933375854053
20
31.4934836870585
30
0
41
1
10
70.0813233832722
20
31.4956848325871
30
0
41
1
10
70.0704237709845
20
31.4973485733138
30
0
41
1
10
70.0606180625747
20
31.4985515566817
30
0
41
1
10
70.0518800325156
20
31.499366430162
30
0
41
1
10
70.0433105975042
20
31.4998810011244
30
0
41
1
10
70.0377398370891
20
31.4999966850881
30
0
41
1
10
70.0349883279083
20
31.5
30
0
0
SPLINE
5
199
100
AcDbEntity
8
1
62
256
6
ByLayer
370
18
48
1
60
0
100
AcDbSpline
70
4
71
3
72
31
73
27
40
0
40
0
40
0
40
0
40
0.0566948815954031
40
0.113533708007615
40
0.1703643501537
40
0.227092972968546
40
0.283695205198227
40
0.327210152273945
40
0.370834511578194
40
0.414413197952272
40
0.457865695034795
40
0.492766904106923
40
0.527782934731108
40
0.562773918493023
40
0.597640855815764
40
0.632697231382635
40
0.667902065469175
40
0.703113376345352
40
0.738178620994233
40
0.770394817089848
40
0.80269644970587
40
0.835017509058276
40
0.867260263451642
40
0.911472948734935
40
0.955757813052041
40
1
40
1
40
1
40
1
41
1
10
69.8058323787043
20
31.5
30
0
41
1
10
69.8032214118539
20
31.5000046518473
30
0
41
1
10
69.7980723609034
20
31.4998995135807
30
0
41
1
10
69.7905621012713
20
31.4994181033261
30
0
41
1
10
69.7833350568397
20
31.4985516227978
30
0
41
1
10
69.776459148982
20
31.4972587793703
30
0
41
1
10
69.7704994465264
20
31.4956306593106
30
0
41
1
10
69.7654126544894
20
31.4937440619175
30
0
41
1
10
69.7611400622603
20
31.4916825349811
30
0
41
1
10
69.7572834514655
20
31.489248791971
30
0
41
1
10
69.7541356277114
20
31.4866037866991
30
0
41
1
10
69.7516615928805
20
31.4838062282431
30
0
41
1
10
69.7497795331283
20
31.4809381398437
30
0
41
1
10
69.748337245581
20
31.4777970941504
30
0
41
1
10
69.7473731069433
20
31.4743852973893
30
0
41
1
10
69.7469422218568
20
31.4707003300557
30
0
41
1
10
69.7470351279884
20
31.4667770062106
30
0
41
1
10
69.7476381077377
20
31.4626650113999
30
0
41
1
10
69.7487174568406
20
31.4585177211934
30
0
41
1
10
69.7502185464336
20
31.4543791369399
30
0
41
1
10
69.7520503532028
20
31.450286664472
30
0
41
1
10
69.7542221993643
20
31.4461500008092
30
0
41
1
10
69.7570094252166
20
31.4414802951997
30
0
41
1
10
69.7605175077989
20
31.4362908565746
30
0
41
1
10
69.7648201348544
20
31.4306131884744
30
0
41
1
10
69.7679276790341
20
31.4268651644806
30
0
41
1
10
69.7695451029576
20
31.425
30
0
0
SPLINE
5
19A
100
AcDbEntity
8
1
62
256
6
ByLayer
370
18
48
1
60
0
100
AcDbSpline
70
4
71
2
72
6
73
3
40
0
40
0
40
0
40
1
40
1
40
1
41
1
10
69.7695451029576
20
31.425
30
0
41
1
10
70.0476494506197
20
31.1033085997612
30
0
41
1
10
70.324740241091
20
30.7809618943233
30
0
0
SPLINE
5
19B
100
AcDbEntity
8
1
62
256
6
ByLayer
370
18
48
1
60
0
100
AcDbSpline
70
4
71
3
72
26
73
22
40
0
40
0
40
0
40
0
40
0.0623590848584691
40
0.124740269809031
40
0.187121275267087
40
0.249480115276172
40
0.311854778860726
40
0.374254805490613
40
0.436651252874925
40
0.499021033634322
40
0.551719911631774
40
0.604459107777976
40
0.657202147196073
40
0.709922792104644
40
0.762606099534182
40
0.808436708161004
40
0.854280131990315
40
0.900103266482163
40
0.935069407457122
40
0.970063481349395
40
1
40
1
40
1
40
1
41
1
10
69.9766467556382
20
30.7809618943233
30
0
41
1
10
69.9832533853755
20
30.7780625162417
30
0
41
1
10
69.9964718018486
20
30.7723770285564
30
0
41
1
10
70.0163156749367
20
30.7641887059227
30
0
41
1
10
70.0361546770744
20
30.7563485513163
30
0
41
1
10
70.055975190393
20
30.7488625602664
30
0
41
1
10
70.0757650129151
20
30.7417359963579
30
0
41
1
10
70.0955101883833
20
30.7349862875055
30
0
41
1
10
70.1151882571835
20
30.728634867253
30
0
41
1
10
70.1337643573683
20
30.7230108692008
30
0
41
1
10
70.1512400603163
20
30.7180558920335
30
0
41
1
10
70.167619067416
20
30.7137235612642
30
0
41
1
10
70.1838848110162
20
30.7097596966249
30
0
41
1
10
70.2000048626208
20
30.7061974689171
30
0
41
1
10
70.2152599711953
20
30.7032041860526
30
0
41
1
10
70.2296495936547
20
30.70074730475
30
0
41
1
10
70.2431694971714
20
30.698806960676
30
0
41
1
10
70.2554146106499
20
30.6974288606021
30
0
41
1
10
70.2664091732678
20
30.6965327605302
30
0
41
1
10
70.2757210311568
20
30.6960587671824
30
0
41
1
10
70.2816375767283
20
30.6959631799084
30
0
41
1
10
70.2843388258846
20
30.6959618950889
30
0
0
SPLINE
5
19C
100
AcDbEntity
8
1
62
256
6
ByLayer
370
18
48
1
60
0
100
AcDbSpline
70
4
71
3
72
19
73
15
40
0
40
0
40
0
40
0
40
0.0832887797744782
40
0.166578667091107
40
0.249868600678637
40
0.333157443550625
40
0.416445758197402
40
0.499735082384998
40
0.583024449553785
40
0.66631282281198
40
0.749734131957192
40
0.833156364202619
40
0.916578636389106
40
1
40
1
40
1
40
1
41
1
10
68.3981595858611
20
31.425
30
0
41
1
10
68.4425917722463
20
31.4082681709301
30
0
41
1
10
68.5313551490095
20
31.3746052345152
30
0
41
1
10
68.6641958054996
20
31.3235097344855
30
0
41
1
10
68.7967316602166
20
31.2718246473194
30
0
41
1
10
68.9289619136151
20
31.2195575466865
30
0
41
1
10
69.0608872359367
20
31.1667165012024
30
0
41
1
10
69.1925084808789
20
31.1133091531055
30
0
41
1
10
69.3238257473278
20
31.0593434702361
30
0
41
1
10
69.4549086559967
20
31.0047984713897
30
0
41
1
10
69.5857576445275
20
30.9496806294106
30
0
41
1
10
69.7163733151362
20
30.8939965440419
30
0
41
1
10
69.8466862520506
20
30.8377824805123
30
0
41
1
10
69.9333603022196
20
30.799960133823
30
0
41
1
10
69.9766467556382
20
30.7809618943233
30
0
0
SPLINE
5
19D
100
AcDbEntity
8
1
62
256
6
ByLayer
370
18
48
1
60
0
100
AcDbSpline
70
4
71
3
72
25
73
21
40
0
40
0
40
0
40
0
40
0.0432583510570433
40
0.0865440035344333
40
0.129839911420846
40
0.173112255347165
40
0.230702770754411
40
0.28831083118534
40
0.345907444254723
40
0.406572822035754
40
0.467250485460967
40
0.527918645377336
40
0.586675227696905
40
0.645447408036802
40
0.704220671593708
40
0.762978731414562
40
0.822226851691681
40
0.8814902828847
40
0.940752938121273
40
1
40
1
40
1
40
1
41
1
10
68.0625073314607
20
31.5
30
0
41
1
10
68.0670227827278
20
31.4999949549154
30
0
41
1
10
68.0761230497889
20
31.4998415381206
30
0
41
1
10
68.0899939546091
20
31.4991603580712
30
0
41
1
10
68.1040294048536
20
31.4980903502887
30
0
41
1
10
68.1197602944663
20
31.4965153272439
30
0
41
1
10
68.1372068990915
20
31.494343616333
30
0
41
1
10
68.1563856949947
20
31.4914686658011
30
0
41
1
10
68.1760302618747
20
31.4880753128958
30
0
41
1
10
68.1961198500437
20
31.4841790850278
30
0
41
1
10
68.2166395809649
20
31.4797783804617
30
0
41
1
10
68.2370095322278
20
31.4750169824813
30
0
41
1
10
68.2572116410509
20
31.4699336774772
30
0
41
1
10
68.2772335941938
20
31.4645523985014
30
0
41
1
10
68.2972791809411
20
31.4588288289244
30
0
41
1
10
68.3173917955211
20
31.4527560912329
30
0
41
1
10
68.3375632477694
20
31.4463392375721
30
0
41
1
10
68.3577851509252
20
31.4395743599602
30
0
41
1
10
68.377990933046
20
31.4324796049835
30
0
41
1
10
68.3914401753372
20
31.4275296722577
30
0
41
1
10
68.3981595858611
20
31.425
30
0
0
SPLINE
5
19E
100
AcDbEntity
8
1
62
256
6
ByLayer
370
18
48
1
60
0
100
AcDbSpline
70
4
71
3
72
34
73
30
40
0
40
0
40
0
40
0
40
0.0345901035073943
40
0.0692728887482574
40
0.103907621993495
40
0.13843200756604
40
0.163001503904979
40
0.187648432947998
40
0.212275938198553
40
0.236818860170507
40
0.261517848832436
40
0.286322254210416
40
0.311130418025445
40
0.335834553556861
40
0.365964957457064
40
0.39617746169656
40
0.426336818701398
40
0.464781358045466
40
0.503356755030772
40
0.541994304222333
40
0.580523859564458
40
0.629629809661954
40
0.678824674159879
40
0.728124604418788
40
0.777491346739296
40
0.826840584690595
40
0.876049690188599
40
0.938023310680384
40
1
40
1
40
1
40
1
41
1
10
67.6649273315414
20
31.425
30
0
41
1
10
67.6633939955812
20
31.4265443956902
30
0
41
1
10
67.6604353606091
20
31.4296702806743
30
0
41
1
10
67.6563033302521
20
31.4344620763946
30
0
41
1
10
67.6525727811008
20
31.4393417544185
30
0
41
1
10
67.649630767638
20
31.443811292267
30
0
41
1
10
67.6474031885945
20
31.4478292245006
30
0
41
1
10
67.6457641699729
20
31.4513729743102
30
0
41
1
10
67.644479833711
20
31.4548939639692
30
0
41
1
10
67.6435837976295
20
31.4583700119576
30
0
41
1
10
67.6431257706074
20
31.4617713490019
30
0
41
1
10
67.6431013020468
20
31.4650729707931
30
0
41
1
10
67.6435005987785
20
31.4682391130305
30
0
41
1
10
67.6443830647353
20
31.4714575662918
30
0
41
1
10
67.6458551620057
20
31.4746559933098
30
0
41
1
10
67.6479484289931
20
31.4777788397883
30
0
41
1
10
67.650744289272
20
31.4808787988713
30
0
41
1
10
67.6543240846047
20
31.4838681792844
30
0
41
1
10
67.6587188943333
20
31.4866791572027
30
0
41
1
10
67.6635506502776
20
31.4891153353031
30
0
41
1
10
67.6692050674776
20
31.4914049564899
30
0
41
1
10
67.6757010506269
20
31.4935004136441
30
0
41
1
10
67.6830664979154
20
31.4953468198125
30
0
41
1
10
67.6907425318387
20
31.4968204492955
30
0
41
1
10
67.6986671688767
20
31.4979640194564
30
0
41
1
10
67.7067808393526
20
31.4988173905207
30
0
41
1
10
67.7157496363439
20
31.4994796542141
30
0
41
1
10
67.7255930524649
20
31.499905382954
30
0
41
1
10
67.7327469481862
20
31.5000041448891
30
0
41
1
10
67.7363532034814
20
31.5
30
0
0
SPLINE
5
19F
100
AcDbEntity
8
1
62
256
6
ByLayer
370
18
48
1
60
0
100
AcDbSpline
70
4
71
3
72
11
73
7
40
0
40
0
40
0
40
0
40
0.249995839940143
40
0.499991647145865
40
0.749995844451868
40
1
40
1
40
1
40
1
41
1
10
68.2940856411341
20
30.7809618943233
30
0
41
1
10
68.2420110156254
20
30.8348897337406
30
0
41
1
10
68.1376877877989
20
30.9426185852668
30
0
41
1
10
67.9806898365973
20
31.1038418434207
30
0
41
1
10
67.823146984108
20
31.2646691298924
30
0
41
1
10
67.717730321741
20
31.3716028523819
30
0
41
1
10
67.6649273315414
20
31.425
30
0
0
SPLINE
5
1A0
100
AcDbEntity
8
1
62
256
6
ByLayer
370
18
48
1
60
0
100
AcDbSpline
70
4
71
3
72
35
73
31
40
0
40
0
40
0
40
0
40
0.0358785612111213
40
0.0718561119829042
40
0.107783870799895
40
0.143594329038041
40
0.169166273079043
40
0.194819458160214
40
0.220453245726256
40
0.245998650836973
40
0.271695919983887
40
0.297501540455264
40
0.323311475919173
40
0.349014653771487
40
0.380564090134256
40
0.412199282047343
40
0.443778695606425
40
0.47584229033515
40
0.507994976162097
40
0.540217601594482
40
0.572444217601442
40
0.604570001750298
40
0.655244136034263
40
0.706011075778934
40
0.756886489904868
40
0.807830364159544
40
0.858755486470664
40
0.909535323279551
40
0.982775950261881
40
1
40
1
40
1
40
1
41
1
10
68.2940856411341
20
30.7809618943233
30
0
41
1
10
68.2958446526123
20
30.7791472338175
30
0
41
1
10
68.2992344910725
20
30.7754772939134
30
0
41
1
10
68.3039553189702
20
30.7698592949805
30
0
41
1
10
68.3082020820642
20
30.7641500812908
30
0
41
1
10
68.3115375848585
20
30.7589290350393
30
0
41
1
10
68.3140492870158
20
30.7542427041682
30
0
41
1
10
68.3158854981926
20
30.7501134975805
30
0
41
1
10
68.317307201884
20
30.7460213785122
30
0
41
1
10
68.3182764977207
20
30.7419934477769
30
0
41
1
10
68.3187380863839
20
30.7380650676781
30
0
41
1
10
68.3186988339076
20
30.7342639780162
30
0
41
1
10
68.3181710749681
20
30.7306298023358
30
0
41
1
10
68.317080124167
20
30.7269379710133
30
0
41
1
10
68.3152993546851
20
30.7232753717404
30
0
41
1
10
68.3127875491642
20
30.7197090947971
30
0
41
1
10
68.3097150741385
20
30.716465054897
30
0
41
1
10
68.3061429739026
20
30.7135412517207
30
0
41
1
10
68.302136115003
20
30.7109155406926
30
0
41
1
10
68.2977709257079
20
30.7085825929791
30
0
41
1
10
68.2931111965814
20
30.7065211759645
30
0
41
1
10
68.287261817873
20
30.7043612255549
30
0
41
1
10
68.2801038589586
20
30.702236057925
30
0
41
1
10
68.2715299619993
20
30.7002883800597
30
0
41
1
10
68.2625989643666
20
30.6987678459585
30
0
41
1
10
68.2533813022791
20
30.6976251378715
30
0
41
1
10
68.243945673645
20
30.696812321352
30
0
41
1
10
68.2329280177253
20
30.6962022165996
30
0
41
1
10
68.2238723996783
20
30.6959731519509
30
0
41
1
10
68.2180007259116
20
30.6959597760744
30
0
41
1
10
68.2168801351966
20
30.6959618969986
30
0
0
SPLINE
5
1A1
100
AcDbEntity
8
1
62
256
6
ByLayer
370
18
48
1
60
0
100
AcDbSpline
70
4
71
3
72
27
73
23
40
0
40
0
40
0
40
0
40
0.0499310988138097
40
0.09986295315928
40
0.149795037606729
40
0.199726850587888
40
0.249657914708522
40
0.299589308329074
40
0.349521518779323
40
0.39945397898767
40
0.44938614659372
40
0.499317504279839
40
0.549249201733704
40
0.599181779083279
40
0.649114626693692
40
0.699047160208022
40
0.748978820896192
40
0.799182438345205
40
0.849387015395614
40
0.899591888571805
40
0.949796420443521
40
1
40
1
40
1
40
1
41
1
10
67.800110550016
20
30.7809618943233
30
0
41
1
10
67.7631393336462
20
30.7931826663705
30
0
41
1
10
67.6891346205182
20
30.8174821730371
30
0
41
1
10
67.5779416053228
20
30.8535068228575
30
0
41
1
10
67.4665635522782
20
30.889101138345
30
0
41
1
10
67.3550022735152
20
30.9242610269018
30
0
41
1
10
67.2432585319988
20
30.9589822076189
30
0
41
1
10
67.1313323679646
20
30.9932607207003
30
0
41
1
10
67.0192239985925
20
31.0270926471892
30
0
41
1
10
66.906934902864
20
31.0604736866281
30
0
41
1
10
66.7944673643203
20
31.093399283762
30
0
41
1
10
66.6818224338905
20
31.1258652453248
30
0
41
1
10
66.5690003897777
20
31.1578675532885
30
0
41
1
10
66.4560017006334
20
31.1894023209862
30
0
41
1
10
66.3428281951102
20
31.2204652703163
30
0
41
1
10
66.2294825846493
20
31.2510518657143
30
0
41
1
10
66.1157604271166
20
31.2812125209924
30
0
41
1
10
66.001661164442
20
31.3109401478314
30
0
41
1
10
65.8871844672571
20
31.3402278115709
30
0
41
1
10
65.7725387526766
20
31.3690174191681
30
0
41
1
10
65.6577270419048
20
31.3973048860288
30
0
41
1
10
65.5810768417099
20
31.4158245583965
30
0
41
1
10
65.5427245957503
20
31.425
30
0
0
SPLINE
5
1A2
100
AcDbEntity
8
1
62
256
6
ByLayer
370
18
48
1
60
0
100
AcDbSpline
70
4
71
3
72
24
73
20
40
0
40
0
40
0
40
0
40
0.0641049241894346
40
0.128219390192638
40
0.192335047892205
40
0.256441597358535
40
0.320832422607735
40
0.385231686471813
40
0.449630671329299
40
0.514021116064824
40
0.574567896657398
40
0.635123553017643
40
0.695677262897229
40
0.756221388793365
40
0.804971532590348
40
0.85373870143214
40
0.90250523114849
40
0.951260141173863
40
1
40
1
40
1
40
1
41
1
10
65.5427245957503
20
31.425
30
0
41
1
10
65.5307003247277
20
31.4278748823189
30
0
41
1
10
65.5066365955173
20
31.4334643007827
30
0
41
1
10
65.4704943153677
20
31.4413606183758
30
0
41
1
10
65.4343222716547
20
31.4487859791242
30
0
41
1
10
65.3980777135317
20
31.4557613900041
30
0
41
1
10
65.3617686441552
20
31.4622970596642
30
0
41
1
10
65.3254024251862
20
31.4683850958854
30
0
41
1
10
65.2890436631179
20
31.4740101341287
30
0
41
1
10
65.2534267635354
20
31.4790628022225
30
0
41
1
10
65.218557967337
20
31.4835718463991
30
0
41
1
10
65.1844451009801
20
31.4875451403021
30
0
41
1
10
65.1503803171343
20
31.4910500130242
30
0
41
1
10
65.1185881390568
20
31.4938611869939
30
0
41
1
10
65.0890630110324
20
31.4960747075321
30
0
41
1
10
65.0618017819231
20
31.4977551831942
30
0
41
1
10
65.0346248837813
20
31.4990160265137
30
0
41
1
10
65.0075583461503
20
31.4998149292872
30
0
41
1
10
64.9896133269306
20
31.4999946013227
30
0
41
1
10
64.9806642052507
20
31.5
30
0
0
SPLINE
5
1A3
100
AcDbEntity
8
1
62
256
6
ByLayer
370
18
48
1
60
0
100
AcDbSpline
70
4
71
3
72
41
73
37
40
0
40
0
40
0
40
0
40
0.0713132569780422
40
0.14263119988579
40
0.213940288497522
40
0.2676945289059
40
0.321463624963929
40
0.375223432852595
40
0.428965003676341
40
0.465043431987457
40
0.501205273269085
40
0.537369296639192
40
0.57348210179386
40
0.609525630219885
40
0.645525043739362
40
0.668257063770129
40
0.691047818397542
40
0.713786845454652
40
0.736448115792792
40
0.750183810307693
40
0.763938027063513
40
0.77765458580078
40
0.791558819835916
40
0.805512304983418
40
0.819395642464722
40
0.831453679668609
40
0.843557561726285
40
0.855626380215621
40
0.871289901305916
40
0.887015809629379
40
0.902713581744252
40
0.923888664762655
40
0.945129632821287
40
0.966412628321579
40
0.987645178697534
40
1
40
1
40
1
40
1
41
1
10
64.364392684768
20
31.5
30
0
41
1
10
64.3576503922821
20
31.5000042724787
30
0
41
1
10
64.3441931268537
20
31.4999161354988
30
0
41
1
10
64.3240818030398
20
31.4995126031512
30
0
41
1
10
64.3057146771878
20
31.4988415978596
30
0
41
1
10
64.289077247556
20
31.4979716122556
30
0
41
1
10
64.274160432231
20
31.496948829855
30
0
41
1
10
64.2593572638394
20
31.4956465364888
30
0
41
1
10
64.2463084367875
20
31.4941917645809
30
0
41
1
10
64.2349655194872
20
31.4926953829545
30
0
41
1
10
64.2252989728035
20
31.491224971757
30
0
41
1
10
64.215766382896
20
31.4895082586044
30
0
41
1
10
64.2064276471116
20
31.4874933917012
30
0
41
1
10
64.1973450256993
20
31.4851250482073
30
0
41
1
10
64.1896560717532
20
31.4826928378212
30
0
41
1
10
64.1832881188112
20
31.4803145230338
30
0
41
1
10
64.1781904097777
20
31.4780721767628
30
0
41
1
10
64.1734222695299
20
31.4755247907598
30
0
41
1
10
64.1696617065192
20
31.4730046855503
30
0
41
1
10
64.1668186217244
20
31.4706275354194
30
0
41
1
10
64.1647577326571
20
31.4685048109203
30
0
41
1
10
64.1630203856319
20
31.4661971700501
30
0
41
1
10
64.1617030689469
20
31.4636901388511
30
0
41
1
10
64.1608631559197
20
31.4610083592114
30
0
41
1
10
64.1605699436354
20
31.458317962504
30
0
41
1
10
64.1608024638635
20
31.455678809138
30
0
41
1
10
64.1614309545611
20
31.4531430969354
30
0
41
1
10
64.1625389639705
20
31.4503661596044
30
0
41
1
10
64.1642293177242
20
31.4473896308911
30
0
41
1
10
64.1665185168856
20
31.4442658505342
30
0
41
1
10
64.1694876185447
20
31.4409070285288
30
0
41
1
10
64.1731777497105
20
31.4373631024592
30
0
41
1
10
64.1776067689986
20
31.4336827107074
30
0
41
1
10
64.1823336024437
20
31.4301878252021
30
0
41
1
10
64.1865871573022
20
31.4273187680937
30
0
41
1
10
64.1892544812401
20
31.4256176557477
30
0
41
1
10
64.190245609709
20
31.425
30
0
0
SPLINE
5
1A4
100
AcDbEntity
8
1
62
256
6
ByLayer
370
18
48
1
60
0
100
AcDbSpline
70
4
71
3
72
19
73
15
40
0
40
0
40
0
40
0
40
0.0832690249012081
40
0.166539826674842
40
0.249810817904514
40
0.333080101160274
40
0.416347362584266
40
0.499616028343867
40
0.58288484014736
40
0.66615230072541
40
0.749613595938894
40
0.833076015607852
40
0.916538549299279
40
1
40
1
40
1
40
1
41
1
10
64.190245609709
20
31.425
30
0
41
1
10
64.2175239683343
20
31.4079742656792
30
0
41
1
10
64.2719495959003
20
31.3737667420773
30
0
41
1
10
64.3531896805309
20
31.3219808149234
30
0
41
1
10
64.4340421983349
20
31.2697424231074
30
0
41
1
10
64.5145133917136
20
31.2170662363281
30
0
41
1
10
64.5946123960551
20
31.163967738371
30
0
41
1
10
64.674347103273
20
31.1104599057737
30
0
41
1
10
64.7537253285373
20
31.0565559549132
30
0
41
1
10
64.8328157595703
20
31.0022272398278
30
0
41
1
10
64.9116256941352
20
30.9474854087308
30
0
41
1
10
64.9901617915155
20
30.8923409313799
30
0
41
1
10
65.0683689925159
20
30.8368466642387
30
0
41
1
10
65.1202945181136
20
30.7996277763468
30
0
41
1
10
65.1462034186706
20
30.7809618943233
30
0
0
SPLINE
5
1A5
100
AcDbEntity
8
1
62
256
6
ByLayer
370
18
48
1
60
0
100
AcDbSpline
70
4
71
3
72
28
73
24
40
0
40
0
40
0
40
0
40
0.0709499923011022
40
0.141902759981736
40
0.212852628243004
40
0.266145706336442
40
0.319441555273528
40
0.372737057424276
40
0.426029662602117
40
0.480426877197719
40
0.534828378944292
40
0.589228814265597
40
0.643624574525131
40
0.687290365429464
40
0.730963649285289
40
0.774637137113015
40
0.818305988375228
40
0.861968061012862
40
0.897201093509125
40
0.932436209570819
40
0.967667722815947
40
0.994197874945296
40
1
40
1
40
1
40
1
41
1
10
64.2011801314467
20
30.7809618943233
30
0
41
1
10
64.219648912958
20
30.7777899051313
30
0
41
1
10
64.2565859446054
20
30.7715741592894
30
0
41
1
10
64.3119913892897
20
30.7626331786426
30
0
41
1
10
64.3627898655234
20
30.7547916066636
30
0
41
1
10
64.4089783217723
20
30.7479475491365
30
0
41
1
10
64.4505584017282
20
30.7420168962085
30
0
41
1
10
64.4921185056086
20
30.7363296006655
30
0
41
1
10
64.5339399822971
20
30.7308593147125
30
0
41
1
10
64.5760181103118
20
30.7256213409486
30
0
41
1
10
64.618345697018
20
30.7206461057932
30
0
41
1
10
64.6606264689632
20
30.7159953538196
30
0
41
1
10
64.7000733459237
20
30.7119794766473
30
0
41
1
10
64.7366923428561
20
30.7085376134148
30
0
41
1
10
64.7704899036424
20
30.7056238024469
30
0
41
1
10
64.8042262473589
20
30.7030119239381
30
0
41
1
10
64.8378851414681
20
30.7007355516119
30
0
41
1
10
64.8692923000911
20
30.698949920212
30
0
41
1
10
64.8984540135123
20
30.6976067369688
30
0
41
1
10
64.9253763669292
20
30.6966688159046
30
0
41
1
10
64.9499842787125
20
30.6961340733193
30
0
41
1
10
64.9670585805857
20
30.6959660992711
30
0
41
1
10
64.9752038246115
20
30.6959607789347
30
0
41
1
10
64.9766648191936
20
30.6959618955687
30
0
0
SPLINE
5
1A6
100
AcDbEntity
8
1
62
256
6
ByLayer
370
18
48
1
60
0
100
AcDbSpline
70
4
71
3
72
39
73
35
40
0
40
0
40
0
40
0
40
0.0222390191837941
40
0.0445216401222968
40
0.0667745681361044
40
0.0889730075904499
40
0.107703902962172
40
0.126465321372798
40
0.145164359185715
40
0.160392031415131
40
0.175660452365552
40
0.190874824674813
40
0.206127147124637
40
0.221434760444145
40
0.236697945194792
40
0.256179467931447
40
0.275738041045686
40
0.295259326881491
40
0.320441526079649
40
0.345703758240332
40
0.371014015581598
40
0.396261888606607
40
0.433630985641776
40
0.47105275111627
40
0.508506477290164
40
0.545919211682344
40
0.597041851922464
40
0.648186333484734
40
0.699321465048696
40
0.76541824694611
40
0.831541792021025
40
0.897696117430428
40
0.963869863679294
40
1
40
1
40
1
40
1
41
1
10
54.8538346870177
20
30.7809618943233
30
0
41
1
10
54.8520781389172
20
30.7797031352113
30
0
41
1
10
54.848642499462
20
30.7771318310485
30
0
41
1
10
54.8437029790083
20
30.773128972943
30
0
41
1
10
54.8390683870918
20
30.7689590676573
30
0
41
1
10
54.8350320665926
20
30.7648457682138
30
0
41
1
10
54.8316116196999
20
30.7608153196119
30
0
41
1
10
54.8288176645186
20
30.7569015871584
30
0
41
1
10
54.8266844787132
20
30.7531386728857
30
0
41
1
10
54.8252117441827
20
30.7495786633715
30
0
41
1
10
54.824314438099
20
30.7462666317722
30
0
41
1
10
54.8239260396094
20
30.7429885605443
30
0
41
1
10
54.8241041687928
20
30.7397966584567
30
0
41
1
10
54.8248054064441
20
30.7367290107702
30
0
41
1
10
54.8261088201372
20
30.7335522673664
30
0
41
1
10
54.8281459716742
20
30.7303583349421
30
0
41
1
10
54.8309382493377
20
30.7272196820957
30
0
41
1
10
54.8345373263129
20
30.7241001214036
30
0
41
1
10
54.8389801718183
20
30.7210689769107
30
0
41
1
10
54.8442740514546
20
30.7181806247027
30
0
41
1
10
54.8499480719694
20
30.7156352026495
30
0
41
1
10
54.8568538887811
20
30.7130175799977
30
0
41
1
10
54.8650524111696
20
30.7104185015423
30
0
41
1
10
54.8746055379541
20
30.707946204146
30
0
41
1
10
54.8844338898892
20
30.7058486257673
30
0
41
1
10
54.8956859909528
20
30.703834528563
30
0
41
1
10
54.9083831598274
20
30.701960200158
30
0
41
1
10
54.9225555982941
20
30.7003069237523
30
0
41
1
10
54.9383033550589
20
30.6988632171201
30
0
41
1
10
54.9556296031203
20
30.6976566868265
30
0
41
1
10
54.9745498569717
20
30.6967429582501
30
0
41
1
10
54.9936234288298
20
30.6961846510993
30
0
41
1
10
55.0099106574226
20
30.6959602679403
30
0
41
1
10
55.0198453796478
20
30.6959501672707
30
0
41
1
10
55.0233594906743
20
30.6959618950763
30
0
0
SPLINE
5
1A7
100
AcDbEntity
8
1
62
256
6
ByLayer
370
18
48
1
60
0
100
AcDbSpline
70
4
71
3
72
19
73
15
40
0
40
0
40
0
40
0
40
0.083277337862744
40
0.166555751331452
40
0.249834051812832
40
0.333111235599919
40
0.416389883494938
40
0.499669882487693
40
0.582949735439004
40
0.666228184183299
40
0.749670391912592
40
0.833114317802488
40
0.916558052708605
40
1
40
1
40
1
40
1
41
1
10
54.8538346870177
20
30.7809618943233
30
0
41
1
10
54.8796864371041
20
30.7995865943949
30
0
41
1
10
54.9314971801068
20
30.8367236246454
30
0
41
1
10
55.0095307910838
20
30.8920965932781
30
0
41
1
10
55.087891815154
20
30.9471213666553
30
0
41
1
10
55.1665866722129
20
31.0017878901777
30
0
41
1
10
55.2456229079519
20
31.0560847623634
30
0
41
1
10
55.3250087509776
20
31.1099993197708
30
0
41
1
10
55.4047511059225
20
31.1635177660965
30
0
41
1
10
55.4849096482943
20
31.2166612647579
30
0
41
1
10
55.5654931171452
20
31.269415884839
30
0
41
1
10
55.6465115428877
20
31.3217650886346
30
0
41
1
10
55.7279191125842
20
31.3736600130033
30
0
41
1
10
55.7824574924548
20
31.4079389015653
30
0
41
1
10
55.8097924959675
20
31.425
30
0
0
SPLINE
5
1A8
100
AcDbEntity
8
1
62
256
6
ByLayer
370
18
48
1
60
0
100
AcDbSpline
70
4
71
3
72
41
73
37
40
0
40
0
40
0
40
0
40
0.0212177941162388
40
0.0424749641119337
40
0.063700810880831
40
0.0848758005904163
40
0.100169044235093
40
0.115481623396045
40
0.130750698331649
40
0.143189266002722
40
0.155657467822519
40
0.16807966521449
40
0.180585636933241
40
0.193142540774159
40
0.205653582231854
40
0.219675102898025
40
0.233751669053403
40
0.247799285594606
40
0.265127867950242
40
0.282512450280131
40
0.299929342199248
40
0.317302110207828
40
0.342246048852797
40
0.367225522190641
40
0.392226273395477
40
0.417199264105297
40
0.451337672807878
40
0.485490976910059
40
0.519638000144876
40
0.579353001997066
40
0.639101957867798
40
0.698871402485893
40
0.758614357675739
40
0.839069082326003
40
0.919537891808501
40
1
40
1
40
1
40
1
41
1
10
55.8097924959675
20
31.425
30
0
41
1
10
55.8114991315205
20
31.4260582193184
30
0
41
1
10
55.8148500557626
20
31.4282276241021
30
0
41
1
10
55.8197071446297
20
31.431622187163
30
0
41
1
10
55.8243078378926
20
31.4351916238171
30
0
41
1
10
55.8281867087587
20
31.4386001259236
30
0
41
1
10
55.8313710509865
20
31.4418011015638
30
0
41
1
10
55.8339039727927
20
31.4447505887242
30
0
41
1
10
55.8359423872583
20
31.4476187859638
30
0
41
1
10
55.83747860266
20
31.4503713394991
30
0
41
1
10
55.8385542688084
20
31.4529706424016
30
0
41
1
10
55.8392351525282
20
31.4555892540144
30
0
41
1
10
55.8394499834822
20
31.458188665976
30
0
41
1
10
55.8392143981308
20
31.4607276051227
30
0
41
1
10
55.8385136562959
20
31.4632629889709
30
0
41
1
10
55.8372968717003
20
31.4657390274161
30
0
41
1
10
55.8356025938421
20
31.4681255061283
30
0
41
1
10
55.8333838353498
20
31.4704980676919
30
0
41
1
10
55.8306238565374
20
31.4728148825891
30
0
41
1
10
55.8273291792612
20
31.4750478619826
30
0
41
1
10
55.8237602339799
20
31.4770639988337
30
0
41
1
10
55.8194369331606
20
31.4791578944085
30
0
41
1
10
55.8143207499199
20
31.4812751432896
30
0
41
1
10
55.8083730832047
20
31.4833530695551
30
0
41
1
10
55.8022277897012
20
31.4851922651904
30
0
41
1
10
55.7951680766612
20
31.4870365985276
30
0
41
1
10
55.7871771692161
20
31.4888467496742
30
0
41
1
10
55.7782324251178
20
31.4905689353686
30
0
41
1
10
55.7668927896428
20
31.4924416962994
30
0
41
1
10
55.7530873562589
20
31.4943208962252
30
0
41
1
10
55.7367565795312
20
31.4960467938876
30
0
41
1
10
55.7202530484016
20
31.4973767658332
30
0
41
1
10
55.7017057392121
20
31.4985048439068
30
0
41
1
10
55.6811059685637
20
31.4993760412599
30
0
41
1
10
55.6584330083127
20
31.499893686408
30
0
41
1
10
55.643253301373
20
31.5000064971649
30
0
41
1
10
55.6356454209085
20
31.5
30
0
0
SPLINE
5
1A9
100
AcDbEntity
8
1
62
256
6
ByLayer
370
18
48
1
60
0
100
AcDbSpline
70
4
71
3
72
78
73
74
40
0
40
0
40
0
40
0
40
0.015061926348976
40
0.03012446273054
40
0.0451873549817596
40
0.0602503554070434
40
0.0753132229002147
40
0.0903757230676455
40
0.105437628352456
40
0.120499754709959
40
0.135562525547241
40
0.150625674645988
40
0.165688941138643
40
0.180752069631307
40
0.195814810327582
40
0.210876919153349
40
0.225939205245836
40
0.241002162361066
40
0.256065515909564
40
0.271128995198446
40
0.286192333554324
40
0.301255268446922
40
0.31631754161343
40
0.329714667836585
40
0.343111985794881
40
0.35650930268082
40
0.369906427441648
40
0.383309723245097
40
0.396713213070646
40
0.410116702178214
40
0.423519997002583
40
0.437076265369531
40
0.450632735755988
40
0.464189205780135
40
0.477745473653016
40
0.491308218880795
40
0.504871166847476
40
0.51843411485007
40
0.531996860126821
40
0.545553128368107
40
0.559109598617682
40
0.572666069300573
40
0.586222338132751
40
0.599785058430112
40
0.613347979721149
40
0.626910901836321
40
0.640473623257518
40
0.654029875088991
40
0.667586325488781
40
0.681142777084978
40
0.694699030547938
40
0.708261600979647
40
0.721824367318811
40
0.735387135209142
40
0.748949707756107
40
0.762765274404868
40
0.776581044202005
40
0.790396816022232
40
0.804212385429791
40
0.818034392091323
40
0.831856597467025
40
0.845678805190419
40
0.859500815053395
40
0.873545561122484
40
0.887590608785584
40
0.901635761209029
40
0.915680816871074
40
0.929725569649102
40
0.943780258261631
40
0.957835236748953
40
0.971890316558367
40
0.98594530393324
40
1
40
1
40
1
40
1
41
1
10
55.7988579742298
20
30.7809618943233
30
0
41
1
10
55.8405094555402
20
30.7881148516985
30
0
41
1
10
55.923858819769
20
30.8022189423418
30
0
41
1
10
56.0490203891845
20
30.8227705743348
30
0
41
1
10
56.1743159979056
20
30.8427131998881
30
0
41
1
10
56.2997405549672
20
30.8620434129569
30
0
41
1
10
56.4252885283521
20
30.880757367231
30
0
41
1
10
56.5509545048228
20
30.8988513304991
30
0
41
1
10
56.6767359224507
20
30.9163219551161
30
0
41
1
10
56.8026320229743
20
30.9331660167901
30
0
41
1
10
56.9286417283255
20
30.9493811342687
30
0
41
1
10
57.0547609191545
20
30.9649645191049
30
0
41
1
10
57.1809835423433
20
30.9799131078952
30
0
41
1
10
57.3073035441115
20
30.9942238423501
30
0
41
1
10
57.433714871161
20
31.0078936595955
30
0
41
1
10
57.5602144009934
20
31.0209198118327
30
0
41
1
10
57.6868010584887
20
31.033299634658
30
0
41
1
10
57.8134735084297
20
31.0450314451171
30
0
41
1
10
57.9402273635269
20
31.0561132434673
30
0
41
1
10
58.0670560738619
20
31.0665428074784
30
0
41
1
10
58.1939530921433
20
31.076317911201
30
0
41
1
10
58.3209118602147
20
31.085436354452
30
0
41
1
10
58.443247906634
20
31.0935842729777
30
0
41
1
10
58.560951351712
20
31.1008424166059
30
0
41
1
10
58.6740142541852
20
31.1072886960781
30
0
41
1
10
58.787115372503
20
31.1132107850385
30
0
41
1
10
58.9002683534173
20
31.1186085187483
30
0
41
1
10
59.0134705603123
20
31.1234806174834
30
0
41
1
10
59.1267193053615
20
31.1278262103822
30
0
41
1
10
59.2399934153675
20
31.1316438869544
30
0
41
1
10
59.3537200994449
20
31.1349454826403
30
0
41
1
10
59.4678969177056
20
31.1377232496597
30
0
41
1
10
59.5825212564684
20
31.1399698106841
30
0
41
1
10
59.697158049724
20
31.1416743532072
30
0
41
1
10
59.8118215737001
20
31.1428367203115
30
0
41
1
10
59.9265089851673
20
31.1434562490684
30
0
41
1
10
60.0412174258506
20
31.1435327134173
30
0
41
1
10
60.1559246349547
20
31.1430660560592
30
0
41
1
10
60.270608353582
20
31.1420564624513
30
0
41
1
10
60.3852657255488
20
31.140504220918
30
0
41
1
10
60.499893913272
20
31.1384100561483
30
0
41
1
10
60.6145071972498
20
31.1357741283038
30
0
41
1
10
60.7291197839008
20
31.132596324199
30
0
41
1
10
60.8437288272744
20
31.1288766746409
30
0
41
1
10
60.9583315079986
20
31.1246156423273
30
0
41
1
10
61.0729057192031
20
31.1198145860896
30
0
41
1
10
61.187429326205
20
31.1144751072459
30
0
41
1
10
61.3018995568998
20
31.1085981783721
30
0
41
1
10
61.416313697736
20
31.1021851911008
30
0
41
1
10
61.5306861122638
20
31.0952363282261
30
0
41
1
10
61.6450307290959
20
31.0877515281103
30
0
41
1
10
61.7593448114937
20
31.0797315025506
30
0
41
1
10
61.8736256872134
20
31.0711773704305
30
0
41
1
10
61.9878518709553
20
31.0620918307715
30
0
41
1
10
62.102729528177
20
31.0524165331433
30
0
41
1
10
62.2182547500036
20
31.042141224277
30
0
41
1
10
62.3344234759754
20
31.0312560531351
30
0
41
1
10
62.4505224075965
20
31.0198259999267
30
0
41
1
10
62.5665657890474
20
31.0078510595735
30
0
41
1
10
62.6825509466534
20
30.9953326499235
30
0
41
1
10
62.7984753099504
20
30.9822725836959
30
0
41
1
10
62.9143172445602
20
30.9686749913031
30
0
41
1
10
63.0306949353043
20
30.9544661431161
30
0
41
1
10
63.1476045301316
20
30.9396378869582
30
0
41
1
10
63.2650421149659
20
30.9241825372423
30
0
41
1
10
63.3823830978601
20
30.90818151435
30
0
41
1
10
63.4996228079417
20
30.8916375961105
30
0
41
1
10
63.6167856266157
20
30.8745493216293
30
0
41
1
10
63.7338696176919
20
30.856918595058
30
0
41
1
10
63.8508730413071
20
30.838747730548
30
0
41
1
10
63.9677652101361
20
30.8200438948741
30
0
41
1
10
64.0845420739842
20
30.8008099264824
30
0
41
1
10
64.1623140476344
20
30.7876364827447
30
0
41
1
10
64.2011801314467
20
30.7809618943233
30
0
0
SPLINE
5
1AA
100
AcDbEntity
8
1
62
256
6
ByLayer
370
18
48
1
60
0
100
AcDbSpline
70
4
71
3
72
28
73
24
40
0
40
0
40
0
40
0
40
0.0115871335194937
40
0.0370951164601422
40
0.0752563980826517
40
0.113424336007812
40
0.151594850472126
40
0.189759646126764
40
0.229501662206648
40
0.269247045264893
40
0.308993335976156
40
0.348736589864414
40
0.402855932365861
40
0.456979976021052
40
0.511105108430684
40
0.565225935720799
40
0.619337654429607
40
0.673452437903099
40
0.727567603589626
40
0.78167984352687
40
0.854452135069631
40
0.927227564287959
40
1
40
1
40
1
40
1
41
1
10
55.0233594906743
20
30.6959618950763
30
0
41
1
10
55.0262767586303
20
30.6959579422573
30
0
41
1
10
55.0356251305264
20
30.6959725143144
30
0
41
1
10
55.0546617123871
20
30.6962154518254
30
0
41
1
10
55.0805154406295
20
30.6968314798536
30
0
41
1
10
55.1097054957763
20
30.6979360192098
30
0
41
1
10
55.1389914544226
20
30.6993891880042
30
0
41
1
10
55.168759435591
20
30.7011744979483
30
0
41
1
10
55.1989983045067
20
30.7032636859791
30
0
41
1
10
55.2297037841254
20
30.7056522819134
30
0
41
1
10
55.2604606609592
20
30.7082885961292
30
0
41
1
10
55.2949739607031
20
30.7114955980906
30
0
41
1
10
55.3332556081223
20
30.7153466547107
30
0
41
1
10
55.3753146862915
20
30.719923961428
30
0
41
1
10
55.4174215106149
20
30.7248267395001
30
0
41
1
10
55.4595640103705
20
30.7300278413562
30
0
41
1
10
55.5017357049409
20
30.7355029443863
30
0
41
1
10
55.5439322329693
20
30.7412422289585
30
0
41
1
10
55.5861500042507
20
30.7472339651031
30
0
41
1
10
55.6332380294514
20
30.7541831044371
30
0
41
1
10
55.6851983588019
20
30.7621804142101
30
0
41
1
10
55.7420278667703
20
30.7713361155469
30
0
41
1
10
55.7799143949423
20
30.7777083095552
30
0
41
1
10
55.7988579742298
20
30.7809618943233
30
0
0
SPLINE
5
1AB
100
AcDbEntity
8
1
62
256
6
ByLayer
370
18
48
1
60
0
100
AcDbSpline
70
4
71
3
72
41
73
37
40
0
40
0
40
0
40
0
40
0.0537448474640125
40
0.122522605822623
40
0.191284156622947
40
0.24386135789195
40
0.296480064150143
40
0.3490917431046
40
0.401669534361006
40
0.454212394870096
40
0.48584504125276
40
0.517526339948256
40
0.54919868277064
40
0.58083044128644
40
0.612421479106165
40
0.632568548378809
40
0.652746050528043
40
0.672904950543377
40
0.693026610640571
40
0.708393127935094
40
0.723802986062157
40
0.739191676528032
40
0.754529240020629
40
0.769798383830304
40
0.785107286104043
40
0.800362188184514
40
0.815664981292178
40
0.831023736715818
40
0.846336465851143
40
0.865478512154186
40
0.884696086526913
40
0.903876237398152
40
0.927844189532666
40
0.951886676694863
40
0.975972622175735
40
1
40
1
40
1
40
1
41
1
10
64.9766648191936
20
30.6959618955687
30
0
41
1
10
64.9818890733648
20
30.695956316835
30
0
41
1
10
64.993772328417
20
30.6960149672579
30
0
41
1
10
65.0122386674556
20
30.6963470138998
30
0
41
1
10
65.0304702229454
20
30.6969873196088
30
0
41
1
10
65.0470385223704
20
30.697840602636
30
0
41
1
10
65.0619559662036
20
30.6988666340291
30
0
41
1
10
65.0767252606905
20
30.7002029534558
30
0
41
1
10
65.0912994086828
20
30.7019023547072
30
0
41
1
10
65.1037297811929
20
30.7037406394335
30
0
41
1
10
65.1140899715117
20
30.7055723798509
30
0
41
1
10
65.1224474748398
20
30.7072825639558
30
0
41
1
10
65.1306265516221
20
30.7092465347559
30
0
41
1
10
65.1385707016938
20
30.7115061952825
30
0
41
1
10
65.1453016837315
20
30.7137890462303
30
0
41
1
10
65.1508868154465
20
30.7159961945896
30
0
41
1
10
65.1553974445989
20
30.7180406524239
30
0
41
1
10
65.1596729923246
20
30.7202996016527
30
0
41
1
10
65.1633450179578
20
30.7226001164838
30
0
41
1
10
65.1664385551666
20
30.724902613985
30
0
41
1
10
65.168992244588
20
30.7271627967807
30
0
41
1
10
65.171244617334
20
30.7296035759883
30
0
41
1
10
65.1731369587669
20
30.7322253266827
30
0
41
1
10
65.1745998965341
20
30.7350357436514
30
0
41
1
10
65.175594878671
20
30.7380137788144
30
0
41
1
10
65.1760838801404
20
30.7411422373664
30
0
41
1
10
65.176004400823
20
30.7443911161842
30
0
41
1
10
65.1753952205555
20
30.7477066182575
30
0
41
1
10
65.1741916243123
20
30.7513196624429
30
0
41
1
10
65.1722711809079
20
30.7551848094131
30
0
41
1
10
65.1696216560216
20
30.7592390887027
30
0
41
1
10
65.1662221994631
20
30.7635047755097
30
0
41
1
10
65.1620516159439
20
30.767930666279
30
0
41
1
10
65.1571164374859
20
30.7724736632312
30
0
41
1
10
65.1518092191207
20
30.7768191520618
30
0
41
1
10
65.1481026980156
20
30.7796022341816
30
0
41
1
10
65.1462034186706
20
30.7809618943233
30
0
0
SPLINE
5
1AC
100
AcDbEntity
8
1
62
256
6
ByLayer
370
18
48
1
60
0
100
AcDbSpline
70
4
71
3
72
27
73
23
40
0
40
0
40
0
40
0
40
0.0282052585515612
40
0.0650845715280393
40
0.101942158615879
40
0.138717483063214
40
0.175503570021688
40
0.212292695300081
40
0.2490721640611
40
0.300815282544428
40
0.352567950717787
40
0.404313976882255
40
0.46352279955877
40
0.522753430011226
40
0.581995057036574
40
0.641232675554219
40
0.700447361402882
40
0.760345638033637
40
0.820262204768699
40
0.880184940171805
40
0.940101624615635
40
1
40
1
40
1
40
1
41
1
10
68.2168801351966
20
30.6959618969986
30
0
41
1
10
68.2132351554753
20
30.6959616013468
30
0
41
1
10
68.2047788780389
20
30.6960516613099
30
0
41
1
10
68.1913516858973
20
30.6965451903355
30
0
41
1
10
68.1766336261548
20
30.6974299148406
30
0
41
1
10
68.1617918410023
20
30.6986253068295
30
0
41
1
10
68.1468424933242
20
30.7001090121994
30
0
41
1
10
68.1317930253791
20
30.7018578420629
30
0
41
1
10
68.1146080847283
20
30.7041182330492
30
0
41
1
10
68.0952608979599
20
30.7069860927919
30
0
41
1
10
68.0737318134463
20
30.7105640472262
30
0
41
1
10
68.0510660847636
20
30.7147028350203
30
0
41
1
10
68.027266432854
20
30.7194273391218
30
0
41
1
10
68.0023352688807
20
30.7247755483122
30
0
41
1
10
67.9773333333423
20
30.7305193951554
30
0
41
1
10
67.9522818995681
20
30.7366364058223
30
0
41
1
10
67.9270992857284
20
30.7431304318784
30
0
41
1
10
67.9017934739741
20
30.7499887701734
30
0
41
1
10
67.8763704750086
20
30.7572151268418
30
0
41
1
10
67.8509387168405
20
30.7647795841027
30
0
41
1
10
67.8255128212232
20
30.7726780585589
30
0
41
1
10
67.8085756565878
20
30.7781639858585
30
0
41
1
10
67.800110550016
20
30.7809618943233
30
0
0
SPLINE
5
1AD
100
AcDbEntity
8
1
62
256
6
ByLayer
370
18
48
1
60
0
100
AcDbSpline
70
4
71
3
72
37
73
33
40
0
40
0
40
0
40
0
40
0.0089627963368848
40
0.0791619434736312
40
0.149322702157485
40
0.192374716192172
40
0.23548613159895
40
0.278594514931329
40
0.321661366042199
40
0.36467595507802
40
0.399118482873391
40
0.433665890095162
40
0.468207119350309
40
0.502673630213606
40
0.537048115316065
40
0.564092824887837
40
0.5912154937983
40
0.618313388532176
40
0.645324211996976
40
0.672595630928149
40
0.69999373834173
40
0.727385471379635
40
0.754648157217965
40
0.778432480212173
40
0.802288825381983
40
0.826159673513439
40
0.849963830919609
40
0.879877173619868
40
0.90988129984874
40
0.939953769446884
40
0.970027821315614
40
1
40
1
40
1
40
1
41
1
10
51.783137410832
20
30.6959618952393
30
0
41
1
10
51.7825544998962
20
30.6959610102206
30
0
41
1
10
51.7774123190584
20
30.6959643140487
30
0
41
1
10
51.767810259809
20
30.6961531178745
30
0
41
1
10
51.7562591318584
20
30.6967951491192
30
0
41
1
10
51.7466241623623
20
30.6976671244274
30
0
41
1
10
51.738812841789
20
30.6986174303768
30
0
41
1
10
51.7311903253971
20
30.6998297123702
30
0
41
1
10
51.7238004510281
20
30.7013341681087
30
0
41
1
10
51.7171571422176
20
30.7030397893378
30
0
41
1
10
51.7112336737788
20
30.7049033915944
30
0
41
1
10
51.7060072373167
20
30.7068864011231
30
0
41
1
10
51.7010778119927
20
30.7091599958422
30
0
41
1
10
51.6965139757515
20
30.7117504299943
30
0
41
1
10
51.6926718908677
20
30.7144745111227
30
0
41
1
10
51.6895144725677
20
30.7172792329315
30
0
41
1
10
51.6869761207902
20
30.7200981096613
30
0
41
1
10
51.6848409872874
20
30.7231636314977
30
0
41
1
10
51.6831534315142
20
30.7264846725332
30
0
41
1
10
51.6819883361166
20
30.7300745335753
30
0
41
1
10
51.68136279466
20
30.7339070614472
30
0
41
1
10
51.6812842866306
20
30.7379298345503
30
0
41
1
10
51.6817504813069
20
30.7419286347519
30
0
41
1
10
51.6826899890332
20
30.7458511009737
30
0
41
1
10
51.6839800039971
20
30.7496549727978
30
0
41
1
10
51.6856335876558
20
30.7534937543553
30
0
41
1
10
51.6877927231333
20
30.7576705525797
30
0
41
1
10
51.6905308475069
20
30.7621690819057
30
0
41
1
10
51.693887907166
20
30.7669650132954
30
0
41
1
10
51.6976080631987
20
30.771711073492
30
0
41
1
10
51.701635498852
20
30.7763851106715
30
0
41
1
10
51.704485302574
20
30.7794464841321
30
0
41
1
10
51.7059524645424
20
30.7809618943233
30
0
0
SPLINE
5
1AE
100
AcDbEntity
8
1
62
256
6
ByLayer
370
18
48
1
60
0
100
AcDbSpline
70
4
71
3
72
26
73
22
40
0
40
0
40
0
40
0
40
0.0035543198223663
40
0.0419233945931316
40
0.0803128067467566
40
0.11868981403878
40
0.164938208714737
40
0.211225037343052
40
0.257537221950184
40
0.30384738258585
40
0.350115363093429
40
0.409298700668541
40
0.468511941574524
40
0.527731483410401
40
0.586923417337034
40
0.655714690016716
40
0.724566371272026
40
0.793451877263453
40
0.862341438043323
40
0.931202480738752
40
1
40
1
40
1
40
1
41
1
10
49.7156933797327
20
30.6959618946843
30
0
41
1
10
49.7160138843642
20
30.6959619432737
30
0
41
1
10
49.719798966837
20
30.6959698478925
30
0
41
1
10
49.7271666222833
20
30.6961592043253
30
0
41
1
10
49.7379794677162
20
30.6968409628878
30
0
41
1
10
49.7497572104286
20
30.6979636084073
30
0
41
1
10
49.7625081193156
20
30.699565553195
30
0
41
1
10
49.7762423229313
20
30.7016949114744
30
0
41
1
10
49.7901597516196
20
30.7042196980327
30
0
41
1
10
49.8042229343979
20
30.707102906313
30
0
41
1
10
49.8197227165303
20
30.7106071551347
30
0
41
1
10
49.8366785307013
20
30.7148079515126
30
0
41
1
10
49.8551059613823
20
30.7197927144354
30
0
41
1
10
49.8736460828761
20
30.7251985381092
30
0
41
1
10
49.8932798627619
20
30.7313087498397
30
0
41
1
10
49.9140073413937
20
30.7381659884368
30
0
41
1
10
49.9358256804713
20
30.7458294836311
30
0
41
1
10
49.9577029951952
20
30.7539512251614
30
0
41
1
10
49.9796085173112
20
30.7625132695051
30
0
41
1
10
50.0015140440367
20
30.7714994495784
30
0
41
1
10
50.0161020776034
20
30.7777624798556
30
0
41
1
10
50.0233913500384
20
30.7809618943233
30
0
0
SPLINE
5
1AF
100
AcDbEntity
8
1
62
256
6
ByLayer
370
18
48
1
60
0
100
AcDbSpline
70
4
71
3
72
35
73
31
40
0
40
0
40
0
40
0
40
0.0087116642460278
40
0.069037571265306
40
0.112124125108863
40
0.155284332108067
40
0.198445523631243
40
0.24155978411568
40
0.284607739556669
40
0.320984427821624
40
0.357542046057322
40
0.394144616214351
40
0.430689005794275
40
0.467112055231461
40
0.503398639096827
40
0.536668778627412
40
0.570052404382859
40
0.603421612608892
40
0.636672023220246
40
0.6699721925717
40
0.70339275736277
40
0.736826889443466
40
0.770145625126521
40
0.8035576931071
40
0.837072064887344
40
0.870650719532684
40
0.904220512725517
40
0.937679211516082
40
0.968838776039196
40
1
40
1
40
1
40
1
41
1
10
70.2843388258846
20
30.6959618950889
30
0
41
1
10
70.2847944674468
20
30.6959610271303
30
0
41
1
10
70.2883970985921
20
30.6959659947473
30
0
41
1
10
70.2941449582347
20
30.696130173291
30
0
41
1
10
70.301446594451
20
30.6966351667532
30
0
41
1
10
70.3077054391029
20
30.6973279760349
30
0
41
1
10
70.3137481964807
20
30.6982906047995
30
0
41
1
10
70.3195318496779
20
30.6995492067144
30
0
41
1
10
70.3247359474195
20
30.7010452500791
30
0
41
1
10
70.3293751867153
20
30.7027550064196
30
0
41
1
10
70.3334713329452
20
30.7046455521119
30
0
41
1
10
70.3372527710996
20
30.7068298771392
30
0
41
1
10
70.3406647705369
20
30.7093203573463
30
0
41
1
10
70.3436523434528
20
30.7121292450721
30
0
41
1
10
70.3460952914759
20
30.7151835832229
30
0
41
1
10
70.3479813943982
20
30.7184710043183
30
0
41
1
10
70.3493409603071
20
30.7219491717752
30
0
41
1
10
70.3502075253833
20
30.7256941107487
30
0
41
1
10
70.3505529017915
20
30.7296888634662
30
0
41
1
10
70.3503426522202
20
30.7339218244175
30
0
41
1
10
70.3496070853183
20
30.7383533688146
30
0
41
1
10
70.3483731494801
20
30.7429383663124
30
0
41
1
10
70.3466589062971
20
30.7476425819859
30
0
41
1
10
70.3444818246721
20
30.7524377783273
30
0
41
1
10
70.3418926212636
20
30.7572979096547
30
0
41
1
10
70.338934243345
20
30.7621920915576
30
0
41
1
10
70.3356523635511
20
30.7670886447921
30
0
41
1
10
70.3321644491178
20
30.7718556377632
30
0
41
1
10
70.3285207971314
20
30.7764825518569
30
0
41
1
10
70.3260229743142
20
30.7794719189662
30
0
41
1
10
70.324740241091
20
30.7809618943233
30
0
0
SPLINE
5
1B0
100
AcDbEntity
8
1
62
256
6
ByLayer
370
18
48
1
60
0
100
AcDbSpline
70
4
71
3
72
27
73
23
40
0
40
0
40
0
40
0
40
0.0125630761976953
40
0.0463089425055832
40
0.0800645945100759
40
0.113790139237791
40
0.159881512747599
40
0.205999494986166
40
0.252100037369325
40
0.301175600258159
40
0.350293080496545
40
0.399434761543045
40
0.44857130535522
40
0.49766287120077
40
0.560587008569061
40
0.623549451116722
40
0.686517617408363
40
0.749449564503797
40
0.812071561020361
40
0.874723634181599
40
0.937376678519433
40
1
40
1
40
1
40
1
41
1
10
71.8117520330774
20
30.6959618966008
30
0
41
1
10
71.8109001595066
20
30.6959620474838
30
0
41
1
10
71.8077395016845
20
30.6959906942169
30
0
41
1
10
71.8021341213272
20
30.6962274000766
30
0
41
1
10
71.794830662777
20
30.6968359645215
30
0
41
1
10
71.7864245426807
20
30.6978375410438
30
0
41
1
10
71.776863148877
20
30.6993290737978
30
0
41
1
10
71.7661062024238
20
30.7014062661122
30
0
41
1
10
71.7548973834065
20
30.7039341852476
30
0
41
1
10
71.7432575096477
20
30.7068995411338
30
0
41
1
10
71.7311993127212
20
30.7103007639844
30
0
41
1
10
71.7189887876417
20
30.714049939204
30
0
41
1
10
71.706655943013
20
30.7181188524568
30
0
41
1
10
71.6930556835025
20
30.722891397781
30
0
41
1
10
71.678169443417
20
30.7284449847408
30
0
41
1
10
71.6619858615379
20
30.7348637932
30
0
41
1
10
71.6457090868328
20
30.7416819740957
30
0
41
1
10
71.6293911681897
20
30.7488625447887
30
0
41
1
10
71.6130494848675
20
30.7563833324863
30
0
41
1
10
71.596698235575
20
30.7642329089675
30
0
41
1
10
71.5803277590325
20
30.7724128053984
30
0
41
1
10
71.5694167960853
20
30.778076957732
30
0
41
1
10
71.5639618612494
20
30.7809618943233
30
0
0
SPLINE
5
1B1
100
AcDbEntity
8
1
62
256
6
ByLayer
370
18
48
1
60
0
100
AcDbSpline
70
4
71
3
72
32
73
28
40
0
40
0
40
0
40
0
40
0.0295736778741808
40
0.0815161447948944
40
0.133386319976111
40
0.172318807365632
40
0.21134683457131
40
0.2503829207065
40
0.28936441171117
40
0.328257776628401
40
0.367602602933242
40
0.407131786316628
40
0.446693672671516
40
0.486165004869564
40
0.525461088953939
40
0.559702266040558
40
0.594080491233846
40
0.62851313438322
40
0.662906065926853
40
0.697159627148516
40
0.736386286871938
40
0.775714472096295
40
0.815065174397288
40
0.854322615431118
40
0.902852605849626
40
0.951447148747414
40
1
40
1
40
1
40
1
41
1
10
48.1882864254373
20
30.6959618966663
30
0
41
1
10
48.1869959186328
20
30.6959601241203
30
0
41
1
10
48.1834834680024
20
30.6960110418903
30
0
41
1
10
48.1779236431574
20
30.6963364650438
30
0
41
1
10
48.1722778565575
20
30.6970482471187
30
0
41
1
10
48.1674254735216
20
30.6980128090628
30
0
41
1
10
48.1632989864751
20
30.6991454202128
30
0
41
1
10
48.1594457054129
20
30.700557803086
30
0
41
1
10
48.1559062618732
20
30.7022662590617
30
0
41
1
10
48.1527021487803
20
30.7042925847299
30
0
41
1
10
48.1498866058611
20
30.7066732270963
30
0
41
1
10
48.147496244592
20
30.7094194709206
30
0
41
1
10
48.1455696132194
20
30.712515724185
30
0
41
1
10
48.1441477179487
20
30.7159520461244
30
0
41
1
10
48.1433064423143
20
30.7195632737324
30
0
41
1
10
48.1430055862044
20
30.723302515622
30
0
41
1
10
48.1431484802585
20
30.7271009884059
30
0
41
1
10
48.1437093190605
20
30.7311063649622
30
0
41
1
10
48.1446764768985
20
30.735284069562
30
0
41
1
10
48.1461109113773
20
30.739819806885
30
0
41
1
10
48.1480721896588
20
30.7447193221692
30
0
41
1
10
48.150576819785
20
30.7499680083753
30
0
41
1
10
48.1534965579808
20
30.7553125246088
30
0
41
1
10
48.1570516369471
20
30.7611445459087
30
0
41
1
10
48.161307595678
20
30.7674529849545
30
0
41
1
10
48.1663044908414
20
30.774214626921
30
0
41
1
10
48.1698842440374
20
30.7787137024216
30
0
41
1
10
48.171739606561
20
30.7809618943233
30
0
0
SPLINE
5
1B2
100
AcDbEntity
8
1
62
256
6
ByLayer
370
18
48
1
60
0
100
AcDbSpline
70
4
71
3
72
30
73
26
40
0
40
0
40
0
40
0
40
0.0459819159662544
40
0.0920608561411833
40
0.138106097029455
40
0.184041956231859
40
0.221505235730863
40
0.259132176219746
40
0.296785980549244
40
0.33435754481604
40
0.371774182136088
40
0.414090149028454
40
0.456596954314479
40
0.499112504089209
40
0.541440448598059
40
0.579149070341253
40
0.616958566815144
40
0.654789781128095
40
0.692528094169486
40
0.741077516214531
40
0.789767447517975
40
0.838557795601471
40
0.887346216114579
40
0.935978494165076
40
1
40
1
40
1
40
1
41
1
10
49.6815022152848
20
31.425
30
0
41
1
10
49.6799347791808
20
31.4268938142676
30
0
41
1
10
49.676905233959
20
31.4306877649661
30
0
41
1
10
49.6726651840552
20
31.4363963216019
30
0
41
1
10
49.668795968541
20
31.4420899101335
30
0
41
1
10
49.6655587995027
20
31.4473910886874
30
0
41
1
10
49.6629253017968
20
31.4522823375768
30
0
41
1
10
49.6608298108792
20
31.4567606570602
30
0
41
1
10
49.6591129661293
20
31.4611399966554
30
0
41
1
10
49.6578107013978
20
31.4653782529826
30
0
41
1
10
49.6569182093546
20
31.4696175824464
30
0
41
1
10
49.6565542347899
20
31.4737913700346
30
0
41
1
10
49.6567808866093
20
31.477839697693
30
0
41
1
10
49.6575955124259
20
31.4815637721463
30
0
41
1
10
49.6589420171868
20
31.4848042686419
30
0
41
1
10
49.6607396468027
20
31.4875819448765
30
0
41
1
10
49.6628715082773
20
31.4899612977591
30
0
41
1
10
49.6653726755699
20
31.4920548646497
30
0
41
1
10
49.6684803883728
20
31.4940405741775
30
0
41
1
10
49.6722787448342
20
31.4958330324217
30
0
41
1
10
49.6768208985002
20
31.4973627570742
30
0
41
1
10
49.6817451372087
20
31.4985165063305
30
0
41
1
10
49.6869869832203
20
31.4993260322296
30
0
41
1
10
49.693083479106
20
31.4998705587641
30
0
41
1
10
49.6975378729901
20
31.5000057994091
30
0
41
1
10
49.7001387488908
20
31.5
30
0
0
SPLINE
5
1B3
100
AcDbEntity
8
1
62
256
6
ByLayer
370
18
48
1
60
0
100
AcDbSpline
70
4
71
3
72
26
73
22
40
0
40
0
40
0
40
0
40
0.0370941830874765
40
0.0742382530558631
40
0.111396993053058
40
0.148511206176681
40
0.199672149955508
40
0.250873023064909
40
0.302048351102186
40
0.360755265716719
40
0.41951903244924
40
0.478297833971333
40
0.537025269464628
40
0.59723838411898
40
0.657488230226611
40
0.717743882970494
40
0.777964920455999
40
0.833384931248283
40
0.888805254658153
40
0.944402565669564
40
1
40
1
40
1
40
1
41
1
10
49.4016947552745
20
31.5
30
0
41
1
10
49.4035566351878
20
31.4999964160081
30
0
41
1
10
49.407375589243
20
31.4998746408124
30
0
41
1
10
49.4134028653409
20
31.4993330751227
30
0
41
1
10
49.419672959044
20
31.4984762554998
30
0
41
1
10
49.4269712806166
20
31.4971859675281
30
0
41
1
10
49.4353596177429
20
31.49536195884
30
0
41
1
10
49.4448834651352
20
31.4929090074928
30
0
41
1
10
49.4551291621662
20
31.4899183517564
30
0
41
1
10
49.4660930642455
20
31.4863711659877
30
0
41
1
10
49.4777710813471
20
31.4822431730107
30
0
41
1
10
49.4896329061799
20
31.4777326719418
30
0
41
1
10
49.501743461942
20
31.472837090358
30
0
41
1
10
49.5140811179935
20
31.4675785496137
30
0
41
1
10
49.5266313247613
20
31.4619664468703
30
0
41
1
10
49.5392692645799
20
31.4560655925322
30
0
41
1
10
49.5516368515296
20
31.450059973004
30
0
41
1
10
49.5637129633701
20
31.4439887431837
30
0
41
1
10
49.5754967759457
20
31.4378742101977
30
0
41
1
10
49.587317802209
20
31.4315530822806
30
0
41
1
10
49.5952140241521
20
31.4272060650394
30
0
41
1
10
49.599164706636
20
31.425
30
0
0
SPLINE
5
1B4
100
AcDbEntity
8
1
62
256
6
ByLayer
370
18
48
1
60
0
100
AcDbSpline
70
4
71
1
72
4
73
2
40
0
40
0
40
1
40
1
41
1
10
49.599164706636
20
31.425
30
0
41
1
10
49.6518732817362
20
31.3958027312657
30
0
0
SPLINE
5
1B5
100
AcDbEntity
8
1
62
256
6
ByLayer
370
18
48
1
60
0
100
AcDbSpline
70
4
71
3
72
31
73
27
40
0
40
0
40
0
40
0
40
0.0470465443335395
40
0.0941999579687042
40
0.141356168543909
40
0.188445409471018
40
0.235438015059636
40
0.282199503268607
40
0.329105700989873
40
0.375964037328676
40
0.422660045598071
40
0.461081622558056
40
0.499636207438669
40
0.538176670550424
40
0.576578922568069
40
0.615016795190765
40
0.65359169146555
40
0.692182071524301
40
0.730641132079047
40
0.769117647691392
40
0.807713116794788
40
0.846380835795498
40
0.885036125970687
40
0.923562975287913
40
0.96178030653842
40
1
40
1
40
1
40
1
41
1
10
70.2998993567857
20
31.5
30
0
41
1
10
70.3018082593822
20
31.5000026782557
30
0
41
1
10
70.3055583237687
20
31.4999208608259
30
0
41
1
10
70.3109838911108
20
31.4995478590316
30
0
41
1
10
70.3161646171584
20
31.4988889822759
30
0
41
1
10
70.3210571942668
20
31.4979200484657
30
0
41
1
10
70.325612049372
20
31.4966175380732
30
0
41
1
10
70.3297814712057
20
31.4949469427827
30
0
41
1
10
70.3335144913635
20
31.4928829755534
30
0
41
1
10
70.3367561538225
20
31.4904033257917
30
0
41
1
10
70.3392780709553
20
31.4876599675299
30
0
41
1
10
70.3411215176517
20
31.4847147881454
30
0
41
1
10
70.3423882067845
20
31.4816600420654
30
0
41
1
10
70.3431841107729
20
31.4783168184423
30
0
41
1
10
70.3434853323496
20
31.4746996195114
30
0
41
1
10
70.3432634480066
20
31.4708169862523
30
0
41
1
10
70.3425485499477
20
31.4667071699309
30
0
41
1
10
70.341366078787
20
31.4624119857733
30
0
41
1
10
70.3397350458256
20
31.4579669389876
30
0
41
1
10
70.3376727659002
20
31.4533984938896
30
0
41
1
10
70.3352257449546
20
31.4487345327409
30
0
41
1
10
70.3324314985566
20
31.4440033640093
30
0
41
1
10
70.3293315614782
20
31.4392379917004
30
0
41
1
10
70.3259673663327
20
31.4344731255619
30
0
41
1
10
70.3223679479737
20
31.42972301776
30
0
41
1
10
70.3198376294861
20
31.4265735185879
30
0
41
1
10
70.3185358903919
20
31.4250000000002
30
0
0
SPLINE
5
1B6
100
AcDbEntity
8
1
62
256
6
ByLayer
370
18
48
1
60
0
100
AcDbSpline
70
4
71
1
72
4
73
2
40
0
40
0
40
1
40
1
41
1
10
70.3481757974986
20
31.3958087607618
30
0
41
1
10
70.4008733990405
20
31.425
30
0
0
SPLINE
5
1B7
100
AcDbEntity
8
1
62
256
6
ByLayer
370
18
48
1
60
0
100
AcDbSpline
70
4
71
3
72
25
73
21
40
0
40
0
40
0
40
0
40
0.0739954562214525
40
0.148043816204937
40
0.222087223742018
40
0.296075921716451
40
0.356916306205076
40
0.417825979332345
40
0.478744619633
40
0.539626920245098
40
0.600444321818257
40
0.652195499087733
40
0.703966327696222
40
0.755708401362354
40
0.795351949132193
40
0.835032054320197
40
0.874700797187942
40
0.914328835783481
40
0.957084908649396
40
1
40
1
40
1
40
1
41
1
10
70.4008733990405
20
31.425
30
0
41
1
10
70.4061326557474
20
31.4279371814412
30
0
41
1
10
70.4166435482077
20
31.4336966734334
30
0
41
1
10
70.4323885056756
20
31.4419938864514
30
0
41
1
10
70.4480763142041
20
31.4499232517743
30
0
41
1
10
70.4627554250401
20
31.457017834329
30
0
41
1
10
70.4764229873876
20
31.4633392397185
30
0
41
1
10
70.4890850199437
20
31.4689415534457
30
0
41
1
10
70.501634335874
20
31.4742218862586
30
0
41
1
10
70.5140358691343
20
31.479148434667
30
0
41
1
10
70.5256527680804
20
31.4834662719823
30
0
41
1
10
70.5364879348022
20
31.4872113386799
30
0
41
1
10
70.5465465239272
20
31.4904144687959
30
0
41
1
10
70.5556254996378
20
31.4930265044174
30
0
41
1
10
70.5637498752621
20
31.4951136676484
30
0
41
1
10
70.5709549996186
20
31.4967449033472
30
0
41
1
10
70.5779612840985
20
31.498085853413
30
0
41
1
10
70.5849121571836
20
31.4991341774287
30
0
41
1
10
70.5917626744256
20
31.4998323310214
30
0
41
1
10
70.5961872862773
20
31.4999941874488
30
0
41
1
10
70.598343350402
20
31.5
30
0
0
SPLINE
5
1B8
100
AcDbEntity
8
1
62
256
6
ByLayer
370
18
48
1
60
0
100
AcDbSpline
70
4
71
3
72
27
73
23
40
0
40
0
40
0
40
0
40
0.0315807394853123
40
0.0631178473818398
40
0.100272233660434
40
0.137463579321683
40
0.174664272216728
40
0.211831416815357
40
0.262672101343656
40
0.313544117345137
40
0.364394413340569
40
0.413675727155048
40
0.462999637735135
40
0.512345937656025
40
0.561685123328861
40
0.610979259902335
40
0.674240277582712
40
0.737544211337567
40
0.800853045391447
40
0.864120749736377
40
0.932060228495718
40
1
40
1
40
1
40
1
41
1
10
47.008960949633
20
30.6959618943314
30
0
41
1
10
47.0106118823769
20
30.6959648873872
30
0
41
1
10
47.0139837363701
20
30.6960620748033
30
0
41
1
10
47.019580749063
20
30.6965141170207
30
0
41
1
10
47.0257296792328
20
30.6973057122081
30
0
41
1
10
47.0324453183107
20
30.698468612284
30
0
41
1
10
47.0393701500981
20
30.6999355868034
30
0
41
1
10
47.0473464734616
20
30.7018957929553
30
0
41
1
10
47.0564290576472
20
30.7044494614548
30
0
41
1
10
47.0666584079105
20
30.707693018927
30
0
41
1
10
47.0769942594806
20
30.7112982653261
30
0
41
1
10
47.0873968775922
20
30.715215236882
30
0
41
1
10
47.0978399617041
20
30.7194091282221
30
0
41
1
10
47.108411881409
20
30.7239001795662
30
0
41
1
10
47.1190881286963
20
30.7286659178304
30
0
41
1
10
47.1308667399509
20
30.7341608228398
30
0
41
1
10
47.1437649049723
20
30.7404563645101
30
0
41
1
10
47.1577913775834
20
30.7476269615856
30
0
41
1
10
47.1718968119477
20
30.7551497733873
30
0
41
1
10
47.1864054371454
20
30.7631957821991
30
0
41
1
10
47.2013042464993
20
30.7717769604901
30
0
41
1
10
47.2114815628436
20
30.777861276102
30
0
41
1
10
47.2165748286812
20
30.7809618943233
30
0
0
SPLINE
5
1B9
100
AcDbEntity
8
1
62
256
6
ByLayer
370
18
48
1
60
0
100
AcDbSpline
70
4
71
3
72
31
73
27
40
0
40
0
40
0
40
0
40
0.0204247866865253
40
0.0661410447878924
40
0.111838353474696
40
0.157461182304036
40
0.196370360929518
40
0.235399624001899
40
0.274447940318274
40
0.313435799672499
40
0.352310148312595
40
0.391470632458184
40
0.430797688280749
40
0.470175263546452
40
0.509490467385639
40
0.548640969107918
40
0.592611560006736
40
0.636723273179048
40
0.680856241618168
40
0.724855907389365
40
0.772589901175711
40
0.820469904962511
40
0.868440516538907
40
0.916397519581141
40
0.964196299049635
40
1
40
1
40
1
40
1
41
1
10
72.9910631334864
20
30.6959618957332
30
0
41
1
10
72.9918085024088
20
30.6959615711196
30
0
41
1
10
72.9941919673528
20
30.6959954389117
30
0
41
1
10
72.9980667134324
20
30.6962370418054
30
0
41
1
10
73.0025092032361
20
30.6968737076429
30
0
41
1
10
73.0064077201093
20
30.6978231006632
30
0
41
1
10
73.0097799206607
20
30.6990532471237
30
0
41
1
10
73.0126631154755
20
30.7005161040129
30
0
41
1
10
73.0152156464572
20
30.7022852676497
30
0
41
1
10
73.0174035447567
20
30.7043676088117
30
0
41
1
10
73.0192024961701
20
30.7067761279425
30
0
41
1
10
73.0205686511609
20
30.7095344366499
30
0
41
1
10
73.0214927353891
20
30.71263395232
30
0
41
1
10
73.0219684273761
20
30.7160480730068
30
0
41
1
10
73.0219870830853
20
30.7197522125015
30
0
41
1
10
73.0215188447335
20
30.7238942186521
30
0
41
1
10
73.0204839460204
20
30.728502985379
30
0
41
1
10
73.0188581047329
20
30.7335682511079
30
0
41
1
10
73.0167169095082
20
30.7388674214862
30
0
41
1
10
73.0140184923825
20
30.7445117833417
30
0
41
1
10
73.0107431310062
20
30.7504874371359
30
0
41
1
10
73.006904703039
20
30.756769771009
30
0
41
1
10
73.0026416036236
20
30.7631603240488
30
0
41
1
10
72.9980115605244
20
30.7696126728429
30
0
41
1
10
72.9934688879341
20
30.7755562276169
30
0
41
1
10
72.9904377226833
20
30.7793395289183
30
0
41
1
10
72.9891114654472
20
30.7809618943233
30
0
0
SPLINE
5
1BA
100
AcDbEntity
8
1
62
256
6
ByLayer
370
18
48
1
60
0
100
AcDbSpline
70
4
71
3
72
30
73
26
40
0
40
0
40
0
40
0
40
0.0115107940961538
40
0.0595817806169371
40
0.101854248017017
40
0.144264157755559
40
0.186697724097327
40
0.229063744928879
40
0.271299285576051
40
0.3138272821998
40
0.356539136715083
40
0.3993086592651
40
0.442011015870913
40
0.484531012204268
40
0.531851251851264
40
0.579321580604075
40
0.626813939043243
40
0.674164311851634
40
0.725275249709681
40
0.776544010923977
40
0.827907715546982
40
0.879254154692429
40
0.930430450672888
40
0.965214888657872
40
1
40
1
40
1
40
1
41
1
10
46.0889670768617
20
30.6959618951623
30
0
41
1
10
46.0886209408426
20
30.6959621784278
30
0
41
1
10
46.0868471435894
20
30.6959831229189
30
0
41
1
10
46.0839578652654
20
30.69617956301
30
0
41
1
10
46.0805412309842
20
30.6968049257057
30
0
41
1
10
46.077601548537
20
30.6977417263222
30
0
41
1
10
46.075016391192
20
30.6990275726228
30
0
41
1
10
46.0728200996107
20
30.700672310033
30
0
41
1
10
46.0710381518613
20
30.7026907956521
30
0
41
1
10
46.0697149882008
20
30.7051104341399
30
0
41
1
10
46.0688574435093
20
30.7079221651651
30
0
41
1
10
46.0684698766956
20
30.7111007024916
30
0
41
1
10
46.06855900438
20
30.7146224303427
30
0
41
1
10
46.0691565292649
20
30.7186181789524
30
0
41
1
10
46.0703368541373
20
30.7231216190125
30
0
41
1
10
46.0721187091406
20
30.7281236234242
30
0
41
1
10
46.0744238595472
20
30.7334174194265
30
0
41
1
10
46.0772929811335
20
30.7391043298435
30
0
41
1
10
46.0807437077634
20
30.7451735814574
30
0
41
1
10
46.0847611006797
20
30.7516002266163
30
0
41
1
10
46.0892078207547
20
30.7581888868605
30
0
41
1
10
46.0940272951263
20
30.7648888331027
30
0
41
1
10
46.0986272628089
20
30.7709429029202
30
0
41
1
10
46.1028704503819
20
30.7763056946025
30
0
41
1
10
46.1053964925271
20
30.7794074830032
30
0
41
1
10
46.1066807661857
20
30.7809618943233
30
0
0
SPLINE
5
1BB
100
AcDbEntity
8
1
62
256
6
ByLayer
370
18
48
1
60
0
100
AcDbSpline
70
4
71
3
72
27
73
23
40
0
40
0
40
0
40
0
40
0.0186779014997733
40
0.0580666781323486
40
0.0973253253248448
40
0.145345949383248
40
0.193415136331835
40
0.241451402552561
40
0.290765487087812
40
0.340111746324256
40
0.389434886574726
40
0.4459090552122
40
0.502438004530667
40
0.558978172489351
40
0.615467653555563
40
0.673476503996763
40
0.731525442842714
40
0.789579331000536
40
0.847594935062255
40
0.898392586286336
40
0.949201652887342
40
1
40
1
40
1
40
1
41
1
10
73.9110638524866
20
30.6959618970051
30
0
41
1
10
73.9103126927501
20
30.6959654871173
30
0
41
1
10
73.9079364019546
20
30.6960244326836
30
0
41
1
10
73.9037350773322
20
30.696371811372
30
0
41
1
10
73.8979017543222
20
30.6972639082402
30
0
41
1
10
73.8912908087996
20
30.6986922088745
30
0
41
1
10
73.8838752657031
20
30.7007144387587
30
0
41
1
10
73.8760669508209
20
30.70321442052
30
0
41
1
10
73.867904204813
20
30.7061622776093
30
0
41
1
10
73.859418527387
20
30.7095332543539
30
0
41
1
10
73.8502957291579
20
30.7134479071318
30
0
41
1
10
73.840532285435
20
30.7179334806136
30
0
41
1
10
73.8301284704635
20
30.7230164949672
30
0
41
1
10
73.8195488408013
20
30.7284657970738
30
0
41
1
10
73.8087286346891
20
30.7343014976706
30
0
41
1
10
73.7976860609169
20
30.7405080231984
30
0
41
1
10
73.7864349115097
20
30.7470763956579
30
0
41
1
10
73.7750942540243
20
30.7539310667748
30
0
41
1
10
73.7641572409345
20
30.7607572216854
30
0
41
1
10
73.7536476632848
20
30.7675035033084
30
0
41
1
10
73.7435794749871
20
30.774130511332
30
0
41
1
10
73.7368531688364
20
30.7786651142927
30
0
41
1
10
73.7334861747294
20
30.7809618943233
30
0
0
SPLINE
5
1BC
100
AcDbEntity
8
1
62
256
6
ByLayer
370
18
48
1
60
0
100
AcDbSpline
70
4
71
3
72
27
73
23
40
0
40
0
40
0
40
0
40
0.0329005421844669
40
0.0747226995148309
40
0.116528128009009
40
0.158194192587009
40
0.207591847125247
40
0.257114165928718
40
0.306736275592404
40
0.356400023587282
40
0.406018571374266
40
0.455480561060915
40
0.510416148277257
40
0.565404880012641
40
0.620403445999046
40
0.675352456091323
40
0.73180134195189
40
0.788290496320368
40
0.844784375342301
40
0.901239708409533
40
0.950619732825285
40
1
40
1
40
1
40
1
41
1
10
45.3792317387201
20
30.6959618951296
30
0
41
1
10
45.3802253701594
20
30.6959675876061
30
0
41
1
10
45.382577716696
20
30.6960867832571
30
0
41
1
10
45.3865997611159
20
30.696658735279
30
0
41
1
10
45.3913000042691
20
30.6977057984417
30
0
41
1
10
45.3966457897677
20
30.6992465206606
30
0
41
1
10
45.4026752055629
20
30.7013387760337
30
0
41
1
10
45.4094122072916
20
30.7040253215855
30
0
41
1
10
45.4164821478424
20
30.7071532421367
30
0
41
1
10
45.4238348686119
20
30.7106803657714
30
0
41
1
10
45.4314208949294
20
30.7145652996864
30
0
41
1
10
45.4394927872994
20
30.7189301762328
30
0
41
1
10
45.4480523395543
20
30.72378987596
30
0
41
1
10
45.4571016149759
20
30.7291593684871
30
0
41
1
10
45.4663170081999
20
30.7348428013044
30
0
41
1
10
45.4757562868207
20
30.7408670732332
30
0
41
1
10
45.4854038909114
20
30.7472192540048
30
0
41
1
10
45.4952473508074
20
30.753890482225
30
0
41
1
10
45.5051807013538
20
30.7608047287942
30
0
41
1
10
45.5147673707733
20
30.7676453806976
30
0
41
1
10
45.5239849308647
20
30.7743684531237
30
0
41
1
10
45.5298721143418
20
30.7787468800922
30
0
41
1
10
45.532821945451
20
30.7809618943233
30
0
0
SPLINE
5
1BD
100
AcDbEntity
8
1
62
256
6
ByLayer
370
18
48
1
60
0
100
AcDbSpline
70
4
71
3
72
30
73
26
40
0
40
0
40
0
40
0
40
0.0144291005525506
40
0.0571257447329325
40
0.0999650985412504
40
0.14283397420006
40
0.185637270379075
40
0.228303573585443
40
0.271173984104824
40
0.314215695393605
40
0.357316682282027
40
0.400360253296082
40
0.443232229822741
40
0.492665554388905
40
0.542246953491847
40
0.591851643166585
40
0.641316819957984
40
0.68729800309695
40
0.73340232950701
40
0.779598323565634
40
0.825827656124533
40
0.872009033932843
40
0.918041736415841
40
0.959020378236105
40
1
40
1
40
1
40
1
41
1
10
74.6208051335625
20
30.6959618954492
30
0
41
1
10
74.621152701754
20
30.6959615360381
30
0
41
1
10
74.6225035455417
20
30.6959864041511
30
0
41
1
10
74.6246982733172
20
30.6962096463981
30
0
41
1
10
74.627167536982
20
30.6968529487293
30
0
41
1
10
74.629271700653
20
30.6978592451719
30
0
41
1
10
74.6309819132179
20
30.6992370650243
30
0
41
1
10
74.6322756680452
20
30.7009981756984
30
0
41
1
10
74.6331174719666
20
30.7031649394661
30
0
41
1
10
74.6335096461975
20
30.7057239996833
30
0
41
1
10
74.6334553117348
20
30.7086521266505
30
0
41
1
10
74.6329559284571
20
30.7119260253486
30
0
41
1
10
74.6319605959873
20
30.7157152656067
30
0
41
1
10
74.6303849181474
20
30.7200698449344
30
0
41
1
10
74.6281930017621
20
30.7249977982569
30
0
41
1
10
74.6254972937593
20
30.7302485844959
30
0
41
1
10
74.6224080573946
20
30.7356476010887
30
0
41
1
10
74.61898932333
20
30.7411422814314
30
0
41
1
10
74.6153099103102
20
30.7466869770982
30
0
41
1
10
74.6113158622001
20
30.7523900955739
30
0
41
1
10
74.6070415669422
20
30.7582193517588
30
0
41
1
10
74.6025210881454
20
30.7641426768898
30
0
41
1
10
74.5979524456131
20
30.7699202283853
30
0
41
1
10
74.5933807587328
20
30.7755296614119
30
0
41
1
10
74.5903583318025
20
30.7791464501568
30
0
41
1
10
74.5888221494406
20
30.7809618943233
30
0
0
SPLINE
5
1BE
100
AcDbEntity
8
1
62
256
6
ByLayer
370
18
48
1
60
0
100
AcDbSpline
70
4
71
3
72
27
73
23
40
0
40
0
40
0
40
0
40
0.0428119902776209
40
0.0877756834786135
40
0.132762481953372
40
0.177643185306323
40
0.224662119044263
40
0.271804214575576
40
0.319040779322284
40
0.366313838454914
40
0.413540277712733
40
0.460615604503339
40
0.511195380375895
40
0.561824263441822
40
0.612461956448005
40
0.663053757156076
40
0.715032391970125
40
0.767048127562412
40
0.81906864572827
40
0.871053806778903
40
0.935526357041751
40
1
40
1
40
1
40
1
41
1
10
75.149857084743
20
30.6959618943519
30
0
41
1
10
75.1489373706616
20
30.6959660056065
30
0
41
1
10
75.1469016134453
20
30.6961347549396
30
0
41
1
10
75.1433345673064
20
30.6969040080368
30
0
41
1
10
75.1392730776826
20
30.6981684247017
30
0
41
1
10
75.1347394002478
20
30.6999160724599
30
0
41
1
10
75.1297481846754
20
30.7021423191917
30
0
41
1
10
75.1243198720394
20
30.7048321377478
30
0
41
1
10
75.1185688461219
20
30.7079177850104
30
0
41
1
10
75.112537973394
20
30.7113627111921
30
0
41
1
10
75.1062698896035
20
30.7151306083817
30
0
41
1
10
75.0996337081097
20
30.7192944649533
30
0
41
1
10
75.0926335220771
20
30.7238564142934
30
0
41
1
10
75.0852731705813
20
30.7288174462646
30
0
41
1
10
75.0777436133295
20
30.7340449950427
30
0
41
1
10
75.0699986401165
20
30.7395652827046
30
0
41
1
10
75.062051454811
20
30.7453670591243
30
0
41
1
10
75.0539130097299
20
30.7514414317743
30
0
41
1
10
75.0456721544713
20
30.7577188151531
30
0
41
1
10
75.036679366981
20
30.7646994731941
30
0
41
1
10
75.0269231984399
20
30.7724241307454
30
0
41
1
10
75.0199132598807
20
30.7780882984613
30
0
41
1
10
75.0163922867428
20
30.7809618943233
30
0
0
SPLINE
5
1BF
100
AcDbEntity
8
1
62
256
6
ByLayer
370
18
48
1
60
0
100
AcDbSpline
70
4
71
3
72
30
73
26
40
0
40
0
40
0
40
0
40
0.0169069430486974
40
0.0596264808211508
40
0.102380484057938
40
0.145072360484724
40
0.187624261569073
40
0.230300725657155
40
0.273135065933272
40
0.316028290385167
40
0.35887254711977
40
0.401557359155123
40
0.442340119372978
40
0.483228588829645
40
0.524167684679205
40
0.565084235804969
40
0.605890610710186
40
0.654702360286316
40
0.703645025739969
40
0.752684696368147
40
0.801759304714754
40
0.850782717640617
40
0.899648457910706
40
0.949823361760649
40
1
40
1
40
1
40
1
41
1
10
44.8501839495359
20
30.6959618948184
30
0
41
1
10
44.8498782959907
20
30.6959634342472
30
0
41
1
10
44.8488334318748
20
30.6960023412127
30
0
41
1
10
44.8472326020571
20
30.696267333386
30
0
41
1
10
44.8456062796031
20
30.6969742249781
30
0
41
1
10
44.8443729762295
20
30.6980590124266
30
0
41
1
10
44.8435528203046
20
30.6995322266093
30
0
41
1
10
44.8431724547784
20
30.7014111970434
30
0
41
1
10
44.8432225525514
20
30.7036794140072
30
0
41
1
10
44.8436946142788
20
30.7063157129298
30
0
41
1
10
44.8445809742609
20
30.7092976195387
30
0
41
1
10
44.8458592494843
20
30.7125619231148
30
0
41
1
10
44.847504737484
20
30.7160808480047
30
0
41
1
10
44.849469121501
20
30.7198114494409
30
0
41
1
10
44.8517569107067
20
30.7237834356489
30
0
41
1
10
44.8543436286974
20
30.7279672425593
30
0
41
1
10
44.8573984349867
20
30.7326274980676
30
0
41
1
10
44.8609724538881
20
30.737793976111
30
0
41
1
10
44.8650991146322
20
30.7434816084036
30
0
41
1
10
44.8695404554478
20
30.7493628493809
30
0
41
1
10
44.8742604120746
20
30.7554027717168
30
0
41
1
10
44.8792232942561
20
30.7615667881057
30
0
41
1
10
44.8844495951976
20
30.7678879779117
30
0
41
1
10
44.8899265210008
20
30.7743539132036
30
0
41
1
10
44.8937309390267
20
30.778750271429
30
0
41
1
10
44.8956652819712
20
30.7809618943233
30
0
0
SPLINE
5
1C0
100
AcDbEntity
8
1
62
256
6
ByLayer
370
18
48
1
60
0
100
AcDbSpline
70
4
71
3
72
29
73
25
40
0
40
0
40
0
40
0
40
0.0359202793272495
40
0.0786334891946312
40
0.1212054689887
40
0.163872323681109
40
0.206692467937302
40
0.249571077807933
40
0.292403344770391
40
0.335080403646669
40
0.37641901534639
40
0.417863505813834
40
0.459358734182135
40
0.500831418853102
40
0.54219373913476
40
0.5918079852087
40
0.641556052675524
40
0.691402256278912
40
0.74128301741072
40
0.791110953920983
40
0.84077860375745
40
0.893839997424881
40
0.946932122133559
40
1
40
1
40
1
40
1
41
1
10
75.5167059926675
20
30.6959618944731
30
0
41
1
10
75.5171413612851
20
30.6959673927695
30
0
41
1
10
75.5179952367075
20
30.6960775034907
30
0
41
1
10
75.5189927007496
20
30.6965651775499
30
0
41
1
10
75.5196286955764
20
30.6974862637125
30
0
41
1
10
75.5198319251293
20
30.6988228126878
30
0
41
1
10
75.5196117209307
20
30.7005605627461
30
0
41
1
10
75.518978715412
20
30.7026807792012
30
0
41
1
10
75.517942334854
20
30.7051641933123
30
0
41
1
10
75.5165224874232
20
30.7079691390653
30
0
41
1
10
75.514738443416
20
30.7110734461704
30
0
41
1
10
75.5126319658321
20
30.7144374610897
30
0
41
1
10
75.5102050948531
20
30.7180706175054
30
0
41
1
10
75.5074827452949
20
30.7219441990026
30
0
41
1
10
75.5042842004909
20
30.7263093551837
30
0
41
1
10
75.5005579991324
20
30.7312035978476
30
0
41
1
10
75.4962699831051
20
30.736648642589
30
0
41
1
10
75.491670109923
20
30.742327175507
30
0
41
1
10
75.4867945182233
20
30.7482031814103
30
0
41
1
10
75.4816792240041
20
30.7542407837802
30
0
41
1
10
75.4762279061792
20
30.7605569928545
30
0
41
1
10
75.470444895151
20
30.7671443231509
30
0
41
1
10
75.4643342477483
20
30.7739966757087
30
0
41
1
10
75.4601454060538
20
30.7786289624736
30
0
41
1
10
75.4580211837598
20
30.7809618943233
30
0
0
SPLINE
5
1C1
100
AcDbEntity
8
1
62
256
6
ByLayer
370
18
48
1
60
0
100
AcDbSpline
70
4
71
3
72
29
73
25
40
0
40
0
40
0
40
0
40
0.0106178715169866
40
0.0478112336894265
40
0.0850995489360314
40
0.122433487268753
40
0.159747316058245
40
0.196962132466986
40
0.241767127802553
40
0.286692677315057
40
0.331707005591641
40
0.376752886334642
40
0.421751359504168
40
0.466605114450056
40
0.513462569981813
40
0.560365637516791
40
0.607276590831666
40
0.654144809835734
40
0.718363557165805
40
0.782627012032686
40
0.846855237992136
40
0.897897177161049
40
0.948955952654395
40
1
40
1
40
1
40
1
41
1
10
44.4833321970455
20
30.6959618945232
30
0
41
1
10
44.4834769975768
20
30.6959619348052
30
0
41
1
10
44.4841506431001
20
30.6959841387701
30
0
41
1
10
44.4855284963622
20
30.6962041371991
30
0
41
1
10
44.4876791062185
20
30.6968440376061
30
0
41
1
10
44.4901495055813
20
30.6978173215957
30
0
41
1
10
44.4929150513428
20
30.699106386447
30
0
41
1
10
44.4961636275087
20
30.7008051186787
30
0
41
1
10
44.4999481350018
20
30.7029748851379
30
0
41
1
10
44.5043039138744
20
30.7056601924773
30
0
41
1
10
44.5089728609631
20
30.7087023308575
30
0
41
1
10
44.5139184139475
20
30.7120691650914
30
0
41
1
10
44.5191041816079
20
30.7157286920793
30
0
41
1
10
44.5245851639929
20
30.7197158037384
30
0
41
1
10
44.5303524608952
20
30.7240241063263
30
0
41
1
10
44.5363969653141
20
30.7286455319406
30
0
41
1
10
44.5426131896976
20
30.7334963819127
30
0
41
1
10
44.5497653053624
20
30.7391798736576
30
0
41
1
10
44.5579035181335
20
30.7457728954659
30
0
41
1
10
44.5670628660978
20
30.7533412241722
30
0
41
1
10
44.5757665118194
20
30.7606615143817
30
0
41
1
10
44.5839484480878
20
30.7676434187284
30
0
41
1
10
44.591567282813
20
30.7742234611894
30
0
41
1
10
44.5966929437034
20
30.778700362897
30
0
41
1
10
44.5992678355809
20
30.7809618943233
30
0
0
SPLINE
5
1C2
100
AcDbEntity
8
1
62
256
6
ByLayer
370
18
48
1
60
0
100
AcDbSpline
70
4
71
3
72
29
73
25
40
0
40
0
40
0
40
0
40
0.0114423062223745
40
0.052724292124121
40
0.0915252041126885
40
0.130431552382979
40
0.169386764194155
40
0.2083180222895
40
0.247139884211366
40
0.291626514055869
40
0.336234720767056
40
0.38093024522221
40
0.425655079426421
40
0.470331027202526
40
0.514862952500254
40
0.560507381444983
40
0.606196240430929
40
0.651892489330203
40
0.697547004939811
40
0.760111004086427
40
0.822718960921742
40
0.885292308772583
40
0.942645572578232
40
1
40
1
40
1
40
1
41
1
10
75.7327112398882
20
30.6959618944176
30
0
41
1
10
75.7326330530049
20
30.6959647841804
30
0
41
1
10
75.7322495437752
20
30.6960013426784
30
0
41
1
10
75.7314201776154
20
30.6962275926691
30
0
41
1
10
75.7299188194341
20
30.6969471911123
30
0
41
1
10
75.7281005389248
20
30.6980043003217
30
0
41
1
10
75.7259466300368
20
30.6994042246712
30
0
41
1
10
75.7234822280458
20
30.7011256401251
30
0
41
1
10
75.7205898613422
20
30.7032531595632
30
0
41
1
10
75.7172320776666
20
30.7058280339352
30
0
41
1
10
75.7133888331184
20
30.7088739669834
30
0
41
1
10
75.70923774676
20
30.7122495224675
30
0
41
1
10
75.7048120801894
20
30.7159237420833
30
0
41
1
10
75.7001449904083
20
30.7198657491683
30
0
41
1
10
75.6952188654955
20
30.7240884297865
30
0
41
1
10
75.6900461519539
20
30.7285801966304
30
0
41
1
10
75.6846395781685
20
30.7333282802603
30
0
41
1
10
75.6790617316857
20
30.7382761036955
30
0
41
1
10
75.6726250695675
20
30.7440372460857
30
0
41
1
10
75.6652774084164
20
30.7506772962913
30
0
41
1
10
75.6569804117269
20
30.7582499318189
30
0
41
1
10
75.6487289116346
20
30.7658486355533
30
0
41
1
10
75.6405663241445
20
30.7734248362824
30
0
41
1
10
75.6352097180743
20
30.7784311939613
30
0
41
1
10
75.6325112089785
20
30.7809618943233
30
0
0
SPLINE
5
1C3
100
AcDbEntity
8
1
62
256
6
ByLayer
370
18
48
1
60
0
100
AcDbSpline
70
4
71
3
72
28
73
24
40
0
40
0
40
0
40
0
40
0.0443866367327728
40
0.0915399706065925
40
0.138486771830501
40
0.179753446353362
40
0.221148045404446
40
0.262597874936017
40
0.304014926876763
40
0.345300492031217
40
0.3881228339893
40
0.431043645647081
40
0.474014110331757
40
0.51696583606393
40
0.559814167048861
40
0.615128596654778
40
0.670590672936311
40
0.726162454464084
40
0.781773986388199
40
0.837327932584753
40
0.892703789035562
40
0.946351186665664
40
1
40
1
40
1
40
1
41
1
10
44.2673267176927
20
30.6959618943282
30
0
41
1
10
44.267060518055
20
30.6959730571809
30
0
41
1
10
44.2666606678952
20
30.6961426391762
30
0
41
1
10
44.2665012573269
20
30.6968391860239
30
0
41
1
10
44.2668516597648
20
30.6980132101503
30
0
41
1
10
44.2676440865855
20
30.6995779116508
30
0
41
1
10
44.2687880693971
20
30.7014443354841
30
0
41
1
10
44.2703015330363
20
30.7036616739522
30
0
41
1
10
44.2721653985616
20
30.7062072558363
30
0
41
1
10
44.2743938244404
20
30.7091009162677
30
0
41
1
10
44.2769896010736
20
30.7123431012002
30
0
41
1
10
44.2799381041109
20
30.7159185916852
30
0
41
1
10
44.2831837586849
20
30.7197632961323
30
0
41
1
10
44.2866982425742
20
30.7238477040066
30
0
41
1
10
44.2908246948184
20
30.7285668056321
30
0
41
1
10
44.2956342763683
20
30.7339818658703
30
0
41
1
10
44.3011815412345
20
30.7401374994631
30
0
41
1
10
44.3070402477364
20
30.7465594800519
30
0
41
1
10
44.3131686121186
20
30.7532066623604
30
0
41
1
10
44.3195252830728
20
30.7600383053934
30
0
41
1
10
44.3260130944373
20
30.7669541523547
30
0
41
1
10
44.3326048907806
20
30.7739300350866
30
0
41
1
10
44.3370502279919
20
30.7786047042632
30
0
41
1
10
44.3392988611087
20
30.7809618943233
30
0
0
SPLINE
5
1C4
100
AcDbEntity
8
1
62
256
6
ByLayer
370
18
48
1
60
0
100
AcDbSpline
70
4
71
2
72
6
73
3
40
0
40
0
40
0
40
1
40
1
40
1
41
0.500008131384622
10
47.5396742436292
20
31.5
30
0
41
0.499991868615378
10
47.4723184930994
20
31.5
30
0
41
0.500008131384622
10
47.4065925703851
20
31.5
30
0
0
SPLINE
5
1C5
100
AcDbEntity
8
1
62
256
6
ByLayer
370
18
48
1
60
0
100
AcDbSpline
70
4
71
2
72
6
73
3
40
0
40
0
40
0
40
1
40
1
40
1
41
0.500007111648353
10
46.6559828697448
20
31.5
30
0
41
0.499992888351647
10
46.6043064310861
20
31.5
30
0
41
0.500007111648353
10
46.5541541986302
20
31.5
30
0
0
SPLINE
5
1C6
100
AcDbEntity
8
1
62
256
6
ByLayer
370
18
48
1
60
0
100
AcDbSpline
70
4
71
2
72
6
73
3
40
0
40
0
40
0
40
1
40
1
40
1
41
0.500006463229465
10
45.9869390720835
20
31.5
30
0
41
0.499993536770535
10
45.9484610010692
20
31.5
30
0
41
0.500006463229465
10
45.9114359875935
20
31.5
30
0
0
SPLINE
5
1C7
100
AcDbEntity
8
1
62
256
6
ByLayer
370
18
48
1
60
0
100
AcDbSpline
70
4
71
2
72
6
73
3
40
0
40
0
40
0
40
1
40
1
40
1
41
0.50000604954862
10
45.5027945102454
20
31.5
30
0
41
0.49999395045138
10
45.4760034842463
20
31.5
30
0
41
0.50000604954862
10
45.4506182440428
20
31.5
30
0
0
SPLINE
5
1C8
100
AcDbEntity
8
1
62
256
6
ByLayer
370
18
48
1
60
0
100
AcDbSpline
70
4
71
2
72
6
73
3
40
0
40
0
40
0
40
1
40
1
40
1
41
0.500005801978492
10
45.1854104407392
20
31.5
30
0
41
0.499994198021509
10
45.169392841461
20
31.5
30
0
41
0.500005801978492
10
45.1547519618205
20
31.5
30
0
0
SPLINE
5
1C9
100
AcDbEntity
8
1
62
256
6
ByLayer
370
18
48
1
60
0
100
AcDbSpline
70
4
71
2
72
6
73
3
40
0
40
0
40
0
40
1
40
1
40
1
41
0.500005685640023
10
45.0241806048246
20
31.5
30
0
41
0.499994314359977
10
45.0184409246267
20
31.5
30
0
41
0.500005685640023
10
45.0140640911974
20
31.5
30
0
0
SPLINE
5
1CA
100
AcDbEntity
8
1
62
256
6
ByLayer
370
18
48
1
60
0
100
AcDbSpline
70
4
71
2
72
6
73
3
40
0
40
0
40
0
40
1
40
1
40
1
41
0.500005685640023
10
74.9859740144791
20
31.5
30
0
41
0.499994314359977
10
74.9815971810499
20
31.5
30
0
41
0.500005685640023
10
74.9758575008519
20
31.5
30
0
0
SPLINE
5
1CB
100
AcDbEntity
8
1
62
256
6
ByLayer
370
18
48
1
60
0
100
AcDbSpline
70
4
71
2
72
6
73
3
40
0
40
0
40
0
40
1
40
1
40
1
41
0.500005801978492
10
74.845286143856
20
31.5
30
0
41
0.499994198021509
10
74.8306452642155
20
31.5
30
0
41
0.500005801978492
10
74.8146276649373
20
31.5
30
0
0
SPLINE
5
1CC
100
AcDbEntity
8
1
62
256
6
ByLayer
370
18
48
1
60
0
100
AcDbSpline
70
4
71
2
72
6
73
3
40
0
40
0
40
0
40
1
40
1
40
1
41
0.50000604954862
10
74.5494198616337
20
31.5
30
0
41
0.49999395045138
10
74.5240346214303
20
31.5
30
0
41
0.50000604954862
10
74.4972435954311
20
31.5
30
0
0
SPLINE
5
1CD
100
AcDbEntity
8
1
62
256
6
ByLayer
370
18
48
1
60
0
100
AcDbSpline
70
4
71
2
72
6
73
3
40
0
40
0
40
0
40
1
40
1
40
1
41
0.500006463229465
10
74.0886021180831
20
31.5
30
0
41
0.499993536770535
10
74.0515771046073
20
31.5
30
0
41
0.500006463229465
10
74.0130990335931
20
31.5
30
0
0
SPLINE
5
1CE
100
AcDbEntity
8
1
62
256
6
ByLayer
370
18
48
1
60
0
100
AcDbSpline
70
4
71
2
72
6
73
3
40
0
40
0
40
0
40
1
40
1
40
1
41
0.500007111648353
10
73.4458839070463
20
31.5
30
0
41
0.499992888351647
10
73.3957316745903
20
31.5
30
0
41
0.500007111648353
10
73.3440552359317
20
31.5
30
0
0
SPLINE
5
1CF
100
AcDbEntity
8
1
62
256
6
ByLayer
370
18
48
1
60
0
100
AcDbSpline
70
4
71
2
72
6
73
3
40
0
40
0
40
0
40
1
40
1
40
1
41
0.500008131384622
10
72.5934455352914
20
31.5
30
0
41
0.499991868615378
10
72.527719612577
20
31.5
30
0
41
0.500008131384622
10
72.4603638620473
20
31.5
30
0
0
SPLINE
5
1D0
100
AcDbEntity
8
1
62
256
6
ByLayer
370
18
48
1
60
0
100
AcDbSpline
70
4
71
2
72
6
73
3
40
0
40
0
40
0
40
1
40
1
40
1
41
0.500002470596433
10
49.7001387488908
20
31.5
30
0
41
0.499997529403567
10
49.7109292736902
20
31.5
30
0
41
0.500002470596433
10
49.7218190528382
20
31.5
30
0
0
SPLINE
5
1D1
100
AcDbEntity
8
1
62
256
6
ByLayer
370
18
48
1
60
0
100
AcDbSpline
70
4
71
2
72
6
73
3
40
0
40
0
40
0
40
1
40
1
40
1
41
0.500002470596433
10
70.2782190528382
20
31.5
30
0
41
0.499997529403567
10
70.2891088319863
20
31.5
30
0
41
0.500002470596433
10
70.2998993567857
20
31.5
30
0
0
SPLINE
5
1D2
100
AcDbEntity
8
1
62
256
6
ByLayer
370
18
48
0.05
60
1
100
AcDbSpline
70
4
71
3
72
8
73
4
40
0
40
0
40
0
40
0
40
1
40
1
40
1
40
1
41
1
10
48.2221518312485
20
-67.0000000000006
30
0
41
1
10
46.5596853212573
20
-75.5902538198197
30
0
41
1
10
45.1691992484993
20
-84.2037962267288
30
0
41
1
10
44.6583186059721
20
-92.8926556964201
30
0
0
SPLINE
5
1D3
100
AcDbEntity
8
1
62
256
6
ByLayer
370
18
48
0.05
60
1
100
AcDbSpline
70
4
71
3
72
13
73
9
40
0
40
0
40
0
40
0
40
0.098081855372567
40
0.196199316831313
40
0.396806626480363
40
0.597597370151652
40
0.798762783152461
40
1
40
1
40
1
40
1
41
1
10
44.6922421016716
20
-107.107344303397
30
0
41
1
10
44.7428136029181
20
-107.96108243476
30
0
41
1
10
44.8598497019799
20
-109.667588343669
30
0
41
1
10
45.1629831977118
20
-113.114068246299
30
0
41
1
10
45.6592122405578
20
-117.441523310249
30
0
41
1
10
46.4091321190215
20
-122.641694815418
30
0
41
1
10
47.2811909152587
20
-127.828240558035
30
0
41
1
10
47.9202084165593
20
-131.277753760812
30
0
41
1
10
48.2560753269481
20
-132.999999999817
30
0
0
SPLINE
5
1D4
100
AcDbEntity
8
1
62
256
6
ByLayer
370
18
48
1
60
0
100
AcDbSpline
70
4
71
3
72
10
73
6
40
0
40
0
40
0
40
0
40
0.483016599166114
40
0.483016599166114
40
1
40
1
40
1
40
1
41
1
10
14.6254011529794
20
24.4200409500066
30
0
41
1
10
14.8664374580825
20
23.8820271149491
30
0
41
1
10
15.1048367186587
20
23.3428387839249
30
0
41
1
10
15.5921324012273
20
22.2238142002562
30
0
41
1
10
15.8405900934293
20
21.6437863259132
30
0
41
1
10
16.0850134763923
20
21.0620455190216
30
0
0
SPLINE
5
1D5
100
AcDbEntity
8
1
62
256
6
ByLayer
370
18
48
1
60
0
100
AcDbSpline
70
4
71
3
72
10
73
6
40
0
40
0
40
0
40
0
40
0.483016599166114
40
0.483016599166114
40
1
40
1
40
1
40
1
41
1
10
21.3746257998061
20
24.4200409500066
30
0
41
1
10
21.133589494703
20
23.8820271149491
30
0
41
1
10
20.8951902341268
20
23.3428387839249
30
0
41
1
10
20.4078945515582
20
22.2238142002562
30
0
41
1
10
20.1594368593563
20
21.6437863259132
30
0
41
1
10
19.9150134763933
20
21.0620455190216
30
0
0
SPLINE
5
1D6
100
AcDbEntity
8
1
62
256
6
ByLayer
370
18
48
1
60
0
100
AcDbSpline
70
4
71
3
72
22
73
18
40
0
40
0
40
0
40
0
40
0.249999999999999
40
0.249999999999999
40
0.499999999999997
40
0.499999999999997
40
0.624999999999996
40
0.624999999999996
40
0.687499999999995
40
0.687499999999995
40
0.718749999999996
40
0.718749999999996
40
0.749999999999996
40
0.749999999999996
40
0.874999999999998
40
0.874999999999998
40
1
40
1
40
1
40
1
41
1
10
32.8429322580433
20
-9.25721731904865
30
0
41
1
10
32.8941566942555
20
-10.028064924546
30
0
41
1
10
32.9642789839534
20
-10.7775188324893
30
0
41
1
10
33.1636247660015
20
-12.2322437701028
30
0
41
1
10
33.2926945357192
20
-12.9375243179042
30
0
41
1
10
33.5523596430914
20
-13.9602016078929
30
0
41
1
10
33.6499975666946
20
-14.2952084317584
30
0
41
1
10
33.8167943796942
20
-14.7884926363089
30
0
41
1
10
33.8757917359144
20
-14.951381964428
30
0
41
1
10
33.9699433993903
20
-15.1933468763073
30
0
41
1
10
34.0023040854081
20
-15.2736823617598
30
0
41
1
10
34.068711932907
20
-15.4328443286928
30
0
41
1
10
34.1027834950083
20
-15.5117388933507
30
0
41
1
10
34.2776289705103
20
-15.9027696091422
30
0
41
1
10
34.4318353420813
20
-16.2045868772861
30
0
41
1
10
34.7731790783637
20
-16.7858416800716
30
0
41
1
10
34.9602993923934
20
-17.0652834264033
30
0
41
1
10
35.1665250637077
20
-17.3332299028312
30
0
0
SPLINE
5
1D7
100
AcDbEntity
8
1
62
256
6
ByLayer
370
18
48
1
60
0
100
AcDbSpline
70
4
71
3
72
8
73
4
40
0
40
0
40
0
40
0
40
1
40
1
40
1
40
1
41
1
10
35.8549338708725
20
-15.8784978766946
30
0
41
1
10
35.6007440639279
20
-16.3524150204653
30
0
41
1
10
35.3716910893248
20
-16.8364847726939
30
0
41
1
10
35.1665250637078
20
-17.3332299028311
30
0
0
SPLINE
5
1D8
100
AcDbEntity
8
1
62
256
6
ByLayer
370
18
48
1
60
0
100
AcDbSpline
70
4
71
3
72
34
73
30
40
0
40
0
40
0
40
0
40
0.125
40
0.125
40
0.250000000000001
40
0.250000000000001
40
0.312500000000001
40
0.312500000000001
40
0.343750000000001
40
0.343750000000001
40
0.375000000000001
40
0.375000000000001
40
0.499999999999999
40
0.499999999999999
40
0.624999999999998
40
0.624999999999998
40
0.656249999999998
40
0.656249999999998
40
0.687499999999998
40
0.687499999999998
40
0.749999999999998
40
0.749999999999998
40
0.874999999999999
40
0.874999999999999
40
0.937499999999999
40
0.937499999999999
40
0.96875
40
0.96875
40
1
40
1
40
1
40
1
41
1
10
42.5000134763926
20
-8.11920033834565
30
0
41
1
10
42.0747532931436
20
-8.30939139783485
30
0
41
1
10
41.6613703484637
20
-8.51186206742509
30
0
41
1
10
40.8601141195947
20
-8.94674754927019
30
0
41
1
10
40.4722291355258
20
-9.17912750348391
30
0
41
1
10
39.9116089506759
20
-9.55529697522338
30
0
41
1
10
39.7282792108428
20
-9.68530183306148
30
0
41
1
10
39.4589585462082
20
-9.88805777320538
30
0
41
1
10
39.3701191175639
20
-9.95695589312308
30
0
41
1
10
39.1956891116527
20
-10.0964260695217
30
0
41
1
10
39.1099293383309
20
-10.1671226983274
30
0
41
1
10
38.6883980733911
20
-10.5256212307482
30
0
41
1
10
38.3743768888268
20
-10.8284094819794
30
0
41
1
10
37.7934069910721
20
-11.4721917342941
30
0
41
1
10
37.5264686894436
20
-11.8131796166633
30
0
41
1
10
37.2233741713019
20
-12.2682181913356
30
0
41
1
10
37.1641646246541
20
-12.3608740114025
30
0
41
1
10
37.0495255404128
20
-12.5480864337744
30
0
41
1
10
36.9941211815403
20
-12.6425804473199
30
0
41
1
10
36.833523358369
20
-12.9287715145154
30
0
41
1
10
36.7339445998931
20
-13.1231791904582
30
0
41
1
10
36.4566544385694
20
-13.7175577524665
30
0
41
1
10
36.3003866092144
20
-14.1287190360044
30
0
41
1
10
36.1049263488226
20
-14.7685480098969
30
0
41
1
10
36.0462639105099
20
-14.9856638402384
30
0
41
1
10
35.9675242481811
20
-15.317107051486
30
0
41
1
10
35.9427870296671
20
-15.4287130400403
30
0
41
1
10
35.8964813850642
20
-15.6530399823631
30
0
41
1
10
35.8749432348633
20
-15.765584564582
30
0
41
1
10
35.8549338708725
20
-15.8784978766946
30
0
0
SPLINE
5
1D9
100
AcDbEntity
8
1
62
256
6
ByLayer
370
18
48
1
60
0
100
AcDbSpline
70
4
71
3
72
38
73
34
40
0
40
0
40
0
40
0
40
0.124999999999999
40
0.124999999999999
40
0.249999999999998
40
0.249999999999998
40
0.312499999999998
40
0.312499999999998
40
0.374999999999997
40
0.374999999999997
40
0.499999999999998
40
0.499999999999998
40
0.562499999999999
40
0.562499999999999
40
0.625
40
0.625
40
0.65625
40
0.65625
40
0.6875
40
0.6875
40
0.75
40
0.75
40
0.812499999999999
40
0.812499999999999
40
0.843749999999999
40
0.843749999999999
40
0.874999999999999
40
0.874999999999999
40
0.937499999999999
40
0.937499999999999
40
0.96875
40
0.96875
40
1
40
1
40
1
40
1
41
1
10
42.5000134763926
20
-9.28392421683665
30
0
41
1
10
42.0986416453234
20
-9.49527647243769
30
0
41
1
10
41.7092580776989
20
-9.72207588392418
30
0
41
1
10
40.9536832211475
20
-10.2055250126596
30
0
41
1
10
40.5874936838241
20
-10.4621799143109
30
0
41
1
10
40.0554892546685
20
-10.8691926778779
30
0
41
1
10
39.8810391316467
20
-11.008539238012
30
0
41
1
10
39.537946674932
20
-11.2945623732021
30
0
41
1
10
39.3688450447069
20
-11.4416832961264
30
0
41
1
10
38.8763785634137
20
-11.8884221192481
30
0
41
1
10
38.5662692568332
20
-12.1946032221762
30
0
41
1
10
38.1277126036683
20
-12.6631118027637
30
0
41
1
10
37.9859741512544
20
-12.820810764176
30
0
41
1
10
37.7114390224528
20
-13.1385063476625
30
0
41
1
10
37.578641341261
20
-13.29850705834
30
0
41
1
10
37.3862847926885
20
-13.5394726728805
30
0
41
1
10
37.323385400977
20
-13.6198626550495
30
0
41
1
10
37.2009793889537
20
-13.7793510615388
30
0
41
1
10
37.141338009438
20
-13.8586170585131
30
0
41
1
10
36.9670860989262
20
-14.0946164613601
30
0
41
1
10
36.857141093971
20
-14.2495703617343
30
0
41
1
10
36.649783703125
20
-14.5523757362198
30
0
41
1
10
36.5523699590963
20
-14.7002338849228
30
0
41
1
10
36.4158854622409
20
-14.9144267260626
30
0
41
1
10
36.3722607145641
20
-14.9841451305963
30
0
41
1
10
36.28925995983
20
-15.1189325326186
30
0
41
1
10
36.2497882314561
20
-15.1841512332879
30
0
41
1
10
36.1373035203116
20
-15.3728029011495
30
0
41
1
10
36.0702192702931
20
-15.4892224742431
30
0
41
1
10
35.9808711343262
20
-15.6480145386895
30
0
41
1
10
35.9529579306919
20
-15.6983270336197
30
0
41
1
10
35.9008434134685
20
-15.7933279766482
30
0
41
1
10
35.8769125120493
20
-15.8375204080239
30
0
41
1
10
35.8549338708725
20
-15.8784978766946
30
0
0
SPLINE
5
1DA
100
AcDbEntity
8
1
62
256
6
ByLayer
370
18
48
1
60
0
100
AcDbSpline
70
4
71
3
72
13
73
9
40
0
40
0
40
0
40
0
40
0.500000000000006
40
0.500000000000006
40
0.75000000000001
40
0.875000000000005
40
0.875000000000005
40
1
40
1
40
1
40
1
41
1
10
66.0000134763926
20
2.8078222495935
30
0
41
1
10
66.3871029237622
20
2.80514027252707
30
0
41
1
10
66.7665435197277
20
2.81032604683303
30
0
41
1
10
67.324358043456
20
2.82907773497331
30
0
41
1
10
67.6004258897567
20
2.84120122733611
30
0
41
1
10
67.8722332337915
20
2.85732707638418
30
0
41
1
10
68.0524894702754
20
2.86895607525328
30
0
41
1
10
68.142207014056
20
2.87521496747366
30
0
41
1
10
68.2311782381659
20
2.88188649277153
30
0
0
SPLINE
5
1DB
100
AcDbEntity
8
1
62
256
6
ByLayer
370
18
48
1
60
0
100
AcDbSpline
70
4
71
3
72
36
73
32
40
0
40
0
40
0
40
0
40
0.125000000000002
40
0.125000000000002
40
0.250000000000004
40
0.250000000000004
40
0.312500000000005
40
0.312500000000005
40
0.343750000000005
40
0.343750000000005
40
0.375000000000005
40
0.375000000000005
40
0.500000000000004
40
0.500000000000004
40
0.625000000000003
40
0.625000000000003
40
0.687500000000002
40
0.687500000000002
40
0.750000000000002
40
0.750000000000002
40
0.781250000000002
40
0.781250000000002
40
0.812500000000002
40
0.812500000000002
40
0.875000000000001
40
0.875000000000001
40
0.937500000000001
40
0.937500000000001
40
0.96875
40
0.96875
40
1
40
1
40
1
40
1
41
1
10
68.2311782381659
20
2.88188649277153
30
0
41
1
10
68.7821348576516
20
3.23136553356394
30
0
41
1
10
69.2966433279893
20
3.60468068345948
30
0
41
1
10
70.2626595896299
20
4.39336011398755
30
0
41
1
10
70.7141047194909
20
4.80875420150391
30
0
41
1
10
71.3483562138524
20
5.46160984426838
30
0
41
1
10
71.5525954906541
20
5.68421104671406
30
0
41
1
10
71.8485452008107
20
6.02555797382837
30
0
41
1
10
71.9455302955373
20
6.14067656782911
30
0
41
1
10
72.1351888260326
20
6.37230157885768
30
0
41
1
10
72.2279692905516
20
6.48892616532236
30
0
41
1
10
72.68195275289
20
7.0761001792176
30
0
41
1
10
73.0135263660219
20
7.55867246899533
30
0
41
1
10
73.6195560298986
20
8.55119523741399
30
0
41
1
10
73.8939928301256
20
9.06104449001791
30
0
41
1
10
74.2652469491217
20
9.85101261557449
30
0
41
1
10
74.3822452188098
20
10.1185764313667
30
0
41
1
10
74.6028913859566
20
10.6638383306814
30
0
41
1
10
74.7065417071601
20
10.9415162789151
30
0
41
1
10
74.8519602852626
20
11.3676522336351
30
0
41
1
10
74.8988134895047
20
11.5115027429742
30
0
41
1
10
74.988825457477
20
11.8019515039245
30
0
41
1
10
75.0319485433811
20
11.9484128743601
30
0
41
1
10
75.1556524058359
20
12.3921411288225
30
0
41
1
10
75.2305909910922
20
12.693663221447
30
0
41
1
10
75.3648801128521
20
13.3131650153404
30
0
41
1
10
75.4242573338233
20
13.6310626254097
30
0
41
1
10
75.5004783233239
20
14.1268053674467
30
0
41
1
10
75.5237344341687
20
14.2952389706014
30
0
41
1
10
75.5655490129613
20
14.6402136016717
30
0
41
1
10
75.5841111403905
20
14.8167477912573
30
0
41
1
10
75.6000134763926
20
14.9985123234973
30
0
0
SPLINE
5
1DC
100
AcDbEntity
8
1
62
256
6
ByLayer
370
18
48
1
60
0
100
AcDbSpline
70
4
71
3
72
40
73
36
40
0
40
0
40
0
40
0
40
0.0312499999999999
40
0.0312499999999999
40
0.0624999999999999
40
0.0624999999999999
40
0.078125
40
0.078125
40
0.0937500000000001
40
0.0937500000000001
40
0.125000000000001
40
0.125000000000001
40
0.187500000000002
40
0.187500000000002
40
0.250000000000003
40
0.250000000000003
40
0.281250000000003
40
0.281250000000003
40
0.312500000000004
40
0.312500000000004
40
0.375000000000004
40
0.375000000000004
40
0.500000000000003
40
0.500000000000003
40
0.625000000000003
40
0.625000000000003
40
0.750000000000003
40
0.750000000000003
40
0.781250000000003
40
0.781250000000003
40
0.812500000000003
40
0.812500000000003
40
0.875000000000002
40
0.875000000000002
40
1
40
1
40
1
40
1
41
1
10
75.6000134763926
20
14.9985123234973
30
0
41
1
10
75.5842912156473
20
14.8188060608611
30
0
41
1
10
75.5658536087506
20
14.6429531971937
30
0
41
1
10
75.5240286428392
20
14.297442794043
30
0
41
1
10
75.5006392080361
20
14.1277869634995
30
0
41
1
10
75.462074387748
20
13.8770581215933
30
0
41
1
10
75.4486207144711
20
13.7940107429636
30
0
41
1
10
75.4206891797662
20
13.629684195131
30
0
41
1
10
75.4062096833023
20
13.5483811233012
30
0
41
1
10
75.3612793828344
20
13.3067641987645
30
0
41
1
10
75.3293394046668
20
13.148731242742
30
0
41
1
10
75.227835706153
20
12.6819566436898
30
0
41
1
10
75.1526093450214
20
12.3804402182575
30
0
41
1
10
74.9877204901314
20
11.7905806698338
30
0
41
1
10
74.8980457188317
20
11.5022946843597
30
0
41
1
10
74.7527656697182
20
11.0771820954314
30
0
41
1
10
74.7025410069939
20
10.9367123935139
30
0
41
1
10
74.5984754453583
20
10.6579432043995
30
0
41
1
10
74.5445771208892
20
10.51950627712
30
0
41
1
10
74.3779022221881
20
10.1083174485229
30
0
41
1
10
74.2601830550642
20
9.83967961560074
30
0
41
1
10
73.887120116681
20
9.04757525649263
30
0
41
1
10
73.6119425514786
20
8.5377407899799
30
0
41
1
10
73.0061868026054
20
7.54766227859407
30
0
41
1
10
72.6756203096823
20
7.06752884039454
30
0
41
1
10
71.9541280639716
20
6.13513007237399
30
0
41
1
10
71.5632453065177
20
5.68289119615684
30
0
41
1
10
71.0317774099907
20
5.13572289826682
30
0
41
1
10
70.9231954403983
20
5.02707757564595
30
0
41
1
10
70.7027635426912
20
4.81281262711037
30
0
41
1
10
70.5908123703244
20
4.70708137433883
30
0
41
1
10
70.2496671747014
20
4.39411969911286
30
0
41
1
10
70.0151869233128
20
4.19111575087864
30
0
41
1
10
69.2897246199215
20
3.59944323064809
30
0
41
1
10
68.7768408218207
20
3.22800745690483
30
0
41
1
10
68.2311782381659
20
2.88188649277154
30
0
0
SPLINE
5
1DD
100
AcDbEntity
8
1
62
256
6
ByLayer
370
18
48
1
60
0
100
AcDbSpline
70
4
71
3
72
8
73
4
40
0
40
0
40
0
40
0
40
1
40
1
40
1
40
1
41
1
10
68.2311782381659
20
2.88188649277153
30
0
41
1
10
67.523288944777
20
2.82880527043036
30
0
41
1
10
66.7802486626233
20
2.80241633400962
30
0
41
1
10
66.0000134763926
20
2.8078222495935
30
0
0
SPLINE
5
1DE
100
AcDbEntity
8
1
62
256
6
ByLayer
370
18
48
1
60
0
100
AcDbSpline
70
4
71
3
72
10
73
6
40
0
40
0
40
0
40
0
40
0.5
40
0.5
40
1
40
1
40
1
40
1
41
1
10
44.8847227959247
20
30
30
0
41
1
10
44.5524258221927
20
28.5886191699908
30
0
41
1
10
44.2251243675353
20
27.176071555037
30
0
41
1
10
43.5846846495593
20
24.3476682808247
30
0
41
1
10
43.2715094676563
20
22.9318212445037
30
0
41
1
10
42.9686123147029
20
21.5135736069119
30
0
0
SPLINE
5
1DF
100
AcDbEntity
8
1
62
256
6
ByLayer
370
18
48
1
60
0
100
AcDbSpline
70
4
71
3
72
14
73
10
40
0
40
0
40
0
40
0
40
0.25
40
0.25
40
0.5
40
0.5
40
0.75
40
0.75
40
1
40
1
40
1
40
1
41
1
10
42.9686123147029
20
21.513573606912
30
0
41
1
10
42.957218391088
20
21.4602241280801
30
0
41
1
10
42.9428339244214
20
21.40700206133
30
0
41
1
10
42.9083057435887
20
21.3029005777211
30
0
41
1
10
42.8882360111562
20
21.2521216861401
30
0
41
1
10
42.8422408021203
20
21.1532184217971
30
0
41
1
10
42.8163198865179
20
21.1050919814478
30
0
41
1
10
42.7579857877004
20
21.0117821676002
30
0
41
1
10
42.7259219631617
20
20.9671968506272
30
0
41
1
10
42.6910097881581
20
20.9252046665583
30
0
0
SPLINE
5
1E0
100
AcDbEntity
8
1
62
256
6
ByLayer
370
18
48
1
60
0
100
AcDbSpline
70
4
71
3
72
16
73
12
40
0
40
0
40
0
40
0
40
0.249999999999994
40
0.249999999999994
40
0.374999999999995
40
0.374999999999995
40
0.499999999999996
40
0.499999999999996
40
0.749999999999998
40
0.749999999999998
40
1
40
1
40
1
40
1
41
1
10
42.691009788159
20
20.9252046665594
30
0
41
1
10
42.6478733061072
20
20.8733203283814
30
0
41
1
10
42.6009341548062
20
20.8257665832155
30
0
41
1
10
42.5244478808305
20
20.7613606124666
30
0
41
1
10
42.4979339149855
20
20.7410524627984
30
0
41
1
10
42.4427206604956
20
20.7029266319678
30
0
41
1
10
42.4138792175792
20
20.6850480438682
30
0
41
1
10
42.3258533023877
20
20.6365965400446
30
0
41
1
10
42.2647042206575
20
20.6107526063875
30
0
41
1
10
42.1371407143231
20
20.5728805330391
30
0
41
1
10
42.0701335917354
20
20.5609018675128
30
0
41
1
10
42.0026864884138
20
20.5572066329717
30
0
0
SPLINE
5
1E1
100
AcDbEntity
8
1
62
256
6
ByLayer
370
18
48
1
60
0
100
AcDbSpline
70
4
71
3
72
43
73
39
40
0
40
0
40
0
40
0
40
0.0624999999999946
40
0.0624999999999946
40
0.0781249999999934
40
0.0781249999999934
40
0.0937499999999923
40
0.0937499999999923
40
0.124999999999991
40
0.124999999999991
40
0.187499999999989
40
0.187499999999989
40
0.218749999999988
40
0.234374999999988
40
0.234374999999988
40
0.249999999999988
40
0.249999999999988
40
0.312499999999989
40
0.312499999999989
40
0.37499999999999
40
0.37499999999999
40
0.406249999999991
40
0.406249999999991
40
0.437499999999992
40
0.437499999999992
40
0.499999999999993
40
0.499999999999993
40
0.562499999999994
40
0.562499999999994
40
0.624999999999995
40
0.624999999999995
40
0.687499999999996
40
0.687499999999996
40
0.749999999999997
40
0.749999999999997
40
0.874999999999998
40
0.874999999999998
40
1
40
1
40
1
40
1
41
1
10
42.0026864884138
20
20.557206632972
30
0
41
1
10
41.6140802030641
20
20.5359160022736
30
0
41
1
10
41.2305441185332
20
20.4968204604035
30
0
41
1
10
40.7573535896457
20
20.4254816882572
30
0
41
1
10
40.6628699568496
20
20.4100549075106
30
0
41
1
10
40.4753828328648
20
20.3770623158956
30
0
41
1
10
40.3824426786095
20
20.3595126512941
30
0
41
1
10
40.1059759116345
20
20.3037407864665
30
0
41
1
10
39.9248003581566
20
20.262400027555
30
0
41
1
10
39.3903345415422
20
20.1260270206365
30
0
41
1
10
39.0460746211859
20
20.0186990192462
30
0
41
1
10
38.5470432954165
20
19.8324687677358
30
0
41
1
10
38.3018796340997
20
19.7330224321712
30
0
41
1
10
38.0632075680926
20
19.6237803494052
30
0
41
1
10
37.9055372277385
20
19.5487303736092
30
0
41
1
10
37.8273179514899
20
19.5100400898515
30
0
41
1
10
37.4410473343651
20
19.311538848938
30
0
41
1
10
37.1509824102186
20
19.1385295689105
30
0
41
1
10
36.6047929653355
20
18.7645511895649
30
0
41
1
10
36.3486911601349
20
18.5635695493957
30
0
41
1
10
35.9879838913315
20
18.240855407878
30
0
41
1
10
35.871663216316
20
18.1297387360251
30
0
41
1
10
35.6465837495947
20
17.9003218924795
30
0
41
1
10
35.5376859409945
20
17.781817642712
30
0
41
1
10
35.2253610691809
20
17.4195220136752
30
0
41
1
10
35.0350100131558
20
17.1677804776405
30
0
41
1
10
34.6851512407104
20
16.6445152694765
30
0
41
1
10
34.5256596399827
20
16.372987497306
30
0
41
1
10
34.2336771009202
20
15.8105333538161
30
0
41
1
10
34.1011339138581
20
15.5194505018674
30
0
41
1
10
33.8600803556987
20
14.9187443717407
30
0
41
1
10
33.7530151348924
20
14.6128379665025
30
0
41
1
10
33.5610683977761
20
13.9904351760882
30
0
41
1
10
33.476199140424
20
13.6739376518457
30
0
41
1
10
33.2492184704676
20
12.709157439459
30
0
41
1
10
33.1345218698057
20
12.0456221234454
30
0
41
1
10
32.9552754575535
20
10.6800377036962
30
0
41
1
10
32.8908286193733
20
9.97798260556881
30
0
41
1
10
32.8429322580433
20
9.25721731904904
30
0
0
SPLINE
5
1E2
100
AcDbEntity
8
1
62
256
6
ByLayer
370
18
48
1
60
0
100
AcDbSpline
70
4
71
3
72
20
73
16
40
0
40
0
40
0
40
0
40
0.250000000000002
40
0.250000000000002
40
0.500000000000003
40
0.500000000000003
40
0.562500000000003
40
0.562500000000003
40
0.625000000000003
40
0.625000000000003
40
0.750000000000002
40
0.750000000000002
40
0.875000000000001
40
0.875000000000001
40
1
40
1
40
1
40
1
41
1
10
32.8429322580433
20
-9.257217319049
30
0
41
1
10
32.8940879380828
20
-10.0270302517425
30
0
41
1
10
32.9641563782657
20
-10.7768886330169
30
0
41
1
10
33.164076796438
20
-12.2352775089024
30
0
41
1
10
33.2937503732338
20
-12.9438189411461
30
0
41
1
10
33.5123088025226
20
-13.8019079063597
30
0
41
1
10
33.5588744572328
20
-13.9721422638264
30
0
41
1
10
33.6583411269976
20
-14.309781964725
30
0
41
1
10
33.7110596403571
20
-14.476540074012
30
0
41
1
10
33.8784555681478
20
-14.9692353654353
30
0
41
1
10
34.0025165460886
20
-15.2881644813755
30
0
41
1
10
34.279624219412
20
-15.9065494963338
30
0
41
1
10
34.4326579748163
20
-16.206007874576
30
0
41
1
10
34.7726206045114
20
-16.7848704882058
30
0
41
1
10
34.9595266741307
20
-17.0642794430758
30
0
41
1
10
35.1665250637077
20
-17.3332299028312
30
0
0
SPLINE
5
1E3
100
AcDbEntity
8
1
62
256
6
ByLayer
370
18
48
1
60
0
100
AcDbSpline
70
4
71
3
72
8
73
4
40
0
40
0
40
0
40
0
40
1
40
1
40
1
40
1
41
1
10
35.1665250637077
20
-17.3332299028312
30
0
41
1
10
34.8873936598717
20
-18.0090589788537
30
0
41
1
10
34.6696851564151
20
-18.6667766695505
30
0
41
1
10
34.5000134763926
20
-19.3
30
0
0
SPLINE
5
1E4
100
AcDbEntity
8
1
62
256
6
ByLayer
370
18
48
1
60
0
100
AcDbSpline
70
4
71
3
72
8
73
4
40
0
40
0
40
0
40
0
40
1
40
1
40
1
40
1
41
1
10
34.5000134763926
20
-19.3
30
0
41
1
10
34.6700672365762
20
-18.6653507269766
30
0
41
1
10
34.8880442102554
20
-18.007483875305
30
0
41
1
10
35.1665250637078
20
-17.3332299028312
30
0
0
SPLINE
5
1E5
100
AcDbEntity
8
1
62
256
6
ByLayer
370
18
48
1
60
0
100
AcDbSpline
70
4
71
3
72
48
73
44
40
0
40
0
40
0
40
0
40
0.125000000000005
40
0.125000000000005
40
0.25000000000001
40
0.25000000000001
40
0.281250000000011
40
0.281250000000011
40
0.312500000000012
40
0.312500000000012
40
0.375000000000013
40
0.375000000000013
40
0.437500000000014
40
0.437500000000014
40
0.500000000000016
40
0.500000000000016
40
0.531250000000017
40
0.531250000000017
40
0.546875000000017
40
0.546875000000017
40
0.562500000000018
40
0.562500000000018
40
0.625000000000017
40
0.625000000000017
40
0.687500000000016
40
0.687500000000016
40
0.703125000000017
40
0.703125000000017
40
0.718750000000017
40
0.718750000000017
40
0.750000000000016
40
0.750000000000016
40
0.812500000000013
40
0.812500000000013
40
0.843750000000012
40
0.843750000000012
40
0.859375000000012
40
0.859375000000012
40
0.875000000000011
40
0.875000000000011
40
0.937500000000006
40
0.937500000000006
40
1
40
1
40
1
40
1
41
1
10
32.8429322580433
20
9.25721731904866
30
0
41
1
10
32.8908297230426
20
9.97799921406407
30
0
41
1
10
32.9553386241441
20
10.6812816586041
30
0
41
1
10
33.1354225320871
20
12.0517169805221
30
0
41
1
10
33.2508771467827
20
12.7188769404382
30
0
41
1
10
33.4422377303469
20
13.5288797002962
30
0
41
1
10
33.4828839263879
20
13.6896799022639
30
0
41
1
10
33.5694081949049
20
14.0088322105831
30
0
41
1
10
33.6153737982563
20
14.1674576841048
30
0
41
1
10
33.7611958689215
20
14.6372833178726
30
0
41
1
10
33.8688333252712
20
14.9421848786773
30
0
41
1
10
34.1080975759373
20
15.5350651038253
30
0
41
1
10
34.2397167449025
20
15.8230451714811
30
0
41
1
10
34.5306419751383
20
16.3816737075552
30
0
41
1
10
34.6899354412853
20
16.6523247028891
30
0
41
1
10
34.9530562904495
20
17.0448646954358
30
0
41
1
10
35.0448011585789
20
17.1734703530485
30
0
41
1
10
35.1889938835548
20
17.3629438243823
30
0
41
1
10
35.2382230876319
20
17.4256112936694
30
0
41
1
10
35.3385509473545
20
17.5492766537032
30
0
41
1
10
35.3896510825408
20
17.610283362579
30
0
41
1
10
35.6499330287607
20
17.9112028540407
30
0
41
1
10
35.8734292780297
20
18.1387886720719
30
0
41
1
10
36.3539509196733
20
18.5678436859051
30
0
41
1
10
36.610957456853
20
18.7693214796244
30
0
41
1
10
36.9556649869009
20
19.0046462998123
30
0
41
1
10
37.0258977512072
20
19.0509554831747
30
0
41
1
10
37.1681412477402
20
19.1414960937882
30
0
41
1
10
37.2401253414824
20
19.1857170414289
30
0
41
1
10
37.4586812526222
20
19.3152782705823
30
0
41
1
10
37.6078550705743
20
19.3975191677191
30
0
41
1
10
38.0659727662126
20
19.63213667302
30
0
41
1
10
38.3854763774565
20
19.7724518447783
30
0
41
1
10
38.8871657870456
20
19.9592541624602
30
0
41
1
10
39.0581428383388
20
20.0175663272228
30
0
41
1
10
39.3204860536344
20
20.0990513753121
30
0
41
1
10
39.4089158221824
20
20.1252085096107
30
0
41
1
10
39.5863321273529
20
20.1751246892583
30
0
41
1
10
39.675494004466
20
20.1989399164333
30
0
41
1
10
40.1235579435198
20
20.312417849546
30
0
41
1
10
40.4891967168791
20
20.3853783743127
30
0
41
1
10
41.2349127661577
20
20.4971458699331
30
0
41
1
10
41.6149840703201
20
20.5359655225841
30
0
41
1
10
42.0026864884138
20
20.5572066329719
30
0
0
INSERT
5
1F5
100
AcDbEntity
8
SK2
62
256
6
ByLayer
370
18
48
1
60
0
100
AcDbBlockReference
2
LABLE3D_1
10
0
20
0
30
0
41
1
42
1
43
1
50
0
210
0
220
0
230
1
0
LINE
5
70
100
AcDbEntity
8
1
62
256
6
ByLayer
370
18
48
1
60
0
100
AcDbLine
10
44.000019
20
30.5
30
0
11
44.196046
21
30.696027
31
0
39
0
210
0
220
0
230
1
0
LINE
5
72
100
AcDbEntity
8
1
62
256
6
ByLayer
370
18
48
1
60
0
100
AcDbLine
10
75.803992
20
30.696027
30
0
11
76.000019
21
30.5
31
0
39
0
210
0
220
0
230
1
0
LINE
5
73
100
AcDbEntity
8
1
62
256
6
ByLayer
370
18
48
1
60
0
100
AcDbLine
10
54.853835
20
30.780962
30
0
11
55.798858
21
30.780962
31
0
39
0
210
0
220
0
230
1
0
LINE
5
74
100
AcDbEntity
8
1
62
256
6
ByLayer
370
18
48
1
60
0
100
AcDbLine
10
64.20118
20
30.780962
30
0
11
65.146203
21
30.780962
31
0
39
0
210
0
220
0
230
1
0
LINE
5
75
100
AcDbEntity
8
1
62
256
6
ByLayer
370
18
48
1
60
0
100
AcDbLine
10
55.809792
20
31.425
30
0
11
64.190246
21
31.425
31
0
39
0
210
0
220
0
230
1
0
LINE
5
76
100
AcDbEntity
8
1
62
256
6
ByLayer
370
18
48
1
60
0
100
AcDbLine
10
51.705952
20
30.780962
30
0
11
52.199928
21
30.780962
31
0
39
0
210
0
220
0
230
1
0
LINE
5
77
100
AcDbEntity
8
1
62
256
6
ByLayer
370
18
48
1
60
0
100
AcDbLine
10
67.800111
20
30.780962
30
0
11
68.294086
21
30.780962
31
0
39
0
210
0
220
0
230
1
0
LINE
5
78
100
AcDbEntity
8
1
62
256
6
ByLayer
370
18
48
1
60
0
100
AcDbLine
10
52.335111
20
31.425
30
0
11
54.457314
21
31.425
31
0
39
0
210
0
220
0
230
1
0
LINE
5
79
100
AcDbEntity
8
1
62
256
6
ByLayer
370
18
48
1
60
0
100
AcDbLine
10
65.542725
20
31.425
30
0
11
67.664927
21
31.425
31
0
39
0
210
0
220
0
230
1
0
LINE
5
7A
100
AcDbEntity
8
1
62
256
6
ByLayer
370
18
48
1
60
0
100
AcDbLine
10
49.675298
20
30.780962
30
0
11
50.023391
21
30.780962
31
0
39
0
210
0
220
0
230
1
0
LINE
5
7B
100
AcDbEntity
8
1
62
256
6
ByLayer
370
18
48
1
60
0
100
AcDbLine
10
69.976647
20
30.780962
30
0
11
70.32474
21
30.780962
31
0
39
0
210
0
220
0
230
1
0
LINE
5
7C
100
AcDbEntity
8
1
62
256
6
ByLayer
370
18
48
1
60
0
100
AcDbLine
10
50.230493
20
31.425
30
0
11
51.601879
21
31.425
31
0
39
0
210
0
220
0
230
1
0
LINE
5
7D
100
AcDbEntity
8
1
62
256
6
ByLayer
370
18
48
1
60
0
100
AcDbLine
10
68.39816
20
31.425
30
0
11
69.769545
21
31.425
31
0
39
0
210
0
220
0
230
1
0
LINE
5
7E
100
AcDbEntity
8
1
62
256
6
ByLayer
370
18
48
1
60
0
100
AcDbLine
10
71.563962
20
30.780962
30
0
11
71.828298
21
30.780962
31
0
39
0
210
0
220
0
230
1
0
LINE
5
7F
100
AcDbEntity
8
1
62
256
6
ByLayer
370
18
48
1
60
0
100
AcDbLine
10
48.17174
20
30.780962
30
0
11
48.436076
21
30.780962
31
0
39
0
210
0
220
0
230
1
0
LINE
5
80
100
AcDbEntity
8
1
62
256
6
ByLayer
370
18
48
1
60
0
100
AcDbLine
10
47.010927
20
30.780962
30
0
11
47.216575
21
30.780962
31
0
39
0
210
0
220
0
230
1
0
LINE
5
81
100
AcDbEntity
8
1
62
256
6
ByLayer
370
18
48
1
60
0
100
AcDbLine
10
72.783463
20
30.780962
30
0
11
72.989111
21
30.780962
31
0
39
0
210
0
220
0
230
1
0
LINE
5
82
100
AcDbEntity
8
1
62
256
6
ByLayer
370
18
48
1
60
0
100
AcDbLine
10
71.689464
20
31.425
30
0
11
72.463136
21
31.425
31
0
39
0
210
0
220
0
230
1
0
LINE
5
83
100
AcDbEntity
8
1
62
256
6
ByLayer
370
18
48
1
60
0
100
AcDbLine
10
47.536902
20
31.425
30
0
11
48.310574
21
31.425
31
0
39
0
210
0
220
0
230
1
0
LINE
5
84
100
AcDbEntity
8
1
62
256
6
ByLayer
370
18
48
1
60
0
100
AcDbLine
10
46.106681
20
30.780962
30
0
11
46.266552
21
30.780962
31
0
39
0
210
0
220
0
230
1
0
LINE
5
85
100
AcDbEntity
8
1
62
256
6
ByLayer
370
18
48
1
60
0
100
AcDbLine
10
73.733486
20
30.780962
30
0
11
73.893357
21
30.780962
31
0
39
0
210
0
220
0
230
1
0
LINE
5
86
100
AcDbEntity
8
1
62
256
6
ByLayer
370
18
48
1
60
0
100
AcDbLine
10
72.765218
20
31.425
30
0
11
73.361235
21
31.425
31
0
39
0
210
0
220
0
230
1
0
LINE
5
87
100
AcDbEntity
8
1
62
256
6
ByLayer
370
18
48
1
60
0
100
AcDbLine
10
46.638803
20
31.425
30
0
11
47.23482
21
31.425
31
0
39
0
210
0
220
0
230
1
0
LINE
5
88
100
AcDbEntity
8
1
62
256
6
ByLayer
370
18
48
1
60
0
100
AcDbLine
10
46.655983
20
31.5
30
0
11
47.406593
21
31.5
31
0
39
0
210
0
220
0
230
1
0
LINE
5
89
100
AcDbEntity
8
1
62
256
6
ByLayer
370
18
48
1
60
0
100
AcDbLine
10
72.593446
20
31.5
30
0
11
73.344055
21
31.5
31
0
39
0
210
0
220
0
230
1
0
LINE
5
8A
100
AcDbEntity
8
1
62
256
6
ByLayer
370
18
48
1
60
0
100
AcDbLine
10
45.411216
20
30.780962
30
0
11
45.532822
21
30.780962
31
0
39
0
210
0
220
0
230
1
0
LINE
5
8B
100
AcDbEntity
8
1
62
256
6
ByLayer
370
18
48
1
60
0
100
AcDbLine
10
74.467216
20
30.780962
30
0
11
74.588822
21
30.780962
31
0
39
0
210
0
220
0
230
1
0
LINE
5
8C
100
AcDbEntity
8
1
62
256
6
ByLayer
370
18
48
1
60
0
100
AcDbLine
10
45.956696
20
31.425
30
0
11
46.407467
21
31.425
31
0
39
0
210
0
220
0
230
1
0
LINE
5
8D
100
AcDbEntity
8
1
62
256
6
ByLayer
370
18
48
1
60
0
100
AcDbLine
10
73.592572
20
31.425
30
0
11
74.043342
21
31.425
31
0
39
0
210
0
220
0
230
1
0
LINE
5
8E
100
AcDbEntity
8
1
62
256
6
ByLayer
370
18
48
1
60
0
100
AcDbLine
10
45.986939
20
31.5
30
0
11
46.554154
21
31.5
31
0
39
0
210
0
220
0
230
1
0
LINE
5
8F
100
AcDbEntity
8
1
62
256
6
ByLayer
370
18
48
1
60
0
100
AcDbLine
10
73.445884
20
31.5
30
0
11
74.013099
21
31.5
31
0
39
0
210
0
220
0
230
1
0
LINE
5
90
100
AcDbEntity
8
1
62
256
6
ByLayer
370
18
48
1
60
0
100
AcDbLine
10
75.016392
20
30.780962
30
0
11
75.104373
21
30.780962
31
0
39
0
210
0
220
0
230
1
0
LINE
5
91
100
AcDbEntity
8
1
62
256
6
ByLayer
370
18
48
1
60
0
100
AcDbLine
10
44.895665
20
30.780962
30
0
11
44.983646
21
30.780962
31
0
39
0
210
0
220
0
230
1
0
LINE
5
92
100
AcDbEntity
8
1
62
256
6
ByLayer
370
18
48
1
60
0
100
AcDbLine
10
45.460152
20
31.425
30
0
11
45.785074
21
31.425
31
0
39
0
210
0
220
0
230
1
0
LINE
5
93
100
AcDbEntity
8
1
62
256
6
ByLayer
370
18
48
1
60
0
100
AcDbLine
10
74.214964
20
31.425
30
0
11
74.539886
21
31.425
31
0
39
0
210
0
220
0
230
1
0
LINE
5
94
100
AcDbEntity
8
1
62
256
6
ByLayer
370
18
48
1
60
0
100
AcDbLine
10
74.088602
20
31.5
30
0
11
74.497244
21
31.5
31
0
39
0
210
0
220
0
230
1
0
LINE
5
95
100
AcDbEntity
8
1
62
256
6
ByLayer
370
18
48
1
60
0
100
AcDbLine
10
45.502795
20
31.5
30
0
11
45.911436
21
31.5
31
0
39
0
210
0
220
0
230
1
0
LINE
5
96
100
AcDbEntity
8
1
62
256
6
ByLayer
370
18
48
1
60
0
100
AcDbLine
10
75.40077
20
30.780962
30
0
11
75.458021
21
30.780962
31
0
39
0
210
0
220
0
230
1
0
LINE
5
97
100
AcDbEntity
8
1
62
256
6
ByLayer
370
18
48
1
60
0
100
AcDbLine
10
44.542017
20
30.780962
30
0
11
44.599268
21
30.780962
31
0
39
0
210
0
220
0
230
1
0
LINE
5
98
100
AcDbEntity
8
1
62
256
6
ByLayer
370
18
48
1
60
0
100
AcDbLine
10
74.658527
20
31.425
30
0
11
74.86947
21
31.425
31
0
39
0
210
0
220
0
230
1
0
LINE
5
99
100
AcDbEntity
8
1
62
256
6
ByLayer
370
18
48
1
60
0
100
AcDbLine
10
45.130568
20
31.425
30
0
11
45.341512
21
31.425
31
0
39
0
210
0
220
0
230
1
0
LINE
5
9A
100
AcDbEntity
8
1
62
256
6
ByLayer
370
18
48
1
60
0
100
AcDbLine
10
74.54942
20
31.5
30
0
11
74.814628
21
31.5
31
0
39
0
210
0
220
0
230
1
0
LINE
5
9B
100
AcDbEntity
8
1
62
256
6
ByLayer
370
18
48
1
60
0
100
AcDbLine
10
45.18541
20
31.5
30
0
11
45.450618
21
31.5
31
0
39
0
210
0
220
0
230
1
0
LINE
5
9C
100
AcDbEntity
8
1
62
256
6
ByLayer
370
18
48
1
60
0
100
AcDbLine
10
75.632511
20
30.780962
30
0
11
75.660739
21
30.780962
31
0
39
0
210
0
220
0
230
1
0
LINE
5
9D
100
AcDbEntity
8
1
62
256
6
ByLayer
370
18
48
1
60
0
100
AcDbLine
10
44.339299
20
30.780962
30
0
11
44.367527
21
30.780962
31
0
39
0
210
0
220
0
230
1
0
LINE
5
9E
100
AcDbEntity
8
1
62
256
6
ByLayer
370
18
48
1
60
0
100
AcDbLine
10
74.939196
20
31.425
30
0
11
75.04307
21
31.425
31
0
39
0
210
0
220
0
230
1
0
LINE
5
9F
100
AcDbEntity
8
1
62
256
6
ByLayer
370
18
48
1
60
0
100
AcDbLine
10
44.956968
20
31.425
30
0
11
45.060842
21
31.425
31
0
39
0
210
0
220
0
230
1
0
LINE
5
A0
100
AcDbEntity
8
1
62
256
6
ByLayer
370
18
48
1
60
0
100
AcDbLine
10
45.024181
20
31.5
30
0
11
45.154752
21
31.5
31
0
39
0
210
0
220
0
230
1
0
LINE
5
A1
100
AcDbEntity
8
1
62
256
6
ByLayer
370
18
48
1
60
0
100
AcDbLine
10
74.845286
20
31.5
30
0
11
74.975858
21
31.5
31
0
39
0
210
0
220
0
230
1
0
LINE
5
A2
100
AcDbEntity
8
1
62
256
6
ByLayer
370
18
48
1
60
0
100
AcDbLine
10
44.1978
20
30.697762
30
0
11
44.195981
21
30.695962
31
0
39
0
210
0
220
0
230
1
0
LINE
5
A3
100
AcDbEntity
8
1
62
256
6
ByLayer
370
18
48
1
60
0
100
AcDbLine
10
49.690297
20
31.414355
30
0
11
49.681502
21
31.425
31
0
39
0
210
0
220
0
230
1
0
LINE
5
A4
100
AcDbEntity
8
1
62
256
6
ByLayer
370
18
48
1
60
0
100
AcDbLine
10
70.318536
20
31.425
30
0
11
70.309741
21
31.414355
31
0
39
0
210
0
220
0
230
1
0
LINE
5
A5
100
AcDbEntity
8
1
62
256
6
ByLayer
370
18
48
1
60
0
100
AcDbLine
10
76.000019
20
30.5
30
0
11
44.000019
21
30.5
31
0
39
0
210
0
220
0
230
1
0
LINE
5
A6
100
AcDbEntity
8
1
62
256
6
ByLayer
370
18
48
1
60
0
100
AcDbLine
10
49.681502
20
31.425
30
0
11
48.702388
21
31.425
31
0
39
0
210
0
220
0
230
1
0
LINE
5
A7
100
AcDbEntity
8
1
62
256
6
ByLayer
370
18
48
1
60
0
100
AcDbLine
10
71.29765
20
31.425
30
0
11
70.318536
21
31.425
31
0
39
0
210
0
220
0
230
1
0
LINE
5
A8
100
AcDbEntity
8
1
62
256
6
ByLayer
370
18
48
1
60
0
100
AcDbLine
10
49.700139
20
31.5
30
0
11
47.539674
21
31.5
31
0
39
0
210
0
220
0
230
1
0
LINE
5
A9
100
AcDbEntity
8
1
62
256
6
ByLayer
370
18
48
1
60
0
100
AcDbLine
10
72.460364
20
31.5
30
0
11
70.299899
21
31.5
31
0
39
0
210
0
220
0
230
1
0
LINE
5
AA
100
AcDbEntity
8
1
62
256
6
ByLayer
370
18
48
1
60
0
100
AcDbLine
10
72.028219
20
40.675481
30
0
11
63.528219
21
40.675481
31
0
39
0
210
0
220
0
230
1
0
LINE
5
AB
100
AcDbEntity
8
1
62
256
6
ByLayer
370
18
48
1
60
0
100
AcDbLine
10
70.278219
20
35.975481
30
0
11
65.278219
21
35.975481
31
0
39
0
210
0
220
0
230
1
0
LINE
5
AC
100
AcDbEntity
8
1
62
256
6
ByLayer
370
18
48
1
60
0
100
AcDbLine
10
56.471819
20
40.675481
30
0
11
47.971819
21
40.675481
31
0
39
0
210
0
220
0
230
1
0
LINE
5
AD
100
AcDbEntity
8
1
62
256
6
ByLayer
370
18
48
1
60
0
100
AcDbLine
10
54.721819
20
35.975481
30
0
11
49.721819
21
35.975481
31
0
39
0
210
0
220
0
230
1
0
LINE
5
AE
100
AcDbEntity
8
1
62
256
6
ByLayer
370
18
48
1
60
0
100
AcDbLine
10
56.471819
20
36.175481
30
0
11
47.971819
21
36.175481
31
0
39
0
210
0
220
0
230
1
0
LINE
5
AF
100
AcDbEntity
8
1
62
256
6
ByLayer
370
18
48
1
60
0
100
AcDbLine
10
70.034988
20
31.5
30
0
11
49.96505
21
31.5
31
0
39
0
210
0
220
0
230
1
0
LINE
5
B0
100
AcDbEntity
8
1
62
256
6
ByLayer
370
18
48
1
60
0
100
AcDbLine
10
71.528219
20
41.175481
30
0
11
64.028219
21
41.175481
31
0
39
0
210
0
220
0
230
1
0
LINE
5
B1
100
AcDbEntity
8
1
62
256
6
ByLayer
370
18
48
1
60
0
100
AcDbLine
10
55.971819
20
41.175481
30
0
11
48.471819
21
41.175481
31
0
39
0
210
0
220
0
230
1
0
LINE
5
B2
100
AcDbEntity
8
1
62
256
6
ByLayer
370
18
48
1
60
0
100
AcDbLine
10
72.028219
20
36.175481
30
0
11
63.528219
21
36.175481
31
0
39
0
210
0
220
0
230
1
0
LINE
5
B3
100
AcDbEntity
8
1
62
256
6
ByLayer
370
18
48
1
60
0
100
AcDbLine
10
56.471819
20
36.175481
30
0
11
56.471819
21
40.675481
31
0
39
0
210
0
220
0
230
1
0
LINE
5
B4
100
AcDbEntity
8
1
62
256
6
ByLayer
370
18
48
1
60
0
100
AcDbLine
10
47.971819
20
36.175481
30
0
11
47.971819
21
40.675481
31
0
39
0
210
0
220
0
230
1
0
LINE
5
B5
100
AcDbEntity
8
1
62
256
6
ByLayer
370
18
48
1
60
0
100
AcDbLine
10
65.278219
20
31.5
30
0
11
65.278219
21
35.975481
31
0
39
0
210
0
220
0
230
1
0
LINE
5
B6
100
AcDbEntity
8
1
62
256
6
ByLayer
370
18
48
1
60
0
100
AcDbLine
10
70.278219
20
31.5
30
0
11
70.278219
21
35.975481
31
0
39
0
210
0
220
0
230
1
0
LINE
5
B7
100
AcDbEntity
8
1
62
256
6
ByLayer
370
18
48
1
60
0
100
AcDbLine
10
72.028219
20
36.175481
30
0
11
72.028219
21
40.675481
31
0
39
0
210
0
220
0
230
1
0
LINE
5
B8
100
AcDbEntity
8
1
62
256
6
ByLayer
370
18
48
1
60
0
100
AcDbLine
10
63.528219
20
36.175481
30
0
11
63.528219
21
40.675481
31
0
39
0
210
0
220
0
230
1
0
LINE
5
B9
100
AcDbEntity
8
1
62
256
6
ByLayer
370
18
48
1
60
0
100
AcDbLine
10
49.721819
20
31.5
30
0
11
49.721819
21
35.975481
31
0
39
0
210
0
220
0
230
1
0
LINE
5
BA
100
AcDbEntity
8
1
62
256
6
ByLayer
370
18
48
1
60
0
100
AcDbLine
10
54.721819
20
31.5
30
0
11
54.721819
21
35.975481
31
0
39
0
210
0
220
0
230
1
0
LINE
5
BB
100
AcDbEntity
8
1
62
256
6
ByLayer
370
18
48
1
60
0
100
AcDbLine
10
70.034988
20
31
30
0
11
49.96505
21
31
31
0
39
0
210
0
220
0
230
1
0
LINE
5
BC
100
AcDbEntity
8
81
62
256
6
ByLayer
370
18
48
1
60
0
100
AcDbLine
10
60.000019
20
31
30
0
11
60.000019
21
36
31
0
39
0
210
0
220
0
230
1
0
LINE
5
BD
100
AcDbEntity
8
SK4
62
256
6
ByLayer
370
13
48
0.05
60
1
100
AcDbLine
10
64.471422
20
0
30
0
11
-50.689899
21
0
31
0
39
0
210
0
220
0
230
1
0
LINE
5
BF
100
AcDbEntity
8
4
62
256
6
ByLayer
370
13
48
0.05
60
1
100
AcDbLine
10
0
20
0
30
0
11
61.824519
21
0
31
0
39
0
210
0
220
0
230
1
0
LINE
5
C1
100
AcDbEntity
8
1
62
256
6
ByLayer
370
18
48
0.05
60
1
100
AcDbLine
10
42.000888
20
-36.75
30
0
11
42.000888
21
26.25
31
0
39
0
210
0
220
0
230
1
0
LINE
5
C2
100
AcDbEntity
8
1
62
256
6
ByLayer
370
18
48
0.05
60
1
100
AcDbLine
10
48.222152
20
-67
30
0
11
57.5
21
-67
31
0
39
0
210
0
220
0
230
1
0
LINE
5
C3
100
AcDbEntity
8
1
62
256
6
ByLayer
370
18
48
0.05
60
1
100
AcDbLine
10
43.159999
20
-127.139417
30
0
11
46.538995
21
-139.75
31
0
39
0
210
0
220
0
230
1
0
LINE
5
C4
100
AcDbEntity
8
1
62
256
6
ByLayer
370
18
48
0.05
60
1
100
AcDbLine
10
46.538154
20
-60.25
30
0
11
43.159159
21
-72.860583
31
0
39
0
210
0
220
0
230
1
0
LINE
5
C5
100
AcDbEntity
8
1
62
256
6
ByLayer
370
18
48
0.05
60
1
100
AcDbLine
10
46.537314
20
-55
30
0
11
65
21
-55
31
0
39
0
210
0
220
0
230
1
0
LINE
5
C6
100
AcDbEntity
8
1
62
256
6
ByLayer
370
18
48
0.05
60
1
100
AcDbLine
10
57.533923
20
-133
30
0
11
48.256075
21
-133
31
0
39
0
210
0
220
0
230
1
0
LINE
5
C7
100
AcDbEntity
8
1
62
256
6
ByLayer
370
18
48
0.05
60
1
100
AcDbLine
10
46.537971
20
-145
30
0
11
49.216806
21
-145
31
0
39
0
210
0
220
0
230
1
0
LINE
5
C8
100
AcDbEntity
8
1
62
256
6
ByLayer
370
18
48
0.05
60
1
100
AcDbLine
10
43.159159
20
-72.860583
30
0
11
43.159159
21
-137.639417
31
0
39
0
210
0
220
0
230
1
0
LINE
5
C9
100
AcDbEntity
8
1
62
256
6
ByLayer
370
18
48
0.05
60
1
100
AcDbLine
10
47.631403
20
-145
30
0
11
56
21
-145
31
0
39
0
210
0
220
0
230
1
0
LINE
5
CA
100
AcDbEntity
8
SK4
62
256
6
ByLayer
370
13
48
0.05
60
1
100
AcDbLine
10
-40
20
-100
30
0
11
72.854768
21
-100
31
0
39
0
210
0
220
0
230
1
0
LINE
5
CB
100
AcDbEntity
8
4
62
256
6
ByLayer
370
13
48
0.05
60
1
100
AcDbLine
10
3.033923
20
-100
30
0
11
48.033923
21
-100
31
0
39
0
210
0
220
0
230
1
0
LINE
5
CC
100
AcDbEntity
8
SK3
62
256
6
ByLayer
370
13
48
0.05
60
0
100
AcDbLine
10
5.000013
20
-26.5
30
0
11
26.000013
21
-26.5
31
0
39
0
210
0
220
0
230
1
0
LINE
5
CE
100
AcDbEntity
8
SK3
62
256
6
ByLayer
370
13
48
0.05
60
0
100
AcDbLine
10
5.000013
20
26.5
30
0
11
26.000013
21
26.5
31
0
39
0
210
0
220
0
230
1
0
LINE
5
CF
100
AcDbEntity
8
1
62
256
6
ByLayer
370
18
48
1
60
0
100
AcDbLine
10
1.3E-05
20
-31
30
0
11
1.3E-05
21
31
31
0
39
0
210
0
220
0
230
1
0
LINE
5
D0
100
AcDbEntity
8
1
62
256
6
ByLayer
370
18
48
1
60
0
100
AcDbLine
10
26.000013
20
-31
30
0
11
26.000013
21
0
31
0
39
0
210
0
220
0
230
1
0
LINE
5
D1
100
AcDbEntity
8
SK1
62
256
6
ByLayer
370
18
48
1
60
0
100
AcDbLine
10
-0.495072
20
24.015
30
0
11
-1.253571
21
24.015
31
0
39
0
210
0
220
0
230
1
0
LINE
5
D3
100
AcDbEntity
8
SK1
62
256
6
ByLayer
370
18
48
1
60
0
100
AcDbLine
10
-1.253571
20
24.015
30
0
11
-1.999981
21
24.215
31
0
39
0
210
0
220
0
230
1
0
LINE
5
D4
100
AcDbEntity
8
SK1
62
256
6
ByLayer
370
18
48
1
60
0
100
AcDbLine
10
-31.999987
20
-21.573501
30
0
11
-31.999987
21
0
31
0
39
0
210
0
220
0
230
1
0
LINE
5
D5
100
AcDbEntity
8
SK1
62
256
6
ByLayer
370
18
48
1
60
0
100
AcDbLine
10
-1.999981
20
-24.215
30
0
11
-1.999981
21
24.215
31
0
39
0
210
0
220
0
230
1
0
LINE
5
D6
100
AcDbEntity
8
SK1
62
256
6
ByLayer
370
13
48
0.05
60
0
100
AcDbLine
10
-6.299987
20
-25.90625
30
0
11
-6.299987
21
25.385071
31
0
39
0
210
0
220
0
230
1
0
LINE
5
D7
100
AcDbEntity
8
SK1
62
256
6
ByLayer
370
18
48
1
60
0
100
AcDbLine
10
-1.999981
20
24.215
30
0
11
-6.299987
21
24
31
0
39
0
210
0
220
0
230
1
0
LINE
5
D8
100
AcDbEntity
8
SK1
62
256
6
ByLayer
370
18
48
1
60
0
100
AcDbLine
10
-0.495072
20
-24.015
30
0
11
-1.253571
21
-24.015
31
0
39
0
210
0
220
0
230
1
0
LINE
5
D9
100
AcDbEntity
8
SK1
62
256
6
ByLayer
370
18
48
1
60
0
100
AcDbLine
10
-1.253571
20
-24.015
30
0
11
-1.999981
21
-24.215
31
0
39
0
210
0
220
0
230
1
0
LINE
5
DA
100
AcDbEntity
8
SK1
62
256
6
ByLayer
370
18
48
1
60
0
100
AcDbLine
10
-1.999981
20
-24.215
30
0
11
-6.299987
21
-24
31
0
39
0
210
0
220
0
230
1
0
LINE
5
DB
100
AcDbEntity
8
SK1
62
256
6
ByLayer
370
18
48
1
60
0
100
AcDbLine
10
-6.299987
20
24
30
0
11
-30.859912
21
22.772004
31
0
39
0
210
0
220
0
230
1
0
LINE
5
DC
100
AcDbEntity
8
SK1
62
256
6
ByLayer
370
18
48
1
60
0
100
AcDbLine
10
-6.299987
20
-24
30
0
11
-30.859912
21
-22.772004
31
0
39
0
210
0
220
0
230
1
0
LINE
5
DD
100
AcDbEntity
8
1
62
256
6
ByLayer
370
18
48
1
60
0
100
AcDbLine
10
0.500013
20
31.5
30
0
11
14.625401
21
31.5
31
0
39
0
210
0
220
0
230
1
0
LINE
5
DE
100
AcDbEntity
8
1
62
256
6
ByLayer
370
18
48
1
60
0
100
AcDbLine
10
14.622514
20
-31.5
30
0
11
0.500013
21
-31.5
31
0
39
0
210
0
220
0
230
1
0
LINE
5
DF
100
AcDbEntity
8
1
62
256
6
ByLayer
370
18
48
1
60
0
100
AcDbLine
10
14.608081
20
-31.5
30
0
11
14.377513
21
-31.5
31
0
39
0
210
0
220
0
230
1
0
LINE
5
E0
100
AcDbEntity
8
1
62
256
6
ByLayer
370
18
48
1
60
0
100
AcDbLine
10
25.500013
20
31.5
30
0
11
21.374626
21
31.5
31
0
39
0
210
0
220
0
230
1
0
LINE
5
E1
100
AcDbEntity
8
SK1
62
256
6
ByLayer
370
18
48
1
60
0
100
AcDbLine
10
-31.999987
20
21.573501
30
0
11
-31.999987
21
0
31
0
39
0
210
0
220
0
230
1
0
LINE
5
E2
100
AcDbEntity
8
1
62
256
6
ByLayer
370
18
48
1
60
0
100
AcDbLine
10
14.625401
20
31.47
30
0
11
16.085013
21
28.941877
31
0
39
0
210
0
220
0
230
1
0
LINE
5
E3
100
AcDbEntity
8
1
62
256
6
ByLayer
370
18
48
1
60
0
100
AcDbLine
10
16.085013
20
28.941877
30
0
11
16.085013
21
0
31
0
39
0
210
0
220
0
230
1
0
LINE
5
E4
100
AcDbEntity
8
1
62
256
6
ByLayer
370
18
48
1
60
0
100
AcDbLine
10
16.485013
20
27.475
30
0
11
19.515013
21
27.475
31
0
39
0
210
0
220
0
230
1
0
LINE
5
E5
100
AcDbEntity
8
1
62
256
6
ByLayer
370
18
48
1
60
0
100
AcDbLine
10
19.915013
20
0
30
0
11
19.915013
21
28.941877
31
0
39
0
210
0
220
0
230
1
0
LINE
5
E6
100
AcDbEntity
8
1
62
256
6
ByLayer
370
18
48
1
60
0
100
AcDbLine
10
19.915013
20
28.941877
30
0
11
21.374626
21
31.47
31
0
39
0
210
0
220
0
230
1
0
LINE
5
E7
100
AcDbEntity
8
1
62
256
6
ByLayer
370
18
48
1
60
0
100
AcDbLine
10
21.374626
20
31.5
30
0
11
21.374626
21
24.420041
31
0
39
0
210
0
220
0
230
1
0
LINE
5
E8
100
AcDbEntity
8
1
62
256
6
ByLayer
370
18
48
1
60
0
100
AcDbLine
10
14.625401
20
31.5
30
0
11
14.625401
21
24.420041
31
0
39
0
210
0
220
0
230
1
0
LINE
5
E9
100
AcDbEntity
8
1
62
256
6
ByLayer
370
18
48
1
60
0
100
AcDbLine
10
25.350013
20
24.420041
30
0
11
25.850013
21
23.920041
31
0
39
0
210
0
220
0
230
1
0
LINE
5
EA
100
AcDbEntity
8
1
62
256
6
ByLayer
370
18
48
1
60
0
100
AcDbLine
10
0.500013
20
31.5
30
0
11
1.3E-05
21
31
31
0
39
0
210
0
220
0
230
1
0
LINE
5
EB
100
AcDbEntity
8
1
62
256
6
ByLayer
370
18
48
1
60
0
100
AcDbLine
10
25.500013
20
31.5
30
0
11
26.000013
21
31
31
0
39
0
210
0
220
0
230
1
0
LINE
5
EC
100
AcDbEntity
8
1
62
256
6
ByLayer
370
18
48
1
60
0
100
AcDbLine
10
0.500013
20
-31.5
30
0
11
1.3E-05
21
-31
31
0
39
0
210
0
220
0
230
1
0
LINE
5
ED
100
AcDbEntity
8
1
62
256
6
ByLayer
370
18
48
1
60
0
100
AcDbLine
10
21.374626
20
-31.47
30
0
11
21.374626
21
19.85
31
0
39
0
210
0
220
0
230
1
0
LINE
5
EE
100
AcDbEntity
8
1
62
256
6
ByLayer
370
18
48
1
60
0
100
AcDbLine
10
19.915013
20
0
30
0
11
19.915013
21
-28.941877
31
0
39
0
210
0
220
0
230
1
0
LINE
5
EF
100
AcDbEntity
8
1
62
256
6
ByLayer
370
18
48
1
60
0
100
AcDbLine
10
16.085013
20
-28.941877
30
0
11
16.085013
21
0
31
0
39
0
210
0
220
0
230
1
0
LINE
5
F0
100
AcDbEntity
8
1
62
256
6
ByLayer
370
18
48
1
60
0
100
AcDbLine
10
14.625401
20
-31.47
30
0
11
14.625401
21
19.85
31
0
39
0
210
0
220
0
230
1
0
LINE
5
F1
100
AcDbEntity
8
1
62
256
6
ByLayer
370
18
48
1
60
0
100
AcDbLine
10
19.915013
20
-28.941877
30
0
11
21.374626
21
-31.47
31
0
39
0
210
0
220
0
230
1
0
LINE
5
F2
100
AcDbEntity
8
1
62
256
6
ByLayer
370
18
48
1
60
0
100
AcDbLine
10
16.485013
20
-27.475
30
0
11
19.515013
21
-27.475
31
0
39
0
210
0
220
0
230
1
0
LINE
5
F3
100
AcDbEntity
8
1
62
256
6
ByLayer
370
18
48
1
60
0
100
AcDbLine
10
14.625401
20
-31.47
30
0
11
16.085013
21
-28.941877
31
0
39
0
210
0
220
0
230
1
0
LINE
5
F4
100
AcDbEntity
8
SK1
62
256
6
ByLayer
370
13
48
1
60
0
100
AcDbLine
10
-1.253571
20
-24.015
30
0
11
-1.253571
21
24.015
31
0
39
0
210
0
220
0
230
1
0
LINE
5
F5
100
AcDbEntity
8
1
62
256
6
ByLayer
370
18
48
1
60
0
100
AcDbLine
10
25.500013
20
-31.5
30
0
11
26.000013
21
-31
31
0
39
0
210
0
220
0
230
1
0
LINE
5
F6
100
AcDbEntity
8
1
62
256
6
ByLayer
370
18
48
1
60
0
100
AcDbLine
10
25.500013
20
-31.5
30
0
11
21.374626
21
-31.5
31
0
39
0
210
0
220
0
230
1
0
LINE
5
F7
100
AcDbEntity
8
1
62
256
6
ByLayer
370
18
48
1
60
0
100
AcDbLine
10
26.000013
20
0
30
0
11
26.000013
21
31
31
0
39
0
210
0
220
0
230
1
0
LINE
5
F8
100
AcDbEntity
8
SK3
62
256
6
ByLayer
370
13
48
0.05
60
0
100
AcDbLine
10
5.000013
20
-31.5
30
0
11
5.000013
21
-26.5
31
0
39
0
210
0
220
0
230
1
0
LINE
5
F9
100
AcDbEntity
8
SK3
62
256
6
ByLayer
370
13
48
0.05
60
0
100
AcDbLine
10
5.000013
20
31.5
30
0
11
5.000013
21
26.5
31
0
39
0
210
0
220
0
230
1
0
LINE
5
FA
100
AcDbEntity
8
1
62
256
6
ByLayer
370
18
48
1
60
0
100
AcDbLine
10
12.177418
20
19.85
30
0
11
16.085013
21
19.85
31
0
39
0
210
0
220
0
230
1
0
LINE
5
FB
100
AcDbEntity
8
1
62
256
6
ByLayer
370
18
48
1
60
0
100
AcDbLine
10
4.950013
20
24.420041
30
0
11
14.625401
21
24.420041
31
0
39
0
210
0
220
0
230
1
0
LINE
5
FC
100
AcDbEntity
8
1
62
256
6
ByLayer
370
18
48
1
60
0
100
AcDbLine
10
25.950013
20
19.85
30
0
11
19.915013
21
19.85
31
0
39
0
210
0
220
0
230
1
0
LINE
5
FD
100
AcDbEntity
8
1
62
256
6
ByLayer
370
18
48
1
60
0
100
AcDbLine
10
25.350013
20
24.420041
30
0
11
21.374626
21
24.420041
31
0
39
0
210
0
220
0
230
1
0
LINE
5
FE
100
AcDbEntity
8
80
62
256
6
ByLayer
370
13
48
1
60
0
100
AcDbLine
10
0
20
0
30
0
11
-8.091354
21
0
31
0
39
0
210
0
220
0
230
1
0
LINE
5
FF
100
AcDbEntity
8
1
62
256
6
ByLayer
370
18
48
0.05
60
1
100
AcDbLine
10
27.000013
20
26.25
30
0
11
42.250013
21
26.25
31
0
39
0
210
0
220
0
230
1
0
LINE
5
100
100
AcDbEntity
8
1
62
256
6
ByLayer
370
18
48
0.05
60
1
100
AcDbLine
10
27.000013
20
-26.25
30
0
11
42.250013
21
-26.25
31
0
39
0
210
0
220
0
230
1
0
LINE
5
101
100
AcDbEntity
8
SK4
62
256
6
ByLayer
370
13
48
0.05
60
1
100
AcDbLine
10
-34.343183
20
-100
30
0
11
72.854768
21
-100
31
0
39
0
210
0
220
0
230
1
0
LINE
5
102
100
AcDbEntity
8
1
62
256
6
ByLayer
370
18
48
1
60
0
100
AcDbLine
10
42.000888
20
26.25
30
0
11
27.000013
21
26.25
31
0
39
0
210
0
220
0
230
1
0
LINE
5
103
100
AcDbEntity
8
SK4
62
256
6
ByLayer
370
13
48
0.05
60
1
100
AcDbLine
10
-34.183801
20
0
30
0
11
64.471422
21
0
31
0
39
0
210
0
220
0
230
1
0
LINE
5
104
100
AcDbEntity
8
1
62
256
6
ByLayer
370
18
48
0.05
60
1
100
AcDbLine
10
35.189416
20
-26.25
30
0
11
26.476783
21
-26.25
31
0
39
0
210
0
220
0
230
1
0
LINE
5
105
100
AcDbEntity
8
1
62
256
6
ByLayer
370
18
48
0.05
60
1
100
AcDbLine
10
26.476783
20
26.25
30
0
11
28.5
21
26.25
31
0
39
0
210
0
220
0
230
1
0
LINE
5
106
100
AcDbEntity
8
1
62
256
6
ByLayer
370
18
48
1
60
0
100
AcDbLine
10
35.5
20
26.25
30
0
11
42.043146
21
26.25
31
0
39
0
210
0
220
0
230
1
0
LINE
5
107
100
AcDbEntity
8
1
62
256
6
ByLayer
370
18
48
1
60
0
100
AcDbLine
10
66.324519
20
31.5
30
0
11
48.95
21
31.5
31
0
39
0
210
0
220
0
230
1
0
LINE
5
108
100
AcDbEntity
8
1
62
256
6
ByLayer
370
18
48
0.05
60
1
100
AcDbLine
10
26.95
20
-25.431193
30
0
11
26.95
21
25.431193
31
0
39
0
210
0
220
0
230
1
0
LINE
5
109
100
AcDbEntity
8
1
62
256
6
ByLayer
370
18
48
1
60
0
100
AcDbLine
10
26.95
20
25.431193
30
0
11
26.95
21
-25.431193
31
0
39
0
210
0
220
0
230
1
0
LINE
5
10A
100
AcDbEntity
8
1
62
256
6
ByLayer
370
18
48
1
60
0
100
AcDbLine
10
26.95
20
26.25
30
0
11
28.5
21
26.25
31
0
39
0
210
0
220
0
230
1
0
LINE
5
10B
100
AcDbEntity
8
1
62
256
6
ByLayer
370
18
48
1
60
0
100
AcDbLine
10
26.95
20
-26.25
30
0
11
26.95
21
26.25
31
0
39
0
210
0
220
0
230
1
0
LINE
5
10C
100
AcDbEntity
8
SK4
62
256
6
ByLayer
370
13
48
0.05
60
0
100
AcDbLine
10
71.021538
20
0
30
0
11
-34.183801
21
0
31
0
39
0
210
0
220
0
230
1
0
LINE
5
10D
100
AcDbEntity
8
1
62
256
6
ByLayer
370
18
48
1
60
0
100
AcDbLine
10
42.968612
20
26.991181
30
0
11
43.774823
21
30
31
0
39
0
210
0
220
0
230
1
0
LINE
5
10E
100
AcDbEntity
8
1
62
256
6
ByLayer
370
18
48
1
60
0
100
AcDbLine
10
66.42279
20
1.89208
30
0
11
43.192935
21
-8.94018
31
0
39
0
210
0
220
0
230
1
0
LINE
5
10F
100
AcDbEntity
8
1
62
256
6
ByLayer
370
18
48
1
60
0
100
AcDbLine
10
34.500013
20
-19.3
30
0
11
32.637767
21
-26.25
31
0
39
0
210
0
220
0
230
1
0
LINE
5
110
100
AcDbEntity
8
1
62
256
6
ByLayer
370
18
48
1
60
0
100
AcDbLine
10
75.919833
20
18.654066
30
0
11
76.300013
21
22.999549
31
0
39
0
210
0
220
0
230
1
0
LINE
5
111
100
AcDbEntity
8
1
62
256
6
ByLayer
370
18
48
1
60
0
100
AcDbLine
10
76.300013
20
30
30
0
11
76.300013
21
22.999549
31
0
39
0
210
0
220
0
230
1
0
LINE
5
112
100
AcDbEntity
8
1
62
256
6
ByLayer
370
18
48
1
60
0
100
AcDbLine
10
42.968612
20
26.991181
30
0
11
43.774823
21
30
31
0
39
0
210
0
220
0
230
1
0
LINE
5
113
100
AcDbEntity
8
1
62
256
6
ByLayer
370
18
48
1
60
0
100
AcDbLine
10
32.637767
20
-26.25
30
0
11
26.476796
21
-26.25
31
0
39
0
210
0
220
0
230
1
0
LINE
5
114
100
AcDbEntity
8
1
62
256
6
ByLayer
370
18
48
1
60
0
100
AcDbLine
10
32.842932
20
-9.257217
30
0
11
32.842932
21
9.257217
31
0
39
0
210
0
220
0
230
1
0
LINE
5
115
100
AcDbEntity
8
1
62
256
6
ByLayer
370
18
48
1
60
0
100
AcDbLine
10
26.950013
20
-25.431193
30
0
11
26.950013
21
25.431193
31
0
39
0
210
0
220
0
230
1
0
LINE
5
116
100
AcDbEntity
8
1
62
256
6
ByLayer
370
18
48
1
60
0
100
AcDbLine
10
26.950013
20
25.431193
30
0
11
26.950013
21
-25.431193
31
0
39
0
210
0
220
0
230
1
0
LINE
5
117
100
AcDbEntity
8
1
62
256
6
ByLayer
370
18
48
1
60
0
100
AcDbLine
10
42.69101
20
-8.031956
30
0
11
65.936112
21
2.808112
31
0
39
0
210
0
220
0
230
1
0
LINE
5
118
100
AcDbEntity
8
1
62
256
6
ByLayer
370
18
48
1
60
0
100
AcDbLine
10
76.300013
20
22.999549
30
0
11
75.600013
21
14.998512
31
0
39
0
210
0
220
0
230
1
0
LINE
5
119
100
AcDbEntity
8
1
62
256
6
ByLayer
370
18
48
1
60
0
100
AcDbLine
10
65.936112
20
2.808112
30
0
11
65.936112
21
30
31
0
39
0
210
0
220
0
230
1
0
LINE
5
11A
100
AcDbEntity
8
1
62
256
6
ByLayer
370
18
48
1
60
0
100
AcDbLine
10
76.300013
20
30
30
0
11
65.936112
21
30
31
0
39
0
210
0
220
0
230
1
0
LINE
5
11B
100
AcDbEntity
8
1
62
256
6
ByLayer
370
18
48
1
60
0
100
AcDbLine
10
65.936112
20
30
30
0
11
44.884723
21
30
31
0
39
0
210
0
220
0
230
1
0
LINE
5
11C
100
AcDbEntity
8
1
62
256
6
ByLayer
370
18
48
1
60
0
100
AcDbLine
10
42.968612
20
21.513574
30
0
11
42.968612
21
26.991181
31
0
39
0
210
0
220
0
230
1
0
LINE
5
11D
100
AcDbEntity
8
1
62
256
6
ByLayer
370
18
48
1
60
0
100
AcDbLine
10
34.500013
20
-19.3
30
0
11
32.637767
21
-26.25
31
0
39
0
210
0
220
0
230
1
0
LINE
5
11E
100
AcDbEntity
8
1
62
256
6
ByLayer
370
18
48
1
60
0
100
AcDbLine
10
66.000013
20
1.694935
30
0
11
43.192935
21
-8.94018
31
0
39
0
210
0
220
0
230
1
0
LINE
5
11F
100
AcDbEntity
8
1
62
256
6
ByLayer
370
18
48
0.05
60
1
100
AcDbLine
10
76.000013
20
30
30
0
11
44.000013
21
30
31
0
39
0
210
0
220
0
230
1
0
LINE
5
120
100
AcDbEntity
8
1
62
256
6
ByLayer
370
18
48
1
60
0
100
AcDbLine
10
44.000013
20
30.324519
30
0
11
76.000013
21
30.324519
31
0
39
0
210
0
220
0
230
1
0
LINE
5
121
100
AcDbEntity
8
4
62
256
6
ByLayer
370
13
48
0.05
60
1
100
AcDbLine
10
60.000019
20
0
30
0
11
0
21
0
31
0
39
0
210
0
220
0
230
1
0
LINE
5
122
100
AcDbEntity
8
4
62
256
6
ByLayer
370
13
48
0.05
60
0
100
AcDbLine
10
60.000019
20
0
30
0
11
0
21
0
31
0
39
0
210
0
220
0
230
1
0
LINE
5
123
100
AcDbEntity
8
1
62
256
6
ByLayer
370
18
48
1
60
0
100
AcDbLine
10
43.774823
20
30
30
0
11
76.000013
21
30
31
0
39
0
210
0
220
0
230
1
0
LINE
5
124
100
AcDbEntity
8
1
62
256
6
ByLayer
370
18
48
1
60
0
100
AcDbLine
10
44.000019
20
30.5
30
0
11
44.000019
21
30
31
0
39
0
210
0
220
0
230
1
0
LINE
5
125
100
AcDbEntity
8
1
62
256
6
ByLayer
370
18
48
1
60
0
100
AcDbLine
10
76.000019
20
30.5
30
0
11
76.000019
21
30
31
0
39
0
210
0
220
0
230
1
0
MTEXT
5
1E6
100
AcDbEntity
8
SK6
62
256
6
ByLayer
370
18
48
1
60
0
100
AcDbMText
10
14.215665
20
-49.884548
30
0
210
0
220
0
230
1
1
\W0.7816;392.T63SL-32RF
40
3.5
41
0
44
1.084337
50
0
71
7
72
5
7
iso_b_vert
0
DIMENSION
5
201
100
AcDbEntity
8
SK2
62
256
6
ByLayer
370
13
48
1
60
0
100
AcDbDimension
2
DimnDraft3D1
10
26.000013
20
45.472457
30
0
11
11.247378
21
45.472457
31
0
70
32
71
5
72
1
41
1
210
0
220
0
230
1
3
Standard
100
AcDbAlignedDimension
13
1.3E-05
23
32.5875
33
0
14
26.000013
24
32.5875
34
0
50
0
100
AcDbRotatedDimension
1001
ACAD
1000
DSTYLE
1002
{
1070
   279
1070
     0
1070
   172
1070
     1
1070
   173
1070
     1
1070
   340
1005
1E7
1070
   271
1070
     0
1070
    77
1070
     1
1070
    73
1070
     0
1070
   171
1070
     3
1070
   274
1070
     4
1070
   177
1070
   254
1070
   176
1070
   254
1070
   178
1070
   254
1070
    78
1070
     8
1070
    41
1041
3.175
1070
   147
1041
1.500003
1070
    42
1041
1.5875
1070
    44
1041
3.175
1070
   140
1041
3.000007
1070
   343
1005
0
1070
   344
1005
0
1002
}
0
DIMENSION
5
20F
100
AcDbEntity
8
SK2
62
256
6
ByLayer
370
13
48
1
60
0
100
AcDbDimension
2
DimnDraft3D2
10
-31.999987
20
58.538285
30
0
11
19.501873
21
58.538285
31
0
70
32
71
5
72
1
41
1
210
0
220
0
230
1
3
Standard
100
AcDbAlignedDimension
13
1.3E-05
23
32.499997
33
0
14
-31.999987
24
23.073498
34
0
50
0
100
AcDbRotatedDimension
1001
ACAD
1000
DSTYLE
1002
{
1070
   279
1070
     0
1070
   173
1070
     1
1070
   340
1005
1E7
1070
   271
1070
     0
1070
   272
1070
     2
1070
    77
1070
     1
1070
    73
1070
     0
1070
   171
1070
     4
1070
   274
1070
     4
1070
   177
1070
   254
1070
   176
1070
   254
1070
   178
1070
   254
1070
    41
1041
2.999994
1070
   147
1041
1.499997
1070
    42
1041
1.499997
1070
    44
1041
2.999994
1070
   140
1041
2.999994
1070
   343
1005
1EB
1070
   344
1005
1EB
1002
}
0
DIMENSION
5
21D
100
AcDbEntity
8
SK2
62
256
6
ByLayer
370
13
48
1
60
0
100
AcDbDimension
2
DimnDraft3D3
10
-55.58407
20
31.5
30
0
11
-55.58407
21
-4.073684
31
0
70
32
71
5
72
1
41
1
210
0
220
0
230
1
3
Standard
100
AcDbAlignedDimension
13
-0.999987
23
-31.5
33
0
14
-0.999987
24
31.5
34
0
50
90
100
AcDbRotatedDimension
1001
ACAD
1000
DSTYLE
1002
{
1070
    74
1070
     0
1070
   279
1070
     0
1070
   173
1070
     1
1070
   340
1005
1E7
1070
   271
1070
     0
1070
   272
1070
     2
1070
    77
1070
     1
1070
    73
1070
     0
1070
   171
1070
     4
1070
   274
1070
     4
1070
   177
1070
   254
1070
   176
1070
   254
1070
   178
1070
   254
1070
    41
1041
3.0
1070
   147
1041
1.5
1070
    42
1041
1.5
1070
    44
1041
3.0
1070
   140
1041
3.0
1070
   343
1005
1EB
1070
   344
1005
1EB
1002
}
0
DIMENSION
5
22B
100
AcDbEntity
8
SK2
62
256
6
ByLayer
370
13
48
1
60
0
100
AcDbDimension
2
DimnDraft3D4
10
-42.535949
20
24
30
0
11
-42.535949
21
-4.231579
31
0
70
32
71
5
72
1
41
1
210
0
220
0
230
1
3
Standard
100
AcDbAlignedDimension
13
-7.799987
23
-24
33
0
14
-7.799987
24
24
34
0
50
90
100
AcDbRotatedDimension
1001
ACAD
1000
DSTYLE
1002
{
1070
    74
1070
     0
1070
   279
1070
     0
1070
   173
1070
     1
1070
   340
1005
1E7
1070
   271
1070
     0
1070
   272
1070
     2
1070
    77
1070
     1
1070
    73
1070
     0
1070
   171
1070
     4
1070
   274
1070
     4
1070
   177
1070
   254
1070
   176
1070
   254
1070
   178
1070
   254
1070
    41
1041
3.0
1070
   147
1041
1.5
1070
    42
1041
1.5
1070
    44
1041
3.0
1070
   140
1041
3.0
1070
   343
1005
1EB
1070
   344
1005
1EB
1002
}
0
DIMENSION
5
239
100
AcDbEntity
8
SK2
62
256
6
ByLayer
370
13
48
1
60
0
100
AcDbDimension
2
DimnDraft3D5
10
42.000888
20
58.538282
30
0
11
19.089925
21
58.538282
31
0
70
32
71
5
72
1
41
1
210
0
220
0
230
1
3
Standard
100
AcDbAlignedDimension
13
1.3E-05
23
32.5
33
0
14
42.000888
24
27.75
34
0
50
0
100
AcDbRotatedDimension
1001
ACAD
1000
DSTYLE
1002
{
1070
   279
1070
     0
1070
   173
1070
     1
1070
   340
1005
1E7
1070
   271
1070
     0
1070
   272
1070
     2
1070
    77
1070
     1
1070
    73
1070
     0
1070
   171
1070
     4
1070
   274
1070
     4
1070
   177
1070
   254
1070
   176
1070
   254
1070
   178
1070
   254
1070
    41
1041
3.0
1070
   147
1041
1.5
1070
    42
1041
1.5
1070
    44
1041
3.0
1070
   140
1041
3.0
1070
   343
1005
1EB
1070
   344
1005
1EB
1002
}
0
DIMENSION
5
247
100
AcDbEntity
8
SK2
62
256
6
ByLayer
370
18
48
1
60
0
100
AcDbDimension
2
DimnDraft3D6
10
99.026554
20
31
30
0
11
99.026554
21
14.122368
31
0
70
32
71
5
72
1
41
1
210
0
220
0
230
1
3
Standard
100
AcDbAlignedDimension
13
73.021538
23
0
33
0
14
62.000019
24
31
34
0
50
90
100
AcDbRotatedDimension
1001
ACAD
1000
DSTYLE
1002
{
1070
    74
1070
     0
1070
   279
1070
     0
1070
   172
1070
     1
1070
   173
1070
     1
1070
   340
1005
1E7
1070
    77
1070
     1
1070
    73
1070
     0
1070
   171
1070
     3
1070
   274
1070
     4
1070
   177
1070
   254
1070
   176
1070
   254
1070
   178
1070
   254
1070
    78
1070
     8
1070
    41
1041
3.175
1070
   147
1041
1.5
1070
    42
1041
2.0
1070
    44
1041
2.0
1070
   140
1041
3.0
1070
   343
1005
1EB
1070
   344
1005
1EB
1002
}
0
DIMENSION
5
256
100
AcDbEntity
8
2
62
256
6
ByLayer
370
18
48
1
60
0
100
AcDbDimension
2
DimnDraft3D7
10
60.000019
20
72.776678
30
0
11
28.247385
21
72.776678
31
0
70
32
71
5
72
1
41
1
210
0
220
0
230
1
3
Standard
100
AcDbAlignedDimension
13
1.3E-05
23
33
33
0
14
60.000019
24
33
34
0
50
0
100
AcDbRotatedDimension
1001
ACAD
1000
DSTYLE
1002
{
1070
   279
1070
     0
1070
   172
1070
     1
1070
   173
1070
     1
1070
   340
1005
1E7
1070
    77
1070
     1
1070
    73
1070
     0
1070
   171
1070
     3
1070
   274
1070
     4
1070
   177
1070
   254
1070
   176
1070
   254
1070
   178
1070
   254
1070
    78
1070
     8
1070
    41
1041
3.175
1070
   147
1041
1.5
1070
    42
1041
2.0
1070
    44
1041
2.0
1070
   140
1041
3.0
1070
   343
1005
1EB
1070
   344
1005
1EB
1002
}
0
DIMENSION
5
264
100
AcDbEntity
8
SK2
62
256
6
ByLayer
370
18
48
1
60
0
100
AcDbDimension
2
DimnDraft3D8
10
44.000019
20
53.235889
30
0
11
63.128756
21
53.235889
31
0
70
32
71
5
72
1
41
1
210
0
220
0
230
1
3
Standard
100
AcDbAlignedDimension
13
76.000019
23
32.5
33
0
14
44.000019
24
32.5
34
0
50
0
100
AcDbRotatedDimension
1001
ACAD
1000
DSTYLE
1002
{
1070
   279
1070
     0
1070
   172
1070
     1
1070
   173
1070
     1
1070
   340
1005
1E7
1070
    77
1070
     1
1070
    73
1070
     0
1070
   171
1070
     3
1070
   274
1070
     4
1070
   177
1070
   254
1070
   176
1070
   254
1070
   178
1070
   254
1070
    78
1070
     8
1070
    41
1041
3.175
1070
   147
1041
1.5
1070
    42
1041
2.0
1070
    44
1041
2.0
1070
   140
1041
3.0
1070
   343
1005
1EB
1070
   344
1005
1EB
1002
}
0
ENDSEC
0
SECTION
2
OBJECTS
0
DICTIONARY
5
2d0
330
0
100
AcDbDictionary
280
0
281
1
3
ACAD_GROUP
350
2d1
3
ACAD_MLINESTYLE
350
2d2
0
DICTIONARY
5
2d1
330
0
100
AcDbDictionary
280
0
281
1
0
DICTIONARY
5
2d2
330
0
100
AcDbDictionary
280
0
281
1
3
Standard
350
18
0
MLINESTYLE
5
18
330
2d2
100
AcDbMlineStyle
2
Standard
70
0
3

62
256
51
90
52
90
71
2
49
-0.5
62
256
6
ByLayer
49
0.5
62
256
6
ByLayer
0
RASTERVARIABLES
5
2bd
330

100
AcDbRasterVariables
90
0
70
1
71
1
72
1
0
ENDSEC
0
EOF
