0
SECTION
2
HEADER
9
$ACADVER
1
AC1015
9
$DWGCODEPAGE
3
ANSI_1252
9
$HANDSEED
5
2e8
9
$ANGBASE
50
0
9
$ANGDIR
70
0
9
$ATTMODE
70
1
9
$AUNITS
70
0
9
$AUPREC
70
0
9
$CECOLOR
62
256
9
$CELTSCALE
40
1
9
$CELTYPE
6
ByLayer
9
$CELWEIGHT
370
18
9
$CLAYER
8
0
9
$CMLJUST
70
0
9
$CMLSCALE
40
1
9
$CMLSTYLE
2
Standard
9
$DIMSTYLE
2
Standard
9
$TEXTSIZE
40
0.2
9
$TEXTSTYLE
7
Standard
9
$LUNITS
70
2
9
$LUPREC
70
4
9
$EXTNAMES
290
1
9
$INSUNITS
70
4
9
$LTSCALE
40
1
9
$LWDISPLAY
290
1
9
$PDMODE
70
0
9
$PDSIZE
40
0
9
$PLINEGEN
70
0
0
ENDSEC
0
SECTION
2
CLASSES
0
CLASS
1
RASTERVARIABLES
2
AcDbRasterVariables
3
ISM
90
0
280
0
281
0
0
ENDSEC
0
SECTION
2
TABLES
0
TABLE
2
VPORT
5
2de
100
AcDbSymbolTable
0
VPORT
5
1
100
AcDbSymbolTableRecord
100
AcDbViewportTableRecord
2
*Active
70
0
10
0
20
0
11
1
21
1
12
-1
22
1
13
0
23
0
14
0.5
24
0.5
15
10
25
10
16
0
26
0
36
1
17
0
27
0
37
0
0
ENDTAB
0
TABLE
2
LTYPE
5
2df
100
AcDbSymbolTable
0
LTYPE
5
14
100
AcDbSymbolTableRecord
100
AcDbLinetypeTableRecord
70
0
2
ByBlock
3

72
65
73
0
40
0
0
LTYPE
5
15
100
AcDbSymbolTableRecord
100
AcDbLinetypeTableRecord
70
0
2
ByLayer
3

72
65
73
0
40
0
0
LTYPE
5
16
100
AcDbSymbolTableRecord
100
AcDbLinetypeTableRecord
70
0
2
CONTINUOUS
3
Solid line
72
65
73
0
40
0
0
LTYPE
5
6A
100
AcDbSymbolTableRecord
100
AcDbLinetypeTableRecord
70
0
2
CENTER
3
____ _ ____ _ ____ _ ____
72
65
73
4
40
47.5
49
22
74
0
49
-8.5
74
0
49
8.5
74
0
49
-8.5
74
0
0
LTYPE
5
6B
100
AcDbSymbolTableRecord
100
AcDbLinetypeTableRecord
70
0
2
DASHED
3
__ __ __ __ __ __ __ __ __
72
65
73
2
40
25.72
49
12.86
74
0
49
-12.86
74
0
0
ENDTAB
0
TABLE
2
LAYER
5
2e0
100
AcDbSymbolTable
0
LAYER
5
10
100
AcDbSymbolTableRecord
100
AcDbLayerTableRecord
2
0
70
0
62
7
6
CONTINUOUS
290
1
370
-3
390
0
0
LAYER
5
6D
100
AcDbSymbolTableRecord
100
AcDbLayerTableRecord
2
80
70
0
62
-6
6
CONTINUOUS
290
1
370
-3
390
0
0
LAYER
5
6F
100
AcDbSymbolTableRecord
100
AcDbLayerTableRecord
2
81
70
0
62
-3
6
CONTINUOUS
290
1
370
-3
390
0
0
LAYER
5
71
100
AcDbSymbolTableRecord
100
AcDbLayerTableRecord
2
1
70
0
62
4
6
CONTINUOUS
290
1
370
-3
390
0
0
LAYER
5
E2
100
AcDbSymbolTableRecord
100
AcDbLayerTableRecord
2
4
70
0
62
-2
6
CENTER
290
1
370
-3
390
0
0
LAYER
5
20F
100
AcDbSymbolTableRecord
100
AcDbLayerTableRecord
2
2
70
0
62
7
6
CONTINUOUS
290
1
370
-3
390
0
0
LAYER
5
2c9
100
AcDbSymbolTableRecord
100
AcDbLayerTableRecord
2
SK4
70
0
62
2
6
CENTER
290
1
370
-3
390
0
0
LAYER
5
2ca
100
AcDbSymbolTableRecord
100
AcDbLayerTableRecord
2
SK3
70
0
62
1
6
DASHED
290
1
370
-3
390
0
0
LAYER
5
2cb
100
AcDbSymbolTableRecord
100
AcDbLayerTableRecord
2
SK1
70
0
62
4
6
CONTINUOUS
290
1
370
-3
390
0
0
LAYER
5
2cc
100
AcDbSymbolTableRecord
100
AcDbLayerTableRecord
2
SK6
70
0
62
5
6
CONTINUOUS
290
1
370
-3
390
0
0
LAYER
5
2cd
100
AcDbSymbolTableRecord
100
AcDbLayerTableRecord
2
SK2
70
0
62
7
6
CONTINUOUS
290
1
370
-3
390
0
0
ENDTAB
0
TABLE
2
STYLE
5
2e1
100
AcDbSymbolTable
0
STYLE
5
11
100
AcDbSymbolTableRecord
100
AcDbTextStyleTableRecord
2
Standard
3
txt
70
0
71
0
40
0
41
1
42
0
50
0
0
STYLE
5
1FC
100
AcDbSymbolTableRecord
100
AcDbTextStyleTableRecord
2
iso_b_vert
3
simplex.shx
70
0
71
0
40
0
41
1
42
0
50
0
0
STYLE
5
1FD
100
AcDbSymbolTableRecord
100
AcDbTextStyleTableRecord
2
DWGDirectTextStyle
3
simplex
70
0
71
0
40
0
41
1
42
0
50
0
0
ENDTAB
0
TABLE
2
DIMSTYLE
5
2e2
100
AcDbSymbolTable
100
AcDbDimStyleTable
0
DIMSTYLE
105
27
100
AcDbSymbolTableRecord
100
AcDbDimStyleTableRecord
2
Standard
70
0
3
<>
41
0.18
42
0.0625
44
0.18
140
0.18
147
0.09
73
0
74
0
77
1
271
2
275
0
278
52
280
0
340
11
0
ENDTAB
0
TABLE
2
VIEW
5
2e3
100
AcDbSymbolTable
0
ENDTAB
0
TABLE
2
UCS
5
2e4
100
AcDbSymbolTable
0
ENDTAB
0
TABLE
2
APPID
5
2e5
100
AcDbSymbolTable
0
APPID
5
12
100
AcDbSymbolTableRecord
100
AcDbRegAppTableRecord
2
ACAD
70
0
0
ENDTAB
0
TABLE
2
BLOCK_RECORD
5
2e6
100
AcDbSymbolTable
0
BLOCK_RECORD
5
1F
100
AcDbSymbolTableRecord
100
AcDbBlockTableRecord
2
*Model_Space
340
0
70
0
0
BLOCK_RECORD
5
1B
100
AcDbSymbolTableRecord
100
AcDbBlockTableRecord
2
*Paper_Space
340
0
70
0
0
BLOCK_RECORD
5
23
100
AcDbSymbolTableRecord
100
AcDbBlockTableRecord
2
*Paper_Space0
340
0
70
0
0
BLOCK_RECORD
5
1FF
100
AcDbSymbolTableRecord
100
AcDbBlockTableRecord
2
LABLE3D_1
340
0
70
0
0
BLOCK_RECORD
5
200
100
AcDbSymbolTableRecord
100
AcDbBlockTableRecord
2
_CLOSED
340
0
70
0
0
BLOCK_RECORD
5
20D
100
AcDbSymbolTableRecord
100
AcDbBlockTableRecord
2
DimnDraft3D1
340
0
70
0
0
BLOCK_RECORD
5
21C
100
AcDbSymbolTableRecord
100
AcDbBlockTableRecord
2
DimnDraft3D2
340
0
70
0
0
BLOCK_RECORD
5
22A
100
AcDbSymbolTableRecord
100
AcDbBlockTableRecord
2
DimnDraft3D3
340
0
70
0
0
BLOCK_RECORD
5
238
100
AcDbSymbolTableRecord
100
AcDbBlockTableRecord
2
DimnDraft3D4
340
0
70
0
0
BLOCK_RECORD
5
246
100
AcDbSymbolTableRecord
100
AcDbBlockTableRecord
2
DimnDraft3D5
340
0
70
0
0
BLOCK_RECORD
5
254
100
AcDbSymbolTableRecord
100
AcDbBlockTableRecord
2
DimnDraft3D6
340
0
70
0
0
BLOCK_RECORD
5
262
100
AcDbSymbolTableRecord
100
AcDbBlockTableRecord
2
DimnDraft3D7
340
0
70
0
0
ENDTAB
0
ENDSEC
0
SECTION
2
BLOCKS
0
BLOCK
5
20
100
AcDbEntity
8
0
100
AcDbBlockBegin
2
*Model_Space
70
0
10
0
20
0
30
0
3
*Model_Space
0
ENDBLK
5
21
100
AcDbEntity
8
0
100
AcDbBlockEnd
0
BLOCK
5
1C
100
AcDbEntity
8
0
100
AcDbBlockBegin
2
*Paper_Space
70
0
10
0
20
0
30
0
3
*Paper_Space
0
ENDBLK
5
1D
100
AcDbEntity
8
0
100
AcDbBlockEnd
0
BLOCK
5
24
100
AcDbEntity
8
0
100
AcDbBlockBegin
2
*Paper_Space0
70
0
10
0
20
0
30
0
3
*Paper_Space0
0
ENDBLK
5
25
100
AcDbEntity
8
0
100
AcDbBlockEnd
0
BLOCK
5
20B
100
AcDbEntity
8
0
100
AcDbBlockBegin
2
LABLE3D_1
70
0
10
0
20
0
30
0
3
LABLE3D_1
0
MTEXT
5
209
100
AcDbEntity
8
SK2
62
256
6
ByLayer
370
18
48
1
60
0
100
AcDbMText
10
-43.497759
20
-65.220711
30
0
210
0
220
0
230
1
1
\W0.7886;Combination of\PHSK-A/C/T 100
40
3
41
0
44
1.084337
50
0
71
7
72
5
7
iso_b_vert
0
ENDBLK
5
20C
100
AcDbEntity
8
0
100
AcDbBlockEnd
0
BLOCK
5
201
100
AcDbEntity
8
0
100
AcDbBlockBegin
2
_CLOSED
70
0
10
0
20
0
30
0
3
_CLOSED
0
LINE
5
203
100
AcDbEntity
8
0
62
256
6
ByLayer
370
-2
48
1
60
0
100
AcDbLine
10
-1
20
0.166667
30
0
11
0
21
0
31
0
39
0
210
0
220
0
230
1
0
LINE
5
204
100
AcDbEntity
8
0
62
256
6
ByLayer
370
-2
48
1
60
0
100
AcDbLine
10
0
20
0
30
0
11
-1
21
-0.166667
31
0
39
0
210
0
220
0
230
1
0
LINE
5
205
100
AcDbEntity
8
0
62
256
6
ByLayer
370
-2
48
1
60
0
100
AcDbLine
10
-1
20
0.166667
30
0
11
-1
21
-0.166667
31
0
39
0
210
0
220
0
230
1
0
LINE
5
206
100
AcDbEntity
8
0
62
256
6
ByLayer
370
-2
48
1
60
0
100
AcDbLine
10
0
20
0
30
0
11
-1
21
0
31
0
39
0
210
0
220
0
230
1
0
ENDBLK
5
202
100
AcDbEntity
8
0
100
AcDbBlockEnd
0
BLOCK
5
219
100
AcDbEntity
8
0
100
AcDbBlockBegin
2
DimnDraft3D1
70
0
10
0
20
0
30
0
3
DimnDraft3D1
0
MTEXT
5
20E
100
AcDbEntity
8
2
62
256
6
ByLayer
370
18
48
1
60
0
100
AcDbMText
10
43.83023
20
82.409274
30
0
210
0
220
0
230
1
1
\W0.6562;90
40
3.50012
41
0
44
1.084337
50
0
71
7
72
5
7
iso_b_vert
0
LINE
5
210
100
AcDbEntity
8
2
62
256
6
ByLayer
370
13
48
1
60
0
100
AcDbLine
10
1.3E-05
20
50.852471
30
0
11
1.3E-05
21
84.709244
31
0
39
0
210
0
220
0
230
1
0
LINE
5
211
100
AcDbEntity
8
2
62
256
6
ByLayer
370
13
48
1
60
0
100
AcDbLine
10
90
20
-3.4125
30
0
11
90
21
84.709244
31
0
39
0
210
0
220
0
230
1
0
LINE
5
212
100
AcDbEntity
8
2
62
256
6
ByLayer
370
13
48
1
60
0
100
AcDbLine
10
1.3E-05
20
81.534244
30
0
11
90
21
81.534244
31
0
39
0
210
0
220
0
230
1
0
LINE
5
213
100
AcDbEntity
8
2
62
256
6
ByLayer
370
13
48
1
60
0
100
AcDbLine
10
1.3E-05
20
81.534244
30
0
11
3.175012
21
81.952241
31
0
39
0
210
0
220
0
230
1
0
LINE
5
214
100
AcDbEntity
8
2
62
256
6
ByLayer
370
13
48
1
60
0
100
AcDbLine
10
1.3E-05
20
81.534244
30
0
11
3.175015
21
81.116247
31
0
39
0
210
0
220
0
230
1
0
LINE
5
215
100
AcDbEntity
8
2
62
256
6
ByLayer
370
13
48
1
60
0
100
AcDbLine
10
3.175012
20
81.952241
30
0
11
3.175015
21
81.116247
31
0
39
0
210
0
220
0
230
1
0
LINE
5
216
100
AcDbEntity
8
2
62
256
6
ByLayer
370
13
48
1
60
0
100
AcDbLine
10
90
20
81.534244
30
0
11
86.825002
21
81.116247
31
0
39
0
210
0
220
0
230
1
0
LINE
5
217
100
AcDbEntity
8
2
62
256
6
ByLayer
370
13
48
1
60
0
100
AcDbLine
10
90
20
81.534244
30
0
11
86.824998
21
81.952241
31
0
39
0
210
0
220
0
230
1
0
LINE
5
218
100
AcDbEntity
8
2
62
256
6
ByLayer
370
13
48
1
60
0
100
AcDbLine
10
86.825002
20
81.116247
30
0
11
86.824998
21
81.952241
31
0
39
0
210
0
220
0
230
1
0
ENDBLK
5
21A
100
AcDbEntity
8
0
100
AcDbBlockEnd
0
BLOCK
5
227
100
AcDbEntity
8
0
100
AcDbBlockBegin
2
DimnDraft3D2
70
0
10
0
20
0
30
0
3
DimnDraft3D2
0
MTEXT
5
21D
100
AcDbEntity
8
SK2
62
256
6
ByLayer
370
18
48
1
60
0
100
AcDbMText
10
-26.002618
20
69.898736
30
0
210
0
220
0
230
1
1
\W0.6563;50
40
3
41
0
44
1.084337
50
0
71
7
72
5
7
iso_b_vert
0
LINE
5
21E
100
AcDbEntity
8
SK2
62
256
6
ByLayer
370
13
48
1
60
0
100
AcDbLine
10
-49.999987
20
35.097502
30
0
11
-49.999987
21
72.148736
31
0
39
0
210
0
220
0
230
1
0
LINE
5
21F
100
AcDbEntity
8
SK2
62
256
6
ByLayer
370
13
48
1
60
0
100
AcDbLine
10
1.3E-05
20
50.764971
30
0
11
1.3E-05
21
72.148736
31
0
39
0
210
0
220
0
230
1
0
LINE
5
220
100
AcDbEntity
8
SK2
62
256
6
ByLayer
370
13
48
1
60
0
100
AcDbLine
10
-49.999987
20
69.148736
30
0
11
1.3E-05
21
69.148736
31
0
39
0
210
0
220
0
230
1
0
LINE
5
221
100
AcDbEntity
8
SK2
62
256
6
ByLayer
370
13
48
1
60
0
100
AcDbLine
10
-49.999987
20
69.148736
30
0
11
-46.999988
21
69.648736
31
0
39
0
210
0
220
0
230
1
0
LINE
5
222
100
AcDbEntity
8
SK2
62
256
6
ByLayer
370
13
48
1
60
0
100
AcDbLine
10
-49.999987
20
69.148736
30
0
11
-46.999985
21
68.648736
31
0
39
0
210
0
220
0
230
1
0
LINE
5
223
100
AcDbEntity
8
SK2
62
256
6
ByLayer
370
13
48
1
60
0
100
AcDbLine
10
-46.999988
20
69.648736
30
0
11
-46.999985
21
68.648736
31
0
39
0
210
0
220
0
230
1
0
LINE
5
224
100
AcDbEntity
8
SK2
62
256
6
ByLayer
370
13
48
1
60
0
100
AcDbLine
10
1.3E-05
20
69.148736
30
0
11
-2.999985
21
68.648736
31
0
39
0
210
0
220
0
230
1
0
LINE
5
225
100
AcDbEntity
8
SK2
62
256
6
ByLayer
370
13
48
1
60
0
100
AcDbLine
10
1.3E-05
20
69.148736
30
0
11
-2.999988
21
69.648736
31
0
39
0
210
0
220
0
230
1
0
LINE
5
226
100
AcDbEntity
8
SK2
62
256
6
ByLayer
370
13
48
1
60
0
100
AcDbLine
10
-2.999985
20
68.648736
30
0
11
-2.999988
21
69.648736
31
0
39
0
210
0
220
0
230
1
0
ENDBLK
5
228
100
AcDbEntity
8
0
100
AcDbBlockEnd
0
BLOCK
5
235
100
AcDbEntity
8
0
100
AcDbBlockBegin
2
DimnDraft3D3
70
0
10
0
20
0
30
0
3
DimnDraft3D3
0
MTEXT
5
22B
100
AcDbEntity
8
SK2
62
256
6
ByLayer
370
18
48
1
60
0
100
AcDbMText
10
13.497382
20
69.865675
30
0
210
0
220
0
230
1
1
\W0.6745;29
40
3
41
0
44
1.084337
50
0
71
7
72
5
7
iso_b_vert
0
LINE
5
22C
100
AcDbEntity
8
SK2
62
256
6
ByLayer
370
13
48
1
60
0
100
AcDbLine
10
1.3E-05
20
50.764971
30
0
11
1.3E-05
21
72.115675
31
0
39
0
210
0
220
0
230
1
0
LINE
5
22D
100
AcDbEntity
8
SK2
62
256
6
ByLayer
370
13
48
1
60
0
100
AcDbLine
10
29.000013
20
50.715068
30
0
11
29.000013
21
72.115675
31
0
39
0
210
0
220
0
230
1
0
LINE
5
22E
100
AcDbEntity
8
SK2
62
256
6
ByLayer
370
13
48
1
60
0
100
AcDbLine
10
1.3E-05
20
69.115675
30
0
11
29.000013
21
69.115675
31
0
39
0
210
0
220
0
230
1
0
LINE
5
22F
100
AcDbEntity
8
SK2
62
256
6
ByLayer
370
13
48
1
60
0
100
AcDbLine
10
1.3E-05
20
69.115675
30
0
11
3.000012
21
69.644656
31
0
39
0
210
0
220
0
230
1
0
LINE
5
230
100
AcDbEntity
8
SK2
62
256
6
ByLayer
370
13
48
1
60
0
100
AcDbLine
10
1.3E-05
20
69.115675
30
0
11
3.000015
21
68.586694
31
0
39
0
210
0
220
0
230
1
0
LINE
5
231
100
AcDbEntity
8
SK2
62
256
6
ByLayer
370
13
48
1
60
0
100
AcDbLine
10
3.000012
20
69.644656
30
0
11
3.000015
21
68.586694
31
0
39
0
210
0
220
0
230
1
0
LINE
5
232
100
AcDbEntity
8
SK2
62
256
6
ByLayer
370
13
48
1
60
0
100
AcDbLine
10
29.000013
20
69.115675
30
0
11
26.000015
21
68.586694
31
0
39
0
210
0
220
0
230
1
0
LINE
5
233
100
AcDbEntity
8
SK2
62
256
6
ByLayer
370
13
48
1
60
0
100
AcDbLine
10
29.000013
20
69.115675
30
0
11
26.000012
21
69.644656
31
0
39
0
210
0
220
0
230
1
0
LINE
5
234
100
AcDbEntity
8
SK2
62
256
6
ByLayer
370
13
48
1
60
0
100
AcDbLine
10
26.000015
20
68.586694
30
0
11
26.000012
21
69.644656
31
0
39
0
210
0
220
0
230
1
0
ENDBLK
5
236
100
AcDbEntity
8
0
100
AcDbBlockEnd
0
BLOCK
5
243
100
AcDbEntity
8
0
100
AcDbBlockBegin
2
DimnDraft3D4
70
0
10
0
20
0
30
0
3
DimnDraft3D4
0
MTEXT
5
239
100
AcDbEntity
8
SK2
62
256
6
ByLayer
370
18
48
1
60
0
100
AcDbMText
10
-81.970478
20
-4.05
30
0
210
0
220
0
230
1
1
\W0.7276;%%c 100
40
3
41
0
44
1.084337
50
90
71
7
72
5
7
iso_b_vert
0
LINE
5
23A
100
AcDbEntity
8
SK2
62
256
6
ByLayer
370
13
48
1
60
0
100
AcDbLine
10
-0.764958
20
-50
30
0
11
-84.220478
21
-50
31
0
39
0
210
0
220
0
230
1
0
LINE
5
23B
100
AcDbEntity
8
SK2
62
256
6
ByLayer
370
13
48
1
60
0
100
AcDbLine
10
-0.764958
20
50
30
0
11
-84.220478
21
50
31
0
39
0
210
0
220
0
230
1
0
LINE
5
23C
100
AcDbEntity
8
SK2
62
256
6
ByLayer
370
13
48
1
60
0
100
AcDbLine
10
-81.220478
20
-50
30
0
11
-81.220478
21
50
31
0
39
0
210
0
220
0
230
1
0
LINE
5
23D
100
AcDbEntity
8
SK2
62
256
6
ByLayer
370
13
48
1
60
0
100
AcDbLine
10
-81.220478
20
-50
30
0
11
-81.749459
21
-47.000002
31
0
39
0
210
0
220
0
230
1
0
LINE
5
23E
100
AcDbEntity
8
SK2
62
256
6
ByLayer
370
13
48
1
60
0
100
AcDbLine
10
-81.220478
20
-50
30
0
11
-80.691497
21
-46.999998
31
0
39
0
210
0
220
0
230
1
0
LINE
5
23F
100
AcDbEntity
8
SK2
62
256
6
ByLayer
370
13
48
1
60
0
100
AcDbLine
10
-81.749459
20
-47.000002
30
0
11
-80.691497
21
-46.999998
31
0
39
0
210
0
220
0
230
1
0
LINE
5
240
100
AcDbEntity
8
SK2
62
256
6
ByLayer
370
13
48
1
60
0
100
AcDbLine
10
-81.220478
20
50
30
0
11
-80.691497
21
47.000002
31
0
39
0
210
0
220
0
230
1
0
LINE
5
241
100
AcDbEntity
8
SK2
62
256
6
ByLayer
370
13
48
1
60
0
100
AcDbLine
10
-81.220478
20
50
30
0
11
-81.749459
21
46.999998
31
0
39
0
210
0
220
0
230
1
0
LINE
5
242
100
AcDbEntity
8
SK2
62
256
6
ByLayer
370
13
48
1
60
0
100
AcDbLine
10
-80.691497
20
47.000002
30
0
11
-81.749459
21
46.999998
31
0
39
0
210
0
220
0
230
1
0
ENDBLK
5
244
100
AcDbEntity
8
0
100
AcDbBlockEnd
0
BLOCK
5
251
100
AcDbEntity
8
0
100
AcDbBlockBegin
2
DimnDraft3D5
70
0
10
0
20
0
30
0
3
DimnDraft3D5
0
MTEXT
5
247
100
AcDbEntity
8
SK2
62
256
6
ByLayer
370
18
48
1
60
0
100
AcDbMText
10
-66.606954
20
-3.323684
30
0
210
0
220
0
230
1
1
\W0.7884;%%c 75
40
3
41
0
44
1.084337
50
90
71
7
72
5
7
iso_b_vert
0
LINE
5
248
100
AcDbEntity
8
SK2
62
256
6
ByLayer
370
13
48
1
60
0
100
AcDbLine
10
-11.499987
20
-37.5
30
0
11
-68.856954
21
-37.5
31
0
39
0
210
0
220
0
230
1
0
LINE
5
249
100
AcDbEntity
8
SK2
62
256
6
ByLayer
370
13
48
1
60
0
100
AcDbLine
10
-11.499987
20
37.5
30
0
11
-68.856954
21
37.5
31
0
39
0
210
0
220
0
230
1
0
LINE
5
24A
100
AcDbEntity
8
SK2
62
256
6
ByLayer
370
13
48
1
60
0
100
AcDbLine
10
-65.856954
20
-37.5
30
0
11
-65.856954
21
37.5
31
0
39
0
210
0
220
0
230
1
0
LINE
5
24B
100
AcDbEntity
8
SK2
62
256
6
ByLayer
370
13
48
1
60
0
100
AcDbLine
10
-65.856954
20
-37.5
30
0
11
-66.385934
21
-34.500002
31
0
39
0
210
0
220
0
230
1
0
LINE
5
24C
100
AcDbEntity
8
SK2
62
256
6
ByLayer
370
13
48
1
60
0
100
AcDbLine
10
-65.856954
20
-37.5
30
0
11
-65.327973
21
-34.499998
31
0
39
0
210
0
220
0
230
1
0
LINE
5
24D
100
AcDbEntity
8
SK2
62
256
6
ByLayer
370
13
48
1
60
0
100
AcDbLine
10
-66.385934
20
-34.500002
30
0
11
-65.327973
21
-34.499998
31
0
39
0
210
0
220
0
230
1
0
LINE
5
24E
100
AcDbEntity
8
SK2
62
256
6
ByLayer
370
13
48
1
60
0
100
AcDbLine
10
-65.856954
20
37.5
30
0
11
-65.327973
21
34.500002
31
0
39
0
210
0
220
0
230
1
0
LINE
5
24F
100
AcDbEntity
8
SK2
62
256
6
ByLayer
370
13
48
1
60
0
100
AcDbLine
10
-65.856954
20
37.5
30
0
11
-66.385934
21
34.499998
31
0
39
0
210
0
220
0
230
1
0
LINE
5
250
100
AcDbEntity
8
SK2
62
256
6
ByLayer
370
13
48
1
60
0
100
AcDbLine
10
-65.327973
20
34.500002
30
0
11
-66.385934
21
34.499998
31
0
39
0
210
0
220
0
230
1
0
ENDBLK
5
252
100
AcDbEntity
8
0
100
AcDbBlockEnd
0
BLOCK
5
25F
100
AcDbEntity
8
0
100
AcDbBlockBegin
2
DimnDraft3D6
70
0
10
0
20
0
30
0
3
DimnDraft3D6
0
MTEXT
5
255
100
AcDbEntity
8
SK2
62
256
6
ByLayer
370
18
48
1
60
0
100
AcDbMText
10
129.154401
20
-2.384864
30
0
210
0
220
0
230
1
1
\W0.5211;5
40
3.50012
41
0
44
1.084337
50
90
71
7
72
5
7
iso_b_vert
0
LINE
5
256
100
AcDbEntity
8
SK2
62
256
6
ByLayer
370
13
48
1
60
0
100
AcDbLine
10
107.805161
20
0
30
0
11
133.204431
21
0
31
0
39
0
210
0
220
0
230
1
0
LINE
5
257
100
AcDbEntity
8
SK2
62
256
6
ByLayer
370
13
48
1
60
0
100
AcDbLine
10
91.5875
20
-5
30
0
11
133.204431
21
-5
31
0
39
0
210
0
220
0
230
1
0
LINE
5
258
100
AcDbEntity
8
SK2
62
256
6
ByLayer
370
13
48
1
60
0
100
AcDbLine
10
130.029431
20
8.7503
30
0
11
130.029431
21
-13.7503
31
0
39
0
210
0
220
0
230
1
0
LINE
5
259
100
AcDbEntity
8
SK2
62
256
6
ByLayer
370
13
48
1
60
0
100
AcDbLine
10
130.029431
20
0
30
0
11
129.611435
21
3.174998
31
0
39
0
210
0
220
0
230
1
0
LINE
5
25A
100
AcDbEntity
8
SK2
62
256
6
ByLayer
370
13
48
1
60
0
100
AcDbLine
10
130.029431
20
0
30
0
11
130.447428
21
3.175002
31
0
39
0
210
0
220
0
230
1
0
LINE
5
25B
100
AcDbEntity
8
SK2
62
256
6
ByLayer
370
13
48
1
60
0
100
AcDbLine
10
129.611435
20
3.174998
30
0
11
130.447428
21
3.175002
31
0
39
0
210
0
220
0
230
1
0
LINE
5
25C
100
AcDbEntity
8
SK2
62
256
6
ByLayer
370
13
48
1
60
0
100
AcDbLine
10
130.029431
20
-5
30
0
11
130.447428
21
-8.174998
31
0
39
0
210
0
220
0
230
1
0
LINE
5
25D
100
AcDbEntity
8
SK2
62
256
6
ByLayer
370
13
48
1
60
0
100
AcDbLine
10
130.029431
20
-5
30
0
11
129.611435
21
-8.175002
31
0
39
0
210
0
220
0
230
1
0
LINE
5
25E
100
AcDbEntity
8
SK2
62
256
6
ByLayer
370
13
48
1
60
0
100
AcDbLine
10
130.447428
20
-8.174998
30
0
11
129.611435
21
-8.175002
31
0
39
0
210
0
220
0
230
1
0
ENDBLK
5
260
100
AcDbEntity
8
0
100
AcDbBlockEnd
0
BLOCK
5
26D
100
AcDbEntity
8
0
100
AcDbBlockBegin
2
DimnDraft3D7
70
0
10
0
20
0
30
0
3
DimnDraft3D7
0
MTEXT
5
263
100
AcDbEntity
8
SK2
62
256
6
ByLayer
370
18
48
1
60
0
100
AcDbMText
10
106.673321
20
-23.586677
30
0
210
0
220
0
230
1
1
\W0.7183;40
40
3.50012
41
0
44
1.084337
50
45.0000000000001
71
7
72
5
7
iso_b_vert
0
LINE
5
264
100
AcDbEntity
8
SK2
62
256
6
ByLayer
370
13
48
1
60
0
100
AcDbLine
10
76.625796
20
-19.908586
30
0
11
96.352408
21
-39.635198
31
0
39
0
210
0
220
0
230
1
0
LINE
5
265
100
AcDbEntity
8
SK2
62
256
6
ByLayer
370
13
48
1
60
0
100
AcDbLine
10
104.910067
20
8.375685
30
0
11
124.636679
21
-11.350927
31
0
39
0
210
0
220
0
230
1
0
LINE
5
266
100
AcDbEntity
8
SK2
62
256
6
ByLayer
370
13
48
1
60
0
100
AcDbLine
10
94.107344
20
-37.390134
30
0
11
122.391615
21
-9.105863
31
0
39
0
210
0
220
0
230
1
0
LINE
5
267
100
AcDbEntity
8
SK2
62
256
6
ByLayer
370
13
48
1
60
0
100
AcDbLine
10
94.107344
20
-37.390134
30
0
11
96.056838
21
-34.849503
31
0
39
0
210
0
220
0
230
1
0
LINE
5
268
100
AcDbEntity
8
SK2
62
256
6
ByLayer
370
13
48
1
60
0
100
AcDbLine
10
94.107344
20
-37.390134
30
0
11
96.647977
21
-35.440637
31
0
39
0
210
0
220
0
230
1
0
LINE
5
269
100
AcDbEntity
8
SK2
62
256
6
ByLayer
370
13
48
1
60
0
100
AcDbLine
10
96.056838
20
-34.849503
30
0
11
96.647977
21
-35.440637
31
0
39
0
210
0
220
0
230
1
0
LINE
5
26A
100
AcDbEntity
8
SK2
62
256
6
ByLayer
370
13
48
1
60
0
100
AcDbLine
10
122.391615
20
-9.105863
30
0
11
120.44212
21
-11.646494
31
0
39
0
210
0
220
0
230
1
0
LINE
5
26B
100
AcDbEntity
8
SK2
62
256
6
ByLayer
370
13
48
1
60
0
100
AcDbLine
10
122.391615
20
-9.105863
30
0
11
119.850982
21
-11.05536
31
0
39
0
210
0
220
0
230
1
0
LINE
5
26C
100
AcDbEntity
8
SK2
62
256
6
ByLayer
370
13
48
1
60
0
100
AcDbLine
10
120.44212
20
-11.646494
30
0
11
119.850982
21
-11.05536
31
0
39
0
210
0
220
0
230
1
0
ENDBLK
5
26E
100
AcDbEntity
8
0
100
AcDbBlockEnd
0
ENDSEC
0
SECTION
2
ENTITIES
0
ARC
5
155
100
AcDbEntity
8
1
62
256
6
ByLayer
370
18
48
1
60
0
100
AcDbCircle
39
0
10
-86.576189
20
-7.938669
30
0
40
0.154500000000086
210
0
220
0
230
-1
100
AcDbArc
50
345
51
105
0
ARC
5
156
100
AcDbEntity
8
1
62
256
6
ByLayer
370
18
48
1
60
0
100
AcDbCircle
39
0
10
-87.636849
20
-6.878009
30
0
40
0.154500000000067
210
0
220
0
230
-1
100
AcDbArc
50
345
51
105
0
ARC
5
157
100
AcDbEntity
8
1
62
256
6
ByLayer
370
18
48
1
60
0
100
AcDbCircle
39
0
10
-88.697509
20
-5.817349
30
0
40
0.154500000000036
210
0
220
0
230
-1
100
AcDbArc
50
345
51
105
0
ARC
5
158
100
AcDbEntity
8
1
62
256
6
ByLayer
370
18
48
1
60
0
100
AcDbCircle
39
0
10
-89.758169
20
-4.756689
30
0
40
0.154500000000036
210
0
220
0
230
-1
100
AcDbArc
50
345
51
105
0
ARC
5
159
100
AcDbEntity
8
1
62
256
6
ByLayer
370
18
48
1
60
0
100
AcDbCircle
39
0
10
-90.81883
20
-3.696028
30
0
40
0.1545
210
0
220
0
230
-1
100
AcDbArc
50
345
51
105
0
ARC
5
15A
100
AcDbEntity
8
1
62
256
6
ByLayer
370
18
48
1
60
0
100
AcDbCircle
39
0
10
-91.87949
20
-2.635368
30
0
40
0.154499999999976
210
0
220
0
230
-1
100
AcDbArc
50
345
51
105
0
ARC
5
15B
100
AcDbEntity
8
1
62
256
6
ByLayer
370
18
48
1
60
0
100
AcDbCircle
39
0
10
-92.94015
20
-1.574708
30
0
40
0.154499999999976
210
0
220
0
230
-1
100
AcDbArc
50
345
51
105
0
ARC
5
15C
100
AcDbEntity
8
1
62
256
6
ByLayer
370
18
48
1
60
0
100
AcDbCircle
39
0
10
-100.670828
20
-13.735704
30
0
40
0.5
210
0
220
0
230
-1
100
AcDbArc
50
225
51
315
0
ARC
5
15D
100
AcDbEntity
8
1
62
256
6
ByLayer
370
18
48
1
60
0
100
AcDbCircle
39
0
10
-109.15611
20
-5.250423
30
0
40
0.5
210
0
220
0
230
-1
100
AcDbArc
50
135
51
225
0
ARC
5
15E
100
AcDbEntity
8
1
62
256
6
ByLayer
370
18
48
1
60
0
100
AcDbCircle
39
0
10
-90.251904
20
-24.154629
30
0
40
0.5
210
0
220
0
230
-1
100
AcDbArc
50
225
51
315
0
ARC
5
15F
100
AcDbEntity
8
1
62
256
6
ByLayer
370
18
48
1
60
0
100
AcDbCircle
39
0
10
-98.737185
20
-15.669347
30
0
40
0.5
210
0
220
0
230
-1
100
AcDbArc
50
135
51
225
0
ARC
5
161
100
AcDbEntity
8
SK1
62
256
6
ByLayer
370
18
48
1
60
0
100
AcDbCircle
39
0
10
-47.999987
20
33.597502
30
0
40
2
210
0
220
0
230
1
100
AcDbArc
50
92.862405
51
180
0
ARC
5
162
100
AcDbEntity
8
SK1
62
256
6
ByLayer
370
18
48
1
60
0
100
AcDbCircle
39
0
10
-47.999987
20
-33.597502
30
0
40
2
210
0
220
0
230
1
100
AcDbArc
50
180
51
267.137595
0
ARC
5
163
100
AcDbEntity
8
1
62
256
6
ByLayer
370
18
48
1
60
0
100
AcDbCircle
39
0
10
-21.515062
20
46.375019
30
0
40
0.4
210
0
220
0
230
-1
100
AcDbArc
50
180
51
270
0
ARC
5
164
100
AcDbEntity
8
1
62
256
6
ByLayer
370
18
48
1
60
0
100
AcDbCircle
39
0
10
-18.485062
20
46.375019
30
0
40
0.4
210
0
220
0
230
-1
100
AcDbArc
50
270
51
0
0
ARC
5
165
100
AcDbEntity
8
SK1
62
256
6
ByLayer
370
18
48
1
60
0
100
AcDbCircle
39
0
10
-0.874846
20
-38.681918
30
0
40
1
210
0
220
0
230
1
100
AcDbArc
50
28.971593
51
90
0
ARC
5
166
100
AcDbEntity
8
1
62
256
6
ByLayer
370
18
48
1
60
0
100
AcDbCircle
39
0
10
18.485062
20
-46.375019
30
0
40
0.4
210
0
220
0
230
1
100
AcDbArc
50
90
51
180
0
ARC
5
167
100
AcDbEntity
8
1
62
256
6
ByLayer
370
18
48
1
60
0
100
AcDbCircle
39
0
10
21.515062
20
-46.375019
30
0
40
0.4
210
0
220
0
230
1
100
AcDbArc
50
0
51
90
0
ARC
5
168
100
AcDbEntity
8
SK1
62
256
6
ByLayer
370
18
48
1
60
0
100
AcDbCircle
39
0
10
0.874846
20
38.681918
30
0
40
1
210
0
220
0
230
-1
100
AcDbArc
50
208.971593
51
270
0
ARC
5
169
100
AcDbEntity
8
1
62
256
6
ByLayer
370
18
48
1
60
0
100
AcDbCircle
39
0
10
-14.646813
20
41.350019
30
0
40
10
210
0
220
0
230
-1
100
AcDbArc
50
270
51
345.853765
0
ARC
5
16A
100
AcDbEntity
8
1
62
256
6
ByLayer
370
18
48
1
60
0
100
AcDbCircle
39
0
10
-30.950013
20
41.211658
30
0
40
2
210
0
220
0
230
-1
100
AcDbArc
50
273
51
0
0
ARC
5
16B
100
AcDbEntity
8
1
62
256
6
ByLayer
370
18
48
1
60
0
100
AcDbCircle
39
0
10
-30.950013
20
-41.211658
30
0
40
2
210
0
220
0
230
-1
100
AcDbArc
50
0
51
87
0
ARC
5
16C
100
AcDbEntity
8
1
62
256
6
ByLayer
370
18
48
1
60
0
100
AcDbCircle
39
0
10
-30.950013
20
41.211658
30
0
40
2
210
0
220
0
230
-1
100
AcDbArc
50
273
51
0
0
ARC
5
16D
100
AcDbEntity
8
1
62
256
6
ByLayer
370
18
48
1
60
0
100
AcDbCircle
39
0
10
-30.950013
20
-41.211658
30
0
40
2
210
0
220
0
230
-1
100
AcDbArc
50
0
51
87
0
ARC
5
16E
100
AcDbEntity
8
1
62
256
6
ByLayer
370
18
48
1
60
0
100
AcDbCircle
39
0
10
-30.950013
20
41.211658
30
0
40
2
210
0
220
0
230
-1
100
AcDbArc
50
273
51
0
0
ARC
5
16F
100
AcDbEntity
8
1
62
256
6
ByLayer
370
18
48
1
60
0
100
AcDbCircle
39
0
10
-30.950013
20
-41.211658
30
0
40
2
210
0
220
0
230
-1
100
AcDbArc
50
0
51
87
0
CIRCLE
5
160
100
AcDbEntity
8
1
62
256
6
ByLayer
370
18
48
1
60
0
100
AcDbCircle
10
1.3E-05
20
0
30
0
40
0.001
39
0
210
0
220
0
230
1
0
POINT
5
6C
100
AcDbEntity
8
80
62
256
6
ByLayer
370
18
48
1
60
0
100
AcDbPoint
10
0
20
0
30
0
39
0
210
0
220
0
230
1
50
360
0
POINT
5
6E
100
AcDbEntity
8
81
62
256
6
ByLayer
370
18
48
1
60
0
100
AcDbPoint
10
90
20
-5
30
0
39
0
210
0
220
0
230
1
50
360
0
SPLINE
5
170
100
AcDbEntity
8
1
62
256
6
ByLayer
370
18
48
1
60
0
100
AcDbSpline
70
4
71
3
72
10
73
6
40
0
40
0
40
0
40
0
40
0.500719913220808
40
0.500719913220808
40
1
40
1
40
1
40
1
41
1
10
103.466614450299
20
9.46013926668302
30
0
41
1
10
103.565171287138
20
9.55869610352278
30
0
41
1
10
103.640761571308
20
9.63428638769228
30
0
41
1
10
103.741863303528
20
9.73538811991212
30
0
41
1
10
103.76749279425
20
9.76101761063383
30
0
41
1
10
103.767579602469
20
9.76110441885321
30
0
0
SPLINE
5
171
100
AcDbEntity
8
1
62
256
6
ByLayer
370
18
48
1
60
0
100
AcDbSpline
70
4
71
3
72
18
73
14
40
0
40
0
40
0
40
0
40
0.25
40
0.25
40
0.5
40
0.5
40
0.75
40
0.75
40
0.875
40
0.875
40
0.9375
40
0.9375
40
1
40
1
40
1
40
1
41
1
10
96.3292561977472
20
2.3227810141314
30
0
41
1
10
97.084330368582
20
3.0778551849662
30
0
41
1
10
97.8130649183093
20
3.80658973469359
30
0
41
1
10
99.2011983821299
20
5.19472319851415
30
0
41
1
10
99.8606687450148
20
5.85419356139909
30
0
41
1
10
101.087320561217
20
7.08084537760115
30
0
41
1
10
101.654586308138
20
7.64811112452189
30
0
41
1
10
102.412471032748
20
8.40599584913194
30
0
41
1
10
102.649519793083
20
8.64304460946681
30
0
41
1
10
102.977967599657
20
8.9714924160415
30
0
41
1
10
103.082994812292
20
9.07651962867631
30
0
41
1
10
103.282995897528
20
9.27652071391226
30
0
41
1
10
103.377611294793
20
9.37113611117672
30
0
41
1
10
103.466614450299
20
9.46013926668297
30
0
0
SPLINE
5
172
100
AcDbEntity
8
1
62
256
6
ByLayer
370
18
48
1
60
0
100
AcDbSpline
70
4
71
3
72
18
73
14
40
0
40
0
40
0
40
0
40
0.250000000000022
40
0.250000000000022
40
0.500000000000043
40
0.500000000000043
40
0.625000000000032
40
0.625000000000032
40
0.750000000000022
40
0.750000000000022
40
0.875000000000011
40
0.875000000000011
40
1
40
1
40
1
40
1
41
1
10
82.1817935849436
20
-12.1523138222565
30
0
41
1
10
82.1842237877463
20
-12.1395949721836
30
0
41
1
10
82.1882947722372
20
-12.1266129974698
30
0
41
1
10
82.2013561834316
20
-12.0999736168485
30
0
41
1
10
82.2100935955619
20
-12.0865531081195
30
0
41
1
10
82.229720326397
20
-12.066516821702
30
0
41
1
10
82.2374152213582
20
-12.0598234623253
30
0
41
1
10
82.2563077410192
20
-12.0470175965115
30
0
41
1
10
82.2675118012294
20
-12.0408496370546
30
0
41
1
10
82.2954150450293
20
-12.0308580420197
30
0
41
1
10
82.3124466618092
20
-12.0273600184888
30
0
41
1
10
82.3456315424513
20
-12.0263910848553
30
0
41
1
10
82.3607421215459
20
-12.0286461345746
30
0
41
1
10
82.3735358208437
20
-12.0320741959696
30
0
0
SPLINE
5
173
100
AcDbEntity
8
1
62
256
6
ByLayer
370
18
48
1
60
0
100
AcDbSpline
70
4
71
3
72
8
73
4
40
0
40
0
40
0
40
0
40
1
40
1
40
1
40
1
41
1
10
83.1191249970545
20
-12.2318542136206
30
0
41
1
10
82.8730744211743
20
-12.1659251605163
30
0
41
1
10
82.6241337413829
20
-12.0992217064029
30
0
41
1
10
82.3735358208438
20
-12.0320741959696
30
0
0
SPLINE
5
174
100
AcDbEntity
8
1
62
256
6
ByLayer
370
18
48
1
60
0
100
AcDbSpline
70
4
71
3
72
12
73
8
40
0
40
0
40
0
40
0
40
0.25
40
0.25
40
0.5
40
0.5
40
1
40
1
40
1
40
1
41
1
10
83.173240556764
20
-12.2364463703995
30
0
41
1
10
83.1842317331314
20
-12.2353181616156
30
0
41
1
10
83.1949573910281
20
-12.2328751406969
30
0
41
1
10
83.2134196029807
20
-12.2267674065784
30
0
41
1
10
83.2213397216321
20
-12.2231581754522
30
0
41
1
10
83.2424576286317
20
-12.2116106132726
30
0
41
1
10
83.252843853336
20
-12.2031732869299
30
0
41
1
10
83.2615700507198
20
-12.1944470895461
30
0
0
SPLINE
5
175
100
AcDbEntity
8
1
62
256
6
ByLayer
370
18
48
1
60
0
100
AcDbSpline
70
4
71
3
72
10
73
6
40
0
40
0
40
0
40
0
40
0.5
40
0.5
40
1
40
1
40
1
40
1
41
1
10
83.4073458035701
20
-12.0486713366958
30
0
41
1
10
83.4298143596047
20
-12.0262027806613
30
0
41
1
10
83.4408119506129
20
-12.002174527392
30
0
41
1
10
83.4518232246391
20
-11.9547987573341
30
0
41
1
10
83.45140122852
20
-11.9310380796814
30
0
41
1
10
83.4451333841551
20
-11.9076461660576
30
0
0
SPLINE
5
176
100
AcDbEntity
8
1
62
256
6
ByLayer
370
18
48
1
60
0
100
AcDbSpline
70
4
71
3
72
8
73
4
40
0
40
0
40
0
40
0
40
1
40
1
40
1
40
1
41
1
10
83.2449729099936
20
-11.1606371068198
30
0
41
1
10
83.3175679976138
20
-11.4315656621985
30
0
41
1
10
83.3850797274531
20
-11.6835228680657
30
0
41
1
10
83.4451333841551
20
-11.9076461660578
30
0
0
SPLINE
5
177
100
AcDbEntity
8
1
62
256
6
ByLayer
370
18
48
1
60
0
100
AcDbSpline
70
4
71
3
72
18
73
14
40
0
40
0
40
0
40
0
40
0.249999999999999
40
0.249999999999999
40
0.499999999999999
40
0.499999999999999
40
0.624999999999999
40
0.624999999999999
40
0.749999999999999
40
0.749999999999999
40
0.875
40
0.875
40
1
40
1
40
1
40
1
41
1
10
83.2449729099935
20
-11.1606371068198
30
0
41
1
10
83.2397886812274
20
-11.1412893016667
30
0
41
1
10
83.2382668368056
20
-11.1212130526209
30
0
41
1
10
83.2438591090887
20
-11.0792589865106
30
0
41
1
10
83.2509748341565
20
-11.0571453080956
30
0
41
1
10
83.2725272415294
20
-11.024558275485
30
0
41
1
10
83.2813720006332
20
-11.0140139156261
30
0
41
1
10
83.3044193977669
20
-10.9939958948783
30
0
41
1
10
83.318871015723
20
-10.9846147285437
30
0
41
1
10
83.3514620869112
20
-10.9711371768732
30
0
41
1
10
83.3695897178976
20
-10.967146591497
30
0
41
1
10
83.4041335196499
20
-10.9655020937029
30
0
41
1
10
83.4199694799255
20
-10.9676020416012
30
0
41
1
10
83.434195992624
20
-10.9714140241899
30
0
0
SPLINE
5
178
100
AcDbEntity
8
1
62
256
6
ByLayer
370
18
48
1
60
0
100
AcDbSpline
70
4
71
3
72
8
73
4
40
0
40
0
40
0
40
0
40
1
40
1
40
1
40
1
41
1
10
84.1812050518615
20
-11.1715744983512
30
0
41
1
10
83.9322058846709
20
-11.1048553725865
30
0
41
1
10
83.6832024350577
20
-11.0381350993501
30
0
41
1
10
83.4341959926241
20
-10.9714140241899
30
0
0
SPLINE
5
179
100
AcDbEntity
8
1
62
256
6
ByLayer
370
18
48
1
60
0
100
AcDbSpline
70
4
71
3
72
10
73
6
40
0
40
0
40
0
40
0
40
0.5
40
0.5
40
1
40
1
40
1
40
1
41
1
10
84.1812050518592
20
-11.1715744983538
30
0
41
1
10
84.2026832187015
20
-11.1773295558143
30
0
41
1
10
84.2294146706928
20
-11.1787626355302
30
0
41
1
10
84.2827358714307
20
-11.1647603666745
30
0
41
1
10
84.3060593500508
20
-11.1499577902218
30
0
41
1
10
84.3222302225044
20
-11.1337869177677
30
0
0
SPLINE
5
17A
100
AcDbEntity
8
1
62
256
6
ByLayer
370
18
48
1
60
0
100
AcDbSpline
70
4
71
3
72
12
73
8
40
0
40
0
40
0
40
0
40
0.249999999999974
40
0.249999999999974
40
0.499999999999948
40
0.499999999999948
40
1
40
1
40
1
40
1
41
1
10
84.4680059753588
20
-10.9880111649182
30
0
41
1
10
84.4791430455078
20
-10.9768740947686
30
0
41
1
10
84.4876149727751
20
-10.9648478948121
30
0
41
1
10
84.5003528755668
20
-10.9406307746551
30
0
41
1
10
84.5046053773703
20
-10.9285337679048
30
0
41
1
10
84.5126641870177
20
-10.8922693885166
30
0
41
1
10
84.511673988567
20
-10.868932067631
30
0
41
1
10
84.505793555935
20
-10.8469859942778
30
0
0
SPLINE
5
17B
100
AcDbEntity
8
1
62
256
6
ByLayer
370
18
48
1
60
0
100
AcDbSpline
70
4
71
3
72
8
73
4
40
0
40
0
40
0
40
0
40
1
40
1
40
1
40
1
41
1
10
84.3056330817734
20
-10.09997693504
30
0
41
1
10
84.3744376680052
20
-10.3567591466509
30
0
41
1
10
84.4414065272599
20
-10.6066903319145
30
0
41
1
10
84.5057935559349
20
-10.8469859942778
30
0
0
SPLINE
5
17C
100
AcDbEntity
8
1
62
256
6
ByLayer
370
18
48
1
60
0
100
AcDbSpline
70
4
71
3
72
16
73
12
40
0
40
0
40
0
40
0
40
0.249999999999997
40
0.249999999999997
40
0.499999999999994
40
0.499999999999994
40
0.624999999999996
40
0.624999999999996
40
0.749999999999997
40
0.749999999999997
40
1
40
1
40
1
40
1
41
1
10
84.3056330817733
20
-10.09997693504
30
0
41
1
10
84.3001251999668
20
-10.079421240296
30
0
41
1
10
84.2985726548756
20
-10.0576950996814
30
0
41
1
10
84.3064697730939
20
-10.0108826235725
30
0
41
1
10
84.315968352727
20
-9.98638896368224
30
0
41
1
10
84.3430582361093
20
-9.95238501486627
30
0
41
1
10
84.3542627889885
20
-9.94164820245486
30
0
41
1
10
84.3806442119497
20
-9.92354560244745
30
0
41
1
10
84.3953760886688
20
-9.91654230338727
30
0
41
1
10
84.4404547276731
20
-9.90299510830697
30
0
41
1
10
84.4700285417909
20
-9.90410131098097
30
0
41
1
10
84.4948561644035
20
-9.91075385241001
30
0
0
SPLINE
5
17D
100
AcDbEntity
8
1
62
256
6
ByLayer
370
18
48
1
60
0
100
AcDbSpline
70
4
71
3
72
8
73
4
40
0
40
0
40
0
40
0
40
1
40
1
40
1
40
1
41
1
10
85.2418652236413
20
-10.1109143265714
30
0
41
1
10
84.9934809049513
20
-10.0443599489659
30
0
41
1
10
84.7444165103681
20
-9.97762334557397
30
0
41
1
10
84.4948561644035
20
-9.9107538524099
30
0
0
SPLINE
5
17E
100
AcDbEntity
8
1
62
256
6
ByLayer
370
18
48
1
60
0
100
AcDbSpline
70
4
71
3
72
10
73
6
40
0
40
0
40
0
40
0
40
0.5
40
0.5
40
1
40
1
40
1
40
1
41
1
10
85.2418652236412
20
-10.1109143265718
30
0
41
1
10
85.2628114303141
20
-10.1165268457343
30
0
41
1
10
85.2872656328614
20
-10.1180386502363
30
0
41
1
10
85.3384337168566
20
-10.1060913296766
30
0
41
1
10
85.3640782008313
20
-10.0919389394364
30
0
41
1
10
85.3828903942842
20
-10.0731267459817
30
0
0
SPLINE
5
17F
100
AcDbEntity
8
1
62
256
6
ByLayer
370
18
48
1
60
0
100
AcDbSpline
70
4
71
3
72
10
73
6
40
0
40
0
40
0
40
0
40
0.5
40
0.5
40
1
40
1
40
1
40
1
41
1
10
85.5286661471298
20
-9.9273509931362
30
0
41
1
10
85.5499359576424
20
-9.90608118262361
30
0
41
1
10
85.5626381996173
20
-9.87990916239594
30
0
41
1
10
85.5733825568724
20
-9.8311324277922
30
0
41
1
10
85.57213959242
20
-9.80754575845295
30
0
41
1
10
85.5664537277106
20
-9.78632582248205
30
0
0
SPLINE
5
180
100
AcDbEntity
8
1
62
256
6
ByLayer
370
18
48
1
60
0
100
AcDbSpline
70
4
71
3
72
8
73
4
40
0
40
0
40
0
40
0
40
1
40
1
40
1
40
1
41
1
10
85.3662932535532
20
-9.03931676326014
30
0
41
1
10
85.4338862409926
20
-9.2915772266194
30
0
41
1
10
85.5007029730646
20
-9.54094066550796
30
0
41
1
10
85.5664537277106
20
-9.78632582248263
30
0
0
SPLINE
5
181
100
AcDbEntity
8
1
62
256
6
ByLayer
370
18
48
1
60
0
100
AcDbSpline
70
4
71
3
72
18
73
14
40
0
40
0
40
0
40
0
40
0.24999999999996
40
0.24999999999996
40
0.374999999999975
40
0.374999999999975
40
0.49999999999999
40
0.49999999999999
40
0.625000000000005
40
0.625000000000005
40
0.75000000000002
40
0.75000000000002
40
1
40
1
40
1
40
1
41
1
10
85.3662932535531
20
-9.03931676326015
30
0
41
1
10
85.3604524960876
20
-9.01751875964406
30
0
41
1
10
85.3589807797664
20
-8.99332944558615
30
0
41
1
10
85.3668898242261
20
-8.95522747770941
30
0
41
1
10
85.3713226103337
20
-8.94207209049419
30
0
41
1
10
85.384246548572
20
-8.91663233810852
30
0
41
1
10
85.3929606778846
20
-8.90405433786493
30
0
41
1
10
85.4138258445231
20
-8.88204002068971
30
0
41
1
10
85.4262954147469
20
-8.87230888065252
30
0
41
1
10
85.4524873178453
20
-8.85747529926918
30
0
41
1
10
85.4663223367271
20
-8.85220984175623
30
0
41
1
10
85.5071012310167
20
-8.84254983893498
30
0
41
1
10
85.5327274896418
20
-8.8439874276029
30
0
41
1
10
85.5555163361833
20
-8.85009368063016
30
0
0
SPLINE
5
182
100
AcDbEntity
8
1
62
256
6
ByLayer
370
18
48
1
60
0
100
AcDbSpline
70
4
71
3
72
8
73
4
40
0
40
0
40
0
40
0
40
1
40
1
40
1
40
1
41
1
10
86.1621779890563
20
-9.01264818059632
30
0
41
1
10
85.9612742788565
20
-8.95881619369187
30
0
41
1
10
85.7589494574394
20
-8.90460342118438
30
0
41
1
10
85.5555163361833
20
-8.8500936806301
30
0
0
SPLINE
5
183
100
AcDbEntity
8
1
62
256
6
ByLayer
370
18
48
1
60
0
100
AcDbSpline
70
4
71
3
72
18
73
14
40
0
40
0
40
0
40
0
40
0.125000000000011
40
0.125000000000011
40
0.250000000000021
40
0.250000000000021
40
0.375000000000032
40
0.375000000000032
40
0.500000000000043
40
0.500000000000043
40
0.750000000000022
40
0.750000000000022
40
1
40
1
40
1
40
1
41
1
10
97.0335551431322
20
2.62794512631029
30
0
41
1
10
97.0301385466565
20
2.64069603794395
30
0
41
1
10
97.0278640541475
20
2.65587454559004
30
0
41
1
10
97.0288537125946
20
2.68917102572872
30
0
41
1
10
97.0324220406478
20
2.70636229333701
30
0
41
1
10
97.042402605469
20
2.73410481049955
30
0
41
1
10
97.0486223832752
20
2.74537651585738
30
0
41
1
10
97.0613588516653
20
2.76412514482462
30
0
41
1
10
97.0680661931471
20
2.77183344831037
30
0
41
1
10
97.0880450615803
20
2.79138646445905
30
0
41
1
10
97.1015273353202
20
2.80016401620409
30
0
41
1
10
97.1280814339009
20
2.81317646037352
30
0
41
1
10
97.1410585381939
20
2.81725383838219
30
0
41
1
10
97.1537947694181
20
2.819687362218
30
0
0
SPLINE
5
184
100
AcDbEntity
8
1
62
256
6
ByLayer
370
18
48
1
60
0
100
AcDbSpline
70
4
71
3
72
8
73
4
40
0
40
0
40
0
40
0
40
1
40
1
40
1
40
1
41
1
10
93.8515746277918
20
-0.554035389021628
30
0
41
1
10
93.9060843683461
20
-0.757468510277647
30
0
41
1
10
93.9602971408536
20
-0.959793331694755
30
0
41
1
10
94.014129127758
20
-1.1606970418945
30
0
0
SPLINE
5
185
100
AcDbEntity
8
1
62
256
6
ByLayer
370
18
48
1
60
0
100
AcDbSpline
70
4
71
3
72
20
73
16
40
0
40
0
40
0
40
0
40
0.125
40
0.125
40
0.25
40
0.25
40
0.375
40
0.375
40
0.5
40
0.5
40
0.625
40
0.625
40
0.75
40
0.75
40
1
40
1
40
1
40
1
41
1
10
93.8515746277917
20
-0.554035389021649
30
0
41
1
10
93.8485403767952
20
-0.542711410139866
30
0
41
1
10
93.8467130237025
20
-0.530839772759713
30
0
41
1
10
93.8460237398644
20
-0.505737591956759
30
0
41
1
10
93.847218554571
20
-0.492335529363075
30
0
41
1
10
93.8535231790981
20
-0.465382136519224
30
0
41
1
10
93.8587444038621
20
-0.451489522339685
30
0
41
1
10
93.8734683803578
20
-0.425276824326325
30
0
41
1
10
93.8830830226468
20
-0.412828194484149
30
0
41
1
10
93.9052611997041
20
-0.391673448195036
30
0
41
1
10
93.917756474072
20
-0.38297193491821
30
0
41
1
10
93.9434871869861
20
-0.369850459159046
30
0
41
1
10
93.9563389325204
20
-0.365505647905188
30
0
41
1
10
93.9948757021669
20
-0.357446651294907
30
0
41
1
10
94.0188752809532
20
-0.358938209119351
30
0
41
1
10
94.0407977104218
20
-0.364812306391599
30
0
0
SPLINE
5
186
100
AcDbEntity
8
1
62
256
6
ByLayer
370
18
48
1
60
0
100
AcDbSpline
70
4
71
3
72
8
73
4
40
0
40
0
40
0
40
0
40
1
40
1
40
1
40
1
41
1
10
94.7878067696482
20
-0.564972780549979
30
0
41
1
10
94.5424216126722
20
-0.499222025903684
30
0
41
1
10
94.2930581737824
20
-0.432405293831288
30
0
41
1
10
94.0407977104218
20
-0.364812306391578
30
0
0
SPLINE
5
187
100
AcDbEntity
8
1
62
256
6
ByLayer
370
18
48
1
60
0
100
AcDbSpline
70
4
71
3
72
10
73
6
40
0
40
0
40
0
40
0
40
0.5
40
0.5
40
1
40
1
40
1
40
1
41
1
10
94.7878067696473
20
-0.564972780550093
30
0
41
1
10
94.8089793142422
20
-0.570645946778036
30
0
41
1
10
94.8325282457141
20
-0.57190908029051
30
0
41
1
10
94.8813496927551
20
-0.561177407712734
30
0
41
1
10
94.9074733363007
20
-0.548543803965117
30
0
41
1
10
94.9288319402978
20
-0.527185199968116
30
0
0
SPLINE
5
188
100
AcDbEntity
8
1
62
256
6
ByLayer
370
18
48
1
60
0
100
AcDbSpline
70
4
71
3
72
12
73
8
40
0
40
0
40
0
40
0
40
0.250000000000006
40
0.250000000000006
40
0.500000000000013
40
0.500000000000013
40
1
40
1
40
1
40
1
41
1
10
95.0746076931481
20
-0.38140944711774
30
0
41
1
10
95.0839628891045
20
-0.37205425116143
30
0
41
1
10
95.0924157760879
20
-0.360934862882907
30
0
41
1
10
95.1056432489056
20
-0.337099714623754
30
0
41
1
10
95.110554477593
20
-0.324157770005421
30
0
41
1
10
95.119489417676
20
-0.285959399795566
30
0
41
1
10
95.1180255160026
20
-0.261396626666098
30
0
41
1
10
95.1123952737238
20
-0.240384276443876
30
0
0
SPLINE
5
189
100
AcDbEntity
8
1
62
256
6
ByLayer
370
18
48
1
60
0
100
AcDbSpline
70
4
71
3
72
8
73
4
40
0
40
0
40
0
40
0
40
1
40
1
40
1
40
1
41
1
10
94.9122347995716
20
0.506624782758223
30
0
41
1
10
94.9791042927324
20
0.257064436805635
30
0
41
1
10
95.0458408961212
20
0.0080000422342721
30
0
41
1
10
95.1123952737236
20
-0.240384276443905
30
0
0
SPLINE
5
18A
100
AcDbEntity
8
1
62
256
6
ByLayer
370
18
48
1
60
0
100
AcDbSpline
70
4
71
3
72
18
73
14
40
0
40
0
40
0
40
0
40
0.124999999999989
40
0.124999999999989
40
0.249999999999978
40
0.249999999999978
40
0.374999999999967
40
0.374999999999967
40
0.499999999999956
40
0.499999999999956
40
0.749999999999978
40
0.749999999999978
40
1
40
1
40
1
40
1
41
1
10
94.9122347995715
20
0.506624782758152
30
0
41
1
10
94.9089270480206
20
0.518969479604813
30
0
41
1
10
94.9069779281869
20
0.53224409020801
30
0
41
1
10
94.9069627946211
20
0.560816898657087
30
0
41
1
10
94.9089704090755
20
0.575898123965459
30
0
41
1
10
94.9179096046216
20
0.605808627413587
30
0
41
1
10
94.9249274286389
20
0.620612860217712
30
0
41
1
10
94.942738911186
20
0.646726727907833
30
0
41
1
10
94.9535152834726
20
0.658092914140553
30
0
41
1
10
94.9876040325096
20
0.685399508224215
30
0
41
1
10
95.0122975884997
20
0.694943915739785
30
0
41
1
10
95.0585285959859
20
0.702854337348072
30
0
41
1
10
95.0808176893152
20
0.701378388403747
30
0
41
1
10
95.1014578822016
20
0.695847865388231
30
0
0
SPLINE
5
18B
100
AcDbEntity
8
1
62
256
6
ByLayer
370
18
48
1
60
0
100
AcDbSpline
70
4
71
3
72
8
73
4
40
0
40
0
40
0
40
0
40
1
40
1
40
1
40
1
41
1
10
95.8484669414395
20
0.49568739122676
30
0
41
1
10
95.6081712790762
20
0.560074419901717
30
0
41
1
10
95.3582400938126
20
0.627043279156453
30
0
41
1
10
95.1014578822017
20
0.695847865388266
30
0
0
SPLINE
5
18C
100
AcDbEntity
8
1
62
256
6
ByLayer
370
18
48
1
60
0
100
AcDbSpline
70
4
71
3
72
10
73
6
40
0
40
0
40
0
40
0
40
0.5
40
0.5
40
1
40
1
40
1
40
1
41
1
10
95.8484669414393
20
0.495687391225992
30
0
41
1
10
95.870304954803
20
0.489835913180897
30
0
41
1
10
95.89369153759
20
0.48882010992709
30
0
41
1
10
95.9419772534013
20
0.499517577450042
30
0
41
1
10
95.9669918341503
20
0.510974693884364
30
0
41
1
10
95.9894921120777
20
0.533474971811771
30
0
0
SPLINE
5
18D
100
AcDbEntity
8
1
62
256
6
ByLayer
370
18
48
1
60
0
100
AcDbSpline
70
4
71
3
72
14
73
10
40
0
40
0
40
0
40
0
40
0.25
40
0.25
40
0.5
40
0.5
40
0.75
40
0.75
40
1
40
1
40
1
40
1
41
1
10
96.1352678649281
20
0.679250724661578
30
0
41
1
10
96.143389225862
20
0.687372085595378
30
0
41
1
10
96.1511526837896
20
0.697089700462378
30
0
41
1
10
96.1643032424306
20
0.719346144369567
30
0
41
1
10
96.16974771052
20
0.732137114850701
30
0
41
1
10
96.1766826132241
20
0.758466732365868
30
0
41
1
10
96.1782241317472
20
0.772107479806664
30
0
41
1
10
96.1777956555638
20
0.797748043192534
30
0
41
1
10
96.1759660597029
20
0.809413335261354
30
0
41
1
10
96.1730554455134
20
0.820275895298536
30
0
0
SPLINE
5
18E
100
AcDbEntity
8
1
62
256
6
ByLayer
370
18
48
1
60
0
100
AcDbSpline
70
4
71
3
72
8
73
4
40
0
40
0
40
0
40
0
40
1
40
1
40
1
40
1
41
1
10
95.9728949713514
20
1.56728495453805
30
0
41
1
10
96.0396160465118
20
1.3182785121038
30
0
41
1
10
96.1063363197484
20
1.06927506248986
30
0
41
1
10
96.1730554455134
20
0.82027589529855
30
0
0
SPLINE
5
18F
100
AcDbEntity
8
1
62
256
6
ByLayer
370
18
48
1
60
0
100
AcDbSpline
70
4
71
3
72
18
73
14
40
0
40
0
40
0
40
0
40
0.125000000000007
40
0.125000000000007
40
0.250000000000013
40
0.250000000000013
40
0.37500000000002
40
0.37500000000002
40
0.500000000000026
40
0.500000000000026
40
0.750000000000013
40
0.750000000000013
40
1
40
1
40
1
40
1
41
1
10
95.9728949713511
20
1.56728495453781
30
0
41
1
10
95.9691129625054
20
1.5813996037046
30
0
41
1
10
95.9670096260821
20
1.59736788184789
30
0
41
1
10
95.968579384111
20
1.63141047065555
30
0
41
1
10
95.9724737952928
20
1.6495551222055
30
0
41
1
10
95.9859521007566
20
1.68237505054076
30
0
41
1
10
95.9951776141127
20
1.69663603077412
30
0
41
1
10
96.0151017790188
20
1.7197346228376
30
0
41
1
10
96.0258992820537
20
1.72883445732904
30
0
41
1
10
96.0582481321515
20
1.75030861301521
30
0
41
1
10
96.0801820875446
20
1.75747609392014
30
0
41
1
10
96.1222430933001
20
1.76322370131274
30
0
41
1
10
96.1427298703839
20
1.76170308530573
30
0
41
1
10
96.1621180539815
20
1.75650803716807
30
0
0
SPLINE
5
190
100
AcDbEntity
8
1
62
256
6
ByLayer
370
18
48
1
60
0
100
AcDbSpline
70
4
71
3
72
8
73
4
40
0
40
0
40
0
40
0
40
1
40
1
40
1
40
1
41
1
10
96.9091271132194
20
1.55634756300656
30
0
41
1
10
96.6850038152273
20
1.61640121970852
30
0
41
1
10
96.4330466093601
20
1.68391294954784
30
0
41
1
10
96.1621180539815
20
1.7565080371681
30
0
0
SPLINE
5
191
100
AcDbEntity
8
1
62
256
6
ByLayer
370
18
48
1
60
0
100
AcDbSpline
70
4
71
3
72
12
73
8
40
0
40
0
40
0
40
0
40
0.500000000000016
40
0.500000000000016
40
0.750000000000008
40
0.750000000000008
40
1
40
1
40
1
40
1
41
1
10
96.9091271132193
20
1.5563475630066
30
0
41
1
10
96.9324024491423
20
1.5501109555425
30
0
41
1
10
96.9560391347965
20
1.54960995015419
30
0
41
1
10
96.9918628810984
20
1.55792405361476
30
0
41
1
10
97.003879670204
20
1.56228833189172
30
0
41
1
10
97.0273453449134
20
1.5748014707184
30
0
41
1
10
97.0388831247722
20
1.58286598450744
30
0
41
1
10
97.0501522838518
20
1.59413514358596
30
0
0
SPLINE
5
192
100
AcDbEntity
8
1
62
256
6
ByLayer
370
18
48
1
60
0
100
AcDbSpline
70
4
71
3
72
12
73
8
40
0
40
0
40
0
40
0
40
0.499999999999892
40
0.499999999999892
40
0.749999999999946
40
0.749999999999946
40
1
40
1
40
1
40
1
41
1
10
97.1959280367078
20
1.73991089644193
30
0
41
1
10
97.2046047129419
20
1.7485875726761
30
0
41
1
10
97.2130811650075
20
1.75900471634567
30
0
41
1
10
97.2246430379192
20
1.78014818142621
30
0
41
1
10
97.2282921812352
20
1.78818199546578
30
0
41
1
10
97.2343476472563
20
1.80650994019413
30
0
41
1
10
97.2367813607406
20
1.81707631003992
30
0
41
1
10
97.2379273175612
20
1.82824039039772
30
0
0
SPLINE
5
193
100
AcDbEntity
8
1
62
256
6
ByLayer
370
18
48
1
60
0
100
AcDbSpline
70
4
71
3
72
8
73
4
40
0
40
0
40
0
40
0
40
1
40
1
40
1
40
1
41
1
10
97.0335551431329
20
2.62794512631164
30
0
41
1
10
97.1007026535657
20
2.37734720577467
30
0
41
1
10
97.1674061076785
20
2.12840652598538
30
0
41
1
10
97.2333351607823
20
1.88235595010718
30
0
0
SPLINE
5
194
100
AcDbEntity
8
1
62
256
6
ByLayer
370
18
48
1
60
0
100
AcDbSpline
70
4
71
3
72
10
73
6
40
0
40
0
40
0
40
0
40
0.5
40
0.5
40
1
40
1
40
1
40
1
41
1
10
89.6255310813987
20
-5.83048605886719
30
0
41
1
10
89.6038177916408
20
-5.85219934862501
30
0
41
1
10
89.5765190234484
20
-5.86510337974099
30
0
41
1
10
89.5274307857067
20
-5.87529573493263
30
0
41
1
10
89.5047271115918
20
-5.87369189388499
30
0
41
1
10
89.4845059107604
20
-5.86827363945223
30
0
0
SPLINE
5
195
100
AcDbEntity
8
1
62
256
6
ByLayer
370
18
48
1
60
0
100
AcDbSpline
70
4
71
3
72
10
73
6
40
0
40
0
40
0
40
0
40
0.5
40
0.5
40
1
40
1
40
1
40
1
41
1
10
89.809094414834
20
-5.54368513537869
30
0
41
1
10
89.8145088127399
20
-5.56389194345574
30
0
41
1
10
89.816134716455
20
-5.58641490290034
30
0
41
1
10
89.8059572886132
20
-5.6356455550419
30
0
41
1
10
89.7930166502102
20
-5.66300049005566
30
0
41
1
10
89.771306834249
20
-5.68471030601685
30
0
0
SPLINE
5
196
100
AcDbEntity
8
1
62
256
6
ByLayer
370
18
48
1
60
0
100
AcDbSpline
70
4
71
3
72
10
73
6
40
0
40
0
40
0
40
0
40
0.5
40
0.5
40
1
40
1
40
1
40
1
41
1
10
86.4435505660592
20
-9.01246657420667
30
0
41
1
10
86.4218372763014
20
-9.0341798639645
30
0
41
1
10
86.394538508109
20
-9.04708389508045
30
0
41
1
10
86.3454502703673
20
-9.05727625027207
30
0
41
1
10
86.3227465962523
20
-9.05567240922442
30
0
41
1
10
86.302525395421
20
-9.05025415479172
30
0
0
SPLINE
5
197
100
AcDbEntity
8
1
62
256
6
ByLayer
370
18
48
1
60
0
100
AcDbSpline
70
4
71
3
72
10
73
6
40
0
40
0
40
0
40
0
40
0.5
40
0.5
40
1
40
1
40
1
40
1
41
1
10
86.6271138994945
20
-8.72566565071816
30
0
41
1
10
86.6325282974003
20
-8.74587245879517
30
0
41
1
10
86.6341542011155
20
-8.76839541823982
30
0
41
1
10
86.6239767732737
20
-8.81762607038139
30
0
41
1
10
86.6110361348707
20
-8.84498100539513
30
0
41
1
10
86.5893263189096
20
-8.86669082135633
30
0
0
SPLINE
5
198
100
AcDbEntity
8
1
62
256
6
ByLayer
370
18
48
1
60
0
100
AcDbSpline
70
4
71
3
72
10
73
6
40
0
40
0
40
0
40
0
40
0.5
40
0.5
40
1
40
1
40
1
40
1
41
1
10
88.5648709096189
20
-6.89114623064702
30
0
41
1
10
88.543157619861
20
-6.91285952040485
30
0
41
1
10
88.5158588516686
20
-6.92576355152081
30
0
41
1
10
88.4667706139269
20
-6.93595590671239
30
0
41
1
10
88.444066939812
20
-6.93435206566485
30
0
41
1
10
88.4238457389807
20
-6.92893381123208
30
0
0
SPLINE
5
199
100
AcDbEntity
8
1
62
256
6
ByLayer
370
18
48
1
60
0
100
AcDbSpline
70
4
71
3
72
10
73
6
40
0
40
0
40
0
40
0
40
0.5
40
0.5
40
1
40
1
40
1
40
1
41
1
10
88.7484342430542
20
-6.6043453071585
30
0
41
1
10
88.7538486409601
20
-6.6245521152356
30
0
41
1
10
88.7554745446752
20
-6.64707507468017
30
0
41
1
10
88.7452971168334
20
-6.69630572682173
30
0
41
1
10
88.7323564784304
20
-6.72366066183549
30
0
41
1
10
88.7106466624692
20
-6.74537047779666
30
0
0
SPLINE
5
19A
100
AcDbEntity
8
1
62
256
6
ByLayer
370
18
48
1
60
0
100
AcDbSpline
70
4
71
3
72
10
73
6
40
0
40
0
40
0
40
0
40
0.5
40
0.5
40
1
40
1
40
1
40
1
41
1
10
91.7468514249583
20
-3.70916571530754
30
0
41
1
10
91.7251381352005
20
-3.7308790050654
30
0
41
1
10
91.697839367008
20
-3.74378303618134
30
0
41
1
10
91.6487511292664
20
-3.75397539137294
30
0
41
1
10
91.6260474551514
20
-3.75237155032531
30
0
41
1
10
91.6058262543201
20
-3.74695329589259
30
0
0
SPLINE
5
19B
100
AcDbEntity
8
1
62
256
6
ByLayer
370
18
48
1
60
0
100
AcDbSpline
70
4
71
3
72
10
73
6
40
0
40
0
40
0
40
0
40
0.5
40
0.5
40
1
40
1
40
1
40
1
41
1
10
91.9304147583936
20
-3.42236479181904
30
0
41
1
10
91.9358291562995
20
-3.44257159989616
30
0
41
1
10
91.9374550600146
20
-3.46509455934069
30
0
41
1
10
91.9272776321728
20
-3.51432521148227
30
0
41
1
10
91.9143369937698
20
-3.54168014649602
30
0
41
1
10
91.8926271778087
20
-3.5633899624572
30
0
0
SPLINE
5
19C
100
AcDbEntity
8
1
62
256
6
ByLayer
370
18
48
1
60
0
100
AcDbSpline
70
4
71
3
72
10
73
6
40
0
40
0
40
0
40
0
40
0.5
40
0.5
40
1
40
1
40
1
40
1
41
1
10
92.8075115967381
20
-2.64850554352772
30
0
41
1
10
92.7857983069803
20
-2.67021883328555
30
0
41
1
10
92.7584995387879
20
-2.68312286440153
30
0
41
1
10
92.7094113010462
20
-2.69331521959311
30
0
41
1
10
92.6867076269313
20
-2.69171137854556
30
0
41
1
10
92.6664864260999
20
-2.68629312411279
30
0
0
SPLINE
5
19D
100
AcDbEntity
8
1
62
256
6
ByLayer
370
18
48
1
60
0
100
AcDbSpline
70
4
71
3
72
10
73
6
40
0
40
0
40
0
40
0
40
0.5
40
0.5
40
1
40
1
40
1
40
1
41
1
10
92.9910749301734
20
-2.36170462003921
30
0
41
1
10
92.9964893280793
20
-2.38191142811631
30
0
41
1
10
92.9981152317944
20
-2.40443438756088
30
0
41
1
10
92.9879378039527
20
-2.45366503970245
30
0
41
1
10
92.9749971655496
20
-2.48101997471648
30
0
41
1
10
92.9532873495883
20
-2.50272979067759
30
0
0
SPLINE
5
19E
100
AcDbEntity
8
1
62
256
6
ByLayer
370
18
48
1
60
0
100
AcDbSpline
70
4
71
3
72
10
73
6
40
0
40
0
40
0
40
0
40
0.5
40
0.5
40
1
40
1
40
1
40
1
41
1
10
90.6861912531785
20
-4.76982588708737
30
0
41
1
10
90.6644779634207
20
-4.79153917684523
30
0
41
1
10
90.6371791952282
20
-4.80444320796117
30
0
41
1
10
90.5880909574865
20
-4.81463556315279
30
0
41
1
10
90.5653872833716
20
-4.81303172210517
30
0
41
1
10
90.5451660825403
20
-4.8076134676724
30
0
0
SPLINE
5
19F
100
AcDbEntity
8
1
62
256
6
ByLayer
370
18
48
1
60
0
100
AcDbSpline
70
4
71
3
72
10
73
6
40
0
40
0
40
0
40
0
40
0.5
40
0.5
40
1
40
1
40
1
40
1
41
1
10
90.8697545866138
20
-4.48302496359886
30
0
41
1
10
90.8751689845197
20
-4.50323177167596
30
0
41
1
10
90.8767948882348
20
-4.52575473112052
30
0
41
1
10
90.866617460393
20
-4.5749853832621
30
0
41
1
10
90.85367682199
20
-4.60234031827586
30
0
41
1
10
90.8319670060288
20
-4.62405013423703
30
0
0
SPLINE
5
1A0
100
AcDbEntity
8
1
62
256
6
ByLayer
370
18
48
1
60
0
100
AcDbSpline
70
4
71
3
72
10
73
6
40
0
40
0
40
0
40
0
40
0.5
40
0.5
40
1
40
1
40
1
40
1
41
1
10
93.868171768518
20
-1.58784537174791
30
0
41
1
10
93.8464584787601
20
-1.60955866150574
30
0
41
1
10
93.8191597105677
20
-1.62246269262168
30
0
41
1
10
93.770071472826
20
-1.63265504781328
30
0
41
1
10
93.7473677987111
20
-1.63105120676574
30
0
41
1
10
93.7271465978798
20
-1.62563295233299
30
0
0
SPLINE
5
1A1
100
AcDbEntity
8
1
62
256
6
ByLayer
370
18
48
1
60
0
100
AcDbSpline
70
4
71
3
72
10
73
6
40
0
40
0
40
0
40
0
40
0.5
40
0.5
40
1
40
1
40
1
40
1
41
1
10
94.0517351019533
20
-1.30104444825939
30
0
41
1
10
94.0571494998591
20
-1.32125125633644
30
0
41
1
10
94.0587754035743
20
-1.34377421578105
30
0
41
1
10
94.0485979757325
20
-1.39300486792261
30
0
41
1
10
94.0356573373295
20
-1.42035980293637
30
0
41
1
10
94.0139475213683
20
-1.44206961889755
30
0
0
SPLINE
5
1A2
100
AcDbEntity
8
1
62
256
6
ByLayer
370
18
48
1
60
0
100
AcDbSpline
70
4
71
3
72
10
73
6
40
0
40
0
40
0
40
0
40
0.5
40
0.5
40
1
40
1
40
1
40
1
41
1
10
87.504210737839
20
-7.95180640242683
30
0
41
1
10
87.4824974480812
20
-7.97351969218467
30
0
41
1
10
87.4551986798888
20
-7.98642372330063
30
0
41
1
10
87.4061104421471
20
-7.99661607849227
30
0
41
1
10
87.383406768032
20
-7.99501223744461
30
0
41
1
10
87.3631855672006
20
-7.98959398301187
30
0
0
SPLINE
5
1A3
100
AcDbEntity
8
1
62
256
6
ByLayer
370
18
48
1
60
0
100
AcDbSpline
70
4
71
3
72
10
73
6
40
0
40
0
40
0
40
0
40
0.5
40
0.5
40
1
40
1
40
1
40
1
41
1
10
87.6877740712743
20
-7.66500547893833
30
0
41
1
10
87.6931884691802
20
-7.68521228701534
30
0
41
1
10
87.6948143728954
20
-7.70773524645998
30
0
41
1
10
87.6846369450536
20
-7.75696589860156
30
0
41
1
10
87.6716963066506
20
-7.78432083361531
30
0
41
1
10
87.6499864906894
20
-7.8060306495765
30
0
0
SPLINE
5
1A4
100
AcDbEntity
8
1
62
256
6
ByLayer
370
18
48
1
60
0
100
AcDbSpline
70
4
71
3
72
8
73
4
40
0
40
0
40
0
40
0
40
1
40
1
40
1
40
1
41
1
10
97.9697872850009
20
2.61700773478593
30
0
41
1
10
97.7268882882587
20
2.68209232480535
30
0
41
1
10
97.4778067099706
20
2.7488335325571
30
0
41
1
10
97.2227782257612
20
2.81716820894796
30
0
0
SPLINE
5
1A5
100
AcDbEntity
8
1
62
256
6
ByLayer
370
18
48
1
60
0
100
AcDbSpline
70
4
71
3
72
12
73
8
40
0
40
0
40
0
40
0
40
0.499999999999996
40
0.499999999999996
40
0.749999999999998
40
0.749999999999998
40
1
40
1
40
1
40
1
41
1
10
97.9697872850008
20
2.61700773478593
30
0
41
1
10
97.9927987549066
20
2.61084183000835
30
0
41
1
10
98.0161789759753
20
2.61026301003273
30
0
41
1
10
98.0518265229544
20
2.61836800648663
30
0
41
1
10
98.0637808390053
20
2.62262420970798
30
0
41
1
10
98.0874317790673
20
2.63507966352819
30
0
41
1
10
98.0991843391812
20
2.64316719891534
30
0
41
1
10
98.1108124556372
20
2.65479531537136
30
0
0
SPLINE
5
1A6
100
AcDbEntity
8
1
62
256
6
ByLayer
370
18
48
1
60
0
100
AcDbSpline
70
4
71
3
72
14
73
10
40
0
40
0
40
0
40
0
40
0.25
40
0.25
40
0.5
40
0.5
40
0.75
40
0.75
40
1
40
1
40
1
40
1
41
1
10
98.2565882084875
20
2.80057106822167
30
0
41
1
10
98.2624672054398
20
2.80645006517392
30
0
41
1
10
98.268323300251
20
2.81327139758316
30
0
41
1
10
98.2795795567299
20
2.82976834307819
30
0
41
1
10
98.2850971568177
20
2.83950491939455
30
0
41
1
10
98.2945322426151
20
2.86431346611612
30
0
41
1
10
98.2984459743644
20
2.8803899260385
30
0
41
1
10
98.2999611851815
20
2.91412568546794
30
0
41
1
10
98.297638189249
20
2.92942079575703
30
0
41
1
10
98.2943757890849
20
2.94159623890929
30
0
0
SPLINE
5
1A7
100
AcDbEntity
8
1
62
256
6
ByLayer
370
18
48
1
60
0
100
AcDbSpline
70
4
71
3
72
8
73
4
40
0
40
0
40
0
40
0
40
1
40
1
40
1
40
1
41
1
10
98.094215314911
20
3.68860529809779
30
0
41
1
10
98.1610441229024
20
3.43919679126491
30
0
41
1
10
98.227766404248
20
3.19018584728596
30
0
41
1
10
98.2943757890697
20
2.94159623887063
30
0
0
SPLINE
5
1A8
100
AcDbEntity
8
1
62
256
6
ByLayer
370
18
48
1
60
0
100
AcDbSpline
70
4
71
3
72
22
73
18
40
0
40
0
40
0
40
0
40
0.0624999999999922
40
0.0624999999999922
40
0.124999999999984
40
0.124999999999984
40
0.187499999999977
40
0.187499999999977
40
0.249999999999969
40
0.249999999999969
40
0.37499999999997
40
0.37499999999997
40
0.499999999999971
40
0.499999999999971
40
0.749999999999985
40
0.749999999999985
40
1
40
1
40
1
40
1
41
1
10
98.0942153149102
20
3.68860529809606
30
0
41
1
10
98.0915904758642
20
3.69840133077702
30
0
41
1
10
98.0895636898721
20
3.70965991243588
30
0
41
1
10
98.088565295282
20
3.73567653659147
30
0
41
1
10
98.0898797689461
20
3.74967680735421
30
0
41
1
10
98.0953160001146
20
3.77425110264599
30
0
41
1
10
98.0991406626229
20
3.78462339110676
30
0
41
1
10
98.1073069290917
20
3.80227924132801
30
0
41
1
10
98.1117578132524
20
3.80977351416671
30
0
41
1
10
98.125289067178
20
3.82939203700136
30
0
41
1
10
98.1345918403887
20
3.83891762481674
30
0
41
1
10
98.1534386780435
20
3.85476594025216
30
0
41
1
10
98.1629807968946
20
3.86090854473885
30
0
41
1
10
98.1912525469245
20
3.87554892231204
30
0
41
1
10
98.2099005835188
20
3.88054786964183
30
0
41
1
10
98.2469099431551
20
3.88416914432852
30
0
41
1
10
98.2653313646149
20
3.8826801455776
30
0
41
1
10
98.283438397541
20
3.87782838072776
30
0
0
SPLINE
5
1A9
100
AcDbEntity
8
1
62
256
6
ByLayer
370
18
48
1
60
0
100
AcDbSpline
70
4
71
3
72
8
73
4
40
0
40
0
40
0
40
0
40
1
40
1
40
1
40
1
41
1
10
99.0304474567788
20
3.67766790656629
30
0
41
1
10
98.7890900192798
20
3.74233943703135
30
0
41
1
10
98.5399870901243
20
3.80908636573086
30
0
41
1
10
98.283438397541
20
3.87782838072778
30
0
0
SPLINE
5
1AA
100
AcDbEntity
8
1
62
256
6
ByLayer
370
18
48
1
60
0
100
AcDbSpline
70
4
71
3
72
12
73
8
40
0
40
0
40
0
40
0
40
0.500000000000011
40
0.500000000000011
40
0.750000000000006
40
0.750000000000006
40
1
40
1
40
1
40
1
41
1
10
99.0304474567788
20
3.67766790656629
30
0
41
1
10
99.0535629923186
20
3.67147411748577
30
0
41
1
10
99.0772434512233
20
3.67097072421775
30
0
41
1
10
99.1126679789446
20
3.67909194907313
30
0
41
1
10
99.1244569704637
20
3.68329750070741
30
0
41
1
10
99.1479950901667
20
3.69568412682553
30
0
41
1
10
99.159744229699
20
3.70372708943306
30
0
41
1
10
99.171472627417
20
3.71545548715116
30
0
0
SPLINE
5
1AB
100
AcDbEntity
8
1
62
256
6
ByLayer
370
18
48
1
60
0
100
AcDbSpline
70
4
71
3
72
14
73
10
40
0
40
0
40
0
40
0
40
0.25
40
0.25
40
0.5
40
0.5
40
0.75
40
0.75
40
1
40
1
40
1
40
1
41
1
10
99.3172483802706
20
3.86123123996531
30
0
41
1
10
99.3228682605662
20
3.86685112025908
30
0
41
1
10
99.3284115943154
20
3.87326422062933
30
0
41
1
10
99.3392428885395
20
3.88881999458137
30
0
41
1
10
99.3446373009598
20
3.89801450101082
30
0
41
1
10
99.3541993948388
20
3.92172987485407
30
0
41
1
10
99.3586163932087
20
3.93752065985902
30
0
41
1
10
99.3608415930911
20
3.97328356889519
30
0
41
1
10
99.3583849965858
20
3.98975763922747
30
0
41
1
10
99.3550359608476
20
4.00225641072907
30
0
0
SPLINE
5
1AC
100
AcDbEntity
8
1
62
256
6
ByLayer
370
18
48
1
60
0
100
AcDbSpline
70
4
71
3
72
8
73
4
40
0
40
0
40
0
40
0
40
1
40
1
40
1
40
1
41
1
10
99.1548754866875
20
4.74926546989019
30
0
41
1
10
99.221769443158
20
4.49961382562292
30
0
41
1
10
99.2884933786634
20
4.25059670823561
30
0
41
1
10
99.3550359608363
20
4.00225641069953
30
0
0
SPLINE
5
1AD
100
AcDbEntity
8
1
62
256
6
ByLayer
370
18
48
1
60
0
100
AcDbSpline
70
4
71
3
72
22
73
18
40
0
40
0
40
0
40
0
40
0.062499999999997
40
0.062499999999997
40
0.124999999999994
40
0.124999999999994
40
0.187499999999991
40
0.187499999999991
40
0.249999999999988
40
0.249999999999988
40
0.374999999999995
40
0.374999999999995
40
0.500000000000001
40
0.500000000000001
40
0.750000000000001
40
0.750000000000001
40
1
40
1
40
1
40
1
41
1
10
99.1548754866875
20
4.74926546989013
30
0
41
1
10
99.1521292884292
20
4.75951442132099
30
0
41
1
10
99.1499321148854
20
4.77178626564415
30
0
41
1
10
99.1493528650676
20
4.80048401838591
30
0
41
1
10
99.1513690196512
20
4.81571656673733
30
0
41
1
10
99.1577123062299
20
4.84022217042195
30
0
41
1
10
99.1618057921202
20
4.85014798854404
30
0
41
1
10
99.1702575864225
20
4.86698482335953
30
0
41
1
10
99.1747555376471
20
4.87408366753105
30
0
41
1
10
99.1883129891401
20
4.8926763900165
30
0
41
1
10
99.1975194298847
20
4.90173019231768
30
0
41
1
10
99.216071578744
20
4.91677532464969
30
0
41
1
10
99.225462054327
20
4.92264374932705
30
0
41
1
10
99.2533870081588
20
4.9366684874304
30
0
41
1
10
99.271769254293
20
4.94143298638127
30
0
41
1
10
99.3081938193735
20
4.9447781407173
30
0
41
1
10
99.3262326250734
20
4.94327571784121
30
0
41
1
10
99.3440985693208
20
4.93848855250811
30
0
0
SPLINE
5
1AE
100
AcDbEntity
8
1
62
256
6
ByLayer
370
18
48
1
60
0
100
AcDbSpline
70
4
71
3
72
8
73
4
40
0
40
0
40
0
40
0
40
1
40
1
40
1
40
1
41
1
10
100.091107628559
20
4.73832807834602
30
0
41
1
10
99.8521126970923
20
4.80236657722761
30
0
41
1
10
99.6029768282469
20
4.86912233209038
30
0
41
1
10
99.3440985693208
20
4.93848855250759
30
0
0
SPLINE
5
1AF
100
AcDbEntity
8
1
62
256
6
ByLayer
370
18
48
1
60
0
100
AcDbSpline
70
4
71
3
72
12
73
8
40
0
40
0
40
0
40
0
40
0.499999999999985
40
0.499999999999985
40
0.749999999999992
40
0.749999999999992
40
1
40
1
40
1
40
1
41
1
10
100.091107628559
20
4.73832807834611
30
0
41
1
10
100.114427069696
20
4.73207965292546
30
0
41
1
10
100.138085216316
20
4.73164016698319
30
0
41
1
10
100.173516164798
20
4.73981159561914
30
0
41
1
10
100.185292754006
20
4.74403320945156
30
0
41
1
10
100.208772121025
20
4.75642288205228
30
0
41
1
10
100.220475604359
20
4.76445846409322
30
0
41
1
10
100.232132799197
20
4.77611565893157
30
0
0
SPLINE
5
1B0
100
AcDbEntity
8
1
62
256
6
ByLayer
370
18
48
1
60
0
100
AcDbSpline
70
4
71
3
72
18
73
14
40
0
40
0
40
0
40
0
40
0.25
40
0.25
40
0.5
40
0.5
40
0.625
40
0.625
40
0.75
40
0.75
40
0.875
40
0.875
40
1
40
1
40
1
40
1
41
1
10
100.377908552047
20
4.92189141178134
30
0
41
1
10
100.38321657121
20
4.92719943094428
30
0
41
1
10
100.388466498443
20
4.93322871859229
30
0
41
1
10
100.398779352481
20
4.94771974149303
30
0
41
1
10
100.40385471109
20
4.95600812861525
30
0
41
1
10
100.411139990233
20
4.97288210367037
30
0
41
1
10
100.413475267787
20
4.97921541729035
30
0
41
1
10
100.417518231619
20
4.9939946138829
30
0
41
1
10
100.419251206291
20
5.00265225175438
30
0
41
1
10
100.420950680568
20
5.02182820357163
30
0
41
1
10
100.420773702313
20
5.031822147486
30
0
41
1
10
100.418961541183
20
5.04902539664126
30
0
41
1
10
100.417441834957
20
5.05640153264902
30
0
41
1
10
100.415696132632
20
5.06291658241999
30
0
0
SPLINE
5
1B1
100
AcDbEntity
8
1
62
256
6
ByLayer
370
18
48
1
60
0
100
AcDbSpline
70
4
71
3
72
8
73
4
40
0
40
0
40
0
40
0
40
1
40
1
40
1
40
1
41
1
10
100.215535658471
20
5.80992564165621
30
0
41
1
10
100.282551454245
20
5.55981928691893
30
0
41
1
10
100.349278940134
20
5.31078891931723
30
0
41
1
10
100.415696132632
20
5.06291658241962
30
0
0
SPLINE
5
1B2
100
AcDbEntity
8
1
62
256
6
ByLayer
370
18
48
1
60
0
100
AcDbSpline
70
4
71
3
72
26
73
22
40
0
40
0
40
0
40
0
40
0.0312499999999996
40
0.0312499999999996
40
0.0624999999999992
40
0.0624999999999992
40
0.0937499999999988
40
0.0937499999999988
40
0.124999999999998
40
0.124999999999998
40
0.187499999999999
40
0.187499999999999
40
0.249999999999999
40
0.249999999999999
40
0.374999999999999
40
0.374999999999999
40
0.499999999999999
40
0.499999999999999
40
0.75
40
0.75
40
1
40
1
40
1
40
1
41
1
10
100.215535658471
20
5.80992564165616
30
0
41
1
10
100.214068106168
20
5.81540262141235
30
0
41
1
10
100.212769055687
20
5.82137548966686
30
0
41
1
10
100.210813877784
20
5.83520961917586
30
0
41
1
10
100.21021314195
20
5.84303001439
30
0
41
1
10
100.210338556005
20
5.85919379844541
30
0
41
1
10
100.21108795565
20
5.86752491693336
30
0
41
1
10
100.213577827721
20
5.88261298379721
30
0
41
1
10
100.215226195011
20
5.88923079874186
30
0
41
1
10
100.220744397412
20
5.90721817726519
30
0
41
1
10
100.224980311012
20
5.91632558308797
30
0
41
1
10
100.233686928802
20
5.93218719703856
30
0
41
1
10
100.238128738443
20
5.93871419722272
30
0
41
1
10
100.251586520663
20
5.95609326357937
30
0
41
1
10
100.260773887375
20
5.96476032467517
30
0
41
1
10
100.279124321046
20
5.97902522384634
30
0
41
1
10
100.288249372861
20
5.98451135232894
30
0
41
1
10
100.315510392878
20
5.99773621964025
30
0
41
1
10
100.333533110466
20
6.00228534469223
30
0
41
1
10
100.369334652269
20
6.00538751756667
30
0
41
1
10
100.387141769029
20
6.00386917772708
30
0
41
1
10
100.404758741101
20
5.99914872428739
30
0
0
SPLINE
5
1B3
100
AcDbEntity
8
1
62
256
6
ByLayer
370
18
48
1
60
0
100
AcDbSpline
70
4
71
3
72
8
73
4
40
0
40
0
40
0
40
0
40
1
40
1
40
1
40
1
41
1
10
101.151767800339
20
5.79898825012587
30
0
41
1
10
100.916834944435
20
5.86193831914078
30
0
41
1
10
100.667642112857
20
5.92870933712174
30
0
41
1
10
100.404758741101
20
5.99914872428742
30
0
0
SPLINE
5
1B4
100
AcDbEntity
8
1
62
256
6
ByLayer
370
18
48
1
60
0
100
AcDbSpline
70
4
71
3
72
12
73
8
40
0
40
0
40
0
40
0
40
0.500000000000004
40
0.500000000000004
40
0.750000000000002
40
0.750000000000002
40
1
40
1
40
1
40
1
41
1
10
101.151767800338
20
5.7989882501222
30
0
41
1
10
101.175308871256
20
5.79268043918092
30
0
41
1
10
101.199049567205
20
5.79232985861621
30
0
41
1
10
101.234375383702
20
5.8005382943924
30
0
41
1
10
101.246113006235
20
5.80476406982143
30
0
41
1
10
101.269511246224
20
5.817138640946
30
0
41
1
10
101.281171894095
20
5.82515475382898
30
0
41
1
10
101.292792970978
20
5.83677583071241
30
0
0
SPLINE
5
1B5
100
AcDbEntity
8
1
62
256
6
ByLayer
370
18
48
1
60
0
100
AcDbSpline
70
4
71
3
72
18
73
14
40
0
40
0
40
0
40
0
40
0.249999999999963
40
0.249999999999963
40
0.499999999999927
40
0.499999999999927
40
0.624999999999945
40
0.624999999999945
40
0.749999999999963
40
0.749999999999963
40
0.874999999999982
40
0.874999999999982
40
1
40
1
40
1
40
1
41
1
10
101.438568723827
20
5.98255158356114
30
0
41
1
10
101.443597626354
20
5.9875804860884
30
0
41
1
10
101.448589804145
20
5.99327335981652
30
0
41
1
10
101.458462110745
20
6.00688755939047
30
0
41
1
10
101.46338643315
20
6.01475425889587
30
0
41
1
10
101.470450168724
20
6.03019352542449
30
0
41
1
10
101.472762442088
20
6.03598470275836
30
0
41
1
10
101.476996244554
20
6.04974966460379
30
0
41
1
10
101.478997419078
20
6.0578525023729
30
0
41
1
10
101.4814884723
20
6.07814119818693
30
0
41
1
10
101.481592657841
20
6.08987102699608
30
0
41
1
10
101.47978349387
20
6.10908317739558
30
0
41
1
10
101.47815043703
20
6.11688096013245
30
0
41
1
10
101.476356304414
20
6.12357675420925
30
0
0
SPLINE
5
1B6
100
AcDbEntity
8
1
62
256
6
ByLayer
370
18
48
1
60
0
100
AcDbSpline
70
4
71
3
72
8
73
4
40
0
40
0
40
0
40
0
40
1
40
1
40
1
40
1
41
1
10
101.276195830248
20
6.87058581344506
30
0
41
1
10
101.343484790576
20
6.61945999471385
30
0
41
1
10
101.410221562737
20
6.37039497027567
30
0
41
1
10
101.476356304412
20
6.12357675419951
30
0
0
SPLINE
5
1B7
100
AcDbEntity
8
1
62
256
6
ByLayer
370
18
48
1
60
0
100
AcDbSpline
70
4
71
3
72
24
73
20
40
0
40
0
40
0
40
0
40
0.0312500000000075
40
0.0312500000000075
40
0.062500000000015
40
0.062500000000015
40
0.0937500000000225
40
0.0937500000000225
40
0.12500000000003
40
0.12500000000003
40
0.187500000000026
40
0.187500000000026
40
0.250000000000023
40
0.250000000000023
40
0.500000000000015
40
0.500000000000015
40
0.750000000000008
40
0.750000000000008
40
1
40
1
40
1
40
1
41
1
10
101.276195830248
20
6.87058581344498
30
0
41
1
10
101.27460153231
20
6.87653581435357
30
0
41
1
10
101.273147336309
20
6.88326085860575
30
0
41
1
10
101.271121387595
20
6.89940067697887
30
0
41
1
10
101.270643436578
20
6.90899513353149
30
0
41
1
10
101.271631434371
20
6.92810546702025
30
0
41
1
10
101.273000299687
20
6.93690918321359
30
0
41
1
10
101.276348741042
20
6.95184291784356
30
0
41
1
10
101.278267629118
20
6.95798684972525
30
0
41
1
10
101.284348482016
20
6.97464903922991
30
0
41
1
10
101.288665098223
20
6.98294144799171
30
0
41
1
10
101.297406464695
20
6.99747431951821
30
0
41
1
10
101.301878918896
20
7.0036026046547
30
0
41
1
10
101.324271336816
20
7.03068700199566
30
0
41
1
10
101.342157583717
20
7.04218835616926
30
0
41
1
10
101.377786268424
20
7.05885341559484
30
0
41
1
10
101.395573536659
20
7.06318540453501
30
0
41
1
10
101.430770997954
20
7.06598704899935
30
0
41
1
10
101.448185715927
20
7.06442651727388
30
0
41
1
10
101.46541891288
20
7.05980889606724
30
0
0
SPLINE
5
1B8
100
AcDbEntity
8
1
62
256
6
ByLayer
370
18
48
1
60
0
100
AcDbSpline
70
4
71
3
72
8
73
4
40
0
40
0
40
0
40
0
40
1
40
1
40
1
40
1
41
1
10
102.212427972118
20
6.85964842190572
30
0
41
1
10
101.986099274194
20
6.92029301373853
30
0
41
1
10
101.736785220332
20
6.98709651313254
30
0
41
1
10
101.46541891288
20
7.05980889606724
30
0
0
SPLINE
5
1B9
100
AcDbEntity
8
1
62
256
6
ByLayer
370
18
48
1
60
0
100
AcDbSpline
70
4
71
3
72
12
73
8
40
0
40
0
40
0
40
0
40
0.499999999999998
40
0.499999999999998
40
0.749999999999999
40
0.749999999999999
40
1
40
1
40
1
40
1
41
1
10
102.212427972118
20
6.85964842190468
30
0
41
1
10
102.23632135248
20
6.85324620993224
30
0
41
1
10
102.260142984507
20
6.85302178674288
30
0
41
1
10
102.295416525831
20
6.8613223297475
30
0
41
1
10
102.307111543764
20
6.86557220432025
30
0
41
1
10
102.330375828026
20
6.87793863762494
30
0
41
1
10
102.341944859617
20
6.88592771935036
30
0
41
1
10
102.353453142758
20
6.89743600249239
30
0
0
SPLINE
5
1BA
100
AcDbEntity
8
1
62
256
6
ByLayer
370
18
48
1
60
0
100
AcDbSpline
70
4
71
3
72
18
73
14
40
0
40
0
40
0
40
0
40
0.499999999999924
40
0.499999999999924
40
0.624999999999926
40
0.624999999999926
40
0.749999999999928
40
0.749999999999928
40
0.812499999999937
40
0.812499999999937
40
0.874999999999945
40
0.874999999999945
40
1
40
1
40
1
40
1
41
1
10
102.499228895607
20
7.04321175534095
30
0
41
1
10
102.508543486294
20
7.052526346028
30
0
41
1
10
102.517762198834
20
7.06342177238777
30
0
41
1
10
102.528970124605
20
7.08596801187518
30
0
41
1
10
102.531201564091
20
7.09098929363529
30
0
41
1
10
102.535566828426
20
7.10313301164166
30
0
41
1
10
102.537720625612
20
7.11007993784266
30
0
41
1
10
102.540393480627
20
7.12437004905792
30
0
41
1
10
102.541215433636
20
7.13005145612004
30
0
41
1
10
102.542100511342
20
7.14312697667424
30
0
41
1
10
102.542067506782
20
7.15039089566066
30
0
41
1
10
102.540794907092
20
7.16878958971282
30
0
41
1
10
102.538906104776
20
7.17718473609681
30
0
41
1
10
102.537016476192
20
7.18423692597936
30
0
0
SPLINE
5
1BB
100
AcDbEntity
8
1
62
256
6
ByLayer
370
18
48
1
60
0
100
AcDbSpline
70
4
71
3
72
8
73
4
40
0
40
0
40
0
40
0
40
1
40
1
40
1
40
1
41
1
10
102.33685600203
20
7.93124598521715
30
0
41
1
10
102.404989047534
20
7.6769699977217
30
0
41
1
10
102.471760407867
20
7.42777588846863
30
0
41
1
10
102.537016476192
20
7.18423692597931
30
0
0
SPLINE
5
1BC
100
AcDbEntity
8
1
62
256
6
ByLayer
370
18
48
1
60
0
100
AcDbSpline
70
4
71
3
72
26
73
22
40
0
40
0
40
0
40
0
40
0.0312499999999955
40
0.0312499999999955
40
0.0468749999999934
40
0.0468749999999934
40
0.0624999999999913
40
0.0624999999999913
40
0.0937499999999893
40
0.0937499999999893
40
0.124999999999987
40
0.124999999999987
40
0.187499999999986
40
0.187499999999986
40
0.249999999999985
40
0.249999999999985
40
0.49999999999999
40
0.49999999999999
40
0.749999999999995
40
0.749999999999995
40
1
40
1
40
1
40
1
41
1
10
102.33685600203
20
7.93124598521706
30
0
41
1
10
102.335064973809
20
7.93793019353607
30
0
41
1
10
102.333329780888
20
7.9457903956481
30
0
41
1
10
102.331795418697
20
7.96167994482047
30
0
41
1
10
102.331505262937
20
7.96775446039002
30
0
41
1
10
102.331726653868
20
7.98020586829475
30
0
41
1
10
102.332242141006
20
7.98635112536113
30
0
41
1
10
102.334331097719
20
8.00206755938775
30
0
41
1
10
102.336324515897
20
8.00981486827622
30
0
41
1
10
102.340399715081
20
8.02312354136914
30
0
41
1
10
102.342508909828
20
8.02852687844184
30
0
41
1
10
102.348924120892
20
8.04312476472912
30
0
41
1
10
102.353335107484
20
8.05066292428285
30
0
41
1
10
102.362177487159
20
8.06385429730715
30
0
41
1
10
102.36659761954
20
8.06939278116737
30
0
41
1
10
102.388673612772
20
8.09403655103912
30
0
41
1
10
102.406247915365
20
8.10486976072551
30
0
41
1
10
102.441125425779
20
8.12026941564824
30
0
41
1
10
102.458426743649
20
8.12419604037495
30
0
41
1
10
102.492558502777
20
8.12654305665093
30
0
41
1
10
102.509419473814
20
8.12493299711952
30
0
41
1
10
102.52607908466
20
8.12046906784713
30
0
0
SPLINE
5
1BD
100
AcDbEntity
8
1
62
256
6
ByLayer
370
18
48
1
60
0
100
AcDbSpline
70
4
71
3
72
8
73
4
40
0
40
0
40
0
40
0
40
1
40
1
40
1
40
1
41
1
10
103.273088143898
20
7.92030859368552
30
0
41
1
10
103.077771530966
20
7.97264352238926
30
0
41
1
10
102.828019019718
20
8.03956450608557
30
0
41
1
10
102.52607908466
20
8.12046906784705
30
0
0
SPLINE
5
1BE
100
AcDbEntity
8
1
62
256
6
ByLayer
370
18
48
1
60
0
100
AcDbSpline
70
4
71
3
72
10
73
6
40
0
40
0
40
0
40
0
40
0.5
40
0.5
40
1
40
1
40
1
40
1
41
1
10
103.273088143898
20
7.92030859368556
30
0
41
1
10
103.298403348998
20
7.9135254049229
30
0
41
1
10
103.322832068576
20
7.9138195866736
30
0
41
1
10
103.369852266929
20
7.92559447666881
30
0
41
1
10
103.392469233103
20
7.93645209281591
30
0
41
1
10
103.414113314537
20
7.95809617424392
30
0
0
SPLINE
5
1BF
100
AcDbEntity
8
1
62
256
6
ByLayer
370
18
48
1
60
0
100
AcDbSpline
70
4
71
3
72
26
73
22
40
0
40
0
40
0
40
0
40
0.500000000000005
40
0.500000000000005
40
0.750000000000011
40
0.750000000000011
40
0.812500000000015
40
0.812500000000015
40
0.843750000000018
40
0.843750000000018
40
0.85937500000002
40
0.85937500000002
40
0.875000000000022
40
0.875000000000022
40
0.890625000000023
40
0.890625000000023
40
0.906250000000025
40
0.906250000000025
40
0.937500000000015
40
0.937500000000015
40
1
40
1
40
1
40
1
41
1
10
103.559889067387
20
8.10387192711189
30
0
41
1
10
103.568640976087
20
8.11262383581194
30
0
41
1
10
103.577140316115
20
8.12284154770143
30
0
41
1
10
103.589460908997
20
8.14584519151342
30
0
41
1
10
103.593513823178
20
8.15416297815813
30
0
41
1
10
103.598411659374
20
8.17198522864796
30
0
41
1
10
103.599383189967
20
8.17593667631337
30
0
41
1
10
103.600796572886
20
8.18375971251024
30
0
41
1
10
103.601262212238
20
8.18666119189229
30
0
41
1
10
103.601912430566
20
8.19231576402497
30
0
41
1
10
103.602123622927
20
8.19442984717924
30
0
41
1
10
103.6024859554
20
8.19967821971346
30
0
41
1
10
103.602642626335
20
8.20305829443168
30
0
41
1
10
103.602659570498
20
8.21049547685011
30
0
41
1
10
103.602518088984
20
8.21387626934651
30
0
41
1
10
103.602181610636
20
8.21910274986615
30
0
41
1
10
103.601980762228
20
8.22121401052669
30
0
41
1
10
103.601363385484
20
8.22682283152471
30
0
41
1
10
103.600914685158
20
8.22971513574879
30
0
41
1
10
103.599556291254
20
8.23747006147727
30
0
41
1
10
103.598621971736
20
8.24136910144058
30
0
41
1
10
103.597676647972
20
8.24489709775931
30
0
0
SPLINE
5
1C0
100
AcDbEntity
8
1
62
256
6
ByLayer
370
18
48
1
60
0
100
AcDbSpline
70
4
71
3
72
8
73
4
40
0
40
0
40
0
40
0
40
1
40
1
40
1
40
1
41
1
10
103.39751617381
20
8.99190615699703
30
0
41
1
10
103.474414053125
20
8.70491936440121
30
0
41
1
10
103.541634918363
20
8.45404768000235
30
0
41
1
10
103.597676647972
20
8.24489709775904
30
0
0
SPLINE
5
1C1
100
AcDbEntity
8
1
62
256
6
ByLayer
370
18
48
1
60
0
100
AcDbSpline
70
4
71
3
72
28
73
24
40
0
40
0
40
0
40
0
40
0.0156250000000034
40
0.0156250000000034
40
0.0234375000000033
40
0.0234375000000033
40
0.0312500000000033
40
0.0312500000000033
40
0.0390625000000032
40
0.0390625000000032
40
0.0468750000000032
40
0.0468750000000032
40
0.0625000000000031
40
0.0625000000000031
40
0.0937500000000037
40
0.0937500000000037
40
0.125000000000004
40
0.125000000000004
40
0.250000000000004
40
0.250000000000004
40
0.500000000000003
40
0.500000000000003
40
1
40
1
40
1
40
1
41
1
10
103.39751617381
20
8.99190615699688
30
0
41
1
10
103.3963962772
20
8.99608566804486
30
0
41
1
10
103.395294375318
20
9.00072041874441
30
0
41
1
10
103.393751445363
20
9.01018241158779
30
0
41
1
10
103.393240937282
20
9.01381398515321
30
0
41
1
10
103.392424687695
20
9.02319866695733
30
0
41
1
10
103.392136925491
20
9.02974869143774
30
0
41
1
10
103.392479821781
20
9.04240641349437
30
0
41
1
10
103.392971796852
20
9.04733243659651
30
0
41
1
10
103.393990533841
20
9.05535940547571
30
0
41
1
10
103.394539864
20
9.0585474354757
30
0
41
1
10
103.396223552723
20
9.06719240102996
30
0
41
1
10
103.397405289543
20
9.07168310517317
30
0
41
1
10
103.400941125386
20
9.08365012361575
30
0
41
1
10
103.40332323264
20
9.08962228100621
30
0
41
1
10
103.408087668384
20
9.10027937665853
30
0
41
1
10
103.410472274593
20
9.10483843412894
30
0
41
1
10
103.422375516778
20
9.12551597333986
30
0
41
1
10
103.431745130527
20
9.13583015756952
30
0
41
1
10
103.459312821198
20
9.16174321339012
30
0
41
1
10
103.476998427749
20
9.17092472369775
30
0
41
1
10
103.527815542987
20
9.18940959701443
30
0
41
1
10
103.558737317076
20
9.18863233666592
30
0
41
1
10
103.58673925644
20
9.18112923962686
30
0
0
SPLINE
5
1C2
100
AcDbEntity
8
1
62
256
6
ByLayer
370
18
48
1
60
0
100
AcDbSpline
70
4
71
3
72
8
73
4
40
0
40
0
40
0
40
0
40
1
40
1
40
1
40
1
41
1
10
103.787406908476
20
9.12736050431688
30
0
41
1
10
103.787898069153
20
9.12722889820994
30
0
41
1
10
103.721006928923
20
9.14515232521558
30
0
41
1
10
103.58673925644
20
9.18112923962688
30
0
0
SPLINE
5
1C3
100
AcDbEntity
8
1
62
256
6
ByLayer
370
18
48
1
60
0
100
AcDbSpline
70
4
71
3
72
8
73
4
40
0
40
0
40
0
40
0
40
1
40
1
40
1
40
1
41
1
10
97.153794769418
20
2.81968736221797
30
0
41
1
10
97.1770775932961
20
2.82413603356162
30
0
41
1
10
97.200231140516
20
2.82320968223104
30
0
41
1
10
97.2227782257611
20
2.81716820894793
30
0
0
SPLINE
5
1C4
100
AcDbEntity
8
1
62
256
6
ByLayer
370
18
48
1
60
0
100
AcDbSpline
70
4
71
3
72
8
73
4
40
0
40
0
40
0
40
0
40
1
40
1
40
1
40
1
41
1
10
75.8203517075348
20
-18.5852583092786
30
0
41
1
10
75.8560813332417
20
-18.718603087752
30
0
41
1
10
75.874003788698
20
-18.7854906021115
30
0
41
1
10
75.8741205876977
20
-18.7859265019126
30
0
0
SPLINE
5
1C5
100
AcDbEntity
8
1
62
256
6
ByLayer
370
18
48
1
60
0
100
AcDbSpline
70
4
71
3
72
28
73
24
40
0
40
0
40
0
40
0
40
0.499999999999992
40
0.499999999999992
40
0.749999999999987
40
0.749999999999987
40
0.874999999999983
40
0.874999999999983
40
0.906249999999984
40
0.906249999999984
40
0.937499999999985
40
0.937499999999985
40
0.953124999999987
40
0.953124999999987
40
0.960937499999988
40
0.960937499999988
40
0.968749999999989
40
0.968749999999989
40
0.97656249999999
40
0.97656249999999
40
0.984374999999991
40
0.984374999999991
40
1
40
1
40
1
40
1
41
1
10
75.8203517075348
20
-18.5852583092785
30
0
41
1
10
75.8128531102345
20
-18.5572731631684
30
0
41
1
10
75.8120756328008
20
-18.5263643602317
30
0
41
1
10
75.8305228918599
20
-18.4755883967662
30
0
41
1
10
75.8396933596782
20
-18.457918494682
30
0
41
1
10
75.8655032758147
20
-18.4304016034284
30
0
41
1
10
75.8757786971657
20
-18.4210562742812
30
0
41
1
10
75.8962765189697
20
-18.4091890755445
30
0
41
1
10
75.9007996177896
20
-18.4068065827513
30
0
41
1
10
75.9114030352616
20
-18.4020273874915
30
0
41
1
10
75.9173934122504
20
-18.3996167234031
30
0
41
1
10
75.9293358526315
20
-18.3960483258029
30
0
41
1
10
75.9337584820624
20
-18.3948685617279
30
0
41
1
10
75.9423719346846
20
-18.3931584886313
30
0
41
1
10
75.9455312659688
20
-18.3926047573457
30
0
41
1
10
75.9533001876243
20
-18.3915816898499
30
0
41
1
10
75.9581118713822
20
-18.3910709253708
30
0
41
1
10
75.9705987620046
20
-18.3906478312531
30
0
41
1
10
75.9773977837461
20
-18.3908918642812
30
0
41
1
10
75.9870811206347
20
-18.391687517629
30
0
41
1
10
75.9907440258782
20
-18.3921906369061
30
0
41
1
10
76.0005175827316
20
-18.3937547409665
30
0
41
1
10
76.0053069847395
20
-18.3948916716314
30
0
41
1
10
76.0095747901647
20
-18.3960352266486
30
0
0
SPLINE
5
1C6
100
AcDbEntity
8
1
62
256
6
ByLayer
370
18
48
1
60
0
100
AcDbSpline
70
4
71
3
72
8
73
4
40
0
40
0
40
0
40
0
40
1
40
1
40
1
40
1
41
1
10
76.7565838493989
20
-18.596195700809
30
0
41
1
10
76.5474332671563
20
-18.5401539712006
30
0
41
1
10
76.2965615827589
20
-18.4729331059625
30
0
41
1
10
76.009574790165
20
-18.3960352266486
30
0
0
SPLINE
5
1C7
100
AcDbEntity
8
1
62
256
6
ByLayer
370
18
48
1
60
0
100
AcDbSpline
70
4
71
3
72
26
73
22
40
0
40
0
40
0
40
0
40
0.0624999999999478
40
0.0624999999999478
40
0.0937499999999234
40
0.0937499999999234
40
0.109374999999907
40
0.109374999999907
40
0.12499999999989
40
0.12499999999989
40
0.140624999999874
40
0.140624999999874
40
0.156249999999857
40
0.156249999999857
40
0.187499999999853
40
0.187499999999853
40
0.24999999999986
40
0.24999999999986
40
0.499999999999906
40
0.499999999999906
40
1
40
1
40
1
40
1
41
1
10
76.7565838493986
20
-18.596195700809
30
0
41
1
10
76.7601626398329
20
-18.5971546348159
30
0
41
1
10
76.7641321625669
20
-18.5981056809511
30
0
41
1
10
76.77207335945
20
-18.5994827393117
30
0
41
1
10
76.7749926264203
20
-18.5999314464969
30
0
41
1
10
76.7808193193285
20
-18.6005533198253
30
0
41
1
10
76.7830225509532
20
-18.6007553499037
30
0
41
1
10
76.788575971829
20
-18.6010819740562
30
0
41
1
10
76.7922271920274
20
-18.6012023704393
30
0
41
1
10
76.7996822558331
20
-18.6011215194016
30
0
41
1
10
76.8028559137399
20
-18.6009456773919
30
0
41
1
10
76.8078932837995
20
-18.6005649574415
30
0
41
1
10
76.8099457079811
20
-18.6003491523089
30
0
41
1
10
76.8154302879483
20
-18.5996907237224
30
0
41
1
10
76.818287248518
20
-18.599222018426
30
0
41
1
10
76.8259792150329
20
-18.597803410327
30
0
41
1
10
76.8298706227207
20
-18.596836177492
30
0
41
1
10
76.8474738038885
20
-18.5919539755561
30
0
41
1
10
76.8557932702213
20
-18.5879049032237
30
0
41
1
10
76.8786928102624
20
-18.5756119259507
30
0
41
1
10
76.8888777158056
20
-18.5671394244604
30
0
41
1
10
76.8976090200405
20
-18.5584081202254
30
0
0
SPLINE
5
1C8
100
AcDbEntity
8
1
62
256
6
ByLayer
370
18
48
1
60
0
100
AcDbSpline
70
4
71
3
72
10
73
6
40
0
40
0
40
0
40
0
40
0.5
40
0.5
40
1
40
1
40
1
40
1
41
1
10
77.0433847729288
20
-18.4126323673749
30
0
41
1
10
77.0650283004844
20
-18.3909888398115
30
0
41
1
10
77.0758870400338
20
-18.3683701532962
30
0
41
1
10
77.0876615785941
20
-18.3213491425327
30
0
41
1
10
77.0879558083992
20
-18.2969233951598
30
0
41
1
10
77.0811723534761
20
-18.2716071967364
30
0
0
SPLINE
5
1C9
100
AcDbEntity
8
1
62
256
6
ByLayer
370
18
48
1
60
0
100
AcDbSpline
70
4
71
3
72
8
73
4
40
0
40
0
40
0
40
0
40
1
40
1
40
1
40
1
41
1
10
76.8810118793147
20
-17.5245981374987
30
0
41
1
10
76.9619164410761
20
-17.8265380725566
30
0
41
1
10
77.0288374247724
20
-18.0762905838038
30
0
41
1
10
77.0811723534761
20
-18.2716071967364
30
0
0
SPLINE
5
1CA
100
AcDbEntity
8
1
62
256
6
ByLayer
370
18
48
1
60
0
100
AcDbSpline
70
4
71
3
72
26
73
22
40
0
40
0
40
0
40
0
40
0.250000000000014
40
0.250000000000014
40
0.500000000000029
40
0.500000000000029
40
0.750000000000043
40
0.750000000000043
40
0.81250000000005
40
0.81250000000005
40
0.875000000000056
40
0.875000000000056
40
0.906250000000057
40
0.906250000000057
40
0.937500000000058
40
0.937500000000058
40
0.953125000000041
40
0.953125000000041
40
0.968750000000024
40
0.968750000000024
40
1
40
1
40
1
40
1
41
1
10
76.8810118793146
20
-17.5245981374987
30
0
41
1
10
76.8765463670498
20
-17.5079326188447
30
0
41
1
10
76.8749344431622
20
-17.4910444180944
30
0
41
1
10
76.8772954531364
20
-17.4568759473216
30
0
41
1
10
76.8812194850694
20
-17.4396229275279
30
0
41
1
10
76.8966125975818
20
-17.4047673120434
30
0
41
1
10
76.9075171787449
20
-17.3870831061286
30
0
41
1
10
76.9322498513423
20
-17.3649831265818
30
0
41
1
10
76.9377982596349
20
-17.3605710364724
30
0
41
1
10
76.9509322156269
20
-17.3517883164738
30
0
41
1
10
76.9584160070787
20
-17.3474049399284
30
0
41
1
10
76.9731422441711
20
-17.3409513720296
30
0
41
1
10
76.9785811648441
20
-17.3388417081439
30
0
41
1
10
76.9917965231203
20
-17.3348124013789
30
0
41
1
10
76.9994414085436
20
-17.3328371756734
30
0
41
1
10
77.0153144248614
20
-17.3307413698583
30
0
41
1
10
77.0213681449731
20
-17.3302411463199
30
0
41
1
10
77.0337788941424
20
-17.3300263238461
30
0
41
1
10
77.0399332833588
20
-17.3303241470209
30
0
41
1
10
77.0556978001278
20
-17.3318558107599
30
0
41
1
10
77.0635105007431
20
-17.3335732409211
30
0
41
1
10
77.0702349619271
20
-17.335375054864
30
0
0
SPLINE
5
1CB
100
AcDbEntity
8
1
62
256
6
ByLayer
370
18
48
1
60
0
100
AcDbSpline
70
4
71
3
72
8
73
4
40
0
40
0
40
0
40
0
40
1
40
1
40
1
40
1
41
1
10
77.8172440211724
20
-17.5355355290275
30
0
41
1
10
77.5737050586808
20
-17.4702794607023
30
0
41
1
10
77.3245109494255
20
-17.4035081003688
30
0
41
1
10
77.0702349619277
20
-17.3353750548641
30
0
0
SPLINE
5
1CC
100
AcDbEntity
8
1
62
256
6
ByLayer
370
18
48
1
60
0
100
AcDbSpline
70
4
71
3
72
20
73
16
40
0
40
0
40
0
40
0
40
0.0624999999999914
40
0.0624999999999914
40
0.124999999999983
40
0.124999999999983
40
0.187499999999974
40
0.187499999999974
40
0.249999999999965
40
0.249999999999965
40
0.374999999999974
40
0.374999999999974
40
0.499999999999982
40
0.499999999999982
40
1
40
1
40
1
40
1
41
1
10
77.817244021172
20
-17.5355355290275
30
0
41
1
10
77.8207786898245
20
-17.5364826406388
30
0
41
1
10
77.8246467724316
20
-17.5373864287512
30
0
41
1
10
77.8336255693364
20
-17.5390046181762
30
0
41
1
10
77.8388041821465
20
-17.5397352546977
30
0
41
1
10
77.8510384538023
20
-17.5405844985533
30
0
41
1
10
77.8582402600228
20
-17.5406215541479
30
0
41
1
10
77.8712919797035
20
-17.5397493928228
30
0
41
1
10
77.8768951006428
20
-17.5389478768973
30
0
41
1
10
77.8914070502278
20
-17.5362483705463
30
0
41
1
10
77.8981797496926
20
-17.5341371226576
30
0
41
1
10
77.9102948578333
20
-17.5298003007294
30
0
41
1
10
77.9152997125132
20
-17.5275861627682
30
0
41
1
10
77.9378887473357
20
-17.5164010125042
30
0
41
1
10
77.9489212217995
20
-17.5070959184789
30
0
41
1
10
77.9582691918269
20
-17.4977479484514
30
0
0
SPLINE
5
1CD
100
AcDbEntity
8
1
62
256
6
ByLayer
370
18
48
1
60
0
100
AcDbSpline
70
4
71
3
72
12
73
8
40
0
40
0
40
0
40
0
40
0.249999999999997
40
0.249999999999997
40
0.499999999999995
40
0.499999999999995
40
1
40
1
40
1
40
1
41
1
10
78.104044944671
20
-17.3519721955949
30
0
41
1
10
78.1155313985743
20
-17.3404857416917
30
0
41
1
10
78.1235432793106
20
-17.3289000890323
30
0
41
1
10
78.1359420489898
20
-17.3055608875816
30
0
41
1
10
78.1402003692376
20
-17.2938099379772
30
0
41
1
10
78.1484744675177
20
-17.2584924866484
30
0
41
1
10
78.1482207074886
20
-17.234788045617
30
0
41
1
10
78.141832525256
20
-17.2109470249568
30
0
0
SPLINE
5
1CE
100
AcDbEntity
8
1
62
256
6
ByLayer
370
18
48
1
60
0
100
AcDbSpline
70
4
71
3
72
8
73
4
40
0
40
0
40
0
40
0
40
1
40
1
40
1
40
1
41
1
10
77.9416720510945
20
-16.4639379657189
30
0
41
1
10
78.0143844340292
20
-16.7353042731707
30
0
41
1
10
78.0811879334232
20
-16.9846183270325
30
0
41
1
10
78.141832525256
20
-17.2109470249567
30
0
0
SPLINE
5
1CF
100
AcDbEntity
8
1
62
256
6
ByLayer
370
18
48
1
60
0
100
AcDbSpline
70
4
71
3
72
24
73
20
40
0
40
0
40
0
40
0
40
0.250000000000011
40
0.250000000000011
40
0.500000000000022
40
0.500000000000022
40
0.750000000000034
40
0.750000000000034
40
0.812500000000035
40
0.812500000000035
40
0.875000000000037
40
0.875000000000037
40
0.906250000000027
40
0.906250000000027
40
0.937500000000018
40
0.937500000000018
40
0.968750000000009
40
0.968750000000009
40
1
40
1
40
1
40
1
41
1
10
77.9416720510944
20
-16.4639379657189
30
0
41
1
10
77.9370530576896
20
-16.4466996476526
30
0
41
1
10
77.9354920152817
20
-16.4292763504612
30
0
41
1
10
77.9383015463736
20
-16.394054573682
30
0
41
1
10
77.9426288654704
20
-16.3762799883205
30
0
41
1
10
77.9593546513542
20
-16.3405665225849
30
0
41
1
10
77.9710794268006
20
-16.322478939416
30
0
41
1
10
77.9981178364811
20
-16.3002193682439
30
0
41
1
10
78.0042354245099
20
-16.295769034769
30
0
41
1
10
78.0188234687288
20
-16.2870328855829
30
0
41
1
10
78.0270962656904
20
-16.2827516314665
30
0
41
1
10
78.0437028136347
20
-16.2767205265322
30
0
41
1
10
78.0498417005446
20
-16.2748191977346
30
0
41
1
10
78.0644834194569
20
-16.2715421132785
30
0
41
1
10
78.0734664962674
20
-16.2701465890057
30
0
41
1
10
78.0923685268309
20
-16.2691677469264
30
0
41
1
10
78.1020767168215
20
-16.2696435384374
30
0
41
1
10
78.1180905837391
20
-16.2716466183529
30
0
41
1
10
78.1249139711547
20
-16.2731122353835
30
0
41
1
10
78.1308951337924
20
-16.2747148830847
30
0
0
SPLINE
5
1D0
100
AcDbEntity
8
1
62
256
6
ByLayer
370
18
48
1
60
0
100
AcDbSpline
70
4
71
3
72
8
73
4
40
0
40
0
40
0
40
0
40
1
40
1
40
1
40
1
41
1
10
78.8779041929509
20
-16.4748753572473
30
0
41
1
10
78.6310859768885
20
-16.4087406155761
30
0
41
1
10
78.3820209524643
20
-16.3420038434188
30
0
41
1
10
78.1308951337473
20
-16.274714883095
30
0
0
SPLINE
5
1D1
100
AcDbEntity
8
1
62
256
6
ByLayer
370
18
48
1
60
0
100
AcDbSpline
70
4
71
3
72
18
73
14
40
0
40
0
40
0
40
0
40
0.125000000000023
40
0.125000000000023
40
0.250000000000047
40
0.250000000000047
40
0.37500000000007
40
0.37500000000007
40
0.500000000000093
40
0.500000000000093
40
0.750000000000047
40
0.750000000000047
40
1
40
1
40
1
40
1
41
1
10
78.8779041929503
20
-16.4748753572475
30
0
41
1
10
78.8846295500644
20
-16.4766774112556
30
0
41
1
10
78.8924101877274
20
-16.4783080201224
30
0
41
1
10
78.9117263554752
20
-16.4801183422725
30
0
41
1
10
78.9235199405986
20
-16.4799962262302
30
0
41
1
10
78.9437560050539
20
-16.4774898190447
30
0
41
1
10
78.9518637532618
20
-16.4754814393159
30
0
41
1
10
78.9656213551352
20
-16.4712359964375
30
0
41
1
10
78.9714085272092
20
-16.4689173806133
30
0
41
1
10
78.9867163725961
20
-16.46190299004
30
0
41
1
10
78.9945088274249
20
-16.4570369813761
30
0
41
1
10
79.0081678545886
20
-16.4471431202903
30
0
41
1
10
79.0138931781823
20
-16.4421239621023
30
0
41
1
10
79.0189293636168
20
-16.437087776667
30
0
0
SPLINE
5
1D2
100
AcDbEntity
8
1
62
256
6
ByLayer
370
18
48
1
60
0
100
AcDbSpline
70
4
71
3
72
12
73
8
40
0
40
0
40
0
40
0
40
0.250000000000001
40
0.250000000000001
40
0.500000000000002
40
0.500000000000002
40
1
40
1
40
1
40
1
41
1
10
79.1647051164508
20
-16.2913120238151
30
0
41
1
10
79.1763018736806
20
-16.2797152665854
30
0
41
1
10
79.1843370010039
20
-16.2680438055555
30
0
41
1
10
79.1967389099202
20
-16.2445869192407
30
0
41
1
10
79.2009822720138
20
-16.2327798808523
30
0
41
1
10
79.2091758356404
20
-16.1973491497112
30
0
41
1
10
79.208788275971
20
-16.173782273626
30
0
41
1
10
79.2024926970358
20
-16.1502868531769
30
0
0
SPLINE
5
1D3
100
AcDbEntity
8
1
62
256
6
ByLayer
370
18
48
1
60
0
100
AcDbSpline
70
4
71
3
72
8
73
4
40
0
40
0
40
0
40
0
40
1
40
1
40
1
40
1
41
1
10
79.0023322228743
20
-15.4032777939391
30
0
41
1
10
79.07277161004
20
-15.6661611656954
30
0
41
1
10
79.1395426280209
20
-15.9153539972734
30
0
41
1
10
79.2024926970358
20
-16.1502868531769
30
0
0
SPLINE
5
1D4
100
AcDbEntity
8
1
62
256
6
ByLayer
370
18
48
1
60
0
100
AcDbSpline
70
4
71
3
72
26
73
22
40
0
40
0
40
0
40
0
40
0.250000000000014
40
0.250000000000014
40
0.500000000000028
40
0.500000000000028
40
0.625000000000043
40
0.625000000000043
40
0.750000000000058
40
0.750000000000058
40
0.812500000000048
40
0.812500000000048
40
0.875000000000038
40
0.875000000000038
40
0.906250000000029
40
0.906250000000029
40
0.937500000000019
40
0.937500000000019
40
0.96875000000001
40
0.96875000000001
40
1
40
1
40
1
40
1
41
1
10
79.0023322228742
20
-15.4032777939391
30
0
41
1
10
78.9976255482551
20
-15.3857122451261
30
0
41
1
10
78.9960904475276
20
-15.3679541288273
30
0
41
1
10
78.9991901760487
20
-15.3320489587062
30
0
41
1
10
79.0038076466638
20
-15.313851185556
30
0
41
1
10
79.0170449542444
20
-15.2866376603727
30
0
41
1
10
79.0225195271733
20
-15.2775668094739
30
0
41
1
10
79.0366010257911
20
-15.2594412985906
30
0
41
1
10
79.0450853687006
20
-15.2503847018324
30
0
41
1
10
79.0624798974163
20
-15.2368482467415
30
0
41
1
10
79.0690924155001
20
-15.2323406413345
30
0
41
1
10
79.0847276797733
20
-15.223710931314
30
0
41
1
10
79.0936721876264
20
-15.2195021028088
30
0
41
1
10
79.1115985210412
20
-15.2139186359232
30
0
41
1
10
79.1183051264655
20
-15.2122223837375
30
0
41
1
10
79.1332782918342
20
-15.2096888227787
30
0
41
1
10
79.1416316306726
20
-15.2088938500848
30
0
41
1
10
79.1579676948934
20
-15.2087068876844
30
0
41
1
10
79.1659138945638
20
-15.2092978364383
30
0
41
1
10
79.1798121234912
20
-15.2112319354213
30
0
41
1
10
79.1859599900452
20
-15.2125554510504
30
0
41
1
10
79.1915553055044
20
-15.2140547113091
30
0
0
SPLINE
5
1D5
100
AcDbEntity
8
1
62
256
6
ByLayer
370
18
48
1
60
0
100
AcDbSpline
70
4
71
3
72
8
73
4
40
0
40
0
40
0
40
0
40
1
40
1
40
1
40
1
41
1
10
79.9385643647423
20
-15.4142151854706
30
0
41
1
10
79.6906920278442
20
-15.3477979929727
30
0
41
1
10
79.4416616602421
20
-15.2810705070829
30
0
41
1
10
79.1915553055044
20
-15.214054711309
30
0
0
SPLINE
5
1D6
100
AcDbEntity
8
1
62
256
6
ByLayer
370
18
48
1
60
0
100
AcDbSpline
70
4
71
3
72
18
73
14
40
0
40
0
40
0
40
0
40
0.125000000000023
40
0.125000000000023
40
0.250000000000046
40
0.250000000000046
40
0.375000000000069
40
0.375000000000069
40
0.500000000000093
40
0.500000000000093
40
0.750000000000046
40
0.750000000000046
40
1
40
1
40
1
40
1
41
1
10
79.9385643647421
20
-15.4142151854706
30
0
41
1
10
79.945061423405
20
-15.4159560670924
30
0
41
1
10
79.9523308576891
20
-15.4174592843504
30
0
41
1
10
79.9695123738468
20
-15.4192853776627
30
0
41
1
10
79.9793409791396
20
-15.4194776091729
30
0
41
1
10
79.9985558020655
20
-15.417813606708
30
0
41
1
10
80.0071890943896
20
-15.4161015029369
30
0
41
1
10
80.0219680524214
20
-15.4120921169335
30
0
41
1
10
80.0282736727222
20
-15.4097802126275
30
0
41
1
10
80.0449902359826
20
-15.4026186696719
30
0
41
1
10
80.0535680096457
20
-15.3974242806547
30
0
41
1
10
80.0681964456891
20
-15.387036671114
30
0
41
1
10
80.0742589182163
20
-15.3817582220496
30
0
41
1
10
80.0795895353795
20
-15.3764276048864
30
0
0
SPLINE
5
1D7
100
AcDbEntity
8
1
62
256
6
ByLayer
370
18
48
1
60
0
100
AcDbSpline
70
4
71
3
72
12
73
8
40
0
40
0
40
0
40
0
40
0.249999999999997
40
0.249999999999997
40
0.499999999999993
40
0.499999999999993
40
1
40
1
40
1
40
1
41
1
10
80.2253652882306
20
-15.2306518520353
30
0
41
1
10
80.2370076846265
20
-15.2190094556394
30
0
41
1
10
80.2450575236271
20
-15.2072961332603
30
0
41
1
10
80.2574671009776
20
-15.1837711727713
30
0
41
1
10
80.2617007472179
20
-15.1719456678626
30
0
41
1
10
80.2698630608166
20
-15.136413769659
30
0
41
1
10
80.2693941280259
20
-15.1129193778728
30
0
41
1
10
80.2631528688157
20
-15.0896266813971
30
0
0
SPLINE
5
1D8
100
AcDbEntity
8
1
62
256
6
ByLayer
370
18
48
1
60
0
100
AcDbSpline
70
4
71
3
72
8
73
4
40
0
40
0
40
0
40
0
40
1
40
1
40
1
40
1
41
1
10
80.0629923946541
20
-14.3426176221592
30
0
41
1
10
80.1323586150713
20
-14.6014958810853
30
0
41
1
10
80.1991143699341
20
-14.8506317499308
30
0
41
1
10
80.2631528688156
20
-15.0896266813971
30
0
0
SPLINE
5
1D9
100
AcDbEntity
8
1
62
256
6
ByLayer
370
18
48
1
60
0
100
AcDbSpline
70
4
71
3
72
22
73
18
40
0
40
0
40
0
40
0
40
0.250000000000017
40
0.250000000000017
40
0.500000000000034
40
0.500000000000034
40
0.625000000000047
40
0.625000000000047
40
0.750000000000061
40
0.750000000000061
40
0.812500000000046
40
0.812500000000046
40
0.87500000000003
40
0.87500000000003
40
0.937500000000015
40
0.937500000000015
40
1
40
1
40
1
40
1
41
1
10
80.0629923946539
20
-14.3426176221592
30
0
41
1
10
80.0582027444806
20
-14.3247424043618
30
0
41
1
10
80.0566914053442
20
-14.3066582511824
30
0
41
1
10
80.0600847238747
20
-14.2700681152206
30
0
41
1
10
80.0649578574816
20
-14.2514766120409
30
0
41
1
10
80.0790822898008
20
-14.2235654672134
30
0
41
1
10
80.0849294963871
20
-14.2142577864914
30
0
41
1
10
80.1001190513083
20
-14.195643384862
30
0
41
1
10
80.1092759846995
20
-14.1864068252877
30
0
41
1
10
80.1279819798458
20
-14.1728917129818
30
0
41
1
10
80.1350385916497
20
-14.168460651538
30
0
41
1
10
80.1519733321543
20
-14.1600502318603
30
0
41
1
10
80.161814323597
20
-14.1560390559704
30
0
41
1
10
80.1863453669298
20
-14.1497884848576
30
0
41
1
10
80.2014336394863
20
-14.1478649477954
30
0
41
1
10
80.2296061607034
20
-14.1484653621733
30
0
41
1
10
80.241927502481
20
-14.1506378849887
30
0
41
1
10
80.2522154772853
20
-14.1533945395294
30
0
0
SPLINE
5
1DA
100
AcDbEntity
8
1
62
256
6
ByLayer
370
18
48
1
60
0
100
AcDbSpline
70
4
71
3
72
8
73
4
40
0
40
0
40
0
40
0
40
1
40
1
40
1
40
1
41
1
10
80.9992245365222
20
-14.3535550136908
30
0
41
1
10
80.7508842389707
20
-14.2870124315137
30
0
41
1
10
80.501867121568
20
-14.2202884960041
30
0
41
1
10
80.2522154772851
20
-14.1533945395295
30
0
0
SPLINE
5
1DB
100
AcDbEntity
8
1
62
256
6
ByLayer
370
18
48
1
60
0
100
AcDbSpline
70
4
71
3
72
18
73
14
40
0
40
0
40
0
40
0
40
0.125000000000007
40
0.125000000000007
40
0.250000000000014
40
0.250000000000014
40
0.37500000000002
40
0.37500000000002
40
0.500000000000027
40
0.500000000000027
40
0.750000000000014
40
0.750000000000014
40
1
40
1
40
1
40
1
41
1
10
80.9992245364934
20
-14.3535550136984
30
0
41
1
10
81.0054990105755
20
-14.3552362539629
30
0
41
1
10
81.0124735537251
20
-14.3566748903215
30
0
41
1
10
81.0283618867154
20
-14.3584925412298
30
0
41
1
10
81.0372974457198
20
-14.358798398706
30
0
41
1
10
81.054990878425
20
-14.3576895341752
30
0
41
1
10
81.0637201472528
20
-14.3562825208814
30
0
41
1
10
81.0790442360106
20
-14.3525707379287
30
0
41
1
10
81.0856351455935
20
-14.3503461006073
30
0
41
1
10
81.1035632963076
20
-14.3431170534882
30
0
41
1
10
81.1125703577833
20
-14.3378240961777
30
0
41
1
10
81.1282883308032
20
-14.3268817141068
30
0
41
1
10
81.1346731724536
20
-14.3213439678123
30
0
41
1
10
81.1402497071601
20
-14.3157674331058
30
0
0
SPLINE
5
1DC
100
AcDbEntity
8
1
62
256
6
ByLayer
370
18
48
1
60
0
100
AcDbSpline
70
4
71
3
72
12
73
8
40
0
40
0
40
0
40
0
40
0.250000000000007
40
0.250000000000007
40
0.500000000000014
40
0.500000000000014
40
1
40
1
40
1
40
1
41
1
10
81.2860254600104
20
-14.1699916802555
30
0
41
1
10
81.2976835357746
20
-14.1583336044914
30
0
41
1
10
81.3058985160339
20
-14.1463696978497
30
0
41
1
10
81.3183146407918
20
-14.1226769884249
30
0
41
1
10
81.3224806701697
20
-14.1108830236821
30
0
41
1
10
81.3305019485587
20
-14.0756037109847
30
0
41
1
10
81.3300424072073
20
-14.0522148223109
30
0
41
1
10
81.3238130405956
20
-14.0289665096173
30
0
0
SPLINE
5
1DD
100
AcDbEntity
8
1
62
256
6
ByLayer
370
18
48
1
60
0
100
AcDbSpline
70
4
71
3
72
8
73
4
40
0
40
0
40
0
40
0
40
1
40
1
40
1
40
1
41
1
10
81.1236525664339
20
-13.2819574503794
30
0
41
1
10
81.1923945814309
20
-13.5385061429627
30
0
41
1
10
81.2591415101303
20
-13.7876090721182
30
0
41
1
10
81.3238130405954
20
-14.0289665096173
30
0
0
SPLINE
5
1DE
100
AcDbEntity
8
1
62
256
6
ByLayer
370
18
48
1
60
0
100
AcDbSpline
70
4
71
3
72
22
73
18
40
0
40
0
40
0
40
0
40
0.250000000000007
40
0.250000000000007
40
0.500000000000013
40
0.500000000000013
40
0.625000000000016
40
0.625000000000016
40
0.75000000000002
40
0.75000000000002
40
0.812500000000015
40
0.812500000000015
40
0.87500000000001
40
0.87500000000001
40
0.937500000000005
40
0.937500000000005
40
1
40
1
40
1
40
1
41
1
10
81.1236525664337
20
-13.2819574503794
30
0
41
1
10
81.1188032745148
20
-13.2638596465572
30
0
41
1
10
81.1173089516458
20
-13.2455371995122
30
0
41
1
10
81.1209235447275
20
-13.2084382667272
30
0
41
1
10
81.1259830433166
20
-13.1895671832185
30
0
41
1
10
81.140792249884
20
-13.1611295842271
30
0
41
1
10
81.1469206745517
20
-13.1516633409281
30
0
41
1
10
81.1628828306901
20
-13.1327824120659
30
0
41
1
10
81.1725195676332
20
-13.1234412270537
30
0
41
1
10
81.1921958181349
20
-13.1099768587275
30
0
41
1
10
81.1996866180996
20
-13.105560157576
30
0
41
1
10
81.2174888269443
20
-13.0974119689433
30
0
41
1
10
81.2278510518644
20
-13.093652678897
30
0
41
1
10
81.2522673944524
20
-13.0883433380998
30
0
41
1
10
81.2662714658677
20
-13.0870807907173
30
0
41
1
10
81.2918765737177
20
-13.0881067977256
30
0
41
1
10
81.3031541966754
20
-13.0901295124319
30
0
41
1
10
81.3128756490649
20
-13.0927343677489
30
0
0
SPLINE
5
1DF
100
AcDbEntity
8
1
62
256
6
ByLayer
370
18
48
1
60
0
100
AcDbSpline
70
4
71
3
72
8
73
4
40
0
40
0
40
0
40
0
40
1
40
1
40
1
40
1
41
1
10
82.0598847083019
20
-13.2928948419109
30
0
41
1
10
81.8112950157011
20
-13.2262854345318
30
0
41
1
10
81.5622840730603
20
-13.1595631535447
30
0
41
1
10
81.312875649064
20
-13.0927343677494
30
0
0
SPLINE
5
1E0
100
AcDbEntity
8
1
62
256
6
ByLayer
370
18
48
1
60
0
100
AcDbSpline
70
4
71
3
72
14
73
10
40
0
40
0
40
0
40
0
40
0.25
40
0.25
40
0.5
40
0.5
40
0.75
40
0.75
40
1
40
1
40
1
40
1
41
1
10
82.0598847083018
20
-13.292894841911
30
0
41
1
10
82.0720879767456
20
-13.2961646978355
30
0
41
1
10
82.0874221009267
20
-13.298493914334
30
0
41
1
10
82.12131192305
20
-13.2969382850496
30
0
41
1
10
82.1373343418457
20
-13.2930029128486
30
0
41
1
10
82.1621010192794
20
-13.2835534175082
30
0
41
1
10
82.1718390630386
20
-13.278021177136
30
0
41
1
10
82.1882613784892
20
-13.2667980388094
30
0
41
1
10
82.195010962149
20
-13.2610061781169
30
0
41
1
10
82.2009098789399
20
-13.255107261326
30
0
0
SPLINE
5
1E1
100
AcDbEntity
8
1
62
256
6
ByLayer
370
18
48
1
60
0
100
AcDbSpline
70
4
71
3
72
12
73
8
40
0
40
0
40
0
40
0
40
0.250000000000007
40
0.250000000000007
40
0.500000000000014
40
0.500000000000014
40
1
40
1
40
1
40
1
41
1
10
82.3466856317903
20
-13.1093315084757
30
0
41
1
10
82.3583260264295
20
-13.0976911138365
30
0
41
1
10
82.3664970209334
20
-13.0858220105965
30
0
41
1
10
82.3790122724485
20
-13.0619505144034
30
0
41
1
10
82.3831805597435
20
-13.0501036011678
30
0
41
1
10
82.3911818419379
20
-13.01474489139
30
0
41
1
10
82.3906630562468
20
-12.9914071496564
30
0
41
1
10
82.3844732123754
20
-12.9683063378375
30
0
0
SPLINE
5
1E2
100
AcDbEntity
8
1
62
256
6
ByLayer
370
18
48
1
60
0
100
AcDbSpline
70
4
71
3
72
8
73
4
40
0
40
0
40
0
40
0
40
1
40
1
40
1
40
1
41
1
10
82.1843127382137
20
-12.2212972785996
30
0
41
1
10
82.2526474146044
20
-12.4763257628084
30
0
41
1
10
82.319388622356
20
-12.7254073410959
30
0
41
1
10
82.3844732123752
20
-12.9683063378374
30
0
0
SPLINE
5
1E3
100
AcDbEntity
8
1
62
256
6
ByLayer
370
18
48
1
60
0
100
AcDbSpline
70
4
71
3
72
8
73
4
40
0
40
0
40
0
40
0
40
1
40
1
40
1
40
1
41
1
10
82.1843127382135
20
-12.2212972785996
30
0
41
1
10
82.1782495494725
20
-12.1986691501624
30
0
41
1
10
82.1773284203684
20
-12.1756829660662
30
0
41
1
10
82.1817935849436
20
-12.1523138222565
30
0
0
SPLINE
5
1E4
100
AcDbEntity
8
1
62
256
6
ByLayer
370
18
48
1
60
0
100
AcDbSpline
70
4
71
3
72
10
73
6
40
0
40
0
40
0
40
0
40
0.5
40
0.5
40
1
40
1
40
1
40
1
41
1
10
83.1205448801176
20
-12.2322346701408
30
0
41
1
10
83.1278345112011
20
-12.2341879209007
30
0
41
1
10
83.1358116397487
20
-12.235743530065
30
0
41
1
10
83.1537642325023
20
-12.2374162184209
30
0
41
1
10
83.1636010717658
20
-12.2374358324266
30
0
41
1
10
83.173240556764
20
-12.2364463703995
30
0
0
SPLINE
5
1E5
100
AcDbEntity
8
1
62
256
6
ByLayer
370
18
48
1
60
0
100
AcDbSpline
70
4
71
3
72
8
73
4
40
0
40
0
40
0
40
0
40
1
40
1
40
1
40
1
41
1
10
83.1205448801195
20
-12.2322346701412
30
0
41
1
10
83.1200715867541
20
-12.2321078515662
30
0
41
1
10
83.1195982923991
20
-12.231981032726
30
0
41
1
10
83.1191249970545
20
-12.2318542136206
30
0
0
SPLINE
5
1E6
100
AcDbEntity
8
1
62
256
6
ByLayer
370
18
48
1
60
0
100
AcDbSpline
70
4
71
3
72
8
73
4
40
0
40
0
40
0
40
0
40
1
40
1
40
1
40
1
41
1
10
97.2379273175612
20
1.82824039039772
30
0
41
1
10
97.2399369965046
20
1.84781897906312
30
0
41
1
10
97.2375808763967
20
1.86651072381592
30
0
41
1
10
97.2337156173076
20
1.88093606711063
30
0
0
SPLINE
5
1E7
100
AcDbEntity
8
1
62
256
6
ByLayer
370
18
48
1
60
0
100
AcDbSpline
70
4
71
3
72
8
73
4
40
0
40
0
40
0
40
0
40
1
40
1
40
1
40
1
41
1
10
97.2333351607823
20
1.88235595010726
30
0
41
1
10
97.2334619798842
20
1.88188265477533
30
0
41
1
10
97.233588798721
20
1.88140936043294
30
0
41
1
10
97.2337156172927
20
1.8809360670801
30
0
0
SPLINE
5
1E8
100
AcDbEntity
8
1
62
256
6
ByLayer
370
18
48
0.05
60
1
100
AcDbSpline
70
4
71
3
72
26
73
22
40
0
40
0
40
0
40
0
40
0.0078124999999997
40
0.0078124999999997
40
0.0156249999999993
40
0.0312499999999991
40
0.0624999999999991
40
0.0624999999999991
40
0.124999999999999
40
0.124999999999999
40
0.25
40
0.25
40
0.375
40
0.375
40
0.4375
40
0.4375
40
0.500000000000001
40
0.500000000000001
40
0.75
40
0.75
40
1
40
1
40
1
40
1
41
1
10
59.5967477524977
20
9.4E-15
30
0
41
1
10
59.634645611269
20
-0.0537294915571861
30
0
41
1
10
59.6731287905025
20
-0.10828881032587
30
0
41
1
10
59.7498017142901
20
-0.21699187203881
30
0
41
1
10
59.8647989878569
20
-0.380029941219327
30
0
41
1
10
60.1330390750801
20
-0.760338010078521
30
0
41
1
10
60.3628030058679
20
-1.08612613217822
30
0
41
1
10
60.822103399137
20
-1.73746286309313
30
0
41
1
10
61.1280004287031
20
-2.17136804770969
30
0
41
1
10
62.0446259808906
20
-3.47223652031554
30
0
41
1
10
62.6542906922019
20
-4.33835296237747
30
0
41
1
10
63.8699202847797
20
-6.06890558049427
30
0
41
1
10
64.4758863391872
20
-6.93334102786737
30
0
41
1
10
65.3813639205772
20
-8.22916737811768
30
0
41
1
10
65.682610549546
20
-8.66097176731603
30
0
41
1
10
66.2838194332615
20
-9.52437940968268
30
0
41
1
10
66.5835955357491
20
-9.95571703542258
30
0
41
1
10
68.0739720230271
20
-12.1049145234613
30
0
41
1
10
69.2428807079121
20
-13.8056562984284
30
0
41
1
10
71.5247927635851
20
-17.1739356012698
30
0
41
1
10
72.6378714166232
20
-18.8414544852359
30
0
41
1
10
73.7164055778738
20
-20.4939694560096
30
0
0
SPLINE
5
1E9
100
AcDbEntity
8
1
62
256
6
ByLayer
370
18
48
0.05
60
1
100
AcDbSpline
70
4
71
3
72
18
73
14
40
0
40
0
40
0
40
0
40
0.25
40
0.25
40
0.5
40
0.5
40
0.75
40
0.75
40
0.875
40
0.875
40
0.9375
40
0.9375
40
1
40
1
40
1
40
1
41
1
10
45.4259670766131
20
8.04178322557102
30
0
41
1
10
45.3975725204314
20
7.3711921844334
30
0
41
1
10
45.3571709418912
20
6.70109182987772
30
0
41
1
10
45.2671730753787
20
5.36157920467836
30
0
41
1
10
45.2174287423351
20
4.69208795075158
30
0
41
1
10
45.124115046138
20
3.35276053427122
30
0
41
1
10
45.0806128824088
20
2.68292061823195
30
0
41
1
10
45.0338260294669
20
1.67712928681455
30
0
41
1
10
45.0213313208441
20
1.3416923055477
30
0
41
1
10
45.0086334026195
20
0.838199232381505
30
0
41
1
10
45.0054026166252
20
0.670312248548218
30
0
41
1
10
45.0010821353383
20
0.334418688289776
30
0
41
1
10
45
20
0.167370224800889
30
0
41
1
10
45
20
1E-16
30
0
0
SPLINE
5
1EA
100
AcDbEntity
8
1
62
256
6
ByLayer
370
18
48
0.05
60
1
100
AcDbSpline
70
4
71
3
72
30
73
26
40
0
40
0
40
0
40
0
40
0.125000000000002
40
0.125000000000002
40
0.187500000000003
40
0.187500000000003
40
0.218750000000004
40
0.218750000000004
40
0.250000000000004
40
0.250000000000004
40
0.375000000000006
40
0.375000000000006
40
0.500000000000007
40
0.500000000000007
40
0.531250000000007
40
0.531250000000007
40
0.562500000000008
40
0.562500000000008
40
0.625000000000007
40
0.625000000000007
40
0.750000000000005
40
0.750000000000005
40
0.875000000000002
40
0.875000000000002
40
1
40
1
40
1
40
1
41
1
10
59.5967477524977
20
43.75
30
0
41
1
10
60.4919919639747
20
43.75
30
0
41
1
10
61.3735555628865
20
43.8150157792084
30
0
41
1
10
62.6770982262645
20
44.0011321685174
30
0
41
1
10
63.108475270191
20
44.0779369383585
30
0
41
1
10
63.7510195920424
20
44.2141961050815
30
0
41
1
10
63.9644472822114
20
44.2631247136961
30
0
41
1
10
64.3898233405917
20
44.3678202614859
30
0
41
1
10
64.6022004058364
20
44.4237108738263
30
0
41
1
10
65.6544815970245
20
44.7181102659192
30
0
41
1
10
66.4641624031348
20
45.0004238344329
30
0
41
1
10
68.0306951931844
20
45.6381121292528
30
0
41
1
10
68.7874962110016
20
45.9935592674124
30
0
41
1
10
69.7051672460221
20
46.4743102817016
30
0
41
1
10
69.8872774073642
20
46.572293613321
30
0
41
1
10
70.2487402322867
20
46.7717348721442
30
0
41
1
10
70.4279486001505
20
46.8731201210707
30
0
41
1
10
70.9588308361128
20
47.1805764218471
30
0
41
1
10
71.3046982591572
20
47.3904447265602
30
0
41
1
10
72.320302193809
20
48.0325015085512
30
0
41
1
10
72.9681563562693
20
48.4770474966677
30
0
41
1
10
74.213442488583
20
49.3901247583854
30
0
41
1
10
74.8108326118932
20
49.8586949564479
30
0
41
1
10
75.9598265162369
20
50.8134834205683
30
0
41
1
10
76.511409945827
20
51.2997240063967
30
0
41
1
10
77.0412497046237
20
51.7924624620219
30
0
0
SPLINE
5
1EB
100
AcDbEntity
8
1
62
256
6
ByLayer
370
18
48
0.05
60
1
100
AcDbSpline
70
4
71
3
72
10
73
6
40
0
40
0
40
0
40
0
40
0.5
40
0.5
40
1
40
1
40
1
40
1
41
1
10
46.5988485509473
20
20.3159814172705
30
0
41
1
10
47.1433944260748
20
23.1337041173444
30
0
41
1
10
47.7165406361017
20
25.9454137814377
30
0
41
1
10
48.9023799046171
20
31.560518639757
30
0
41
1
10
49.5151536982163
20
34.3638968599467
30
0
41
1
10
50.1419305959529
20
37.1643310177918
30
0
0
SPLINE
5
1EC
100
AcDbEntity
8
1
62
256
6
ByLayer
370
18
48
0.05
60
1
100
AcDbSpline
70
2053
71
3
72
46
73
42
40
0
40
0
40
0
40
0
40
0.0624999999999998
40
0.0624999999999998
40
0.125
40
0.187499999999999
40
0.187499999999999
40
0.249999999999999
40
0.249999999999999
40
0.265624999999999
40
0.265624999999999
40
0.281249999999999
40
0.312499999999999
40
0.312499999999999
40
0.374999999999999
40
0.374999999999999
40
0.437499999999999
40
0.437499999999999
40
0.499999999999999
40
0.499999999999999
40
0.531249999999999
40
0.531249999999999
40
0.546874999999999
40
0.546874999999999
40
0.562499999999999
40
0.562499999999999
40
0.624999999999999
40
0.624999999999999
40
0.687499999999999
40
0.749999999999999
40
0.749999999999999
40
0.812499999999999
40
0.812499999999999
40
0.843749999999999
40
0.843749999999999
40
0.859374999999999
40
0.859374999999999
40
0.874999999999999
40
0.874999999999999
40
0.937499999999999
40
1
40
1
40
1
40
1
41
1
10
52.5485112593987
20
68.2499999999997
30
0
41
1
10
52.5731040964226
20
69.0202330733881
30
0
41
1
10
52.5961427665159
20
69.7433617889527
30
0
41
1
10
52.6392154451262
20
71.0975594835151
30
0
41
1
10
52.6792831441266
20
72.3596901807283
30
0
41
1
10
52.7134457633228
20
73.439119723775
30
0
41
1
10
52.7446598327998
20
74.4265373090349
30
0
41
1
10
52.7587927006696
20
74.8742436380922
30
0
41
1
10
52.7745878188381
20
75.3750675392985
30
0
41
1
10
52.7776502307084
20
75.472195077716
30
0
41
1
10
52.7835664914619
20
75.6598795402608
30
0
41
1
10
52.7921355958715
20
75.9317901088104
30
0
41
1
10
52.7997975918704
20
76.1750879836522
30
0
41
1
10
52.8139303307656
20
76.6240159152406
30
0
41
1
10
52.8217654553759
20
76.8731244179459
30
0
41
1
10
52.8343182213617
20
77.2723786581242
30
0
41
1
10
52.8390357983546
20
77.4225227938879
30
0
41
1
10
52.8453574810814
20
77.6237465115168
30
0
41
1
10
52.8469616521676
20
77.6748281982198
30
0
41
1
10
52.8469971649284
20
77.6759588910678
30
0
41
1
10
52.8466134693285
20
77.6637419688602
30
0
41
1
10
52.8454363039693
20
77.6262645032193
30
0
41
1
10
52.8449436174642
20
77.61057919608
30
0
41
1
10
52.8437559177589
20
77.572769406138
30
0
41
1
10
52.8430608958392
20
77.5506446503148
30
0
41
1
10
52.8390942737431
20
77.4243837201469
30
0
41
1
10
52.834341700415
20
77.2731254843571
30
0
41
1
10
52.8217510345821
20
76.8726656994456
30
0
41
1
10
52.8060745764331
20
76.3742542751431
30
0
41
1
10
52.7842672313655
20
75.6819861497564
30
0
41
1
10
52.7593643865534
20
74.8923621158047
30
0
41
1
10
52.7453653337184
20
74.4488750651073
30
0
41
1
10
52.7219837275936
20
73.7091980406355
30
0
41
1
10
52.7137922715303
20
73.450219465007
30
0
41
1
10
52.7008970344127
20
73.0428305780775
30
0
41
1
10
52.6964969178644
20
72.9038695528409
30
0
41
1
10
52.6875199065914
20
72.6204721362701
30
0
41
1
10
52.6829397804184
20
72.4759336301365
30
0
41
1
10
52.6595815876706
20
71.7390920334068
30
0
41
1
10
52.6192837872776
20
70.4696983213324
30
0
41
1
10
52.5731041174432
20
69.0202337317416
30
0
41
1
10
52.5485112593987
20
68.2499999999997
30
0
0
SPLINE
5
1ED
100
AcDbEntity
8
1
62
256
6
ByLayer
370
18
48
1
60
0
100
AcDbSpline
70
4
71
3
72
10
73
6
40
0
40
0
40
0
40
0
40
0.312322774025291
40
0.312322774025291
40
1
40
1
40
1
40
1
41
1
10
18.0850618793412
20
35.9069642984473
30
0
41
1
10
17.9488948160308
20
36.2200555590839
30
0
41
1
10
17.8120803774926
20
36.5328644470961
30
0
41
1
10
17.3720560956874
20
37.5335547196825
30
0
41
1
10
17.0664818191815
20
38.2203959318764
30
0
41
1
10
16.7582401178414
20
38.9060436875042
30
0
0
SPLINE
5
1EE
100
AcDbEntity
8
1
62
256
6
ByLayer
370
18
48
1
60
0
100
AcDbSpline
70
4
71
3
72
8
73
4
40
0
40
0
40
0
40
0
40
1
40
1
40
1
40
1
41
1
10
18.0850618793412
20
34.1733734306669
30
0
41
1
10
18.11886902393
20
33.9506265973154
30
0
41
1
10
18.1677997187184
20
33.6285508236283
30
0
41
1
10
18.4850618793412
20
33.6285508236283
30
0
0
SPLINE
5
1EF
100
AcDbEntity
8
1
62
256
6
ByLayer
370
18
48
1
60
0
100
AcDbSpline
70
4
71
3
72
9
73
5
40
0
40
0
40
0
40
0
40
0.514957974732352
40
1
40
1
40
1
40
1
41
1
10
21.5150618793415
20
33.6285508233936
30
0
41
1
10
20.9949543248618
20
33.6285508233936
30
0
41
1
10
19.9849543248616
20
33.6285508234013
30
0
41
1
10
18.9749543248615
20
33.6285508233936
30
0
41
1
10
18.4850618793412
20
33.6285508233936
30
0
0
SPLINE
5
1F0
100
AcDbEntity
8
1
62
256
6
ByLayer
370
18
48
1
60
0
100
AcDbSpline
70
4
71
3
72
8
73
4
40
0
40
0
40
0
40
0
40
1
40
1
40
1
40
1
41
1
10
21.9150618793412
20
34.1733734306669
30
0
41
1
10
21.8812547347524
20
33.9506265973154
30
0
41
1
10
21.8323240399639
20
33.6285508236283
30
0
41
1
10
21.5150618793412
20
33.6285508236283
30
0
0
SPLINE
5
1F1
100
AcDbEntity
8
1
62
256
6
ByLayer
370
18
48
1
60
0
100
AcDbSpline
70
4
71
3
72
10
73
6
40
0
40
0
40
0
40
0
40
0.312322774025291
40
0.312322774025291
40
1
40
1
40
1
40
1
41
1
10
21.9150618793412
20
35.9069642984473
30
0
41
1
10
22.0512289426516
20
36.2200555590839
30
0
41
1
10
22.1880433811897
20
36.5328644470961
30
0
41
1
10
22.6280676629949
20
37.5335547196825
30
0
41
1
10
22.9336419395008
20
38.2203959318764
30
0
41
1
10
23.2418836408409
20
38.9060436875042
30
0
0
SPLINE
5
1F2
100
AcDbEntity
8
1
62
256
6
ByLayer
370
18
48
0.05
60
1
100
AcDbSpline
70
4
71
3
72
46
73
42
40
0
40
0
40
0
40
0
40
0.226463582827752
40
0.278032677305903
40
0.278032677305903
40
0.29092495092544
40
0.29092495092544
40
0.303817224544978
40
0.303817224544978
40
0.329601771784053
40
0.329601771784053
40
0.381170866262202
40
0.381170866262202
40
0.432739960740352
40
0.484309055218502
40
0.484309055218502
40
0.535878149696652
40
0.535878149696652
40
0.548770423316189
40
0.548770423316189
40
0.561662696935727
40
0.561662696935727
40
0.587447244174802
40
0.587447244174802
40
0.639016338652952
40
0.639016338652952
40
0.690585433131102
40
0.690585433131102
40
0.742154527609251
40
0.742154527609251
40
0.767939074848326
40
0.780831348467864
40
0.780831348467864
40
0.793723622087401
40
0.793723622087401
40
0.845292716565551
40
0.845292716565551
40
0.896861811043701
40
0.94843090552185
40
0.94843090552185
40
1
40
1
40
1
40
1
41
1
10
52.2451609691362
20
58.8244095502729
30
0
41
1
10
52.3995743331641
20
63.5866398209396
30
0
41
1
10
52.5509496110364
20
68.3171497257631
30
0
41
1
10
52.6595815876706
20
71.7390920334068
30
0
41
1
10
52.6829397804184
20
72.4759336301365
30
0
41
1
10
52.6875199065914
20
72.6204721362701
30
0
41
1
10
52.6964969178644
20
72.9038695528409
30
0
41
1
10
52.7008970344127
20
73.0428305780775
30
0
41
1
10
52.7137922715303
20
73.450219465007
30
0
41
1
10
52.7219837275936
20
73.7091980406355
30
0
41
1
10
52.7453653337184
20
74.4488750651073
30
0
41
1
10
52.7593643865534
20
74.8923621158047
30
0
41
1
10
52.7842672313655
20
75.6819861497564
30
0
41
1
10
52.8060745764331
20
76.3742542751431
30
0
41
1
10
52.8217510345821
20
76.8726656994456
30
0
41
1
10
52.834341700415
20
77.2731254843571
30
0
41
1
10
52.8390942737431
20
77.4243837201469
30
0
41
1
10
52.8430608958392
20
77.5506446503148
30
0
41
1
10
52.8437559177589
20
77.572769406138
30
0
41
1
10
52.8449436174642
20
77.61057919608
30
0
41
1
10
52.8454363039693
20
77.6262645032193
30
0
41
1
10
52.8466134693285
20
77.6637419688602
30
0
41
1
10
52.8469971649284
20
77.6759588910678
30
0
41
1
10
52.8469616521676
20
77.6748281982198
30
0
41
1
10
52.8453574810814
20
77.6237465115168
30
0
41
1
10
52.8390357983546
20
77.4225227938879
30
0
41
1
10
52.8343182213617
20
77.2723786581242
30
0
41
1
10
52.8217654553759
20
76.8731244179459
30
0
41
1
10
52.8139303307656
20
76.6240159152406
30
0
41
1
10
52.7997975918704
20
76.1750879836522
30
0
41
1
10
52.7921355958715
20
75.9317901088104
30
0
41
1
10
52.7835664914619
20
75.6598795402608
30
0
41
1
10
52.7776502307084
20
75.472195077716
30
0
41
1
10
52.7745878188381
20
75.3750675392985
30
0
41
1
10
52.7587927006696
20
74.8742436380922
30
0
41
1
10
52.7446598327998
20
74.4265373090349
30
0
41
1
10
52.7134457633228
20
73.439119723775
30
0
41
1
10
52.6792831441266
20
72.3596901807283
30
0
41
1
10
52.6392154451262
20
71.0975594835151
30
0
41
1
10
52.5961427665159
20
69.7433617889527
30
0
41
1
10
52.5731040964226
20
69.0202330733881
30
0
41
1
10
52.5485112593987
20
68.2499999999997
30
0
0
SPLINE
5
1F3
100
AcDbEntity
8
1
62
256
6
ByLayer
370
18
48
0.05
60
1
100
AcDbSpline
70
4
71
3
72
46
73
42
40
0
40
0
40
0
40
0
40
0.226463582827752
40
0.278032677305903
40
0.278032677305903
40
0.29092495092544
40
0.29092495092544
40
0.303817224544978
40
0.303817224544978
40
0.329601771784053
40
0.329601771784053
40
0.381170866262202
40
0.381170866262202
40
0.432739960740352
40
0.484309055218502
40
0.484309055218502
40
0.535878149696652
40
0.535878149696652
40
0.548770423316189
40
0.548770423316189
40
0.561662696935727
40
0.561662696935727
40
0.587447244174802
40
0.587447244174802
40
0.639016338652952
40
0.639016338652952
40
0.690585433131102
40
0.690585433131102
40
0.742154527609251
40
0.742154527609251
40
0.767939074848326
40
0.780831348467864
40
0.780831348467864
40
0.793723622087401
40
0.793723622087401
40
0.845292716565551
40
0.845292716565551
40
0.896861811043701
40
0.94843090552185
40
0.94843090552185
40
1
40
1
40
1
40
1
41
1
10
52.2451609691362
20
58.8244095502729
30
0
41
1
10
52.3995743331641
20
63.5866398209396
30
0
41
1
10
52.5509496110364
20
68.3171497257631
30
0
41
1
10
52.6595815876706
20
71.7390920334068
30
0
41
1
10
52.6829397804184
20
72.4759336301365
30
0
41
1
10
52.6875199065914
20
72.6204721362701
30
0
41
1
10
52.6964969178644
20
72.9038695528409
30
0
41
1
10
52.7008970344127
20
73.0428305780775
30
0
41
1
10
52.7137922715303
20
73.450219465007
30
0
41
1
10
52.7219837275936
20
73.7091980406355
30
0
41
1
10
52.7453653337184
20
74.4488750651073
30
0
41
1
10
52.7593643865534
20
74.8923621158047
30
0
41
1
10
52.7842672313655
20
75.6819861497564
30
0
41
1
10
52.8060745764331
20
76.3742542751431
30
0
41
1
10
52.8217510345821
20
76.8726656994456
30
0
41
1
10
52.834341700415
20
77.2731254843571
30
0
41
1
10
52.8390942737431
20
77.4243837201469
30
0
41
1
10
52.8430608958392
20
77.5506446503148
30
0
41
1
10
52.8437559177589
20
77.572769406138
30
0
41
1
10
52.8449436174642
20
77.61057919608
30
0
41
1
10
52.8454363039693
20
77.6262645032193
30
0
41
1
10
52.8466134693285
20
77.6637419688602
30
0
41
1
10
52.8469971649284
20
77.6759588910678
30
0
41
1
10
52.8469616521676
20
77.6748281982198
30
0
41
1
10
52.8453574810814
20
77.6237465115168
30
0
41
1
10
52.8390357983546
20
77.4225227938879
30
0
41
1
10
52.8343182213617
20
77.2723786581242
30
0
41
1
10
52.8217654553759
20
76.8731244179459
30
0
41
1
10
52.8139303307656
20
76.6240159152406
30
0
41
1
10
52.7997975918704
20
76.1750879836522
30
0
41
1
10
52.7921355958715
20
75.9317901088104
30
0
41
1
10
52.7835664914619
20
75.6598795402608
30
0
41
1
10
52.7776502307084
20
75.472195077716
30
0
41
1
10
52.7745878188381
20
75.3750675392985
30
0
41
1
10
52.7587927006696
20
74.8742436380922
30
0
41
1
10
52.7446598327998
20
74.4265373090349
30
0
41
1
10
52.7134457633228
20
73.439119723775
30
0
41
1
10
52.6792831441266
20
72.3596901807283
30
0
41
1
10
52.6392154451262
20
71.0975594835151
30
0
41
1
10
52.5961427665159
20
69.7433617889527
30
0
41
1
10
52.5731040964226
20
69.0202330733881
30
0
41
1
10
52.5485112593987
20
68.2499999999997
30
0
0
SPLINE
5
1F4
100
AcDbEntity
8
1
62
256
6
ByLayer
370
18
48
1
60
0
100
AcDbSpline
70
4
71
3
72
50
73
46
40
0
40
0
40
0
40
0
40
0.124999999999999
40
0.124999999999999
40
0.249999999999999
40
0.249999999999999
40
0.374999999999998
40
0.374999999999998
40
0.499999999999998
40
0.499999999999998
40
0.562499999999997
40
0.562499999999997
40
0.624999999999997
40
0.624999999999997
40
0.656249999999997
40
0.656249999999997
40
0.687499999999997
40
0.687499999999997
40
0.718749999999997
40
0.718749999999997
40
0.749999999999997
40
0.749999999999997
40
0.765624999999997
40
0.765624999999997
40
0.781249999999997
40
0.781249999999997
40
0.812499999999997
40
0.812499999999997
40
0.828124999999997
40
0.828124999999997
40
0.843749999999998
40
0.843749999999998
40
0.859374999999998
40
0.859374999999998
40
0.874999999999998
40
0.874999999999998
40
0.890624999999998
40
0.890624999999998
40
0.906249999999999
40
0.906249999999999
40
0.937499999999999
40
0.937499999999999
40
0.96875
40
0.96875
40
1
40
1
40
1
40
1
41
1
10
83.5165705536952
20
16.7914697134395
30
0
41
1
10
83.7061459603815
20
16.4545553988998
30
0
41
1
10
83.8883942043395
20
16.1133036786216
30
0
41
1
10
84.2372121320118
20
15.4216499432474
30
0
41
1
10
84.4038104303409
20
15.0712576332795
30
0
41
1
10
84.719015336677
20
14.3604173030355
30
0
41
1
10
84.8676968858652
20
13.999994477622
30
0
41
1
10
85.1420496564135
20
13.2672796483426
30
0
41
1
10
85.2679727098754
20
12.8950718162648
30
0
41
1
10
85.4306909319181
20
12.3247733062127
30
0
41
1
10
85.4805085523037
20
12.1326556195969
30
0
41
1
10
85.5679013391838
20
11.7432302634402
30
0
41
1
10
85.6055803574897
20
11.5459570772988
30
0
41
1
10
85.64798707734
20
11.2444966011732
30
0
41
1
10
85.6596976047536
20
11.1431854520378
30
0
41
1
10
85.6766606831247
20
10.9408284952071
30
0
41
1
10
85.6819671237332
20
10.8395194104652
30
0
41
1
10
85.6841892212263
20
10.6366436187416
30
0
41
1
10
85.6811371161253
20
10.5350768502073
30
0
41
1
10
85.6632883562455
20
10.3316917097114
30
0
41
1
10
85.6483927173217
20
10.229558266312
30
0
41
1
10
85.6137507525107
20
10.0800344602445
30
0
41
1
10
85.6001338688059
20
10.0306872500074
30
0
41
1
10
85.567864880422
20
9.93321333937426
30
0
41
1
10
85.5490873381492
20
9.88482560408093
30
0
41
1
10
85.4844458346464
20
9.74423617867907
30
0
41
1
10
85.4305734771148
20
9.6566798337558
30
0
41
1
10
85.3282559173806
20
9.53779522764005
30
0
41
1
10
85.2910298055181
20
9.50092162386405
30
0
41
1
10
85.2117439271653
20
9.43407749717947
30
0
41
1
10
85.1694858302458
20
9.40387062520385
30
0
41
1
10
85.0798840398476
20
9.34972504098833
30
0
41
1
10
85.0321186867294
20
9.32564407157909
30
0
41
1
10
84.9346506459298
20
9.28467380556305
30
0
41
1
10
84.8848031836385
20
9.26760890311236
30
0
41
1
10
84.7832467690626
20
9.2392065390201
30
0
41
1
10
84.7315368420256
20
9.22787198791533
30
0
41
1
10
84.6265357071529
20
9.21007372523265
30
0
41
1
10
84.573299765263
20
9.20364478837183
30
0
41
1
10
84.4144356354741
20
9.19070953291481
30
0
41
1
10
84.3085900256581
20
9.19026084212748
30
0
41
1
10
84.0969852174537
20
9.20038202177268
30
0
41
1
10
83.991226406828
20
9.21100965643001
30
0
41
1
10
83.7797709691961
20
9.2403398528581
30
0
41
1
10
83.6752516417288
20
9.25888925616502
30
0
41
1
10
83.5717746777221
20
9.28018993737242
30
0
0
SPLINE
5
1F5
100
AcDbEntity
8
1
62
256
6
ByLayer
370
18
48
1
60
0
100
AcDbSpline
70
4
71
3
72
8
73
4
40
0
40
0
40
0
40
0
40
1
40
1
40
1
40
1
41
1
10
83.5717746777222
20
9.28018993737271
30
0
41
1
10
83.4321625721893
20
9.30892901936258
30
0
41
1
10
83.292524707685
20
9.33754856921651
30
0
41
1
10
83.1528617588078
20
9.36605171734677
30
0
0
SPLINE
5
1F6
100
AcDbEntity
8
1
62
256
6
ByLayer
370
18
48
1
60
0
100
AcDbSpline
70
2053
71
3
72
96
73
92
40
0
40
0
40
0
40
0
40
0.0624999999999991
40
0.0624999999999991
40
0.124999999999998
40
0.124999999999998
40
0.156249999999998
40
0.156249999999998
40
0.171874999999997
40
0.171874999999997
40
0.187499999999997
40
0.187499999999997
40
0.218749999999997
40
0.218749999999997
40
0.249999999999997
40
0.249999999999997
40
0.265624999999996
40
0.265624999999996
40
0.273437499999996
40
0.273437499999996
40
0.281249999999996
40
0.281249999999996
40
0.312499999999996
40
0.312499999999996
40
0.343749999999996
40
0.343749999999996
40
0.374999999999996
40
0.374999999999996
40
0.382812499999996
40
0.382812499999996
40
0.390624999999996
40
0.390624999999996
40
0.406249999999996
40
0.406249999999996
40
0.437499999999996
40
0.437499999999996
40
0.445312499999996
40
0.445312499999996
40
0.453124999999996
40
0.453124999999996
40
0.468749999999997
40
0.468749999999997
40
0.499999999999997
40
0.499999999999997
40
0.507812499999997
40
0.507812499999997
40
0.515624999999997
40
0.515624999999997
40
0.531249999999997
40
0.531249999999997
40
0.546874999999997
40
0.546874999999997
40
0.554687499999997
40
0.554687499999997
40
0.562499999999998
40
0.562499999999998
40
0.578124999999998
40
0.578124999999998
40
0.593749999999998
40
0.593749999999998
40
0.624999999999998
40
0.624999999999998
40
0.632812499999998
40
0.632812499999998
40
0.640624999999998
40
0.640624999999998
40
0.656249999999998
40
0.656249999999998
40
0.687499999999999
40
0.687499999999999
40
0.718749999999999
40
0.718749999999999
40
0.734374999999999
40
0.734374999999999
40
0.749999999999999
40
0.749999999999999
40
0.781249999999999
40
0.781249999999999
40
0.812499999999999
40
0.812499999999999
40
0.84375
40
0.84375
40
0.875
40
0.875
40
0.9375
40
0.9375
40
0.953125
40
0.953125
40
0.96875
40
0.96875
40
1
40
1
40
1
40
1
41
1
10
82.211325596893
20
19.2516758627554
30
0
41
1
10
80.2056306526657
20
20.2283041951361
30
0
41
1
10
78.21867298755
20
21.209286155271
30
0
41
1
10
74.2862837081393
20
23.1766117756273
30
0
41
1
10
72.340804735682
20
24.1629733788737
30
0
41
1
10
69.4584126913222
20
25.6429195836487
30
0
41
1
10
68.5036069958346
20
26.1362903083248
30
0
41
1
10
67.0812571827248
20
26.875835569292
30
0
41
1
10
66.6085566040067
20
27.1223858467615
30
0
41
1
10
65.670082478241
20
27.6133862336153
30
0
41
1
10
65.2039149845075
20
27.8580403367428
30
0
41
1
10
63.8150635686071
20
28.5891689215453
30
0
41
1
10
62.9020007123839
20
29.0728223946095
30
0
41
1
10
61.104516524424
20
30.0307591399879
30
0
41
1
10
60.2200772949389
20
30.5050489439929
30
0
41
1
10
58.9179808009581
20
31.2077214774262
30
0
41
1
10
58.4880651967953
20
31.4404881902359
30
0
41
1
10
57.8497198295736
20
31.7870843256083
30
0
41
1
10
57.6379149768654
20
31.9022552454444
30
0
41
1
10
57.2171023480583
20
32.1314042194042
30
0
41
1
10
57.0083206962619
20
32.2452589360692
30
0
41
1
10
55.9727571389887
20
32.8107718829746
30
0
41
1
10
55.1709193105896
20
33.2512026328813
30
0
41
1
10
53.6274527740384
20
34.103164614831
30
0
41
1
10
52.8857727477153
20
34.5147252857544
30
0
41
1
10
51.4725811129805
20
35.3022273802992
30
0
41
1
10
50.8009660855889
20
35.678227574806
30
0
41
1
10
50.0147837484434
20
36.1198564725127
30
0
41
1
10
49.8602320175899
20
36.2067532804858
30
0
41
1
10
49.5568212662829
20
36.3774863730501
30
0
41
1
10
49.4087150857106
20
36.4608990035125
30
0
41
1
10
48.9758177948991
20
36.7048863542838
30
0
41
1
10
48.7023055529986
20
36.8592902208331
30
0
41
1
10
47.9301886943486
20
37.2956706569981
30
0
41
1
10
47.4796266955985
20
37.5510175971477
30
0
41
1
10
47.0116859011012
20
37.8164406969019
30
0
41
1
10
46.9228217045775
20
37.8668604753769
30
0
41
1
10
46.7554781727783
20
37.9618241441006
30
0
41
1
10
46.6775065796256
20
38.0060798274374
30
0
41
1
10
46.4608309716171
20
38.1290713863921
30
0
41
1
10
46.3393507706841
20
38.1980385397552
30
0
41
1
10
46.0454579245111
20
38.3648512866462
30
0
41
1
10
45.9432862399022
20
38.4227468315654
30
0
41
1
10
45.9423025766573
20
38.4232986025315
30
0
41
1
10
45.9484875655817
20
38.4198025390356
30
0
41
1
10
45.9738614132673
20
38.4054481643018
30
0
41
1
10
45.9929359461752
20
38.3946539895481
30
0
41
1
10
46.0687167714664
20
38.3517461762909
30
0
41
1
10
46.1439582562047
20
38.309117420394
30
0
41
1
10
46.3412415691424
20
38.1972765093547
30
0
41
1
10
46.4632878164921
20
38.1280621769428
30
0
41
1
10
46.6799741816624
20
38.0051720562617
30
0
41
1
10
46.7578104966919
20
37.9610284374686
30
0
41
1
10
46.924501980654
20
37.8665024749118
30
0
41
1
10
47.0134360481978
20
37.8160754100512
30
0
41
1
10
47.2960214315117
20
37.6558799208029
30
0
41
1
10
47.5033097529685
20
37.5384130945906
30
0
41
1
10
47.9518814311987
20
37.2844310511509
30
0
41
1
10
48.1931741070564
20
37.1479108634811
30
0
41
1
10
48.9636471565778
20
36.7125131300044
30
0
41
1
10
49.539210484563
20
36.3879132884204
30
0
41
1
10
50.3256056584871
20
35.9460916061919
30
0
41
1
10
50.4863024407857
20
35.8558843716428
30
0
41
1
10
50.8140079041008
20
35.6721035531387
30
0
41
1
10
50.9803394379919
20
35.578909707586
30
0
41
1
10
51.4863725380663
20
35.2956719791129
30
0
41
1
10
51.8331004067267
20
35.1019790678768
30
0
41
1
10
52.8987331332339
20
34.5080290938749
30
0
41
1
10
53.642968356863
20
34.0949718907921
30
0
41
1
10
55.1887128171491
20
33.2416218797551
30
0
41
1
10
55.9902784546298
20
32.8012966456133
30
0
41
1
10
57.2303343756316
20
32.1240777890479
30
0
41
1
10
57.6499908896971
20
31.8955374985201
30
0
41
1
10
58.5012221794227
20
31.4333577646212
30
0
41
1
10
58.9332337003569
20
31.1994723640613
30
0
41
1
10
60.2378272072217
20
30.4955041894986
30
0
41
1
10
61.1214359565095
20
30.0217020349366
30
0
41
1
10
62.9125748659335
20
29.0671905226319
30
0
41
1
10
63.8201231196133
20
28.5864748470243
30
0
41
1
10
65.6564701469668
20
27.6197425008041
30
0
41
1
10
66.5852791150305
20
27.1337222051799
30
0
41
1
10
68.4621781070653
20
26.1576837621292
30
0
41
1
10
69.4102742462323
20
25.6676633881164
30
0
41
1
10
72.281233938402
20
24.1932309179351
30
0
41
1
10
74.2306636542942
20
23.2045086748953
30
0
41
1
10
76.7064698663982
20
21.9656595224075
30
0
41
1
10
77.2036088682982
20
21.7177296403123
30
0
41
1
10
78.1994823619051
20
21.2227533582992
30
0
41
1
10
78.6984985692702
20
20.9755656589443
30
0
41
1
10
80.1986987449369
20
20.2349766557903
30
0
41
1
10
81.2030320313063
20
19.742551202421
30
0
41
1
10
82.211325596893
20
19.2516758627554
30
0
0
SPLINE
5
1F7
100
AcDbEntity
8
1
62
256
6
ByLayer
370
18
48
1
60
0
100
AcDbSpline
70
2053
71
3
72
59
73
55
40
0
40
0
40
0
40
0
40
0.0624999999999988
40
0.0624999999999988
40
0.124999999999998
40
0.124999999999998
40
0.187499999999996
40
0.187499999999996
40
0.218749999999996
40
0.218749999999996
40
0.234374999999995
40
0.234374999999995
40
0.242187499999995
40
0.242187499999995
40
0.249999999999995
40
0.249999999999995
40
0.312499999999996
40
0.312499999999996
40
0.374999999999996
40
0.374999999999996
40
0.437499999999996
40
0.437499999999996
40
0.445312499999996
40
0.445312499999996
40
0.453124999999996
40
0.453124999999996
40
0.468749999999996
40
0.468749999999996
40
0.499999999999996
40
0.499999999999996
40
0.562499999999996
40
0.562499999999996
40
0.624999999999997
40
0.624999999999997
40
0.656249999999997
40
0.656249999999997
40
0.664062499999997
40
0.664062499999997
40
0.671874999999997
40
0.687499999999997
40
0.687499999999997
40
0.749999999999997
40
0.749999999999997
40
0.812499999999997
40
0.812499999999997
40
0.843749999999997
40
0.843749999999997
40
0.859374999999998
40
0.859374999999998
40
0.874999999999998
40
0.874999999999998
40
0.937499999999999
40
0.937499999999999
40
1
40
1
40
1
40
1
41
1
10
82.2113255968932
20
19.2516758627553
30
0
41
1
10
83.1812640213224
20
19.1790154160193
30
0
41
1
10
84.1070116280139
20
19.11461950156
30
0
41
1
10
85.8663498104988
20
18.9992910413829
30
0
41
1
10
86.69996824341
20
18.9483494106658
30
0
41
1
10
88.2689654876358
20
18.8584984941107
30
0
41
1
10
89.004386597204
20
18.8195759397495
30
0
41
1
10
90.0268092431249
20
18.7705039635172
30
0
41
1
10
90.354115227441
20
18.7557370147292
30
0
41
1
10
90.8242164821617
20
18.7353712109697
30
0
41
1
10
90.9774310510653
20
18.7288917155396
30
0
41
1
10
91.2019108037394
20
18.719596551808
30
0
41
1
10
91.2758843301047
20
18.7165673865888
30
0
41
1
10
91.4216508934993
20
18.7106594409432
30
0
41
1
10
91.4934841295163
20
18.7077789604497
30
0
41
1
10
92.1305421376783
20
18.6824817120656
30
0
41
1
10
92.6298058957944
20
18.6643890203001
30
0
41
1
10
93.4936589953759
20
18.6339843526142
30
0
41
1
10
93.858265238566
20
18.6216718950091
30
0
41
1
10
94.4488250251229
20
18.6014111475457
30
0
41
1
10
94.6748078446746
20
18.5934577385625
30
0
41
1
10
94.8465508322847
20
18.587103010707
30
0
41
1
10
94.8644847608717
20
18.5864340862052
30
0
41
1
10
94.8980343606324
20
18.585173058213
30
0
41
1
10
94.9136539942412
20
18.5845807958704
30
0
41
1
10
94.9568832458253
20
18.5829283026451
30
0
41
1
10
94.9809142866569
20
18.5819902827467
30
0
41
1
10
95.0387429527233
20
18.5796972573815
30
0
41
1
10
95.0582838119794
20
18.578860237321
30
0
41
1
10
95.0603914515767
20
18.5787779268716
30
0
41
1
10
94.9867750866093
20
18.5817016342515
30
0
41
1
10
94.6937098135901
20
18.5921754019319
30
0
41
1
10
94.4742509676933
20
18.5997287841318
30
0
41
1
10
94.0360885508098
20
18.6146428401539
30
0
41
1
10
93.871844380651
20
18.6202228248488
30
0
41
1
10
93.6436357395429
20
18.6280580797462
30
0
41
1
10
93.5968278315834
20
18.6296690970145
30
0
41
1
10
93.5011774708877
20
18.6329719791144
30
0
41
1
10
93.3545688477616
20
18.6380504229544
30
0
41
1
10
93.1986496903798
20
18.6435130286441
30
0
41
1
10
92.6585846983349
20
18.6626396006281
30
0
41
1
10
92.1615975835969
20
18.6808318876112
30
0
41
1
10
91.0445359620196
20
18.7254025231673
30
0
41
1
10
90.4245557404114
20
18.7516318976467
30
0
41
1
10
89.4047013039863
20
18.8002690003118
30
0
41
1
10
89.0496715061597
20
18.8181381870783
30
0
41
1
10
88.495064099869
20
18.8473861514043
30
0
41
1
10
88.30651606433
20
18.8575438935902
30
0
41
1
10
87.9221343790552
20
18.8786818204171
30
0
41
1
10
87.7264063881193
20
18.8896566513925
30
0
41
1
10
86.7334677073403
20
18.9463991311454
30
0
41
1
10
85.8908025345641
20
18.9978503094709
30
0
41
1
10
84.1165264638127
20
19.1140933589434
30
0
41
1
10
83.1848802924971
20
19.1788978187004
30
0
41
1
10
82.2113255968932
20
19.2516758627553
30
0
0
SPLINE
5
1F8
100
AcDbEntity
8
1
62
256
6
ByLayer
370
18
48
1
60
0
100
AcDbSpline
70
4
71
1
72
4
73
2
40
0
40
0
40
1
40
1
41
1
10
88.7647654892203
20
21.1218703500796
30
-1.036693E-10
41
1
10
95.0590060050672
20
18.5788321093807
30
1.026474E-10
0
SPLINE
5
1F9
100
AcDbEntity
8
1
62
256
6
ByLayer
370
18
48
1
60
1
100
AcDbSpline
70
4
71
1
72
4
73
2
40
0
40
0
40
1
40
1
41
1
10
45.9424947480447
20
38.4231907832909
30
-5.0319E-10
41
1
10
77.3548899779057
20
25.7317592912209
30
4.798121E-10
0
SPLINE
5
1FA
100
AcDbEntity
8
1
62
256
6
ByLayer
370
18
48
1
60
0
100
AcDbSpline
70
4
71
1
72
4
73
2
40
0
40
0
40
1
40
1
41
1
10
95.0590060050671
20
18.5788321093808
30
1.0338348E-09
41
1
10
45.9424947480447
20
38.4231907832909
30
-5.0319E-10
0
INSERT
5
20A
100
AcDbEntity
8
SK2
62
256
6
ByLayer
370
18
48
1
60
0
100
AcDbBlockReference
2
LABLE3D_1
10
0
20
0
30
0
41
1
42
1
43
1
50
0
210
0
220
0
230
1
0
LINE
5
70
100
AcDbEntity
8
1
62
256
6
ByLayer
370
18
48
1
60
0
100
AcDbLine
10
82.15224
20
-11.854235
30
0
11
83.484201
21
-10.522274
31
0
39
0
210
0
220
0
230
1
0
LINE
5
72
100
AcDbEntity
8
1
62
256
6
ByLayer
370
18
48
1
60
0
100
AcDbLine
10
83.484201
20
-10.522274
30
0
11
96.329256
21
2.322781
31
0
39
0
210
0
220
0
230
1
0
LINE
5
73
100
AcDbEntity
8
1
62
256
6
ByLayer
370
18
48
1
60
0
100
AcDbLine
10
83.119125
20
-12.231854
30
0
11
83.173241
21
-12.236446
31
0
39
0
210
0
220
0
230
1
0
LINE
5
74
100
AcDbEntity
8
1
62
256
6
ByLayer
370
18
48
1
60
0
100
AcDbLine
10
83.26157
20
-12.194447
30
0
11
83.407346
21
-12.048671
31
0
39
0
210
0
220
0
230
1
0
LINE
5
75
100
AcDbEntity
8
1
62
256
6
ByLayer
370
18
48
1
60
0
100
AcDbLine
10
84.32223
20
-11.133787
30
0
11
84.468006
21
-10.988011
31
0
39
0
210
0
220
0
230
1
0
LINE
5
76
100
AcDbEntity
8
1
62
256
6
ByLayer
370
18
48
1
60
0
100
AcDbLine
10
85.38289
20
-10.073127
30
0
11
85.528666
21
-9.927351
31
0
39
0
210
0
220
0
230
1
0
LINE
5
77
100
AcDbEntity
8
1
62
256
6
ByLayer
370
18
48
1
60
0
100
AcDbLine
10
85.719424
20
-8.569894
30
0
11
86.162178
21
-9.012648
31
0
39
0
210
0
220
0
230
1
0
LINE
5
78
100
AcDbEntity
8
1
62
256
6
ByLayer
370
18
48
1
60
0
100
AcDbLine
10
82.140508
20
-12.14881
30
0
11
85.719424
21
-8.569894
31
0
39
0
210
0
220
0
230
1
0
LINE
5
79
100
AcDbEntity
8
1
62
256
6
ByLayer
370
18
48
1
60
0
100
AcDbLine
10
82.140508
20
-12.14881
30
0
11
82.181794
21
-12.152314
31
0
39
0
210
0
220
0
230
1
0
LINE
5
7A
100
AcDbEntity
8
1
62
256
6
ByLayer
370
18
48
1
60
0
100
AcDbLine
10
85.578002
20
-8.428473
30
0
11
85.719424
21
-8.569894
31
0
39
0
210
0
220
0
230
1
0
LINE
5
7B
100
AcDbEntity
8
1
62
256
6
ByLayer
370
18
48
1
60
0
100
AcDbLine
10
81.999086
20
-12.007389
30
0
11
82.140508
21
-12.14881
31
0
39
0
210
0
220
0
230
1
0
LINE
5
7C
100
AcDbEntity
8
1
62
256
6
ByLayer
370
18
48
1
60
0
100
AcDbLine
10
86.291011
20
-9.047169
30
0
11
86.624029
21
-8.714151
31
0
39
0
210
0
220
0
230
1
0
LINE
5
7D
100
AcDbEntity
8
1
62
256
6
ByLayer
370
18
48
1
60
0
100
AcDbLine
10
86.426953
20
-7.978657
30
0
11
86.624029
21
-8.714151
31
0
39
0
210
0
220
0
230
1
0
LINE
5
7E
100
AcDbEntity
8
1
62
256
6
ByLayer
370
18
48
1
60
0
100
AcDbLine
10
87.351671
20
-7.986509
30
0
11
86.616177
21
-7.789434
31
0
39
0
210
0
220
0
230
1
0
LINE
5
7F
100
AcDbEntity
8
1
62
256
6
ByLayer
370
18
48
1
60
0
100
AcDbLine
10
87.351671
20
-7.986509
30
0
11
87.684689
21
-7.653491
31
0
39
0
210
0
220
0
230
1
0
LINE
5
80
100
AcDbEntity
8
1
62
256
6
ByLayer
370
18
48
1
60
0
100
AcDbLine
10
87.487614
20
-6.917996
30
0
11
87.684689
21
-7.653491
31
0
39
0
210
0
220
0
230
1
0
LINE
5
81
100
AcDbEntity
8
1
62
256
6
ByLayer
370
18
48
1
60
0
100
AcDbLine
10
88.412331
20
-6.925849
30
0
11
87.676837
21
-6.728773
31
0
39
0
210
0
220
0
230
1
0
LINE
5
82
100
AcDbEntity
8
1
62
256
6
ByLayer
370
18
48
1
60
0
100
AcDbLine
10
88.412331
20
-6.925849
30
0
11
88.745349
21
-6.592831
31
0
39
0
210
0
220
0
230
1
0
LINE
5
83
100
AcDbEntity
8
1
62
256
6
ByLayer
370
18
48
1
60
0
100
AcDbLine
10
88.548274
20
-5.857336
30
0
11
88.745349
21
-6.592831
31
0
39
0
210
0
220
0
230
1
0
LINE
5
84
100
AcDbEntity
8
1
62
256
6
ByLayer
370
18
48
1
60
0
100
AcDbLine
10
89.472991
20
-5.865188
30
0
11
88.737497
21
-5.668113
31
0
39
0
210
0
220
0
230
1
0
LINE
5
85
100
AcDbEntity
8
1
62
256
6
ByLayer
370
18
48
1
60
0
100
AcDbLine
10
89.472991
20
-5.865188
30
0
11
89.806009
21
-5.532171
31
0
39
0
210
0
220
0
230
1
0
LINE
5
86
100
AcDbEntity
8
1
62
256
6
ByLayer
370
18
48
1
60
0
100
AcDbLine
10
89.608934
20
-4.796676
30
0
11
89.806009
21
-5.532171
31
0
39
0
210
0
220
0
230
1
0
LINE
5
87
100
AcDbEntity
8
1
62
256
6
ByLayer
370
18
48
1
60
0
100
AcDbLine
10
90.533652
20
-4.804528
30
0
11
89.798157
21
-4.607453
31
0
39
0
210
0
220
0
230
1
0
LINE
5
88
100
AcDbEntity
8
1
62
256
6
ByLayer
370
18
48
1
60
0
100
AcDbLine
10
90.533652
20
-4.804528
30
0
11
90.866669
21
-4.471511
31
0
39
0
210
0
220
0
230
1
0
LINE
5
89
100
AcDbEntity
8
1
62
256
6
ByLayer
370
18
48
1
60
0
100
AcDbLine
10
90.669594
20
-3.736016
30
0
11
90.866669
21
-4.471511
31
0
39
0
210
0
220
0
230
1
0
LINE
5
8A
100
AcDbEntity
8
1
62
256
6
ByLayer
370
18
48
1
60
0
100
AcDbLine
10
91.594312
20
-3.743868
30
0
11
90.858817
21
-3.546793
31
0
39
0
210
0
220
0
230
1
0
LINE
5
8B
100
AcDbEntity
8
1
62
256
6
ByLayer
370
18
48
1
60
0
100
AcDbLine
10
91.594312
20
-3.743868
30
0
11
91.927329
21
-3.41085
31
0
39
0
210
0
220
0
230
1
0
LINE
5
8C
100
AcDbEntity
8
1
62
256
6
ByLayer
370
18
48
1
60
0
100
AcDbLine
10
91.730254
20
-2.675356
30
0
11
91.927329
21
-3.41085
31
0
39
0
210
0
220
0
230
1
0
LINE
5
8D
100
AcDbEntity
8
1
62
256
6
ByLayer
370
18
48
1
60
0
100
AcDbLine
10
92.654972
20
-2.683208
30
0
11
91.919477
21
-2.486133
31
0
39
0
210
0
220
0
230
1
0
LINE
5
8E
100
AcDbEntity
8
1
62
256
6
ByLayer
370
18
48
1
60
0
100
AcDbLine
10
92.654972
20
-2.683208
30
0
11
92.98799
21
-2.35019
31
0
39
0
210
0
220
0
230
1
0
LINE
5
8F
100
AcDbEntity
8
1
62
256
6
ByLayer
370
18
48
1
60
0
100
AcDbLine
10
92.790914
20
-1.614696
30
0
11
92.98799
21
-2.35019
31
0
39
0
210
0
220
0
230
1
0
LINE
5
90
100
AcDbEntity
8
1
62
256
6
ByLayer
370
18
48
1
60
0
100
AcDbLine
10
93.715632
20
-1.622548
30
0
11
92.980138
21
-1.425472
31
0
39
0
210
0
220
0
230
1
0
LINE
5
91
100
AcDbEntity
8
1
62
256
6
ByLayer
370
18
48
1
60
0
100
AcDbLine
10
93.715632
20
-1.622548
30
0
11
94.04865
21
-1.28953
31
0
39
0
210
0
220
0
230
1
0
LINE
5
92
100
AcDbEntity
8
1
62
256
6
ByLayer
370
18
48
1
60
0
100
AcDbLine
10
94.014129
20
-1.160697
30
0
11
94.04865
21
-1.28953
31
0
39
0
210
0
220
0
230
1
0
LINE
5
93
100
AcDbEntity
8
1
62
256
6
ByLayer
370
18
48
1
60
0
100
AcDbLine
10
93.571375
20
-0.717943
30
0
11
94.014129
21
-1.160697
31
0
39
0
210
0
220
0
230
1
0
LINE
5
94
100
AcDbEntity
8
1
62
256
6
ByLayer
370
18
48
1
60
0
100
AcDbLine
10
85.719424
20
-8.569894
30
0
11
93.571375
21
-0.717943
31
0
39
0
210
0
220
0
230
1
0
LINE
5
95
100
AcDbEntity
8
1
62
256
6
ByLayer
370
18
48
1
60
0
100
AcDbLine
10
86.291011
20
-9.047169
30
0
11
86.162178
21
-9.012648
31
0
39
0
210
0
220
0
230
1
0
LINE
5
96
100
AcDbEntity
8
1
62
256
6
ByLayer
370
18
48
1
60
0
100
AcDbLine
10
93.429954
20
-0.576522
30
0
11
93.571375
21
-0.717943
31
0
39
0
210
0
220
0
230
1
0
LINE
5
97
100
AcDbEntity
8
1
62
256
6
ByLayer
370
18
48
1
60
0
100
AcDbLine
10
97.00887
20
3.002395
30
0
11
97.150291
21
2.860973
31
0
39
0
210
0
220
0
230
1
0
LINE
5
98
100
AcDbEntity
8
1
62
256
6
ByLayer
370
18
48
1
60
0
100
AcDbLine
10
93.571375
20
-0.717943
30
0
11
97.150291
21
2.860973
31
0
39
0
210
0
220
0
230
1
0
LINE
5
99
100
AcDbEntity
8
1
62
256
6
ByLayer
370
18
48
1
60
0
100
AcDbLine
10
97.150291
20
2.860973
30
0
11
97.153795
21
2.819687
31
0
39
0
210
0
220
0
230
1
0
LINE
5
9A
100
AcDbEntity
8
1
62
256
6
ByLayer
370
18
48
1
60
0
100
AcDbLine
10
94.928832
20
-0.527185
30
0
11
95.074608
21
-0.381409
31
0
39
0
210
0
220
0
230
1
0
LINE
5
9B
100
AcDbEntity
8
1
62
256
6
ByLayer
370
18
48
1
60
0
100
AcDbLine
10
95.989492
20
0.533475
30
0
11
96.135268
21
0.679251
31
0
39
0
210
0
220
0
230
1
0
LINE
5
9C
100
AcDbEntity
8
1
62
256
6
ByLayer
370
18
48
1
60
0
100
AcDbLine
10
97.050152
20
1.594135
30
0
11
97.195928
21
1.739911
31
0
39
0
210
0
220
0
230
1
0
LINE
5
9D
100
AcDbEntity
8
1
62
256
6
ByLayer
370
18
48
1
60
0
100
AcDbLine
10
97.233335
20
1.882356
30
0
11
97.237927
21
1.82824
31
0
39
0
210
0
220
0
230
1
0
LINE
5
9E
100
AcDbEntity
8
1
62
256
6
ByLayer
370
18
48
1
60
0
100
AcDbLine
10
89.771307
20
-5.68471
30
0
11
89.625531
21
-5.830486
31
0
39
0
210
0
220
0
230
1
0
LINE
5
9F
100
AcDbEntity
8
1
62
256
6
ByLayer
370
18
48
1
60
0
100
AcDbLine
10
89.472991
20
-5.865188
30
0
11
89.484506
21
-5.868274
31
0
39
0
210
0
220
0
230
1
0
LINE
5
A0
100
AcDbEntity
8
1
62
256
6
ByLayer
370
18
48
1
60
0
100
AcDbLine
10
89.809094
20
-5.543685
30
0
11
89.806009
21
-5.532171
31
0
39
0
210
0
220
0
230
1
0
LINE
5
A1
100
AcDbEntity
8
1
62
256
6
ByLayer
370
18
48
1
60
0
100
AcDbLine
10
86.589326
20
-8.866691
30
0
11
86.443551
21
-9.012467
31
0
39
0
210
0
220
0
230
1
0
LINE
5
A2
100
AcDbEntity
8
1
62
256
6
ByLayer
370
18
48
1
60
0
100
AcDbLine
10
86.291011
20
-9.047169
30
0
11
86.302525
21
-9.050254
31
0
39
0
210
0
220
0
230
1
0
LINE
5
A3
100
AcDbEntity
8
1
62
256
6
ByLayer
370
18
48
1
60
0
100
AcDbLine
10
86.627114
20
-8.725666
30
0
11
86.624029
21
-8.714151
31
0
39
0
210
0
220
0
230
1
0
LINE
5
A4
100
AcDbEntity
8
1
62
256
6
ByLayer
370
18
48
1
60
0
100
AcDbLine
10
88.710647
20
-6.74537
30
0
11
88.564871
21
-6.891146
31
0
39
0
210
0
220
0
230
1
0
LINE
5
A5
100
AcDbEntity
8
1
62
256
6
ByLayer
370
18
48
1
60
0
100
AcDbLine
10
88.412331
20
-6.925849
30
0
11
88.423846
21
-6.928934
31
0
39
0
210
0
220
0
230
1
0
LINE
5
A6
100
AcDbEntity
8
1
62
256
6
ByLayer
370
18
48
1
60
0
100
AcDbLine
10
88.748434
20
-6.604345
30
0
11
88.745349
21
-6.592831
31
0
39
0
210
0
220
0
230
1
0
LINE
5
A7
100
AcDbEntity
8
1
62
256
6
ByLayer
370
18
48
1
60
0
100
AcDbLine
10
91.892627
20
-3.56339
30
0
11
91.746851
21
-3.709166
31
0
39
0
210
0
220
0
230
1
0
LINE
5
A8
100
AcDbEntity
8
1
62
256
6
ByLayer
370
18
48
1
60
0
100
AcDbLine
10
91.594312
20
-3.743868
30
0
11
91.605826
21
-3.746953
31
0
39
0
210
0
220
0
230
1
0
LINE
5
A9
100
AcDbEntity
8
1
62
256
6
ByLayer
370
18
48
1
60
0
100
AcDbLine
10
91.930415
20
-3.422365
30
0
11
91.927329
21
-3.41085
31
0
39
0
210
0
220
0
230
1
0
LINE
5
AA
100
AcDbEntity
8
1
62
256
6
ByLayer
370
18
48
1
60
0
100
AcDbLine
10
92.953287
20
-2.50273
30
0
11
92.807512
21
-2.648506
31
0
39
0
210
0
220
0
230
1
0
LINE
5
AB
100
AcDbEntity
8
1
62
256
6
ByLayer
370
18
48
1
60
0
100
AcDbLine
10
92.991075
20
-2.361705
30
0
11
92.98799
21
-2.35019
31
0
39
0
210
0
220
0
230
1
0
LINE
5
AC
100
AcDbEntity
8
1
62
256
6
ByLayer
370
18
48
1
60
0
100
AcDbLine
10
92.654972
20
-2.683208
30
0
11
92.666486
21
-2.686293
31
0
39
0
210
0
220
0
230
1
0
LINE
5
AD
100
AcDbEntity
8
1
62
256
6
ByLayer
370
18
48
1
60
0
100
AcDbLine
10
90.831967
20
-4.62405
30
0
11
90.686191
21
-4.769826
31
0
39
0
210
0
220
0
230
1
0
LINE
5
AE
100
AcDbEntity
8
1
62
256
6
ByLayer
370
18
48
1
60
0
100
AcDbLine
10
90.869755
20
-4.483025
30
0
11
90.866669
21
-4.471511
31
0
39
0
210
0
220
0
230
1
0
LINE
5
AF
100
AcDbEntity
8
1
62
256
6
ByLayer
370
18
48
1
60
0
100
AcDbLine
10
90.533652
20
-4.804528
30
0
11
90.545166
21
-4.807613
31
0
39
0
210
0
220
0
230
1
0
LINE
5
B0
100
AcDbEntity
8
1
62
256
6
ByLayer
370
18
48
1
60
0
100
AcDbLine
10
94.013948
20
-1.44207
30
0
11
93.868172
21
-1.587845
31
0
39
0
210
0
220
0
230
1
0
LINE
5
B1
100
AcDbEntity
8
1
62
256
6
ByLayer
370
18
48
1
60
0
100
AcDbLine
10
94.051735
20
-1.301044
30
0
11
94.04865
21
-1.28953
31
0
39
0
210
0
220
0
230
1
0
LINE
5
B2
100
AcDbEntity
8
1
62
256
6
ByLayer
370
18
48
1
60
0
100
AcDbLine
10
93.715632
20
-1.622548
30
0
11
93.727147
21
-1.625633
31
0
39
0
210
0
220
0
230
1
0
LINE
5
B3
100
AcDbEntity
8
1
62
256
6
ByLayer
370
18
48
1
60
0
100
AcDbLine
10
87.649986
20
-7.806031
30
0
11
87.504211
21
-7.951806
31
0
39
0
210
0
220
0
230
1
0
LINE
5
B4
100
AcDbEntity
8
1
62
256
6
ByLayer
370
18
48
1
60
0
100
AcDbLine
10
87.687774
20
-7.665005
30
0
11
87.684689
21
-7.653491
31
0
39
0
210
0
220
0
230
1
0
LINE
5
B5
100
AcDbEntity
8
1
62
256
6
ByLayer
370
18
48
1
60
0
100
AcDbLine
10
87.351671
20
-7.986509
30
0
11
87.363186
21
-7.989594
31
0
39
0
210
0
220
0
230
1
0
LINE
5
B6
100
AcDbEntity
8
1
62
256
6
ByLayer
370
18
48
1
60
0
100
AcDbLine
10
82.15224
20
-11.854235
30
0
11
75.185066
21
-18.821409
31
0
39
0
210
0
220
0
230
1
0
LINE
5
B7
100
AcDbEntity
8
1
62
256
6
ByLayer
370
18
48
1
60
0
100
AcDbLine
10
97.150291
20
2.860973
30
0
11
103.787535
21
9.498217
31
0
39
0
210
0
220
0
230
1
0
LINE
5
B8
100
AcDbEntity
8
1
62
256
6
ByLayer
370
18
48
1
60
0
100
AcDbLine
10
103.787535
20
9.498217
30
0
11
103.787535
21
9.127463
31
0
39
0
210
0
220
0
230
1
0
LINE
5
B9
100
AcDbEntity
8
1
62
256
6
ByLayer
370
18
48
1
60
0
100
AcDbLine
10
98.110812
20
2.654795
30
0
11
98.256588
21
2.800571
31
0
39
0
210
0
220
0
230
1
0
LINE
5
BA
100
AcDbEntity
8
1
62
256
6
ByLayer
370
18
48
1
60
0
100
AcDbLine
10
99.171473
20
3.715455
30
0
11
99.317248
21
3.861231
31
0
39
0
210
0
220
0
230
1
0
LINE
5
BB
100
AcDbEntity
8
1
62
256
6
ByLayer
370
18
48
1
60
0
100
AcDbLine
10
100.232133
20
4.776116
30
0
11
100.377909
21
4.921891
31
0
39
0
210
0
220
0
230
1
0
LINE
5
BC
100
AcDbEntity
8
1
62
256
6
ByLayer
370
18
48
1
60
0
100
AcDbLine
10
101.292793
20
5.836776
30
0
11
101.438569
21
5.982552
31
0
39
0
210
0
220
0
230
1
0
LINE
5
BD
100
AcDbEntity
8
1
62
256
6
ByLayer
370
18
48
1
60
0
100
AcDbLine
10
102.353453
20
6.897436
30
0
11
102.499229
21
7.043212
31
0
39
0
210
0
220
0
230
1
0
LINE
5
BE
100
AcDbEntity
8
1
62
256
6
ByLayer
370
18
48
1
60
0
100
AcDbLine
10
103.414113
20
7.958096
30
0
11
103.559889
21
8.103872
31
0
39
0
210
0
220
0
230
1
0
LINE
5
BF
100
AcDbEntity
8
1
62
256
6
ByLayer
370
18
48
1
60
0
100
AcDbLine
10
82.140508
20
-12.14881
30
0
11
75.503264
21
-18.786054
31
0
39
0
210
0
220
0
230
1
0
LINE
5
C0
100
AcDbEntity
8
1
62
256
6
ByLayer
370
18
48
1
60
0
100
AcDbLine
10
103.646114
20
9.639639
30
0
11
103.787535
21
9.498217
31
0
39
0
210
0
220
0
230
1
0
LINE
5
C1
100
AcDbEntity
8
1
62
256
6
ByLayer
370
18
48
1
60
0
100
AcDbLine
10
75.503264
20
-18.786054
30
0
11
75.361842
21
-18.644633
31
0
39
0
210
0
220
0
230
1
0
LINE
5
C2
100
AcDbEntity
8
1
62
256
6
ByLayer
370
18
48
1
60
0
100
AcDbLine
10
75.874018
20
-18.786054
30
0
11
75.503264
21
-18.786054
31
0
39
0
210
0
220
0
230
1
0
LINE
5
C3
100
AcDbEntity
8
1
62
256
6
ByLayer
370
18
48
1
60
0
100
AcDbLine
10
76.897609
20
-18.558408
30
0
11
77.043385
21
-18.412632
31
0
39
0
210
0
220
0
230
1
0
LINE
5
C4
100
AcDbEntity
8
1
62
256
6
ByLayer
370
18
48
1
60
0
100
AcDbLine
10
77.958269
20
-17.497748
30
0
11
78.104045
21
-17.351972
31
0
39
0
210
0
220
0
230
1
0
LINE
5
C5
100
AcDbEntity
8
1
62
256
6
ByLayer
370
18
48
1
60
0
100
AcDbLine
10
79.018929
20
-16.437088
30
0
11
79.164705
21
-16.291312
31
0
39
0
210
0
220
0
230
1
0
LINE
5
C6
100
AcDbEntity
8
1
62
256
6
ByLayer
370
18
48
1
60
0
100
AcDbLine
10
80.07959
20
-15.376428
30
0
11
80.225365
21
-15.230652
31
0
39
0
210
0
220
0
230
1
0
LINE
5
C7
100
AcDbEntity
8
1
62
256
6
ByLayer
370
18
48
1
60
0
100
AcDbLine
10
81.14025
20
-14.315767
30
0
11
81.286025
21
-14.169992
31
0
39
0
210
0
220
0
230
1
0
LINE
5
C8
100
AcDbEntity
8
1
62
256
6
ByLayer
370
18
48
1
60
0
100
AcDbLine
10
82.20091
20
-13.255107
30
0
11
82.346686
21
-13.109332
31
0
39
0
210
0
220
0
230
1
0
LINE
5
C9
100
AcDbEntity
8
1
62
256
6
ByLayer
370
18
48
1
60
0
100
AcDbLine
10
100.317275
20
-14.089258
30
0
11
95.013974
21
-8.785957
31
0
39
0
210
0
220
0
230
1
0
LINE
5
CA
100
AcDbEntity
8
1
62
256
6
ByLayer
370
18
48
1
60
0
100
AcDbLine
10
95.013974
20
-8.785957
30
0
11
104.206362
21
0.406431
31
0
39
0
210
0
220
0
230
1
0
LINE
5
CB
100
AcDbEntity
8
1
62
256
6
ByLayer
370
18
48
1
60
0
100
AcDbLine
10
104.206362
20
0.406431
30
0
11
109.509663
21
-4.89687
31
0
39
0
210
0
220
0
230
1
0
LINE
5
CC
100
AcDbEntity
8
1
62
256
6
ByLayer
370
18
48
1
60
0
100
AcDbLine
10
109.509663
20
-4.89687
30
0
11
100.317275
21
-14.089258
31
0
39
0
210
0
220
0
230
1
0
LINE
5
CD
100
AcDbEntity
8
1
62
256
6
ByLayer
370
18
48
1
60
0
100
AcDbLine
10
101.024382
20
-14.089258
30
0
11
109.509663
21
-5.603976
31
0
39
0
210
0
220
0
230
1
0
LINE
5
CE
100
AcDbEntity
8
1
62
256
6
ByLayer
370
18
48
1
60
0
100
AcDbLine
10
98.26603
20
2.81123
30
0
11
102.438595
21
-1.361336
31
0
39
0
210
0
220
0
230
1
0
LINE
5
CF
100
AcDbEntity
8
1
62
256
6
ByLayer
370
18
48
1
60
0
100
AcDbLine
10
96.781741
20
-7.01819
30
0
11
92.37045
21
-2.606899
31
0
39
0
210
0
220
0
230
1
0
LINE
5
D0
100
AcDbEntity
8
1
62
256
6
ByLayer
370
18
48
1
60
0
100
AcDbLine
10
89.898351
20
-24.508182
30
0
11
84.59505
21
-19.204881
31
0
39
0
210
0
220
0
230
1
0
LINE
5
D1
100
AcDbEntity
8
1
62
256
6
ByLayer
370
18
48
1
60
0
100
AcDbLine
10
84.59505
20
-19.204881
30
0
11
93.787438
21
-10.012493
31
0
39
0
210
0
220
0
230
1
0
LINE
5
D2
100
AcDbEntity
8
1
62
256
6
ByLayer
370
18
48
1
60
0
100
AcDbLine
10
93.787438
20
-10.012493
30
0
11
99.090739
21
-15.315794
31
0
39
0
210
0
220
0
230
1
0
LINE
5
D3
100
AcDbEntity
8
1
62
256
6
ByLayer
370
18
48
1
60
0
100
AcDbLine
10
99.090739
20
-15.315794
30
0
11
89.898351
21
-24.508182
31
0
39
0
210
0
220
0
230
1
0
LINE
5
D4
100
AcDbEntity
8
1
62
256
6
ByLayer
370
18
48
1
60
0
100
AcDbLine
10
90.605457
20
-24.508182
30
0
11
99.090739
21
-16.022901
31
0
39
0
210
0
220
0
230
1
0
LINE
5
D5
100
AcDbEntity
8
1
62
256
6
ByLayer
370
18
48
1
60
0
100
AcDbLine
10
87.60838
20
-7.368969
30
0
11
92.019671
21
-11.78026
31
0
39
0
210
0
220
0
230
1
0
LINE
5
D6
100
AcDbEntity
8
1
62
256
6
ByLayer
370
18
48
1
60
0
100
AcDbLine
10
86.362817
20
-17.437114
30
0
11
82.189224
21
-13.263522
31
0
39
0
210
0
220
0
230
1
0
LINE
5
D7
100
AcDbEntity
8
1
62
256
6
ByLayer
370
18
48
0.05
60
1
100
AcDbLine
10
59.596748
20
37.164331
30
0
11
59.596748
21
0
31
0
39
0
210
0
220
0
230
1
0
LINE
5
D8
100
AcDbEntity
8
1
62
256
6
ByLayer
370
18
48
1
60
0
100
AcDbLine
10
95.164005
20
1.157685
30
0
11
103.545676
21
9.539356
31
0
39
0
210
0
220
0
230
1
0
LINE
5
D9
100
AcDbEntity
8
1
62
256
6
ByLayer
370
18
48
0.05
60
1
100
AcDbLine
10
80.74125
20
-12.653283
30
0
11
80.74125
21
45.206793
31
0
39
0
210
0
220
0
230
1
0
LINE
5
DA
100
AcDbEntity
8
1
62
256
6
ByLayer
370
18
48
0.05
60
1
100
AcDbLine
10
103.545676
20
9.539356
30
0
11
112.550735
21
18.544416
31
0
39
0
210
0
220
0
230
1
0
LINE
5
DB
100
AcDbEntity
8
1
62
256
6
ByLayer
370
18
48
0.05
60
1
100
AcDbLine
10
50.141931
20
43.75
30
0
11
50.141931
21
57.385559
31
0
39
0
210
0
220
0
230
1
0
LINE
5
DC
100
AcDbEntity
8
1
62
256
6
ByLayer
370
18
48
1
60
0
100
AcDbLine
10
83.843791
20
-10.162684
30
0
11
95.164165
21
1.15769
31
0
39
0
210
0
220
0
230
1
0
LINE
5
DD
100
AcDbEntity
8
1
62
256
6
ByLayer
370
18
48
0.05
60
1
100
AcDbLine
10
55.141931
20
43.75
30
0
11
59.596748
21
43.75
31
0
39
0
210
0
220
0
230
1
0
LINE
5
DE
100
AcDbEntity
8
1
62
256
6
ByLayer
370
18
48
0.05
60
1
100
AcDbLine
10
90.25
20
50.8
30
0
11
90.25
21
14.799497
31
0
39
0
210
0
220
0
230
1
0
LINE
5
DF
100
AcDbEntity
8
SK4
62
256
6
ByLayer
370
13
48
0.05
60
1
100
AcDbLine
10
-63.559855
20
0
30
0
11
94.337095
21
0
31
0
39
0
210
0
220
0
230
1
0
LINE
5
E1
100
AcDbEntity
8
4
62
256
6
ByLayer
370
18
48
0.05
60
1
100
AcDbLine
10
72.923848
20
0
30
0
11
0
21
0
31
0
39
0
210
0
220
0
230
1
0
LINE
5
E3
100
AcDbEntity
8
1
62
256
6
ByLayer
370
18
48
0.05
60
1
100
AcDbLine
10
109.439427
20
3.836401
30
0
11
102.005842
21
16.711747
31
0
39
0
210
0
220
0
230
1
0
LINE
5
E4
100
AcDbEntity
8
1
62
256
6
ByLayer
370
18
48
0.05
60
1
100
AcDbLine
10
76
20
-122.25
30
0
11
109.3
21
-122.25
31
0
39
0
210
0
220
0
230
1
0
LINE
5
E5
100
AcDbEntity
8
1
62
256
6
ByLayer
370
18
48
0.05
60
1
100
AcDbLine
10
45
20
29.210365
30
0
11
45
21
43.75
31
0
39
0
210
0
220
0
230
1
0
LINE
5
E6
100
AcDbEntity
8
1
62
256
6
ByLayer
370
18
48
0.05
60
1
100
AcDbLine
10
46.159112
20
36.703818
30
0
11
46.159112
21
50.889417
31
0
39
0
210
0
220
0
230
1
0
LINE
5
E7
100
AcDbEntity
8
1
62
256
6
ByLayer
370
18
48
0.05
60
1
100
AcDbLine
10
50.702194
20
-96.447832
30
0
11
109.3
21
-96.447832
31
0
39
0
210
0
220
0
230
1
0
LINE
5
E8
100
AcDbEntity
8
1
62
256
6
ByLayer
370
18
48
0.05
60
1
100
AcDbLine
10
109.3
20
-107.552168
30
0
11
76
21
-107.552168
31
0
39
0
210
0
220
0
230
1
0
LINE
5
E9
100
AcDbEntity
8
1
62
256
6
ByLayer
370
18
48
0.05
60
1
100
AcDbLine
10
76
20
22.3
30
0
11
54.743691
21
-36.101229
31
0
39
0
210
0
220
0
230
1
0
LINE
5
EA
100
AcDbEntity
8
1
62
256
6
ByLayer
370
18
48
0.05
60
1
100
AcDbLine
10
109.3
20
-91.17559
30
0
11
51.512391
21
-91.17559
31
0
39
0
210
0
220
0
230
1
0
LINE
5
EB
100
AcDbEntity
8
1
62
256
6
ByLayer
370
18
48
0.05
60
1
100
AcDbLine
10
50.512391
20
58.82441
30
0
11
108.3
21
58.82441
31
0
39
0
210
0
220
0
230
1
0
LINE
5
EC
100
AcDbEntity
8
1
62
256
6
ByLayer
370
18
48
0.05
60
1
100
AcDbLine
10
108.3
20
68.25
30
0
11
50.810866
21
68.25
31
0
39
0
210
0
220
0
230
1
0
LINE
5
ED
100
AcDbEntity
8
1
62
256
6
ByLayer
370
18
48
0.05
60
1
100
AcDbLine
10
76
20
-107.552168
30
0
11
109.3
21
-107.552168
31
0
39
0
210
0
220
0
230
1
0
LINE
5
EE
100
AcDbEntity
8
1
62
256
6
ByLayer
370
18
48
0.05
60
1
100
AcDbLine
10
76
20
-112.82441
30
0
11
109.3
21
-112.82441
31
0
39
0
210
0
220
0
230
1
0
LINE
5
EF
100
AcDbEntity
8
1
62
256
6
ByLayer
370
18
48
0.05
60
1
100
AcDbLine
10
50.007018
20
59
30
0
11
50.808229
21
61.916084
31
0
39
0
210
0
220
0
230
1
0
LINE
5
F0
100
AcDbEntity
8
1
62
256
6
ByLayer
370
18
48
0.05
60
1
100
AcDbLine
10
45
20
-35.460365
30
0
11
45
21
35.460365
31
0
39
0
210
0
220
0
230
1
0
LINE
5
F1
100
AcDbEntity
8
4
62
256
6
ByLayer
370
13
48
0.05
60
1
100
AcDbLine
10
99.3
20
-150
30
0
11
0
21
-150
31
0
39
0
210
0
220
0
230
1
0
LINE
5
F2
100
AcDbEntity
8
SK4
62
256
6
ByLayer
370
13
48
0.05
60
1
100
AcDbLine
10
-64.262516
20
-150
30
0
11
102.259074
21
-150
31
0
39
0
210
0
220
0
230
1
0
LINE
5
F3
100
AcDbEntity
8
SK3
62
256
6
ByLayer
370
13
48
0.05
60
0
100
AcDbLine
10
5.000013
20
-44
30
0
11
29.000013
21
-44
31
0
39
0
210
0
220
0
230
1
0
LINE
5
F5
100
AcDbEntity
8
1
62
256
6
ByLayer
370
18
48
0.05
60
1
100
AcDbLine
10
30.000013
20
43.75
30
0
11
119.7
21
43.75
31
0
39
0
210
0
220
0
230
1
0
LINE
5
F6
100
AcDbEntity
8
1
62
256
6
ByLayer
370
18
48
0.05
60
1
100
AcDbLine
10
30.000013
20
-43.75
30
0
11
119.7
21
-43.75
31
0
39
0
210
0
220
0
230
1
0
LINE
5
F7
100
AcDbEntity
8
SK3
62
256
6
ByLayer
370
13
48
0.05
60
0
100
AcDbLine
10
5.000013
20
44
30
0
11
29.000013
21
44
31
0
39
0
210
0
220
0
230
1
0
LINE
5
F8
100
AcDbEntity
8
SK3
62
256
6
ByLayer
370
13
48
0.05
60
0
100
AcDbLine
10
5.000013
20
-50
30
0
11
5.000013
21
-44
31
0
39
0
210
0
220
0
230
1
0
LINE
5
F9
100
AcDbEntity
8
SK3
62
256
6
ByLayer
370
13
48
0.05
60
0
100
AcDbLine
10
5.000013
20
50
30
0
11
5.000013
21
44
31
0
39
0
210
0
220
0
230
1
0
LINE
5
FA
100
AcDbEntity
8
SK1
62
256
6
ByLayer
370
18
48
1
60
0
100
AcDbLine
10
-49.999987
20
-33.597502
30
0
11
-49.999987
21
0
31
0
39
0
210
0
220
0
230
1
0
LINE
5
FC
100
AcDbEntity
8
1
62
256
6
ByLayer
370
18
48
1
60
0
100
AcDbLine
10
1.3E-05
20
-49.264971
30
0
11
1.3E-05
21
0
31
0
39
0
210
0
220
0
230
1
0
LINE
5
FD
100
AcDbEntity
8
1
62
256
6
ByLayer
370
18
48
1
60
0
100
AcDbLine
10
1.3E-05
20
49.264971
30
0
11
1.3E-05
21
0
31
0
39
0
210
0
220
0
230
1
0
LINE
5
FE
100
AcDbEntity
8
SK1
62
256
6
ByLayer
370
13
48
0.05
60
0
100
AcDbLine
10
-9.999987
20
-41.40822
30
0
11
-9.999987
21
0
31
0
39
0
210
0
220
0
230
1
0
LINE
5
FF
100
AcDbEntity
8
SK1
62
256
6
ByLayer
370
18
48
1
60
0
100
AcDbLine
10
-2.499938
20
-37.875002
30
0
11
-9.999987
21
-37.5
31
0
39
0
210
0
220
0
230
1
0
LINE
5
100
100
AcDbEntity
8
SK1
62
256
6
ByLayer
370
13
48
0.05
60
0
100
AcDbLine
10
-9.999987
20
42.086628
30
0
11
-9.999987
21
0
31
0
39
0
210
0
220
0
230
1
0
LINE
5
101
100
AcDbEntity
8
SK1
62
256
6
ByLayer
370
18
48
1
60
0
100
AcDbLine
10
-2.499938
20
37.875002
30
0
11
-9.999987
21
37.5
31
0
39
0
210
0
220
0
230
1
0
LINE
5
102
100
AcDbEntity
8
SK1
62
256
6
ByLayer
370
18
48
1
60
0
100
AcDbLine
10
-49.999987
20
33.597502
30
0
11
-49.999987
21
0
31
0
39
0
210
0
220
0
230
1
0
LINE
5
103
100
AcDbEntity
8
SK1
62
256
6
ByLayer
370
18
48
1
60
0
100
AcDbLine
10
-9.999987
20
37.5
30
0
11
-48.099862
21
35.595006
31
0
39
0
210
0
220
0
230
1
0
LINE
5
104
100
AcDbEntity
8
SK1
62
256
6
ByLayer
370
18
48
1
60
0
100
AcDbLine
10
-9.999987
20
-37.5
30
0
11
-48.099862
21
-35.595006
31
0
39
0
210
0
220
0
230
1
0
LINE
5
105
100
AcDbEntity
8
1
62
256
6
ByLayer
370
18
48
1
60
0
100
AcDbLine
10
0.735042
20
50
30
0
11
16.75824
21
50
31
0
39
0
210
0
220
0
230
1
0
LINE
5
106
100
AcDbEntity
8
1
62
256
6
ByLayer
370
18
48
1
60
0
100
AcDbLine
10
29.000013
20
0
30
0
11
29.000013
21
49.215068
31
0
39
0
210
0
220
0
230
1
0
LINE
5
107
100
AcDbEntity
8
1
62
256
6
ByLayer
370
18
48
1
60
0
100
AcDbLine
10
28.215081
20
50
30
0
11
23.241884
21
50
31
0
39
0
210
0
220
0
230
1
0
LINE
5
108
100
AcDbEntity
8
1
62
256
6
ByLayer
370
18
48
1
60
0
100
AcDbLine
10
0.735042
20
-50
30
0
11
16.75824
21
-50
31
0
39
0
210
0
220
0
230
1
0
LINE
5
109
100
AcDbEntity
8
1
62
256
6
ByLayer
370
18
48
1
60
0
100
AcDbLine
10
16.75824
20
49.965019
30
0
11
18.085062
21
47.666897
31
0
39
0
210
0
220
0
230
1
0
LINE
5
10A
100
AcDbEntity
8
1
62
256
6
ByLayer
370
18
48
1
60
0
100
AcDbLine
10
18.085062
20
47.666897
30
0
11
18.085062
21
34.173373
31
0
39
0
210
0
220
0
230
1
0
LINE
5
10B
100
AcDbEntity
8
1
62
256
6
ByLayer
370
18
48
1
60
0
100
AcDbLine
10
18.485062
20
45.975019
30
0
11
21.515062
21
45.975019
31
0
39
0
210
0
220
0
230
1
0
LINE
5
10C
100
AcDbEntity
8
1
62
256
6
ByLayer
370
18
48
1
60
0
100
AcDbLine
10
21.915062
20
34.173373
30
0
11
21.915062
21
47.666897
31
0
39
0
210
0
220
0
230
1
0
LINE
5
10D
100
AcDbEntity
8
1
62
256
6
ByLayer
370
18
48
1
60
0
100
AcDbLine
10
21.915062
20
47.666897
30
0
11
23.241884
21
49.965019
31
0
39
0
210
0
220
0
230
1
0
LINE
5
10E
100
AcDbEntity
8
1
62
256
6
ByLayer
370
18
48
1
60
0
100
AcDbLine
10
28.215081
20
50
30
0
11
29.000013
21
49.215068
31
0
39
0
210
0
220
0
230
1
0
LINE
5
10F
100
AcDbEntity
8
1
62
256
6
ByLayer
370
18
48
1
60
0
100
AcDbLine
10
0.735042
20
50
30
0
11
1.3E-05
21
49.264971
31
0
39
0
210
0
220
0
230
1
0
LINE
5
110
100
AcDbEntity
8
SK1
62
256
6
ByLayer
370
18
48
1
60
0
100
AcDbLine
10
-1.753528
20
-37.681918
30
0
11
-2.499938
21
-37.881918
31
0
39
0
210
0
220
0
230
1
0
LINE
5
111
100
AcDbEntity
8
SK1
62
256
6
ByLayer
370
18
48
1
60
0
100
AcDbLine
10
-1.753528
20
-37.681918
30
0
11
-0.874846
21
-37.681918
31
0
39
0
210
0
220
0
230
1
0
LINE
5
112
100
AcDbEntity
8
SK1
62
256
6
ByLayer
370
18
48
1
60
0
100
AcDbLine
10
-2.499938
20
1.9E-05
30
0
11
-2.499938
21
37.875002
31
0
39
0
210
0
220
0
230
1
0
LINE
5
113
100
AcDbEntity
8
SK1
62
256
6
ByLayer
370
13
48
1
60
0
100
AcDbLine
10
-1.753528
20
1.9E-05
30
0
11
-1.753528
21
37.681957
31
0
39
0
210
0
220
0
230
1
0
LINE
5
114
100
AcDbEntity
8
1
62
256
6
ByLayer
370
18
48
1
60
0
100
AcDbLine
10
0.700062
20
1.9E-05
30
0
11
0.700062
21
49.965019
31
0
39
0
210
0
220
0
230
1
0
LINE
5
115
100
AcDbEntity
8
1
62
256
6
ByLayer
370
18
48
1
60
0
100
AcDbLine
10
23.241884
20
50
30
0
11
23.241884
21
38.906044
31
0
39
0
210
0
220
0
230
1
0
LINE
5
116
100
AcDbEntity
8
1
62
256
6
ByLayer
370
18
48
1
60
0
100
AcDbLine
10
28.250062
20
49.965019
30
0
11
28.250062
21
38.906044
31
0
39
0
210
0
220
0
230
1
0
LINE
5
117
100
AcDbEntity
8
1
62
256
6
ByLayer
370
18
48
1
60
0
100
AcDbLine
10
16.75824
20
50
30
0
11
16.75824
21
38.906044
31
0
39
0
210
0
220
0
230
1
0
LINE
5
118
100
AcDbEntity
8
1
62
256
6
ByLayer
370
18
48
1
60
0
100
AcDbLine
10
28.250062
20
38.906044
30
0
11
28.950062
21
38.206044
31
0
39
0
210
0
220
0
230
1
0
LINE
5
119
100
AcDbEntity
8
1
62
256
6
ByLayer
370
18
48
1
60
0
100
AcDbLine
10
28.215081
20
-50
30
0
11
29.000013
21
-49.215068
31
0
39
0
210
0
220
0
230
1
0
LINE
5
11A
100
AcDbEntity
8
1
62
256
6
ByLayer
370
18
48
1
60
0
100
AcDbLine
10
21.915062
20
-47.666897
30
0
11
23.241884
21
-49.965019
31
0
39
0
210
0
220
0
230
1
0
LINE
5
11B
100
AcDbEntity
8
1
62
256
6
ByLayer
370
18
48
1
60
0
100
AcDbLine
10
18.485062
20
-45.975019
30
0
11
21.515062
21
-45.975019
31
0
39
0
210
0
220
0
230
1
0
LINE
5
11C
100
AcDbEntity
8
1
62
256
6
ByLayer
370
18
48
1
60
0
100
AcDbLine
10
16.75824
20
-49.965019
30
0
11
18.085062
21
-47.666897
31
0
39
0
210
0
220
0
230
1
0
LINE
5
11D
100
AcDbEntity
8
1
62
256
6
ByLayer
370
18
48
1
60
0
100
AcDbLine
10
28.215081
20
-50
30
0
11
23.241884
21
-50
31
0
39
0
210
0
220
0
230
1
0
LINE
5
11E
100
AcDbEntity
8
1
62
256
6
ByLayer
370
18
48
1
60
0
100
AcDbLine
10
16.75824
20
-50
30
0
11
16.75824
21
31.350019
31
0
39
0
210
0
220
0
230
1
0
LINE
5
11F
100
AcDbEntity
8
1
62
256
6
ByLayer
370
18
48
1
60
0
100
AcDbLine
10
18.085062
20
-47.666897
30
0
11
18.085062
21
31.350019
31
0
39
0
210
0
220
0
230
1
0
LINE
5
120
100
AcDbEntity
8
1
62
256
6
ByLayer
370
18
48
1
60
0
100
AcDbLine
10
21.915062
20
31.350019
30
0
11
21.915062
21
-47.666897
31
0
39
0
210
0
220
0
230
1
0
LINE
5
121
100
AcDbEntity
8
1
62
256
6
ByLayer
370
18
48
1
60
0
100
AcDbLine
10
23.241884
20
-50
30
0
11
23.241884
21
31.350019
31
0
39
0
210
0
220
0
230
1
0
LINE
5
122
100
AcDbEntity
8
1
62
256
6
ByLayer
370
18
48
1
60
0
100
AcDbLine
10
28.250062
20
-49.965019
30
0
11
28.250062
21
31.350019
31
0
39
0
210
0
220
0
230
1
0
LINE
5
123
100
AcDbEntity
8
1
62
256
6
ByLayer
370
18
48
1
60
0
100
AcDbLine
10
29.000013
20
0
30
0
11
29.000013
21
-49.215068
31
0
39
0
210
0
220
0
230
1
0
LINE
5
124
100
AcDbEntity
8
1
62
256
6
ByLayer
370
18
48
1
60
0
100
AcDbLine
10
0.735042
20
-50
30
0
11
1.3E-05
21
-49.264971
31
0
39
0
210
0
220
0
230
1
0
LINE
5
125
100
AcDbEntity
8
1
62
256
6
ByLayer
370
18
48
1
60
0
100
AcDbLine
10
0.700062
20
-1.9E-05
30
0
11
0.700062
21
-49.965019
31
0
39
0
210
0
220
0
230
1
0
LINE
5
126
100
AcDbEntity
8
SK1
62
256
6
ByLayer
370
13
48
1
60
0
100
AcDbLine
10
-1.753528
20
-1.9E-05
30
0
11
-1.753528
21
-37.681957
31
0
39
0
210
0
220
0
230
1
0
LINE
5
127
100
AcDbEntity
8
SK1
62
256
6
ByLayer
370
18
48
1
60
0
100
AcDbLine
10
-2.499938
20
-1.9E-05
30
0
11
-2.499938
21
-37.875002
31
0
39
0
210
0
220
0
230
1
0
LINE
5
128
100
AcDbEntity
8
SK1
62
256
6
ByLayer
370
18
48
1
60
0
100
AcDbLine
10
-1.753528
20
37.681918
30
0
11
-0.874846
21
37.681918
31
0
39
0
210
0
220
0
230
1
0
LINE
5
129
100
AcDbEntity
8
SK1
62
256
6
ByLayer
370
18
48
1
60
0
100
AcDbLine
10
-1.753528
20
37.681918
30
0
11
-2.499938
21
37.881918
31
0
39
0
210
0
220
0
230
1
0
LINE
5
12A
100
AcDbEntity
8
1
62
256
6
ByLayer
370
18
48
1
60
0
100
AcDbLine
10
28.950062
20
31.350019
30
0
11
14.646813
21
31.350019
31
0
39
0
210
0
220
0
230
1
0
LINE
5
12B
100
AcDbEntity
8
1
62
256
6
ByLayer
370
18
48
1
60
0
100
AcDbLine
10
4.950062
20
38.906044
30
0
11
16.75824
21
38.906044
31
0
39
0
210
0
220
0
230
1
0
LINE
5
12C
100
AcDbEntity
8
1
62
256
6
ByLayer
370
18
48
1
60
0
100
AcDbLine
10
28.250062
20
38.906044
30
0
11
23.241884
21
38.906044
31
0
39
0
210
0
220
0
230
1
0
LINE
5
12D
100
AcDbEntity
8
80
62
256
6
ByLayer
370
13
48
1
60
0
100
AcDbLine
10
0
20
0
30
0
11
-8.883338
21
0
31
0
39
0
210
0
220
0
230
1
0
LINE
5
12E
100
AcDbEntity
8
SK4
62
256
6
ByLayer
370
13
48
0.05
60
1
100
AcDbLine
10
-52.502471
20
-150
30
0
11
102.259074
21
-150
31
0
39
0
210
0
220
0
230
1
0
LINE
5
12F
100
AcDbEntity
8
1
62
256
6
ByLayer
370
18
48
0.05
60
1
100
AcDbLine
10
52.548511
20
68.25
30
0
11
108.3
21
68.25
31
0
39
0
210
0
220
0
230
1
0
LINE
5
130
100
AcDbEntity
8
1
62
256
6
ByLayer
370
18
48
0.05
60
1
100
AcDbLine
10
30.000013
20
-43.75
30
0
11
51.959766
21
-43.75
31
0
39
0
210
0
220
0
230
1
0
LINE
5
131
100
AcDbEntity
8
1
62
256
6
ByLayer
370
18
48
0.05
60
1
100
AcDbLine
10
45
20
-43.75
30
0
11
45
21
43.75
31
0
39
0
210
0
220
0
230
1
0
LINE
5
132
100
AcDbEntity
8
SK4
62
256
6
ByLayer
370
13
48
0.05
60
1
100
AcDbLine
10
-53.892554
20
0
30
0
11
94.337095
21
0
31
0
39
0
210
0
220
0
230
1
0
LINE
5
133
100
AcDbEntity
8
1
62
256
6
ByLayer
370
18
48
1
60
0
100
AcDbLine
10
30.845342
20
-39.214399
30
0
11
30.845342
21
39.214399
31
0
39
0
210
0
220
0
230
1
0
LINE
5
134
100
AcDbEntity
8
1
62
256
6
ByLayer
370
18
48
1
60
0
100
AcDbLine
10
71.739398
20
-2.047412
30
0
11
65.074499
21
-8.712311
31
0
39
0
210
0
220
0
230
1
0
LINE
5
135
100
AcDbEntity
8
1
62
256
6
ByLayer
370
18
48
1
60
0
100
AcDbLine
10
71.739398
20
-2.047412
30
0
11
81.851025
21
-12.159039
31
0
39
0
210
0
220
0
230
1
0
LINE
5
136
100
AcDbEntity
8
1
62
256
6
ByLayer
370
18
48
1
60
0
100
AcDbLine
10
75.186126
20
-18.823938
30
0
11
81.851025
21
-12.159039
31
0
39
0
210
0
220
0
230
1
0
LINE
5
137
100
AcDbEntity
8
1
62
256
6
ByLayer
370
18
48
1
60
0
100
AcDbLine
10
81.851025
20
-12.159039
30
0
11
85.579063
21
-8.431001
31
0
39
0
210
0
220
0
230
1
0
LINE
5
138
100
AcDbEntity
8
1
62
256
6
ByLayer
370
18
48
1
60
0
100
AcDbLine
10
85.579063
20
-8.431001
30
0
11
93.431014
21
-0.57905
31
0
39
0
210
0
220
0
230
1
0
LINE
5
139
100
AcDbEntity
8
1
62
256
6
ByLayer
370
18
48
1
60
0
100
AcDbLine
10
93.431014
20
-0.57905
30
0
11
97.159052
21
3.148988
31
0
39
0
210
0
220
0
230
1
0
LINE
5
13A
100
AcDbEntity
8
1
62
256
6
ByLayer
370
18
48
1
60
0
100
AcDbLine
10
97.159052
20
3.148988
30
0
11
103.823951
21
9.813887
31
0
39
0
210
0
220
0
230
1
0
LINE
5
13B
100
AcDbEntity
8
1
62
256
6
ByLayer
370
18
48
1
60
0
100
AcDbLine
10
97.159052
20
3.148988
30
0
11
83.516571
21
16.79147
31
0
39
0
210
0
220
0
230
1
0
LINE
5
13C
100
AcDbEntity
8
1
62
256
6
ByLayer
370
18
48
1
60
0
100
AcDbLine
10
83.152862
20
9.366052
30
0
11
34.778541
21
-39.008269
31
0
39
0
210
0
220
0
230
1
0
LINE
5
13D
100
AcDbEntity
8
1
62
256
6
ByLayer
370
18
48
1
60
0
100
AcDbLine
10
83.152862
20
9.366052
30
0
11
75.467436
21
1.680626
31
0
39
0
210
0
220
0
230
1
0
LINE
5
13E
100
AcDbEntity
8
1
62
256
6
ByLayer
370
18
48
1
60
0
100
AcDbLine
10
75.467436
20
1.680626
30
0
11
71.739398
21
-2.047412
31
0
39
0
210
0
220
0
230
1
0
LINE
5
13F
100
AcDbEntity
8
1
62
256
6
ByLayer
370
18
48
1
60
0
100
AcDbLine
10
34.778541
20
-39.008269
30
0
11
30.845342
21
-39.214399
31
0
39
0
210
0
220
0
230
1
0
LINE
5
140
100
AcDbEntity
8
1
62
256
6
ByLayer
370
18
48
1
60
0
100
AcDbLine
10
30.845342
20
39.214399
30
0
11
45.942495
21
38.423191
31
0
39
0
210
0
220
0
230
1
0
LINE
5
141
100
AcDbEntity
8
1
62
256
6
ByLayer
370
18
48
1
60
0
100
AcDbLine
10
28.950013
20
-41.211658
30
0
11
28.950013
21
-43.9
31
0
39
0
210
0
220
0
230
1
0
LINE
5
142
100
AcDbEntity
8
1
62
256
6
ByLayer
370
18
48
1
60
0
100
AcDbLine
10
28.950013
20
43.9
30
0
11
28.950013
21
41.211658
31
0
39
0
210
0
220
0
230
1
0
LINE
5
143
100
AcDbEntity
8
1
62
256
6
ByLayer
370
18
48
1
60
0
100
AcDbLine
10
75.186126
20
-18.823938
30
0
11
65.074499
21
-8.712311
31
0
39
0
210
0
220
0
230
1
0
LINE
5
144
100
AcDbEntity
8
1
62
256
6
ByLayer
370
18
48
1
60
0
100
AcDbLine
10
95.059006
20
18.578832
30
0
11
103.823951
21
9.813887
31
0
39
0
210
0
220
0
230
1
0
LINE
5
145
100
AcDbEntity
8
1
62
256
6
ByLayer
370
18
48
0.05
60
1
100
AcDbLine
10
46.159112
20
113.441122
30
0
11
46.159112
21
36.703818
31
0
39
0
210
0
220
0
230
1
0
LINE
5
146
100
AcDbEntity
8
1
62
256
6
ByLayer
370
18
48
0.05
60
1
100
AcDbLine
10
46.159112
20
-43.75
30
0
11
46.159112
21
113.441122
31
0
39
0
210
0
220
0
230
1
0
LINE
5
147
100
AcDbEntity
8
1
62
256
6
ByLayer
370
18
48
0.05
60
1
100
AcDbLine
10
80.74125
20
45.206793
30
0
11
80.74125
21
-13.26507
31
0
39
0
210
0
220
0
230
1
0
LINE
5
148
100
AcDbEntity
8
4
62
256
6
ByLayer
370
13
48
0.05
60
1
100
AcDbLine
10
85.001481
20
0
30
0
11
0
21
0
31
0
39
0
210
0
220
0
230
1
0
LINE
5
149
100
AcDbEntity
8
1
62
256
6
ByLayer
370
18
48
1
60
0
100
AcDbLine
10
34.778541
20
-39.008269
30
0
11
30.845342
21
-39.214399
31
0
39
0
210
0
220
0
230
1
0
LINE
5
14A
100
AcDbEntity
8
1
62
256
6
ByLayer
370
18
48
1
60
0
100
AcDbLine
10
30.845342
20
39.214399
30
0
11
45.942495
21
38.423191
31
0
39
0
210
0
220
0
230
1
0
LINE
5
14B
100
AcDbEntity
8
1
62
256
6
ByLayer
370
18
48
1
60
0
100
AcDbLine
10
28.950013
20
-41.211658
30
0
11
28.950013
21
-43.9
31
0
39
0
210
0
220
0
230
1
0
LINE
5
14C
100
AcDbEntity
8
1
62
256
6
ByLayer
370
18
48
1
60
0
100
AcDbLine
10
28.950013
20
43.9
30
0
11
28.950013
21
41.211658
31
0
39
0
210
0
220
0
230
1
0
LINE
5
14D
100
AcDbEntity
8
1
62
256
6
ByLayer
370
18
48
1
60
0
100
AcDbLine
10
34.778541
20
-39.008269
30
0
11
30.845342
21
-39.214399
31
0
39
0
210
0
220
0
230
1
0
LINE
5
14E
100
AcDbEntity
8
1
62
256
6
ByLayer
370
18
48
1
60
0
100
AcDbLine
10
30.845342
20
39.214399
30
0
11
45.942495
21
38.423191
31
0
39
0
210
0
220
0
230
1
0
LINE
5
14F
100
AcDbEntity
8
1
62
256
6
ByLayer
370
18
48
1
60
0
100
AcDbLine
10
28.950013
20
-41.211658
30
0
11
28.950013
21
-43.9
31
0
39
0
210
0
220
0
230
1
0
LINE
5
150
100
AcDbEntity
8
1
62
256
6
ByLayer
370
18
48
1
60
0
100
AcDbLine
10
28.950013
20
43.9
30
0
11
28.950013
21
41.211658
31
0
39
0
210
0
220
0
230
1
0
LINE
5
151
100
AcDbEntity
8
1
62
256
6
ByLayer
370
18
48
1
60
0
100
AcDbLine
10
83.516571
20
16.79147
30
0
11
82.211365
21
19.251598
31
0
39
0
210
0
220
0
230
1
0
LINE
5
152
100
AcDbEntity
8
4
62
256
6
ByLayer
370
13
48
0.05
60
0
100
AcDbLine
10
90
20
0
30
0
11
0
21
0
31
0
39
0
210
0
220
0
230
1
0
LINE
5
153
100
AcDbEntity
8
SK4
62
256
6
ByLayer
370
13
48
0.05
60
0
100
AcDbLine
10
106.217661
20
0
30
0
11
-53.892554
21
0
31
0
39
0
210
0
220
0
230
1
0
LINE
5
154
100
AcDbEntity
8
81
62
256
6
ByLayer
370
13
48
1
60
0
100
AcDbLine
10
90
20
-5
30
0
11
95
21
-10
31
0
39
0
210
0
220
0
230
1
0
MTEXT
5
1FB
100
AcDbEntity
8
SK6
62
256
6
ByLayer
370
18
48
1
60
0
100
AcDbMText
10
5.131468
20
-68.40375
30
0
210
0
220
0
230
1
1
\W0.7839;392.T100SL70RX-045
40
4
41
0
44
1.084337
50
0
71
7
72
5
7
iso_b_vert
0
DIMENSION
5
21B
100
AcDbEntity
8
2
62
256
6
ByLayer
370
13
48
1
60
0
100
AcDbDimension
2
DimnDraft3D1
10
90
20
81.534244
30
0
11
45.000007
21
81.534244
31
0
70
32
71
5
72
1
41
1
210
0
220
0
230
1
3
Standard
100
AcDbAlignedDimension
13
1.3E-05
23
50.852471
33
0
14
90
24
-3.4125
34
0
50
0
100
AcDbRotatedDimension
1001
ACAD
1000
DSTYLE
1002
{
1070
   279
1070
     0
1070
   172
1070
     1
1070
   173
1070
     1
1070
   340
1005
1FC
1070
   272
1070
     2
1070
    77
1070
     1
1070
    73
1070
     0
1070
   171
1070
     3
1070
   274
1070
     4
1070
   177
1070
     7
1070
   176
1070
     7
1070
   178
1070
     7
1070
    78
1070
     8
1070
    48
1040
-0.005
1070
    41
1041
3.175
1070
   147
1041
1.75006
1070
    42
1041
1.5875
1070
    44
1041
3.175
1070
   140
1041
3.50012
1070
   343
1005
200
1070
   344
1005
200
1002
}
0
DIMENSION
5
229
100
AcDbEntity
8
SK2
62
256
6
ByLayer
370
13
48
1
60
0
100
AcDbDimension
2
DimnDraft3D2
10
1.3E-05
20
69.148736
30
0
11
-26.752618
21
69.148736
31
0
70
32
71
5
72
1
41
1
210
0
220
0
230
1
3
Standard
100
AcDbAlignedDimension
13
-49.999987
23
35.097502
33
0
14
1.3E-05
24
50.764971
34
0
50
0
100
AcDbRotatedDimension
1001
ACAD
1000
DSTYLE
1002
{
1070
   279
1070
     0
1070
   173
1070
     1
1070
   340
1005
1FC
1070
   271
1070
     0
1070
   272
1070
     2
1070
    77
1070
     1
1070
    73
1070
     0
1070
   171
1070
     4
1070
   274
1070
     4
1070
   177
1070
     7
1070
   176
1070
     7
1070
   178
1070
     7
1070
    41
1041
3.0
1070
   147
1041
1.5
1070
    42
1041
1.5
1070
    44
1041
3.0
1070
   140
1041
3.0
1070
   343
1005
200
1070
   344
1005
200
1002
}
0
DIMENSION
5
237
100
AcDbEntity
8
SK2
62
256
6
ByLayer
370
13
48
1
60
0
100
AcDbDimension
2
DimnDraft3D3
10
29.000013
20
69.115675
30
0
11
12.747382
21
69.115675
31
0
70
32
71
5
72
1
41
1
210
0
220
0
230
1
3
Standard
100
AcDbAlignedDimension
13
1.3E-05
23
50.764971
33
0
14
29.000013
24
50.715068
34
0
50
0
100
AcDbRotatedDimension
1001
ACAD
1000
DSTYLE
1002
{
1070
   279
1070
     0
1070
   173
1070
     1
1070
   340
1005
1FC
1070
   271
1070
     0
1070
   272
1070
     2
1070
    77
1070
     1
1070
    73
1070
     0
1070
   171
1070
     4
1070
   274
1070
     4
1070
   177
1070
     7
1070
   176
1070
     7
1070
   178
1070
     7
1070
    41
1041
3.0
1070
   147
1041
1.5
1070
    42
1041
1.5
1070
    44
1041
3.0
1070
   140
1041
3.0
1070
   343
1005
200
1070
   344
1005
200
1002
}
0
DIMENSION
5
245
100
AcDbEntity
8
SK2
62
256
6
ByLayer
370
13
48
1
60
0
100
AcDbDimension
2
DimnDraft3D4
10
-81.220478
20
50
30
0
11
-81.220478
21
-4.8
31
0
70
32
71
5
72
1
41
1
210
0
220
0
230
1
3
Standard
100
AcDbAlignedDimension
13
-0.764958
23
-50
33
0
14
-0.764958
24
50
34
0
50
90
100
AcDbRotatedDimension
1001
ACAD
1000
DSTYLE
1002
{
1070
    74
1070
     0
1070
   279
1070
     0
1070
   173
1070
     1
1070
   340
1005
1FC
1070
   271
1070
     0
1070
   272
1070
     2
1070
    77
1070
     1
1070
    73
1070
     0
1070
   171
1070
     4
1070
   274
1070
     4
1070
   177
1070
     7
1070
   176
1070
     7
1070
   178
1070
     7
1070
    41
1041
3.0
1070
   147
1041
1.5
1070
    42
1041
1.5
1070
    44
1041
3.0
1070
   140
1041
3.0
1070
   343
1005
200
1070
   344
1005
200
1002
}
0
DIMENSION
5
253
100
AcDbEntity
8
SK2
62
256
6
ByLayer
370
13
48
1
60
0
100
AcDbDimension
2
DimnDraft3D5
10
-65.856954
20
37.5
30
0
11
-65.856954
21
-4.073684
31
0
70
32
71
5
72
1
41
1
210
0
220
0
230
1
3
Standard
100
AcDbAlignedDimension
13
-11.499987
23
-37.5
33
0
14
-11.499987
24
37.5
34
0
50
90
100
AcDbRotatedDimension
1001
ACAD
1000
DSTYLE
1002
{
1070
    74
1070
     0
1070
   279
1070
     0
1070
   173
1070
     1
1070
   340
1005
1FC
1070
   271
1070
     0
1070
   272
1070
     2
1070
    77
1070
     1
1070
    73
1070
     0
1070
   171
1070
     4
1070
   274
1070
     4
1070
   177
1070
     7
1070
   176
1070
     7
1070
   178
1070
     7
1070
    41
1041
3.0
1070
   147
1041
1.5
1070
    42
1041
1.5
1070
    44
1041
3.0
1070
   140
1041
3.0
1070
   343
1005
200
1070
   344
1005
200
1002
}
0
DIMENSION
5
261
100
AcDbEntity
8
SK2
62
256
6
ByLayer
370
13
48
1
60
0
100
AcDbDimension
2
DimnDraft3D6
10
130.029431
20
-5
30
0
11
130.029431
21
-2.5
31
0
70
32
71
5
72
1
41
1
210
0
220
0
230
1
3
Standard
100
AcDbAlignedDimension
13
107.805161
23
0
33
0
14
91.5875
24
-5
34
0
50
90
100
AcDbRotatedDimension
1001
ACAD
1000
DSTYLE
1002
{
1070
    74
1070
     0
1070
   279
1070
     0
1070
   172
1070
     1
1070
   173
1070
     1
1070
   340
1005
1FC
1070
   271
1070
     1
1070
   272
1070
     2
1070
    77
1070
     1
1070
    73
1070
     0
1070
   171
1070
     3
1070
   274
1070
     4
1070
   177
1070
     7
1070
   176
1070
     7
1070
   178
1070
     7
1070
    78
1070
     8
1070
    48
1040
-0.005
1070
    41
1041
3.175
1070
   147
1041
1.75006
1070
    42
1041
1.5875
1070
    44
1041
3.175
1070
   140
1041
3.50012
1070
   343
1005
0
1070
   344
1005
0
1002
}
0
DIMENSION
5
26F
100
AcDbEntity
8
SK2
62
256
6
ByLayer
370
13
48
1
60
0
100
AcDbDimension
2
DimnDraft3D7
10
124.636679
20
-11.350927
30
0
11
105.435842
21
-23.586677
31
0
70
33
71
5
72
1
41
1
210
0
220
0
230
1
3
Standard
100
AcDbAlignedDimension
13
76.625796
23
-19.908586
33
0
14
104.910067
24
8.375685
34
0
1001
ACAD
1000
DSTYLE
1002
{
1070
   279
1070
     0
1070
    74
1070
     0
1070
   173
1070
     1
1070
   340
1005
1FC
1070
   271
1070
     1
1070
   272
1070
     2
1070
    77
1070
     1
1070
    73
1070
     0
1070
   171
1070
     3
1070
   274
1070
     4
1070
   177
1070
     7
1070
   176
1070
     7
1070
   178
1070
     7
1070
    78
1070
     8
1070
    48
1040
-0.005
1070
    41
1041
3.175
1070
   147
1041
1.75006
1070
    42
1041
1.5875
1070
    44
1041
3.175
1070
   140
1041
3.50012
1070
   343
1005
0
1070
   344
1005
0
1002
}
0
ENDSEC
0
SECTION
2
OBJECTS
0
DICTIONARY
5
2db
330
0
100
AcDbDictionary
280
0
281
1
3
ACAD_GROUP
350
2dc
3
ACAD_MLINESTYLE
350
2dd
0
DICTIONARY
5
2dc
330
0
100
AcDbDictionary
280
0
281
1
0
DICTIONARY
5
2dd
330
0
100
AcDbDictionary
280
0
281
1
3
Standard
350
18
0
MLINESTYLE
5
18
330
2dd
100
AcDbMlineStyle
2
Standard
70
0
3

62
256
51
90
52
90
71
2
49
-0.5
62
256
6
ByLayer
49
0.5
62
256
6
ByLayer
0
RASTERVARIABLES
5
2c8
330

100
AcDbRasterVariables
90
0
70
1
71
1
72
1
0
ENDSEC
0
EOF
