0
SECTION
2
HEADER
9
$ACADVER
1
AC1015
9
$DWGCODEPAGE
3
ANSI_1252
9
$HANDSEED
5
21b
9
$ANGBASE
50
0
9
$ANGDIR
70
0
9
$ATTMODE
70
1
9
$AUNITS
70
0
9
$AUPREC
70
0
9
$CECOLOR
62
256
9
$CELTSCALE
40
1
9
$CELTYPE
6
ByLayer
9
$CELWEIGHT
370
18
9
$CLAYER
8
0
9
$CMLJUST
70
0
9
$CMLSCALE
40
1
9
$CMLSTYLE
2
Standard
9
$DIMSTYLE
2
Standard
9
$TEXTSIZE
40
0.2
9
$TEXTSTYLE
7
Standard
9
$LUNITS
70
2
9
$LUPREC
70
4
9
$EXTNAMES
290
1
9
$INSUNITS
70
4
9
$LTSCALE
40
1
9
$LWDISPLAY
290
1
9
$PDMODE
70
0
9
$PDSIZE
40
0
9
$PLINEGEN
70
0
0
ENDSEC
0
SECTION
2
CLASSES
0
CLASS
1
RASTERVARIABLES
2
AcDbRasterVariables
3
ISM
90
0
280
0
281
0
0
ENDSEC
0
SECTION
2
TABLES
0
TABLE
2
VPORT
5
211
100
AcDbSymbolTable
0
VPORT
5
1
100
AcDbSymbolTableRecord
100
AcDbViewportTableRecord
2
*Active
70
0
10
0
20
0
11
1
21
1
12
-1
22
1
13
0
23
0
14
0.5
24
0.5
15
10
25
10
16
0
26
0
36
1
17
0
27
0
37
0
0
ENDTAB
0
TABLE
2
LTYPE
5
212
100
AcDbSymbolTable
0
LTYPE
5
14
100
AcDbSymbolTableRecord
100
AcDbLinetypeTableRecord
70
0
2
ByBlock
3

72
65
73
0
40
0
0
LTYPE
5
15
100
AcDbSymbolTableRecord
100
AcDbLinetypeTableRecord
70
0
2
ByLayer
3

72
65
73
0
40
0
0
LTYPE
5
16
100
AcDbSymbolTableRecord
100
AcDbLinetypeTableRecord
70
0
2
CONTINUOUS
3
Solid line
72
65
73
0
40
0
0
LTYPE
5
6A
100
AcDbSymbolTableRecord
100
AcDbLinetypeTableRecord
70
0
2
CENTER
3
____ _ ____ _ ____ _ ____
72
65
73
4
40
47.5
49
22
74
0
49
-8.5
74
0
49
8.5
74
0
49
-8.5
74
0
0
LTYPE
5
6B
100
AcDbSymbolTableRecord
100
AcDbLinetypeTableRecord
70
0
2
DASHED
3
__ __ __ __ __ __ __ __ __
72
65
73
2
40
25.72
49
12.86
74
0
49
-12.86
74
0
0
ENDTAB
0
TABLE
2
LAYER
5
213
100
AcDbSymbolTable
0
LAYER
5
10
100
AcDbSymbolTableRecord
100
AcDbLayerTableRecord
2
0
70
0
62
7
6
CONTINUOUS
290
1
370
-3
390
0
0
LAYER
5
6F
100
AcDbSymbolTableRecord
100
AcDbLayerTableRecord
2
80
70
0
62
-6
6
CONTINUOUS
290
1
370
-3
390
0
0
LAYER
5
71
100
AcDbSymbolTableRecord
100
AcDbLayerTableRecord
2
81
70
0
62
-3
6
CONTINUOUS
290
1
370
-3
390
0
0
LAYER
5
7D
100
AcDbSymbolTableRecord
100
AcDbLayerTableRecord
2
1
70
0
62
4
6
CONTINUOUS
290
1
370
-3
390
0
0
LAYER
5
10C
100
AcDbSymbolTableRecord
100
AcDbLayerTableRecord
2
4
70
0
62
-2
6
CENTER
290
1
370
-3
390
0
0
LAYER
5
198
100
AcDbSymbolTableRecord
100
AcDbLayerTableRecord
2
2
70
0
62
7
6
CONTINUOUS
290
1
370
-3
390
0
0
LAYER
5
1fb
100
AcDbSymbolTableRecord
100
AcDbLayerTableRecord
2
SK1
70
0
62
4
6
CONTINUOUS
290
1
370
-3
390
0
0
LAYER
5
1fc
100
AcDbSymbolTableRecord
100
AcDbLayerTableRecord
2
SK3
70
0
62
1
6
DASHED
290
1
370
-3
390
0
0
LAYER
5
1fd
100
AcDbSymbolTableRecord
100
AcDbLayerTableRecord
2
SK6
70
0
62
5
6
CONTINUOUS
290
1
370
-3
390
0
0
LAYER
5
1fe
100
AcDbSymbolTableRecord
100
AcDbLayerTableRecord
2
SK2
70
0
62
7
6
CONTINUOUS
290
1
370
-3
390
0
0
ENDTAB
0
TABLE
2
STYLE
5
214
100
AcDbSymbolTable
0
STYLE
5
11
100
AcDbSymbolTableRecord
100
AcDbTextStyleTableRecord
2
Standard
3
txt
70
0
71
0
40
0
41
1
42
0
50
0
0
STYLE
5
167
100
AcDbSymbolTableRecord
100
AcDbTextStyleTableRecord
2
Arial Unicode MS
3
Arial Unicode MS
70
0
71
0
40
0
41
1
42
0
50
0
0
STYLE
5
173
100
AcDbSymbolTableRecord
100
AcDbTextStyleTableRecord
2
iso-1
3
isocp.shx
70
0
71
0
40
0
41
1
42
0
50
0
0
STYLE
5
174
100
AcDbSymbolTableRecord
100
AcDbTextStyleTableRecord
2
DWGDirectTextStyle
3
isocp
70
0
71
0
40
0
41
1
42
0
50
0
0
ENDTAB
0
TABLE
2
DIMSTYLE
5
215
100
AcDbSymbolTable
100
AcDbDimStyleTable
0
DIMSTYLE
105
27
100
AcDbSymbolTableRecord
100
AcDbDimStyleTableRecord
2
Standard
70
0
3
<>
41
0.18
42
0.0625
44
0.18
140
0.18
147
0.09
73
0
74
0
77
1
271
2
275
0
278
52
280
0
340
11
0
ENDTAB
0
TABLE
2
VIEW
5
216
100
AcDbSymbolTable
0
ENDTAB
0
TABLE
2
UCS
5
217
100
AcDbSymbolTable
0
ENDTAB
0
TABLE
2
APPID
5
218
100
AcDbSymbolTable
0
APPID
5
12
100
AcDbSymbolTableRecord
100
AcDbRegAppTableRecord
2
ACAD
70
0
0
ENDTAB
0
TABLE
2
BLOCK_RECORD
5
219
100
AcDbSymbolTable
0
BLOCK_RECORD
5
1F
100
AcDbSymbolTableRecord
100
AcDbBlockTableRecord
2
*Model_Space
340
0
70
0
0
BLOCK_RECORD
5
1B
100
AcDbSymbolTableRecord
100
AcDbBlockTableRecord
2
*Paper_Space
340
0
70
0
0
BLOCK_RECORD
5
23
100
AcDbSymbolTableRecord
100
AcDbBlockTableRecord
2
*Paper_Space0
340
0
70
0
0
BLOCK_RECORD
5
169
100
AcDbSymbolTableRecord
100
AcDbBlockTableRecord
2
DimnDraft3D11
340
0
70
0
0
BLOCK_RECORD
5
176
100
AcDbSymbolTableRecord
100
AcDbBlockTableRecord
2
DimnDraft3D2
340
0
70
0
0
BLOCK_RECORD
5
180
100
AcDbSymbolTableRecord
100
AcDbBlockTableRecord
2
DimnDraft3D3
340
0
70
0
0
BLOCK_RECORD
5
18B
100
AcDbSymbolTableRecord
100
AcDbBlockTableRecord
2
DimnDraft3D4
340
0
70
0
0
BLOCK_RECORD
5
196
100
AcDbSymbolTableRecord
100
AcDbBlockTableRecord
2
DimnDraft3D5
340
0
70
0
0
ENDTAB
0
ENDSEC
0
SECTION
2
BLOCKS
0
BLOCK
5
20
100
AcDbEntity
8
0
100
AcDbBlockBegin
2
*Model_Space
70
0
10
0
20
0
30
0
3
*Model_Space
0
ENDBLK
5
21
100
AcDbEntity
8
0
100
AcDbBlockEnd
0
BLOCK
5
1C
100
AcDbEntity
8
0
100
AcDbBlockBegin
2
*Paper_Space
70
0
10
0
20
0
30
0
3
*Paper_Space
0
ENDBLK
5
1D
100
AcDbEntity
8
0
100
AcDbBlockEnd
0
BLOCK
5
24
100
AcDbEntity
8
0
100
AcDbBlockBegin
2
*Paper_Space0
70
0
10
0
20
0
30
0
3
*Paper_Space0
0
ENDBLK
5
25
100
AcDbEntity
8
0
100
AcDbBlockEnd
0
BLOCK
5
16A
100
AcDbEntity
8
0
100
AcDbBlockBegin
2
DimnDraft3D11
70
0
10
0
20
0
30
0
3
DimnDraft3D11
0
LINE
5
16C
100
AcDbEntity
8
SK2
62
256
6
ByLayer
370
25
48
1
60
0
100
AcDbLine
10
24.978076
20
-4
30
0
11
24.978076
21
-32.202442
31
0
39
0
210
0
220
0
230
1
0
LINE
5
16E
100
AcDbEntity
8
SK2
62
256
6
ByLayer
370
25
48
1
60
0
100
AcDbLine
10
-13.631924
20
-3.154428
30
0
11
-13.631924
21
-32.202442
31
0
39
0
210
0
220
0
230
1
0
LINE
5
16F
100
AcDbEntity
8
SK2
62
256
6
ByLayer
370
25
48
1
60
0
100
AcDbLine
10
24.978076
20
-30.202442
30
0
11
-13.631924
21
-30.202442
31
0
39
0
210
0
220
0
230
1
0
SOLID
5
170
100
AcDbEntity
8
SK2
62
256
6
ByLayer
370
25
48
1
60
0
100
AcDbTrace
10
24.978076
20
-30.202442
30
0
11
21.676078
21
-30.710442
31
0
12
21.676074
22
-29.694442
32
0
13
24.978076
23
-30.202442
33
0
39
0
210
0
220
0
230
1
0
SOLID
5
171
100
AcDbEntity
8
SK2
62
256
6
ByLayer
370
25
48
1
60
0
100
AcDbTrace
10
-13.631924
20
-30.202442
30
0
11
-10.329926
21
-29.694442
31
0
12
-10.329922
22
-30.710442
32
0
13
-13.631924
23
-30.202442
33
0
39
0
210
0
220
0
230
1
0
MTEXT
5
172
100
AcDbEntity
8
SK2
62
256
6
ByLayer
370
13
48
1
60
0
100
AcDbMText
10
1.858076
20
-29.631389
30
0
210
0
220
0
230
1
1
\W0.6927;38,61
40
3.5
41
0
44
0.963855
50
0
71
7
72
5
7
iso-1
0
ENDBLK
5
16B
100
AcDbEntity
8
0
100
AcDbBlockEnd
0
BLOCK
5
17D
100
AcDbEntity
8
0
100
AcDbBlockBegin
2
DimnDraft3D2
70
0
10
0
20
0
30
0
3
DimnDraft3D2
0
MTEXT
5
177
100
AcDbEntity
8
SK2
62
256
6
ByLayer
370
13
48
1
60
0
100
AcDbMText
10
8.084564
20
-21.377443
30
0
210
0
220
0
230
1
1
\W0.7279;24,98
40
3.5
41
0
44
0.963855
50
0
71
7
72
5
7
iso-1
0
LINE
5
178
100
AcDbEntity
8
SK2
62
256
6
ByLayer
370
13
48
1
60
0
100
AcDbLine
10
0
20
-5.5
30
0
11
0
21
-23.948495
31
0
39
0
210
0
220
0
230
1
0
LINE
5
179
100
AcDbEntity
8
SK2
62
256
6
ByLayer
370
13
48
1
60
0
100
AcDbLine
10
24.978076
20
-4
30
0
11
24.978076
21
-23.948495
31
0
39
0
210
0
220
0
230
1
0
LINE
5
17A
100
AcDbEntity
8
SK2
62
256
6
ByLayer
370
13
48
1
60
0
100
AcDbLine
10
0
20
-21.948495
30
0
11
24.978076
21
-21.948495
31
0
39
0
210
0
220
0
230
1
0
SOLID
5
17B
100
AcDbEntity
8
SK2
62
256
6
ByLayer
370
13
48
1
60
0
100
AcDbTrace
10
0
20
-21.948495
30
0
11
3.301998
21
-21.440495
31
0
12
3.302002
22
-22.456495
32
0
13
0
23
-21.948495
33
0
39
0
210
0
220
0
230
1
0
SOLID
5
17C
100
AcDbEntity
8
SK2
62
256
6
ByLayer
370
13
48
1
60
0
100
AcDbTrace
10
24.978076
20
-21.948495
30
0
11
21.676078
21
-22.456495
31
0
12
21.676074
22
-21.440495
32
0
13
24.978076
23
-21.948495
33
0
39
0
210
0
220
0
230
1
0
ENDBLK
5
17E
100
AcDbEntity
8
0
100
AcDbBlockEnd
0
BLOCK
5
188
100
AcDbEntity
8
0
100
AcDbBlockBegin
2
DimnDraft3D3
70
0
10
0
20
0
30
0
3
DimnDraft3D3
0
MTEXT
5
181
100
AcDbEntity
8
SK2
62
256
6
ByLayer
370
13
48
1
60
0
100
AcDbMText
10
-21.605975
20
3.128816
30
0
210
0
220
0
230
1
1
\W0.4763;11
40
3.5
41
0
44
0.963855
50
90
71
7
72
5
7
iso-1
0
MTEXT
5
182
100
AcDbEntity
8
SK2
62
256
6
ByLayer
370
13
48
1
60
0
100
AcDbMText
10
-21.605975
20
-2.09384
30
0
210
0
220
0
230
1
1
%%c
40
3.5
41
0
44
0.963855
50
90
71
7
72
5
7
iso-1
0
LINE
5
183
100
AcDbEntity
8
SK2
62
256
6
ByLayer
370
13
48
1
60
0
100
AcDbLine
10
0
20
-5.5
30
0
11
-22.159922
21
-5.5
31
0
39
0
210
0
220
0
230
1
0
LINE
5
184
100
AcDbEntity
8
SK2
62
256
6
ByLayer
370
13
48
1
60
0
100
AcDbLine
10
0
20
5.5
30
0
11
-22.159922
21
5.5
31
0
39
0
210
0
220
0
230
1
0
LINE
5
185
100
AcDbEntity
8
SK2
62
256
6
ByLayer
370
13
48
1
60
0
100
AcDbLine
10
-20.159922
20
-5.5
30
0
11
-20.159922
21
5.5
31
0
39
0
210
0
220
0
230
1
0
SOLID
5
186
100
AcDbEntity
8
SK2
62
256
6
ByLayer
370
13
48
1
60
0
100
AcDbTrace
10
-20.159922
20
-5.5
30
0
11
-20.667922
21
-2.198002
31
0
12
-19.651922
22
-2.197998
32
0
13
-20.159922
23
-5.5
33
0
39
0
210
0
220
0
230
1
0
SOLID
5
187
100
AcDbEntity
8
SK2
62
256
6
ByLayer
370
13
48
1
60
0
100
AcDbTrace
10
-20.159922
20
5.5
30
0
11
-19.651922
21
2.198002
31
0
12
-20.667922
22
2.197998
32
0
13
-20.159922
23
5.5
33
0
39
0
210
0
220
0
230
1
0
ENDBLK
5
189
100
AcDbEntity
8
0
100
AcDbBlockEnd
0
BLOCK
5
193
100
AcDbEntity
8
0
100
AcDbBlockBegin
2
DimnDraft3D4
70
0
10
0
20
0
30
0
3
DimnDraft3D4
0
MTEXT
5
18C
100
AcDbEntity
8
SK2
62
256
6
ByLayer
370
13
48
1
60
0
100
AcDbMText
10
45.149818
20
2.556301
30
0
210
0
220
0
230
1
1
\W0.5742;9
40
3.5
41
0
44
0.963855
50
90
71
7
72
5
7
iso-1
0
MTEXT
5
18D
100
AcDbEntity
8
SK2
62
256
6
ByLayer
370
13
48
1
60
0
100
AcDbMText
10
45.149818
20
-2.666355
30
0
210
0
220
0
230
1
1
%%c
40
3.5
41
0
44
0.963855
50
90
71
7
72
5
7
iso-1
0
LINE
5
18E
100
AcDbEntity
8
SK2
62
256
6
ByLayer
370
13
48
1
60
0
100
AcDbLine
10
24.478076
20
-4.5
30
0
11
48.595871
21
-4.5
31
0
39
0
210
0
220
0
230
1
0
LINE
5
18F
100
AcDbEntity
8
SK2
62
256
6
ByLayer
370
13
48
1
60
0
100
AcDbLine
10
24.128076
20
4.5
30
0
11
48.595871
21
4.5
31
0
39
0
210
0
220
0
230
1
0
LINE
5
190
100
AcDbEntity
8
SK2
62
256
6
ByLayer
370
13
48
1
60
0
100
AcDbLine
10
46.595871
20
4.5
30
0
11
46.595871
21
-5.318699
31
0
39
0
210
0
220
0
230
1
0
SOLID
5
191
100
AcDbEntity
8
SK2
62
256
6
ByLayer
370
13
48
1
60
0
100
AcDbTrace
10
46.595871
20
-4.5
30
0
11
46.087871
21
-1.198002
31
0
12
47.103871
22
-1.197998
32
0
13
46.595871
23
-4.5
33
0
39
0
210
0
220
0
230
1
0
SOLID
5
192
100
AcDbEntity
8
SK2
62
256
6
ByLayer
370
13
48
1
60
0
100
AcDbTrace
10
46.595871
20
4.5
30
0
11
47.103871
21
1.198002
31
0
12
46.087871
22
1.197998
32
0
13
46.595871
23
4.5
33
0
39
0
210
0
220
0
230
1
0
ENDBLK
5
194
100
AcDbEntity
8
0
100
AcDbBlockEnd
0
BLOCK
5
19E
100
AcDbEntity
8
0
100
AcDbBlockBegin
2
DimnDraft3D5
70
0
10
0
20
0
30
0
3
DimnDraft3D5
0
MTEXT
5
197
100
AcDbEntity
8
2
62
256
6
ByLayer
370
13
48
1
60
0
100
AcDbMText
10
13.136474
20
-12.78421
30
0
210
0
220
0
230
1
1
\W0.6449;16,05
40
3.5
41
0
44
0.963855
50
0
71
7
72
5
7
iso-1
0
LINE
5
199
100
AcDbEntity
8
2
62
256
6
ByLayer
370
13
48
1
60
0
100
AcDbLine
10
8.924871
20
-4.5
30
0
11
8.924871
21
-15.355263
31
0
39
0
210
0
220
0
230
1
0
LINE
5
19A
100
AcDbEntity
8
2
62
256
6
ByLayer
370
13
48
1
60
0
100
AcDbLine
10
24.978076
20
-4
30
0
11
24.978076
21
-15.355263
31
0
39
0
210
0
220
0
230
1
0
LINE
5
19B
100
AcDbEntity
8
2
62
256
6
ByLayer
370
13
48
1
60
0
100
AcDbLine
10
8.924871
20
-13.355263
30
0
11
24.978076
21
-13.355263
31
0
39
0
210
0
220
0
230
1
0
SOLID
5
19C
100
AcDbEntity
8
2
62
256
6
ByLayer
370
13
48
1
60
0
100
AcDbTrace
10
8.924871
20
-13.355263
30
0
11
12.226869
21
-12.847263
31
0
12
12.226873
22
-13.863263
32
0
13
8.924871
23
-13.355263
33
0
39
0
210
0
220
0
230
1
0
SOLID
5
19D
100
AcDbEntity
8
2
62
256
6
ByLayer
370
13
48
1
60
0
100
AcDbTrace
10
24.978076
20
-13.355263
30
0
11
21.676078
21
-13.863263
31
0
12
21.676074
22
-12.847263
32
0
13
24.978076
23
-13.355263
33
0
39
0
210
0
220
0
230
1
0
ENDBLK
5
19F
100
AcDbEntity
8
0
100
AcDbBlockEnd
0
ENDSEC
0
SECTION
2
ENTITIES
0
ARC
5
10F
100
AcDbEntity
8
SK1
62
256
6
ByLayer
370
13
48
1
60
0
100
AcDbCircle
39
0
10
-4.205499
20
5.716818
30
0
40
1
210
0
220
0
230
1
100
AcDbArc
50
278
51
314.869898
0
ARC
5
110
100
AcDbEntity
8
SK1
62
256
6
ByLayer
370
13
48
1
60
0
100
AcDbCircle
39
0
10
-4.205499
20
-5.716818
30
0
40
1.00000000000001
210
0
220
0
230
1
100
AcDbArc
50
45.130102
51
82
0
ARC
5
111
100
AcDbEntity
8
SK1
62
256
6
ByLayer
370
13
48
1
60
0
100
AcDbCircle
39
0
10
-8.767178
20
5.075716
30
0
40
1.00000000000001
210
0
220
0
230
1
100
AcDbArc
50
241.130102
51
278
0
ARC
5
112
100
AcDbEntity
8
SK1
62
256
6
ByLayer
370
13
48
1
60
0
100
AcDbCircle
39
0
10
-8.767178
20
-5.075716
30
0
40
1
210
0
220
0
230
1
100
AcDbArc
50
82
51
118.869898
0
ARC
5
113
100
AcDbEntity
8
SK1
62
256
6
ByLayer
370
13
48
1
60
0
100
AcDbCircle
39
0
10
-1.5692
20
-3.5
30
0
40
10.1955513309835
210
0
220
0
230
1
100
AcDbArc
50
340.793304
51
19.206696
0
ARC
5
114
100
AcDbEntity
8
SK1
62
256
6
ByLayer
370
13
48
1
60
0
100
AcDbCircle
39
0
10
-1.5692
20
3.5
30
0
40
10.1955513309835
210
0
220
0
230
1
100
AcDbArc
50
340.793304
51
19.206696
0
ARC
5
115
100
AcDbEntity
8
SK3
62
256
6
ByLayer
370
18
48
0.05
60
0
100
AcDbCircle
39
0
10
262.340787
20
13.436851
30
0
40
261.000664567193
210
0
220
0
230
1
100
AcDbArc
50
182.814119
51
183.884497
0
ARC
5
116
100
AcDbEntity
8
SK3
62
256
6
ByLayer
370
18
48
0.05
60
0
100
AcDbCircle
39
0
10
284.633375
20
-14.647737
30
0
40
283.325842200605
210
0
220
0
230
1
100
AcDbArc
50
176.210539
51
177.162635
0
ARC
5
117
100
AcDbEntity
8
SK3
62
256
6
ByLayer
370
18
48
0.05
60
0
100
AcDbCircle
39
0
10
-270.332916
20
-16.76129
30
0
40
277.294512379776
210
0
220
0
230
1
100
AcDbArc
50
2.38127
51
4.665181
0
ARC
5
118
100
AcDbEntity
8
SK3
62
256
6
ByLayer
370
18
48
0.05
60
0
100
AcDbCircle
39
0
10
-232.78778
20
-5.787569
30
0
40
239.528002643932
210
0
220
0
230
1
100
AcDbArc
50
0.684589
51
2.713283
0
ARC
5
119
100
AcDbEntity
8
SK3
62
256
6
ByLayer
370
18
48
0.05
60
0
100
AcDbCircle
39
0
10
380.802456
20
-4.241473
30
0
40
374.081645391192
210
0
220
0
230
1
100
AcDbArc
50
179.798467
51
180.152934
0
ARC
5
11A
100
AcDbEntity
8
SK3
62
256
6
ByLayer
370
18
48
0.05
60
0
100
AcDbCircle
39
0
10
41.371168
20
-1.82929
30
0
40
37.6733677976752
210
0
220
0
230
1
100
AcDbArc
50
180.619127
51
185.40943
0
ARC
5
11B
100
AcDbEntity
8
SK3
62
256
6
ByLayer
370
18
48
0.05
60
0
100
AcDbCircle
39
0
10
-176.538387
20
-6.122203
30
0
40
183.289387028112
210
0
220
0
230
1
100
AcDbArc
50
0.999276
51
3.605768
0
ARC
5
11C
100
AcDbEntity
8
SK3
62
256
6
ByLayer
370
18
48
0.05
60
0
100
AcDbCircle
39
0
10
52.992
20
1.325692
30
0
40
49.2926568721264
210
0
220
0
230
1
100
AcDbArc
50
174.563595
51
180.295858
0
ARC
5
11D
100
AcDbEntity
8
SK3
62
256
6
ByLayer
370
18
48
0.05
60
0
100
AcDbCircle
39
0
10
5.824086
20
-4.935677
30
0
40
2.12513100048689
210
0
220
0
230
1
100
AcDbArc
50
181.796481
51
192.121391
0
ARC
5
11E
100
AcDbEntity
8
SK3
62
256
6
ByLayer
370
18
48
0.05
60
0
100
AcDbCircle
39
0
10
-208.406348
20
-9.047233
30
0
40
215.162178280739
210
0
220
0
230
1
100
AcDbArc
50
1.013894
51
3.849415
0
ARC
5
11F
100
AcDbEntity
8
SK3
62
256
6
ByLayer
370
18
48
0.05
60
0
100
AcDbCircle
39
0
10
-124.24554
20
-3.05762
30
0
40
125.756775168286
210
0
220
0
230
1
100
AcDbArc
50
0.765894
51
3.896801
0
ARC
5
120
100
AcDbEntity
8
SK3
62
256
6
ByLayer
370
18
48
0.05
60
0
100
AcDbCircle
39
0
10
0.013085
20
5.061683
30
0
40
1.48711907545391
210
0
220
0
230
1
100
AcDbArc
50
359.051835
51
17.142102
0
ARC
5
121
100
AcDbEntity
8
SK3
62
256
6
ByLayer
370
18
48
0.05
60
0
100
AcDbCircle
39
0
10
26.818216
20
-1.589633
30
0
40
3.00603808190209
210
0
220
0
230
1
100
AcDbArc
50
127.744978
51
145.076478
0
ARC
5
122
100
AcDbEntity
8
SK3
62
256
6
ByLayer
370
18
48
0.05
60
0
100
AcDbCircle
39
0
10
23.574594
20
5.8794
30
0
40
5.82018441186395
210
0
220
0
230
1
100
AcDbArc
50
277.935081
51
283.953864
0
ARC
5
123
100
AcDbEntity
8
SK3
62
256
6
ByLayer
370
18
48
0.05
60
0
100
AcDbCircle
39
0
10
26.818216
20
-0.362127
30
0
40
3.00603808190215
210
0
220
0
230
1
100
AcDbArc
50
127.744978
51
145.076478
0
ARC
5
124
100
AcDbEntity
8
SK3
62
256
6
ByLayer
370
18
48
0.05
60
0
100
AcDbCircle
39
0
10
22.282295
20
0.780549
30
0
40
2.14625294232989
210
0
220
0
230
1
100
AcDbArc
50
347.5498
51
12.4502
0
ARC
5
125
100
AcDbEntity
8
SK3
62
256
6
ByLayer
370
18
48
0.05
60
0
100
AcDbCircle
39
0
10
30.225338
20
0.5
30
0
40
6.19988683330387
210
0
220
0
230
1
100
AcDbArc
50
198.722283
51
212.183351
0
ARC
5
126
100
AcDbEntity
8
SK3
62
256
6
ByLayer
370
18
48
0.05
60
0
100
AcDbCircle
39
0
10
-5.997004
20
4.083021
30
0
40
7.49754726387099
210
0
220
0
230
1
100
AcDbArc
50
359.310094
51
10.194388
0
ARC
5
127
100
AcDbEntity
8
SK3
62
256
6
ByLayer
370
18
48
0.05
60
0
100
AcDbCircle
39
0
10
-81.301084
20
-0.751046
30
0
40
82.8092724267586
210
0
220
0
230
1
100
AcDbArc
50
0.805752
51
4.238611
0
ARC
5
128
100
AcDbEntity
8
SK3
62
256
6
ByLayer
370
18
48
0.05
60
0
100
AcDbCircle
39
0
10
8.428076
20
4.985167
30
0
40
0.485166604983962
210
0
220
0
230
1
100
AcDbArc
50
240
51
270
0
ARC
5
129
100
AcDbEntity
8
SK3
62
256
6
ByLayer
370
18
48
0.05
60
0
100
AcDbCircle
39
0
10
8.428076
20
-4.985167
30
0
40
0.485166604983959
210
0
220
0
230
1
100
AcDbArc
50
90
51
120
0
ELLIPSE
5
12A
100
AcDbEntity
8
SK1
62
256
6
ByLayer
370
13
48
1
60
0
100
AcDbEllipse
10
9.924872
20
2E-06
30
0
11
-6.92812109027655
21
6.92820500591329
31
0
210
0
220
0
230
1
40
0.577353
41
0.0182479694129837
42
1.02896898998145
0
ELLIPSE
5
12B
100
AcDbEntity
8
SK1
62
256
6
ByLayer
370
13
48
1
60
0
100
AcDbEllipse
10
9.924872
20
2E-06
30
0
11
6.92812109032963
21
6.92821315033901
31
0
210
0
220
0
230
1
40
0.577352
41
2.11262840710391
42
3.12334942767229
0
ELLIPSE
5
12C
100
AcDbEntity
8
1
62
256
6
ByLayer
370
13
48
1
60
0
100
AcDbEllipse
10
22.782732
20
2E-06
30
0
11
7.7949255288388
21
0.102079731217677
31
0
210
0
220
0
230
1
40
0.577152
41
1.34399442514637
42
1.3899694543002
0
ELLIPSE
5
12D
100
AcDbEntity
8
1
62
256
6
ByLayer
370
13
48
1
60
0
100
AcDbEllipse
10
22.782732
20
2E-06
30
0
11
7.73510844443967
21
4.11878278996831
31
0
210
0
220
0
230
1
40
0.234336
41
-1.52166952891822
42
-1.47569448885063
0
ELLIPSE
5
12E
100
AcDbEntity
8
1
62
256
6
ByLayer
370
13
48
1
60
0
100
AcDbEllipse
10
24.010242
20
2E-06
30
0
11
-0.0589702276198559
21
4.50002225911101
31
0
210
0
220
0
230
1
40
0.022674
41
-2.25284097330348
42
-1.936545982999
0
ELLIPSE
5
12F
100
AcDbEntity
8
1
62
256
6
ByLayer
370
13
48
1
60
0
100
AcDbEllipse
10
22.782732
20
3E-06
30
0
11
-7.74063593648404
21
4.16183162766922
31
0
210
0
220
0
230
1
40
0.22111
41
1.86238435556532
42
1.90835938650624
0
ELLIPSE
5
130
100
AcDbEntity
8
SK3
62
256
6
ByLayer
370
18
48
0.05
60
0
100
AcDbEllipse
10
22.782732
20
2E-06
30
0
11
-2.83821261840145
21
1.52599537027966
31
0
210
0
220
0
230
1
40
0.221109
41
2.14819708075438
42
2.28129156632529
0
ELLIPSE
5
131
100
AcDbEntity
8
SK3
62
256
6
ByLayer
370
18
48
0.05
60
0
100
AcDbEllipse
10
22.782732
20
2E-06
30
0
11
2.85814144914327
21
0.0374039054523816
31
0
210
0
220
0
230
1
40
0.577149
41
0.97107758517533
42
1.10417207050998
0
ELLIPSE
5
132
100
AcDbEntity
8
SK3
62
256
6
ByLayer
370
18
48
0.05
60
0
100
AcDbEllipse
10
24.010242
20
2E-06
30
0
11
-0.0216171327757392
21
1.65000298203318
31
0
210
0
220
0
230
1
40
0.022679
41
-2.53864492267934
42
-1.65073207722387
0
ELLIPSE
5
133
100
AcDbEntity
8
SK3
62
256
6
ByLayer
370
18
48
0.05
60
0
100
AcDbEllipse
10
22.782732
20
2E-06
30
0
11
2.83620681878373
21
1.51021242811306
31
0
210
0
220
0
230
1
40
0.234335
41
-1.23585492552304
42
-1.10276044029956
0
POINT
5
6C
100
AcDbEntity
8
SK1
62
256
6
ByLayer
370
18
48
1
60
0
100
AcDbPoint
10
-13.631924
20
0
30
0
39
0
210
0
220
0
230
1
50
360
0
POINT
5
6E
100
AcDbEntity
8
80
62
256
6
ByLayer
370
18
48
1
60
0
100
AcDbPoint
10
0
20
0
30
0
39
0
210
0
220
0
230
1
50
360
0
POINT
5
70
100
AcDbEntity
8
81
62
256
6
ByLayer
370
18
48
1
60
0
100
AcDbPoint
10
0
20
0
30
0
39
0
210
0
220
0
230
1
50
360
0
SPLINE
5
134
100
AcDbEntity
8
SK3
62
256
6
ByLayer
370
18
48
0.05
60
0
100
AcDbSpline
70
4
71
3
72
83
73
79
40
0
40
0
40
0
40
0
40
0.0421128261557917
40
0.0421128261557917
40
0.0857816747959181
40
0.0857816747959181
40
0.131298607136452
40
0.131298607136452
40
0.177845201060876
40
0.177845201060876
40
0.22491794165028
40
0.22491794165028
40
0.270925885486558
40
0.270925885486558
40
0.315043145969309
40
0.315043145969309
40
0.357562691448287
40
0.357562691448287
40
0.397728835807258
40
0.397728835807258
40
0.434589585716664
40
0.434589585716664
40
0.467339649412255
40
0.467339649412255
40
0.467339649412255
40
0.495429460923519
40
0.495429460923519
40
0.495429460923519
40
0.516813572388565
40
0.516813572388565
40
0.516813572388565
40
0.534318391400929
40
0.534318391400929
40
0.534318391400929
40
0.547570071023709
40
0.547570071023709
40
0.547570071023709
40
0.556375401086889
40
0.556375401086889
40
0.556375401086889
40
0.560847706937619
40
0.560847706937619
40
0.560847706937619
40
0.563034573588519
40
0.563034573588519
40
0.563034573588519
40
0.568485294158969
40
0.568485294158969
40
0.568485294158969
40
0.578191648221816
40
0.578191648221816
40
0.578191648221816
40
0.592163093159853
40
0.592163093159853
40
0.592163093159853
40
0.612922272762618
40
0.612922272762618
40
0.612922272762618
40
0.638320911864253
40
0.638320911864253
40
0.638320911864253
40
0.6683014229612
40
0.6683014229612
40
0.702780343799115
40
0.702780343799115
40
0.74106961837549
40
0.74106961837549
40
0.782297203178526
40
0.782297203178526
40
0.825472558315896
40
0.825472558315896
40
0.870361656196647
40
0.870361656196647
40
0.913236527237823
40
0.913236527237823
40
0.956729754569149
40
0.956729754569149
40
1
40
1
40
1
40
1
41
1
10
1.6548711306
20
2.79410205240001
30
0
41
1
10
1.6676471171
20
2.57359562383333
30
0
41
1
10
1.68042310360001
20
2.35308919526666
30
0
41
1
10
1.70644713521178
20
1.9039288687728
30
0
41
1
10
1.71803022463333
20
1.6751815449
30
0
41
1
10
1.74338679109839
20
1.20810161884197
30
0
41
1
10
1.75616000383333
20
0.9697132246
30
0
41
1
10
1.78216506287373
20
0.487552913265247
30
0
41
1
10
1.79531301599999
20
0.243776456633341
30
0
41
1
10
1.82175754213311
20
-0.246532021731539
30
0
41
1
10
1.8350541151
20
-0.493064043466674
30
0
41
1
10
1.8613464894096
20
-0.980551473101286
30
0
41
1
10
1.87434229076667
20
-1.221506881
30
0
41
1
10
1.89979983467744
20
-1.69351570291217
30
0
41
1
10
1.91245054376667
20
-1.92455888636665
30
0
41
1
10
1.93710826931967
20
-2.37828802562213
30
0
41
1
10
1.95088744386667
20
-2.6008745237
30
0
41
1
10
1.97605188743143
20
-3.03381938046769
30
0
41
1
10
1.99038002366667
20
-3.2440029918
30
0
41
1
10
2.01583973384192
20
-3.64719589124908
30
0
41
1
10
2.03028147846667
20
-3.83999216353332
30
0
41
1
10
2.05542219222959
20
-4.20422510344302
30
0
41
1
10
2.06968860953334
20
-4.37541013196666
30
0
41
1
10
2.0827358417
20
-4.54668367309999
30
0
41
1
10
2.0953092985
20
-4.69347352699999
30
0
41
1
10
2.1078827553
20
-4.8402633809
30
0
41
1
10
2.1204562121
20
-4.9870532348
30
0
41
1
10
2.13197531513334
20
-5.0986169822
30
0
41
1
10
2.14349441816667
20
-5.2101807296
30
0
41
1
10
2.1550135212
20
-5.321744477
30
0
41
1
10
2.1668542613
20
-5.41278820219999
30
0
41
1
10
2.17869500139999
20
-5.5038319274
30
0
41
1
10
2.1905357415
20
-5.5948756526
30
0
41
1
10
2.2024858932
20
-5.66334392923334
30
0
41
1
10
2.21443604489999
20
-5.73181220586666
30
0
41
1
10
2.2263861966
20
-5.8002804825
30
0
41
1
10
2.2382269367
20
-5.84491956526666
30
0
41
1
10
2.25006767679999
20
-5.88955864803334
30
0
41
1
10
2.2619084169
20
-5.93419773079999
30
0
41
1
10
2.27342751993333
20
-5.95463115866666
30
0
41
1
10
2.28494662296667
20
-5.97506458653332
30
0
41
1
10
2.296465726
20
-5.9954980144
30
0
41
1
10
2.30750509933334
20
-5.99238526806667
30
0
41
1
10
2.31854447266667
20
-5.98927252173333
30
0
41
1
10
2.329583846
20
-5.9861597754
30
0
41
1
10
2.340998491
20
-5.95994913843333
30
0
41
1
10
2.352413136
20
-5.93373850146666
30
0
41
1
10
2.363827781
20
-5.9075278645
30
0
41
1
10
2.3755028239
20
-5.85797613516665
30
0
41
1
10
2.3871778668
20
-5.80842440583332
30
0
41
1
10
2.3988529097
20
-5.75887267649999
30
0
41
1
10
2.4105846042
20
-5.68653948946667
30
0
41
1
10
2.42231629869999
20
-5.61420630243333
30
0
41
1
10
2.4340479932
20
-5.54187311539999
30
0
41
1
10
2.4471857717
20
-5.43378948246665
30
0
41
1
10
2.4603235502
20
-5.32570584953332
30
0
41
1
10
2.4734613287
20
-5.21762221659999
30
0
41
1
10
2.48612085096666
20
-5.08501259256666
30
0
41
1
10
2.49878037323334
20
-4.95240296853332
30
0
41
1
10
2.5114398955
20
-4.8197933445
30
0
41
1
10
2.52419024813333
20
-4.66306730026668
30
0
41
1
10
2.53694060076667
20
-4.50634125603334
30
0
41
1
10
2.56435442586979
20
-4.1693732921447
30
0
41
1
10
2.576068684
20
-3.98890357706667
30
0
41
1
10
2.60390394984126
20
-3.60826035960812
30
0
41
1
10
2.6159268443
20
-3.40778974363332
30
0
41
1
10
2.64361943711778
20
-2.99165468804252
30
0
41
1
10
2.65561508526667
20
-2.77574792886666
30
0
41
1
10
2.68259120789436
20
-2.33388830835675
30
0
41
1
10
2.69424610526666
20
-2.10773427476666
30
0
41
1
10
2.72020550087382
20
-1.64657787606842
30
0
41
1
10
2.7323342927
20
-1.41145178399999
30
0
41
1
10
2.75712637778768
20
-0.951809439549834
30
0
41
1
10
2.7692364436
20
-0.727262697900002
30
0
41
1
10
2.79363272286013
20
-0.274930803932975
30
0
41
1
10
2.80591819563334
20
-0.0471456116666644
30
0
41
1
10
2.83042615577251
20
0.407256959434818
30
0
41
1
10
2.8426486432
20
0.633874338266665
30
0
41
1
10
2.8548711306
20
0.860491717100004
30
0
0
SPLINE
5
135
100
AcDbEntity
8
SK3
62
256
6
ByLayer
370
18
48
0.05
60
0
100
AcDbSpline
70
4
71
3
72
66
73
62
40
0
40
0
40
0
40
0
40
0.0275722616687574
40
0.0275722616687574
40
0.0275722616687574
40
0.0600129164285656
40
0.0600129164285656
40
0.0600129164285656
40
0.0865685108071877
40
0.0865685108071877
40
0.0865685108071877
40
0.106671902258962
40
0.106671902258962
40
0.106671902258962
40
0.120029982303236
40
0.120029982303236
40
0.120029982303236
40
0.126814670566809
40
0.126814670566809
40
0.126814670566809
40
0.130132245212993
40
0.130132245212993
40
0.130132245212993
40
0.13840123242376
40
0.13840123242376
40
0.13840123242376
40
0.153126206227041
40
0.153126206227041
40
0.153126206227041
40
0.17432151389607
40
0.17432151389607
40
0.17432151389607
40
0.205814119033806
40
0.205814119033806
40
0.205814119033806
40
0.244344992005162
40
0.244344992005162
40
0.244344992005162
40
0.289826769988234
40
0.289826769988234
40
0.342132837005408
40
0.342132837005408
40
0.400219381286936
40
0.400219381286936
40
0.462763473771768
40
0.462763473771768
40
0.528262421082849
40
0.528262421082849
40
0.596361192883996
40
0.596361192883996
40
0.6655511712311
40
0.6655511712311
40
0.7357106816422
40
0.7357106816422
40
0.80530617614321
40
0.80530617614321
40
0.872844689915296
40
0.872844689915296
40
0.937652539252939
40
0.937652539252939
40
1
40
1
40
1
40
1
41
1
10
1.9760499588
20
-4.702120427
30
0
41
1
10
1.98418537656666
20
-4.79709802959999
30
0
41
1
10
1.99232079433333
20
-4.89207563219999
30
0
41
1
10
2.0004562121
20
-4.9870532348
30
0
41
1
10
2.01197531513333
20
-5.0986169822
30
0
41
1
10
2.02349441816667
20
-5.2101807296
30
0
41
1
10
2.03501352119999
20
-5.321744477
30
0
41
1
10
2.0468542613
20
-5.41278820219999
30
0
41
1
10
2.0586950014
20
-5.5038319274
30
0
41
1
10
2.0705357415
20
-5.5948756526
30
0
41
1
10
2.08248589320001
20
-5.66334392923334
30
0
41
1
10
2.09443604490001
20
-5.73181220586666
30
0
41
1
10
2.10638619660001
20
-5.8002804825
30
0
41
1
10
2.1182269367
20
-5.84491956526666
30
0
41
1
10
2.1300676768
20
-5.88955864803334
30
0
41
1
10
2.1419084169
20
-5.93419773079999
30
0
41
1
10
2.15342751993334
20
-5.95463115866666
30
0
41
1
10
2.16494662296667
20
-5.97506458653332
30
0
41
1
10
2.176465726
20
-5.9954980144
30
0
41
1
10
2.18750509933334
20
-5.99238526806667
30
0
41
1
10
2.19854447266666
20
-5.98927252173333
30
0
41
1
10
2.209583846
20
-5.9861597754
30
0
41
1
10
2.220998491
20
-5.95994913843333
30
0
41
1
10
2.232413136
20
-5.93373850146666
30
0
41
1
10
2.243827781
20
-5.9075278645
30
0
41
1
10
2.25550282389999
20
-5.85797613516665
30
0
41
1
10
2.2671778668
20
-5.80842440583332
30
0
41
1
10
2.2788529097
20
-5.75887267649999
30
0
41
1
10
2.2905846042
20
-5.68653948946667
30
0
41
1
10
2.3023162987
20
-5.61420630243333
30
0
41
1
10
2.3140479932
20
-5.54187311539999
30
0
41
1
10
2.3271857717
20
-5.43378948246665
30
0
41
1
10
2.3403235502
20
-5.32570584953332
30
0
41
1
10
2.3534613287
20
-5.21762221659999
30
0
41
1
10
2.36612085096666
20
-5.08501259256666
30
0
41
1
10
2.37878037323333
20
-4.95240296853332
30
0
41
1
10
2.3914398955
20
-4.8197933445
30
0
41
1
10
2.40419024813333
20
-4.66306730026668
30
0
41
1
10
2.41694060076667
20
-4.50634125603334
30
0
41
1
10
2.44435442586978
20
-4.1693732921447
30
0
41
1
10
2.456068684
20
-3.98890357706667
30
0
41
1
10
2.48390394984128
20
-3.60826035960812
30
0
41
1
10
2.4959268443
20
-3.40778974363332
30
0
41
1
10
2.52361943711777
20
-2.99165468804252
30
0
41
1
10
2.53561508526666
20
-2.77574792886666
30
0
41
1
10
2.56259120789437
20
-2.33388830835675
30
0
41
1
10
2.57424610526667
20
-2.10773427476666
30
0
41
1
10
2.60020550087381
20
-1.64657787606842
30
0
41
1
10
2.6123342927
20
-1.41145178399999
30
0
41
1
10
2.63789855991737
20
-0.937493273597198
30
0
41
1
10
2.6507807134
20
-0.698630360899998
30
0
41
1
10
2.67672711981142
20
-0.217557528665481
30
0
41
1
10
2.68979058486666
20
0.0246524333666684
30
0
41
1
10
2.71581249706654
20
0.50712521909999
30
0
41
1
10
2.72877094423332
20
0.747388042800011
30
0
41
1
10
2.75430483566843
20
1.22081242593323
30
0
41
1
10
2.76688027993333
20
1.45397398536666
30
0
41
1
10
2.79152272792677
20
1.91087009818502
30
0
41
1
10
2.804125232
20
2.13457544826666
30
0
41
1
10
2.82832645874959
20
2.57352196671354
30
0
41
1
10
2.84206741570001
20
2.78864108933334
30
0
41
1
10
2.8548711306
20
3.00381393400001
30
0
0
SPLINE
5
136
100
AcDbEntity
8
SK3
62
256
6
ByLayer
370
18
48
0.05
60
0
100
AcDbSpline
70
4
71
3
72
81
73
77
40
0
40
0
40
0
40
0
40
0.0281727108672119
40
0.0281727108672119
40
0.0281727108672119
40
0.0505095034815139
40
0.0505095034815139
40
0.0505095034815139
40
0.0664533075858373
40
0.0664533075858373
40
0.0664533075858373
40
0.0758299849977497
40
0.0758299849977497
40
0.0758299849977497
40
0.0795744986918536
40
0.0795744986918536
40
0.0795744986918536
40
0.0853555720504133
40
0.0853555720504133
40
0.0853555720504133
40
0.0974609535658584
40
0.0974609535658584
40
0.0974609535658584
40
0.116120832138018
40
0.116120832138018
40
0.116120832138018
40
0.145088522673866
40
0.145088522673866
40
0.145088522673866
40
0.18123206700567
40
0.18123206700567
40
0.18123206700567
40
0.224628358176206
40
0.224628358176206
40
0.224628358176206
40
0.274637368151585
40
0.274637368151585
40
0.329853968054155
40
0.329853968054155
40
0.388570716437858
40
0.388570716437858
40
0.449908130260215
40
0.449908130260215
40
0.505753329699547
40
0.505753329699547
40
0.562371068941742
40
0.562371068941742
40
0.618472475995644
40
0.618472475995644
40
0.672807330652955
40
0.672807330652955
40
0.724940518649799
40
0.724940518649799
40
0.77496105454862
40
0.77496105454862
40
0.821689637677819
40
0.821689637677819
40
0.864045137456151
40
0.864045137456151
40
0.864045137456151
40
0.905343340103796
40
0.905343340103796
40
0.905343340103796
40
0.939682775290445
40
0.939682775290445
40
0.939682775290445
40
0.966958829054341
40
0.966958829054341
40
0.966958829054341
40
0.986264616376144
40
0.986264616376144
40
0.986264616376144
40
0.997237514657048
40
0.997237514657048
40
0.997237514657048
40
1
40
1
40
1
40
1
41
1
10
1.6548711306
20
-4.4962841752
30
0
41
1
10
1.66772735049999
20
-4.60644492646668
30
0
41
1
10
1.6805835704
20
-4.71660567773334
30
0
41
1
10
1.6934397903
20
-4.826766429
30
0
41
1
10
1.70665898536667
20
-4.91370108133334
30
0
41
1
10
1.71987818043333
20
-5.00063573366667
30
0
41
1
10
1.7330973755
20
-5.087570386
30
0
41
1
10
1.74638428036666
20
-5.14891440666666
30
0
41
1
10
1.75967118523333
20
-5.21025842733333
30
0
41
1
10
1.7729580901
20
-5.271602448
30
0
41
1
10
1.7860123903
20
-5.30613053729999
30
0
41
1
10
1.7990666905
20
-5.34065862659999
30
0
41
1
10
1.8121209907
20
-5.3751867159
30
0
41
1
10
1.82469089000001
20
-5.3828873003
30
0
41
1
10
1.8372607893
20
-5.3905878847
30
0
41
1
10
1.8498306886
20
-5.3982884691
30
0
41
1
10
1.86261704333334
20
-5.37946136063333
30
0
41
1
10
1.87540339806667
20
-5.36063425216666
30
0
41
1
10
1.88818975279999
20
-5.3418071437
30
0
41
1
10
1.90137706826666
20
-5.29601244366667
30
0
41
1
10
1.91456438373333
20
-5.25021774363334
30
0
41
1
10
1.9277516992
20
-5.2044230436
30
0
41
1
10
1.9410470767
20
-5.13217729703332
30
0
41
1
10
1.95434245420001
20
-5.05993155046666
30
0
41
1
10
1.9676378317
20
-4.98768580389999
30
0
41
1
10
1.98261940463333
20
-4.87463615476666
30
0
41
1
10
1.99760097756667
20
-4.76158650563333
30
0
41
1
10
2.0125825505
20
-4.6485368565
30
0
41
1
10
2.0269804953
20
-4.50697975523333
30
0
41
1
10
2.0413784401
20
-4.36542265396666
30
0
41
1
10
2.0557763849
20
-4.22386555269999
30
0
41
1
10
2.07055975103334
20
-4.0536668325
30
0
41
1
10
2.08534311716667
20
-3.88346811230001
30
0
41
1
10
2.1001264833
20
-3.7132693921
30
0
41
1
10
2.11532155903334
20
-3.51698461453333
30
0
41
1
10
2.13051663476667
20
-3.32069983696665
30
0
41
1
10
2.16248909556861
20
-2.90769055245217
30
0
41
1
10
2.17602926203334
20
-2.69072759553332
30
0
41
1
10
2.20730771963601
20
-2.24329453233044
30
0
41
1
10
2.22054403966667
20
-2.01251268926666
30
0
41
1
10
2.25055515495179
20
-1.54084547909817
30
0
41
1
10
2.26414379293333
20
-1.29975602816665
30
0
41
1
10
2.29177070371524
20
-0.839267521225509
30
0
41
1
10
2.3049071727
20
-0.619812778466667
30
0
41
1
10
2.33139160537493
20
-0.177869230233824
30
0
41
1
10
2.34472478623334
20
0.044620461633329
30
0
41
1
10
2.37126955444234
20
0.487570824232805
30
0
41
1
10
2.38448114176667
20
0.708031494966676
30
0
41
1
10
2.41048830260244
20
1.14201084786852
30
0
41
1
10
2.42328387616667
20
1.35552953003334
30
0
41
1
10
2.44835654227251
20
1.77391504525659
30
0
41
1
10
2.4613258531
20
1.97873980873334
30
0
41
1
10
2.48606071223079
20
2.38013020746717
30
0
41
1
10
2.50016793139999
20
2.57654674933333
30
0
41
1
10
2.52552404931611
20
2.95657710736366
30
0
41
1
10
2.5399320019
20
3.13997629823334
30
0
41
1
10
2.56533940038895
20
3.48975485951399
30
0
41
1
10
2.57974354326667
20
3.65588194896668
30
0
41
1
10
2.5929856559
20
3.82209752990001
30
0
41
1
10
2.6073956752
20
3.9840376058
30
0
41
1
10
2.6218056945
20
4.1459776817
30
0
41
1
10
2.63621571379999
20
4.30791775760001
30
0
41
1
10
2.650439613
20
4.44235251043334
30
0
41
1
10
2.6646635122
20
4.57678726326668
30
0
41
1
10
2.6788874114
20
4.71122201610001
30
0
41
1
10
2.69368592353333
20
4.81757589220001
30
0
41
1
10
2.70848443566667
20
4.92392976830001
30
0
41
1
10
2.7232829478
20
5.0302836444
30
0
41
1
10
2.73826106123333
20
5.10479481813333
30
0
41
1
10
2.75323917466666
20
5.17930599186666
30
0
41
1
10
2.7682172881
20
5.2538171656
30
0
41
1
10
2.78294545756666
20
5.29442618613334
30
0
41
1
10
2.79767362703333
20
5.33503520666666
30
0
41
1
10
2.8124017965
20
5.3756442272
30
0
41
1
10
2.82226449366666
20
5.38022640823333
30
0
41
1
10
2.83212719083333
20
5.38480858926665
30
0
41
1
10
2.84198988800001
20
5.3893907703
30
0
0
SPLINE
5
137
100
AcDbEntity
8
SK3
62
256
6
ByLayer
370
18
48
0.05
60
0
100
AcDbSpline
70
4
71
3
72
85
73
81
40
0
40
0
40
0
40
0
40
0.0043431634121221
40
0.0043431634121221
40
0.0043431634121221
40
0.0142121940300405
40
0.0142121940300405
40
0.0142121940300405
40
0.030108191079749
40
0.030108191079749
40
0.030108191079749
40
0.0518273693762262
40
0.0518273693762262
40
0.0518273693762262
40
0.0788567185225601
40
0.0788567185225601
40
0.0788567185225601
40
0.112190085513641
40
0.112190085513641
40
0.112190085513641
40
0.151046749371538
40
0.151046749371538
40
0.194775315416038
40
0.194775315416038
40
0.242420830233497
40
0.242420830233497
40
0.292854402372617
40
0.292854402372617
40
0.345180476818918
40
0.345180476818918
40
0.399748748092655
40
0.399748748092655
40
0.455579934269258
40
0.455579934269258
40
0.511411120437005
40
0.511411120437005
40
0.565979391711247
40
0.565979391711247
40
0.618305466157044
40
0.618305466157044
40
0.668739038296703
40
0.668739038296703
40
0.716384553113583
40
0.716384553113583
40
0.760113119158733
40
0.760113119158733
40
0.798969783016636
40
0.798969783016636
40
0.798969783016636
40
0.832303150015263
40
0.832303150015263
40
0.832303150015263
40
0.860347813844619
40
0.860347813844619
40
0.860347813844619
40
0.882603731348352
40
0.882603731348352
40
0.882603731348352
40
0.898510125856664
40
0.898510125856664
40
0.898510125856664
40
0.907886112984549
40
0.907886112984549
40
0.907886112984549
40
0.911633445532297
40
0.911633445532297
40
0.911633445532297
40
0.917326900065432
40
0.917326900065432
40
0.917326900065432
40
0.929302881071238
40
0.929302881071238
40
0.929302881071238
40
0.947795804405179
40
0.947795804405179
40
0.947795804405179
40
0.971354298558711
40
0.971354298558711
40
0.971354298558711
40
1
40
1
40
1
40
1
41
1
10
1.6548711306
20
-5.39999999999999
30
0
41
1
10
1.6670557511
20
-5.38773140159999
30
0
41
1
10
1.67924037160001
20
-5.37546280319999
30
0
41
1
10
1.6914249921
20
-5.3631942048
30
0
41
1
10
1.70404469690001
20
-5.32598509966667
30
0
41
1
10
1.71666440170001
20
-5.28877599453334
30
0
41
1
10
1.7292841065
20
-5.2515668894
30
0
41
1
10
1.74208263116667
20
-5.18958890563333
30
0
41
1
10
1.75488115583333
20
-5.12761092186666
30
0
41
1
10
1.7676796805
20
-5.06563293809999
30
0
41
1
10
1.78038844663333
20
-4.98010289423333
30
0
41
1
10
1.79309721276668
20
-4.89457285036666
30
0
41
1
10
1.80580597889999
20
-4.8090428065
30
0
41
1
10
1.8181626151
20
-4.70214450810001
30
0
41
1
10
1.8305192513
20
-4.59524620969999
30
0
41
1
10
1.8428758875
20
-4.4883479113
30
0
41
1
10
1.85544934433333
20
-4.3562370428
30
0
41
1
10
1.86802280116667
20
-4.2241261743
30
0
41
1
10
1.88059625799999
20
-4.0920153058
30
0
41
1
10
1.89364349016666
20
-3.93786911876667
30
0
41
1
10
1.90669072233333
20
-3.78372293173334
30
0
41
1
10
1.93442106665766
20
-3.45610349581672
30
0
41
1
10
1.94636328790001
20
-3.28240914963334
30
0
41
1
10
1.97418109199392
20
-2.91969293488263
30
0
41
1
10
1.98622819726667
20
-2.73038003316667
30
0
41
1
10
2.0135573144708
20
-2.34086203250934
30
0
41
1
10
2.02538499286667
20
-2.14041676896666
30
0
41
1
10
2.05175124879732
20
-1.73215733811344
30
0
41
1
10
2.06343778173333
20
-1.52415952893334
30
0
41
1
10
2.0890882736331
20
-1.09936211611564
30
0
41
1
10
2.1019856102
20
-0.88249632583333
30
0
41
1
10
2.12827798448934
20
-0.443757639130681
30
0
41
1
10
2.14157455756667
20
-0.221878819566669
30
0
41
1
10
2.16816770363122
20
0.221878819531469
30
0
41
1
10
2.1814642766
20
0.443757639066675
30
0
41
1
10
2.20775665091258
20
0.882496325734593
30
0
41
1
10
2.22075245226667
20
1.09935619286667
30
0
41
1
10
2.24621006065693
20
1.52416520859765
30
0
41
1
10
2.25886070526666
20
1.73210299766667
30
0
41
1
10
2.2835190298734
20
2.14046914386405
30
0
41
1
10
2.29729760543332
20
2.34078707123335
30
0
41
1
10
2.32246291497561
20
2.73045085025154
30
0
41
1
10
2.3367901852
20
2.91960269253333
30
0
41
1
10
2.36225099480321
20
3.28249197295118
30
0
41
1
10
2.37669163996667
20
3.45599294706666
30
0
41
1
10
2.40183377798372
20
3.78382116379653
30
0
41
1
10
2.41609877103334
20
3.93786911866665
30
0
41
1
10
2.42914600320001
20
4.0920153057
30
0
41
1
10
2.44171946000001
20
4.22412617423333
30
0
41
1
10
2.45429291680001
20
4.35623704276667
30
0
41
1
10
2.46686637360001
20
4.4883479113
30
0
41
1
10
2.47974727213334
20
4.59925471076666
30
0
41
1
10
2.49262817066667
20
4.71016151023333
30
0
41
1
10
2.50550906920001
20
4.8210683097
30
0
41
1
10
2.5187604032
20
4.90867777356667
30
0
41
1
10
2.5320117372
20
4.99628723743334
30
0
41
1
10
2.5452630712
20
5.08389670130001
30
0
41
1
10
2.55858745600001
20
5.14580610743334
30
0
41
1
10
2.57191184080001
20
5.20771551356667
30
0
41
1
10
2.58523622560001
20
5.26962491970001
30
0
41
1
10
2.5983308004
20
5.30458074656669
30
0
41
1
10
2.6114253752
20
5.33953657343334
30
0
41
1
10
2.62451995
20
5.3744924003
30
0
41
1
10
2.63712785086666
20
5.38246844853333
30
0
41
1
10
2.64973575173333
20
5.39044449676668
30
0
41
1
10
2.6623436526
20
5.39842054500001
30
0
41
1
10
2.67516120076667
20
5.37972558440001
30
0
41
1
10
2.68797874893333
20
5.3610306238
30
0
41
1
10
2.70079629710001
20
5.3423356632
30
0
41
1
10
2.7140185352
20
5.29652655926667
30
0
41
1
10
2.7272407733
20
5.25071745533334
30
0
41
1
10
2.7404630114
20
5.20490835140001
30
0
41
1
10
2.75379472583334
20
5.13250083553335
30
0
41
1
10
2.76712644026667
20
5.06009331966668
30
0
41
1
10
2.78045815470001
20
4.98768580380001
30
0
41
1
10
2.7930778595
20
4.89474685476667
30
0
41
1
10
2.8056975643
20
4.80180790573334
30
0
41
1
10
2.8183172691
20
4.7088689567
30
0
41
1
10
2.83050188959999
20
4.59547656100001
30
0
41
1
10
2.8426865101
20
4.48208416530001
30
0
41
1
10
2.8548711306
20
4.36869176960001
30
0
0
SPLINE
5
138
100
AcDbEntity
8
SK3
62
256
6
ByLayer
370
18
48
0.05
60
0
100
AcDbSpline
70
4
71
3
72
83
73
79
40
0
40
0
40
0
40
0
40
0.0421128261619809
40
0.0421128261619809
40
0.085781674801945
40
0.085781674801945
40
0.131298607142307
40
0.131298607142307
40
0.177845201066552
40
0.177845201066552
40
0.224917941655778
40
0.224917941655778
40
0.270925885491882
40
0.270925885491882
40
0.315043145968122
40
0.315043145968122
40
0.357562691446943
40
0.357562691446943
40
0.397728835805765
40
0.397728835805765
40
0.434589585715033
40
0.434589585715033
40
0.467339649410508
40
0.467339649410508
40
0.467339649410508
40
0.495429460921671
40
0.495429460921671
40
0.495429460921671
40
0.516813572386644
40
0.516813572386644
40
0.516813572386644
40
0.534318391405248
40
0.534318391405248
40
0.534318391405248
40
0.547570071021716
40
0.547570071021716
40
0.547570071021716
40
0.556375401084862
40
0.556375401084862
40
0.556375401084862
40
0.560847706935573
40
0.560847706935573
40
0.560847706935573
40
0.56303457358474
40
0.56303457358474
40
0.56303457358474
40
0.568485294160991
40
0.568485294160991
40
0.568485294160991
40
0.578191648223793
40
0.578191648223793
40
0.578191648223793
40
0.592163093155494
40
0.592163093155494
40
0.592163093155494
40
0.612922272764473
40
0.612922272764473
40
0.612922272764473
40
0.638320911865992
40
0.638320911865992
40
0.638320911865992
40
0.6683014229628
40
0.6683014229628
40
0.702780343794217
40
0.702780343794217
40
0.741069618376757
40
0.741069618376757
40
0.782297203179597
40
0.782297203179597
40
0.825472558316757
40
0.825472558316757
40
0.87036165619729
40
0.87036165619729
40
0.913236527238255
40
0.913236527238255
40
0.956729754569367
40
0.956729754569367
40
1
40
1
40
1
40
1
41
1
10
1.6548711306
20
-2.79410205249999
30
0
41
1
10
1.6676471171
20
-2.57359562389999
30
0
41
1
10
1.68042310360001
20
-2.3530891953
30
0
41
1
10
1.70644713520979
20
-1.90392886877268
30
0
41
1
10
1.71803022463333
20
-1.67518154489998
30
0
41
1
10
1.74338679109839
20
-1.20810161884197
30
0
41
1
10
1.75616000383333
20
-0.9697132246
30
0
41
1
10
1.78216506287373
20
-0.487552913265233
30
0
41
1
10
1.79531301599999
20
-0.243776456633327
30
0
41
1
10
1.82175754213312
20
0.246532021731539
30
0
41
1
10
1.8350541151
20
0.493064043466674
30
0
41
1
10
1.8613464894096
20
0.980551473101286
30
0
41
1
10
1.87434229076667
20
1.221506881
30
0
41
1
10
1.89979983467564
20
1.69351570287894
30
0
41
1
10
1.91245054376667
20
1.9245588863
30
0
41
1
10
1.93710826932141
20
2.37828802552205
30
0
41
1
10
1.95088744386667
20
2.60087452360001
30
0
41
1
10
1.97605188743143
20
3.0338193803677
30
0
41
1
10
1.99038002366667
20
3.24400299170002
30
0
41
1
10
2.01583973384192
20
3.6471958911491
30
0
41
1
10
2.03028147846667
20
3.83999216343334
30
0
41
1
10
2.05542219222959
20
4.20422510334303
30
0
41
1
10
2.06968860953334
20
4.37541013186667
30
0
41
1
10
2.0827358417
20
4.546683673
30
0
41
1
10
2.0953092985
20
4.69347352690001
30
0
41
1
10
2.1078827553
20
4.84026338080001
30
0
41
1
10
2.1204562121
20
4.9870532347
30
0
41
1
10
2.13197531513334
20
5.0986169821
30
0
41
1
10
2.14349441816667
20
5.2101807295
30
0
41
1
10
2.1550135212
20
5.32174447690001
30
0
41
1
10
2.1668542613
20
5.41278820213334
30
0
41
1
10
2.17869500139999
20
5.50383192736668
30
0
41
1
10
2.1905357415
20
5.59487565260001
30
0
41
1
10
2.2024858932
20
5.6633439292
30
0
41
1
10
2.21443604489999
20
5.7318122058
30
0
41
1
10
2.2263861966
20
5.8002804824
30
0
41
1
10
2.2382269367
20
5.84491956516666
30
0
41
1
10
2.25006767679999
20
5.88955864793333
30
0
41
1
10
2.2619084169
20
5.93419773070001
30
0
41
1
10
2.27342751993333
20
5.95463115856667
30
0
41
1
10
2.28494662296667
20
5.97506458643333
30
0
41
1
10
2.296465726
20
5.9954980143
30
0
41
1
10
2.30750509933334
20
5.99238526800001
30
0
41
1
10
2.31854447266667
20
5.9892725217
30
0
41
1
10
2.329583846
20
5.9861597754
30
0
41
1
10
2.340998491
20
5.95994913840001
30
0
41
1
10
2.352413136
20
5.93373850140001
30
0
41
1
10
2.363827781
20
5.90752786440001
30
0
41
1
10
2.3755028239
20
5.85797613506666
30
0
41
1
10
2.3871778668
20
5.80842440573333
30
0
41
1
10
2.3988529097
20
5.7588726764
30
0
41
1
10
2.4105846042
20
5.6865394894
30
0
41
1
10
2.42231629869999
20
5.61420630240001
30
0
41
1
10
2.4340479932
20
5.54187311540001
30
0
41
1
10
2.4471857717
20
5.43378948243334
30
0
41
1
10
2.4603235502
20
5.32570584946667
30
0
41
1
10
2.4734613287
20
5.2176222165
30
0
41
1
10
2.48612085096666
20
5.08501259246667
30
0
41
1
10
2.49878037323334
20
4.95240296843333
30
0
41
1
10
2.5114398955
20
4.8197933444
30
0
41
1
10
2.52419024813333
20
4.66306730016666
30
0
41
1
10
2.53694060076667
20
4.50634125593332
30
0
41
1
10
2.56435442586709
20
4.16937329207785
30
0
41
1
10
2.576068684
20
3.98890357703334
30
0
41
1
10
2.60390394984638
20
3.60826035957517
30
0
41
1
10
2.6159268443
20
3.40778974356668
30
0
41
1
10
2.6436194371154
20
2.99165468794236
30
0
41
1
10
2.65561508526667
20
2.77574792876668
30
0
41
1
10
2.68259120789436
20
2.33388830825676
30
0
41
1
10
2.69424610526666
20
2.10773427466667
30
0
41
1
10
2.72020550087382
20
1.64657787596843
30
0
41
1
10
2.7323342927
20
1.41145178390001
30
0
41
1
10
2.75712637778768
20
0.951809439449832
30
0
41
1
10
2.7692364436
20
0.727262697800015
30
0
41
1
10
2.79363272286013
20
0.274930803832987
30
0
41
1
10
2.80591819563334
20
0.0471456115666768
30
0
41
1
10
2.83042615577251
20
-0.407256959534806
30
0
41
1
10
2.8426486432
20
-0.633874338366653
30
0
41
1
10
2.8548711306
20
-0.860491717199992
30
0
0
SPLINE
5
139
100
AcDbEntity
8
SK3
62
256
6
ByLayer
370
18
48
0.05
60
0
100
AcDbSpline
70
4
71
3
72
66
73
62
40
0
40
0
40
0
40
0
40
0.0186467763858413
40
0.0186467763858413
40
0.0186467763858413
40
0.0513851896066243
40
0.0513851896066243
40
0.0513851896066243
40
0.0781845260824372
40
0.0781845260824372
40
0.0781845260824372
40
0.0984724376874627
40
0.0984724376874627
40
0.0984724376874627
40
0.111953125656418
40
0.111953125656418
40
0.111953125656418
40
0.118800087580936
40
0.118800087580936
40
0.118800087580936
40
0.122148112778825
40
0.122148112778825
40
0.122148112778825
40
0.130492997384791
40
0.130492997384791
40
0.130492997384791
40
0.145353125227639
40
0.145353125227639
40
0.145353125227639
40
0.166742975267217
40
0.166742975267217
40
0.166742975267217
40
0.198524637146241
40
0.198524637146241
40
0.198524637146241
40
0.237409168005192
40
0.237409168005192
40
0.237409168005192
40
0.283308403167018
40
0.283308403167018
40
0.336094564492188
40
0.336094564492188
40
0.39471425955225
40
0.39471425955225
40
0.457832416674699
40
0.457832416674699
40
0.523932549932495
40
0.523932549932495
40
0.592656370322606
40
0.592656370322606
40
0.662481412962235
40
0.662481412962235
40
0.73328488657302
40
0.73328488657302
40
0.803519167410742
40
0.803519167410742
40
0.871677587420166
40
0.871677587420166
40
0.937080279411331
40
0.937080279411331
40
1
40
1
40
1
40
1
41
1
10
1.9841006878
20
4.79610932350001
30
0
41
1
10
1.98955252923334
20
4.8597572939
30
0
41
1
10
1.99500437066667
20
4.9234052643
30
0
41
1
10
2.0004562121
20
4.9870532347
30
0
41
1
10
2.01197531513333
20
5.0986169821
30
0
41
1
10
2.02349441816667
20
5.2101807295
30
0
41
1
10
2.03501352119999
20
5.32174447690001
30
0
41
1
10
2.0468542613
20
5.41278820213334
30
0
41
1
10
2.0586950014
20
5.50383192736668
30
0
41
1
10
2.0705357415
20
5.59487565260001
30
0
41
1
10
2.08248589320001
20
5.6633439292
30
0
41
1
10
2.09443604490001
20
5.7318122058
30
0
41
1
10
2.10638619660001
20
5.8002804824
30
0
41
1
10
2.1182269367
20
5.84491956516666
30
0
41
1
10
2.1300676768
20
5.88955864793333
30
0
41
1
10
2.1419084169
20
5.93419773070001
30
0
41
1
10
2.15342751993334
20
5.95463115856667
30
0
41
1
10
2.16494662296667
20
5.97506458643333
30
0
41
1
10
2.176465726
20
5.9954980143
30
0
41
1
10
2.18750509933334
20
5.99238526800001
30
0
41
1
10
2.19854447266666
20
5.9892725217
30
0
41
1
10
2.209583846
20
5.9861597754
30
0
41
1
10
2.220998491
20
5.95994913840001
30
0
41
1
10
2.232413136
20
5.93373850140001
30
0
41
1
10
2.243827781
20
5.90752786440001
30
0
41
1
10
2.25550282389999
20
5.85797613506666
30
0
41
1
10
2.2671778668
20
5.80842440573333
30
0
41
1
10
2.2788529097
20
5.7588726764
30
0
41
1
10
2.2905846042
20
5.6865394894
30
0
41
1
10
2.3023162987
20
5.61420630240001
30
0
41
1
10
2.3140479932
20
5.54187311540001
30
0
41
1
10
2.3271857717
20
5.43378948243334
30
0
41
1
10
2.3403235502
20
5.32570584946667
30
0
41
1
10
2.3534613287
20
5.2176222165
30
0
41
1
10
2.36612085096666
20
5.08501259246667
30
0
41
1
10
2.37878037323333
20
4.95240296843333
30
0
41
1
10
2.3914398955
20
4.8197933444
30
0
41
1
10
2.40419024813333
20
4.66306730016666
30
0
41
1
10
2.41694060076667
20
4.50634125593332
30
0
41
1
10
2.44435442586709
20
4.16937329207785
30
0
41
1
10
2.456068684
20
3.98890357703334
30
0
41
1
10
2.48390394984639
20
3.60826035957517
30
0
41
1
10
2.4959268443
20
3.40778974356668
30
0
41
1
10
2.52361943711539
20
2.99165468794236
30
0
41
1
10
2.53561508526666
20
2.77574792876668
30
0
41
1
10
2.56259120789437
20
2.33388830825676
30
0
41
1
10
2.57424610526667
20
2.10773427466667
30
0
41
1
10
2.60020550087381
20
1.64657787596843
30
0
41
1
10
2.6123342927
20
1.41145178390001
30
0
41
1
10
2.63789855991736
20
0.937493273497211
30
0
41
1
10
2.6507807134
20
0.69863036080001
30
0
41
1
10
2.67672711981142
20
0.217557528565493
30
0
41
1
10
2.68979058486666
20
-0.0246524334666702
30
0
41
1
10
2.71581249706475
20
-0.507125219166767
30
0
41
1
10
2.72877094423332
20
-0.747388042833322
30
0
41
1
10
2.75430483567196
20
-1.22081242596637
30
0
41
1
10
2.76688027993333
20
-1.45397398543334
30
0
41
1
10
2.79152272792326
20
-1.91087009825188
30
0
41
1
10
2.804125232
20
-2.1345754483
30
0
41
1
10
2.82832645875135
20
-2.57352196671344
30
0
41
1
10
2.84206741570001
20
-2.78864108933332
30
0
41
1
10
2.8548711306
20
-3.00381393399999
30
0
0
SPLINE
5
13A
100
AcDbEntity
8
SK3
62
256
6
ByLayer
370
18
48
0.05
60
0
100
AcDbSpline
70
4
71
3
72
85
73
81
40
0
40
0
40
0
40
0
40
0.0043431634120867
40
0.0043431634120867
40
0.0043431634120867
40
0.0142121940299282
40
0.0142121940299282
40
0.0142121940299282
40
0.0301081910877136
40
0.0301081910877136
40
0.0301081910877136
40
0.0518273693757433
40
0.0518273693757433
40
0.0518273693757433
40
0.078856718521868
40
0.078856718521868
40
0.078856718521868
40
0.112190085521027
40
0.112190085521027
40
0.112190085521027
40
0.151046749378623
40
0.151046749378623
40
0.194775315422788
40
0.194775315422788
40
0.242420830239879
40
0.242420830239879
40
0.292854402378605
40
0.292854402378605
40
0.345180476824497
40
0.345180476824497
40
0.399748748097813
40
0.399748748097813
40
0.455579934265625
40
0.455579934265625
40
0.511411120441291
40
0.511411120441291
40
0.565979391715104
40
0.565979391715104
40
0.618305466160492
40
0.618305466160492
40
0.668739038299758
40
0.668739038299758
40
0.716384553116259
40
0.716384553116259
40
0.760113119161059
40
0.760113119161059
40
0.798969783018653
40
0.798969783018653
40
0.798969783018653
40
0.832303150008681
40
0.832303150008681
40
0.832303150008681
40
0.860347813837818
40
0.860347813837818
40
0.860347813837818
40
0.882603731349652
40
0.882603731349652
40
0.882603731349652
40
0.898510125849653
40
0.898510125849653
40
0.898510125849653
40
0.907886112985303
40
0.907886112985303
40
0.907886112985303
40
0.911633445533021
40
0.911633445533021
40
0.911633445533021
40
0.917326900066112
40
0.917326900066112
40
0.917326900066112
40
0.929302881071824
40
0.929302881071824
40
0.929302881071824
40
0.947795804405622
40
0.947795804405622
40
0.947795804405622
40
0.971354298567261
40
0.971354298567261
40
0.971354298567261
40
1
40
1
40
1
40
1
41
1
10
1.6548711306
20
5.40000000000001
30
0
41
1
10
1.6670557511
20
5.38773140160001
30
0
41
1
10
1.67924037160001
20
5.37546280320001
30
0
41
1
10
1.6914249921
20
5.36319420480001
30
0
41
1
10
1.70404469690001
20
5.32598509966667
30
0
41
1
10
1.71666440170001
20
5.28877599453334
30
0
41
1
10
1.7292841065
20
5.2515668894
30
0
41
1
10
1.74208263116667
20
5.18958890559999
30
0
41
1
10
1.75488115583333
20
5.1276109218
30
0
41
1
10
1.7676796805
20
5.06563293800001
30
0
41
1
10
1.78038844663333
20
4.98010289416668
30
0
41
1
10
1.79309721276668
20
4.89457285033333
30
0
41
1
10
1.80580597889999
20
4.8090428065
30
0
41
1
10
1.8181626151
20
4.70214450810001
30
0
41
1
10
1.8305192513
20
4.59524620969999
30
0
41
1
10
1.8428758875
20
4.4883479113
30
0
41
1
10
1.85544934433333
20
4.35623704276667
30
0
41
1
10
1.86802280116667
20
4.22412617423333
30
0
41
1
10
1.88059625799999
20
4.0920153057
30
0
41
1
10
1.89364349016666
20
3.93786911866667
30
0
41
1
10
1.90669072233333
20
3.78372293163334
30
0
41
1
10
1.93442106665766
20
3.4561034957167
30
0
41
1
10
1.94636328790001
20
3.28240914953334
30
0
41
1
10
1.97418109199392
20
2.91969293478265
30
0
41
1
10
1.98622819726667
20
2.73038003306668
30
0
41
1
10
2.01355731447079
20
2.34086203240933
30
0
41
1
10
2.02538499286667
20
2.14041676886667
30
0
41
1
10
2.05175124879732
20
1.73215733801345
30
0
41
1
10
2.06343778173333
20
1.52415952883332
30
0
41
1
10
2.0890882736331
20
1.09936211601564
30
0
41
1
10
2.1019856102
20
0.882496325733342
30
0
41
1
10
2.12827798448735
20
0.443757639063918
30
0
41
1
10
2.14157455756667
20
0.22187881953333
30
0
41
1
10
2.1681677036352
20
-0.221878819564552
30
0
41
1
10
2.1814642766
20
-0.443757639133324
30
0
41
1
10
2.20775665091063
20
-0.882496325834694
30
0
41
1
10
2.22075245226667
20
-1.09935619296667
30
0
41
1
10
2.24621006065693
20
-1.52416520869767
30
0
41
1
10
2.25886070526666
20
-1.73210299776666
30
0
41
1
10
2.2835190298734
20
-2.14046914396404
30
0
41
1
10
2.29729760543332
20
-2.34078707133334
30
0
41
1
10
2.32246291497561
20
-2.73045085035153
30
0
41
1
10
2.3367901852
20
-2.91960269263332
30
0
41
1
10
2.36225099480321
20
-3.28249197305118
30
0
41
1
10
2.37669163996667
20
-3.45599294716668
30
0
41
1
10
2.40183377798372
20
-3.78382116389653
30
0
41
1
10
2.41609877103334
20
-3.93786911876667
30
0
41
1
10
2.42914600320001
20
-4.0920153058
30
0
41
1
10
2.44171946000001
20
-4.2241261743
30
0
41
1
10
2.45429291680001
20
-4.3562370428
30
0
41
1
10
2.46686637360001
20
-4.4883479113
30
0
41
1
10
2.47974727213334
20
-4.59925471076666
30
0
41
1
10
2.49262817066667
20
-4.71016151023333
30
0
41
1
10
2.50550906920001
20
-4.8210683097
30
0
41
1
10
2.5187604032
20
-4.90867777359999
30
0
41
1
10
2.5320117372
20
-4.9962872375
30
0
41
1
10
2.5452630712
20
-5.08389670139999
30
0
41
1
10
2.55858745600001
20
-5.14580610749999
30
0
41
1
10
2.57191184080001
20
-5.20771551359999
30
0
41
1
10
2.58523622560001
20
-5.26962491969999
30
0
41
1
10
2.5983308004
20
-5.3045807466
30
0
41
1
10
2.6114253752
20
-5.33953657350001
30
0
41
1
10
2.62451995
20
-5.3744924004
30
0
41
1
10
2.63712785086666
20
-5.38246844863333
30
0
41
1
10
2.64973575173333
20
-5.39044449686666
30
0
41
1
10
2.6623436526
20
-5.3984205451
30
0
41
1
10
2.67516120076667
20
-5.37972558449999
30
0
41
1
10
2.68797874893333
20
-5.36103062389999
30
0
41
1
10
2.70079629710001
20
-5.34233566329999
30
0
41
1
10
2.7140185352
20
-5.29652655936665
30
0
41
1
10
2.7272407733
20
-5.25071745543333
30
0
41
1
10
2.7404630114
20
-5.2049083515
30
0
41
1
10
2.75379472583334
20
-5.13250083563334
30
0
41
1
10
2.76712644026667
20
-5.06009331976666
30
0
41
1
10
2.78045815470001
20
-4.98768580389999
30
0
41
1
10
2.7930778595
20
-4.89474685483334
30
0
41
1
10
2.8056975643
20
-4.80180790576667
30
0
41
1
10
2.8183172691
20
-4.7088689567
30
0
41
1
10
2.83050188959999
20
-4.59547656103334
30
0
41
1
10
2.8426865101
20
-4.48208416536666
30
0
41
1
10
2.8548711306
20
-4.36869176969999
30
0
0
SPLINE
5
13B
100
AcDbEntity
8
SK3
62
256
6
ByLayer
370
18
48
0.05
60
0
100
AcDbSpline
70
4
71
3
72
81
73
77
40
0
40
0
40
0
40
0
40
0.0282375846886204
40
0.0282375846886204
40
0.0282375846886204
40
0.0506258126476305
40
0.0506258126476305
40
0.0506258126476305
40
0.0666063308440004
40
0.0666063308440004
40
0.0666063308440004
40
0.0760046001120299
40
0.0760046001120299
40
0.0760046001120299
40
0.0797577363625112
40
0.0797577363625112
40
0.0797577363625112
40
0.085552121905419
40
0.085552121905419
40
0.085552121905419
40
0.0976853786982062
40
0.0976853786982062
40
0.0976853786982062
40
0.116388225725587
40
0.116388225725587
40
0.116388225725587
40
0.145422620697217
40
0.145422620697217
40
0.145422620697217
40
0.181649393435809
40
0.181649393435809
40
0.181649393435809
40
0.225145614047173
40
0.225145614047173
40
0.225145614047173
40
0.27526978069305
40
0.27526978069305
40
0.330613528879583
40
0.330613528879583
40
0.389465485403772
40
0.389465485403772
40
0.450944142021302
40
0.450944142021302
40
0.506917937232355
40
0.506917937232355
40
0.563666051187936
40
0.563666051187936
40
0.619896643987563
40
0.619896643987563
40
0.674356616517781
40
0.674356616517781
40
0.726609852560593
40
0.726609852560593
40
0.776745571679324
40
0.776745571679324
40
0.823581757579556
40
0.823581757579556
40
0.866034790149153
40
0.866034790149153
40
0.866034790149153
40
0.907428090921987
40
0.907428090921987
40
0.907428090921987
40
0.941846600168422
40
0.941846600168422
40
0.941846600168422
40
0.969185462996461
40
0.969185462996461
40
0.969185462996461
40
0.988535706119456
40
0.988535706119456
40
0.988535706119456
40
0.999533871895801
40
0.999533871895801
40
0.999533871895801
40
1
40
1
40
1
40
1
41
1
10
1.6548711306
20
4.4962841751
30
0
41
1
10
1.66772735049999
20
4.60644492636666
30
0
41
1
10
1.6805835704
20
4.71660567763332
30
0
41
1
10
1.6934397903
20
4.8267664289
30
0
41
1
10
1.70665898536667
20
4.91370108123334
30
0
41
1
10
1.71987818043333
20
5.00063573356668
30
0
41
1
10
1.7330973755
20
5.08757038590001
30
0
41
1
10
1.74638428036666
20
5.14891440656668
30
0
41
1
10
1.75967118523333
20
5.21025842723334
30
0
41
1
10
1.7729580901
20
5.27160244790001
30
0
41
1
10
1.7860123903
20
5.30613053723334
30
0
41
1
10
1.7990666905
20
5.34065862656666
30
0
41
1
10
1.8121209907
20
5.3751867159
30
0
41
1
10
1.82469089000001
20
5.38288730026666
30
0
41
1
10
1.8372607893
20
5.39058788463335
30
0
41
1
10
1.8498306886
20
5.39828846900001
30
0
41
1
10
1.86261704333334
20
5.37946136053334
30
0
41
1
10
1.87540339806667
20
5.36063425206667
30
0
41
1
10
1.88818975279999
20
5.34180714360001
30
0
41
1
10
1.90137706826666
20
5.29601244360001
30
0
41
1
10
1.91456438373333
20
5.2502177436
30
0
41
1
10
1.9277516992
20
5.2044230436
30
0
41
1
10
1.9410470767
20
5.132177297
30
0
41
1
10
1.95434245420001
20
5.05993155039999
30
0
41
1
10
1.9676378317
20
4.98768580380001
30
0
41
1
10
1.98261940463333
20
4.87463615466667
30
0
41
1
10
1.99760097756667
20
4.76158650553334
30
0
41
1
10
2.0125825505
20
4.6485368564
30
0
41
1
10
2.0269804953
20
4.50697975513334
30
0
41
1
10
2.0413784401
20
4.36542265386667
30
0
41
1
10
2.0557763849
20
4.2238655526
30
0
41
1
10
2.07055975103334
20
4.05366683240001
30
0
41
1
10
2.08534311716667
20
3.88346811220001
30
0
41
1
10
2.1001264833
20
3.713269392
30
0
41
1
10
2.11532155903334
20
3.51698461443333
30
0
41
1
10
2.13051663476667
20
3.32069983686667
30
0
41
1
10
2.16248909556861
20
2.90769055235218
30
0
41
1
10
2.17602926203334
20
2.69072759543333
30
0
41
1
10
2.20730771963601
20
2.24329453223045
30
0
41
1
10
2.22054403966667
20
2.01251268916667
30
0
41
1
10
2.25055515495179
20
1.54084547899818
30
0
41
1
10
2.26414379293333
20
1.29975602806667
30
0
41
1
10
2.29177070371524
20
0.839267521125521
30
0
41
1
10
2.3049071727
20
0.619812778366679
30
0
41
1
10
2.33139160537493
20
0.177869230133837
30
0
41
1
10
2.34472478623334
20
-0.044620461733345
30
0
41
1
10
2.37126955444234
20
-0.487570824332792
30
0
41
1
10
2.38448114176667
20
-0.708031495066663
30
0
41
1
10
2.41048830260244
20
-1.14201084796851
30
0
41
1
10
2.42328387616667
20
-1.35552953013333
30
0
41
1
10
2.44835654227052
20
-1.77391504532338
30
0
41
1
10
2.4613258531
20
-1.97873980876666
30
0
41
1
10
2.4860607122348
20
-2.38013020750023
30
0
41
1
10
2.50016793139999
20
-2.5765467494
30
0
41
1
10
2.52552404931404
20
-2.9565771074638
30
0
41
1
10
2.5399320019
20
-3.13997629833334
30
0
41
1
10
2.56533940038895
20
-3.48975485961398
30
0
41
1
10
2.57974354326667
20
-3.65588194906667
30
0
41
1
10
2.5929856559
20
-3.82209752999999
30
0
41
1
10
2.6073956752
20
-3.98403760586665
30
0
41
1
10
2.6218056945
20
-4.14597768173333
30
0
41
1
10
2.63621571379999
20
-4.3079177576
30
0
41
1
10
2.650439613
20
-4.44235251046666
30
0
41
1
10
2.6646635122
20
-4.57678726333333
30
0
41
1
10
2.6788874114
20
-4.7112220162
30
0
41
1
10
2.69368592353333
20
-4.81757589226667
30
0
41
1
10
2.70848443566667
20
-4.92392976833334
30
0
41
1
10
2.7232829478
20
-5.0302836444
30
0
41
1
10
2.73826106123333
20
-5.10479481816667
30
0
41
1
10
2.75323917466666
20
-5.17930599193333
30
0
41
1
10
2.7682172881
20
-5.2538171657
30
0
41
1
10
2.78294545756666
20
-5.29442618623332
30
0
41
1
10
2.79767362703333
20
-5.33503520676666
30
0
41
1
10
2.8124017965
20
-5.3756442273
30
0
41
1
10
2.81406215586667
20
-5.37641562553333
30
0
41
1
10
2.81572251523333
20
-5.37718702376667
30
0
41
1
10
2.8173828746
20
-5.37795842199999
30
0
0
SPLINE
5
13C
100
AcDbEntity
8
SK3
62
256
6
ByLayer
370
18
48
0.05
60
0
100
AcDbSpline
70
4
71
3
72
45
73
41
40
0
40
0
40
0
40
0
40
0.14303155638751
40
0.14303155638751
40
0.282461628310438
40
0.282461628310438
40
0.374117093071873
40
0.374117093071873
40
0.46208089468213
40
0.46208089468213
40
0.546829517838985
40
0.546829517838985
40
0.626346989264146
40
0.626346989264146
40
0.696992719949681
40
0.696992719949681
40
0.761571905970323
40
0.761571905970323
40
0.820252213291469
40
0.820252213291469
40
0.820252213291469
40
0.871427651827448
40
0.871427651827448
40
0.871427651827448
40
0.912652478726073
40
0.912652478726073
40
0.912652478726073
40
0.946138510957617
40
0.946138510957617
40
0.946138510957617
40
0.971856493205932
40
0.971856493205932
40
0.971856493205932
40
0.988944261766341
40
0.988944261766341
40
0.988944261766341
40
0.99723915233185
40
0.99723915233185
40
0.99723915233185
40
1
40
1
40
1
40
1
41
1
10
5.7
20
1.0842832034
30
0
41
1
10
5.70958854946667
20
1.31077536120002
30
0
41
1
10
5.71917709893334
20
1.53726751900001
30
0
41
1
10
5.73811276155139
20
1.98454884144053
30
0
41
1
10
5.7476789348
20
2.20532867773333
30
0
41
1
10
5.76335197748703
20
2.57124762246521
30
0
41
1
10
5.77007432
20
2.71635995440001
30
0
41
1
10
5.78275249119175
20
3.00076150723426
30
0
41
1
10
5.7897594142
20
3.1400029471
30
0
41
1
10
5.80273361243348
20
3.41343244522912
30
0
41
1
10
5.81009935766667
20
3.5475528536
30
0
41
1
10
5.82340762967566
20
3.80756278644795
30
0
41
1
10
5.83087336866667
20
3.93337319363333
30
0
41
1
10
5.84400548468243
20
4.17100881289326
30
0
41
1
10
5.8510095569
20
4.28275961493334
30
0
41
1
10
5.86362576394058
20
4.49671001576665
30
0
41
1
10
5.8706481563
20
4.59882477733333
30
0
41
1
10
5.88309975307061
20
4.79378525002127
30
0
41
1
10
5.89059772786667
20
4.88649338493333
30
0
41
1
10
5.8973106392
20
4.9792549953
30
0
41
1
10
5.90420784223333
20
5.06007070679999
30
0
41
1
10
5.91110504526667
20
5.1408864183
30
0
41
1
10
5.9180022483
20
5.22170212980001
30
0
41
1
10
5.9247332355
20
5.28669297423333
30
0
41
1
10
5.9314642227
20
5.35168381866667
30
0
41
1
10
5.9381952099
20
5.4166746631
30
0
41
1
10
5.944990134
20
5.46931091336667
30
0
41
1
10
5.95178505809999
20
5.52194716363333
30
0
41
1
10
5.9585799822
20
5.5745834139
30
0
41
1
10
5.96537386973333
20
5.61477444596667
30
0
41
1
10
5.97216775726667
20
5.65496547803333
30
0
41
1
10
5.9789616448
20
5.69515651010001
30
0
41
1
10
5.98571027250001
20
5.72138513186667
30
0
41
1
10
5.9924589002
20
5.74761375363335
30
0
41
1
10
5.9992075279
20
5.77384237540001
30
0
41
1
10
6.0057391401
20
5.78525188830001
30
0
41
1
10
6.01227075229999
20
5.7966614012
30
0
41
1
10
6.0188023645
20
5.8080709141
30
0
41
1
10
6.02295021686667
20
5.80667717233334
30
0
41
1
10
6.02709806923333
20
5.80528343056666
30
0
41
1
10
6.0312459216
20
5.8038896888
30
0
0
SPLINE
5
13D
100
AcDbEntity
8
SK3
62
256
6
ByLayer
370
18
48
0.05
60
0
100
AcDbSpline
70
4
71
3
72
92
73
88
40
0
40
0
40
0
40
0
40
0.0005419401378299
40
0.0005419401378299
40
0.0005419401378299
40
0.0040365733048125
40
0.0040365733048125
40
0.0040365733048125
40
0.0107552354116755
40
0.0107552354116755
40
0.0107552354116755
40
0.020828848982615
40
0.020828848982615
40
0.020828848982615
40
0.0344896574084863
40
0.0344896574084863
40
0.0344896574084863
40
0.0515839477823154
40
0.0515839477823154
40
0.0711609956809504
40
0.0711609956809504
40
0.0937672870692121
40
0.0937672870692121
40
0.119698854843581
40
0.119698854843581
40
0.148539248798804
40
0.148539248798804
40
0.178940950180077
40
0.178940950180077
40
0.211731052072899
40
0.211731052072899
40
0.247244032704114
40
0.247244032704114
40
0.284816744414238
40
0.284816744414238
40
0.322730407770173
40
0.322730407770173
40
0.362109375332256
40
0.362109375332256
40
0.403301620281528
40
0.403301620281528
40
0.445470790287296
40
0.445470790287296
40
0.486613779655354
40
0.486613779655354
40
0.528108133057736
40
0.528108133057736
40
0.570271007798412
40
0.570271007798412
40
0.612206451876778
40
0.612206451876778
40
0.652076889908469
40
0.652076889908469
40
0.69115014664557
40
0.69115014664557
40
0.729677568486738
40
0.729677568486738
40
0.766792222363451
40
0.766792222363451
40
0.80094049085166
40
0.80094049085166
40
0.833211782737567
40
0.833211782737567
40
0.863760630621904
40
0.863760630621904
40
0.891844612934686
40
0.891844612934686
40
0.916238659690409
40
0.916238659690409
40
0.937905815657027
40
0.937905815657027
40
0.956885038962021
40
0.956885038962021
40
0.956885038962021
40
0.972636971601334
40
0.972636971601334
40
0.972636971601334
40
0.984586558711158
40
0.984586558711158
40
0.984586558711158
40
0.993241804996987
40
0.993241804996987
40
0.993241804996987
40
0.998551130925975
40
0.998551130925975
40
0.998551130925975
40
1
40
1
40
1
40
1
41
1
10
6.4676206553
20
5.55200582420001
30
0
41
1
10
6.46560979106666
20
5.55239721536668
30
0
41
1
10
6.46359892683333
20
5.55278860653334
30
0
41
1
10
6.4615880626
20
5.5531799977
30
0
41
1
10
6.45814079873333
20
5.54042757859999
30
0
41
1
10
6.45469353486667
20
5.52767515949999
30
0
41
1
10
6.45124627100001
20
5.5149227404
30
0
41
1
10
6.4478791538
20
5.48974956716667
30
0
41
1
10
6.44451203659999
20
5.46457639393333
30
0
41
1
10
6.4411449194
20
5.4394032207
30
0
41
1
10
6.43780058326667
20
5.40147087183334
30
0
41
1
10
6.43445624713333
20
5.36353852296668
30
0
41
1
10
6.431111911
20
5.3256061741
30
0
41
1
10
6.42777804270001
20
5.27407437753334
30
0
41
1
10
6.4244441744
20
5.22254258096666
30
0
41
1
10
6.4211103061
20
5.1710107844
30
0
41
1
10
6.41776039493333
20
5.10647916616666
30
0
41
1
10
6.41441048376667
20
5.04194754793333
30
0
41
1
10
6.4072241237079
20
4.90351180419945
30
0
41
1
10
6.40450146033333
20
4.8295540669
30
0
41
1
10
6.39743488779395
20
4.67025254303439
30
0
41
1
10
6.39451648806666
20
4.5848456323
30
0
41
1
10
6.38731790475382
20
4.401507855747
30
0
41
1
10
6.3842754766
20
4.30352893410002
30
0
41
1
10
6.37700083178313
20
4.09661205799156
30
0
41
1
10
6.37400399823333
20
3.9876314424
30
0
41
1
10
6.3669918690317
20
3.76379888494402
30
0
41
1
10
6.36411228870001
20
3.64891169153334
30
0
41
1
10
6.35737978027987
20
3.41013384043617
30
0
41
1
10
6.35435260273333
20
3.28621977636666
30
0
41
1
10
6.34756120307027
20
3.02811510360932
30
0
41
1
10
6.3443468003
20
2.89390999516667
30
0
41
1
10
6.33740571271117
20
2.61772434593084
30
0
41
1
10
6.3340959946
20
2.47573335033333
30
0
41
1
10
6.32718671705232
20
2.1904692802151
30
0
41
1
10
6.3239967325
20
2.04718636373333
30
0
41
1
10
6.31720780178512
20
1.7550896479964
30
0
41
1
10
6.31412190333334
20
1.60626408963333
30
0
41
1
10
6.30742650589846
20
1.30176865267191
30
0
41
1
10
6.3042681203
20
1.14608885043333
30
0
41
1
10
6.29760865177905
20
0.83104288130464
30
0
41
1
10
6.29429709803333
20
0.671672656999988
30
0
41
1
10
6.28769807055024
20
0.356811649050641
30
0
41
1
10
6.28437746166667
20
0.201321563433339
30
0
41
1
10
6.27776988551489
20
-0.11098780969489
30
0
41
1
10
6.2743595669
20
-0.267804476866658
30
0
41
1
10
6.26757721378436
20
-0.583966292689922
30
0
41
1
10
6.26411503743334
20
-0.7433095114
30
0
41
1
10
6.2572531418828
20
-1.06113737817499
30
0
41
1
10
6.25390239693333
20
-1.21962307716666
30
0
41
1
10
6.24729672796672
20
-1.52878875752724
30
0
41
1
10
6.24407370753333
20
-1.6794694245
30
0
41
1
10
6.23769563171174
20
-1.97781808005305
30
0
41
1
10
6.23434684373334
20
-2.12548186463334
30
0
41
1
10
6.22788666130082
20
-2.41875077751465
30
0
41
1
10
6.224346114
20
-2.56434629286667
30
0
41
1
10
6.21772191582948
20
-2.85020585110148
30
0
41
1
10
6.21406370473333
20
-2.99045637826667
30
0
41
1
10
6.20743133329323
20
-3.25975728284185
30
0
41
1
10
6.2038662913
20
-3.3887929662
30
0
41
1
10
6.19730842425614
20
-3.63978137108819
30
0
41
1
10
6.1938105959
20
-3.76172084376667
30
0
41
1
10
6.18730487290157
20
-3.99909952351825
30
0
41
1
10
6.1837918513
20
-4.11452472186666
30
0
41
1
10
6.17738451530057
20
-4.33607135839385
30
0
41
1
10
6.17373392829999
20
-4.4421702591
30
0
41
1
10
6.16745579258677
20
-4.64044425785175
30
0
41
1
10
6.16380010363334
20
-4.73258572340001
30
0
41
1
10
6.15759350661727
20
-4.90659204824108
30
0
41
1
10
6.15380849676667
20
-4.98841133596666
30
0
41
1
10
6.14751977920711
20
-5.14193087120103
30
0
41
1
10
6.14359490596667
20
-5.21357063413332
30
0
41
1
10
6.1401642577
20
-5.28523234939999
30
0
41
1
10
6.13677580243333
20
-5.3446800908
30
0
41
1
10
6.13338734716667
20
-5.40412783219999
30
0
41
1
10
6.1299988919
20
-5.4635755736
30
0
41
1
10
6.12677164506666
20
-5.50863104133333
30
0
41
1
10
6.12354439823334
20
-5.55368650906667
30
0
41
1
10
6.12031715140001
20
-5.5987419768
30
0
41
1
10
6.1170568353
20
-5.63129701703333
30
0
41
1
10
6.1137965192
20
-5.66385205726668
30
0
41
1
10
6.11053620309999
20
-5.6964070975
30
0
41
1
10
6.10715871453333
20
-5.7161907654
30
0
41
1
10
6.10378122596666
20
-5.7359744333
30
0
41
1
10
6.10040373739999
20
-5.7557581012
30
0
41
1
10
6.09768882136667
20
-5.76051474813333
30
0
41
1
10
6.09497390533333
20
-5.76527139506665
30
0
41
1
10
6.0922589893
20
-5.77002804199999
30
0
0
SPLINE
5
13E
100
AcDbEntity
8
SK3
62
256
6
ByLayer
370
18
48
0.05
60
0
100
AcDbSpline
70
4
71
3
72
93
73
89
40
0
40
0
40
0
40
0
40
0.0013068109269313
40
0.0013068109269313
40
0.0013068109269313
40
0.0066996819418391
40
0.0066996819418391
40
0.0066996819418391
40
0.0156509859953733
40
0.0156509859953733
40
0.0156509859953733
40
0.0281212409293639
40
0.0281212409293639
40
0.0281212409293639
40
0.0433876509245226
40
0.0433876509245226
40
0.0618399554380938
40
0.0618399554380938
40
0.0837543636220219
40
0.0837543636220219
40
0.108809512952972
40
0.108809512952972
40
0.131410758379402
40
0.131410758379402
40
0.155897947461217
40
0.155897947461217
40
0.182447266155183
40
0.182447266155183
40
0.210712922566625
40
0.210712922566625
40
0.239674157768856
40
0.239674157768856
40
0.270019816191722
40
0.270019816191722
40
0.301948595153564
40
0.301948595153564
40
0.335020506881895
40
0.335020506881895
40
0.374475614285105
40
0.374475614285105
40
0.415036616177529
40
0.415036616177529
40
0.457043537550705
40
0.457043537550705
40
0.499640115971002
40
0.499640115971002
40
0.540985667157623
40
0.540985667157623
40
0.582309253949929
40
0.582309253949929
40
0.623911510703964
40
0.623911510703964
40
0.664887500627067
40
0.664887500627067
40
0.703374882723134
40
0.703374882723134
40
0.740699006103828
40
0.740699006103828
40
0.777078999891778
40
0.777078999891778
40
0.81167316401655
40
0.81167316401655
40
0.842966784043924
40
0.842966784043924
40
0.872087238050247
40
0.872087238050247
40
0.899154629891099
40
0.899154629891099
40
0.923486474033164
40
0.923486474033164
40
0.944135946307188
40
0.944135946307188
40
0.961803857004282
40
0.961803857004282
40
0.961803857004282
40
0.976505092624638
40
0.976505092624638
40
0.976505092624638
40
0.987799013102986
40
0.987799013102986
40
0.987799013102986
40
0.995571822055031
40
0.995571822055031
40
0.995571822055031
40
0.999646885104702
40
0.999646885104702
40
0.999646885104702
40
1
40
1
40
1
40
1
41
1
10
6.0863009806
20
-5.7653025816
30
0
41
1
10
6.08423076043333
20
-5.76061536263332
30
0
41
1
10
6.08216054026666
20
-5.75592814366667
30
0
41
1
10
6.08009032010001
20
-5.7512409247
30
0
41
1
10
6.07682302013333
20
-5.73034926390001
30
0
41
1
10
6.07355572016667
20
-5.70945760310001
30
0
41
1
10
6.07028842019999
20
-5.6885659423
30
0
41
1
10
6.0669967821
20
-5.65362230346666
30
0
41
1
10
6.063705144
20
-5.61867866463334
30
0
41
1
10
6.0604135059
20
-5.5837350258
30
0
41
1
10
6.05706824453333
20
-5.53495335246666
30
0
41
1
10
6.05372298316666
20
-5.48617167913334
30
0
41
1
10
6.0503777218
20
-5.4373900058
30
0
41
1
10
6.04708174106666
20
-5.3776207666
30
0
41
1
10
6.04378576033334
20
-5.31785152740001
30
0
41
1
10
6.03650597200007
20
-5.18584001233994
30
0
41
1
10
6.03374909433332
20
-5.1135353002
30
0
41
1
10
6.02637605035002
20
-4.95542803691498
30
0
41
1
10
6.02349057423333
20
-4.86954581020001
30
0
41
1
10
6.01610879497245
20
-4.68552477064799
30
0
41
1
10
6.0132758777
20
-4.58732052519998
30
0
41
1
10
6.00683682691243
20
-4.40056935435089
30
0
41
1
10
6.0044578962
20
-4.31197984656666
30
0
41
1
10
5.99879855578435
20
-4.12743144471632
30
0
41
1
10
5.996276428
20
-4.0314491158
30
0
41
1
10
5.99058118224951
20
-3.83141450609389
30
0
41
1
10
5.98792707596666
20
-3.7273474464
30
0
41
1
10
5.98212873399415
20
-3.51249452163786
30
0
41
1
10
5.97938155856667
20
-3.40169795953334
30
0
41
1
10
5.97357384348511
20
-3.17738478257772
30
0
41
1
10
5.97085029836666
20
-3.06385947846667
30
0
41
1
10
5.96505225409574
20
-2.83138767296293
30
0
41
1
10
5.96232595406666
20
-2.71243255749999
30
0
41
1
10
5.95648445832415
20
-2.46832251439864
30
0
41
1
10
5.95380206823334
20
-2.34315736436666
30
0
41
1
10
5.94802304738366
20
-2.08835324434756
30
0
41
1
10
5.94537343243334
20
-1.95870420133333
30
0
41
1
10
5.93924403462995
20
-1.67438965934883
30
0
41
1
10
5.93609733013334
20
-1.51971695516666
30
0
41
1
10
5.92952536825148
20
-1.20604024297232
30
0
41
1
10
5.92625940673333
20
-1.04703287573334
30
0
41
1
10
5.91954445769162
20
-0.723351231684518
30
0
41
1
10
5.9161316575
20
-0.558676200799994
30
0
41
1
10
5.90925465679048
20
-0.227014644999613
30
0
41
1
10
5.90582133063334
20
-0.0600274811666708
30
0
41
1
10
5.899026800893
20
0.269041973781768
30
0
41
1
10
5.89580689706667
20
0.431127158266676
30
0
41
1
10
5.88924210353579
20
0.755208829952281
30
0
41
1
10
5.886039312
20
0.917208198400004
30
0
41
1
10
5.87953313196523
20
1.24229780446542
30
0
41
1
10
5.87615348003333
20
1.40538650006667
30
0
41
1
10
5.86955981201854
20
1.72911112422527
30
0
41
1
10
5.86603817149999
20
1.88974070013335
30
0
41
1
10
5.85945099493555
20
2.20124931268946
30
0
41
1
10
5.85597478603334
20
2.35211957843335
30
0
41
1
10
5.84940888416899
20
2.64930622885871
30
0
41
1
10
5.84592375886667
20
2.79561383570001
30
0
41
1
10
5.83929102010372
20
3.08453375294097
30
0
41
1
10
5.8358531117
20
3.22713940636668
30
0
41
1
10
5.82930605080771
20
3.50535417251142
30
0
41
1
10
5.82586672963334
20
3.64095542556667
30
0
41
1
10
5.81955254465356
20
3.89922621906129
30
0
41
1
10
5.81610582453333
20
4.02188142670001
30
0
41
1
10
5.80988396900232
20
4.25868508901956
30
0
41
1
10
5.8062842176
20
4.37281129093334
30
0
41
1
10
5.79991805698183
20
4.59303351299653
30
0
41
1
10
5.7961287049
20
4.69909912600001
30
0
41
1
10
5.78961903472425
20
4.90053190440464
30
0
41
1
10
5.78575837406667
20
4.99586124030002
30
0
41
1
10
5.77934142583363
20
5.17211755127822
30
0
41
1
10
5.77566134016667
20
5.25300274066667
30
0
41
1
10
5.76951379474175
20
5.40312051904074
30
0
41
1
10
5.76584412716667
20
5.47230218663334
30
0
41
1
10
5.7625919956
20
5.5415022147
30
0
41
1
10
5.75927263876666
20
5.59905054806667
30
0
41
1
10
5.75595328193334
20
5.65659888143334
30
0
41
1
10
5.7526339251
20
5.71414721480001
30
0
41
1
10
5.7492373543
20
5.75830056300001
30
0
41
1
10
5.74584078349999
20
5.8024539112
30
0
41
1
10
5.7424442127
20
5.8466072594
30
0
41
1
10
5.73894031459999
20
5.87688258870001
30
0
41
1
10
5.7354364165
20
5.90715791800001
30
0
41
1
10
5.7319325184
20
5.93743324730001
30
0
41
1
10
5.72837756753334
20
5.95301121213333
30
0
41
1
10
5.72482261666666
20
5.96858917696666
30
0
41
1
10
5.7212676658
20
5.9841671418
30
0
41
1
10
5.71988694926667
20
5.98427042350001
30
0
41
1
10
5.71850623273333
20
5.98437370520001
30
0
41
1
10
5.7171255162
20
5.98447698690001
30
0
0
SPLINE
5
13F
100
AcDbEntity
8
SK3
62
256
6
ByLayer
370
18
48
0.05
60
0
100
AcDbSpline
70
4
71
3
72
11
73
7
40
0
40
0
40
0
40
0
40
0.0258907858749587
40
0.0258907858749587
40
0.0258907858749587
40
1
40
1
40
1
40
1
41
1
10
5.71183799199999
20
5.98487250950001
30
0
41
1
10
5.7114093815
20
5.98490457086668
30
0
41
1
10
5.710980771
20
5.98493663223336
30
0
41
1
10
5.7105521605
20
5.98496869360001
30
0
41
1
10
5.70703477366667
20
5.96918486520001
30
0
41
1
10
5.70351738683333
20
5.9534010368
30
0
41
1
10
5.7
20
5.9376172084
30
0
0
SPLINE
5
140
100
AcDbEntity
8
SK3
62
256
6
ByLayer
370
18
48
0.05
60
0
100
AcDbSpline
70
4
71
3
72
70
73
66
40
0
40
0
40
0
40
0
40
0.0005040052371467
40
0.0005040052371467
40
0.0005040052371467
40
0.0057624172324282
40
0.0057624172324282
40
0.0057624172324282
40
0.0182198218220361
40
0.0182198218220361
40
0.0182198218220361
40
0.0379078906993339
40
0.0379078906993339
40
0.0379078906993339
40
0.0646324942292241
40
0.0646324942292241
40
0.0646324942292241
40
0.09789255518722
40
0.09789255518722
40
0.137151403570179
40
0.137151403570179
40
0.181870249851389
40
0.181870249851389
40
0.231459507691429
40
0.231459507691429
40
0.285111877895824
40
0.285111877895824
40
0.341962830354961
40
0.341962830354961
40
0.401147691832169
40
0.401147691832169
40
0.461827856348022
40
0.461827856348022
40
0.523144115632335
40
0.523144115632335
40
0.584153574421297
40
0.584153574421297
40
0.643911741360791
40
0.643911741360791
40
0.701472872789685
40
0.701472872789685
40
0.755982861968981
40
0.755982861968981
40
0.806680791779073
40
0.806680791779073
40
0.852808295055581
40
0.852808295055581
40
0.893598796834138
40
0.893598796834138
40
0.928421688191306
40
0.928421688191306
40
0.928421688191306
40
0.956853937817288
40
0.956853937817288
40
0.956853937817288
40
0.978485609137992
40
0.978485609137992
40
0.978485609137992
40
0.99291701795059
40
0.99291701795059
40
0.99291701795059
40
0.999987115792849
40
0.999987115792849
40
0.999987115792849
40
1
40
1
40
1
40
1
41
1
10
3.8819774971
20
-5.40406386879999
30
0
41
1
10
3.88302732006666
20
-5.40555075466666
30
0
41
1
10
3.88407714303333
20
-5.40703764053335
30
0
41
1
10
3.88512696599999
20
-5.4085245264
30
0
41
1
10
3.89164310846667
20
-5.3906873679
30
0
41
1
10
3.89815925093332
20
-5.3728502094
30
0
41
1
10
3.90467539340001
20
-5.3550130509
30
0
41
1
10
3.91119462623332
20
-5.31049951296667
30
0
41
1
10
3.91771385906667
20
-5.26598597503333
30
0
41
1
10
3.9242330919
20
-5.22147243709999
30
0
41
1
10
3.93075791103333
20
-5.15067140386667
30
0
41
1
10
3.93728273016667
20
-5.07987037063333
30
0
41
1
10
3.9438075493
20
-5.00906933739999
30
0
41
1
10
3.9503322799
20
-4.9127775062
30
0
41
1
10
3.9568570105
20
-4.81648567500001
30
0
41
1
10
3.9633817411
20
-4.7201938438
30
0
41
1
10
3.96990136863334
20
-4.60025627106667
30
0
41
1
10
3.97642099616667
20
-4.48031869833333
30
0
41
1
10
3.99063613181009
20
-4.21881160204126
30
0
41
1
10
3.99597739856667
20
-4.07712391760001
30
0
41
1
10
4.00992073037915
20
-3.77416944612887
30
0
41
1
10
4.01553780780001
20
-3.6127654468
30
0
41
1
10
4.02929004485605
20
-3.27246102917464
30
0
41
1
10
4.0351086487
20
-3.09346725073333
30
0
41
1
10
4.04869309978464
20
-2.72087029749638
30
0
41
1
10
4.05468101343333
20
-2.52720239
30
0
41
1
10
4.0681173867224
20
-2.12835942139151
30
0
41
1
10
4.07424002603334
20
-1.92313971456666
30
0
41
1
10
4.08754288338756
20
-1.50430177509296
30
0
41
1
10
4.09377104216667
20
-1.29065328666665
30
0
41
1
10
4.10694880558514
20
-0.857976037961691
30
0
41
1
10
4.11328181123334
20
-0.638928447166663
30
0
41
1
10
4.12635405341763
20
-0.198547264400233
30
0
41
1
10
4.13281125803334
20
0.0227947502333308
30
0
41
1
10
4.14580607156756
20
0.464367946775283
30
0
41
1
10
4.15236661516666
20
0.684598453800007
30
0
41
1
10
4.16527452876544
20
1.12054490471559
30
0
41
1
10
4.17193324626667
20
1.33625154793333
30
0
41
1
10
4.18473923275081
20
1.75974226284147
30
0
41
1
10
4.19149547666667
20
1.96750769283334
30
0
41
1
10
4.20418921736427
20
2.37203972418777
30
0
41
1
10
4.21104674390001
20
2.5687769968
30
0
41
1
10
4.2236226758839
20
2.9485143392727
30
0
41
1
10
4.2305962204
20
3.13147199800001
30
0
41
1
10
4.24304240145031
20
3.48092362925533
30
0
41
1
10
4.25015889643333
20
3.6473575049
30
0
41
1
10
4.26245002622623
20
3.96101051131925
30
0
41
1
10
4.26973921456666
20
4.10814390293332
30
0
41
1
10
4.28184147110663
20
4.38094410590469
30
0
41
1
10
4.28931028246667
20
4.50648790446668
30
0
41
1
10
4.2958314667
20
4.63207732480001
30
0
41
1
10
4.30234818406667
20
4.73454991013334
30
0
41
1
10
4.30886490143333
20
4.83702249546667
30
0
41
1
10
4.3153816188
20
4.9394950808
30
0
41
1
10
4.32189839186667
20
5.01734292626666
30
0
41
1
10
4.32841516493333
20
5.09519077173333
30
0
41
1
10
4.334931938
20
5.17303861720001
30
0
41
1
10
4.34145275506666
20
5.2247463389
30
0
41
1
10
4.34797357213333
20
5.27645406060002
30
0
41
1
10
4.35449438920001
20
5.3281617823
30
0
41
1
10
4.361017224
20
5.35284732786668
30
0
41
1
10
4.3675400588
20
5.37753287343334
30
0
41
1
10
4.3740628936
20
5.40221841900001
30
0
41
1
10
4.3741067888
20
5.40220298436667
30
0
41
1
10
4.37415068399999
20
5.40218754973334
30
0
41
1
10
4.3741945792
20
5.4021721151
30
0
0
SPLINE
5
141
100
AcDbEntity
8
SK3
62
256
6
ByLayer
370
18
48
0.05
60
0
100
AcDbSpline
70
4
71
3
72
68
73
64
40
0
40
0
40
0
40
0
40
0.0011256730137194
40
0.0011256730137194
40
0.0011256730137194
40
0.0094151442837508
40
0.0094151442837508
40
0.0094151442837508
40
0.0250353772105207
40
0.0250353772105207
40
0.0250353772105207
40
0.0478515930368597
40
0.0478515930368597
40
0.0478515930368597
40
0.07744587246631
40
0.07744587246631
40
0.07744587246631
40
0.113374040467606
40
0.113374040467606
40
0.15517786838352
40
0.15517786838352
40
0.202207058770492
40
0.202207058770492
40
0.253693254142494
40
0.253693254142494
40
0.308872811117639
40
0.308872811117639
40
0.366974030658337
40
0.366974030658337
40
0.427082776581502
40
0.427082776581502
40
0.488274252393079
40
0.488274252393079
40
0.549649237766805
40
0.549649237766805
40
0.610305834385377
40
0.610305834385377
40
0.669294429248173
40
0.669294429248173
40
0.725745405795545
40
0.725745405795545
40
0.77882461955503
40
0.77882461955503
40
0.827698245371905
40
0.827698245371905
40
0.87160051474923
40
0.87160051474923
40
0.909948654188124
40
0.909948654188124
40
0.909948654188124
40
0.942191354792316
40
0.942191354792316
40
0.942191354792316
40
0.96777983552548
40
0.96777983552548
40
0.96777983552548
40
0.986272320199775
40
0.986272320199775
40
0.986272320199775
40
0.997532529134698
40
0.997532529134698
40
0.997532529134698
40
1
40
1
40
1
40
1
41
1
10
4.3821337236
20
5.3993805202
30
0
41
1
10
4.38596284609999
20
5.39803410826666
30
0
41
1
10
4.3897919686
20
5.39668769633333
30
0
41
1
10
4.3936210911
20
5.3953412844
30
0
41
1
10
4.40013159716666
20
5.36616884386666
30
0
41
1
10
4.40664210323333
20
5.33699640333333
30
0
41
1
10
4.41315260929999
20
5.3078239628
30
0
41
1
10
4.41965286883333
20
5.25187702663334
30
0
41
1
10
4.42615312836666
20
5.19593009046667
30
0
41
1
10
4.4326533879
20
5.1399831543
30
0
41
1
10
4.43916404786666
20
5.05797067823333
30
0
41
1
10
4.44567470783333
20
4.97595820216667
30
0
41
1
10
4.4521853678
20
4.8939457261
30
0
41
1
10
4.45870570536666
20
4.78743434103335
30
0
41
1
10
4.46522604293333
20
4.68092295596666
30
0
41
1
10
4.4717463805
20
4.5744115709
30
0
41
1
10
4.47827109180001
20
4.44502652906665
30
0
41
1
10
4.48479580310001
20
4.31564148723334
30
0
41
1
10
4.49891227105113
20
4.03571189151407
30
0
41
1
10
4.5043678978
20
3.88506720973334
30
0
41
1
10
4.51823072455725
20
3.56505406478371
30
0
41
1
10
4.5239306427
20
3.39556849923334
30
0
41
1
10
4.53758755817484
20
3.04060526098034
30
0
41
1
10
4.5434870067
20
2.85504850836666
30
0
41
1
10
4.55699144278673
20
2.47067128657372
30
0
41
1
10
4.56304764546667
20
2.27179645783333
30
0
41
1
10
4.5764351470853
20
1.86354913572518
30
0
41
1
10
4.5826220997
20
1.65413912389999
30
0
41
1
10
4.59590095493976
20
1.22810562274471
30
0
41
1
10
4.602193974
20
1.01145720103334
30
0
41
1
10
4.61535666684221
20
0.574272096513496
30
0
41
1
10
4.62175129456667
20
0.3537210577
30
0
41
1
10
4.63480555920387
20
-0.088035106244817
30
0
41
1
10
4.64129903916667
20
-0.309245173500003
30
0
41
1
10
4.6542531642843
20
-0.749074790198648
30
0
41
1
10
4.66084635933333
20
-0.967690409533319
30
0
41
1
10
4.67369930118127
20
-1.39891442346176
30
0
41
1
10
4.6803979928
20
-1.61150959453333
30
0
41
1
10
4.69315317514679
20
-2.02756505134583
30
0
41
1
10
4.6999506316
20
-2.23100231223333
30
0
41
1
10
4.71259620592451
20
-2.6257427526328
30
0
41
1
10
4.71949777006667
20
-2.81701159513334
30
0
41
1
10
4.73201129455958
20
-3.18441915728816
30
0
41
1
10
4.73903304146666
20
-3.3605087648
30
0
41
1
10
4.75139124795418
20
-3.6948108774808
30
0
41
1
10
4.75856621443334
20
-3.85295337513333
30
0
41
1
10
4.77076540392181
20
-4.14928013110206
30
0
41
1
10
4.778110564
20
-4.28736525399999
30
0
41
1
10
4.78462699749999
20
-4.42548698429999
30
0
41
1
10
4.79114773760001
20
-4.54156440423333
30
0
41
1
10
4.79766847769999
20
-4.65764182416666
30
0
41
1
10
4.80418921780001
20
-4.77371924409999
30
0
41
1
10
4.81071359726668
20
-4.86575498396667
30
0
41
1
10
4.81723797673333
20
-4.95779072383334
30
0
41
1
10
4.8237623562
20
-5.0498264637
30
0
41
1
10
4.83028441103333
20
-5.11618676106666
30
0
41
1
10
4.83680646586667
20
-5.18254705843333
30
0
41
1
10
4.84332852069999
20
-5.2489073558
30
0
41
1
10
4.84984697493334
20
-5.28898264276667
30
0
41
1
10
4.85636542916667
20
-5.32905792973332
30
0
41
1
10
4.86288388340001
20
-5.36913321669999
30
0
41
1
10
4.86678689906667
20
-5.37712861176665
30
0
41
1
10
4.87068991473333
20
-5.38512400683332
30
0
41
1
10
4.8745929304
20
-5.39311940189999
30
0
0
SPLINE
5
142
100
AcDbEntity
8
SK3
62
256
6
ByLayer
370
18
48
0.05
60
0
100
AcDbSpline
70
4
71
3
72
71
73
67
40
0
40
0
40
0
40
0
40
3.31205813984E-05
40
3.31205813984E-05
40
3.31205813984E-05
40
0.0042624163378125
40
0.0042624163378125
40
0.0042624163378125
40
0.0158032323800222
40
0.0158032323800222
40
0.0158032323800222
40
0.0345939878791975
40
0.0345939878791975
40
0.0345939878791975
40
0.0603052357269534
40
0.0603052357269534
40
0.0603052357269534
40
0.0925862653434858
40
0.0925862653434858
40
0.0925862653434858
40
0.131063282047461
40
0.131063282047461
40
0.175135721234974
40
0.175135721234974
40
0.224082990772209
40
0.224082990772209
40
0.277183470760034
40
0.277183470760034
40
0.33367595414331
40
0.33367595414331
40
0.392671795080116
40
0.392671795080116
40
0.453285698961868
40
0.453285698961868
40
0.51463347354367
40
0.51463347354367
40
0.575786468187569
40
0.575786468187569
40
0.635761137114825
40
0.635761137114825
40
0.693703537367913
40
0.693703537367913
40
0.748766591661488
40
0.748766591661488
40
0.800086553032486
40
0.800086553032486
40
0.846856655329348
40
0.846856655329348
40
0.88844221003938
40
0.88844221003938
40
0.924219252385316
40
0.924219252385316
40
0.924219252385316
40
0.953574885251986
40
0.953574885251986
40
0.953574885251986
40
0.976089663234134
40
0.976089663234134
40
0.976089663234134
40
0.991528248416818
40
0.991528248416818
40
0.991528248416818
40
0.999707625928136
40
0.999707625928136
40
0.999707625928136
40
1
40
1
40
1
40
1
41
1
10
4.8822841728
20
-5.4088750449
30
0
41
1
10
4.88233661716666
20
-5.40898247806666
30
0
41
1
10
4.88238906153332
20
-5.40908991123332
30
0
41
1
10
4.8824415059
20
-5.4091973444
30
0
41
1
10
4.88896582046666
20
-5.39539590846665
30
0
41
1
10
4.89549013503333
20
-5.38159447253332
30
0
41
1
10
4.9020144496
20
-5.36779303659999
30
0
41
1
10
4.9085411528
20
-5.32665035183334
30
0
41
1
10
4.915067856
20
-5.28550766706667
30
0
41
1
10
4.92159455920001
20
-5.2443649823
30
0
41
1
10
4.92811686783334
20
-5.17685313853333
30
0
41
1
10
4.93463917646667
20
-5.10934129476668
30
0
41
1
10
4.9411614851
20
-5.041829451
30
0
41
1
10
4.94767843486667
20
-4.9492525129
30
0
41
1
10
4.95419538463334
20
-4.85667557480001
30
0
41
1
10
4.96071233440001
20
-4.7640986367
30
0
41
1
10
4.96722296383333
20
-4.64776068103333
30
0
41
1
10
4.97373359326667
20
-4.53142272536667
30
0
41
1
10
4.9802442227
20
-4.4150847697
30
0
41
1
10
4.98675369959999
20
-4.2763526861
30
0
41
1
10
4.9932631765
20
-4.13762060250001
30
0
41
1
10
5.00722875445443
20
-3.83998167420207
30
0
41
1
10
5.01280285913334
20
-3.68099210703333
30
0
41
1
10
5.02655369712057
20
-3.34551451398852
30
0
41
1
10
5.03235317866667
20
-3.16892918230001
30
0
41
1
10
5.04594141901165
20
-2.80083344663998
30
0
41
1
10
5.05190459706667
20
-2.60925579156667
30
0
41
1
10
5.06535470024415
20
-2.2139032335632
30
0
41
1
10
5.07145040976668
20
-2.01008106076667
30
0
41
1
10
5.08476799313377
20
-1.59343296374266
30
0
41
1
10
5.0909947942
20
-1.38057519326667
30
0
41
1
10
5.10420340898811
20
-0.949039938200428
30
0
41
1
10
5.11054633983333
20
-0.73034284389999
30
0
41
1
10
5.12366183905922
20
-0.290311482370214
30
0
41
1
10
5.13011339913334
20
-0.0689676008333322
30
0
41
1
10
5.14314145326551
20
0.373013082344016
30
0
41
1
10
5.14969270376667
20
0.593650637500005
30
0
41
1
10
5.16262184955087
20
1.03067578737593
30
0
41
1
10
5.16925905133333
20
1.2470556478
30
0
41
1
10
5.18207702457773
20
1.67249015221704
30
0
41
1
10
5.18881110663333
20
1.88152793043334
30
0
41
1
10
5.20151990178007
20
2.2892287392948
30
0
41
1
10
5.2083652224
20
2.48786420813333
30
0
41
1
10
5.22095988830853
20
2.87165242089206
30
0
41
1
10
5.2279342324
20
3.05676414126667
30
0
41
1
10
5.24040584769474
20
3.41060540994519
30
0
41
1
10
5.24750876783333
20
3.5792769267
30
0
41
1
10
5.25983497177079
20
3.89796280027041
30
0
41
1
10
5.26707313710001
20
4.04789677106666
30
0
41
1
10
5.27920210205291
20
4.32687739874002
30
0
41
1
10
5.2866144304
20
4.45580983870001
30
0
41
1
10
5.2931251701
20
4.5847846333
30
0
41
1
10
5.2996274241
20
4.69054556513335
30
0
41
1
10
5.30612967809999
20
4.79630649696668
30
0
41
1
10
5.3126319321
20
4.90206742880001
30
0
41
1
10
5.31914382273333
20
4.98307433206666
30
0
41
1
10
5.32565571336666
20
5.06408123533333
30
0
41
1
10
5.332167604
20
5.1450881386
30
0
41
1
10
5.33868680956666
20
5.20043184206666
30
0
41
1
10
5.34520601513334
20
5.25577554553333
30
0
41
1
10
5.3517252207
20
5.311119249
30
0
41
1
10
5.35824639693332
20
5.33991392363333
30
0
41
1
10
5.36476757316667
20
5.36870859826666
30
0
41
1
10
5.3712887494
20
5.3975032729
30
0
41
1
10
5.37231999123333
20
5.39772750566668
30
0
41
1
10
5.37335123306666
20
5.39795173843333
30
0
41
1
10
5.3743824749
20
5.3981759712
30
0
0
SPLINE
5
143
100
AcDbEntity
8
SK3
62
256
6
ByLayer
370
18
48
0.05
60
0
100
AcDbSpline
70
4
71
3
72
67
73
63
40
0
40
0
40
0
40
0
40
0.0008127771384778
40
0.0008127771384778
40
0.0008127771384778
40
0.0082276854650241
40
0.0082276854650241
40
0.0082276854650241
40
0.0229083426509754
40
0.0229083426509754
40
0.0229083426509754
40
0.0447232219683291
40
0.0447232219683291
40
0.0447232219683291
40
0.0734712747800488
40
0.0734712747800488
40
0.0734712747800488
40
0.10870077089426
40
0.10870077089426
40
0.14979798728247
40
0.14979798728247
40
0.196153168019656
40
0.196153168019656
40
0.247151343717885
40
0.247151343717885
40
0.302034469993833
40
0.302034469993833
40
0.359909635597068
40
0.359909635597068
40
0.419883907883142
40
0.419883907883142
40
0.481065391063009
40
0.481065391063009
40
0.542583087765567
40
0.542583087765567
40
0.603523778960022
40
0.603523778960022
40
0.662956063745579
40
0.662956063745579
40
0.719948606595581
40
0.719948606595581
40
0.773616073802389
40
0.773616073802389
40
0.823214681093468
40
0.823214681093468
40
0.868027675161181
40
0.868027675161181
40
0.907338800142925
40
0.907338800142925
40
0.940467425098185
40
0.940467425098185
40
0.940467425098185
40
0.966998907302174
40
0.966998907302174
40
0.966998907302174
40
0.986611892930082
40
0.986611892930082
40
0.986611892930082
40
0.999002814632707
40
0.999002814632707
40
0.999002814632707
40
1
40
1
40
1
40
1
41
1
10
5.382271182
20
5.3998912883
30
0
41
1
10
5.38512877359999
20
5.40051264176667
30
0
41
1
10
5.3879863652
20
5.40113399523334
30
0
41
1
10
5.3908439568
20
5.40175534870001
30
0
41
1
10
5.39736108236666
20
5.37588482406667
30
0
41
1
10
5.40387820793334
20
5.35001429943334
30
0
41
1
10
5.4103953335
20
5.32414377480001
30
0
41
1
10
5.41691402849999
20
5.27172668546667
30
0
41
1
10
5.4234327235
20
5.21930959613333
30
0
41
1
10
5.4299514185
20
5.1668925068
30
0
41
1
10
5.4364741462
20
5.08867426476667
30
0
41
1
10
5.44299687389999
20
5.01045602273334
30
0
41
1
10
5.44951960160001
20
4.93223778070001
30
0
41
1
10
5.45604731916667
20
4.82900872913335
30
0
41
1
10
5.46257503673333
20
4.72577967756668
30
0
41
1
10
5.4691027543
20
4.62255062600001
30
0
41
1
10
5.47562409553333
20
4.49596308123334
30
0
41
1
10
5.48214543676666
20
4.36937553646666
30
0
41
1
10
5.49627429446686
20
4.09511640132408
30
0
41
1
10
5.50169931293333
20
3.94734045883334
30
0
41
1
10
5.51556553698333
20
3.63299319587144
30
0
41
1
10
5.52124836753332
20
3.46630033773333
30
0
41
1
10
5.53493384508906
20
3.11629128410034
30
0
41
1
10
5.5408075205
20
2.93289204813333
30
0
41
1
10
5.55434706703967
20
2.55217274931223
30
0
41
1
10
5.56037619213334
20
2.35479457393332
30
0
41
1
10
5.57377913081299
20
1.94931270138262
30
0
41
1
10
5.57994103703333
20
1.74116894396667
30
0
41
1
10
5.59321873522804
20
1.31735565972812
30
0
41
1
10
5.5994881383
20
1.10165958283334
30
0
41
1
10
5.61264574410747
20
0.665940877231805
30
0
41
1
10
5.6190060752
20
0.445902261900002
30
0
41
1
10
5.63204649383563
20
0.0046243509161741
30
0
41
1
10
5.63852368506667
20
-0.2166209823
30
0
41
1
10
5.6514779135568
20
-0.657034690537557
30
0
41
1
10
5.6580662205
20
-0.876199771866666
30
0
41
1
10
5.67093980229399
20
-1.30910929106494
30
0
41
1
10
5.67762842763334
20
-1.5228416164
30
0
41
1
10
5.69040543502796
20
-1.94154219869692
30
0
41
1
10
5.69719562223333
20
-2.146488754
30
0
41
1
10
5.70985990651145
20
-2.54444101882767
30
0
41
1
10
5.71675594096667
20
-2.73741364416667
30
0
41
1
10
5.72929960944612
20
-3.10875225614831
30
0
41
1
10
5.7363105724
20
-3.28707119376666
30
0
41
1
10
5.74871736295376
20
-3.62653664412416
30
0
41
1
10
5.75586917643334
20
-3.78761718356667
30
0
41
1
10
5.76810940907895
20
-4.09004741324325
30
0
41
1
10
5.77544269440001
20
-4.23130287286666
30
0
41
1
10
5.78746938958784
20
-4.49166282069739
30
0
41
1
10
5.7950225233
20
-4.61062864616666
30
0
41
1
10
5.801549154
20
-4.7296463245
30
0
41
1
10
5.80807012856666
20
-4.82488337223333
30
0
41
1
10
5.81459110313333
20
-4.92012041996666
30
0
41
1
10
5.8211120777
20
-5.0153574677
30
0
41
1
10
5.8276291303
20
-5.08562323779999
30
0
41
1
10
5.8341461829
20
-5.1558890079
30
0
41
1
10
5.8406632355
20
-5.22615477799999
30
0
41
1
10
5.84717810030001
20
-5.2702586235
30
0
41
1
10
5.8536929651
20
-5.31436246899999
30
0
41
1
10
5.8602078299
20
-5.35846631449999
30
0
41
1
10
5.8614998346
20
-5.36181347629999
30
0
41
1
10
5.86279183929999
20
-5.36516063809999
30
0
41
1
10
5.864083844
20
-5.3685077999
30
0
0
SPLINE
5
144
100
AcDbEntity
8
SK3
62
256
6
ByLayer
370
18
48
0.05
60
0
100
AcDbSpline
70
4
71
3
72
68
73
64
40
0
40
0
40
0
40
0
40
0.0029624200426551
40
0.0029624200426551
40
0.0029624200426551
40
0.0134195114378487
40
0.0134195114378487
40
0.0134195114378487
40
0.0311262227440324
40
0.0311262227440324
40
0.0311262227440324
40
0.0559492503304344
40
0.0559492503304344
40
0.0559492503304344
40
0.0874617584167335
40
0.0874617584167335
40
0.0874617584167335
40
0.125149567165714
40
0.125149567165714
40
0.168495907254679
40
0.168495907254679
40
0.216907695522748
40
0.216907695522748
40
0.269559487392595
40
0.269559487392595
40
0.325649658203183
40
0.325649658203183
40
0.384379275524644
40
0.384379275524644
40
0.444909316381762
40
0.444909316381762
40
0.506269428589635
40
0.506269428589635
40
0.567531893854323
40
0.567531893854323
40
0.627773755523982
40
0.627773755523982
40
0.686077526312833
40
0.686077526312833
40
0.74159294715423
40
0.74159294715423
40
0.793515076529079
40
0.793515076529079
40
0.841040043693889
40
0.841040043693889
40
0.883380368572542
40
0.883380368572542
40
0.919944999537808
40
0.919944999537808
40
0.919944999537808
40
0.950262036745155
40
0.950262036745155
40
0.950262036745155
40
0.97386286122078
40
0.97386286122078
40
0.97386286122078
40
0.990298607980223
40
0.990298607980223
40
0.990298607980223
40
0.999385999086604
40
0.999385999086604
40
0.999385999086604
40
1
40
1
40
1
40
1
41
1
10
5.8822225199
20
-5.40519543309999
30
0
41
1
10
5.88791819663333
20
-5.39615563676667
30
0
41
1
10
5.89361387336667
20
-5.38711584043334
30
0
41
1
10
5.8993095501
20
-5.3780760441
30
0
41
1
10
5.90582559083334
20
-5.34092779560001
30
0
41
1
10
5.91234163156667
20
-5.30377954710001
30
0
41
1
10
5.9188576723
20
-5.2666312986
30
0
41
1
10
5.92536858383333
20
-5.2031016002
30
0
41
1
10
5.93187949536666
20
-5.1395719018
30
0
41
1
10
5.93839040690001
20
-5.07604220339999
30
0
41
1
10
5.94489911569999
20
-4.986750356
30
0
41
1
10
5.9514078245
20
-4.8974585086
30
0
41
1
10
5.9579165333
20
-4.80816666119999
30
0
41
1
10
5.96443115113333
20
-4.69469794433333
30
0
41
1
10
5.97094576896667
20
-4.58122922746666
30
0
41
1
10
5.9774603868
20
-4.4677605106
30
0
41
1
10
5.9839805008
20
-4.33198905936668
30
0
41
1
10
5.99050061480001
20
-4.19621760813334
30
0
41
1
10
6.00451978720228
20
-3.90428967832278
30
0
41
1
10
6.010070911
20
-3.74804574163333
30
0
41
1
10
6.02388361457466
20
-3.41739178856606
30
0
41
1
10
6.02964572016667
20
-3.24287765693333
30
0
41
1
10
6.04326689875548
20
-2.87862811905016
30
0
41
1
10
6.04920626013333
20
-2.68882102073333
30
0
41
1
10
6.06266758290344
20
-2.29685449254552
30
0
41
1
10
6.06875694273334
20
-2.09464588309999
30
0
41
1
10
6.0820964294106
20
-1.68074239179322
30
0
41
1
10
6.08831525686667
20
-1.46901425276667
30
0
41
1
10
6.1015570570015
20
-1.03908654064587
30
0
41
1
10
6.10789017906666
20
-0.820865676733334
30
0
41
1
10
6.12103366178686
20
-0.381443254101356
30
0
41
1
10
6.12746418183333
20
-0.160230286966666
30
0
41
1
10
6.14050081542056
20
0.281838095395514
30
0
41
1
10
6.14702529603333
20
0.502695937400006
30
0
41
1
10
6.15995430259652
20
0.940732566784945
30
0
41
1
10
6.1665711022
20
1.15790503963333
30
0
41
1
10
6.17938855374585
20
1.58526919779521
30
0
41
1
10
6.18610539893334
20
1.79544522313334
30
0
41
1
10
6.1988148376126
20
2.20575799142523
30
0
41
1
10
6.2056468674
20
2.40586833330001
30
0
41
1
10
6.21825621361612
20
2.79315613094603
30
0
41
1
10
6.2251977366
20
2.98029497196667
30
0
41
1
10
6.23768110462095
20
3.33875166006803
30
0
41
1
10
6.24474688123333
20
3.5100151478
30
0
41
1
10
6.25706753732346
20
3.83389636460724
30
0
41
1
10
6.26428595896666
20
3.98643700493334
30
0
41
1
10
6.27642103328601
20
4.27076319419476
30
0
41
1
10
6.28382740926666
20
4.40243807636666
30
0
41
1
10
6.29034229970001
20
4.5341540296
30
0
41
1
10
6.29686174993333
20
4.64330339423334
30
0
41
1
10
6.30338120016667
20
4.75245275886668
30
0
41
1
10
6.3099006504
20
4.86160212350001
30
0
41
1
10
6.31642480183333
20
4.94647238446667
30
0
41
1
10
6.32294895326667
20
5.03134264543333
30
0
41
1
10
6.3294731047
20
5.11621290640001
30
0
41
1
10
6.33600029136667
20
5.17513095626667
30
0
41
1
10
6.34252747803334
20
5.23404900613333
30
0
41
1
10
6.3490546647
20
5.29296705600001
30
0
41
1
10
6.35557441346667
20
5.32508737286668
30
0
41
1
10
6.36209416223333
20
5.35720768973334
30
0
41
1
10
6.368613911
20
5.3893280066
30
0
41
1
10
6.3703396449
20
5.3907157666
30
0
41
1
10
6.3720653788
20
5.3921035266
30
0
41
1
10
6.3737911127
20
5.3934912866
30
0
0
SPLINE
5
145
100
AcDbEntity
8
SK3
62
256
6
ByLayer
370
18
48
0.05
60
0
100
AcDbSpline
70
4
71
3
72
71
73
67
40
0
40
0
40
0
40
0
40
0.0054839095029484
40
0.0054839095029484
40
0.0054839095029484
40
0.0080485193915058
40
0.0080485193915058
40
0.0080485193915058
40
0.0174084835523399
40
0.0174084835523399
40
0.0174084835523399
40
0.0336886046091569
40
0.0336886046091569
40
0.0336886046091569
40
0.0572269423313773
40
0.0572269423313773
40
0.0572269423313773
40
0.0875183575515977
40
0.0875183575515977
40
0.0875183575515977
40
0.12413022025062
40
0.12413022025062
40
0.166426506224878
40
0.166426506224878
40
0.213759785449936
40
0.213759785449936
40
0.265477863505051
40
0.265477863505051
40
0.320817802606121
40
0.320817802606121
40
0.378901200403852
40
0.378901200403852
40
0.438844480750316
40
0.438844480750316
40
0.499762017198664
40
0.499762017198664
40
0.56073802326652
40
0.56073802326652
40
0.620862167026607
40
0.620862167026607
40
0.679230801158325
40
0.679230801158325
40
0.734939088108997
40
0.734939088108997
40
0.787111910466106
40
0.787111910466106
40
0.835032926074927
40
0.835032926074927
40
0.878018700981438
40
0.878018700981438
40
0.915385293946049
40
0.915385293946049
40
0.915385293946049
40
0.946481110102425
40
0.946481110102425
40
0.946481110102425
40
0.970917056623733
40
0.970917056623733
40
0.970917056623733
40
0.988380187857117
40
0.988380187857117
40
0.988380187857117
40
0.998580245886459
40
0.998580245886459
40
0.998580245886459
40
1
40
1
40
1
40
1
41
1
10
3.7051748473
20
5.9440560714
30
0
41
1
10
3.71156204686667
20
5.96520862536667
30
0
41
1
10
3.71794924643334
20
5.98636117933334
30
0
41
1
10
3.724336446
20
6.0075137333
30
0
41
1
10
3.73072468763333
20
5.99939161236667
30
0
41
1
10
3.73711292926667
20
5.99126949143333
30
0
41
1
10
3.7435011709
20
5.98314737050001
30
0
41
1
10
3.74988880806667
20
5.94597893733334
30
0
41
1
10
3.75627644523333
20
5.90881050416667
30
0
41
1
10
3.7626640824
20
5.871642071
30
0
41
1
10
3.76905157776666
20
5.80635768160001
30
0
41
1
10
3.77543907313333
20
5.7410732922
30
0
41
1
10
3.7818265685
20
5.67578890280001
30
0
41
1
10
3.78834491826667
20
5.58117212060002
30
0
41
1
10
3.79486326803333
20
5.48655533840001
30
0
41
1
10
3.8013816178
20
5.3919385562
30
0
41
1
10
3.80790098806666
20
5.27006214156667
30
0
41
1
10
3.81442035833333
20
5.14818572693333
30
0
41
1
10
3.8209397286
20
5.0263093123
30
0
41
1
10
3.8274589038
20
4.87893632823334
30
0
41
1
10
3.833978079
20
4.73156334416667
30
0
41
1
10
3.84802860819972
20
4.41393598298168
30
0
41
1
10
3.85353436686667
20
4.24359803696667
30
0
41
1
10
3.86734776339608
20
3.88272543161257
30
0
41
1
10
3.8730884072
20
3.69209266953334
30
0
41
1
10
3.88672767331618
20
3.2932264820751
30
0
41
1
10
3.8926402064
20
3.08492531246667
30
0
41
1
10
3.90613065666233
20
2.65377643613846
30
0
41
1
10
3.912193952
20
2.43088138946666
30
0
41
1
10
3.92555381441008
20
1.97406958007957
30
0
41
1
10
3.93175065563334
20
1.74012063443334
30
0
41
1
10
3.94499775052561
20
1.26475019181166
30
0
41
1
10
3.95130747806666
20
1.02330801766666
30
0
41
1
10
3.96445107817382
20
0.536511083699452
30
0
41
1
10
3.97086147219999
20
0.291144846133321
30
0
41
1
10
3.98390289708127
20
-0.1998173911918
30
0
41
1
10
3.99041641253333
20
-0.445416535833331
30
0
41
1
10
4.00336269939664
20
-0.933183422054441
30
0
41
1
10
4.00997413306667
20
-1.17534638673332
30
0
41
1
10
4.0228228182204
20
-1.65260646443397
30
0
41
1
10
4.0295316404
20
-1.88769074599999
30
0
41
1
10
4.04227250132745
20
-2.34715468889577
30
0
41
1
10
4.04908496433334
20
-2.57151239693333
30
0
41
1
10
4.06170569059456
20
-3.00600543414979
30
0
41
1
10
4.06863453953333
20
-3.21610759706667
30
0
41
1
10
4.08113591332547
20
-3.61921349062538
30
0
41
1
10
4.08818400526666
20
-3.81217040053333
30
0
41
1
10
4.10054613804166
20
-4.17824482706409
30
0
41
1
10
4.10773658903334
20
-4.35129709513335
30
0
41
1
10
4.11992050010704
20
-4.67482480535119
30
0
41
1
10
4.12729489063334
20
-4.82520703273333
30
0
41
1
10
4.1338150531
20
-4.975623859
30
0
41
1
10
4.14033448423333
20
-5.10074588916666
30
0
41
1
10
4.14685391536666
20
-5.22586791933333
30
0
41
1
10
4.1533733465
20
-5.3509899495
30
0
41
1
10
4.15989124473334
20
-5.44923167786668
30
0
41
1
10
4.16640914296666
20
-5.54747340623334
30
0
41
1
10
4.1729270412
20
-5.6457151346
30
0
41
1
10
4.17944485673333
20
-5.71577533466666
30
0
41
1
10
4.18596267226666
20
-5.78583553473334
30
0
41
1
10
4.19248048779999
20
-5.8558957348
30
0
41
1
10
4.19899965769999
20
-5.89647362953333
30
0
41
1
10
4.2055188276
20
-5.93705152426666
30
0
41
1
10
4.2120379975
20
-5.977629419
30
0
41
1
10
4.21511398013333
20
-5.98245253063332
30
0
41
1
10
4.21818996276667
20
-5.98727564226665
30
0
41
1
10
4.2212659454
20
-5.9920987539
30
0
0
SPLINE
5
146
100
AcDbEntity
8
SK3
62
256
6
ByLayer
370
18
48
0.05
60
0
100
AcDbSpline
70
4
71
3
72
70
73
66
40
0
40
0
40
0
40
0
40
0.0004652521833266
40
0.0004652521833266
40
0.0004652521833266
40
0.0056758761929737
40
0.0056758761929737
40
0.0056758761929737
40
0.0181169742098795
40
0.0181169742098795
40
0.0181169742098795
40
0.037786966320138
40
0.037786966320138
40
0.037786966320138
40
0.0644986464985099
40
0.0644986464985099
40
0.0644986464985099
40
0.0977601735182782
40
0.0977601735182782
40
0.137024046386086
40
0.137024046386086
40
0.18174106737507
40
0.18174106737507
40
0.231317537140049
40
0.231317537140049
40
0.284961269911858
40
0.284961269911858
40
0.341825058947928
40
0.341825058947928
40
0.401061566470156
40
0.401061566470156
40
0.461809999546073
40
0.461809999546073
40
0.523153782917104
40
0.523153782917104
40
0.58416640891553
40
0.58416640891553
40
0.643921584649602
40
0.643921584649602
40
0.701488125270394
40
0.701488125270394
40
0.756007412020521
40
0.756007412020521
40
0.806709778600533
40
0.806709778600533
40
0.852828197300297
40
0.852828197300297
40
0.89359781293389
40
0.89359781293389
40
0.928414010202488
40
0.928414010202488
40
0.928414010202488
40
0.956846190594394
40
0.956846190594394
40
0.956846190594394
40
0.978473168582568
40
0.978473168582568
40
0.978473168582568
40
0.992885957755486
40
0.992885957755486
40
0.992885957755486
40
0.999918080567905
40
0.999918080567905
40
0.999918080567905
40
1
40
1
40
1
40
1
41
1
10
4.2285855317
20
-6.0035757958
30
0
41
1
10
4.22958891383333
20
-6.00514908949999
30
0
41
1
10
4.23059229596667
20
-6.0067223832
30
0
41
1
10
4.2315956781
20
-6.00829567689999
30
0
41
1
10
4.23811357563334
20
-5.98843946633332
30
0
41
1
10
4.24463147316667
20
-5.96858325576666
30
0
41
1
10
4.2511493707
20
-5.9487270452
30
0
41
1
10
4.25766628656667
20
-5.89925605973333
30
0
41
1
10
4.26418320243333
20
-5.84978507426666
30
0
41
1
10
4.27070011830001
20
-5.80031408879999
30
0
41
1
10
4.27721640006667
20
-5.72169185003332
30
0
41
1
10
4.28373268183334
20
-5.64306961126665
30
0
41
1
10
4.2902489636
20
-5.5644473725
30
0
41
1
10
4.296766279
20
-5.4575113849
30
0
41
1
10
4.30328359440001
20
-5.35057539730001
30
0
41
1
10
4.30980090980001
20
-5.24363940969999
30
0
41
1
10
4.31631992083334
20
-5.11039445099999
30
0
41
1
10
4.32283893186668
20
-4.97714949229999
30
0
41
1
10
4.33705336891832
20
-4.68661430710007
30
0
41
1
10
4.34239689229999
20
-4.52921782346665
30
0
41
1
10
4.35634129647598
20
-4.19267854102215
30
0
41
1
10
4.36195377973333
20
-4.01341210533332
30
0
41
1
10
4.3756995875917
20
-3.6354724889421
30
0
41
1
10
4.3815086489
20
-3.43671501233332
30
0
41
1
10
4.39507955633752
20
-3.02294501138788
30
0
41
1
10
4.40106398296667
20
-2.80787425300001
30
0
41
1
10
4.41449252726191
20
-2.36485747331157
30
0
41
1
10
4.42062001696667
20
-2.13687155073333
30
0
41
1
10
4.43392942636505
20
-1.67141021016032
30
0
41
1
10
4.44017532253334
20
-1.43390800423333
30
0
41
1
10
4.45337829439987
20
-0.952857154989857
30
0
41
1
10
4.45972944973333
20
-0.709291839433334
30
0
41
1
10
4.47282915329495
20
-0.219783289217531
30
0
41
1
10
4.47928389576667
20
0.0261678486666597
30
0
41
1
10
4.49228524052027
20
0.516739011082009
30
0
41
1
10
4.49883948646667
20
0.761358836066677
30
0
41
1
10
4.51174246323905
20
1.24555882326702
30
0
41
1
10
4.51839630893333
20
1.4851307815
30
0
41
1
10
4.53119569684932
20
1.95550709225806
30
0
41
1
10
4.5379530369
20
2.18629458843334
30
0
41
1
10
4.55064561426245
20
2.63566584587846
30
0
41
1
10
4.55750657013333
20
2.8542230428
30
0
41
1
10
4.57008499648929
20
3.27605539982447
30
0
41
1
10
4.57705764753333
20
3.47929237956667
30
0
41
1
10
4.58950218765325
20
3.86741882647998
30
0
41
1
10
4.59660939376666
20
4.05225448833333
30
0
41
1
10
4.60888838723346
20
4.4005260170687
30
0
41
1
10
4.61616363753333
20
4.56388515386665
30
0
41
1
10
4.62824858377466
20
4.86680149409287
30
0
41
1
10
4.63571770773333
20
5.00624785626667
30
0
41
1
10
4.6422355425
20
5.1457354194
30
0
41
1
10
4.64875318076666
20
5.2595839462
30
0
41
1
10
4.65527081903333
20
5.37343247299999
30
0
41
1
10
4.6617884573
20
5.48728099980001
30
0
41
1
10
4.66830645156666
20
5.57377659576667
30
0
41
1
10
4.67482444583333
20
5.66027219173334
30
0
41
1
10
4.6813424401
20
5.74676778770001
30
0
41
1
10
4.68786119213333
20
5.80420543843334
30
0
41
1
10
4.69437994416666
20
5.86164308916666
30
0
41
1
10
4.70089869620001
20
5.9190807399
30
0
41
1
10
4.70741768233334
20
5.94652124376667
30
0
41
1
10
4.71393666846666
20
5.97396174763333
30
0
41
1
10
4.7204556546
20
6.0014022515
30
0
41
1
10
4.72076187916667
20
6.0012831793
30
0
41
1
10
4.72106810373334
20
6.00116410710001
30
0
41
1
10
4.7213743283
20
6.0010450349
30
0
0
SPLINE
5
147
100
AcDbEntity
8
SK3
62
256
6
ByLayer
370
18
48
0.05
60
0
100
AcDbSpline
70
4
71
3
72
64
73
60
40
0
40
0
40
0
40
0
40
0.0082703307771969
40
0.0082703307771969
40
0.0082703307771969
40
0.0239139045751499
40
0.0239139045751499
40
0.0239139045751499
40
0.0467623536334061
40
0.0467623536334061
40
0.0467623536334061
40
0.0763899034274296
40
0.0763899034274296
40
0.0763899034274296
40
0.112350799725002
40
0.112350799725002
40
0.154188662563453
40
0.154188662563453
40
0.20127287391829
40
0.20127287391829
40
0.252824394696106
40
0.252824394696106
40
0.308061631881626
40
0.308061631881626
40
0.36619854749782
40
0.36619854749782
40
0.426356422368066
40
0.426356422368066
40
0.487617444026912
40
0.487617444026912
40
0.549073611715623
40
0.549073611715623
40
0.609813934040364
40
0.609813934040364
40
0.668876449657515
40
0.668876449657515
40
0.725394714061718
40
0.725394714061718
40
0.778542827716937
40
0.778542827716937
40
0.82749458793918
40
0.82749458793918
40
0.871459016598655
40
0.871459016598655
40
0.909842214580069
40
0.909842214580069
40
0.942100896009166
40
0.942100896009166
40
0.942100896009166
40
0.967693825028542
40
0.967693825028542
40
0.967693825028542
40
0.986182528915249
40
0.986182528915249
40
0.986182528915249
40
0.997424171583962
40
0.997424171583962
40
0.997424171583962
40
1
40
1
40
1
40
1
41
1
10
4.7400119871
20
5.99379797650001
30
0
41
1
10
4.74653016976666
20
5.96135970810001
30
0
41
1
10
4.75304835243333
20
5.92892143970001
30
0
41
1
10
4.7595665351
20
5.89648317130001
30
0
41
1
10
4.76608408316666
20
5.83423904996668
30
0
41
1
10
4.77260163123334
20
5.77199492863333
30
0
41
1
10
4.7791191793
20
5.7097508073
30
0
41
1
10
4.78563771263332
20
5.61857495083332
30
0
41
1
10
4.79215624596667
20
5.52739909436667
30
0
41
1
10
4.79867477929999
20
5.43622323790001
30
0
41
1
10
4.8051937991
20
5.31787327780002
30
0
41
1
10
4.8117128189
20
5.19952331770001
30
0
41
1
10
4.81823183870001
20
5.08117335760001
30
0
41
1
10
4.82475043606667
20
4.93745426250001
30
0
41
1
10
4.83126903343334
20
4.79373516740001
30
0
41
1
10
4.84537154028515
20
4.48280945602703
30
0
41
1
10
4.85082286393334
20
4.31551292503335
30
0
41
1
10
4.86467538757066
20
3.96003690808203
30
0
41
1
10
4.87037811536667
20
3.7717524036
30
0
41
1
10
4.8840342500172
20
3.37738203344689
30
0
41
1
10
4.88993597846666
20
3.17122520536668
30
0
41
1
10
4.90344114253129
20
2.74421460015613
30
0
41
1
10
4.9094933647
20
2.52331182273333
30
0
41
1
10
4.92287343938
20
2.06993926126312
30
0
41
1
10
4.92904659613334
20
1.83743541536667
30
0
41
1
10
4.94230744545556
20
1.36436554842315
30
0
41
1
10
4.94859618846666
20
1.1237770922
30
0
41
1
10
4.96174812233065
20
0.638201034709184
30
0
41
1
10
4.96814547983333
20
0.393200766633342
30
0
41
1
10
4.98119930828757
20
-0.0975738059792661
30
0
41
1
10
4.98769756203334
20
-0.343352346299994
30
0
41
1
10
5.00065718972414
20
-0.832045552012971
30
0
41
1
10
5.00725490253333
20
-1.0749565776
30
0
41
1
10
5.02011437597994
20
-1.55407289115439
30
0
41
1
10
5.02681268353333
20
-1.79026633849999
30
0
41
1
10
5.03956986047606
20
-2.25248821842294
30
0
41
1
10
5.04636746816667
20
-2.47849598373333
30
0
41
1
10
5.05901459592462
20
-2.9170501205422
30
0
41
1
10
5.0659217113
20
-3.1295654537
30
0
41
1
10
5.07844341357411
20
-3.53783902683756
30
0
41
1
10
5.08547946786667
20
-3.73355266380001
30
0
41
1
10
5.0978547962409
20
-4.10507147556682
30
0
41
1
10
5.10503822186667
20
-4.28081339226667
30
0
41
1
10
5.11724954487946
20
-4.61003077925329
30
0
41
1
10
5.12459355283333
20
-4.76341714186667
30
0
41
1
10
5.13658938623243
20
-5.0457756572245
30
0
41
1
10
5.14414507903333
20
-5.17461827973332
30
0
41
1
10
5.1506618798
20
-5.30350923329999
30
0
41
1
10
5.1571779961
20
-5.40568994913333
30
0
41
1
10
5.1636941124
20
-5.50787066496666
30
0
41
1
10
5.17021022870001
20
-5.6100513808
30
0
41
1
10
5.17672755396666
20
-5.68373047216667
30
0
41
1
10
5.18324487923334
20
-5.75740956353333
30
0
41
1
10
5.18976220449999
20
-5.8310886549
30
0
41
1
10
5.1962811769
20
-5.87558752656666
30
0
41
1
10
5.2028001493
20
-5.92008639823332
30
0
41
1
10
5.2093191217
20
-5.9645852699
30
0
41
1
10
5.21346574503333
20
-5.97401915186667
30
0
41
1
10
5.21761236836667
20
-5.98345303383333
30
0
41
1
10
5.22175899169999
20
-5.9928869158
30
0
0
SPLINE
5
148
100
AcDbEntity
8
SK3
62
256
6
ByLayer
370
18
48
0.05
60
0
100
AcDbSpline
70
4
71
3
72
64
73
60
40
0
40
0
40
0
40
0
40
6.29954175003E-05
40
6.29954175003E-05
40
6.29954175003E-05
40
0.0042472623532193
40
0.0042472623532193
40
0.0042472623532193
40
0.015842501923406
40
0.015842501923406
40
0.015842501923406
40
0.0347537721168489
40
0.0347537721168489
40
0.0347537721168489
40
0.0606508147333881
40
0.0606508147333881
40
0.0606508147333881
40
0.0931860083526253
40
0.0931860083526253
40
0.131972189456315
40
0.131972189456315
40
0.176386242063373
40
0.176386242063373
40
0.225710191852717
40
0.225710191852717
40
0.27922537648966
40
0.27922537648966
40
0.33616591664062
40
0.33616591664062
40
0.39562202630568
40
0.39562202630568
40
0.456694861836671
40
0.456694861836671
40
0.518487016178377
40
0.518487016178377
40
0.580073884372222
40
0.580073884372222
40
0.640498877385299
40
0.640498877385299
40
0.698886253162167
40
0.698886253162167
40
0.754364526398533
40
0.754364526398533
40
0.806054984996037
40
0.806054984996037
40
0.85316886428547
40
0.85316886428547
40
0.89506928517497
40
0.89506928517497
40
0.931127444323009
40
0.931127444323009
40
0.931127444323009
40
0.961527533071995
40
0.961527533071995
40
0.961527533071995
40
0.984570173430369
40
0.984570173430369
40
0.984570173430369
40
1
40
1
40
1
40
1
41
1
10
5.2285748458
20
-6.00839349979999
30
0
41
1
10
5.22867571326667
20
-6.00862298093334
30
0
41
1
10
5.22877658073334
20
-6.00885246206667
30
0
41
1
10
5.2288774482
20
-6.0090819432
30
0
41
1
10
5.23539618273333
20
-5.99376109286668
30
0
41
1
10
5.24191491726667
20
-5.97844024253334
30
0
41
1
10
5.2484336518
20
-5.9631193922
30
0
41
1
10
5.25495202156667
20
-5.91744248509998
30
0
41
1
10
5.26147039133333
20
-5.87176557799999
30
0
41
1
10
5.2679887611
20
-5.82608867089999
30
0
41
1
10
5.27450760463334
20
-5.75112000923333
30
0
41
1
10
5.28102644816666
20
-5.67615134756666
30
0
41
1
10
5.2875452917
20
-5.6011826859
30
0
41
1
10
5.294063996
20
-5.49833980466666
30
0
41
1
10
5.30058270030001
20
-5.39549692343333
30
0
41
1
10
5.3071014046
20
-5.2926540422
30
0
41
1
10
5.3136193562
20
-5.16335448546666
30
0
41
1
10
5.3201373078
20
-5.03405492873333
30
0
41
1
10
5.33442550518802
20
-4.75061348851293
30
0
41
1
10
5.33968998746666
20
-4.59635549566666
30
0
41
1
10
5.35367038448748
20
-4.26558122172227
30
0
41
1
10
5.3592429961
20
-4.08893205369999
30
0
41
1
10
5.37299917475323
20
-3.71618442426606
30
0
41
1
10
5.37879785826666
20
-3.51999806100001
30
0
41
1
10
5.39238880040632
20
-3.11100729857762
30
0
41
1
10
5.39835527393333
20
-2.89814234359999
30
0
41
1
10
5.41181146107377
20
-2.45882399340719
30
0
41
1
10
5.4179135028
20
-2.23232814496666
30
0
41
1
10
5.43124030319618
20
-1.76935545878132
30
0
41
1
10
5.43746822356666
20
-1.53284989716666
30
0
41
1
10
5.45068078167192
20
-1.05342428073149
30
0
41
1
10
5.4570199829
20
-0.810486390899996
30
0
41
1
10
5.47013083519595
20
-0.321759006243894
30
0
41
1
10
5.47657224666667
20
-0.0759606107333326
30
0
41
1
10
5.48958581050829
20
0.414815530050191
30
0
41
1
10
5.496126771
20
0.659794112166665
30
0
41
1
10
5.50904071217129
20
1.14513078482115
30
0
41
1
10
5.51568077073333
20
1.38548170766667
30
0
41
1
10
5.52849652390572
20
1.85808503548384
30
0
41
1
10
5.53523339833334
20
2.09032204636667
30
0
41
1
10
5.54794352960732
20
2.54323685924419
30
0
41
1
10
5.55478592263334
20
2.76388989586667
30
0
41
1
10
5.56737602880477
20
3.19014881378372
30
0
41
1
10
5.57433981066667
20
3.39571804949999
30
0
41
1
10
5.58679904379889
20
3.78868187627701
30
0
41
1
10
5.5938957801
20
3.97602439683334
30
0
41
1
10
5.60621222067938
20
4.33001506409697
30
0
41
1
10
5.61345272159999
20
4.49659066483333
30
0
41
1
10
5.62558180292688
20
4.80656550325303
30
0
41
1
10
5.63300873723334
20
4.94986121506668
30
0
41
1
10
5.6395272346
20
5.0931953565
30
0
41
1
10
5.64624702713333
20
5.21397631636667
30
0
41
1
10
5.65296681966667
20
5.33475727623333
30
0
41
1
10
5.6596866122
20
5.4555382361
30
0
41
1
10
5.66640725573333
20
5.54698266203334
30
0
41
1
10
5.67312789926667
20
5.63842708796668
30
0
41
1
10
5.6798485428
20
5.72987151390001
30
0
41
1
10
5.68656949476667
20
5.7909007718
30
0
41
1
10
5.69329044673334
20
5.8519300297
30
0
41
1
10
5.7000113987
20
5.9129592876
30
0
0
SPLINE
5
149
100
AcDbEntity
8
SK3
62
256
6
ByLayer
370
18
48
0.05
60
0
100
AcDbSpline
70
4
71
3
72
87
73
83
40
0
40
0
40
0
40
0
40
0.0022440598547559
40
0.0022440598547559
40
0.0022440598547559
40
0.0088660538333708
40
0.0088660538333708
40
0.0088660538333708
40
0.0186522520506383
40
0.0186522520506383
40
0.0186522520506383
40
0.0318270078001135
40
0.0318270078001135
40
0.0318270078001135
40
0.0486446168765561
40
0.0486446168765561
40
0.0486446168765561
40
0.0688972553002189
40
0.0688972553002189
40
0.0914505772917773
40
0.0914505772917773
40
0.116992365946526
40
0.116992365946526
40
0.145840646382456
40
0.145840646382456
40
0.177502204287029
40
0.177502204287029
40
0.210308137050302
40
0.210308137050302
40
0.245351997399494
40
0.245351997399494
40
0.282988660240142
40
0.282988660240142
40
0.322497523744257
40
0.322497523744257
40
0.361863523710582
40
0.361863523710582
40
0.402462610397574
40
0.402462610397574
40
0.444646650530476
40
0.444646650530476
40
0.487549780772305
40
0.487549780772305
40
0.529038042562383
40
0.529038042562383
40
0.570615453426299
40
0.570615453426299
40
0.612591111895863
40
0.612591111895863
40
0.654051408058514
40
0.654051408058514
40
0.692985337860778
40
0.692985337860778
40
0.730854517538588
40
0.730854517538588
40
0.7678907092274
40
0.7678907092274
40
0.803235621864838
40
0.803235621864838
40
0.835226123681086
40
0.835226123681086
40
0.865118176885137
40
0.865118176885137
40
0.893040490045793
40
0.893040490045793
40
0.918287793590135
40
0.918287793590135
40
0.939734209369194
40
0.939734209369194
40
0.958288681951326
40
0.958288681951326
40
0.958288681951326
40
0.973962090007264
40
0.973962090007264
40
0.973962090007264
40
0.986283804228073
40
0.986283804228073
40
0.986283804228073
40
0.994800208937252
40
0.994800208937252
40
0.994800208937252
40
1
40
1
40
1
40
1
41
1
10
3.9285380873
20
5.98915687900001
30
0
41
1
10
3.93189246626666
20
5.98084340516668
30
0
41
1
10
3.93524684523333
20
5.97252993133334
30
0
41
1
10
3.93860122420001
20
5.9642164575
30
0
41
1
10
3.94326361583332
20
5.93817666126667
30
0
41
1
10
3.94792600746667
20
5.91213686503333
30
0
41
1
10
3.9525883991
20
5.8860970688
30
0
41
1
10
3.9570391582
20
5.84725681043334
30
0
41
1
10
3.9614899173
20
5.80841655206667
30
0
41
1
10
3.9659406764
20
5.7695762937
30
0
41
1
10
3.9703095301
20
5.71712670410001
30
0
41
1
10
3.9746783838
20
5.66467711450001
30
0
41
1
10
3.97904723749999
20
5.61222752490001
30
0
41
1
10
3.98349304893333
20
5.54519088643335
30
0
41
1
10
3.98793886036667
20
5.47815424796667
30
0
41
1
10
3.9923846718
20
5.4111176095
30
0
41
1
10
3.99692171946666
20
5.3303385838
30
0
41
1
10
4.00145876713334
20
5.2495595581
30
0
41
1
10
4.01104826746204
20
5.07882507382391
30
0
41
1
10
4.01488660853333
20
4.98880553133334
30
0
41
1
10
4.02436644721293
20
4.79690658196546
30
0
41
1
10
4.02831995033334
20
4.69494460713334
30
0
41
1
10
4.03788965887088
20
4.47787504812808
30
0
41
1
10
4.04181711133334
20
4.3626944459
30
0
41
1
10
4.05125929427229
20
4.12115094000909
30
0
41
1
10
4.0551924168
20
3.99472678640001
30
0
41
1
10
4.06422649364013
20
3.73734705434337
30
0
41
1
10
4.06823140313333
20
3.60635266986667
30
0
41
1
10
4.0771269403338
20
3.33544864202041
30
0
41
1
10
4.0813584161
20
3.1955172549
30
0
41
1
10
4.09051086795353
20
2.90531344369246
30
0
41
1
10
4.09496539050001
20
2.75502632596667
30
0
41
1
10
4.10438806458913
20
2.44698526999822
30
0
41
1
10
4.108881438
20
2.28921691630001
30
0
41
1
10
4.11818363642312
20
1.97426066875876
30
0
41
1
10
4.12236255053333
20
1.81705442533334
30
0
41
1
10
4.13132230163932
20
1.49773122941622
30
0
41
1
10
4.13544787773333
20
1.33559599670001
30
0
41
1
10
4.14429173361738
20
1.00500774046601
30
0
41
1
10
4.14865365743334
20
0.836545076533341
30
0
41
1
10
4.15759775930914
20
0.496751922110633
30
0
41
1
10
4.16217171683333
20
0.325421205699996
30
0
41
1
10
4.17110573578822
20
-0.0115917123773244
30
0
41
1
10
4.1756490982
20
-0.177269023299999
30
0
41
1
10
4.18459417838246
20
-0.508983697244105
30
0
41
1
10
4.18920123413334
20
-0.675015514999984
30
0
41
1
10
4.19832913733244
20
-1.00867301995382
30
0
41
1
10
4.20291813816667
20
-1.17629685533332
30
0
41
1
10
4.21203652233326
20
-1.50948658947493
30
0
41
1
10
4.21652474686666
20
-1.67505361186666
30
0
41
1
10
4.22526921018714
20
-1.99609776406568
30
0
41
1
10
4.22971400543333
20
-2.1515696885
30
0
41
1
10
4.23827495256666
20
-2.45826746159246
30
0
41
1
10
4.24290055033334
20
-2.60947885473333
30
0
41
1
10
4.25164998148963
20
-2.90858695878792
30
0
41
1
10
4.25649410316667
20
-3.05646228126666
30
0
41
1
10
4.26545491027018
20
-3.34547536607944
30
0
41
1
10
4.2703510868
20
-3.48658870713332
30
0
41
1
10
4.27918300181121
20
-3.7554388487695
30
0
41
1
10
4.28377297726667
20
-3.8831540932
30
0
41
1
10
4.29227076153472
20
-4.13021978731074
30
0
41
1
10
4.29684934843333
20
-4.24954684699999
30
0
41
1
10
4.30524665003565
20
-4.48035411083154
30
0
41
1
10
4.31009572573334
20
-4.5917956494
30
0
41
1
10
4.31857386148997
20
-4.80403125144632
30
0
41
1
10
4.32366128420001
20
-4.9047649642
30
0
41
1
10
4.33208852293559
20
-5.09110910986853
30
0
41
1
10
4.3371352051
20
-5.17663970256666
30
0
41
1
10
4.34545128862342
20
-5.33622088667096
30
0
41
1
10
4.3505698411
20
-5.41017175213334
30
0
41
1
10
4.35505783129999
20
-5.4841581717
30
0
41
1
10
4.35953375236667
20
-5.54661096656668
30
0
41
1
10
4.36400967343334
20
-5.60906376143333
30
0
41
1
10
4.3684855945
20
-5.67151655629999
30
0
41
1
10
4.3729187299
20
-5.72053997556667
30
0
41
1
10
4.37735186529999
20
-5.76956339483333
30
0
41
1
10
4.3817850007
20
-5.8185868141
30
0
41
1
10
4.38609851396667
20
-5.85233405403334
30
0
41
1
10
4.39041202723333
20
-5.88608129396665
30
0
41
1
10
4.3947255405
20
-5.9198285339
30
0
41
1
10
4.39915710493334
20
-5.94012272413333
30
0
41
1
10
4.40358866936667
20
-5.96041691436666
30
0
41
1
10
4.4080202338
20
-5.98071110459999
30
0
0
SPLINE
5
14A
100
AcDbEntity
8
SK3
62
256
6
ByLayer
370
18
48
0.05
60
0
100
AcDbSpline
70
4
71
3
72
95
73
91
40
0
40
0
40
0
40
0
40
0.0001168049655492
40
0.0001168049655492
40
0.0001168049655492
40
0.0024798646539696
40
0.0024798646539696
40
0.0024798646539696
40
0.0080484363783165
40
0.0080484363783165
40
0.0080484363783165
40
0.0170213744925893
40
0.0170213744925893
40
0.0170213744925893
40
0.0296414955797427
40
0.0296414955797427
40
0.0296414955797427
40
0.0457992273685892
40
0.0457992273685892
40
0.0457992273685892
40
0.0645583666861132
40
0.0645583666861132
40
0.0864625556701147
40
0.0864625556701147
40
0.111810204239614
40
0.111810204239614
40
0.140192163681361
40
0.140192163681361
40
0.170092303745123
40
0.170092303745123
40
0.202486774828324
40
0.202486774828324
40
0.237722290095125
40
0.237722290095125
40
0.275142518439396
40
0.275142518439396
40
0.312821413262422
40
0.312821413262422
40
0.352059690268851
40
0.352059690268851
40
0.393213493691951
40
0.393213493691951
40
0.435454386611868
40
0.435454386611868
40
0.474156284516105
40
0.474156284516105
40
0.513253243483835
40
0.513253243483835
40
0.553011536637448
40
0.553011536637448
40
0.592685571726958
40
0.592685571726958
40
0.630566254290079
40
0.630566254290079
40
0.667881699741963
40
0.667881699741963
40
0.704850123468746
40
0.704850123468746
40
0.740741182055696
40
0.740741182055696
40
0.776142975486845
40
0.776142975486845
40
0.80987721361057
40
0.80987721361057
40
0.842119188784772
40
0.842119188784772
40
0.872088494070506
40
0.872088494070506
40
0.898410756249937
40
0.898410756249937
40
0.922157627729449
40
0.922157627729449
40
0.943391457989653
40
0.943391457989653
40
0.961530816192946
40
0.961530816192946
40
0.961530816192946
40
0.975818508144509
40
0.975818508144509
40
0.975818508144509
40
0.986921500891325
40
0.986921500891325
40
0.986921500891325
40
0.994796098507204
40
0.994796098507204
40
0.994796098507204
40
0.999169064462908
40
0.999169064462908
40
0.999169064462908
40
1
40
1
40
1
40
1
41
1
10
4.4210360966
20
-5.9987839834
30
0
41
1
10
4.4213095873
20
-5.99916373266667
30
0
41
1
10
4.421583078
20
-5.99954348193334
30
0
41
1
10
4.4218565687
20
-5.9999232312
30
0
41
1
10
4.4265176581
20
-5.99168244333333
30
0
41
1
10
4.4311787475
20
-5.98344165546666
30
0
41
1
10
4.4358398369
20
-5.97520086759999
30
0
41
1
10
4.44023625160001
20
-5.95332772759998
30
0
41
1
10
4.4446326663
20
-5.93145458759999
30
0
41
1
10
4.449029081
20
-5.90958144759999
30
0
41
1
10
4.45336104146666
20
-5.87389313976666
30
0
41
1
10
4.45769300193333
20
-5.83820483193334
30
0
41
1
10
4.4620249624
20
-5.8025165241
30
0
41
1
10
4.46646758386667
20
-5.75214930113333
30
0
41
1
10
4.47091020533333
20
-5.70178207816667
30
0
41
1
10
4.4753528268
20
-5.6514148552
30
0
41
1
10
4.47991268029999
20
-5.58683936409999
30
0
41
1
10
4.48447253379999
20
-5.522263873
30
0
41
1
10
4.48903238729999
20
-5.4576883819
30
0
41
1
10
4.493517725
20
-5.38266346416667
30
0
41
1
10
4.4980030627
20
-5.30763854643332
30
0
41
1
10
4.50772572408393
20
-5.14501046371871
30
0
41
1
10
4.51158353
20
-5.05733027263334
30
0
41
1
10
4.5213935619236
20
-4.86826916033321
30
0
41
1
10
4.52526334033333
20
-4.76678225433334
30
0
41
1
10
4.53494218631037
20
-4.55173117976061
30
0
41
1
10
4.53882740176668
20
-4.4380813506
30
0
41
1
10
4.54806599499683
20
-4.20475575781877
30
0
41
1
10
4.55202003336667
20
-4.08502421713332
30
0
41
1
10
4.56107631720329
20
-3.83560394333463
30
0
41
1
10
4.56524048823333
20
-3.70588107786666
30
0
41
1
10
4.57450322708804
20
-3.43507852316469
30
0
41
1
10
4.57885829729999
20
-3.29397350916666
30
0
41
1
10
4.58832391989139
20
-3.00303072463272
30
0
41
1
10
4.59267811709999
20
-2.85316860316665
30
0
41
1
10
4.60193933703662
20
-2.55242499353149
30
0
41
1
10
4.60598869596667
20
-2.40151745896667
30
0
41
1
10
4.61486455926725
20
-2.09347508413671
30
0
41
1
10
4.6189944563
20
-1.9363201285
30
0
41
1
10
4.62786358491005
20
-1.61434974744387
30
0
41
1
10
4.63225011796667
20
-1.4495245162
30
0
41
1
10
4.64129478050768
20
-1.1155244013832
30
0
41
1
10
4.64586419483333
20
-0.946347097699999
30
0
41
1
10
4.6546315627558
20
-0.622166684844316
30
0
41
1
10
4.65883518406667
20
-0.467163729066655
30
0
41
1
10
4.66727367562734
20
-0.155575263439417
30
0
41
1
10
4.67145605586667
20
0.0010116626333314
30
0
41
1
10
4.67995034607236
20
0.316832632661814
30
0
41
1
10
4.68404996596667
20
0.47607233636667
30
0
41
1
10
4.69242346821742
20
0.794209405848079
30
0
41
1
10
4.69654858613332
20
0.95311070836668
30
0
41
1
10
4.70466825717683
20
1.26372916325815
30
0
41
1
10
4.70880275616666
20
1.41544261313334
30
0
41
1
10
4.71684277670158
20
1.71661013797667
30
0
41
1
10
4.72114474913333
20
1.8660534895
30
0
41
1
10
4.72939795868381
20
2.16355887474883
30
0
41
1
10
4.73389415906667
20
2.31160561646668
30
0
41
1
10
4.74237232088832
20
2.60339547877865
30
0
41
1
10
4.74692711946667
20
2.74712183370001
30
0
41
1
10
4.75559880451029
20
3.03262644021854
30
0
41
1
10
4.76019009233333
20
3.17439026380001
30
0
41
1
10
4.76887791725509
20
3.45124890958465
30
0
41
1
10
4.77335553833333
20
3.5863317398
30
0
41
1
10
4.78187950041821
20
3.85052931652356
30
0
41
1
10
4.78657902076667
20
3.97962248916667
30
0
41
1
10
4.79513168247872
20
4.22872647750425
30
0
41
1
10
4.80007537496666
20
4.34869871196668
30
0
41
1
10
4.80858767871273
20
4.57407133096822
30
0
41
1
10
4.8135295375
20
4.6794183592
30
0
41
1
10
4.82201531819616
20
4.87984180668889
30
0
41
1
10
4.82707999396667
20
4.97485208623334
30
0
41
1
10
4.83568837541548
20
5.15486247192518
30
0
41
1
10
4.84082385836667
20
5.23978449420001
30
0
41
1
10
4.84935274572759
20
5.3973032486941
30
0
41
1
10
4.8544453877
20
5.46980499176667
30
0
41
1
10
4.858956352
20
5.542340569
30
0
41
1
10
4.86328806116666
20
5.59942037116666
30
0
41
1
10
4.86761977033333
20
5.65650017333333
30
0
41
1
10
4.8719514795
20
5.7135799755
30
0
41
1
10
4.87636466273334
20
5.75784489123332
30
0
41
1
10
4.88077784596667
20
5.80210980696667
30
0
41
1
10
4.88519102919999
20
5.84637472270001
30
0
41
1
10
4.88976583206667
20
5.87759101723334
30
0
41
1
10
4.89434063493334
20
5.90880731176667
30
0
41
1
10
4.8989154378
20
5.9400236063
30
0
41
1
10
4.90353779039999
20
5.95692323603335
30
0
41
1
10
4.908160143
20
5.97382286576668
30
0
41
1
10
4.91278249559999
20
5.99072249550001
30
0
41
1
10
4.91571452653334
20
5.99229936023335
30
0
41
1
10
4.91864655746667
20
5.99387622496668
30
0
41
1
10
4.9215785884
20
5.99545308970001
30
0
0
SPLINE
5
14B
100
AcDbEntity
8
SK3
62
256
6
ByLayer
370
18
48
0.05
60
0
100
AcDbSpline
70
4
71
3
72
88
73
84
40
0
40
0
40
0
40
0
40
0.0025450389719771
40
0.0025450389719771
40
0.0025450389719771
40
0.0091549956043988
40
0.0091549956043988
40
0.0091549956043988
40
0.0193887589097822
40
0.0193887589097822
40
0.0193887589097822
40
0.0326093059158816
40
0.0326093059158816
40
0.0326093059158816
40
0.0491550302302509
40
0.0491550302302509
40
0.0491550302302509
40
0.0692946007546163
40
0.0692946007546163
40
0.0927426142619996
40
0.0927426142619996
40
0.118214162572894
40
0.118214162572894
40
0.14651048887139
40
0.14651048887139
40
0.177962812334183
40
0.177962812334183
40
0.212012668767437
40
0.212012668767437
40
0.24688243153312
40
0.24688243153312
40
0.283750911024801
40
0.283750911024801
40
0.322976250107181
40
0.322976250107181
40
0.363792402825956
40
0.363792402825956
40
0.404131640437074
40
0.404131640437074
40
0.445418003054064
40
0.445418003054064
40
0.487995880373116
40
0.487995880373116
40
0.530977757064487
40
0.530977757064487
40
0.572239364521949
40
0.572239364521949
40
0.613289379825461
40
0.613289379825461
40
0.654419975830704
40
0.654419975830704
40
0.69472224403815
40
0.69472224403815
40
0.732254011075089
40
0.732254011075089
40
0.768439295322451
40
0.768439295322451
40
0.803485318816071
40
0.803485318816071
40
0.836564801113175
40
0.836564801113175
40
0.866137464474684
40
0.866137464474684
40
0.893381922126163
40
0.893381922126163
40
0.918396450974527
40
0.918396450974527
40
0.94052858559244
40
0.94052858559244
40
0.94052858559244
40
0.958815374425415
40
0.958815374425415
40
0.958815374425415
40
0.974059605165777
40
0.974059605165777
40
0.974059605165777
40
0.986245904579143
40
0.986245904579143
40
0.986245904579143
40
0.99497901660866
40
0.99497901660866
40
0.99497901660866
40
1
40
1
40
1
40
1
41
1
10
4.9281157271
20
5.99183489800001
30
0
41
1
10
4.93168820283332
20
5.98231224393335
30
0
41
1
10
4.93526067856666
20
5.97278958986668
30
0
41
1
10
4.93883315429999
20
5.96326693580001
30
0
41
1
10
4.94326663456668
20
5.93722632866668
30
0
41
1
10
4.94770011483333
20
5.91118572153334
30
0
41
1
10
4.9521335951
20
5.8851451144
30
0
41
1
10
4.95668512923334
20
5.84450207240001
30
0
41
1
10
4.96123666336667
20
5.80385903040001
30
0
41
1
10
4.9657881975
20
5.76321598840001
30
0
41
1
10
4.97025761873333
20
5.71057220673333
30
0
41
1
10
4.97472703996666
20
5.65792842506666
30
0
41
1
10
4.9791964612
20
5.6052846434
30
0
41
1
10
4.98371084216667
20
5.53931738483332
30
0
41
1
10
4.98822522313333
20
5.47335012626667
30
0
41
1
10
4.9927396041
20
5.40738286770001
30
0
41
1
10
4.99725089170001
20
5.32702579623333
30
0
41
1
10
5.0017621793
20
5.24666872476666
30
0
41
1
10
5.01152584963837
20
5.07275386392786
30
0
41
1
10
5.01517478729999
20
4.97911294496667
30
0
41
1
10
5.02446019421593
20
4.78383672718108
30
0
41
1
10
5.02825058963334
20
4.68211289166668
30
0
41
1
10
5.03735399306709
20
4.4674336905247
30
0
41
1
10
5.0414031129
20
4.35442460623334
30
0
41
1
10
5.05073604188755
20
4.11583402228372
30
0
41
1
10
5.05502702280001
20
3.99021384776667
30
0
41
1
10
5.06461101630421
20
3.7286235168347
30
0
41
1
10
5.06896992956667
20
3.59261946663334
30
0
41
1
10
5.07842333240013
20
3.31735882625261
30
0
41
1
10
5.08251328636667
20
3.17806824249999
30
0
41
1
10
5.09164046787117
20
2.8915266045931
30
0
41
1
10
5.09567532066667
20
2.74424392143334
30
0
41
1
10
5.10467980820607
20
2.44028414690972
30
0
41
1
10
5.10894648150001
20
2.28358609016666
30
0
41
1
10
5.11803548968713
20
1.96384607278182
30
0
41
1
10
5.12250758053334
20
1.80079408436667
30
0
41
1
10
5.13156129212179
20
1.47659984209484
30
0
41
1
10
5.13599693363334
20
1.31545349766667
30
0
41
1
10
5.14503773151035
20
0.989379072635472
30
0
41
1
10
5.14952103836667
20
0.824447622533341
30
0
41
1
10
5.1587188424086
20
0.489427867031964
30
0
41
1
10
5.1631610968
20
0.319332157366674
30
0
41
1
10
5.17231630602279
20
-0.0224670135782787
30
0
41
1
10
5.1766988963
20
-0.194179293466661
30
0
41
1
10
5.18550096583384
20
-0.530725770999467
30
0
41
1
10
5.18986424263333
20
-0.695561468633329
30
0
41
1
10
5.19851644262202
20
-1.0243889394938
30
0
41
1
10
5.20305332586666
20
-1.18837411526665
30
0
41
1
10
5.21191387638477
20
-1.51667228752712
30
0
41
1
10
5.2166383267
20
-1.68097437679999
30
0
41
1
10
5.22570516919064
20
-2.00627755086296
30
0
41
1
10
5.23042915683335
20
-2.16726797673333
30
0
41
1
10
5.2393238458609
20
-2.47818830831314
30
0
41
1
10
5.2437073009
20
-2.62811215629999
30
0
41
1
10
5.25222423085499
20
-2.92258387891467
30
0
41
1
10
5.2566582115
20
-3.06712295846665
30
0
41
1
10
5.2651372614959
20
-3.35165775623682
30
0
41
1
10
5.26985560876666
20
-3.49163293240001
30
0
41
1
10
5.27849625022795
20
-3.76374519443235
30
0
41
1
10
5.28344251539999
20
-3.8958489649
30
0
41
1
10
5.29209981528208
20
-4.1460755170891
30
0
41
1
10
5.2969814824
20
-4.2641569906
30
0
41
1
10
5.30559649368411
20
-4.49105130363508
30
0
41
1
10
5.3104938855
20
-4.5998192637
30
0
41
1
10
5.31915279170108
20
-4.80848185135837
30
0
41
1
10
5.32399879823333
20
-4.90833091826666
30
0
41
1
10
5.33247152208534
20
-5.0965521508826
30
0
41
1
10
5.33738611146667
20
-5.18486446916666
30
0
41
1
10
5.3418320884
20
-5.27319912739999
30
0
41
1
10
5.34615301033334
20
-5.34615062336667
30
0
41
1
10
5.35047393226667
20
-5.41910211933333
30
0
41
1
10
5.3547948542
20
-5.49205361529999
30
0
41
1
10
5.35923253200001
20
-5.55281216906666
30
0
41
1
10
5.3636702098
20
-5.61357072283333
30
0
41
1
10
5.3681078876
20
-5.67432927659999
30
0
41
1
10
5.37272908070001
20
-5.722809537
30
0
41
1
10
5.3773502738
20
-5.7712897974
30
0
41
1
10
5.3819714669
20
-5.8197700578
30
0
41
1
10
5.38664900263333
20
-5.8543552462
30
0
41
1
10
5.39132653836666
20
-5.8889404346
30
0
41
1
10
5.3960040741
20
-5.923525623
30
0
41
1
10
5.40042494493333
20
-5.94309786866667
30
0
41
1
10
5.40484581576667
20
-5.96267011433333
30
0
41
1
10
5.4092666866
20
-5.98224236
30
0
0
SPLINE
5
14C
100
AcDbEntity
8
SK3
62
256
6
ByLayer
370
18
48
0.05
60
0
100
AcDbSpline
70
4
71
3
72
54
73
50
40
0
40
0
40
0
40
0
40
0.0002407956069328
40
0.0002407956069328
40
0.0002407956069328
40
0.0042537276566284
40
0.0042537276566284
40
0.0042537276566284
40
0.0141948240190154
40
0.0141948240190154
40
0.0141948240190154
40
0.0295378163928572
40
0.0295378163928572
40
0.0295378163928572
40
0.0506219852410225
40
0.0506219852410225
40
0.0506219852410225
40
0.0778648569263215
40
0.0778648569263215
40
0.0778648569263215
40
0.110943369882333
40
0.110943369882333
40
0.14799823264063
40
0.14799823264063
40
0.19015239002615
40
0.19015239002615
40
0.237938489706657
40
0.237938489706657
40
0.290545182865856
40
0.290545182865856
40
0.345192555051157
40
0.345192555051157
40
0.403696983531931
40
0.403696983531931
40
0.466656744480176
40
0.466656744480176
40
0.53287187925693
40
0.53287187925693
40
0.598959241089714
40
0.598959241089714
40
0.667224627781072
40
0.667224627781072
40
0.738264240523556
40
0.738264240523556
40
0.810624698967729
40
0.810624698967729
40
0.905080362995566
40
0.905080362995566
40
1
40
1
40
1
40
1
41
1
10
5.4213377514
20
-5.9985014473
30
0
41
1
10
5.4216772683
20
-5.99895875863334
30
0
41
1
10
5.4220167852
20
-5.99941606996667
30
0
41
1
10
5.4223563021
20
-5.99987338129999
30
0
41
1
10
5.4268281591
20
-5.99150078499999
30
0
41
1
10
5.4313000161
20
-5.98312818869999
30
0
41
1
10
5.4357718731
20
-5.9747555924
30
0
41
1
10
5.44034634743334
20
-5.9516906706
30
0
41
1
10
5.44492082176667
20
-5.9286257488
30
0
41
1
10
5.4494952961
20
-5.905560827
30
0
41
1
10
5.45396951556666
20
-5.86954613463332
30
0
41
1
10
5.45844373503333
20
-5.83353144226668
30
0
41
1
10
5.46291795449999
20
-5.7975167499
30
0
41
1
10
5.46741958056667
20
-5.74784888929999
30
0
41
1
10
5.47192120663333
20
-5.69818102869999
30
0
41
1
10
5.4764228327
20
-5.6485131681
30
0
41
1
10
5.4809198677
20
-5.58423134373332
30
0
41
1
10
5.4854169027
20
-5.51994951936666
30
0
41
1
10
5.4899139377
20
-5.455667695
30
0
41
1
10
5.49438545930001
20
-5.37755330236666
30
0
41
1
10
5.49885698089999
20
-5.29943890973334
30
0
41
1
10
5.50833754324585
20
-5.13382003640206
30
0
41
1
10
5.51202250416667
20
-5.04624478423334
30
0
41
1
10
5.52131471714339
20
-4.85911827700715
30
0
41
1
10
5.5252592424
20
-4.75948446413334
30
0
41
1
10
5.53474282974459
20
-4.54695573711214
30
0
41
1
10
5.5388850461
20
-4.4339990153
30
0
41
1
10
5.54852906090444
20
-4.19673080842101
30
0
41
1
10
5.55266182800001
20
-4.07236449383333
30
0
41
1
10
5.56202631667779
20
-3.81884395220334
30
0
41
1
10
5.565888463
20
-3.68963988433333
30
0
41
1
10
5.5748266197678
20
-3.42214552975288
30
0
41
1
10
5.57883396576667
20
-3.2838194158
30
0
41
1
10
5.58779128605896
20
-2.9966537254091
30
0
41
1
10
5.5920757793
20
-2.84779326603332
30
0
41
1
10
5.60123401011801
20
-2.542386672253
30
0
41
1
10
5.60571570756667
20
-2.38582874613333
30
0
41
1
10
5.61488306653115
20
-2.07302130133088
30
0
41
1
10
5.61928434933333
20
-1.91676346296667
30
0
41
1
10
5.62841286951222
20
-1.59910328536498
30
0
41
1
10
5.63278673743333
20
-1.43769087443333
30
0
41
1
10
5.64198197881977
20
-1.10831408098102
30
0
41
1
10
5.6462570384
20
-0.940334648233332
30
0
41
1
10
5.65530461565464
20
-0.601263937259048
30
0
41
1
10
5.65964039519999
20
-0.430160954766663
30
0
41
1
10
5.66990062415224
20
-0.0357158122588288
30
0
41
1
10
5.67582488893334
20
0.187626376400019
30
0
41
1
10
5.68758758328454
20
0.635410830963693
30
0
41
1
10
5.69389713836666
20
0.85984053753333
30
0
41
1
10
5.6999997942
20
1.0842757745
30
0
0
SPLINE
5
14D
100
AcDbEntity
8
SK3
62
256
6
ByLayer
370
18
48
0.05
60
0
100
AcDbSpline
70
4
71
3
72
67
73
63
40
0
40
0
40
0
40
0
40
0.0039383488257714
40
0.0039383488257714
40
0.0039383488257714
40
0.0164089874588641
40
0.0164089874588641
40
0.0164089874588641
40
0.036118208541162
40
0.036118208541162
40
0.036118208541162
40
0.0628713071300688
40
0.0628713071300688
40
0.0628713071300688
40
0.0961663855154769
40
0.0961663855154769
40
0.135466450321364
40
0.135466450321364
40
0.180232386886869
40
0.180232386886869
40
0.229873965342908
40
0.229873965342908
40
0.283582781684873
40
0.283582781684873
40
0.340493434075106
40
0.340493434075106
40
0.399740379816723
40
0.399740379816723
40
0.460484250803947
40
0.460484250803947
40
0.521865048045256
40
0.521865048045256
40
0.582938786683791
40
0.582938786683791
40
0.642759879670895
40
0.642759879670895
40
0.700381590957988
40
0.700381590957988
40
0.754949041916624
40
0.754949041916624
40
0.805700354529481
40
0.805700354529481
40
0.851876189688665
40
0.851876189688665
40
0.892709185239926
40
0.892709185239926
40
0.927568558034934
40
0.927568558034934
40
0.927568558034934
40
0.956030730322593
40
0.956030730322593
40
0.956030730322593
40
0.977685179735353
40
0.977685179735353
40
0.977685179735353
40
0.992131654139322
40
0.992131654139322
40
0.992131654139322
40
0.99920898955072
40
0.99920898955072
40
0.99920898955072
40
1
40
1
40
1
40
1
41
1
10
3.7700495456
20
-5.39506131969999
30
0
41
1
10
3.7749248284
20
-5.3817160249
30
0
41
1
10
3.7798001112
20
-5.36837073009998
30
0
41
1
10
3.784675394
20
-5.35502543529999
30
0
41
1
10
3.79119462676666
20
-5.31051138963333
30
0
41
1
10
3.79771385953334
20
-5.26599734396667
30
0
41
1
10
3.8042330923
20
-5.2214832983
30
0
41
1
10
3.81075791136666
20
-5.15068061016667
30
0
41
1
10
3.81728273043333
20
-5.07987792203333
30
0
41
1
10
3.8238075495
20
-5.00907523389999
30
0
41
1
10
3.83033228
20
-4.91278194519999
30
0
41
1
10
3.8368570105
20
-4.8164886565
30
0
41
1
10
3.843381741
20
-4.7201953678
30
0
41
1
10
3.84990136853333
20
-4.60025759416668
30
0
41
1
10
3.85642099606666
20
-4.48031982053334
30
0
41
1
10
3.87063610884871
20
-4.21881270677405
30
0
41
1
10
3.87597739853333
20
-4.07712520809999
30
0
41
1
10
3.88992075390485
20
-3.77417062117206
30
0
41
1
10
3.8955378078
20
-3.61276631976666
30
0
41
1
10
3.9092900596622
20
-3.27246090083334
30
0
41
1
10
3.91510864869999
20
-3.09346642116667
30
0
41
1
10
3.92869307857203
20
-2.72086859087374
30
0
41
1
10
3.93468101336667
20
-2.52720050863333
30
0
41
1
10
3.94811737306269
20
-2.12835757994938
30
0
41
1
10
3.95424002586667
20
-1.92313808946666
30
0
41
1
10
3.96754287553299
20
-1.50430083056665
30
0
41
1
10
3.97377104210001
20
-1.29065280726667
30
0
41
1
10
3.98694881154555
20
-0.857976306647814
30
0
41
1
10
3.99328181136666
20
-0.638928998666657
30
0
41
1
10
4.00635407120394
20
-0.198547794684671
30
0
41
1
10
4.01281125836666
20
0.0227945251999984
30
0
41
1
10
4.02580607891183
20
0.464368563401408
30
0
41
1
10
4.03236661556667
20
0.684599607766671
30
0
41
1
10
4.04527452538203
20
1.12054699415344
30
0
41
1
10
4.05193324666667
20
1.3362540355
30
0
41
1
10
4.06473922958679
20
1.75974541437221
30
0
41
1
10
4.071495477
20
1.9675111099
30
0
41
1
10
4.08418922816399
20
2.37204399405874
30
0
41
1
10
4.0910467442
20
2.56878185456667
30
0
41
1
10
4.10362266896104
20
2.94852011291827
30
0
41
1
10
4.11059622076667
20
3.13147809956666
30
0
41
1
10
4.12304237126169
20
3.48092949781716
30
0
41
1
10
4.1301588967
20
3.64736281
30
0
41
1
10
4.14244999160828
20
3.96101386987834
30
0
41
1
10
4.14973921456667
20
4.10814587393334
30
0
41
1
10
4.16184150361231
20
4.38094424475139
30
0
41
1
10
4.1693102823
20
4.50648759963333
30
0
41
1
10
4.17583146649999
20
4.632076575
30
0
41
1
10
4.1823481839
20
4.73454928926667
30
0
41
1
10
4.18886490129999
20
4.83702200353333
30
0
41
1
10
4.19538161869999
20
4.9394947178
30
0
41
1
10
4.20189839180001
20
5.01734270673334
30
0
41
1
10
4.2084151649
20
5.09519069566666
30
0
41
1
10
4.214931938
20
5.1730386846
30
0
41
1
10
4.22145275503333
20
5.2247460274
30
0
41
1
10
4.22797357206667
20
5.2764533702
30
0
41
1
10
4.2344943891
20
5.328160713
30
0
41
1
10
4.24101722386667
20
5.35284553366667
30
0
41
1
10
4.24754005863333
20
5.37753035433335
30
0
41
1
10
4.2540628934
20
5.40221517500001
30
0
41
1
10
4.25675494086666
20
5.40126853400001
30
0
41
1
10
4.25944698833333
20
5.400321893
30
0
41
1
10
4.2621390358
20
5.399375252
30
0
0
SPLINE
5
14E
100
AcDbEntity
8
SK3
62
256
6
ByLayer
370
18
48
0.05
60
0
100
AcDbSpline
70
4
71
3
72
68
73
64
40
0
40
0
40
0
40
0
40
0.000312683441186
40
0.000312683441186
40
0.000312683441186
40
0.0085950556496777
40
0.0085950556496777
40
0.0085950556496777
40
0.0242017548691532
40
0.0242017548691532
40
0.0242017548691532
40
0.0469991583286255
40
0.0469991583286255
40
0.0469991583286255
40
0.0765696411262932
40
0.0765696411262932
40
0.0765696411262932
40
0.112469108130631
40
0.112469108130631
40
0.154239424458596
40
0.154239424458596
40
0.201230697658432
40
0.201230697658432
40
0.252675288559378
40
0.252675288559378
40
0.307810284362338
40
0.307810284362338
40
0.36586469920758
40
0.36586469920758
40
0.425924905280369
40
0.425924905280369
40
0.487066848649419
40
0.487066848649419
40
0.548392141391302
40
0.548392141391302
40
0.608999710886255
40
0.608999710886255
40
0.667940599097114
40
0.667940599097114
40
0.724345918793023
40
0.724345918793023
40
0.777382324785934
40
0.777382324785934
40
0.826216784975533
40
0.826216784975533
40
0.870083904410583
40
0.870083904410583
40
0.908401174671889
40
0.908401174671889
40
0.908401174671889
40
0.94061770254819
40
0.94061770254819
40
0.94061770254819
40
0.96618512274279
40
0.96618512274279
40
0.96618512274279
40
0.984662426158483
40
0.984662426158483
40
0.984662426158483
40
0.995913568843307
40
0.995913568843307
40
0.995913568843307
40
1
40
1
40
1
40
1
41
1
10
4.2704276269
20
5.3964606227
30
0
41
1
10
4.27149211486667
20
5.39608630243335
30
0
41
1
10
4.27255660283334
20
5.39571198216667
30
0
41
1
10
4.2736210908
20
5.3953376619
30
0
41
1
10
4.28013159693332
20
5.36616667329999
30
0
41
1
10
4.28664210306666
20
5.3369956847
30
0
41
1
10
4.2931526092
20
5.3078246961
30
0
41
1
10
4.2996528689
20
5.25188101713333
30
0
41
1
10
4.3061531286
20
5.19593733816667
30
0
41
1
10
4.3126533883
20
5.1399936592
30
0
41
1
10
4.31916404836667
20
5.0579824628
30
0
41
1
10
4.32567470843333
20
4.97597126639999
30
0
41
1
10
4.3321853685
20
4.89396007000001
30
0
41
1
10
4.33870570603334
20
4.78744815756667
30
0
41
1
10
4.34522604356666
20
4.68093624513334
30
0
41
1
10
4.3517463811
20
4.5744243327
30
0
41
1
10
4.35827109236667
20
4.44503796923334
30
0
41
1
10
4.36479580363334
20
4.31565160576667
30
0
41
1
10
4.37891225027379
20
4.03571957180647
30
0
41
1
10
4.38436789816667
20
3.88507377629999
30
0
41
1
10
4.39823069093121
20
3.56505904305666
30
0
41
1
10
4.40393064286666
20
3.3955730075
30
0
41
1
10
4.41758754518357
20
3.04060911978823
30
0
41
1
10
4.4234870068
20
2.85505219033332
30
0
41
1
10
4.43699144640856
20
2.47067450084106
30
0
41
1
10
4.44304764556667
20
2.27179938156668
30
0
41
1
10
4.4564351608951
20
1.86355104513822
30
0
41
1
10
4.46262209973333
20
1.65414030860001
30
0
41
1
10
4.47590094164512
20
1.22810575925416
30
0
41
1
10
4.48219397393333
20
1.0114570145
30
0
41
1
10
4.4953566538661
20
0.57427168376077
30
0
41
1
10
4.50175129446666
20
0.353720742966672
30
0
41
1
10
4.51480555786266
20
-0.0880351834154141
30
0
41
1
10
4.52129903913333
20
-0.309245110666666
30
0
41
1
10
4.53425317322655
20
-0.74907475156688
30
0
41
1
10
4.54084635933334
20
-0.967690535599999
30
0
41
1
10
4.55369929819994
20
-1.39891477384808
30
0
41
1
10
4.56039799273334
20
-1.61151000463333
30
0
41
1
10
4.5731531747404
20
-2.02756556951981
30
0
41
1
10
4.5799506315
20
-2.23100287866667
30
0
41
1
10
4.59259621992634
20
-2.62574385291523
30
0
41
1
10
4.59949776996667
20
-2.81701318196666
30
0
41
1
10
4.61201132521581
20
-3.18442258077404
30
0
41
1
10
4.6190330417
20
-3.36051354123333
30
0
41
1
10
4.63139125274488
20
-3.69481833467145
30
0
41
1
10
4.63856621503334
20
-3.85296216206666
30
0
41
1
10
4.65076538005422
20
-4.14929080969803
30
0
41
1
10
4.6581105647
20
-4.28737649316668
30
0
41
1
10
4.6646269982
20
-4.4254987849
30
0
41
1
10
4.67114773823333
20
-4.54157588823334
30
0
41
1
10
4.67766847826666
20
-4.65765299156666
30
0
41
1
10
4.6841892183
20
-4.7737300949
30
0
41
1
10
4.6907135977
20
-4.8657645366
30
0
41
1
10
4.6972379771
20
-4.9577989783
30
0
41
1
10
4.7037623565
20
-5.04983342
30
0
41
1
10
4.71028441123333
20
-5.11619291823334
30
0
41
1
10
4.71680646596666
20
-5.18255241646666
30
0
41
1
10
4.7233285207
20
-5.2489119147
30
0
41
1
10
4.72984697493333
20
-5.28898736083333
30
0
41
1
10
4.73636542916666
20
-5.32906280696666
30
0
41
1
10
4.7428838834
20
-5.36913825309999
30
0
41
1
10
4.74935296446666
20
-5.38239032856666
30
0
41
1
10
4.75582204553333
20
-5.39564240403332
30
0
41
1
10
4.7622911266
20
-5.40889447949999
30
0
0
SPLINE
5
14F
100
AcDbEntity
8
SK3
62
256
6
ByLayer
370
18
48
0.05
60
0
100
AcDbSpline
70
4
71
3
72
68
73
64
40
0
40
0
40
0
40
0
40
0.0025584707063174
40
0.0025584707063174
40
0.0025584707063174
40
0.0141108027453708
40
0.0141108027453708
40
0.0141108027453708
40
0.0329197560606593
40
0.0329197560606593
40
0.0329197560606593
40
0.0586555920043556
40
0.0586555920043556
40
0.0586555920043556
40
0.0909672912981291
40
0.0909672912981291
40
0.0909672912981291
40
0.129480937728471
40
0.129480937728471
40
0.173595627574545
40
0.173595627574545
40
0.222589940218675
40
0.222589940218675
40
0.275741423044272
40
0.275741423044272
40
0.332288133960497
40
0.332288133960497
40
0.391340731618612
40
0.391340731618612
40
0.452012989305938
40
0.452012989305938
40
0.513419776590528
40
0.513419776590528
40
0.574631526272173
40
0.574631526272173
40
0.634663843562423
40
0.634663843562423
40
0.692661914015331
40
0.692661914015331
40
0.747777786679801
40
0.747777786679801
40
0.799146829085151
40
0.799146829085151
40
0.845961588681645
40
0.845961588681645
40
0.887586999912208
40
0.887586999912208
40
0.923398736172838
40
0.923398736172838
40
0.923398736172838
40
0.952783326173565
40
0.952783326173565
40
0.952783326173565
40
0.975320079864333
40
0.975320079864333
40
0.975320079864333
40
0.990773506705064
40
0.990773506705064
40
0.990773506705064
40
0.998960630044173
40
0.998960630044173
40
0.998960630044173
40
1
40
1
40
1
40
1
41
1
10
4.7701861355
20
-5.39281833129999
30
0
41
1
10
4.77412890686666
20
-5.38447717449999
30
0
41
1
10
4.77807167823333
20
-5.37613601769999
30
0
41
1
10
4.7820144496
20
-5.36779486089999
30
0
41
1
10
4.78854115276666
20
-5.32665059163331
30
0
41
1
10
4.79506785593333
20
-5.28550632236666
30
0
41
1
10
4.8015945591
20
-5.24436205309999
30
0
41
1
10
4.80811686773334
20
-5.17684965119999
30
0
41
1
10
4.81463917636667
20
-5.1093372493
30
0
41
1
10
4.821161485
20
-5.04182484739999
30
0
41
1
10
4.82767843480001
20
-4.94924827456667
30
0
41
1
10
4.8341953846
20
-4.85667170173333
30
0
41
1
10
4.8407123344
20
-4.7640951289
30
0
41
1
10
4.84722296383334
20
-4.64775835813333
30
0
41
1
10
4.85373359326666
20
-4.53142158736666
30
0
41
1
10
4.8602442227
20
-4.4150848166
30
0
41
1
10
4.8667536996
20
-4.2763538799
30
0
41
1
10
4.8732631765
20
-4.1376229432
30
0
41
1
10
4.88722880417043
20
-3.83998541593229
30
0
41
1
10
4.8928028592
20
-3.68099609810001
30
0
41
1
10
4.9065537148505
20
-3.34551860715401
30
0
41
1
10
4.91235317876667
20
-3.16893312443334
30
0
41
1
10
4.92594141486671
20
-2.80083719034278
30
0
41
1
10
4.9319045973
20
-2.60925948749998
30
0
41
1
10
4.94535469653058
20
-2.21390695062814
30
0
41
1
10
4.95145041026667
20
-2.01008484716665
30
0
41
1
10
4.96476800837682
20
-1.59343643676114
30
0
41
1
10
4.9709947948
20
-1.38057828279999
30
0
41
1
10
4.98420341404887
20
-0.949042105424908
30
0
41
1
10
4.99054634036666
20
-0.730344471599992
30
0
41
1
10
5.00366183441055
20
-0.29031219634841
30
0
41
1
10
5.01011339949999
20
-0.0689679407999932
30
0
41
1
10
5.0231414460299
20
0.373013236128472
30
0
41
1
10
5.0296927038
20
0.59365091043334
30
0
41
1
10
5.0426218520336
20
1.03067638846281
30
0
41
1
10
5.04925905123333
20
1.24705645783332
30
0
41
1
10
5.0620770217929
20
1.67249128379541
30
0
41
1
10
5.0688111066
20
1.88152917453334
30
0
41
1
10
5.08151989221719
20
2.28922989520346
30
0
41
1
10
5.08836522239999
20
2.48786516263334
30
0
41
1
10
5.10095987094162
20
2.87165245765338
30
0
41
1
10
5.10793423233334
20
3.05676346013334
30
0
41
1
10
5.12040583837153
20
3.41060309705283
30
0
41
1
10
5.12750876773334
20
3.57927369843334
30
0
41
1
10
5.1398349925156
20
3.8979583824847
30
0
41
1
10
5.147073137
20
4.0478920802
30
0
41
1
10
5.15920216529459
20
4.32687365538587
30
0
41
1
10
5.16661443036666
20
4.455807323
30
0
41
1
10
5.1731251701
20
4.5847833421
30
0
41
1
10
5.17962742416667
20
4.6905470504
30
0
41
1
10
5.18612967823333
20
4.7963107587
30
0
41
1
10
5.19263193230001
20
4.90207446700001
30
0
41
1
10
5.19914382296666
20
4.98308265806666
30
0
41
1
10
5.20565571363333
20
5.06409084913334
30
0
41
1
10
5.2121676043
20
5.14509904020001
30
0
41
1
10
5.2186868099
20
5.2004428047
30
0
41
1
10
5.2252060155
20
5.2557865692
30
0
41
1
10
5.2317252211
20
5.31113033370001
30
0
41
1
10
5.23824639733333
20
5.33992460756667
30
0
41
1
10
5.24476757356667
20
5.36871888143334
30
0
41
1
10
5.2512887498
20
5.3975131553
30
0
41
1
10
5.2549512421
20
5.39830945593334
30
0
41
1
10
5.25861373439999
20
5.39910575656667
30
0
41
1
10
5.2622762267
20
5.39990205720001
30
0
0
SPLINE
5
150
100
AcDbEntity
8
SK3
62
256
6
ByLayer
370
18
48
0.05
60
0
100
AcDbSpline
70
4
71
3
72
70
73
66
40
0
40
0
40
0
40
0
40
0.0001236718470116
40
0.0001236718470116
40
0.0001236718470116
40
0.007510636238197
40
0.007510636238197
40
0.007510636238197
40
0.0221360865985876
40
0.0221360865985876
40
0.0221360865985876
40
0.0438691587253037
40
0.0438691587253037
40
0.0438691587253037
40
0.0725096483427972
40
0.0725096483427972
40
0.0725096483427972
40
0.10760693486762
40
0.10760693486762
40
0.148549615373417
40
0.148549615373417
40
0.19473043728403
40
0.19473043728403
40
0.245536933828047
40
0.245536933828047
40
0.300213757856406
40
0.300213757856406
40
0.357871300542636
40
0.357871300542636
40
0.417620024928277
40
0.417620024928277
40
0.478571430699337
40
0.478571430699337
40
0.539857901370643
40
0.539857901370643
40
0.600569609717238
40
0.600569609717238
40
0.659778554256234
40
0.659778554256234
40
0.716556803338136
40
0.716556803338136
40
0.770022546718823
40
0.770022546718823
40
0.819434800538584
40
0.819434800538584
40
0.864079305091526
40
0.864079305091526
40
0.903242297544724
40
0.903242297544724
40
0.936246010599897
40
0.936246010599897
40
0.936246010599897
40
0.962677646363819
40
0.962677646363819
40
0.962677646363819
40
0.982216960748999
40
0.982216960748999
40
0.982216960748999
40
0.994561428832693
40
0.994561428832693
40
0.994561428832693
40
0.999571790793539
40
0.999571790793539
40
0.999571790793539
40
1
40
1
40
1
40
1
41
1
10
5.2695345989
20
5.4014801756
30
0
41
1
10
5.26997105166667
20
5.40157506936667
30
0
41
1
10
5.27040750443333
20
5.40166996313333
30
0
41
1
10
5.2708439572
20
5.4017648569
30
0
41
1
10
5.27736108276667
20
5.37589457166666
30
0
41
1
10
5.28387820833334
20
5.35002428643333
30
0
41
1
10
5.2903953339
20
5.3241540012
30
0
41
1
10
5.2969140289
20
5.27173694223335
30
0
41
1
10
5.3034327239
20
5.21931988326668
30
0
41
1
10
5.30995141889999
20
5.16690282430001
30
0
41
1
10
5.31647414653333
20
5.08868380096668
30
0
41
1
10
5.32299687416666
20
5.01046477763335
30
0
41
1
10
5.32951960179999
20
4.9322457543
30
0
41
1
10
5.33604731929999
20
4.82901479223334
30
0
41
1
10
5.3425750368
20
4.72578383016666
30
0
41
1
10
5.3491027543
20
4.6225528681
30
0
41
1
10
5.3556240955
20
4.4959644141
30
0
41
1
10
5.3621454367
20
4.3693759601
30
0
41
1
10
5.37627423749754
20
4.09511595821041
30
0
41
1
10
5.38169931283333
20
3.94734006403333
30
0
41
1
10
5.39556552865906
20
3.63299308412354
30
0
41
1
10
5.4012483675
20
3.46630046426667
30
0
41
1
10
5.4149338653996
20
3.11629139189388
30
0
41
1
10
5.4208075205
20
2.9328918977
30
0
41
1
10
5.43434706430369
20
2.5521721412655
30
0
41
1
10
5.44037619206667
20
2.35479376596668
30
0
41
1
10
5.45377912187494
20
1.94931174876128
30
0
41
1
10
5.45994103686666
20
1.74116804730001
30
0
41
1
10
5.47321873138627
20
1.31735499155339
30
0
41
1
10
5.4794881381
20
1.10165908770001
30
0
41
1
10
5.4926457450524
20
0.665940693530786
30
0
41
1
10
5.49900607533333
20
0.445902216633343
30
0
41
1
10
5.51204650664968
20
0.0046241655485915
30
0
41
1
10
5.51852368556667
20
-0.21662144696667
30
0
41
1
10
5.53147792215569
20
-0.657035979031392
30
0
41
1
10
5.53806622116667
20
-0.876201605733328
30
0
41
1
10
5.55093980032219
20
-1.30911211076538
30
0
41
1
10
5.5576284282
20
-1.52284487666667
30
0
41
1
10
5.57040542204518
20
-1.94154588240694
30
0
41
1
10
5.5771956226
20
-2.14649241970001
30
0
41
1
10
5.58985991450871
20
-2.54444489420034
30
0
41
1
10
5.59675594120001
20
-2.73741774733334
30
0
41
1
10
5.60929961893473
20
-3.10875707302057
30
0
41
1
10
5.6163105726
20
-3.28707649753333
30
0
41
1
10
5.62871734775987
20
-3.62654245281608
30
0
41
1
10
5.63586917656666
20
-3.78762300953333
30
0
41
1
10
5.64810936107843
20
-4.09005208494716
30
0
41
1
10
5.6554426945
20
-4.23130636799999
30
0
41
1
10
5.66746937696855
20
-4.49166387650118
30
0
41
1
10
5.67502252333333
20
-4.6106284347
30
0
41
1
10
5.681549154
20
-4.7296448469
30
0
41
1
10
5.68807012853333
20
-4.82488157066666
30
0
41
1
10
5.69459110306666
20
-4.92011829443334
30
0
41
1
10
5.7011120776
20
-5.0153550182
30
0
41
1
10
5.7076291302
20
-5.08562105136666
30
0
41
1
10
5.7141461828
20
-5.15588708453333
30
0
41
1
10
5.72066323539999
20
-5.22615311769999
30
0
41
1
10
5.72717810023333
20
-5.27025745816667
30
0
41
1
10
5.73369296506667
20
-5.31436179863334
30
0
41
1
10
5.7402078299
20
-5.3584661391
30
0
41
1
10
5.746723958
20
-5.3753474614
30
0
41
1
10
5.75324008610001
20
-5.39222878369999
30
0
41
1
10
5.7597562142
20
-5.409110106
30
0
41
1
10
5.7605806198
20
-5.407801656
30
0
41
1
10
5.7614050254
20
-5.40649320599999
30
0
41
1
10
5.762229431
20
-5.405184756
30
0
0
SPLINE
5
151
100
AcDbEntity
8
SK3
62
256
6
ByLayer
370
18
48
0.05
60
0
100
AcDbSpline
70
4
71
3
72
68
73
64
40
0
40
0
40
0
40
0
40
0.0015869624020965
40
0.0015869624020965
40
0.0015869624020965
40
0.0120479901545422
40
0.0120479901545422
40
0.0120479901545422
40
0.0297611142330944
40
0.0297611142330944
40
0.0297611142330944
40
0.0545932323384966
40
0.0545932323384966
40
0.0545932323384966
40
0.0861178693711975
40
0.0861178693711975
40
0.0861178693711975
40
0.123820494378893
40
0.123820494378893
40
0.167183977399237
40
0.167183977399237
40
0.215614796031695
40
0.215614796031695
40
0.268287072979255
40
0.268287072979255
40
0.324398984409114
40
0.324398984409114
40
0.383151404803645
40
0.383151404803645
40
0.44370499477101
40
0.44370499477101
40
0.505088844807531
40
0.505088844807531
40
0.566374977536057
40
0.566374977536057
40
0.626640196542985
40
0.626640196542985
40
0.68496669815366
40
0.68496669815366
40
0.740503705884494
40
0.740503705884494
40
0.792446026104976
40
0.792446026104976
40
0.839989562996529
40
0.839989562996529
40
0.882346579145185
40
0.882346579145185
40
0.918925610579037
40
0.918925610579037
40
0.918925610579037
40
0.949254452243789
40
0.949254452243789
40
0.949254452243789
40
0.972864202156562
40
0.972864202156562
40
0.972864202156562
40
0.989305830601526
40
0.989305830601526
40
0.989305830601526
40
0.998396593284776
40
0.998396593284776
40
0.998396593284776
40
1
40
1
40
1
40
1
41
1
10
5.77015964869999
20
-5.39259836219999
30
0
41
1
10
5.77320961576667
20
-5.38775762669999
30
0
41
1
10
5.77625958283333
20
-5.3829168912
30
0
41
1
10
5.7793095499
20
-5.3780761557
30
0
41
1
10
5.78582559066667
20
-5.3409283184
30
0
41
1
10
5.79234163143334
20
-5.30378048109999
30
0
41
1
10
5.79885767219999
20
-5.26663264379999
30
0
41
1
10
5.80536858383333
20
-5.20310455010001
30
0
41
1
10
5.81187949546666
20
-5.13957645639999
30
0
41
1
10
5.81839040709999
20
-5.07604836269999
30
0
41
1
10
5.82489911603334
20
-4.986758396
30
0
41
1
10
5.83140782496666
20
-4.89746842929999
30
0
41
1
10
5.83791653390001
20
-4.8081784626
30
0
41
1
10
5.8444311518
20
-4.69471000509999
30
0
41
1
10
5.8509457697
20
-4.5812415476
30
0
41
1
10
5.8574603876
20
-4.4677730901
30
0
41
1
10
5.86398050153333
20
-4.33200082823332
30
0
41
1
10
5.87050061546667
20
-4.19622856636666
30
0
41
1
10
5.88451980538692
20
-3.90429852580721
30
0
41
1
10
5.8900709114
20
-3.74805328803332
30
0
41
1
10
5.9038835973248
20
-3.41739699922309
30
0
41
1
10
5.90964572033333
20
-3.24288183426666
30
0
41
1
10
5.92326687022057
20
-2.87863090114115
30
0
41
1
10
5.92920626016667
20
-2.68882344403333
30
0
41
1
10
5.94266757269394
20
-2.29685646878879
30
0
41
1
10
5.94875694273333
20
-2.09464777289999
30
0
41
1
10
5.96209643398637
20
-1.68074396193022
30
0
41
1
10
5.96831525686667
20
-1.46901558976667
30
0
41
1
10
5.98155706221617
20
-1.03908723519645
30
0
41
1
10
5.987890179
20
-0.820865961533343
30
0
41
1
10
6.00103364718574
20
-0.38144319776751
30
0
41
1
10
6.0074641818
20
-0.16023029996667
30
0
41
1
10
6.02050081199047
20
0.281837827263459
30
0
41
1
10
6.02702529603333
20
0.502695482833317
30
0
41
1
10
6.03995431154857
20
0.940732045952345
30
0
41
1
10
6.0465711022
20
1.1579046394
30
0
41
1
10
6.05938856724866
20
1.58526948457326
30
0
41
1
10
6.06610539893334
20
1.79544607743334
30
0
41
1
10
6.07881483126793
20
2.2057597479716
30
0
41
1
10
6.08564686739999
20
2.40587042463333
30
0
41
1
10
6.09825621375568
20
2.79315887481728
30
0
41
1
10
6.10519773660001
20
2.98029803346667
30
0
41
1
10
6.11768111576299
20
3.33875564981231
30
0
41
1
10
6.12474688143333
20
3.51001974910001
30
0
41
1
10
6.13706755790941
20
3.83390265237053
30
0
41
1
10
6.1442859594
20
3.98644437
30
0
41
1
10
6.15642103170277
20
4.2707725149445
30
0
41
1
10
6.16382740983333
20
4.40244827683334
30
0
41
1
10
6.1703423003
20
4.5341651096
30
0
41
1
10
6.17686175053333
20
4.64331471456666
30
0
41
1
10
6.18338120076667
20
4.75246431953333
30
0
41
1
10
6.189900651
20
4.86161392450001
30
0
41
1
10
6.19642480236667
20
4.94648341836667
30
0
41
1
10
6.20294895373333
20
5.03135291223334
30
0
41
1
10
6.2094731051
20
5.11622240610001
30
0
41
1
10
6.21600029166667
20
5.17513870840001
30
0
41
1
10
6.22252747823334
20
5.2340550107
30
0
41
1
10
6.22905466480001
20
5.29297131300001
30
0
41
1
10
6.2355744135
20
5.32509108980001
30
0
41
1
10
6.2420941622
20
5.3572108666
30
0
41
1
10
6.2486139109
20
5.3893306434
30
0
41
1
10
6.25311869459999
20
5.39295333123333
30
0
41
1
10
6.2576234783
20
5.39657601906667
30
0
41
1
10
6.262128262
20
5.4001987069
30
0
0
SPLINE
5
152
100
AcDbEntity
8
SK3
62
256
6
ByLayer
370
18
48
0.05
60
0
100
AcDbSpline
70
4
71
3
72
39
73
35
40
0
40
0
40
0
40
0
40
0.0003893257094967
40
0.0003893257094967
40
0.0003893257094967
40
0.0098145935881268
40
0.0098145935881268
40
0.0297201738776748
40
0.0297201738776748
40
0.0598020848146896
40
0.0598020848146896
40
0.0994582771499836
40
0.0994582771499836
40
0.148768147766899
40
0.148768147766899
40
0.206772780340662
40
0.206772780340662
40
0.27245222335977
40
0.27245222335977
40
0.347472655678255
40
0.347472655678255
40
0.429258678641606
40
0.429258678641606
40
0.516198778410393
40
0.516198778410393
40
0.608404477433456
40
0.608404477433456
40
0.704193090521393
40
0.704193090521393
40
0.801811029725641
40
0.801811029725641
40
0.90103401618424
40
0.90103401618424
40
1
40
1
40
1
40
1
41
1
10
3.7
20
-5.5151430887
30
0
41
1
10
3.7
20
-5.51599849423333
30
0
41
1
10
3.7
20
-5.51685389976667
30
0
41
1
10
3.7
20
-5.5177093053
30
0
41
1
10
3.7
20
-5.49700061306667
30
0
41
1
10
3.7
20
-5.47629192083333
30
0
41
1
10
3.7
20
-5.41184775696667
30
0
41
1
10
3.7
20
-5.36811228533333
30
0
41
1
10
3.7
20
-5.25828245506666
30
0
41
1
10
3.7
20
-5.19218809643333
30
0
41
1
10
3.7
20
-5.03896328243333
30
0
41
1
10
3.7
20
-4.95183282706665
30
0
41
1
10
3.7
20
-4.75636137303333
30
0
41
1
10
3.7
20
-4.64802037436668
30
0
41
1
10
3.7
20
-4.41223471316667
30
0
41
1
10
3.7
20
-4.28479005063333
30
0
41
1
10
3.7
20
-4.01303804436667
30
0
41
1
10
3.7
20
-3.86873070063332
30
0
41
1
10
3.7
20
-3.55959249329999
30
0
41
1
10
3.7
20
-3.39476162969999
30
0
41
1
10
3.7
20
-3.0502349102
30
0
41
1
10
3.7
20
-2.87053905430001
30
0
41
1
10
3.7
20
-2.49982308183333
30
0
41
1
10
3.7
20
-2.30880296526668
30
0
41
1
10
3.7
20
-1.91519344033334
30
0
41
1
10
3.7
20
-1.71260403196668
30
0
41
1
10
3.7
20
-1.29955302893332
30
0
41
1
10
3.7
20
-1.08909143426666
30
0
41
1
10
3.7
20
-0.664148947866664
30
0
41
1
10
3.7
20
-0.449668056133333
30
0
41
1
10
3.7
20
-0.0171797490666705
30
0
41
1
10
3.69999998006666
20
0.200827666266676
30
0
41
1
10
3.69999996015915
20
0.636277824533337
30
0
41
1
10
3.6999999501
20
0.853720567466667
30
0
41
1
10
3.6999999401
20
1.0711633104
30
0
0
SPLINE
5
153
100
AcDbEntity
8
SK3
62
256
6
ByLayer
370
18
48
0.05
60
0
100
AcDbSpline
70
4
71
3
72
42
73
38
40
0
40
0
40
0
40
0
40
0.0154014592427473
40
0.0154014592427473
40
0.0365571629783985
40
0.0365571629783985
40
0.0633660710871665
40
0.0633660710871665
40
0.0957001436351666
40
0.0957001436351666
40
0.133404952403395
40
0.133404952403395
40
0.176300418402688
40
0.176300418402688
40
0.224181671961713
40
0.224181671961713
40
0.276820031152858
40
0.276820031152858
40
0.333964094053644
40
0.333964094053644
40
0.395340939354299
40
0.395340939354299
40
0.460657429925116
40
0.460657429925116
40
0.529601612785164
40
0.529601612785164
40
0.601844209016905
40
0.601844209016905
40
0.67704018643098
40
0.67704018643098
40
0.754830407353754
40
0.754830407353754
40
0.834843344054189
40
0.834843344054189
40
0.916696852969586
40
0.916696852969586
40
1
40
1
40
1
40
1
41
1
10
3.7
20
5.935200498
30
0
41
1
10
3.7
20
5.91022940783334
30
0
41
1
10
3.7
20
5.88525831766667
30
0
41
1
10
3.7
20
5.82598651760001
30
0
41
1
10
3.7
20
5.79168580770001
30
0
41
1
10
3.7
20
5.71391858913334
30
0
41
1
10
3.7
20
5.67045208046666
30
0
41
1
10
3.7
20
5.57456086136668
30
0
41
1
10
3.7
20
5.52213615093335
30
0
41
1
10
3.7
20
5.40857890983334
30
0
41
1
10
3.7
20
5.34744637916667
30
0
41
1
10
3.7
20
5.2167654679
30
0
41
1
10
3.7
20
5.14721708730001
30
0
41
1
10
3.7
20
5.00003664073334
30
0
41
1
10
3.7
20
4.92240457476667
30
0
41
1
10
3.7
20
4.75942752993335
30
0
41
1
10
3.7
20
4.67408255106666
30
0
41
1
10
3.7
20
4.49608728986668
30
0
41
1
10
3.7
20
4.40343700753334
30
0
41
1
10
3.7
20
4.2112736392
30
0
41
1
10
3.7
20
4.1117605532
30
0
41
1
10
3.7
20
3.90634685416666
30
0
41
1
10
3.7
20
3.80044624113333
30
0
41
1
10
3.7
20
3.58276327166668
30
0
41
1
10
3.7
20
3.47098091523334
30
0
41
1
10
3.7
20
3.24206833393333
30
0
41
1
10
3.7
20
3.12493810906666
30
0
41
1
10
3.7
20
2.88588920736667
30
0
41
1
10
3.7
20
2.76397053053333
30
0
41
1
10
3.7
20
2.51592701123333
30
0
41
1
10
3.7
20
2.38980216876666
30
0
41
1
10
3.7
20
2.13394869309999
30
0
41
1
10
3.7
20
2.00422005989999
30
0
41
1
10
3.7
20
1.7417785896
30
0
41
1
10
3.7
20
1.6090657525
30
0
41
1
10
3.7
20
1.34128971373333
30
0
41
1
10
3.69999996006667
20
1.20622651206666
30
0
41
1
10
3.6999999401
20
1.0711633104
30
0
0
SPLINE
5
154
100
AcDbEntity
8
SK3
62
256
6
ByLayer
370
18
48
0.05
60
0
100
AcDbSpline
70
4
71
3
72
11
73
7
40
0
40
0
40
0
40
0
40
0.504117827961362
40
0.504117827961362
40
0.504117827961362
40
1
40
1
40
1
40
1
41
1
10
24.3780762113
20
1.3679991159
30
0
41
1
10
24.4781070953667
20
1.44546610513335
30
0
41
1
10
24.5781379794333
20
1.52293309436668
30
0
41
1
10
24.6781688635
20
1.60040008360001
30
0
41
1
10
24.7781379794333
20
1.67452662913334
30
0
41
1
10
24.8781070953667
20
1.74865317466667
30
0
41
1
10
24.9780762113
20
1.8227797202
30
0
0
SPLINE
5
155
100
AcDbEntity
8
SK3
62
256
6
ByLayer
370
18
48
0.05
60
0
100
AcDbSpline
70
4
71
3
72
11
73
7
40
0
40
0
40
0
40
0
40
0.497446986317606
40
0.497446986317606
40
0.497446986317606
40
1
40
1
40
1
40
1
41
1
10
24.3780762113
20
-1.48294186759999
30
0
41
1
10
24.4781070953667
20
-1.57702113686665
30
0
41
1
10
24.5781379794333
20
-1.67110040613332
30
0
41
1
10
24.6781688635
20
-1.76517967539999
30
0
41
1
10
24.7781379794333
20
-1.86136889063333
30
0
41
1
10
24.8781070953667
20
-1.95755810586665
30
0
41
1
10
24.9780762113
20
-2.05374732109999
30
0
0
SPLINE
5
156
100
AcDbEntity
8
SK3
62
256
6
ByLayer
370
18
48
0.05
60
0
100
AcDbSpline
70
4
71
3
72
16
73
12
40
0
40
0
40
0
40
0
40
0.470729872502988
40
0.470729872502988
40
0.470729872502988
40
0.822617985760014
40
0.822617985760014
40
0.987786159805208
40
0.987786159805208
40
0.987786159805208
40
1
40
1
40
1
40
1
41
1
10
24.3780762113
20
-1.5610987227
30
0
41
1
10
24.3860078697
20
-1.58319929536667
30
0
41
1
10
24.3939395281
20
-1.60529986803333
30
0
41
1
10
24.4018711865
20
-1.6274004407
30
0
41
1
10
24.4079603079333
20
-1.64386317483333
30
0
41
1
10
24.4140494293667
20
-1.66032590896667
30
0
41
1
10
24.4229966441279
20
-1.68451587125619
30
0
41
1
10
24.4259622285333
20
-1.6922029153
30
0
41
1
10
24.4288740674
20
-1.6999100514
30
0
41
1
10
24.4286565324333
20
-1.69934096493333
30
0
41
1
10
24.4284389974667
20
-1.69877187846667
30
0
41
1
10
24.4282214625
20
-1.698202792
30
0
0
SPLINE
5
157
100
AcDbEntity
8
SK3
62
256
6
ByLayer
370
18
48
0.05
60
0
100
AcDbSpline
70
4
71
3
72
10
73
6
40
0
40
0
40
0
40
0
40
0.499911332333293
40
0.499911332333293
40
1
40
1
40
1
40
1
41
1
10
1.8104358943
20
-5.3723540094
30
0
41
1
10
1.86871149703334
20
-5.47280221016666
30
0
41
1
10
1.92698709976667
20
-5.57325041093333
30
0
41
1
10
2.04355897754615
20
-5.77418244481588
30
0
41
1
10
2.1018120739
20
-5.87469132209999
30
0
41
1
10
2.1600867596
20
-5.9751876773
30
0
0
SPLINE
5
158
100
AcDbEntity
8
SK3
62
256
6
ByLayer
370
18
48
0.05
60
0
100
AcDbSpline
70
4
71
3
72
10
73
6
40
0
40
0
40
0
40
0
40
0.499911985320825
40
0.499911985320825
40
1
40
1
40
1
40
1
41
1
10
2.6863850497
20
5.3725279903
30
0
41
1
10
2.6281081293
20
5.47297865446667
30
0
41
1
10
2.5698312089
20
5.57342931863333
30
0
41
1
10
2.45325684758998
20
5.77436601772489
30
0
41
1
10
2.39500229363334
20
5.8748769276
30
0
41
1
10
2.33672629619999
20
5.9753754
30
0
0
SPLINE
5
159
100
AcDbEntity
8
SK3
62
256
6
ByLayer
370
18
48
0.05
60
0
100
AcDbSpline
70
4
71
3
72
10
73
6
40
0
40
0
40
0
40
0
40
0.500088014617156
40
0.500088014617156
40
1
40
1
40
1
40
1
41
1
10
2.33672629619999
20
-5.97537539999999
30
0
41
1
10
2.39500229363334
20
-5.87487692763332
30
0
41
1
10
2.45327829106667
20
-5.77437845526666
30
0
41
1
10
2.5698097729858
20
-5.57341688564455
30
0
41
1
10
2.6281081293
20
-5.47297865456666
30
0
41
1
10
2.6863850497
20
-5.3725279904
30
0
0
SPLINE
5
15A
100
AcDbEntity
8
SK3
62
256
6
ByLayer
370
18
48
0.05
60
0
100
AcDbSpline
70
4
71
3
72
10
73
6
40
0
40
0
40
0
40
0
40
0.50008866772876
40
0.50008866772876
40
1
40
1
40
1
40
1
41
1
10
2.1600867596
20
5.9751876772
30
0
41
1
10
2.10181207390001
20
5.87469132199999
30
0
41
1
10
2.0435373882
20
5.7741949668
30
0
41
1
10
1.92700868147153
20
5.5732378932146
30
0
41
1
10
1.86871149703334
20
5.47280221013334
30
0
41
1
10
1.8104358943
20
5.3723540094
30
0
0
SPLINE
5
15B
100
AcDbEntity
8
SK3
62
256
6
ByLayer
370
18
48
0.05
60
0
100
AcDbSpline
70
4
71
3
72
10
73
6
40
0
40
0
40
0
40
0
40
0.483831314179822
40
0.483831314179822
40
1
40
1
40
1
40
1
41
1
10
5.71073155749999
20
5.9855120175
30
0
41
1
10
5.65648836816667
20
5.89167705026667
30
0
41
1
10
5.60224517883334
20
5.79784208303333
30
0
41
1
10
5.49013339990624
20
5.60390059044433
30
0
41
1
10
5.43225545316667
20
5.50379947446667
30
0
41
1
10
5.37438218500001
20
5.4036956538
30
0
0
SPLINE
5
15C
100
AcDbEntity
8
SK3
62
256
6
ByLayer
370
18
48
0.05
60
0
100
AcDbSpline
70
4
71
3
72
10
73
6
40
0
40
0
40
0
40
0
40
0.500022805321585
40
0.500022805321585
40
1
40
1
40
1
40
1
41
1
10
4.7213755835
20
6.003058384
30
0
41
1
10
4.6635120413
20
5.90294947726667
30
0
41
1
10
4.60564849910001
20
5.80284057053335
30
0
41
1
10
4.48992669284601
20
5.60263188871342
30
0
41
1
10
4.43205775036667
20
5.50253828619999
30
0
41
1
10
4.3741941471
20
5.4024415974
30
0
0
SPLINE
5
15D
100
AcDbEntity
8
SK3
62
256
6
ByLayer
370
18
48
0.05
60
0
100
AcDbSpline
70
4
71
3
72
10
73
6
40
0
40
0
40
0
40
0
40
0.499978928770893
40
0.499978928770893
40
1
40
1
40
1
40
1
41
1
10
3.8740065708
20
-5.4028055121
30
0
41
1
10
3.9318854177
20
-5.5029078619
30
0
41
1
10
3.9897642646
20
-5.6030102117
30
0
41
1
10
4.10552683691937
20
-5.80322334877376
30
0
41
1
10
4.1634009621
20
-5.90333968656665
30
0
41
1
10
4.2212798874
20
-6.00345324909999
30
0
0
SPLINE
5
15E
100
AcDbEntity
8
SK3
62
256
6
ByLayer
370
18
48
0.05
60
0
100
AcDbSpline
70
4
71
3
72
10
73
6
40
0
40
0
40
0
40
0
40
0.499979032229442
40
0.499979032229442
40
1
40
1
40
1
40
1
41
1
10
4.8745843395
20
-5.40282055339999
30
0
41
1
10
4.9324491963
20
-5.50289558036665
30
0
41
1
10
4.99031405309999
20
-5.60297060733332
30
0
41
1
10
5.10604862009172
20
-5.80312905501948
30
0
41
1
10
5.1639086273
20
-5.90321808583333
30
0
41
1
10
5.221773486
20
-6.00330431159999
30
0
0
SPLINE
5
15F
100
AcDbEntity
8
SK3
62
256
6
ByLayer
370
18
48
0.05
60
0
100
AcDbSpline
70
4
71
3
72
10
73
6
40
0
40
0
40
0
40
0
40
0.824997683198686
40
0.824997683198686
40
1
40
1
40
1
40
1
41
1
10
5.8738429968
20
-5.4024667899
30
0
41
1
10
5.93171159303333
20
-5.5025684208
30
0
41
1
10
5.98958018926667
20
-5.6026700517
30
0
41
1
10
6.0597241392581
20
-5.72400570262194
30
0
41
1
10
6.07199714916666
20
-5.74524107753334
30
0
41
1
10
6.08427133099999
20
-5.766475775
30
0
0
SPLINE
5
160
100
AcDbEntity
8
SK3
62
256
6
ByLayer
370
18
48
0.05
60
0
100
AcDbSpline
70
4
71
3
72
10
73
6
40
0
40
0
40
0
40
0
40
0.761785167339007
40
0.761785167339007
40
1
40
1
40
1
40
1
41
1
10
6.2704304634
20
5.4016433294
30
0
41
1
10
6.21301888793333
20
5.50093810963334
30
0
41
1
10
6.15560731246666
20
5.60023288986666
30
0
41
1
10
6.08024278985825
20
5.73057774887748
30
0
41
1
10
6.06229318260001
20
5.76162975863333
30
0
41
1
10
6.0443419054
20
5.79268080290001
30
0
0
SPLINE
5
161
100
AcDbEntity
8
SK3
62
256
6
ByLayer
370
18
48
0.05
60
0
100
AcDbSpline
70
4
71
3
72
10
73
6
40
0
40
0
40
0
40
0
40
0.499979414048806
40
0.499979414048806
40
1
40
1
40
1
40
1
41
1
10
5.2695352495
20
5.4040610365
30
0
41
1
10
5.2121328059
20
5.50337887866667
30
0
41
1
10
5.15473036230001
20
5.60269672083334
30
0
41
1
10
5.03992074816977
20
5.8013405837124
30
0
41
1
10
4.98252299883334
20
5.90067204926667
30
0
41
1
10
4.9251205389
20
6.0000007924
30
0
0
SPLINE
5
162
100
AcDbEntity
8
SK3
62
256
6
ByLayer
370
18
48
0.05
60
0
100
AcDbSpline
70
4
71
3
72
10
73
6
40
0
40
0
40
0
40
0
40
0.49997667388151
40
0.49997667388151
40
1
40
1
40
1
40
1
41
1
10
4.27042954
20
5.4019757585
30
0
41
1
10
4.21301537813334
20
5.5012852923
30
0
41
1
10
4.15560121626667
20
5.60059482610001
30
0
41
1
10
4.04076753528524
20
5.79922316015612
30
0
41
1
10
3.98335867726667
20
5.89854812356667
30
0
41
1
10
3.9259444887
20
5.9978700054
30
0
0
SPLINE
5
163
100
AcDbEntity
8
SK3
62
256
6
ByLayer
370
18
48
0.05
60
0
100
AcDbSpline
70
4
71
3
72
10
73
6
40
0
40
0
40
0
40
0
40
0.50002092998047
40
0.50002092998047
40
1
40
1
40
1
40
1
41
1
10
4.42571738329999
20
-5.9985252403
30
0
41
1
10
4.48312988036666
20
-5.89920157333334
30
0
41
1
10
4.54054237743333
20
-5.79987790636666
30
0
41
1
10
4.65536256519809
20
-5.6012388874549
30
0
41
1
10
4.71278005156667
20
-5.50192919806665
30
0
41
1
10
4.7701926401
20
-5.40261667739999
30
0
0
SPLINE
5
164
100
AcDbEntity
8
SK3
62
256
6
ByLayer
370
18
48
0.05
60
0
100
AcDbSpline
70
4
71
3
72
10
73
6
40
0
40
0
40
0
40
0
40
0.500022571702191
40
0.500022571702191
40
1
40
1
40
1
40
1
41
1
10
5.42569494480001
20
-5.99859797709999
30
0
41
1
10
5.48310659106667
20
-5.89927176356666
30
0
41
1
10
5.54051823733333
20
-5.79994555003333
30
0
41
1
10
5.65533634658634
20
-5.60130209040869
30
0
41
1
10
5.71275320006666
20
-5.50199085050001
30
0
41
1
10
5.7701648583
20
-5.4026766075
30
0
0
SPLINE
5
165
100
AcDbEntity
8
SK3
62
256
6
ByLayer
370
18
48
0.05
60
0
100
AcDbSpline
70
4
71
3
72
10
73
6
40
0
40
0
40
0
40
0
40
0.499995761525291
40
0.499995761525291
40
1
40
1
40
1
40
1
41
1
10
1.27034298
20
5.403026889
30
0
41
1
10
1.26147771886668
20
5.41836238416666
30
0
41
1
10
1.25261245773334
20
5.43369787933334
30
0
41
1
10
1.23488178516465
20
5.46436912966532
30
0
41
1
10
1.22601665293333
20
5.47970504623334
30
0
41
1
10
1.2171513811
20
5.4950408821
30
0
0
INSERT
5
175
100
AcDbEntity
8
SK2
62
256
6
ByLayer
370
25
48
1
60
0
100
AcDbBlockReference
2
DimnDraft3D11
10
0
20
0
30
0
41
1
42
1
43
1
50
0
210
0
220
0
230
1
0
LINE
5
72
100
AcDbEntity
8
SK1
62
256
6
ByLayer
370
13
48
1
60
0
100
AcDbLine
10
-2.575129
20
-8
30
0
11
1.924871
21
-8
31
0
39
0
210
0
220
0
230
1
0
LINE
5
73
100
AcDbEntity
8
SK1
62
256
6
ByLayer
370
13
48
1
60
0
100
AcDbLine
10
1.924871
20
8
30
0
11
-2.575129
21
8
31
0
39
0
210
0
220
0
230
1
0
LINE
5
74
100
AcDbEntity
8
SK1
62
256
6
ByLayer
370
13
48
1
60
0
100
AcDbLine
10
-2.575129
20
8
30
0
11
-3.075129
21
7.5
31
0
39
0
210
0
220
0
230
1
0
LINE
5
75
100
AcDbEntity
8
SK1
62
256
6
ByLayer
370
13
48
1
60
0
100
AcDbLine
10
-3.075129
20
-7.5
30
0
11
-2.575129
21
-8
31
0
39
0
210
0
220
0
230
1
0
LINE
5
76
100
AcDbEntity
8
SK1
62
256
6
ByLayer
370
13
48
1
60
0
100
AcDbLine
10
8.636196
20
-7
30
0
11
8.924871
21
-6.5
31
0
39
0
210
0
220
0
230
1
0
LINE
5
77
100
AcDbEntity
8
SK1
62
256
6
ByLayer
370
13
48
1
60
0
100
AcDbLine
10
8.924871
20
6.5
30
0
11
8.636196
21
7
31
0
39
0
210
0
220
0
230
1
0
LINE
5
78
100
AcDbEntity
8
SK1
62
256
6
ByLayer
370
13
48
1
60
0
100
AcDbLine
10
-3.075129
20
5.067819
30
0
11
-3.5
21
5.008107
31
0
39
0
210
0
220
0
230
1
0
LINE
5
79
100
AcDbEntity
8
SK1
62
256
6
ByLayer
370
13
48
1
60
0
100
AcDbLine
10
-3.5
20
-5.008107
30
0
11
-3.075129
21
-5.067819
31
0
39
0
210
0
220
0
230
1
0
LINE
5
7A
100
AcDbEntity
8
SK1
62
256
6
ByLayer
370
13
48
1
60
0
100
AcDbLine
10
-4.066326
20
4.72655
30
0
11
-8.628005
21
4.085448
31
0
39
0
210
0
220
0
230
1
0
LINE
5
7B
100
AcDbEntity
8
SK1
62
256
6
ByLayer
370
13
48
1
60
0
100
AcDbLine
10
-8.628005
20
-4.085448
30
0
11
-4.066326
21
-4.72655
31
0
39
0
210
0
220
0
230
1
0
LINE
5
7C
100
AcDbEntity
8
1
62
256
6
ByLayer
370
13
48
1
60
0
100
AcDbLine
10
24.128076
20
4.5
30
0
11
8.924871
21
4.5
31
0
39
0
210
0
220
0
230
1
0
LINE
5
7E
100
AcDbEntity
8
1
62
256
6
ByLayer
370
13
48
1
60
0
100
AcDbLine
10
8.924871
20
-4.5
30
0
11
24.478076
21
-4.5
31
0
39
0
210
0
220
0
230
1
0
LINE
5
7F
100
AcDbEntity
8
SK1
62
256
6
ByLayer
370
13
48
1
60
0
100
AcDbLine
10
-9.25
20
4.199997
30
0
11
-13.131924
21
3.654428
31
0
39
0
210
0
220
0
230
1
0
LINE
5
80
100
AcDbEntity
8
SK1
62
256
6
ByLayer
370
13
48
1
60
0
100
AcDbLine
10
-13.131924
20
-3.654428
30
0
11
-9.25
21
-4.199997
31
0
39
0
210
0
220
0
230
1
0
LINE
5
81
100
AcDbEntity
8
SK1
62
256
6
ByLayer
370
13
48
1
60
0
100
AcDbLine
10
-13.131924
20
3.654428
30
0
11
-13.631924
21
3.154428
31
0
39
0
210
0
220
0
230
1
0
LINE
5
82
100
AcDbEntity
8
SK1
62
256
6
ByLayer
370
13
48
1
60
0
100
AcDbLine
10
-13.631924
20
-3.154428
30
0
11
-13.131924
21
-3.654428
31
0
39
0
210
0
220
0
230
1
0
LINE
5
83
100
AcDbEntity
8
1
62
256
6
ByLayer
370
13
48
1
60
0
100
AcDbLine
10
24.478076
20
-4.5
30
0
11
24.978076
21
-4
31
0
39
0
210
0
220
0
230
1
0
LINE
5
84
100
AcDbEntity
8
SK1
62
256
6
ByLayer
370
13
48
1
60
0
100
AcDbLine
10
1.924871
20
8
30
0
11
2.924871
21
7
31
0
39
0
210
0
220
0
230
1
0
LINE
5
85
100
AcDbEntity
8
SK1
62
256
6
ByLayer
370
13
48
1
60
0
100
AcDbLine
10
2.924871
20
7
30
0
11
8.058846
21
7
31
0
39
0
210
0
220
0
230
1
0
LINE
5
86
100
AcDbEntity
8
SK1
62
256
6
ByLayer
370
13
48
1
60
0
100
AcDbLine
10
8.058846
20
7
30
0
11
8.058846
21
6.854102
31
0
39
0
210
0
220
0
230
1
0
LINE
5
87
100
AcDbEntity
8
SK1
62
256
6
ByLayer
370
13
48
1
60
0
100
AcDbLine
10
8.058846
20
6.854102
30
0
11
2.924871
21
6.854102
31
0
39
0
210
0
220
0
230
1
0
LINE
5
88
100
AcDbEntity
8
SK1
62
256
6
ByLayer
370
13
48
1
60
0
100
AcDbLine
10
2.924871
20
0.145898
30
0
11
8.058846
21
0.145898
31
0
39
0
210
0
220
0
230
1
0
LINE
5
89
100
AcDbEntity
8
SK1
62
256
6
ByLayer
370
13
48
1
60
0
100
AcDbLine
10
8.058846
20
0.145898
30
0
11
8.058846
21
-0.145898
31
0
39
0
210
0
220
0
230
1
0
LINE
5
8A
100
AcDbEntity
8
SK1
62
256
6
ByLayer
370
13
48
1
60
0
100
AcDbLine
10
8.058846
20
-0.145898
30
0
11
2.924871
21
-0.145898
31
0
39
0
210
0
220
0
230
1
0
LINE
5
8B
100
AcDbEntity
8
SK1
62
256
6
ByLayer
370
13
48
1
60
0
100
AcDbLine
10
2.924871
20
-6.854102
30
0
11
8.058846
21
-6.854102
31
0
39
0
210
0
220
0
230
1
0
LINE
5
8C
100
AcDbEntity
8
SK1
62
256
6
ByLayer
370
13
48
1
60
0
100
AcDbLine
10
8.058846
20
-6.854102
30
0
11
8.058846
21
-7
31
0
39
0
210
0
220
0
230
1
0
LINE
5
8D
100
AcDbEntity
8
SK1
62
256
6
ByLayer
370
13
48
1
60
0
100
AcDbLine
10
8.058846
20
-7
30
0
11
2.924871
21
-7
31
0
39
0
210
0
220
0
230
1
0
LINE
5
8E
100
AcDbEntity
8
SK1
62
256
6
ByLayer
370
13
48
1
60
0
100
AcDbLine
10
2.924871
20
-7
30
0
11
1.924871
21
-8
31
0
39
0
210
0
220
0
230
1
0
LINE
5
8F
100
AcDbEntity
8
SK1
62
256
6
ByLayer
370
13
48
1
60
0
100
AcDbLine
10
-2.575129
20
0
30
0
11
-2.575129
21
8
31
0
39
0
210
0
220
0
230
1
0
LINE
5
90
100
AcDbEntity
8
SK1
62
256
6
ByLayer
370
13
48
1
60
0
100
AcDbLine
10
-2.575129
20
-8
30
0
11
-2.575129
21
0
31
0
39
0
210
0
220
0
230
1
0
LINE
5
91
100
AcDbEntity
8
SK1
62
256
6
ByLayer
370
13
48
1
60
0
100
AcDbLine
10
-3.075129
20
0
30
0
11
-3.075129
21
7.5
31
0
39
0
210
0
220
0
230
1
0
LINE
5
92
100
AcDbEntity
8
SK1
62
256
6
ByLayer
370
13
48
1
60
0
100
AcDbLine
10
-3.075129
20
-7.5
30
0
11
-3.075129
21
0
31
0
39
0
210
0
220
0
230
1
0
LINE
5
93
100
AcDbEntity
8
SK1
62
256
6
ByLayer
370
13
48
1
60
0
100
AcDbLine
10
8.058846
20
7
30
0
11
8.635669
21
7
31
0
39
0
210
0
220
0
230
1
0
LINE
5
94
100
AcDbEntity
8
SK1
62
256
6
ByLayer
370
13
48
1
60
0
100
AcDbLine
10
8.058846
20
-7
30
0
11
8.635937
21
-7
31
0
39
0
210
0
220
0
230
1
0
LINE
5
95
100
AcDbEntity
8
SK1
62
256
6
ByLayer
370
13
48
1
60
0
100
AcDbLine
10
8.924871
20
6.5
30
0
11
8.924871
21
-6.5
31
0
39
0
210
0
220
0
230
1
0
LINE
5
96
100
AcDbEntity
8
SK1
62
256
6
ByLayer
370
13
48
1
60
0
100
AcDbLine
10
2.924871
20
6.854102
30
0
11
2.924871
21
0.145898
31
0
39
0
210
0
220
0
230
1
0
LINE
5
97
100
AcDbEntity
8
SK1
62
256
6
ByLayer
370
13
48
1
60
0
100
AcDbLine
10
2.924871
20
-0.145898
30
0
11
2.924871
21
-6.854102
31
0
39
0
210
0
220
0
230
1
0
LINE
5
98
100
AcDbEntity
8
SK1
62
256
6
ByLayer
370
13
48
1
60
0
100
AcDbLine
10
-3.5
20
5.008107
30
0
11
-3.5
21
-5.008107
31
0
39
0
210
0
220
0
230
1
0
LINE
5
99
100
AcDbEntity
8
1
62
256
6
ByLayer
370
13
48
1
60
0
100
AcDbLine
10
24.126606
20
4.443843
30
0
11
24.128076
21
4.5
31
0
39
0
210
0
220
0
230
1
0
LINE
5
9A
100
AcDbEntity
8
1
62
256
6
ByLayer
370
13
48
1
60
0
100
AcDbLine
10
24.478076
20
4.406577
30
0
11
24.478076
21
-1.413312
31
0
39
0
210
0
220
0
230
1
0
LINE
5
9B
100
AcDbEntity
8
1
62
256
6
ByLayer
370
13
48
1
60
0
100
AcDbLine
10
24.478076
20
-2.993264
30
0
11
24.478076
21
-4.5
31
0
39
0
210
0
220
0
230
1
0
LINE
5
9C
100
AcDbEntity
8
1
62
256
6
ByLayer
370
13
48
1
60
0
100
AcDbLine
10
24.978076
20
3.812648
30
0
11
24.478076
21
4.406577
31
0
39
0
210
0
220
0
230
1
0
LINE
5
9D
100
AcDbEntity
8
1
62
256
6
ByLayer
370
13
48
1
60
0
100
AcDbLine
10
24.978076
20
3.812648
30
0
11
24.978076
21
-0.858572
31
0
39
0
210
0
220
0
230
1
0
LINE
5
9E
100
AcDbEntity
8
1
62
256
6
ByLayer
370
13
48
1
60
0
100
AcDbLine
10
24.478076
20
-1.413312
30
0
11
24.978076
21
-0.858572
31
0
39
0
210
0
220
0
230
1
0
LINE
5
9F
100
AcDbEntity
8
SK1
62
256
6
ByLayer
370
13
48
1
60
0
100
AcDbLine
10
-13.131924
20
3.654428
30
0
11
-13.131924
21
-3.654428
31
0
39
0
210
0
220
0
230
1
0
LINE
5
A0
100
AcDbEntity
8
SK1
62
256
6
ByLayer
370
13
48
1
60
0
100
AcDbLine
10
-9.25
20
4.199997
30
0
11
-9.25
21
-4.199997
31
0
39
0
210
0
220
0
230
1
0
LINE
5
A1
100
AcDbEntity
8
SK1
62
256
6
ByLayer
370
13
48
1
60
0
100
AcDbLine
10
-13.631924
20
3.154428
30
0
11
-13.631924
21
-3.154428
31
0
39
0
210
0
220
0
230
1
0
LINE
5
A2
100
AcDbEntity
8
1
62
256
6
ByLayer
370
13
48
1
60
0
100
AcDbLine
10
24.378076
20
-1.470978
30
0
11
24.978076
21
-2.012119
31
0
39
0
210
0
220
0
230
1
0
LINE
5
A3
100
AcDbEntity
8
1
62
256
6
ByLayer
370
13
48
1
60
0
100
AcDbLine
10
24.978076
20
-2.012119
30
0
11
24.978076
21
-2.954077
31
0
39
0
210
0
220
0
230
1
0
LINE
5
A4
100
AcDbEntity
8
1
62
256
6
ByLayer
370
13
48
1
60
0
100
AcDbLine
10
24.978076
20
-2.954077
30
0
11
24.478076
21
-2.993264
31
0
39
0
210
0
220
0
230
1
0
LINE
5
A5
100
AcDbEntity
8
1
62
256
6
ByLayer
370
13
48
1
60
0
100
AcDbLine
10
24.978076
20
-2.954077
30
0
11
24.978076
21
-4
31
0
39
0
210
0
220
0
230
1
0
LINE
5
A6
100
AcDbEntity
8
SK1
62
256
6
ByLayer
370
18
48
1
60
0
100
AcDbLine
10
-4.066326
20
4.72655
30
0
11
-4.066326
21
-4.72655
31
0
39
0
210
0
220
0
230
1
0
LINE
5
A7
100
AcDbEntity
8
SK1
62
256
6
ByLayer
370
18
48
1
60
0
100
AcDbLine
10
-8.628005
20
4.085448
30
0
11
-8.628005
21
-4.085448
31
0
39
0
210
0
220
0
230
1
0
LINE
5
A8
100
AcDbEntity
8
SK3
62
256
6
ByLayer
370
18
48
0.05
60
0
100
AcDbLine
10
0.654871
20
0
30
0
11
0.654871
21
6.625
31
0
39
0
210
0
220
0
230
1
0
LINE
5
AA
100
AcDbEntity
8
SK3
62
256
6
ByLayer
370
18
48
0.05
60
0
100
AcDbLine
10
0.654871
20
-6.625
30
0
11
0.654871
21
0
31
0
39
0
210
0
220
0
230
1
0
LINE
5
AB
100
AcDbEntity
8
SK3
62
256
6
ByLayer
370
18
48
0.05
60
0
100
AcDbLine
10
1.654871
20
0
30
0
11
1.654871
21
6.625
31
0
39
0
210
0
220
0
230
1
0
LINE
5
AC
100
AcDbEntity
8
SK3
62
256
6
ByLayer
370
18
48
0.05
60
0
100
AcDbLine
10
1.654871
20
-6.625
30
0
11
1.654871
21
0
31
0
39
0
210
0
220
0
230
1
0
LINE
5
AD
100
AcDbEntity
8
SK3
62
256
6
ByLayer
370
18
48
0.05
60
0
100
AcDbLine
10
2.854871
20
2.976681
30
0
11
2.854871
21
0.887625
31
0
39
0
210
0
220
0
230
1
0
LINE
5
AE
100
AcDbEntity
8
SK3
62
256
6
ByLayer
370
18
48
0.05
60
0
100
AcDbLine
10
2.854871
20
3.003814
30
0
11
2.854871
21
6
31
0
39
0
210
0
220
0
230
1
0
LINE
5
AF
100
AcDbEntity
8
SK3
62
256
6
ByLayer
370
18
48
0.05
60
0
100
AcDbLine
10
5.924871
20
0
30
0
11
5.924871
21
6
31
0
39
0
210
0
220
0
230
1
0
LINE
5
B0
100
AcDbEntity
8
SK3
62
256
6
ByLayer
370
18
48
0.05
60
0
100
AcDbLine
10
5.924871
20
-6
30
0
11
5.924871
21
0
31
0
39
0
210
0
220
0
230
1
0
LINE
5
B1
100
AcDbEntity
8
SK3
62
256
6
ByLayer
370
18
48
0.05
60
0
100
AcDbLine
10
2.854871
20
-6
30
0
11
2.854871
21
0.860492
31
0
39
0
210
0
220
0
230
1
0
LINE
5
B2
100
AcDbEntity
8
SK3
62
256
6
ByLayer
370
18
48
0.05
60
0
100
AcDbLine
10
8.124871
20
0
30
0
11
8.124871
21
4.6
31
0
39
0
210
0
220
0
230
1
0
LINE
5
B3
100
AcDbEntity
8
SK3
62
256
6
ByLayer
370
18
48
0.05
60
0
100
AcDbLine
10
8.124871
20
-4.6
30
0
11
8.124871
21
0
31
0
39
0
210
0
220
0
230
1
0
LINE
5
B4
100
AcDbEntity
8
SK3
62
256
6
ByLayer
370
18
48
0.05
60
0
100
AcDbLine
10
8.624871
20
0
30
0
11
8.624871
21
3.551583
31
0
39
0
210
0
220
0
230
1
0
LINE
5
B5
100
AcDbEntity
8
SK3
62
256
6
ByLayer
370
18
48
0.05
60
0
100
AcDbLine
10
8.624871
20
3.923846
30
0
11
8.624871
21
4.6
31
0
39
0
210
0
220
0
230
1
0
LINE
5
B6
100
AcDbEntity
8
SK3
62
256
6
ByLayer
370
18
48
0.05
60
0
100
AcDbLine
10
8.624871
20
-4.6
30
0
11
8.624871
21
-3.465359
31
0
39
0
210
0
220
0
230
1
0
LINE
5
B7
100
AcDbEntity
8
SK3
62
256
6
ByLayer
370
18
48
0.05
60
0
100
AcDbLine
10
8.624871
20
-3.08976
30
0
11
8.624871
21
0
31
0
39
0
210
0
220
0
230
1
0
LINE
5
B8
100
AcDbEntity
8
SK3
62
256
6
ByLayer
370
18
48
0.05
60
0
100
AcDbLine
10
5.7
20
5.903532
30
0
11
5.7
21
1.084283
31
0
39
0
210
0
220
0
230
1
0
LINE
5
B9
100
AcDbEntity
8
SK3
62
256
6
ByLayer
370
18
48
0.05
60
0
100
AcDbLine
10
5.699998
20
5.937607
30
0
11
5.695857
21
5.905888
31
0
39
0
210
0
220
0
230
1
0
LINE
5
BA
100
AcDbEntity
8
SK3
62
256
6
ByLayer
370
18
48
0.05
60
0
100
AcDbLine
10
0
20
5.5
30
0
11
0
21
-5.5
31
0
39
0
210
0
220
0
230
1
0
LINE
5
BB
100
AcDbEntity
8
SK3
62
256
6
ByLayer
370
18
48
0.05
60
0
100
AcDbLine
10
1.210218
20
5.5
30
0
11
1.21834
21
5.491116
31
0
39
0
210
0
220
0
230
1
0
LINE
5
BC
100
AcDbEntity
8
SK3
62
256
6
ByLayer
370
18
48
0.05
60
0
100
AcDbLine
10
1.434141
20
5.5
30
0
11
1.210218
21
5.5
31
0
39
0
210
0
220
0
230
1
0
LINE
5
BD
100
AcDbEntity
8
SK3
62
256
6
ByLayer
370
18
48
0.05
60
0
100
AcDbLine
10
1.5
20
5.5
30
0
11
1.5
21
-5.5
31
0
39
0
210
0
220
0
230
1
0
LINE
5
BE
100
AcDbEntity
8
SK3
62
256
6
ByLayer
370
18
48
0.05
60
0
100
AcDbLine
10
24.049258
20
-0.131271
30
0
11
24.126606
21
-1.608169
31
0
39
0
210
0
220
0
230
1
0
LINE
5
BF
100
AcDbEntity
8
SK3
62
256
6
ByLayer
370
18
48
0.05
60
0
100
AcDbLine
10
24.049258
20
-1.358777
30
0
11
24.126606
21
-2.835675
31
0
39
0
210
0
220
0
230
1
0
LINE
5
C0
100
AcDbEntity
8
SK3
62
256
6
ByLayer
370
18
48
0.05
60
0
100
AcDbLine
10
24.978076
20
0.134045
30
0
11
24.378076
21
0.088154
31
0
39
0
210
0
220
0
230
1
0
LINE
5
C1
100
AcDbEntity
8
SK3
62
256
6
ByLayer
370
18
48
0.05
60
0
100
AcDbLine
10
24.353515
20
1.358777
30
0
11
24.378076
21
1.367999
31
0
39
0
210
0
220
0
230
1
0
LINE
5
C2
100
AcDbEntity
8
SK3
62
256
6
ByLayer
370
18
48
0.05
60
0
100
AcDbLine
10
24.378076
20
1.382824
30
0
11
24.378076
21
1.367999
31
0
39
0
210
0
220
0
230
1
0
LINE
5
C3
100
AcDbEntity
8
SK3
62
256
6
ByLayer
370
18
48
0.05
60
0
100
AcDbLine
10
24.378076
20
-1.561099
30
0
11
24.378076
21
-1.65
31
0
39
0
210
0
220
0
230
1
0
LINE
5
C4
100
AcDbEntity
8
SK3
62
256
6
ByLayer
370
18
48
0.05
60
0
100
AcDbLine
10
24.353515
20
-1.490048
30
0
11
24.378076
21
-1.482942
31
0
39
0
210
0
220
0
230
1
0
LINE
5
C5
100
AcDbEntity
8
SK3
62
256
6
ByLayer
370
18
48
0.05
60
0
100
AcDbLine
10
24.378076
20
-1.470978
30
0
11
24.378076
21
-1.482942
31
0
39
0
210
0
220
0
230
1
0
LINE
5
C6
100
AcDbEntity
8
SK3
62
256
6
ByLayer
370
18
48
0.05
60
0
100
AcDbLine
10
11.778076
20
1.65
30
0
11
11.778076
21
-1.65
31
0
39
0
210
0
220
0
230
1
0
LINE
5
C7
100
AcDbEntity
8
SK3
62
256
6
ByLayer
370
18
48
0.05
60
0
100
AcDbLine
10
24.378076
20
1.243262
30
0
11
24.378076
21
0.317837
31
0
39
0
210
0
220
0
230
1
0
LINE
5
C8
100
AcDbEntity
8
SK3
62
256
6
ByLayer
370
18
48
0.05
60
0
100
AcDbLine
10
24.378076
20
0.114943
30
0
11
24.378076
21
0.088154
31
0
39
0
210
0
220
0
230
1
0
LINE
5
C9
100
AcDbEntity
8
SK3
62
256
6
ByLayer
370
18
48
0.05
60
0
100
AcDbLine
10
24.378076
20
1.243262
30
0
11
24.353515
21
1.358777
31
0
39
0
210
0
220
0
230
1
0
LINE
5
CA
100
AcDbEntity
8
SK3
62
256
6
ByLayer
370
18
48
0.05
60
0
100
AcDbLine
10
24.353515
20
0.131271
30
0
11
24.378076
21
0.317837
31
0
39
0
210
0
220
0
230
1
0
LINE
5
CB
100
AcDbEntity
8
SK3
62
256
6
ByLayer
370
18
48
0.05
60
0
100
AcDbLine
10
24.378076
20
0.114943
30
0
11
24.353515
21
0.131271
31
0
39
0
210
0
220
0
230
1
0
LINE
5
CC
100
AcDbEntity
8
SK3
62
256
6
ByLayer
370
18
48
0.05
60
0
100
AcDbLine
10
24.378076
20
1.382824
30
0
11
24.978076
21
1.878074
31
0
39
0
210
0
220
0
230
1
0
LINE
5
CD
100
AcDbEntity
8
SK3
62
256
6
ByLayer
370
18
48
0.05
60
0
100
AcDbLine
10
24.049258
20
1.490048
30
0
11
24.126606
21
4.443843
31
0
39
0
210
0
220
0
230
1
0
LINE
5
CE
100
AcDbEntity
8
SK3
62
256
6
ByLayer
370
18
48
0.05
60
0
100
AcDbLine
10
1.262179
20
5.41
30
0
11
1.270331
21
5.393047
31
0
39
0
210
0
220
0
230
1
0
LINE
5
CF
100
AcDbEntity
8
SK3
62
256
6
ByLayer
370
18
48
0.05
60
0
100
AcDbLine
10
1.382179
20
5.41
30
0
11
1.262179
21
5.41
31
0
39
0
210
0
220
0
230
1
0
LINE
5
D0
100
AcDbEntity
8
SK3
62
256
6
ByLayer
370
18
48
0.05
60
0
100
AcDbLine
10
1.434141
20
5.5
30
0
11
1.382179
21
5.41
31
0
39
0
210
0
220
0
230
1
0
LINE
5
D1
100
AcDbEntity
8
SK3
62
256
6
ByLayer
370
18
48
0.05
60
0
100
AcDbLine
10
1.262179
20
5.41
30
0
11
1.210218
21
5.5
31
0
39
0
210
0
220
0
230
1
0
LINE
5
D2
100
AcDbEntity
8
SK3
62
256
6
ByLayer
370
18
48
0.05
60
0
100
AcDbLine
10
0.654871
20
-6.625
30
0
11
1.654871
21
-6.625
31
0
39
0
210
0
220
0
230
1
0
LINE
5
D3
100
AcDbEntity
8
SK3
62
256
6
ByLayer
370
18
48
0.05
60
0
100
AcDbLine
10
1.654871
20
6.625
30
0
11
0.654871
21
6.625
31
0
39
0
210
0
220
0
230
1
0
LINE
5
D4
100
AcDbEntity
8
SK3
62
256
6
ByLayer
370
18
48
0.05
60
0
100
AcDbLine
10
-3.075129
20
-6.625
30
0
11
-2.575129
21
-6.125
31
0
39
0
210
0
220
0
230
1
0
LINE
5
D5
100
AcDbEntity
8
SK3
62
256
6
ByLayer
370
18
48
0.05
60
0
100
AcDbLine
10
-2.575129
20
6.125
30
0
11
-3.075129
21
6.625
31
0
39
0
210
0
220
0
230
1
0
LINE
5
D6
100
AcDbEntity
8
SK3
62
256
6
ByLayer
370
18
48
0.05
60
0
100
AcDbLine
10
2.188435
20
-6
30
0
11
2.308435
21
-6
31
0
39
0
210
0
220
0
230
1
0
LINE
5
D7
100
AcDbEntity
8
SK3
62
256
6
ByLayer
370
18
48
0.05
60
0
100
AcDbLine
10
2.853528
20
5.44663
30
0
11
2.810436
21
5.372354
31
0
39
0
210
0
220
0
230
1
0
LINE
5
D8
100
AcDbEntity
8
SK3
62
256
6
ByLayer
370
18
48
0.05
60
0
100
AcDbLine
10
1.65649
20
-5.422086
30
0
11
1.694876
21
-5.35604
31
0
39
0
210
0
220
0
230
1
0
LINE
5
D9
100
AcDbEntity
8
SK3
62
256
6
ByLayer
370
18
48
0.05
60
0
100
AcDbLine
10
2.308435
20
6
30
0
11
2.188435
21
6
31
0
39
0
210
0
220
0
230
1
0
LINE
5
DA
100
AcDbEntity
8
SK3
62
256
6
ByLayer
370
18
48
0.05
60
0
100
AcDbLine
10
1.694876
20
5.35604
30
0
11
1.655893
21
5.423115
31
0
39
0
210
0
220
0
230
1
0
LINE
5
DB
100
AcDbEntity
8
SK3
62
256
6
ByLayer
370
18
48
0.05
60
0
100
AcDbLine
10
2.810436
20
-5.372354
30
0
11
2.853572
21
-5.446706
31
0
39
0
210
0
220
0
230
1
0
LINE
5
DC
100
AcDbEntity
8
SK3
62
256
6
ByLayer
370
18
48
0.05
60
0
100
AcDbLine
10
-2.575129
20
-6.125
30
0
11
0.654871
21
-6.125
31
0
39
0
210
0
220
0
230
1
0
LINE
5
DD
100
AcDbEntity
8
SK3
62
256
6
ByLayer
370
18
48
0.05
60
0
100
AcDbLine
10
0.654871
20
6.125
30
0
11
-2.575129
21
6.125
31
0
39
0
210
0
220
0
230
1
0
LINE
5
DE
100
AcDbEntity
8
SK3
62
256
6
ByLayer
370
18
48
0.05
60
0
100
AcDbLine
10
2.854871
20
-6
30
0
11
5.924871
21
-6
31
0
39
0
210
0
220
0
230
1
0
LINE
5
DF
100
AcDbEntity
8
SK3
62
256
6
ByLayer
370
18
48
0.05
60
0
100
AcDbLine
10
5.924871
20
6
30
0
11
2.854871
21
6
31
0
39
0
210
0
220
0
230
1
0
LINE
5
E0
100
AcDbEntity
8
SK3
62
256
6
ByLayer
370
18
48
0.05
60
0
100
AcDbLine
10
5.924871
20
-5.870171
30
0
11
8.124871
21
-4.6
31
0
39
0
210
0
220
0
230
1
0
LINE
5
E1
100
AcDbEntity
8
SK3
62
256
6
ByLayer
370
18
48
0.05
60
0
100
AcDbLine
10
8.124871
20
4.6
30
0
11
5.924871
21
5.870171
31
0
39
0
210
0
220
0
230
1
0
LINE
5
E2
100
AcDbEntity
8
SK3
62
256
6
ByLayer
370
18
48
0.05
60
0
100
AcDbLine
10
1.654871
20
-5.4
30
0
11
1.841994
21
-5.4
31
0
39
0
210
0
220
0
230
1
0
LINE
5
E3
100
AcDbEntity
8
SK3
62
256
6
ByLayer
370
18
48
0.05
60
0
100
AcDbLine
10
2.84199
20
5.4
30
0
11
2.654814
21
5.4
31
0
39
0
210
0
220
0
230
1
0
LINE
5
E4
100
AcDbEntity
8
SK3
62
256
6
ByLayer
370
18
48
0.05
60
0
100
AcDbLine
10
8.924871
20
4.9
30
0
11
8.624871
21
4.6
31
0
39
0
210
0
220
0
230
1
0
LINE
5
E5
100
AcDbEntity
8
SK3
62
256
6
ByLayer
370
18
48
0.05
60
0
100
AcDbLine
10
8.624871
20
-4.6
30
0
11
8.924871
21
-4.9
31
0
39
0
210
0
220
0
230
1
0
LINE
5
E6
100
AcDbEntity
8
SK3
62
256
6
ByLayer
370
18
48
0.05
60
0
100
AcDbLine
10
8.124871
20
-4.6
30
0
11
8.624871
21
-4.6
31
0
39
0
210
0
220
0
230
1
0
LINE
5
E7
100
AcDbEntity
8
SK3
62
256
6
ByLayer
370
18
48
0.05
60
0
100
AcDbLine
10
8.624871
20
4.6
30
0
11
8.124871
21
4.6
31
0
39
0
210
0
220
0
230
1
0
LINE
5
E8
100
AcDbEntity
8
SK3
62
256
6
ByLayer
370
18
48
0.05
60
0
100
AcDbLine
10
2.654814
20
-5.4
30
0
11
2.84199
21
-5.4
31
0
39
0
210
0
220
0
230
1
0
LINE
5
E9
100
AcDbEntity
8
SK3
62
256
6
ByLayer
370
18
48
0.05
60
0
100
AcDbLine
10
1.841994
20
5.4
30
0
11
1.654871
21
5.4
31
0
39
0
210
0
220
0
230
1
0
LINE
5
EA
100
AcDbEntity
8
SK3
62
256
6
ByLayer
370
18
48
0.05
60
0
100
AcDbLine
10
6.093775
20
-5.772654
30
0
11
8.185493
21
-4.565
31
0
39
0
210
0
220
0
230
1
0
LINE
5
EB
100
AcDbEntity
8
SK3
62
256
6
ByLayer
370
18
48
0.05
60
0
100
AcDbLine
10
6.033353
20
5.807539
30
0
11
5.719566
21
5.988704
31
0
39
0
210
0
220
0
230
1
0
LINE
5
EC
100
AcDbEntity
8
SK3
62
256
6
ByLayer
370
18
48
0.05
60
0
100
AcDbLine
10
8.185493
20
4.565
30
0
11
6.469703
21
5.555612
31
0
39
0
210
0
220
0
230
1
0
LINE
5
ED
100
AcDbEntity
8
SK3
62
256
6
ByLayer
370
18
48
0.05
60
0
100
AcDbLine
10
6.461395
20
5.552846
30
0
11
6.37379
21
5.401346
31
0
39
0
210
0
220
0
230
1
0
LINE
5
EE
100
AcDbEntity
8
SK3
62
256
6
ByLayer
370
18
48
0.05
60
0
100
AcDbLine
10
3.753262
20
5.937065
30
0
11
3.697985
21
5.842877
31
0
39
0
210
0
220
0
230
1
0
LINE
5
EF
100
AcDbEntity
8
SK3
62
256
6
ByLayer
370
18
48
0.05
60
0
100
AcDbLine
10
3.703772
20
-5.517324
30
0
11
3.770062
21
-5.402641
31
0
39
0
210
0
220
0
230
1
0
LINE
5
F0
100
AcDbEntity
8
SK3
62
256
6
ByLayer
370
18
48
0.05
60
0
100
AcDbLine
10
3.921063
20
6
30
0
11
3.728597
21
6
31
0
39
0
210
0
220
0
230
1
0
LINE
5
F1
100
AcDbEntity
8
SK3
62
256
6
ByLayer
370
18
48
0.05
60
0
100
AcDbLine
10
4.921579
20
6
30
0
11
4.728591
21
6
31
0
39
0
210
0
220
0
230
1
0
LINE
5
F2
100
AcDbEntity
8
SK3
62
256
6
ByLayer
370
18
48
0.05
60
0
100
AcDbLine
10
5.228575
20
-6
30
0
11
5.421338
21
-6
31
0
39
0
210
0
220
0
230
1
0
LINE
5
F3
100
AcDbEntity
8
SK3
62
256
6
ByLayer
370
18
48
0.05
60
0
100
AcDbLine
10
4.228586
20
-6
30
0
11
4.421036
21
-6
31
0
39
0
210
0
220
0
230
1
0
LINE
5
F4
100
AcDbEntity
8
SK3
62
256
6
ByLayer
370
18
48
0.05
60
0
100
AcDbLine
10
6.382127
20
5.40881
30
0
11
6.262126
21
5.408812
31
0
39
0
210
0
220
0
230
1
0
LINE
5
F5
100
AcDbEntity
8
SK3
62
256
6
ByLayer
370
18
48
0.05
60
0
100
AcDbLine
10
5.382277
20
5.410097
30
0
11
5.262276
21
5.410106
31
0
39
0
210
0
220
0
230
1
0
LINE
5
F6
100
AcDbEntity
8
SK3
62
256
6
ByLayer
370
18
48
0.05
60
0
100
AcDbLine
10
4.382136
20
5.409172
30
0
11
4.262136
21
5.409168
31
0
39
0
210
0
220
0
230
1
0
LINE
5
F7
100
AcDbEntity
8
SK3
62
256
6
ByLayer
370
18
48
0.05
60
0
100
AcDbLine
10
3.761982
20
-5.409593
30
0
11
3.881982
21
-5.409582
31
0
39
0
210
0
220
0
230
1
0
LINE
5
F8
100
AcDbEntity
8
SK3
62
256
6
ByLayer
370
18
48
0.05
60
0
100
AcDbLine
10
4.762291
20
-5.409204
30
0
11
4.882291
21
-5.409198
31
0
39
0
210
0
220
0
230
1
0
LINE
5
F9
100
AcDbEntity
8
SK3
62
256
6
ByLayer
370
18
48
0.05
60
0
100
AcDbLine
10
5.762225
20
-5.409671
30
0
11
5.882225
21
-5.409671
31
0
39
0
210
0
220
0
230
1
0
LINE
5
FA
100
AcDbEntity
8
SK3
62
256
6
ByLayer
370
18
48
0.05
60
0
100
AcDbLine
10
0
20
5.5
30
0
11
-3.075129
21
5.067819
31
0
39
0
210
0
220
0
230
1
0
LINE
5
FB
100
AcDbEntity
8
SK3
62
256
6
ByLayer
370
18
48
0.05
60
0
100
AcDbLine
10
-3.075129
20
-5.067819
30
0
11
0
21
-5.5
31
0
39
0
210
0
220
0
230
1
0
LINE
5
FC
100
AcDbEntity
8
SK3
62
256
6
ByLayer
370
18
48
0.05
60
0
100
AcDbLine
10
1.194218
20
5.5
30
0
11
0
21
5.5
31
0
39
0
210
0
220
0
230
1
0
LINE
5
FD
100
AcDbEntity
8
SK3
62
256
6
ByLayer
370
18
48
0.05
60
0
100
AcDbLine
10
1.5
20
5.5
30
0
11
1.450141
21
5.5
31
0
39
0
210
0
220
0
230
1
0
LINE
5
FE
100
AcDbEntity
8
SK3
62
256
6
ByLayer
370
18
48
0.05
60
0
100
AcDbLine
10
0
20
-5.5
30
0
11
1.5
21
-5.5
31
0
39
0
210
0
220
0
230
1
0
LINE
5
FF
100
AcDbEntity
8
SK3
62
256
6
ByLayer
370
18
48
0.05
60
0
100
AcDbLine
10
3.7
20
4.75
30
0
11
1.5
21
4.75
31
0
39
0
210
0
220
0
230
1
0
LINE
5
100
100
AcDbEntity
8
SK3
62
256
6
ByLayer
370
18
48
0.05
60
0
100
AcDbLine
10
1.5
20
-4.75
30
0
11
3.7
21
-4.75
31
0
39
0
210
0
220
0
230
1
0
LINE
5
101
100
AcDbEntity
8
SK3
62
256
6
ByLayer
370
18
48
0.05
60
0
100
AcDbLine
10
8.924871
20
4.5
30
0
11
8.428076
21
4.5
31
0
39
0
210
0
220
0
230
1
0
LINE
5
102
100
AcDbEntity
8
SK3
62
256
6
ByLayer
370
18
48
0.05
60
0
100
AcDbLine
10
8.428076
20
-4.5
30
0
11
8.924871
21
-4.5
31
0
39
0
210
0
220
0
230
1
0
LINE
5
103
100
AcDbEntity
8
SK3
62
256
6
ByLayer
370
18
48
0.05
60
0
100
AcDbLine
10
24.053446
20
1.65
30
0
11
11.778076
21
1.65
31
0
39
0
210
0
220
0
230
1
0
LINE
5
104
100
AcDbEntity
8
SK3
62
256
6
ByLayer
370
18
48
0.05
60
0
100
AcDbLine
10
11.778076
20
-1.65
30
0
11
24.378076
21
-1.65
31
0
39
0
210
0
220
0
230
1
0
LINE
5
105
100
AcDbEntity
8
SK3
62
256
6
ByLayer
370
18
48
0.05
60
0
100
AcDbLine
10
11.778076
20
1.65
30
0
11
10.786656
21
0
31
0
39
0
210
0
220
0
230
1
0
LINE
5
106
100
AcDbEntity
8
SK3
62
256
6
ByLayer
370
18
48
0.05
60
0
100
AcDbLine
10
10.786656
20
0
30
0
11
11.778076
21
-1.65
31
0
39
0
210
0
220
0
230
1
0
LINE
5
107
100
AcDbEntity
8
SK3
62
256
6
ByLayer
370
18
48
0.05
60
0
100
AcDbLine
10
24.378076
20
-1.65
30
0
11
24.42725
21
-1.699174
31
0
39
0
210
0
220
0
230
1
0
LINE
5
108
100
AcDbEntity
8
SK3
62
256
6
ByLayer
370
18
48
0.05
60
0
100
AcDbLine
10
2.854871
20
0.860492
30
0
11
2.854871
21
3.003814
31
0
39
0
210
0
220
0
230
1
0
LINE
5
109
100
AcDbEntity
8
SK3
62
256
6
ByLayer
370
18
48
0.05
60
0
100
AcDbLine
10
8.185493
20
-4.564142
30
0
11
8.185493
21
4.564142
31
0
39
0
210
0
220
0
230
1
0
LINE
5
10A
100
AcDbEntity
8
SK3
62
256
6
ByLayer
370
18
48
0.05
60
0
100
AcDbLine
10
8.428076
20
-4.5
30
0
11
8.428076
21
4.5
31
0
39
0
210
0
220
0
230
1
0
LINE
5
10B
100
AcDbEntity
8
4
62
256
6
ByLayer
370
18
48
0.05
60
0
100
AcDbLine
10
-14.631924
20
0
30
0
11
25.868076
21
0
31
0
39
0
210
0
220
0
230
1
0
LINE
5
10D
100
AcDbEntity
8
80
62
256
6
ByLayer
370
18
48
1
60
0
100
AcDbLine
10
0
20
0
30
0
11
-4.066326
21
0
31
0
39
0
210
0
220
0
230
1
0
LINE
5
10E
100
AcDbEntity
8
81
62
256
6
ByLayer
370
18
48
1
60
0
100
AcDbLine
10
0
20
0
30
0
11
4.938422
21
0
31
0
39
0
210
0
220
0
230
1
0
MTEXT
5
166
100
AcDbEntity
8
SK6
62
256
6
ByLayer
370
13
48
1
60
0
100
AcDbMText
10
-50.737572
20
-14.9456
30
0
210
0
220
0
230
1
1
\W0.6050;392.ER327-11 09 022
40
3.5
41
0
44
1.069626
50
0
71
7
72
5
7
Arial Unicode MS
0
DIMENSION
5
17F
100
AcDbEntity
8
SK2
62
256
6
ByLayer
370
13
48
1
60
0
100
AcDbDimension
2
DimnDraft3D2
10
24.978076
20
-21.948495
30
0
11
7.209564
21
-21.948495
31
0
70
32
71
5
72
1
41
1
210
0
220
0
230
1
3
Standard
100
AcDbAlignedDimension
13
0
23
-5.5
33
0
14
24.978076
24
-4
34
0
50
0
100
AcDbRotatedDimension
1001
ACAD
1000
DSTYLE
1002
{
1070
   279
1070
     0
1070
   172
1070
     1
1070
   173
1070
     1
1070
   340
1005
173
1070
   271
1070
     2
1070
   272
1070
     2
1070
    77
1070
     1
1070
    73
1070
     0
1070
   171
1070
     3
1070
   274
1070
     4
1070
   177
1070
    35
1070
   176
1070
    35
1070
   178
1070
     7
1070
    48
1040
-0.005
1070
    41
1041
3.302
1070
   147
1041
1.75
1070
    42
1041
0.0
1070
    44
1041
2.0
1070
   140
1041
3.5
1070
   343
1005
0
1070
   344
1005
0
1002
}
0
DIMENSION
5
18A
100
AcDbEntity
8
SK2
62
256
6
ByLayer
370
13
48
1
60
0
100
AcDbDimension
2
DimnDraft3D3
10
-22.159922
20
5.5
30
0
11
-22.784922
21
2.253816
31
0
70
33
71
5
72
1
41
1
210
0
220
0
230
1
3
Standard
100
AcDbAlignedDimension
13
0
23
-5.5
33
0
14
0
24
5.5
34
0
1001
ACAD
1000
DSTYLE
1002
{
1070
   279
1070
     0
1070
    74
1070
     0
1070
   173
1070
     1
1070
   340
1005
173
1070
   271
1070
     0
1070
   272
1070
     2
1070
    77
1070
     1
1070
    73
1070
     0
1070
   171
1070
     3
1070
   274
1070
     4
1070
   177
1070
    35
1070
   176
1070
    35
1070
   178
1070
     7
1070
    48
1040
-0.005
1070
    41
1041
3.302
1070
   147
1041
1.75
1070
    42
1041
0.0
1070
    44
1041
2.0
1070
   140
1041
3.5
1070
   343
1005
0
1070
   344
1005
0
1002
}
0
DIMENSION
5
195
100
AcDbEntity
8
SK2
62
256
6
ByLayer
370
13
48
1
60
0
100
AcDbDimension
2
DimnDraft3D4
10
48.595871
20
4.5
30
0
11
43.970871
21
1.681301
31
0
70
33
71
5
72
1
41
1
210
0
220
0
230
1
3
Standard
100
AcDbAlignedDimension
13
24.478076
23
-4.5
33
0
14
24.128076
24
4.5
34
0
1001
ACAD
1000
DSTYLE
1002
{
1070
   279
1070
     0
1070
    74
1070
     0
1070
   173
1070
     1
1070
   340
1005
173
1070
   271
1070
     0
1070
   272
1070
     2
1070
    77
1070
     1
1070
    73
1070
     0
1070
   171
1070
     3
1070
   274
1070
     4
1070
   177
1070
    35
1070
   176
1070
    35
1070
   178
1070
     7
1070
    48
1040
-0.005
1070
    41
1041
3.302
1070
   147
1041
1.75
1070
    42
1041
0.0
1070
    44
1041
2.0
1070
   140
1041
3.5
1070
   343
1005
0
1070
   344
1005
0
1002
}
0
DIMENSION
5
1A0
100
AcDbEntity
8
2
62
256
6
ByLayer
370
13
48
1
60
0
100
AcDbDimension
2
DimnDraft3D5
10
24.978076
20
-13.355263
30
0
11
12.261474
21
-13.355263
31
0
70
32
71
5
72
1
41
1
210
0
220
0
230
1
3
Standard
100
AcDbAlignedDimension
13
8.924871
23
-4.5
33
0
14
24.978076
24
-4
34
0
50
0
100
AcDbRotatedDimension
1001
ACAD
1000
DSTYLE
1002
{
1070
   279
1070
     0
1070
   172
1070
     1
1070
   173
1070
     1
1070
   340
1005
173
1070
   271
1070
     2
1070
   272
1070
     2
1070
    77
1070
     1
1070
    73
1070
     0
1070
   171
1070
     3
1070
   274
1070
     4
1070
   177
1070
    35
1070
   176
1070
    35
1070
   178
1070
     7
1070
    48
1040
-0.005
1070
    41
1041
3.302
1070
   147
1041
1.75
1070
    42
1041
0.0
1070
    44
1041
2.0
1070
   140
1041
3.5
1070
   343
1005
0
1070
   344
1005
0
1002
}
0
ENDSEC
0
SECTION
2
OBJECTS
0
DICTIONARY
5
20d
330
0
100
AcDbDictionary
280
0
281
1
3
ACAD_GROUP
350
20e
3
ACAD_GROUP
350
20f
3
ACAD_MLINESTYLE
350
210
0
DICTIONARY
5
20e
330
0
100
AcDbDictionary
280
0
281
1
0
DICTIONARY
5
20f
330
0
100
AcDbDictionary
280
0
281
1
3
<200789109MOD000_01>
350
1A9
0
DICTIONARY
5
210
330
0
100
AcDbDictionary
280
0
281
1
3
Standard
350
18
0
GROUP
5
1A9
330
20f
100
AcDbGroup
300

70
0
71
1
340
6C
340
6E
340
70
340
72
340
73
340
74
340
75
340
76
340
77
340
78
340
79
340
7A
340
7B
340
7C
340
7E
340
7F
340
80
340
81
340
82
340
83
340
84
340
85
340
86
340
87
340
88
340
89
340
8A
340
8B
340
8C
340
8D
340
8E
340
8F
340
90
340
91
340
92
340
93
340
94
340
95
340
96
340
97
340
98
340
99
340
9A
340
9B
340
9C
340
9D
340
9E
340
9F
340
A0
340
A1
340
A2
340
A3
340
A4
340
A5
340
A6
340
A7
340
A8
340
AA
340
AB
340
AC
340
AD
340
AE
340
AF
340
B0
340
B1
340
B2
340
B3
340
B4
340
B5
340
B6
340
B7
340
B8
340
B9
340
BA
340
BB
340
BC
340
BD
340
BE
340
BF
340
C0
340
C1
340
C2
340
C3
340
C4
340
C5
340
C6
340
C7
340
C8
340
C9
340
CA
340
CB
340
CC
340
CD
340
CE
340
CF
340
D0
340
D1
340
D2
340
D3
340
D4
340
D5
340
D6
340
D7
340
D8
340
D9
340
DA
340
DB
340
DC
340
DD
340
DE
340
DF
340
E0
340
E1
340
E2
340
E3
340
E4
340
E5
340
E6
340
E7
340
E8
340
E9
340
EA
340
EB
340
EC
340
ED
340
EE
340
EF
340
F0
340
F1
340
F2
340
F3
340
F4
340
F5
340
F6
340
F7
340
F8
340
F9
340
FA
340
FB
340
FC
340
FD
340
FE
340
FF
340
100
340
101
340
102
340
103
340
104
340
105
340
106
340
107
340
108
340
109
340
10A
340
10B
340
10D
340
10E
340
10F
340
110
340
111
340
112
340
113
340
114
340
115
340
116
340
117
340
118
340
119
340
11A
340
11B
340
11C
340
11D
340
11E
340
11F
340
120
340
121
340
122
340
123
340
124
340
125
340
126
340
127
340
128
340
129
340
12A
340
12B
340
12C
340
12D
340
12E
340
12F
340
130
340
131
340
132
340
133
340
134
340
135
340
136
340
137
340
138
340
139
340
13A
340
13B
340
13C
340
13D
340
13E
340
13F
340
140
340
141
340
142
340
143
340
144
340
145
340
146
340
147
340
148
340
149
340
14A
340
14B
340
14C
340
14D
340
14E
340
14F
340
150
340
151
340
152
340
153
340
154
340
155
340
156
340
157
340
158
340
159
340
15A
340
15B
340
15C
340
15D
340
15E
340
15F
340
160
340
161
340
162
340
163
340
164
340
165
340
166
340
175
340
17F
340
18A
340
195
340
1A0
0
MLINESTYLE
5
18
330
210
100
AcDbMlineStyle
2
Standard
70
0
3

62
256
51
90
52
90
71
2
49
-0.5
62
256
6
ByLayer
49
0.5
62
256
6
ByLayer
0
RASTERVARIABLES
5
1fa
330

100
AcDbRasterVariables
90
0
70
1
71
1
72
1
0
ENDSEC
0
EOF
