0
SECTION
2
HEADER
9
$ACADVER
1
AC1015
9
$DWGCODEPAGE
3
ANSI_1252
9
$HANDSEED
5
1aa
9
$ANGBASE
50
0
9
$ANGDIR
70
0
9
$ATTMODE
70
1
9
$AUNITS
70
0
9
$AUPREC
70
0
9
$CECOLOR
62
256
9
$CELTSCALE
40
1
9
$CELTYPE
6
ByLayer
9
$CELWEIGHT
370
18
9
$CLAYER
8
0
9
$CMLJUST
70
0
9
$CMLSCALE
40
1
9
$CMLSTYLE
2
Standard
9
$DIMSTYLE
2
Standard
9
$TEXTSIZE
40
0.2
9
$TEXTSTYLE
7
Standard
9
$LUNITS
70
2
9
$LUPREC
70
4
9
$EXTNAMES
290
1
9
$INSUNITS
70
4
9
$LTSCALE
40
1
9
$LWDISPLAY
290
1
9
$PDMODE
70
0
9
$PDSIZE
40
0
9
$PLINEGEN
70
0
0
ENDSEC
0
SECTION
2
CLASSES
0
CLASS
1
RASTERVARIABLES
2
AcDbRasterVariables
3
ISM
90
0
280
0
281
0
0
ENDSEC
0
SECTION
2
TABLES
0
TABLE
2
VPORT
5
1a0
100
AcDbSymbolTable
0
VPORT
5
1
100
AcDbSymbolTableRecord
100
AcDbViewportTableRecord
2
*Active
70
0
10
0
20
0
11
1
21
1
12
-1
22
1
13
0
23
0
14
0.5
24
0.5
15
10
25
10
16
0
26
0
36
1
17
0
27
0
37
0
0
ENDTAB
0
TABLE
2
LTYPE
5
1a1
100
AcDbSymbolTable
0
LTYPE
5
14
100
AcDbSymbolTableRecord
100
AcDbLinetypeTableRecord
70
0
2
ByBlock
3

72
65
73
0
40
0
0
LTYPE
5
15
100
AcDbSymbolTableRecord
100
AcDbLinetypeTableRecord
70
0
2
ByLayer
3

72
65
73
0
40
0
0
LTYPE
5
16
100
AcDbSymbolTableRecord
100
AcDbLinetypeTableRecord
70
0
2
CONTINUOUS
3
Solid line
72
65
73
0
40
0
0
LTYPE
5
6A
100
AcDbSymbolTableRecord
100
AcDbLinetypeTableRecord
70
0
2
CENTER
3
____ _ ____ _ ____ _ ____
72
65
73
4
40
47.5
49
22
74
0
49
-8.5
74
0
49
8.5
74
0
49
-8.5
74
0
0
LTYPE
5
6B
100
AcDbSymbolTableRecord
100
AcDbLinetypeTableRecord
70
0
2
DASHED
3
__ __ __ __ __ __ __ __ __
72
65
73
2
40
25.72
49
12.86
74
0
49
-12.86
74
0
0
ENDTAB
0
TABLE
2
LAYER
5
1a2
100
AcDbSymbolTable
0
LAYER
5
10
100
AcDbSymbolTableRecord
100
AcDbLayerTableRecord
2
0
70
0
62
7
6
CONTINUOUS
290
1
370
-3
390
0
0
LAYER
5
6D
100
AcDbSymbolTableRecord
100
AcDbLayerTableRecord
2
80
70
0
62
-6
6
CONTINUOUS
290
1
370
-3
390
0
0
LAYER
5
6F
100
AcDbSymbolTableRecord
100
AcDbLayerTableRecord
2
81
70
0
62
-3
6
CONTINUOUS
290
1
370
-3
390
0
0
LAYER
5
71
100
AcDbSymbolTableRecord
100
AcDbLayerTableRecord
2
1
70
0
62
4
6
CONTINUOUS
290
1
370
-3
390
0
0
LAYER
5
A6
100
AcDbSymbolTableRecord
100
AcDbLayerTableRecord
2
4
70
0
62
-2
6
CENTER
290
1
370
-3
390
0
0
LAYER
5
D1
100
AcDbSymbolTableRecord
100
AcDbLayerTableRecord
2
2
70
0
62
7
6
CONTINUOUS
290
1
370
-3
390
0
0
LAYER
5
18b
100
AcDbSymbolTableRecord
100
AcDbLayerTableRecord
2
SK1
70
0
62
4
6
CONTINUOUS
290
1
370
-3
390
0
0
LAYER
5
18c
100
AcDbSymbolTableRecord
100
AcDbLayerTableRecord
2
SK3
70
0
62
1
6
DASHED
290
1
370
-3
390
0
0
LAYER
5
18d
100
AcDbSymbolTableRecord
100
AcDbLayerTableRecord
2
SK4
70
0
62
2
6
CENTER
290
1
370
-3
390
0
0
LAYER
5
18e
100
AcDbSymbolTableRecord
100
AcDbLayerTableRecord
2
SK2
70
0
62
7
6
CONTINUOUS
290
1
370
-3
390
0
0
LAYER
5
18f
100
AcDbSymbolTableRecord
100
AcDbLayerTableRecord
2
SK6
70
0
62
5
6
CONTINUOUS
290
1
370
-3
390
0
0
ENDTAB
0
TABLE
2
STYLE
5
1a3
100
AcDbSymbolTable
0
STYLE
5
11
100
AcDbSymbolTableRecord
100
AcDbTextStyleTableRecord
2
Standard
3
txt
70
0
71
0
40
0
41
1
42
0
50
0
0
STYLE
5
BA
100
AcDbSymbolTableRecord
100
AcDbTextStyleTableRecord
2
iso_b_vert
3
simplex.shx
70
0
71
0
40
0
41
1
42
0
50
0
0
STYLE
5
BB
100
AcDbSymbolTableRecord
100
AcDbTextStyleTableRecord
2
DWGDirectTextStyle
3
simplex
70
0
71
0
40
0
41
1
42
0
50
0
0
ENDTAB
0
TABLE
2
DIMSTYLE
5
1a4
100
AcDbSymbolTable
100
AcDbDimStyleTable
0
DIMSTYLE
105
27
100
AcDbSymbolTableRecord
100
AcDbDimStyleTableRecord
2
Standard
70
0
3
<>
41
0.18
42
0.0625
44
0.18
140
0.18
147
0.09
73
0
74
0
77
1
271
2
275
0
278
52
280
0
340
11
0
ENDTAB
0
TABLE
2
VIEW
5
1a5
100
AcDbSymbolTable
0
ENDTAB
0
TABLE
2
UCS
5
1a6
100
AcDbSymbolTable
0
ENDTAB
0
TABLE
2
APPID
5
1a7
100
AcDbSymbolTable
0
APPID
5
12
100
AcDbSymbolTableRecord
100
AcDbRegAppTableRecord
2
ACAD
70
0
0
ENDTAB
0
TABLE
2
BLOCK_RECORD
5
1a8
100
AcDbSymbolTable
0
BLOCK_RECORD
5
1F
100
AcDbSymbolTableRecord
100
AcDbBlockTableRecord
2
*Model_Space
340
0
70
0
0
BLOCK_RECORD
5
1B
100
AcDbSymbolTableRecord
100
AcDbBlockTableRecord
2
*Paper_Space
340
0
70
0
0
BLOCK_RECORD
5
23
100
AcDbSymbolTableRecord
100
AcDbBlockTableRecord
2
*Paper_Space0
340
0
70
0
0
BLOCK_RECORD
5
AF
100
AcDbSymbolTableRecord
100
AcDbBlockTableRecord
2
LABLE3D_1
340
0
70
0
0
BLOCK_RECORD
5
B0
100
AcDbSymbolTableRecord
100
AcDbBlockTableRecord
2
_CLOSED
340
0
70
0
0
BLOCK_RECORD
5
C1
100
AcDbSymbolTableRecord
100
AcDbBlockTableRecord
2
DimnDraft3D1
340
0
70
0
0
BLOCK_RECORD
5
CF
100
AcDbSymbolTableRecord
100
AcDbBlockTableRecord
2
DimnDraft3D2
340
0
70
0
0
BLOCK_RECORD
5
DE
100
AcDbSymbolTableRecord
100
AcDbBlockTableRecord
2
DimnDraft3D3
340
0
70
0
0
BLOCK_RECORD
5
EC
100
AcDbSymbolTableRecord
100
AcDbBlockTableRecord
2
DimnDraft3D4
340
0
70
0
0
BLOCK_RECORD
5
FA
100
AcDbSymbolTableRecord
100
AcDbBlockTableRecord
2
DimnDraft3D5
340
0
70
0
0
BLOCK_RECORD
5
108
100
AcDbSymbolTableRecord
100
AcDbBlockTableRecord
2
DimnDraft3D6
340
0
70
0
0
BLOCK_RECORD
5
116
100
AcDbSymbolTableRecord
100
AcDbBlockTableRecord
2
DimnDraft3D7
340
0
70
0
0
BLOCK_RECORD
5
124
100
AcDbSymbolTableRecord
100
AcDbBlockTableRecord
2
DimnDraft3D8
340
0
70
0
0
ENDTAB
0
ENDSEC
0
SECTION
2
BLOCKS
0
BLOCK
5
20
100
AcDbEntity
8
0
100
AcDbBlockBegin
2
*Model_Space
70
0
10
0
20
0
30
0
3
*Model_Space
0
ENDBLK
5
21
100
AcDbEntity
8
0
100
AcDbBlockEnd
0
BLOCK
5
1C
100
AcDbEntity
8
0
100
AcDbBlockBegin
2
*Paper_Space
70
0
10
0
20
0
30
0
3
*Paper_Space
0
ENDBLK
5
1D
100
AcDbEntity
8
0
100
AcDbBlockEnd
0
BLOCK
5
24
100
AcDbEntity
8
0
100
AcDbBlockBegin
2
*Paper_Space0
70
0
10
0
20
0
30
0
3
*Paper_Space0
0
ENDBLK
5
25
100
AcDbEntity
8
0
100
AcDbBlockEnd
0
BLOCK
5
BD
100
AcDbEntity
8
0
100
AcDbBlockBegin
2
LABLE3D_1
70
0
10
0
20
0
30
0
3
LABLE3D_1
0
MTEXT
5
B9
100
AcDbEntity
8
SK2
62
256
6
ByLayer
370
18
48
1
60
0
100
AcDbMText
10
-82.104121
20
36.49322
30
0
210
0
220
0
230
1
1
\W0.7998;TAPER ISO 30\PMAS 403 BT 30
40
2.999994
41
0
44
1.084337
50
0
71
7
72
5
7
iso_b_vert
0
ENDBLK
5
BE
100
AcDbEntity
8
0
100
AcDbBlockEnd
0
BLOCK
5
B1
100
AcDbEntity
8
0
100
AcDbBlockBegin
2
_CLOSED
70
0
10
0
20
0
30
0
3
_CLOSED
0
LINE
5
B3
100
AcDbEntity
8
0
62
256
6
ByLayer
370
-2
48
1
60
0
100
AcDbLine
10
-1
20
0.166667
30
0
11
0
21
0
31
0
39
0
210
0
220
0
230
1
0
LINE
5
B4
100
AcDbEntity
8
0
62
256
6
ByLayer
370
-2
48
1
60
0
100
AcDbLine
10
0
20
0
30
0
11
-1
21
-0.166667
31
0
39
0
210
0
220
0
230
1
0
LINE
5
B5
100
AcDbEntity
8
0
62
256
6
ByLayer
370
-2
48
1
60
0
100
AcDbLine
10
-1
20
0.166667
30
0
11
-1
21
-0.166667
31
0
39
0
210
0
220
0
230
1
0
LINE
5
B6
100
AcDbEntity
8
0
62
256
6
ByLayer
370
-2
48
1
60
0
100
AcDbLine
10
0
20
0
30
0
11
-1
21
0
31
0
39
0
210
0
220
0
230
1
0
ENDBLK
5
B2
100
AcDbEntity
8
0
100
AcDbBlockEnd
0
BLOCK
5
CC
100
AcDbEntity
8
0
100
AcDbBlockBegin
2
DimnDraft3D1
70
0
10
0
20
0
30
0
3
DimnDraft3D1
0
MTEXT
5
C2
100
AcDbEntity
8
SK2
62
256
6
ByLayer
370
13
48
1
60
0
100
AcDbMText
10
-10.387326
20
-2.625307
30
0
210
0
220
0
230
1
1
\W0.7423;%%c 31.75
40
2.999994
41
0
44
1.084337
50
90
71
7
72
5
7
iso_b_vert
0
LINE
5
C3
100
AcDbEntity
8
SK2
62
256
6
ByLayer
370
13
48
1
60
0
100
AcDbLine
10
-1.299036
20
16.625
30
0
11
-12.235398
21
22.939112
31
0
39
0
210
0
220
0
230
1
0
LINE
5
C4
100
AcDbEntity
8
SK2
62
256
6
ByLayer
370
13
48
1
60
0
100
AcDbLine
10
-1.299036
20
-15.125003
30
0
11
-12.235398
21
-8.810892
31
0
39
0
210
0
220
0
230
1
0
LINE
5
C5
100
AcDbEntity
8
SK2
62
256
6
ByLayer
370
13
48
1
60
0
100
AcDbLine
10
-9.637327
20
21.439115
30
0
11
-9.637327
21
-10.310889
31
0
39
0
210
0
220
0
230
1
0
LINE
5
C6
100
AcDbEntity
8
SK2
62
256
6
ByLayer
370
13
48
1
60
0
100
AcDbLine
10
-9.637327
20
21.439115
30
0
11
-9.24237
21
18.439123
31
0
39
0
210
0
220
0
230
1
0
LINE
5
C7
100
AcDbEntity
8
SK2
62
256
6
ByLayer
370
13
48
1
60
0
100
AcDbLine
10
-9.637327
20
21.439115
30
0
11
-10.032284
21
18.43912
31
0
39
0
210
0
220
0
230
1
0
LINE
5
C8
100
AcDbEntity
8
SK2
62
256
6
ByLayer
370
13
48
1
60
0
100
AcDbLine
10
-9.24237
20
18.439123
30
0
11
-10.032284
21
18.43912
31
0
39
0
210
0
220
0
230
1
0
LINE
5
C9
100
AcDbEntity
8
SK2
62
256
6
ByLayer
370
13
48
1
60
0
100
AcDbLine
10
-9.637327
20
-10.310889
30
0
11
-10.032284
21
-7.310896
31
0
39
0
210
0
220
0
230
1
0
LINE
5
CA
100
AcDbEntity
8
SK2
62
256
6
ByLayer
370
13
48
1
60
0
100
AcDbLine
10
-9.637327
20
-10.310889
30
0
11
-9.24237
21
-7.310893
31
0
39
0
210
0
220
0
230
1
0
LINE
5
CB
100
AcDbEntity
8
SK2
62
256
6
ByLayer
370
13
48
1
60
0
100
AcDbLine
10
-10.032284
20
-7.310896
30
0
11
-9.24237
21
-7.310893
31
0
39
0
210
0
220
0
230
1
0
ENDBLK
5
CD
100
AcDbEntity
8
0
100
AcDbBlockEnd
0
BLOCK
5
DB
100
AcDbEntity
8
0
100
AcDbBlockBegin
2
DimnDraft3D2
70
0
10
0
20
0
30
0
3
DimnDraft3D2
0
MTEXT
5
D0
100
AcDbEntity
8
2
62
256
6
ByLayer
370
18
48
1
60
0
100
AcDbMText
10
41.997364
20
49.655405
30
0
210
0
220
0
230
1
1
\W0.6562;86
40
2.999994
41
0
44
1.084337
50
0
71
7
72
5
7
iso_b_vert
0
LINE
5
D2
100
AcDbEntity
8
2
62
256
6
ByLayer
370
13
48
1
60
0
100
AcDbLine
10
0
20
20.609676
30
0
11
0
21
51.905401
31
0
39
0
210
0
220
0
230
1
0
LINE
5
D3
100
AcDbEntity
8
2
62
256
6
ByLayer
370
13
48
1
60
0
100
AcDbLine
10
85.999987
20
11.099997
30
0
11
85.999987
21
51.905401
31
0
39
0
210
0
220
0
230
1
0
LINE
5
D4
100
AcDbEntity
8
2
62
256
6
ByLayer
370
13
48
1
60
0
100
AcDbLine
10
0
20
48.905407
30
0
11
85.999987
21
48.905407
31
0
39
0
210
0
220
0
230
1
0
LINE
5
D5
100
AcDbEntity
8
2
62
256
6
ByLayer
370
13
48
1
60
0
100
AcDbLine
10
0
20
48.905407
30
0
11
2.999993
21
49.300364
31
0
39
0
210
0
220
0
230
1
0
LINE
5
D6
100
AcDbEntity
8
2
62
256
6
ByLayer
370
13
48
1
60
0
100
AcDbLine
10
0
20
48.905407
30
0
11
2.999995
21
48.51045
31
0
39
0
210
0
220
0
230
1
0
LINE
5
D7
100
AcDbEntity
8
2
62
256
6
ByLayer
370
13
48
1
60
0
100
AcDbLine
10
2.999993
20
49.300364
30
0
11
2.999995
21
48.51045
31
0
39
0
210
0
220
0
230
1
0
LINE
5
D8
100
AcDbEntity
8
2
62
256
6
ByLayer
370
13
48
1
60
0
100
AcDbLine
10
85.999987
20
48.905407
30
0
11
82.999994
21
48.51045
31
0
39
0
210
0
220
0
230
1
0
LINE
5
D9
100
AcDbEntity
8
2
62
256
6
ByLayer
370
13
48
1
60
0
100
AcDbLine
10
85.999987
20
48.905407
30
0
11
82.999991
21
49.300364
31
0
39
0
210
0
220
0
230
1
0
LINE
5
DA
100
AcDbEntity
8
2
62
256
6
ByLayer
370
13
48
1
60
0
100
AcDbLine
10
82.999994
20
48.51045
30
0
11
82.999991
21
49.300364
31
0
39
0
210
0
220
0
230
1
0
ENDBLK
5
DC
100
AcDbEntity
8
0
100
AcDbBlockEnd
0
BLOCK
5
E9
100
AcDbEntity
8
0
100
AcDbBlockBegin
2
DimnDraft3D3
70
0
10
0
20
0
30
0
3
DimnDraft3D3
0
MTEXT
5
DF
100
AcDbEntity
8
SK2
62
256
6
ByLayer
370
13
48
1
60
0
100
AcDbMText
10
-27.207901
20
49.655404
30
0
210
0
220
0
230
1
1
\W0.7721;48.4
40
3
41
0
44
1.084337
50
0
71
7
72
5
7
iso_b_vert
0
LINE
5
E0
100
AcDbEntity
8
SK2
62
256
6
ByLayer
370
13
48
1
60
0
100
AcDbLine
10
-48.400013
20
9.884228
30
0
11
-48.400013
21
51.905404
31
0
39
0
210
0
220
0
230
1
0
LINE
5
E1
100
AcDbEntity
8
SK2
62
256
6
ByLayer
370
13
48
1
60
0
100
AcDbLine
10
0
20
20.609679
30
0
11
0
21
51.905404
31
0
39
0
210
0
220
0
230
1
0
LINE
5
E2
100
AcDbEntity
8
SK2
62
256
6
ByLayer
370
13
48
1
60
0
100
AcDbLine
10
-48.400013
20
48.905404
30
0
11
0
21
48.905404
31
0
39
0
210
0
220
0
230
1
0
LINE
5
E3
100
AcDbEntity
8
SK2
62
256
6
ByLayer
370
13
48
1
60
0
100
AcDbLine
10
-48.400013
20
48.905404
30
0
11
-45.400015
21
49.434385
31
0
39
0
210
0
220
0
230
1
0
LINE
5
E4
100
AcDbEntity
8
SK2
62
256
6
ByLayer
370
13
48
1
60
0
100
AcDbLine
10
-48.400013
20
48.905404
30
0
11
-45.400012
21
48.376423
31
0
39
0
210
0
220
0
230
1
0
LINE
5
E5
100
AcDbEntity
8
SK2
62
256
6
ByLayer
370
13
48
1
60
0
100
AcDbLine
10
-45.400015
20
49.434385
30
0
11
-45.400012
21
48.376423
31
0
39
0
210
0
220
0
230
1
0
LINE
5
E6
100
AcDbEntity
8
SK2
62
256
6
ByLayer
370
13
48
1
60
0
100
AcDbLine
10
0
20
48.905404
30
0
11
-2.999998
21
48.376423
31
0
39
0
210
0
220
0
230
1
0
LINE
5
E7
100
AcDbEntity
8
SK2
62
256
6
ByLayer
370
13
48
1
60
0
100
AcDbLine
10
0
20
48.905404
30
0
11
-3.000002
21
49.434385
31
0
39
0
210
0
220
0
230
1
0
LINE
5
E8
100
AcDbEntity
8
SK2
62
256
6
ByLayer
370
13
48
1
60
0
100
AcDbLine
10
-2.999998
20
48.376423
30
0
11
-3.000002
21
49.434385
31
0
39
0
210
0
220
0
230
1
0
ENDBLK
5
EA
100
AcDbEntity
8
0
100
AcDbBlockEnd
0
BLOCK
5
F7
100
AcDbEntity
8
0
100
AcDbBlockBegin
2
DimnDraft3D4
70
0
10
0
20
0
30
0
3
DimnDraft3D4
0
MTEXT
5
ED
100
AcDbEntity
8
SK2
62
256
6
ByLayer
370
13
48
1
60
0
100
AcDbMText
10
9.997362
20
38.39316
30
0
210
0
220
0
230
1
1
\W0.6563;22
40
3
41
0
44
1.084337
50
0
71
7
72
5
7
iso_b_vert
0
LINE
5
EE
100
AcDbEntity
8
SK2
62
256
6
ByLayer
370
13
48
1
60
0
100
AcDbLine
10
0
20
20.609679
30
0
11
0
21
40.64316
31
0
39
0
210
0
220
0
230
1
0
LINE
5
EF
100
AcDbEntity
8
SK2
62
256
6
ByLayer
370
13
48
1
60
0
100
AcDbLine
10
21.999987
20
24.5
30
0
11
21.999987
21
40.64316
31
0
39
0
210
0
220
0
230
1
0
LINE
5
F0
100
AcDbEntity
8
SK2
62
256
6
ByLayer
370
13
48
1
60
0
100
AcDbLine
10
0
20
37.64316
30
0
11
21.999987
21
37.64316
31
0
39
0
210
0
220
0
230
1
0
LINE
5
F1
100
AcDbEntity
8
SK2
62
256
6
ByLayer
370
13
48
1
60
0
100
AcDbLine
10
0
20
37.64316
30
0
11
2.999998
21
38.172141
31
0
39
0
210
0
220
0
230
1
0
LINE
5
F2
100
AcDbEntity
8
SK2
62
256
6
ByLayer
370
13
48
1
60
0
100
AcDbLine
10
0
20
37.64316
30
0
11
3.000002
21
37.114179
31
0
39
0
210
0
220
0
230
1
0
LINE
5
F3
100
AcDbEntity
8
SK2
62
256
6
ByLayer
370
13
48
1
60
0
100
AcDbLine
10
2.999998
20
38.172141
30
0
11
3.000002
21
37.114179
31
0
39
0
210
0
220
0
230
1
0
LINE
5
F4
100
AcDbEntity
8
SK2
62
256
6
ByLayer
370
13
48
1
60
0
100
AcDbLine
10
21.999987
20
37.64316
30
0
11
18.999988
21
37.114179
31
0
39
0
210
0
220
0
230
1
0
LINE
5
F5
100
AcDbEntity
8
SK2
62
256
6
ByLayer
370
13
48
1
60
0
100
AcDbLine
10
21.999987
20
37.64316
30
0
11
18.999985
21
38.172141
31
0
39
0
210
0
220
0
230
1
0
LINE
5
F6
100
AcDbEntity
8
SK2
62
256
6
ByLayer
370
13
48
1
60
0
100
AcDbLine
10
18.999988
20
37.114179
30
0
11
18.999985
21
38.172141
31
0
39
0
210
0
220
0
230
1
0
ENDBLK
5
F8
100
AcDbEntity
8
0
100
AcDbBlockEnd
0
BLOCK
5
105
100
AcDbEntity
8
0
100
AcDbBlockBegin
2
DimnDraft3D5
70
0
10
0
20
0
30
0
3
DimnDraft3D5
0
MTEXT
5
FB
100
AcDbEntity
8
SK2
62
256
6
ByLayer
370
18
48
1
60
0
100
AcDbMText
10
104.480699
20
-4.816626
30
0
210
0
220
0
230
1
1
\W0.7367;%%c 19.2
40
3
41
0
44
1.084337
50
90
71
7
72
5
7
iso_b_vert
0
LINE
5
FC
100
AcDbEntity
8
SK2
62
256
6
ByLayer
370
13
48
1
60
0
100
AcDbLine
10
87.499987
20
-9.6
30
0
11
108.230699
21
-9.6
31
0
39
0
210
0
220
0
230
1
0
LINE
5
FD
100
AcDbEntity
8
SK2
62
256
6
ByLayer
370
13
48
1
60
0
100
AcDbLine
10
87.499987
20
9.6
30
0
11
108.230699
21
9.6
31
0
39
0
210
0
220
0
230
1
0
LINE
5
FE
100
AcDbEntity
8
SK2
62
256
6
ByLayer
370
13
48
1
60
0
100
AcDbLine
10
105.230699
20
-9.6
30
0
11
105.230699
21
9.6
31
0
39
0
210
0
220
0
230
1
0
LINE
5
FF
100
AcDbEntity
8
SK2
62
256
6
ByLayer
370
13
48
1
60
0
100
AcDbLine
10
105.230699
20
-9.6
30
0
11
104.701719
21
-6.600002
31
0
39
0
210
0
220
0
230
1
0
LINE
5
100
100
AcDbEntity
8
SK2
62
256
6
ByLayer
370
13
48
1
60
0
100
AcDbLine
10
105.230699
20
-9.6
30
0
11
105.75968
21
-6.599998
31
0
39
0
210
0
220
0
230
1
0
LINE
5
101
100
AcDbEntity
8
SK2
62
256
6
ByLayer
370
13
48
1
60
0
100
AcDbLine
10
104.701719
20
-6.600002
30
0
11
105.75968
21
-6.599998
31
0
39
0
210
0
220
0
230
1
0
LINE
5
102
100
AcDbEntity
8
SK2
62
256
6
ByLayer
370
13
48
1
60
0
100
AcDbLine
10
105.230699
20
9.6
30
0
11
105.75968
21
6.600002
31
0
39
0
210
0
220
0
230
1
0
LINE
5
103
100
AcDbEntity
8
SK2
62
256
6
ByLayer
370
13
48
1
60
0
100
AcDbLine
10
105.230699
20
9.6
30
0
11
104.701719
21
6.599998
31
0
39
0
210
0
220
0
230
1
0
LINE
5
104
100
AcDbEntity
8
SK2
62
256
6
ByLayer
370
13
48
1
60
0
100
AcDbLine
10
105.75968
20
6.600002
30
0
11
104.701719
21
6.599998
31
0
39
0
210
0
220
0
230
1
0
ENDBLK
5
106
100
AcDbEntity
8
0
100
AcDbBlockEnd
0
BLOCK
5
113
100
AcDbEntity
8
0
100
AcDbBlockBegin
2
DimnDraft3D6
70
0
10
0
20
0
30
0
3
DimnDraft3D6
0
MTEXT
5
109
100
AcDbEntity
8
SK2
62
256
6
ByLayer
370
18
48
1
60
0
100
AcDbMText
10
-58.751526
20
-3.481579
30
0
210
0
220
0
230
1
1
\W0.8203;%%c 46
40
3
41
0
44
1.084337
50
90
71
7
72
5
7
iso_b_vert
0
LINE
5
10A
100
AcDbEntity
8
SK2
62
256
6
ByLayer
370
13
48
1
60
0
100
AcDbLine
10
0.999987
20
-23
30
0
11
-61.001526
21
-23
31
0
39
0
210
0
220
0
230
1
0
LINE
5
10B
100
AcDbEntity
8
SK2
62
256
6
ByLayer
370
13
48
1
60
0
100
AcDbLine
10
0.999987
20
23
30
0
11
-61.001526
21
23
31
0
39
0
210
0
220
0
230
1
0
LINE
5
10C
100
AcDbEntity
8
SK2
62
256
6
ByLayer
370
13
48
1
60
0
100
AcDbLine
10
-58.001526
20
-23
30
0
11
-58.001526
21
23
31
0
39
0
210
0
220
0
230
1
0
LINE
5
10D
100
AcDbEntity
8
SK2
62
256
6
ByLayer
370
13
48
1
60
0
100
AcDbLine
10
-58.001526
20
-23
30
0
11
-58.530507
21
-20.000002
31
0
39
0
210
0
220
0
230
1
0
LINE
5
10E
100
AcDbEntity
8
SK2
62
256
6
ByLayer
370
13
48
1
60
0
100
AcDbLine
10
-58.001526
20
-23
30
0
11
-57.472545
21
-19.999998
31
0
39
0
210
0
220
0
230
1
0
LINE
5
10F
100
AcDbEntity
8
SK2
62
256
6
ByLayer
370
13
48
1
60
0
100
AcDbLine
10
-58.530507
20
-20.000002
30
0
11
-57.472545
21
-19.999998
31
0
39
0
210
0
220
0
230
1
0
LINE
5
110
100
AcDbEntity
8
SK2
62
256
6
ByLayer
370
13
48
1
60
0
100
AcDbLine
10
-58.001526
20
23
30
0
11
-57.472545
21
20.000002
31
0
39
0
210
0
220
0
230
1
0
LINE
5
111
100
AcDbEntity
8
SK2
62
256
6
ByLayer
370
13
48
1
60
0
100
AcDbLine
10
-58.001526
20
23
30
0
11
-58.530507
21
19.999998
31
0
39
0
210
0
220
0
230
1
0
LINE
5
112
100
AcDbEntity
8
SK2
62
256
6
ByLayer
370
13
48
1
60
0
100
AcDbLine
10
-57.472545
20
20.000002
30
0
11
-58.530507
21
19.999998
31
0
39
0
210
0
220
0
230
1
0
ENDBLK
5
114
100
AcDbEntity
8
0
100
AcDbBlockEnd
0
BLOCK
5
121
100
AcDbEntity
8
0
100
AcDbBlockBegin
2
DimnDraft3D7
70
0
10
0
20
0
30
0
3
DimnDraft3D7
0
MTEXT
5
117
100
AcDbEntity
8
SK2
62
256
6
ByLayer
370
18
48
1
60
0
100
AcDbMText
10
75.00401
20
22.141857
30
0
210
0
220
0
230
1
1
\W0.6563;20
40
3
41
0
44
1.084337
50
0
71
7
72
5
7
iso_b_vert
0
LINE
5
118
100
AcDbEntity
8
SK2
62
256
6
ByLayer
370
13
48
1
60
0
100
AcDbLine
10
66.013297
20
11.1
30
0
11
66.013297
21
24.391857
31
0
39
0
210
0
220
0
230
1
0
LINE
5
119
100
AcDbEntity
8
SK2
62
256
6
ByLayer
370
13
48
1
60
0
100
AcDbLine
10
85.999987
20
11.1
30
0
11
85.999987
21
24.391857
31
0
39
0
210
0
220
0
230
1
0
LINE
5
11A
100
AcDbEntity
8
SK2
62
256
6
ByLayer
370
13
48
1
60
0
100
AcDbLine
10
66.013297
20
21.391857
30
0
11
85.999987
21
21.391857
31
0
39
0
210
0
220
0
230
1
0
LINE
5
11B
100
AcDbEntity
8
SK2
62
256
6
ByLayer
370
13
48
1
60
0
100
AcDbLine
10
66.013297
20
21.391857
30
0
11
69.013295
21
21.920838
31
0
39
0
210
0
220
0
230
1
0
LINE
5
11C
100
AcDbEntity
8
SK2
62
256
6
ByLayer
370
13
48
1
60
0
100
AcDbLine
10
66.013297
20
21.391857
30
0
11
69.013299
21
20.862876
31
0
39
0
210
0
220
0
230
1
0
LINE
5
11D
100
AcDbEntity
8
SK2
62
256
6
ByLayer
370
13
48
1
60
0
100
AcDbLine
10
69.013295
20
21.920838
30
0
11
69.013299
21
20.862876
31
0
39
0
210
0
220
0
230
1
0
LINE
5
11E
100
AcDbEntity
8
SK2
62
256
6
ByLayer
370
13
48
1
60
0
100
AcDbLine
10
85.999987
20
21.391857
30
0
11
82.999988
21
20.862876
31
0
39
0
210
0
220
0
230
1
0
LINE
5
11F
100
AcDbEntity
8
SK2
62
256
6
ByLayer
370
13
48
1
60
0
100
AcDbLine
10
85.999987
20
21.391857
30
0
11
82.999985
21
21.920838
31
0
39
0
210
0
220
0
230
1
0
LINE
5
120
100
AcDbEntity
8
SK2
62
256
6
ByLayer
370
13
48
1
60
0
100
AcDbLine
10
82.999988
20
20.862876
30
0
11
82.999985
21
21.920838
31
0
39
0
210
0
220
0
230
1
0
ENDBLK
5
122
100
AcDbEntity
8
0
100
AcDbBlockEnd
0
BLOCK
5
12F
100
AcDbEntity
8
0
100
AcDbBlockBegin
2
DimnDraft3D8
70
0
10
0
20
0
30
0
3
DimnDraft3D8
0
MTEXT
5
125
100
AcDbEntity
8
SK2
62
256
6
ByLayer
370
18
48
1
60
0
100
AcDbMText
10
53.950851
20
38.39316
30
0
210
0
220
0
230
1
1
\W0.7150;58.7
40
3
41
0
44
1.084337
50
0
71
7
72
5
7
iso_b_vert
0
LINE
5
126
100
AcDbEntity
8
SK2
62
256
6
ByLayer
370
13
48
1
60
0
100
AcDbLine
10
85.999987
20
11.1
30
0
11
85.999987
21
40.64316
31
0
39
0
210
0
220
0
230
1
0
LINE
5
127
100
AcDbEntity
8
SK2
62
256
6
ByLayer
370
13
48
1
60
0
100
AcDbLine
10
27.285926
20
16.542777
30
0
11
27.285926
21
40.64316
31
0
39
0
210
0
220
0
230
1
0
LINE
5
128
100
AcDbEntity
8
SK2
62
256
6
ByLayer
370
13
48
1
60
0
100
AcDbLine
10
85.999987
20
37.64316
30
0
11
27.285926
21
37.64316
31
0
39
0
210
0
220
0
230
1
0
LINE
5
129
100
AcDbEntity
8
SK2
62
256
6
ByLayer
370
13
48
1
60
0
100
AcDbLine
10
85.999987
20
37.64316
30
0
11
82.999988
21
37.114179
31
0
39
0
210
0
220
0
230
1
0
LINE
5
12A
100
AcDbEntity
8
SK2
62
256
6
ByLayer
370
13
48
1
60
0
100
AcDbLine
10
85.999987
20
37.64316
30
0
11
82.999985
21
38.172141
31
0
39
0
210
0
220
0
230
1
0
LINE
5
12B
100
AcDbEntity
8
SK2
62
256
6
ByLayer
370
13
48
1
60
0
100
AcDbLine
10
82.999988
20
37.114179
30
0
11
82.999985
21
38.172141
31
0
39
0
210
0
220
0
230
1
0
LINE
5
12C
100
AcDbEntity
8
SK2
62
256
6
ByLayer
370
13
48
1
60
0
100
AcDbLine
10
27.285926
20
37.64316
30
0
11
30.285924
21
38.172141
31
0
39
0
210
0
220
0
230
1
0
LINE
5
12D
100
AcDbEntity
8
SK2
62
256
6
ByLayer
370
13
48
1
60
0
100
AcDbLine
10
27.285926
20
37.64316
30
0
11
30.285928
21
37.114179
31
0
39
0
210
0
220
0
230
1
0
LINE
5
12E
100
AcDbEntity
8
SK2
62
256
6
ByLayer
370
13
48
1
60
0
100
AcDbLine
10
30.285924
20
38.172141
30
0
11
30.285928
21
37.114179
31
0
39
0
210
0
220
0
230
1
0
ENDBLK
5
130
100
AcDbEntity
8
0
100
AcDbBlockEnd
0
ENDSEC
0
SECTION
2
ENTITIES
0
ARC
5
A7
100
AcDbEntity
8
1
62
256
6
ByLayer
370
18
48
1
60
0
100
AcDbCircle
39
0
10
1.699987
20
16.050228
30
0
40
0.3
210
0
220
0
230
1
100
AcDbArc
50
270
51
0
0
ARC
5
A8
100
AcDbEntity
8
1
62
256
6
ByLayer
370
18
48
1
60
0
100
AcDbCircle
39
0
10
-1.699987
20
-16.050228
30
0
40
0.3
210
0
220
0
230
-1
100
AcDbArc
50
90
51
180
0
ARC
5
A9
100
AcDbEntity
8
SK1
62
256
6
ByLayer
370
18
48
1
60
0
100
AcDbCircle
39
0
10
-47.900013
20
8.384228
30
0
40
0.5
210
0
220
0
230
1
100
AcDbArc
50
98.297222
51
180
0
ARC
5
AA
100
AcDbEntity
8
SK1
62
256
6
ByLayer
370
18
48
1
60
0
100
AcDbCircle
39
0
10
-47.900013
20
-8.384228
30
0
40
0.5
210
0
220
0
230
1
100
AcDbArc
50
180
51
261.702778
0
ARC
5
AB
100
AcDbEntity
8
1
62
256
6
ByLayer
370
18
48
1
60
0
100
AcDbCircle
39
0
10
2.499987
20
22.5
30
0
40
0.5
210
0
220
0
230
1
100
AcDbArc
50
90
51
180
0
ARC
5
AC
100
AcDbEntity
8
1
62
256
6
ByLayer
370
18
48
1
60
0
100
AcDbCircle
39
0
10
2.499987
20
-22.5
30
0
40
0.5
210
0
220
0
230
1
100
AcDbArc
50
180
51
270
0
ARC
5
AD
100
AcDbEntity
8
1
62
256
6
ByLayer
370
18
48
1
60
0
100
AcDbCircle
39
0
10
27.981791
20
19.994117
30
0
40
5
210
0
220
0
230
1
100
AcDbArc
50
195
51
262
0
ARC
5
AE
100
AcDbEntity
8
1
62
256
6
ByLayer
370
18
48
1
60
0
100
AcDbCircle
39
0
10
27.981791
20
-19.994117
30
0
40
5
210
0
220
0
230
1
100
AcDbArc
50
98
51
165
0
POINT
5
6C
100
AcDbEntity
8
80
62
256
6
ByLayer
370
18
48
1
60
0
100
AcDbPoint
10
0
20
0
30
0
39
0
210
0
220
0
230
1
50
360
0
POINT
5
6E
100
AcDbEntity
8
81
62
256
6
ByLayer
370
18
48
1
60
0
100
AcDbPoint
10
86
20
0
30
0
39
0
210
0
220
0
230
1
50
360
0
INSERT
5
BC
100
AcDbEntity
8
SK2
62
256
6
ByLayer
370
18
48
1
60
0
100
AcDbBlockReference
2
LABLE3D_1
10
0
20
0
30
0
41
1
42
1
43
1
50
0
210
0
220
0
230
1
0
LINE
5
70
100
AcDbEntity
8
1
62
256
6
ByLayer
370
18
48
1
60
0
100
AcDbLine
10
2.499987
20
23
30
0
11
9.59815
21
23
31
0
39
0
210
0
220
0
230
1
0
LINE
5
72
100
AcDbEntity
8
1
62
256
6
ByLayer
370
18
48
1
60
0
100
AcDbLine
10
9.59815
20
23
30
0
11
11.597487
21
19.537047
31
0
39
0
210
0
220
0
230
1
0
LINE
5
73
100
AcDbEntity
8
1
62
256
6
ByLayer
370
18
48
1
60
0
100
AcDbLine
10
15.602487
20
19.537047
30
0
11
17.601823
21
23
31
0
39
0
210
0
220
0
230
1
0
LINE
5
74
100
AcDbEntity
8
1
62
256
6
ByLayer
370
18
48
1
60
0
100
AcDbLine
10
11.597487
20
19
30
0
11
15.602487
21
19
31
0
39
0
210
0
220
0
230
1
0
LINE
5
75
100
AcDbEntity
8
1
62
256
6
ByLayer
370
18
48
1
60
0
100
AcDbLine
10
1.999987
20
0
30
0
11
1.999987
21
22.5
31
0
39
0
210
0
220
0
230
1
0
LINE
5
76
100
AcDbEntity
8
SK1
62
256
6
ByLayer
370
18
48
1
60
0
100
AcDbLine
10
-48.400013
20
0
30
0
11
-48.400013
21
8.384228
31
0
39
0
210
0
220
0
230
1
0
LINE
5
78
100
AcDbEntity
8
SK1
62
256
6
ByLayer
370
18
48
1
60
0
100
AcDbLine
10
-48.400013
20
0
30
0
11
-48.400013
21
-8.384228
31
0
39
0
210
0
220
0
230
1
0
LINE
5
79
100
AcDbEntity
8
1
62
256
6
ByLayer
370
18
48
1
60
0
100
AcDbLine
10
1.999987
20
0
30
0
11
1.999987
21
-22.5
31
0
39
0
210
0
220
0
230
1
0
LINE
5
7A
100
AcDbEntity
8
1
62
256
6
ByLayer
370
18
48
1
60
0
100
AcDbLine
10
2.499987
20
-23
30
0
11
9.59815
21
-23
31
0
39
0
210
0
220
0
230
1
0
LINE
5
7B
100
AcDbEntity
8
1
62
256
6
ByLayer
370
13
48
0.05
60
0
100
AcDbLine
10
0
20
-20.265393
30
0
11
0
21
-13.210198
31
0
39
0
210
0
220
0
230
1
0
LINE
5
7C
100
AcDbEntity
8
1
62
256
6
ByLayer
370
13
48
0.05
60
0
100
AcDbLine
10
0
20
12.50691
30
0
11
0
21
19.109679
31
0
39
0
210
0
220
0
230
1
0
LINE
5
7D
100
AcDbEntity
8
SK3
62
256
6
ByLayer
370
13
48
0.05
60
0
100
AcDbLine
10
1.999987
20
-16.2
30
0
11
18.999987
21
-16.2
31
0
39
0
210
0
220
0
230
1
0
LINE
5
7F
100
AcDbEntity
8
SK3
62
256
6
ByLayer
370
13
48
0.05
60
0
100
AcDbLine
10
1.999987
20
16.2
30
0
11
18.999987
21
16.2
31
0
39
0
210
0
220
0
230
1
0
LINE
5
80
100
AcDbEntity
8
1
62
256
6
ByLayer
370
18
48
1
60
0
100
AcDbLine
10
0.445092
20
-0.037172
30
0
11
0.445092
21
15.939912
31
0
39
0
210
0
220
0
230
1
0
LINE
5
81
100
AcDbEntity
8
1
62
256
6
ByLayer
370
18
48
1
60
0
100
AcDbLine
10
1.699987
20
15.750228
30
0
11
1.153001
21
15.750228
31
0
39
0
210
0
220
0
230
1
0
LINE
5
82
100
AcDbEntity
8
1
62
256
6
ByLayer
370
18
48
1
60
0
100
AcDbLine
10
1.153001
20
15.750228
30
0
11
0.445092
21
15.939912
31
0
39
0
210
0
220
0
230
1
0
LINE
5
83
100
AcDbEntity
8
1
62
256
6
ByLayer
370
18
48
1
60
0
100
AcDbLine
10
1.153001
20
0.073144
30
0
11
1.153001
21
15.750228
31
0
39
0
210
0
220
0
230
1
0
LINE
5
84
100
AcDbEntity
8
SK3
62
256
6
ByLayer
370
13
48
0.05
60
0
100
AcDbLine
10
18.999987
20
-23
30
0
11
18.999987
21
-16.2
31
0
39
0
210
0
220
0
230
1
0
LINE
5
85
100
AcDbEntity
8
1
62
256
6
ByLayer
370
18
48
1
60
0
100
AcDbLine
10
0.445092
20
0.037172
30
0
11
0.445092
21
-15.939912
31
0
39
0
210
0
220
0
230
1
0
LINE
5
86
100
AcDbEntity
8
1
62
256
6
ByLayer
370
18
48
1
60
0
100
AcDbLine
10
1.153001
20
-0.073144
30
0
11
1.153001
21
-15.750228
31
0
39
0
210
0
220
0
230
1
0
LINE
5
87
100
AcDbEntity
8
1
62
256
6
ByLayer
370
18
48
1
60
0
100
AcDbLine
10
1.153001
20
-15.750228
30
0
11
0.445092
21
-15.939912
31
0
39
0
210
0
220
0
230
1
0
LINE
5
88
100
AcDbEntity
8
1
62
256
6
ByLayer
370
18
48
1
60
0
100
AcDbLine
10
1.699987
20
-15.750228
30
0
11
1.153001
21
-15.750228
31
0
39
0
210
0
220
0
230
1
0
LINE
5
89
100
AcDbEntity
8
SK3
62
256
6
ByLayer
370
13
48
0.05
60
0
100
AcDbLine
10
18.999987
20
23
30
0
11
18.999987
21
16.2
31
0
39
0
210
0
220
0
230
1
0
LINE
5
8A
100
AcDbEntity
8
SK1
62
256
6
ByLayer
370
18
48
1
60
0
100
AcDbLine
10
0
20
15.875002
30
0
11
-47.972168
21
8.878995
31
0
39
0
210
0
220
0
230
1
0
LINE
5
8B
100
AcDbEntity
8
SK1
62
256
6
ByLayer
370
18
48
1
60
0
100
AcDbLine
10
0
20
-15.875002
30
0
11
-47.972168
21
-8.878995
31
0
39
0
210
0
220
0
230
1
0
LINE
5
8C
100
AcDbEntity
8
1
62
256
6
ByLayer
370
18
48
1
60
0
100
AcDbLine
10
0.445092
20
-15.939912
30
0
11
0
21
-15.875002
31
0
39
0
210
0
220
0
230
1
0
LINE
5
8D
100
AcDbEntity
8
1
62
256
6
ByLayer
370
18
48
1
60
0
100
AcDbLine
10
0.445092
20
15.939912
30
0
11
0
21
15.875002
31
0
39
0
210
0
220
0
230
1
0
LINE
5
8E
100
AcDbEntity
8
1
62
256
6
ByLayer
370
18
48
1
60
0
100
AcDbLine
10
23.152162
20
18.700022
30
0
11
21.999987
21
23
31
0
39
0
210
0
220
0
230
1
0
LINE
5
8F
100
AcDbEntity
8
80
62
256
6
ByLayer
370
13
48
1
60
0
100
AcDbLine
10
0
20
0
30
0
11
-6.033339
21
0
31
0
39
0
210
0
220
0
230
1
0
LINE
5
90
100
AcDbEntity
8
81
62
256
6
ByLayer
370
13
48
1
60
0
100
AcDbLine
10
86
20
0
30
0
11
88.459922
21
0
31
0
39
0
210
0
220
0
230
1
0
LINE
5
91
100
AcDbEntity
8
1
62
256
6
ByLayer
370
18
48
1
60
0
100
AcDbLine
10
17.601823
20
23
30
0
11
21.999987
21
23
31
0
39
0
210
0
220
0
230
1
0
LINE
5
92
100
AcDbEntity
8
1
62
256
6
ByLayer
370
18
48
1
60
0
100
AcDbLine
10
9.59815
20
-23
30
0
11
11.597487
21
-19.537047
31
0
39
0
210
0
220
0
230
1
0
LINE
5
93
100
AcDbEntity
8
1
62
256
6
ByLayer
370
18
48
1
60
0
100
AcDbLine
10
11.597487
20
-19
30
0
11
15.602487
21
-19
31
0
39
0
210
0
220
0
230
1
0
LINE
5
94
100
AcDbEntity
8
1
62
256
6
ByLayer
370
18
48
1
60
0
100
AcDbLine
10
15.602487
20
-19.537047
30
0
11
17.601823
21
-23
31
0
39
0
210
0
220
0
230
1
0
LINE
5
95
100
AcDbEntity
8
1
62
256
6
ByLayer
370
18
48
1
60
0
100
AcDbLine
10
17.601823
20
-23
30
0
11
21.999987
21
-23
31
0
39
0
210
0
220
0
230
1
0
LINE
5
96
100
AcDbEntity
8
1
62
256
6
ByLayer
370
18
48
1
60
0
100
AcDbLine
10
9.59815
20
-23
30
0
11
9.59815
21
23
31
0
39
0
210
0
220
0
230
1
0
LINE
5
97
100
AcDbEntity
8
1
62
256
6
ByLayer
370
18
48
1
60
0
100
AcDbLine
10
11.597487
20
-19.537047
30
0
11
11.597487
21
19.537047
31
0
39
0
210
0
220
0
230
1
0
LINE
5
98
100
AcDbEntity
8
1
62
256
6
ByLayer
370
18
48
1
60
0
100
AcDbLine
10
17.601823
20
-23
30
0
11
17.601823
21
23
31
0
39
0
210
0
220
0
230
1
0
LINE
5
99
100
AcDbEntity
8
1
62
256
6
ByLayer
370
18
48
1
60
0
100
AcDbLine
10
15.602487
20
-19.537047
30
0
11
15.602487
21
19.537047
31
0
39
0
210
0
220
0
230
1
0
LINE
5
9A
100
AcDbEntity
8
1
62
256
6
ByLayer
370
18
48
1
60
0
100
AcDbLine
10
21.999987
20
-23
30
0
11
21.999987
21
23
31
0
39
0
210
0
220
0
230
1
0
LINE
5
9B
100
AcDbEntity
8
1
62
256
6
ByLayer
370
18
48
1
60
0
100
AcDbLine
10
23.152162
20
-18.700022
30
0
11
21.999987
21
-23
31
0
39
0
210
0
220
0
230
1
0
LINE
5
9C
100
AcDbEntity
8
1
62
256
6
ByLayer
370
18
48
1
60
0
100
AcDbLine
10
66.013297
20
9.6
30
0
11
27.285926
21
15.042777
31
0
39
0
210
0
220
0
230
1
0
LINE
5
9D
100
AcDbEntity
8
1
62
256
6
ByLayer
370
18
48
1
60
0
100
AcDbLine
10
66.013297
20
-9.6
30
0
11
27.285926
21
-15.042777
31
0
39
0
210
0
220
0
230
1
0
LINE
5
9E
100
AcDbEntity
8
1
62
256
6
ByLayer
370
18
48
1
60
0
100
AcDbLine
10
66.013297
20
-9.6
30
0
11
85.999987
21
-9.6
31
0
39
0
210
0
220
0
230
1
0
LINE
5
9F
100
AcDbEntity
8
1
62
256
6
ByLayer
370
18
48
1
60
0
100
AcDbLine
10
66.013297
20
9.6
30
0
11
85.999987
21
9.6
31
0
39
0
210
0
220
0
230
1
0
LINE
5
A0
100
AcDbEntity
8
1
62
256
6
ByLayer
370
18
48
1
60
0
100
AcDbLine
10
66.013297
20
9.6
30
0
11
66.013297
21
-9.6
31
0
39
0
210
0
220
0
230
1
0
LINE
5
A1
100
AcDbEntity
8
1
62
256
6
ByLayer
370
18
48
1
60
0
100
AcDbLine
10
85.999987
20
9.6
30
0
11
85.999987
21
-9.6
31
0
39
0
210
0
220
0
230
1
0
LINE
5
A2
100
AcDbEntity
8
1
62
256
6
ByLayer
370
13
48
1
60
0
100
AcDbLine
10
27.285926
20
15.042777
30
0
11
27.285926
21
-15.042777
31
0
39
0
210
0
220
0
230
1
0
LINE
5
A3
100
AcDbEntity
8
SK4
62
256
6
ByLayer
370
13
48
0.05
60
0
100
AcDbLine
10
-49.990336
20
0
30
0
11
87.93547
21
0
31
0
39
0
210
0
220
0
230
1
0
LINE
5
A5
100
AcDbEntity
8
4
62
256
6
ByLayer
370
13
48
0.05
60
0
100
AcDbLine
10
0
20
0
30
0
11
86
21
0
31
0
39
0
210
0
220
0
230
1
0
MTEXT
5
BF
100
AcDbEntity
8
SK6
62
256
6
ByLayer
370
18
48
1
60
0
100
AcDbMText
10
-51.803966
20
-35.127102
30
0
210
0
220
0
230
1
1
\W0.7300;392.55EH-30 20 086
40
3.5
41
0
44
1.084337
50
0
71
7
72
5
7
iso_b_vert
0
DIMENSION
5
CE
100
AcDbEntity
8
SK2
62
256
6
ByLayer
370
13
48
1
60
0
100
AcDbDimension
2
DimnDraft3D1
10
-9.637327
20
-10.310889
30
0
11
-9.637327
21
-3.375306
31
0
70
32
71
5
72
1
41
1
210
0
220
0
230
1
3
Standard
100
AcDbAlignedDimension
13
-1.299036
23
16.625
33
0
14
-1.299036
24
-15.125003
34
0
50
90
100
AcDbRotatedDimension
1001
ACAD
1000
DSTYLE
1002
{
1070
    74
1070
     0
1070
   279
1070
     0
1070
   173
1070
     1
1070
   340
1005
BA
1070
   271
1070
     0
1070
   272
1070
     2
1070
    77
1070
     1
1070
    73
1070
     0
1070
   171
1070
     4
1070
   274
1070
     4
1070
   177
1070
     7
1070
   176
1070
     7
1070
   178
1070
     7
1070
    41
1041
2.999994
1070
   147
1041
1.499997
1070
    42
1041
1.499997
1070
    44
1041
2.999994
1070
   140
1041
2.999994
1070
   343
1005
B0
1070
   344
1005
B0
1002
}
0
DIMENSION
5
DD
100
AcDbEntity
8
2
62
256
6
ByLayer
370
13
48
1
60
0
100
AcDbDimension
2
DimnDraft3D2
10
85.999987
20
48.905407
30
0
11
41.247365
21
48.905407
31
0
70
32
71
5
72
1
41
1
210
0
220
0
230
1
3
Standard
100
AcDbAlignedDimension
13
0
23
20.609676
33
0
14
85.999987
24
11.099997
34
0
50
0
100
AcDbRotatedDimension
1001
ACAD
1000
DSTYLE
1002
{
1070
   279
1070
     0
1070
   173
1070
     1
1070
   340
1005
BA
1070
   271
1070
     0
1070
   272
1070
     2
1070
    77
1070
     1
1070
    73
1070
     0
1070
   171
1070
     4
1070
   274
1070
     4
1070
   177
1070
     7
1070
   176
1070
     7
1070
   178
1070
     7
1070
    41
1041
2.999994
1070
   147
1041
1.499997
1070
    42
1041
1.499997
1070
    44
1041
2.999994
1070
   140
1041
2.999994
1070
   343
1005
B0
1070
   344
1005
B0
1002
}
0
DIMENSION
5
EB
100
AcDbEntity
8
SK2
62
256
6
ByLayer
370
13
48
1
60
0
100
AcDbDimension
2
DimnDraft3D3
10
0
20
48.905404
30
0
11
-27.957901
21
48.905404
31
0
70
32
71
5
72
1
41
1
210
0
220
0
230
1
3
Standard
100
AcDbAlignedDimension
13
-48.400013
23
9.884228
33
0
14
0
24
20.609679
34
0
50
0
100
AcDbRotatedDimension
1001
ACAD
1000
DSTYLE
1002
{
1070
   279
1070
     0
1070
   173
1070
     1
1070
   340
1005
BA
1070
   271
1070
     1
1070
   272
1070
     2
1070
    77
1070
     1
1070
    73
1070
     0
1070
   171
1070
     4
1070
   274
1070
     4
1070
   177
1070
     7
1070
   176
1070
     7
1070
   178
1070
     7
1070
    41
1041
3.0
1070
   147
1041
1.5
1070
    42
1041
1.5
1070
    44
1041
3.0
1070
   140
1041
3.0
1070
   343
1005
B0
1070
   344
1005
B0
1002
}
0
DIMENSION
5
F9
100
AcDbEntity
8
SK2
62
256
6
ByLayer
370
13
48
1
60
0
100
AcDbDimension
2
DimnDraft3D4
10
21.999987
20
37.64316
30
0
11
9.247362
21
37.64316
31
0
70
32
71
5
72
1
41
1
210
0
220
0
230
1
3
Standard
100
AcDbAlignedDimension
13
0
23
20.609679
33
0
14
21.999987
24
24.5
34
0
50
0
100
AcDbRotatedDimension
1001
ACAD
1000
DSTYLE
1002
{
1070
   279
1070
     0
1070
   173
1070
     1
1070
   340
1005
BA
1070
   271
1070
     0
1070
   272
1070
     2
1070
    77
1070
     1
1070
    73
1070
     0
1070
   171
1070
     4
1070
   274
1070
     4
1070
   177
1070
     7
1070
   176
1070
     7
1070
   178
1070
     7
1070
    41
1041
3.0
1070
   147
1041
1.5
1070
    42
1041
1.5
1070
    44
1041
3.0
1070
   140
1041
3.0
1070
   343
1005
B0
1070
   344
1005
B0
1002
}
0
DIMENSION
5
107
100
AcDbEntity
8
SK2
62
256
6
ByLayer
370
13
48
1
60
0
100
AcDbDimension
2
DimnDraft3D5
10
105.230699
20
9.6
30
0
11
105.230699
21
-5.566626
31
0
70
32
71
5
72
1
41
1
210
0
220
0
230
1
3
Standard
100
AcDbAlignedDimension
13
87.499987
23
-9.6
33
0
14
87.499987
24
9.6
34
0
50
90
100
AcDbRotatedDimension
1001
ACAD
1000
DSTYLE
1002
{
1070
    74
1070
     0
1070
   279
1070
     0
1070
   173
1070
     1
1070
   340
1005
BA
1070
   271
1070
     2
1070
   272
1070
     2
1070
    77
1070
     1
1070
    73
1070
     0
1070
   171
1070
     4
1070
   274
1070
     4
1070
   177
1070
     7
1070
   176
1070
     7
1070
   178
1070
     7
1070
    41
1041
3.0
1070
   147
1041
1.5
1070
    42
1041
1.5
1070
    44
1041
3.0
1070
   140
1041
3.0
1070
   343
1005
B0
1070
   344
1005
B0
1002
}
0
DIMENSION
5
115
100
AcDbEntity
8
SK2
62
256
6
ByLayer
370
13
48
1
60
0
100
AcDbDimension
2
DimnDraft3D6
10
-58.001526
20
23
30
0
11
-58.001526
21
-4.231579
31
0
70
32
71
5
72
1
41
1
210
0
220
0
230
1
3
Standard
100
AcDbAlignedDimension
13
0.999987
23
-23
33
0
14
0.999987
24
23
34
0
50
90
100
AcDbRotatedDimension
1001
ACAD
1000
DSTYLE
1002
{
1070
    74
1070
     0
1070
   279
1070
     0
1070
   173
1070
     1
1070
   340
1005
BA
1070
   272
1070
     2
1070
    77
1070
     1
1070
    73
1070
     0
1070
   171
1070
     4
1070
   274
1070
     4
1070
   177
1070
     7
1070
   176
1070
     7
1070
   178
1070
     7
1070
    41
1041
3.0
1070
   147
1041
1.5
1070
    42
1041
1.5
1070
    44
1041
3.0
1070
   140
1041
3.0
1070
   343
1005
B0
1070
   344
1005
B0
1002
}
0
DIMENSION
5
123
100
AcDbEntity
8
SK2
62
256
6
ByLayer
370
13
48
1
60
0
100
AcDbDimension
2
DimnDraft3D7
10
85.999987
20
21.391857
30
0
11
74.25401
21
21.391857
31
0
70
32
71
5
72
1
41
1
210
0
220
0
230
1
3
Standard
100
AcDbAlignedDimension
13
66.013297
23
11.1
33
0
14
85.999987
24
11.1
34
0
50
0
100
AcDbRotatedDimension
1001
ACAD
1000
DSTYLE
1002
{
1070
   279
1070
     0
1070
   173
1070
     1
1070
   340
1005
BA
1070
   271
1070
     0
1070
   272
1070
     2
1070
    77
1070
     1
1070
    73
1070
     0
1070
   171
1070
     4
1070
   274
1070
     4
1070
   177
1070
     7
1070
   176
1070
     7
1070
   178
1070
     7
1070
    41
1041
3.0
1070
   147
1041
1.5
1070
    42
1041
1.5
1070
    44
1041
3.0
1070
   140
1041
3.0
1070
   343
1005
B0
1070
   344
1005
B0
1002
}
0
DIMENSION
5
131
100
AcDbEntity
8
SK2
62
256
6
ByLayer
370
13
48
1
60
0
100
AcDbDimension
2
DimnDraft3D8
10
27.285926
20
37.64316
30
0
11
53.200851
21
37.64316
31
0
70
32
71
5
72
1
41
1
210
0
220
0
230
1
3
Standard
100
AcDbAlignedDimension
13
85.999987
23
11.1
33
0
14
27.285926
24
16.542777
34
0
50
0
100
AcDbRotatedDimension
1001
ACAD
1000
DSTYLE
1002
{
1070
   279
1070
     0
1070
   173
1070
     1
1070
   340
1005
BA
1070
   271
1070
     1
1070
   272
1070
     2
1070
    77
1070
     1
1070
    73
1070
     0
1070
   171
1070
     4
1070
   274
1070
     4
1070
   177
1070
     7
1070
   176
1070
     7
1070
   178
1070
     7
1070
    41
1041
3.0
1070
   147
1041
1.5
1070
    42
1041
1.5
1070
    44
1041
3.0
1070
   140
1041
3.0
1070
   343
1005
B0
1070
   344
1005
B0
1002
}
0
ENDSEC
0
SECTION
2
OBJECTS
0
DICTIONARY
5
19d
330
0
100
AcDbDictionary
280
0
281
1
3
ACAD_GROUP
350
19e
3
ACAD_MLINESTYLE
350
19f
0
DICTIONARY
5
19e
330
0
100
AcDbDictionary
280
0
281
1
0
DICTIONARY
5
19f
330
0
100
AcDbDictionary
280
0
281
1
3
Standard
350
18
0
MLINESTYLE
5
18
330
19f
100
AcDbMlineStyle
2
Standard
70
0
3

62
256
51
90
52
90
71
2
49
-0.5
62
256
6
ByLayer
49
0.5
62
256
6
ByLayer
0
RASTERVARIABLES
5
18a
330

100
AcDbRasterVariables
90
0
70
1
71
1
72
1
0
ENDSEC
0
EOF
