0
SECTION
2
HEADER
9
$ACADVER
1
AC1015
9
$DWGCODEPAGE
3
ANSI_1252
9
$HANDSEED
5
197
9
$ANGBASE
50
0
9
$ANGDIR
70
0
9
$ATTMODE
70
1
9
$AUNITS
70
0
9
$AUPREC
70
0
9
$CECOLOR
62
256
9
$CELTSCALE
40
1
9
$CELTYPE
6
ByLayer
9
$CELWEIGHT
370
-1
9
$CLAYER
8
0
9
$CMLJUST
70
0
9
$CMLSCALE
40
1
9
$CMLSTYLE
2
Standard
9
$DIMSTYLE
2
Standard
9
$TEXTSIZE
40
0.2
9
$TEXTSTYLE
7
Standard
9
$LUNITS
70
2
9
$LUPREC
70
4
9
$EXTNAMES
290
1
9
$INSUNITS
70
4
9
$LTSCALE
40
1
9
$LWDISPLAY
290
0
9
$PDMODE
70
0
9
$PDSIZE
40
0
9
$PLINEGEN
70
0
0
ENDSEC
0
SECTION
2
CLASSES
0
CLASS
1
RASTERVARIABLES
2
AcDbRasterVariables
3
ISM
90
0
280
0
281
0
0
ENDSEC
0
SECTION
2
TABLES
0
TABLE
2
VPORT
5
18d
100
AcDbSymbolTable
0
VPORT
5
1
100
AcDbSymbolTableRecord
100
AcDbViewportTableRecord
2
*Active
70
0
10
0
20
0
11
1
21
1
12
-1
22
1
13
0
23
0
14
0.5
24
0.5
15
10
25
10
16
0
26
0
36
1
17
0
27
0
37
0
0
ENDTAB
0
TABLE
2
LTYPE
5
18e
100
AcDbSymbolTable
0
LTYPE
5
14
100
AcDbSymbolTableRecord
100
AcDbLinetypeTableRecord
70
0
2
ByBlock
3

72
65
73
0
40
0
0
LTYPE
5
15
100
AcDbSymbolTableRecord
100
AcDbLinetypeTableRecord
70
0
2
ByLayer
3

72
65
73
0
40
0
0
LTYPE
5
16
100
AcDbSymbolTableRecord
100
AcDbLinetypeTableRecord
70
0
2
CONTINUOUS
3
Solid line
72
65
73
0
40
0
0
LTYPE
5
3C
100
AcDbSymbolTableRecord
100
AcDbLinetypeTableRecord
70
0
2
DASHED
3
__ __ __ __ __ __ __ __ __
72
65
73
2
40
25.72
49
12.86
74
0
49
-12.86
74
0
0
LTYPE
5
3D
100
AcDbSymbolTableRecord
100
AcDbLinetypeTableRecord
70
0
2
HIDDEN
3
_ _ _ _ _ _ _ _ _ _ _ _ _ _ _
72
65
73
2
40
0.5
49
0.25
74
0
49
-0.25
74
0
0
LTYPE
5
3E
100
AcDbSymbolTableRecord
100
AcDbLinetypeTableRecord
70
0
2
PHANTOM
3
____ _ _ ____ _ _ _____ _ _ ____
72
65
73
6
40
50.5
49
18
74
0
49
-6.5
74
0
49
6.5
74
0
49
-6.5
74
0
49
6.5
74
0
49
-6.5
74
0
0
LTYPE
5
3F
100
AcDbSymbolTableRecord
100
AcDbLinetypeTableRecord
70
0
2
CENTER
3
____ _ ____ _ ____ _ ____
72
65
73
4
40
47.5
49
22
74
0
49
-8.5
74
0
49
8.5
74
0
49
-8.5
74
0
0
LTYPE
5
40
100
AcDbSymbolTableRecord
100
AcDbLinetypeTableRecord
70
0
2
DOT
3
.........................
72
65
73
2
40
10
49
0
74
0
49
-10
74
0
0
LTYPE
5
41
100
AcDbSymbolTableRecord
100
AcDbLinetypeTableRecord
70
0
2
DASHDOT
3
_._._._._._._._._._._._._._._._.
72
65
73
4
40
70
49
31
74
0
49
-13
74
0
49
13
74
0
49
-13
74
0
0
ENDTAB
0
TABLE
2
LAYER
5
18f
100
AcDbSymbolTable
0
LAYER
5
10
100
AcDbSymbolTableRecord
100
AcDbLayerTableRecord
2
0
70
0
62
7
6
CONTINUOUS
290
1
370
-3
390
0
0
LAYER
5
43
100
AcDbSymbolTableRecord
100
AcDbLayerTableRecord
2
80
70
0
62
-6
6
CONTINUOUS
290
1
370
-3
390
0
0
LAYER
5
45
100
AcDbSymbolTableRecord
100
AcDbLayerTableRecord
2
81
70
0
62
-3
6
CONTINUOUS
290
1
370
-3
390
0
0
LAYER
5
54
100
AcDbSymbolTableRecord
100
AcDbLayerTableRecord
2
1
70
0
62
4
6
CONTINUOUS
290
1
370
-3
390
0
0
LAYER
5
A5
100
AcDbSymbolTableRecord
100
AcDbLayerTableRecord
2
4
70
0
62
-2
6
CENTER
290
1
370
-3
390
0
0
LAYER
5
132
100
AcDbSymbolTableRecord
100
AcDbLayerTableRecord
2
2
70
0
62
7
6
CONTINUOUS
290
1
370
-3
390
0
0
LAYER
5
178
100
AcDbSymbolTableRecord
100
AcDbLayerTableRecord
2
SK4
70
0
62
2
6
CENTER
290
1
370
-3
390
0
0
LAYER
5
179
100
AcDbSymbolTableRecord
100
AcDbLayerTableRecord
2
SK1
70
0
62
4
6
CONTINUOUS
290
1
370
-3
390
0
0
LAYER
5
17a
100
AcDbSymbolTableRecord
100
AcDbLayerTableRecord
2
SK2
70
0
62
7
6
CONTINUOUS
290
1
370
-3
390
0
0
LAYER
5
17b
100
AcDbSymbolTableRecord
100
AcDbLayerTableRecord
2
SK3
70
0
62
1
6
DASHED
290
1
370
-3
390
0
0
LAYER
5
17c
100
AcDbSymbolTableRecord
100
AcDbLayerTableRecord
2
SK6
70
0
62
5
6
CONTINUOUS
290
1
370
-3
390
0
0
ENDTAB
0
TABLE
2
STYLE
5
190
100
AcDbSymbolTable
0
STYLE
5
11
100
AcDbSymbolTableRecord
100
AcDbTextStyleTableRecord
2
Standard
3
txt
70
0
71
0
40
0
41
1
42
0
50
0
0
STYLE
5
FA
100
AcDbSymbolTableRecord
100
AcDbTextStyleTableRecord
2
DEFAULT
3
simplex.shx
70
0
71
0
40
0
41
1
42
0
50
0
0
STYLE
5
FB
100
AcDbSymbolTableRecord
100
AcDbTextStyleTableRecord
2
DWGDirectTextStyle
3
SIMPLEX
70
0
71
0
40
0
41
1
42
0
50
0
0
ENDTAB
0
TABLE
2
DIMSTYLE
5
191
100
AcDbSymbolTable
100
AcDbDimStyleTable
0
DIMSTYLE
105
27
100
AcDbSymbolTableRecord
100
AcDbDimStyleTableRecord
2
Standard
70
0
3
<>
41
0.18
42
0.0625
44
0.18
140
0.18
147
0.09
73
0
74
0
77
1
271
2
275
0
278
52
280
0
340
11
0
ENDTAB
0
TABLE
2
VIEW
5
192
100
AcDbSymbolTable
0
ENDTAB
0
TABLE
2
UCS
5
193
100
AcDbSymbolTable
0
ENDTAB
0
TABLE
2
APPID
5
194
100
AcDbSymbolTable
0
APPID
5
12
100
AcDbSymbolTableRecord
100
AcDbRegAppTableRecord
2
ACAD
70
0
0
ENDTAB
0
TABLE
2
BLOCK_RECORD
5
195
100
AcDbSymbolTable
0
BLOCK_RECORD
5
1F
100
AcDbSymbolTableRecord
100
AcDbBlockTableRecord
2
*Model_Space
340
0
70
0
0
BLOCK_RECORD
5
1B
100
AcDbSymbolTableRecord
100
AcDbBlockTableRecord
2
*Paper_Space
340
0
70
0
0
BLOCK_RECORD
5
23
100
AcDbSymbolTableRecord
100
AcDbBlockTableRecord
2
*Paper_Space0
340
0
70
0
0
BLOCK_RECORD
5
FE
100
AcDbSymbolTableRecord
100
AcDbBlockTableRecord
2
DimnDraft3D1
340
0
70
0
0
BLOCK_RECORD
5
108
100
AcDbSymbolTableRecord
100
AcDbBlockTableRecord
2
DimnDraft3D2
340
0
70
0
0
BLOCK_RECORD
5
112
100
AcDbSymbolTableRecord
100
AcDbBlockTableRecord
2
DimnDraft3D33
340
0
70
0
0
BLOCK_RECORD
5
11C
100
AcDbSymbolTableRecord
100
AcDbBlockTableRecord
2
DimnDraft3D4
340
0
70
0
0
BLOCK_RECORD
5
126
100
AcDbSymbolTableRecord
100
AcDbBlockTableRecord
2
DimnDraft3D5
340
0
70
0
0
BLOCK_RECORD
5
130
100
AcDbSymbolTableRecord
100
AcDbBlockTableRecord
2
DimnDraft3D6
340
0
70
0
0
ENDTAB
0
ENDSEC
0
SECTION
2
BLOCKS
0
BLOCK
5
20
100
AcDbEntity
8
0
100
AcDbBlockBegin
2
*Model_Space
70
0
10
0
20
0
30
0
3
*Model_Space
0
ENDBLK
5
21
100
AcDbEntity
8
0
100
AcDbBlockEnd
0
BLOCK
5
1C
100
AcDbEntity
8
0
100
AcDbBlockBegin
2
*Paper_Space
70
0
10
0
20
0
30
0
3
*Paper_Space
0
ENDBLK
5
1D
100
AcDbEntity
8
0
100
AcDbBlockEnd
0
BLOCK
5
24
100
AcDbEntity
8
0
100
AcDbBlockBegin
2
*Paper_Space0
70
0
10
0
20
0
30
0
3
*Paper_Space0
0
ENDBLK
5
25
100
AcDbEntity
8
0
100
AcDbBlockEnd
0
BLOCK
5
105
100
AcDbEntity
8
0
100
AcDbBlockBegin
2
DimnDraft3D1
70
0
10
0
20
0
30
0
3
DimnDraft3D1
0
MTEXT
5
FF
100
AcDbEntity
8
SK2
62
256
6
ByLayer
370
-1
48
1
60
0
100
AcDbMText
10
-59.25
20
-3.323684
30
0
210
0
220
0
230
1
1
\W01.000;\fsimplex.shx,bigfont.shx;%%c 63 
40
3
41
0
44
1.084337
50
90
71
7
72
5
7
DEFAULT
0
LINE
5
100
100
AcDbEntity
8
SK2
62
256
6
ByLayer
370
-1
48
1
60
0
100
AcDbLine
10
-2
20
31.475
30
0
11
-60.5
21
31.475
31
0
39
0
210
0
220
0
230
1
0
LINE
5
101
100
AcDbEntity
8
SK2
62
256
6
ByLayer
370
-1
48
1
60
0
100
AcDbLine
10
-2
20
-31.475
30
0
11
-60.5
21
-31.475
31
0
39
0
210
0
220
0
230
1
0
LINE
5
102
100
AcDbEntity
8
SK2
62
256
6
ByLayer
370
-1
48
1
60
0
100
AcDbLine
10
-58.5
20
31.475
30
0
11
-58.5
21
-31.475
31
0
39
0
210
0
220
0
230
1
0
SOLID
5
103
100
AcDbEntity
8
SK2
62
256
6
ByLayer
370
-1
48
1
60
0
100
AcDbTrace
10
-58.5
20
31.475
30
0
11
-58.082003
21
28.300002
31
0
12
-58.917997
22
28.299998
32
0
13
-58.5
23
31.475
33
0
39
0
210
0
220
0
230
1
0
SOLID
5
104
100
AcDbEntity
8
SK2
62
256
6
ByLayer
370
-1
48
1
60
0
100
AcDbTrace
10
-58.5
20
-31.475
30
0
11
-58.917997
21
-28.300002
31
0
12
-58.082003
22
-28.299998
32
0
13
-58.5
23
-31.475
33
0
39
0
210
0
220
0
230
1
0
ENDBLK
5
106
100
AcDbEntity
8
0
100
AcDbBlockEnd
0
BLOCK
5
10F
100
AcDbEntity
8
0
100
AcDbBlockBegin
2
DimnDraft3D2
70
0
10
0
20
0
30
0
3
DimnDraft3D2
0
MTEXT
5
109
100
AcDbEntity
8
SK2
62
256
6
ByLayer
370
-1
48
1
60
0
100
AcDbMText
10
61.307895
20
54.956544
30
0
210
0
220
0
230
1
1
\W01.000;\fsimplex.shx,bigfont.shx;72.0 
40
3
41
0
44
1.084337
50
0
71
7
72
5
7
DEFAULT
0
LINE
5
10A
100
AcDbEntity
8
SK2
62
256
6
ByLayer
370
-1
48
1
60
0
100
AcDbLine
10
100
20
38.999789
30
0
11
100
21
56.206544
31
0
39
0
210
0
220
0
230
1
0
LINE
5
10B
100
AcDbEntity
8
SK2
62
256
6
ByLayer
370
-1
48
1
60
0
100
AcDbLine
10
28
20
12
30
0
11
28
21
56.206544
31
0
39
0
210
0
220
0
230
1
0
LINE
5
10C
100
AcDbEntity
8
SK2
62
256
6
ByLayer
370
-1
48
1
60
0
100
AcDbLine
10
100
20
54.206544
30
0
11
28
21
54.206544
31
0
39
0
210
0
220
0
230
1
0
SOLID
5
10D
100
AcDbEntity
8
SK2
62
256
6
ByLayer
370
-1
48
1
60
0
100
AcDbTrace
10
100
20
54.206544
30
0
11
96.825002
21
53.788547
31
0
12
96.824998
22
54.624541
32
0
13
100
23
54.206544
33
0
39
0
210
0
220
0
230
1
0
SOLID
5
10E
100
AcDbEntity
8
SK2
62
256
6
ByLayer
370
-1
48
1
60
0
100
AcDbTrace
10
28
20
54.206544
30
0
11
31.174998
21
54.624541
31
0
12
31.175002
22
53.788547
32
0
13
28
23
54.206544
33
0
39
0
210
0
220
0
230
1
0
ENDBLK
5
110
100
AcDbEntity
8
0
100
AcDbBlockEnd
0
BLOCK
5
113
100
AcDbEntity
8
0
100
AcDbBlockBegin
2
DimnDraft3D33
70
0
10
0
20
0
30
0
3
DimnDraft3D33
0
LINE
5
115
100
AcDbEntity
8
SK2
62
256
6
ByLayer
370
-1
48
1
60
0
100
AcDbLine
10
-31.9
20
-22.269046
30
0
11
-31.9
21
-78.5
31
0
39
0
210
0
220
0
230
1
0
LINE
5
116
100
AcDbEntity
8
SK2
62
256
6
ByLayer
370
-1
48
1
60
0
100
AcDbLine
10
100
20
-37.87
30
0
11
100
21
-78.5
31
0
39
0
210
0
220
0
230
1
0
LINE
5
117
100
AcDbEntity
8
SK2
62
256
6
ByLayer
370
-1
48
1
60
0
100
AcDbLine
10
-31.9
20
-76.5
30
0
11
100
21
-76.5
31
0
39
0
210
0
220
0
230
1
0
SOLID
5
118
100
AcDbEntity
8
SK2
62
256
6
ByLayer
370
-1
48
1
60
0
100
AcDbTrace
10
-31.9
20
-76.5
30
0
11
-28.725002
21
-76.082003
31
0
12
-28.724998
22
-76.917997
32
0
13
-31.9
23
-76.5
33
0
39
0
210
0
220
0
230
1
0
SOLID
5
119
100
AcDbEntity
8
SK2
62
256
6
ByLayer
370
-1
48
1
60
0
100
AcDbTrace
10
100
20
-76.5
30
0
11
96.825002
21
-76.917997
31
0
12
96.824998
22
-76.082003
32
0
13
100
23
-76.5
33
0
39
0
210
0
220
0
230
1
0
MTEXT
5
11A
100
AcDbEntity
8
SK2
62
256
6
ByLayer
370
-1
48
1
60
0
100
AcDbMText
10
31.006579
20
-75.75
30
0
210
0
220
0
230
1
1
\W00.614;\fsimplex.shx,bigfont.shx;131.9 
40
3
41
0
44
1.084337
50
0
71
7
72
5
7
DEFAULT
0
ENDBLK
5
114
100
AcDbEntity
8
0
100
AcDbBlockEnd
0
BLOCK
5
123
100
AcDbEntity
8
0
100
AcDbBlockBegin
2
DimnDraft3D4
70
0
10
0
20
0
30
0
3
DimnDraft3D4
0
MTEXT
5
11D
100
AcDbEntity
8
SK2
62
256
6
ByLayer
370
-1
48
1
60
0
100
AcDbMText
10
135.75
20
-3.323684
30
0
210
0
220
0
230
1
1
\W01.000;\fsimplex.shx,bigfont.shx;%%c 80 
40
3
41
0
44
1.084337
50
90
71
7
72
5
7
DEFAULT
0
LINE
5
11E
100
AcDbEntity
8
SK2
62
256
6
ByLayer
370
-1
48
1
60
0
100
AcDbLine
10
55.17
20
-40
30
0
11
138.5
21
-40
31
0
39
0
210
0
220
0
230
1
0
LINE
5
11F
100
AcDbEntity
8
SK2
62
256
6
ByLayer
370
-1
48
1
60
0
100
AcDbLine
10
99
20
40
30
0
11
138.5
21
40
31
0
39
0
210
0
220
0
230
1
0
LINE
5
120
100
AcDbEntity
8
SK2
62
256
6
ByLayer
370
-1
48
1
60
0
100
AcDbLine
10
136.5
20
-40
30
0
11
136.5
21
40
31
0
39
0
210
0
220
0
230
1
0
SOLID
5
121
100
AcDbEntity
8
SK2
62
256
6
ByLayer
370
-1
48
1
60
0
100
AcDbTrace
10
136.5
20
-40
30
0
11
136.082003
21
-36.825002
31
0
12
136.917997
22
-36.824998
32
0
13
136.5
23
-40
33
0
39
0
210
0
220
0
230
1
0
SOLID
5
122
100
AcDbEntity
8
SK2
62
256
6
ByLayer
370
-1
48
1
60
0
100
AcDbTrace
10
136.5
20
40
30
0
11
136.917997
21
36.825002
31
0
12
136.082003
22
36.824998
32
0
13
136.5
23
40
33
0
39
0
210
0
220
0
230
1
0
ENDBLK
5
124
100
AcDbEntity
8
0
100
AcDbBlockEnd
0
BLOCK
5
12D
100
AcDbEntity
8
0
100
AcDbBlockBegin
2
DimnDraft3D5
70
0
10
0
20
0
30
0
3
DimnDraft3D5
0
MTEXT
5
127
100
AcDbEntity
8
SK2
62
256
6
ByLayer
370
-1
48
1
60
0
100
AcDbMText
10
120.75
20
-3.323684
30
0
210
0
220
0
230
1
1
\W01.000;\fsimplex.shx,bigfont.shx;%%c 20 
40
3
41
0
44
1.084337
50
90
71
7
72
5
7
DEFAULT
0
LINE
5
128
100
AcDbEntity
8
SK2
62
256
6
ByLayer
370
-1
48
1
60
0
100
AcDbLine
10
102
20
10
30
0
11
123.5
21
10
31
0
39
0
210
0
220
0
230
1
0
LINE
5
129
100
AcDbEntity
8
SK2
62
256
6
ByLayer
370
-1
48
1
60
0
100
AcDbLine
10
102
20
-10
30
0
11
123.5
21
-10
31
0
39
0
210
0
220
0
230
1
0
LINE
5
12A
100
AcDbEntity
8
SK2
62
256
6
ByLayer
370
-1
48
1
60
0
100
AcDbLine
10
121.5
20
10
30
0
11
121.5
21
-10
31
0
39
0
210
0
220
0
230
1
0
SOLID
5
12B
100
AcDbEntity
8
SK2
62
256
6
ByLayer
370
-1
48
1
60
0
100
AcDbTrace
10
121.5
20
10
30
0
11
121.917997
21
6.825002
31
0
12
121.082003
22
6.824998
32
0
13
121.5
23
10
33
0
39
0
210
0
220
0
230
1
0
SOLID
5
12C
100
AcDbEntity
8
SK2
62
256
6
ByLayer
370
-1
48
1
60
0
100
AcDbTrace
10
121.5
20
-10
30
0
11
121.082003
21
-6.825002
31
0
12
121.917997
22
-6.824998
32
0
13
121.5
23
-10
33
0
39
0
210
0
220
0
230
1
0
ENDBLK
5
12E
100
AcDbEntity
8
0
100
AcDbBlockEnd
0
BLOCK
5
138
100
AcDbEntity
8
0
100
AcDbBlockBegin
2
DimnDraft3D6
70
0
10
0
20
0
30
0
3
DimnDraft3D6
0
MTEXT
5
131
100
AcDbEntity
8
2
62
256
6
ByLayer
370
-1
48
1
60
0
100
AcDbMText
10
46.581579
20
65.837216
30
0
210
0
220
0
230
1
1
\W01.000;\fsimplex.shx,bigfont.shx;100.0 
40
3
41
0
44
1.084337
50
0
71
7
72
5
7
DEFAULT
0
LINE
5
133
100
AcDbEntity
8
2
62
256
6
ByLayer
370
-1
48
1
60
0
100
AcDbLine
10
100
20
38.999789
30
0
11
100
21
67.087216
31
0
39
0
210
0
220
0
230
1
0
LINE
5
134
100
AcDbEntity
8
2
62
256
6
ByLayer
370
-1
48
1
60
0
100
AcDbLine
10
0
20
33.475
30
0
11
0
21
67.087216
31
0
39
0
210
0
220
0
230
1
0
LINE
5
135
100
AcDbEntity
8
2
62
256
6
ByLayer
370
-1
48
1
60
0
100
AcDbLine
10
100
20
65.087216
30
0
11
0
21
65.087216
31
0
39
0
210
0
220
0
230
1
0
SOLID
5
136
100
AcDbEntity
8
2
62
256
6
ByLayer
370
-1
48
1
60
0
100
AcDbTrace
10
100
20
65.087216
30
0
11
96.825002
21
64.669219
31
0
12
96.824998
22
65.505212
32
0
13
100
23
65.087216
33
0
39
0
210
0
220
0
230
1
0
SOLID
5
137
100
AcDbEntity
8
2
62
256
6
ByLayer
370
-1
48
1
60
0
100
AcDbTrace
10
0
20
65.087216
30
0
11
3.174998
21
65.505212
31
0
12
3.175002
22
64.669219
32
0
13
0
23
65.087216
33
0
39
0
210
0
220
0
230
1
0
ENDBLK
5
139
100
AcDbEntity
8
0
100
AcDbBlockEnd
0
ENDSEC
0
SECTION
2
ENTITIES
0
ARC
5
C0
100
AcDbEntity
8
SK1
62
256
6
ByLayer
370
-1
48
1
60
0
100
AcDbCircle
39
0
10
0.600464
20
24.3695
30
0
40
0.199999999999999
210
0
220
0
230
-1
100
AcDbArc
50
270
51
285
0
ARC
5
C1
100
AcDbEntity
8
SK1
62
256
6
ByLayer
370
-1
48
1
60
0
100
AcDbCircle
39
0
10
0.600464
20
-24.3695
30
0
40
0.199999999999999
210
0
220
0
230
-1
100
AcDbArc
50
75
51
90
0
ARC
5
C2
100
AcDbEntity
8
SK1
62
256
6
ByLayer
370
-1
48
1
60
0
100
AcDbCircle
39
0
10
0.103587
20
24.3695
30
0
40
0.199999999999996
210
0
220
0
230
-1
100
AcDbArc
50
238.806186
51
270
0
ARC
5
C3
100
AcDbEntity
8
1
62
256
6
ByLayer
370
-1
48
1
60
0
100
AcDbCircle
39
0
10
75
20
0
30
0
40
2.5
210
0
220
0
230
1
100
AcDbArc
50
165.037196
51
225.037196
0
ARC
5
C4
100
AcDbEntity
8
1
62
256
6
ByLayer
370
-1
48
1
60
0
100
AcDbCircle
39
0
10
75
20
0
30
0
40
2.5
210
0
220
0
230
1
100
AcDbArc
50
105.037196
51
165.037196
0
ARC
5
C5
100
AcDbEntity
8
1
62
256
6
ByLayer
370
-1
48
1
60
0
100
AcDbCircle
39
0
10
75
20
0
30
0
40
2.5
210
0
220
0
230
1
100
AcDbArc
50
45.037196
51
105.037196
0
ARC
5
C6
100
AcDbEntity
8
1
62
256
6
ByLayer
370
-1
48
1
60
0
100
AcDbCircle
39
0
10
75
20
0
30
0
40
2.5
210
0
220
0
230
1
100
AcDbArc
50
345.037196
51
45.037196
0
ARC
5
C7
100
AcDbEntity
8
1
62
256
6
ByLayer
370
-1
48
1
60
0
100
AcDbCircle
39
0
10
75
20
0
30
0
40
2.5
210
0
220
0
230
1
100
AcDbArc
50
285.037196
51
345.037196
0
ARC
5
C8
100
AcDbEntity
8
1
62
256
6
ByLayer
370
-1
48
1
60
0
100
AcDbCircle
39
0
10
75
20
0
30
0
40
2.5
210
0
220
0
230
1
100
AcDbArc
50
225.037196
51
285.037196
0
ARC
5
C9
100
AcDbEntity
8
SK1
62
256
6
ByLayer
370
-1
48
1
60
0
100
AcDbCircle
39
0
10
-0.103587
20
-24.3695
30
0
40
0.199999999999996
210
0
220
0
230
1
100
AcDbArc
50
58.806186
51
90
0
ARC
5
CB
100
AcDbEntity
8
SK2
62
256
6
ByLayer
370
-1
48
1
60
0
100
AcDbCircle
39
0
10
142.8465
20
7.9756
30
0
40
0.4
210
0
220
0
230
1
100
AcDbArc
50
120
51
240
0
ARC
5
CC
100
AcDbEntity
8
SK2
62
256
6
ByLayer
370
-1
48
1
60
0
100
AcDbCircle
39
0
10
147.6
20
5.231165
30
0
40
0.4
210
0
220
0
230
1
100
AcDbArc
50
240
51
0
0
ARC
5
CD
100
AcDbEntity
8
SK2
62
256
6
ByLayer
370
-1
48
1
60
0
100
AcDbCircle
39
0
10
147.6
20
10.720035
30
0
40
0.4
210
0
220
0
230
1
100
AcDbArc
50
0
51
120
0
CIRCLE
5
BC
100
AcDbEntity
8
1
62
256
6
ByLayer
370
-1
48
1
60
0
100
AcDbCircle
10
-75
20
0
30
0
40
0.963173288246283
39
0
210
0
220
0
230
-1
0
CIRCLE
5
BD
100
AcDbEntity
8
1
62
256
6
ByLayer
370
-1
48
1
60
0
100
AcDbCircle
10
-75
20
0
30
0
40
4.3911
39
0
210
0
220
0
230
-1
0
CIRCLE
5
BE
100
AcDbEntity
8
1
62
256
6
ByLayer
370
-1
48
1
60
0
100
AcDbCircle
10
-75
20
0
30
0
40
5.5
39
0
210
0
220
0
230
-1
0
CIRCLE
5
BF
100
AcDbEntity
8
1
62
256
6
ByLayer
370
-1
48
1
60
0
100
AcDbCircle
10
75
20
0
30
0
40
3.8
39
0
210
0
220
0
230
1
0
CIRCLE
5
CA
100
AcDbEntity
8
SK2
62
256
6
ByLayer
370
-1
48
1
60
0
100
AcDbCircle
10
146.0155
20
7.9756
30
0
40
1.3
39
0
210
0
220
0
230
1
0
POINT
5
42
100
AcDbEntity
8
80
62
256
6
ByLayer
370
-1
48
1
60
0
100
AcDbPoint
10
0
20
0
30
0
39
0
210
0
220
0
230
1
50
360
0
POINT
5
44
100
AcDbEntity
8
81
62
256
6
ByLayer
370
-1
48
1
60
0
100
AcDbPoint
10
100
20
0
30
0
39
0
210
0
220
0
230
1
50
360
0
POINT
5
46
100
AcDbEntity
8
SK4
62
256
6
ByLayer
370
-1
48
1
60
0
100
AcDbPoint
10
75
20
0
30
0
39
0
210
0
220
0
230
1
50
360
0
SPLINE
5
CE
100
AcDbEntity
8
1
62
256
6
ByLayer
370
-1
48
1
60
0
100
AcDbSpline
70
4
71
3
72
607
73
603
40
-0.0031894763762558
40
-0.0015946561229062
40
0
40
0
40
0.0016339915029203
40
0.0032680713150673
40
0.0049021511362351
40
0.0065361426514571
40
0.0081729677868976
40
0.0098098816556646
40
0.0114467955514467
40
0.0130836207237281
40
0.014717611699416
40
0.0163516908739779
40
0.0179857700924354
40
0.0196197611279843
40
0.0212565811203876
40
0.0228934896595229
40
0.0245303982588258
40
0.0261672183332804
40
0.0278012080978479
40
0.0294352858068377
40
0.0310693635897956
40
0.0327033534552344
40
0.0343401631466909
40
0.0359770610648559
40
0.0376139590697758
40
0.0392507688795407
40
0.0410034120354063
40
0.0427561632560719
40
0.0445089146042073
40
0.046261557933906
40
0.0480176665342031
40
0.0497738835517962
40
0.0515301007079461
40
0.0532862094971958
40
0.0549201952123626
40
0.0565542680199182
40
0.0581883409355763
40
0.0598223267981637
40
0.0614591040565155
40
0.0630959686156503
40
0.0647328332847766
40
0.0663696106931248
40
0.0680035941507415
40
0.0696376642253602
40
0.0712717344074491
40
0.0729057180116243
40
0.0745424777829986
40
0.0761793243815855
40
0.0778161710837193
40
0.079452930996301
40
0.0810869123196952
40
0.0827209798104564
40
0.0843550473967208
40
0.0859890288503529
40
0.0876257724339308
40
0.0892626024216855
40
0.0908994324956639
40
0.092536176196826
40
0.0942865586393449
40
0.0960370465410253
40
0.0977875345389079
40
0.0995379171126187
40
0.101291682319053
40
0.10304555340389
40
0.104799424565522
40
0.106553189876683
40
0.108198471664996
40
0.109843840753054
40
0.111489209883726
40
0.113134491730152
40
0.114782573870858
40
0.116430743680235
40
0.11807891351486
40
0.119726995689996
40
0.121372276932664
40
0.123017645359499
40
0.124663013793164
40
0.126308295045146
40
0.127956374037538
40
0.129604540661574
40
0.131252707273876
40
0.132900786250266
40
0.134546067705558
40
0.136191436389092
40
0.137836805042728
40
0.139482086457251
40
0.141130168210095
40
0.142778337719169
40
0.144426507180501
40
0.146074588868242
40
0.147837282331318
40
0.14960008331492
40
0.15136288421381
40
0.153125577561361
40
0.154891725719721
40
0.156657982237477
40
0.15842423864913
40
0.160190386662794
40
0.161843103765119
40
0.163495909856452
40
0.165148715853329
40
0.166801432826845
40
0.168457008793779
40
0.170112674429373
40
0.171768339959675
40
0.173423915783024
40
0.175076635032236
40
0.176729443722201
40
0.178382252300308
40
0.180034971396982
40
0.18169056453873
40
0.183346247838577
40
0.185001931021526
40
0.186657524003857
40
0.188310245647178
40
0.189963057235282
40
0.191615868706271
40
0.193268590189882
40
0.194924202055597
40
0.196579904594389
40
0.198235607017514
40
0.199891218725495
40
0.201664663360095
40
0.20343821975402
40
0.205211776003325
40
0.206985220440702
40
0.208762257816091
40
0.210539407938457
40
0.212316557927722
40
0.214093595121599
40
0.215733755241212
40
0.217374004218093
40
0.219014253110277
40
0.220654413114389
40
0.222297427411367
40
0.223940531203882
40
0.225583634925132
40
0.227226649124925
40
0.228866810729332
40
0.230507061504229
40
0.232147312224326
40
0.233787473754001
40
0.235430498659257
40
0.237073613307309
40
0.238716727917863
40
0.240359752771983
40
0.241999915173446
40
0.243640166913928
40
0.245280418635821
40
0.246920581011937
40
0.248563611002006
40
0.250206730823829
40
0.251849850646263
40
0.253492880637165
40
0.255253219078875
40
0.257013667977291
40
0.258774116902875
40
0.260534455381635
40
0.262298339236759
40
0.264062334133326
40
0.265826329083883
40
0.267590213012636
40
0.269217386465733
40
0.270844646982708
40
0.272471907556096
40
0.274099081086123
40
0.27572904667885
40
0.277359099646637
40
0.278989152686312
40
0.280619118377073
40
0.282246290377124
40
0.283873549135622
40
0.285500807978473
40
0.287127980093558
40
0.2887579335756
40
0.290387974066583
40
0.292018014653144
40
0.293647968265531
40
0.295275138319022
40
0.296902394721427
40
0.298529651226684
40
0.300156821420432
40
0.301786759250643
40
0.303416783640349
40
0.305046808138712
40
0.3066767461171
40
0.308420506929186
40
0.310164373430787
40
0.31190824007752
40
0.313652001087528
40
0.315399150443719
40
0.317146405788703
40
0.318893661278402
40
0.320640810831943
40
0.32227481028613
40
0.323908896192197
40
0.325542982204591
40
0.327176981803778
40
0.328813752313528
40
0.330450609488504
40
0.332087466763342
40
0.333724237409277
40
0.335358234800965
40
0.336992318209905
40
0.338626401708283
40
0.340260399221937
40
0.341897154248976
40
0.343533995543953
40
0.345170836916814
40
0.346807592050065
40
0.348441587822914
40
0.350075669271631
40
0.35170975078365
40
0.353343746642822
40
0.354980489906523
40
0.35661731915421
40
0.35825414844986
40
0.359890891778969
40
0.361640508926574
40
0.363390230992708
40
0.365139953098528
40
0.366889570300253
40
0.368642554599104
40
0.370395644358858
40
0.372148734133631
40
0.373901718452961
40
0.375551651701276
40
0.377201672873361
40
0.378851694037918
40
0.380501627275966
40
0.382154382498801
40
0.383807226130875
40
0.385460069736754
40
0.387112824923865
40
0.388762758681509
40
0.390412780469479
40
0.392062802213681
40
0.393712735911639
40
0.3953654961795
40
0.397018345042351
40
0.398671193844468
40
0.400323954029506
40
0.401973889008976
40
0.403623912275448
40
0.405273935466681
40
0.406923870343544
40
0.408576641037827
40
0.410229500652448
40
0.411882360178324
40
0.413535130751584
40
0.415303739990842
40
0.417072458447649
40
0.418841176773761
40
0.420609785834787
40
0.422381905738113
40
0.424154135808497
40
0.425926365736191
40
0.427698485444926
40
0.429348770436068
40
0.430999144645838
40
0.432649518743475
40
0.434299803581699
40
0.43595295531532
40
0.437606196981423
40
0.439259438533051
40
0.440912590110559
40
0.442562877450362
40
0.444213254503354
40
0.445863631444204
40
0.447513918631078
40
0.44916708857846
40
0.450820348952446
40
0.452473609218149
40
0.454126779017864
40
0.455777068588524
40
0.457427448342362
40
0.459077827996238
40
0.46072811743058
40
0.462381304309474
40
0.464034582057816
40
0.465687859715901
40
0.46734104647171
40
0.469112412251399
40
0.470883890050965
40
0.472655367749279
40
0.474426733390891
40
0.476201698898468
40
0.477976777313551
40
0.479751855648263
40
0.481526821046236
40
0.483161468016943
40
0.484796203293615
40
0.486430938529246
40
0.488065585443984
40
0.489703067495266
40
0.491340638387255
40
0.492978209255304
40
0.494615691273938
40
0.496250338763016
40
0.497885074667885
40
0.499519810566903
40
0.501154458048001
40
0.502791943054698
40
0.504429516934745
40
0.506067090827111
40
0.507704575850609
40
0.50933922311468
40
0.510973958747849
40
0.512608694411
40
0.514243341715958
40
0.515880823894213
40
0.517518394820712
40
0.519155965794438
40
0.520793448037096
40
0.522547131969936
40
0.524300924769771
40
0.526054717653139
40
0.527808401699893
40
0.529565578191442
40
0.531322863999886
40
0.533080149912248
40
0.534837326545512
40
0.536464740441037
40
0.538092240991723
40
0.539719741630588
40
0.541347155646363
40
0.542977347596772
40
0.544607626444875
40
0.546237905390672
40
0.547868097474305
40
0.549495509376889
40
0.551123007515267
40
0.552750505756918
40
0.554377917800335
40
0.556008093840424
40
0.557638356326205
40
0.559268618919472
40
0.560898795106139
40
0.562526204806183
40
0.56415370027831
40
0.565781195857844
40
0.56740860570436
40
0.569038764540204
40
0.570669009349403
40
0.572299254264534
40
0.573929413244836
40
0.57567267538261
40
0.577416042375586
40
0.579159409500259
40
0.58090267181763
40
0.582649296132769
40
0.584396025631168
40
0.586142755251249
40
0.587889379732326
40
0.589528811840621
40
0.591168330725063
40
0.592807849692944
40
0.594447281915023
40
0.596089496248993
40
0.597731797630067
40
0.599374099082128
40
0.601016313512903
40
0.602655744142979
40
0.604295261237404
40
0.605934778387533
40
0.607574209093573
40
0.609216412803679
40
0.610858703310118
40
0.612500993856235
40
0.614143197620451
40
0.615782627410295
40
0.617422143486918
40
0.619061659585588
40
0.620701089405498
40
0.622343287618437
40
0.62398557252406
40
0.625627857433769
40
0.62727005565228
40
0.629025801787374
40
0.630781653882713
40
0.632537505958671
40
0.634293252067334
40
0.636052400700336
40
0.637811655976547
40
0.639570911207946
40
0.641330059779837
40
0.642982522731983
40
0.644635074172305
40
0.646287625559549
40
0.647940088439313
40
0.649595392909569
40
0.651250786456946
40
0.652906179934503
40
0.654561484309546
40
0.656213948670768
40
0.657866501816294
40
0.659519054878012
40
0.661171519124943
40
0.662826835452463
40
0.664482241220381
40
0.666137646891562
40
0.667792963087162
40
0.669445429416345
40
0.671097984943813
40
0.672750540365509
40
0.674403006550449
40
0.676058338803538
40
0.677713760958772
40
0.679369183000607
40
0.681024515099054
40
0.682796764425766
40
0.684569124401277
40
0.686341484222735
40
0.688113733339359
40
0.689889540043969
40
0.691665458404761
40
0.693441376609828
40
0.695217183102072
40
0.696863301451625
40
0.698509508995471
40
0.700155716427533
40
0.701801834624645
40
0.703450818874285
40
0.705099893025041
40
0.706748967069578
40
0.708397951174363
40
0.71004407171476
40
0.711690281911075
40
0.713336492011206
40
0.714982612420436
40
0.716631613185835
40
0.718280704279154
40
0.719929795287762
40
0.721578795937639
40
0.723224918235986
40
0.724871130560928
40
0.726517342816244
40
0.728163465019642
40
0.729812478612445
40
0.731461582845109
40
0.733110687024298
40
0.734759700544179
40
0.736526766769391
40
0.738293944656384
40
0.740061122497792
40
0.741828188660841
40
0.74359884132679
40
0.745369606411182
40
0.747140371477156
40
0.748911024117987
40
0.750541004229774
40
0.752171072048407
40
0.753801139873256
40
0.755431119993517
40
0.757063914450105
40
0.758696797038059
40
0.760329679650876
40
0.761962474141372
40
0.763592453771229
40
0.765222521007149
40
0.766852588285527
40
0.768482567973285
40
0.770115357597493
40
0.771748235173108
40
0.773381112808133
40
0.775013902513359
40
0.776643880948903
40
0.778273946739624
40
0.779904012604201
40
0.781533991140462
40
0.783166770555529
40
0.784799637602793
40
0.786432504737257
40
0.788065284271241
40
0.789813089149895
40
0.791561001265421
40
0.793308913509472
40
0.795056718563398
40
0.796807962210491
40
0.798559313436113
40
0.800310664801816
40
0.802061908639939
40
0.803691253556895
40
0.805320684869621
40
0.806950116291778
40
0.808579461357964
40
0.810211575378321
40
0.811843775993939
40
0.813475976720983
40
0.815108090893294
40
0.816737433523478
40
0.818366862067897
40
0.819996290721229
40
0.821625633499939
40
0.823257729804553
40
0.824889912224561
40
0.826522094749512
40
0.828154191197238
40
0.829783531664388
40
0.831412957590069
40
0.83304238361255
40
0.834671724211708
40
0.836303804110047
40
0.837935969695013
40
0.8395681353674
40
0.841200215384955
40
0.842944976253145
40
0.844689841585758
40
0.846434707015874
40
0.848179468017033
40
0.849927579606136
40
0.851675796066488
40
0.853424012604914
40
0.855172124300486
40
0.856817162292069
40
0.858462287552357
40
0.860107412856812
40
0.861752450908626
40
0.863400288207595
40
0.865048213140663
40
0.866696138100401
40
0.868343975435738
40
0.869989012851921
40
0.871634137414955
40
0.873279261986167
40
0.874924299413502
40
0.876572133337878
40
0.878220054853289
40
0.879867976358346
40
0.8815158102686
40
0.883160847868756
40
0.884805972653797
40
0.886451097410419
40
0.888096134971817
40
0.88974397142882
40
0.891391895594917
40
0.89303981971494
40
0.894687656109113
40
0.896450051219003
40
0.898212553780299
40
0.899975056259394
40
0.901737451257185
40
0.903503298758235
40
0.905269254542973
40
0.907035210224521
40
0.908801057584849
40
0.91045380990807
40
0.912106651204061
40
0.91375949240804
40
0.915412244605784
40
0.917067855194481
40
0.918723555429826
40
0.920379255562567
40
0.92203486601134
40
0.92368762042663
40
0.925340464254895
40
0.926993307974123
40
0.928646062240718
40
0.930301689568064
40
0.931957407019168
40
0.933613124356259
40
0.935268751528124
40
0.936921508278487
40
0.938574354933424
40
0.940227201474027
40
0.941879958068471
40
0.943535603664303
40
0.945191339886647
40
0.946847075995885
40
0.94850272143747
40
0.950276157387194
40
0.95204970502394
40
0.953823252518884
40
0.955596688275231
40
0.957373714558198
40
0.959150853509474
40
0.960927992329653
40
0.962705018433841
40
0.964245239642418
40
0.965785608047554
40
0.967326049966616
40
0.968866491735969
40
0.970406859795607
40
0.97194708077383
40
0.973487303909161
40
0.975027674594019
40
0.976568118999857
40
0.978108563291955
40
0.979648933714325
40
0.981189156674647
40
0.982729381187282
40
0.984269753491218
40
0.985810199672811
40
0.987350645782854
40
0.988891017921667
40
0.99043124232421
40
0.992025898490598
40
0.993620718809162
40
0.995215621230582
40
0.996810523623744
40
0.998405343877094
40
1
40
1
40
1.00163399150292
40
1.00326807131507
41
1
10
69.0000000531767
20
0.0200681928279665
30
0
41
1
10
69.0000000352743
20
-0.0205632541908342
30
0
41
1
10
69.0002114874111
20
-0.0616883076746441
30
0
41
1
10
69.0011629491338
20
-0.123371837178307
30
0
41
1
10
69.0027483695036
20
-0.185041482572895
30
0
41
1
10
69.0049689299953
20
-0.246725805498757
30
0
41
1
10
69.0078259762649
20
-0.308419006923325
30
0
41
1
10
69.011320228315
20
-0.370115510762714
30
0
41
1
10
69.0154494924494
20
-0.431771890416362
30
0
41
1
10
69.0202105454049
20
-0.493344795790839
30
0
41
1
10
69.0256019280924
20
-0.554828740001482
30
0
41
1
10
69.0316215535659
20
-0.616218340516077
30
0
41
1
10
69.0382716624434
20
-0.677541411714251
30
0
41
1
10
69.0455556491815
20
-0.738825582537949
30
0
41
1
10
69.0534743657124
20
-0.80006516499973
30
0
41
1
10
69.0620280318822
20
-0.86125451430899
30
0
41
1
10
69.0712108716409
20
-0.922350637693091
30
0
41
1
10
69.081016087905
20
-0.983310679921253
30
0
41
1
10
69.0914417476948
20
-1.0441293219389
30
0
41
1
10
69.102485306735
20
-1.10480140370126
30
0
41
1
10
69.1141512519753
20
-1.16535444388633
30
0
41
1
10
69.1264451895382
20
-1.22581561699467
30
0
41
1
10
69.1393674706822
20
-1.28617921803358
30
0
41
1
10
69.1529178264409
20
-1.34643963921627
30
0
41
1
10
69.1670869794495
20
-1.40655468344089
30
0
41
1
10
69.1822219173598
20
-1.46793123505291
30
0
41
1
10
69.1983734903288
20
-1.53055087274968
30
0
41
1
10
69.2155929004766
20
-1.59439309223019
30
0
41
1
10
69.2335136409214
20
-1.6580382605593
30
0
41
1
10
69.2521453954086
20
-1.72151907143747
30
0
41
1
10
69.2714881087556
20
-1.78482849241704
30
0
41
1
10
69.2915409335674
20
-1.84795968893054
30
0
41
1
10
69.3122880451936
20
-1.91086201005392
30
0
41
1
10
69.3332295134204
20
-1.97207391000651
30
0
41
1
10
69.3543084117488
20
-2.03160800833897
30
0
41
1
10
69.3754695108898
20
-2.08947850280021
30
0
41
1
10
69.3972223923134
20
-2.14712538283136
30
0
41
1
10
69.419577058507
20
-2.2045742430651
30
0
41
1
10
69.4425328699959
20
-2.26181950289734
30
0
41
1
10
69.4660886146242
20
-2.31885578533503
30
0
41
1
10
69.490228156793
20
-2.37564355632232
30
0
41
1
10
69.5149344175205
20
-2.43214365545156
30
0
41
1
10
69.5402042167568
20
-2.48835155617194
30
0
41
1
10
69.566033851062
20
-2.54426303259317
30
0
41
1
10
69.5924343846723
20
-2.59990332317694
30
0
41
1
10
69.6194178229679
20
-2.65529697878942
30
0
41
1
10
69.6469830841584
20
-2.71043854149604
30
0
41
1
10
69.6751285414562
20
-2.76532279638324
30
0
41
1
10
69.7038349955078
20
-2.81991190582706
30
0
41
1
10
69.7330823435892
20
-2.87416847975023
30
0
41
1
10
69.7628670791167
20
-2.92808830517107
30
0
41
1
10
69.7931852062812
20
-2.98166750490528
30
0
41
1
10
69.8240497629736
20
-3.03493018725917
30
0
41
1
10
69.8554746707304
20
-3.08789971597129
30
0
41
1
10
69.8874584306573
20
-3.14057078034789
30
0
41
1
10
69.9199990261355
20
-3.19293834847527
30
0
41
1
10
69.9530743660294
20
-3.24496649119308
30
0
41
1
10
69.9874581367467
20
-3.29784495068033
30
0
41
1
10
70.0231914008786
20
-3.35154047605207
30
0
41
1
10
70.0603149094744
20
-3.40601782122469
30
0
41
1
10
70.0980329849127
20
-3.4600818669856
30
0
41
1
10
70.1363650724266
20
-3.51375966109363
30
0
41
1
10
70.1753089360232
20
-3.56704480796567
30
0
41
1
10
70.2148616977297
20
-3.61993132276342
30
0
41
1
10
70.2549926712447
20
-3.67237767564465
30
0
41
1
10
70.2948570631546
20
-3.72330443217798
30
0
41
1
10
70.3344105351501
20
-3.77273814789233
30
0
41
1
10
70.3736104202843
20
-3.82070631863397
30
0
41
1
10
70.4133024613765
20
-3.86826624883696
30
0
41
1
10
70.453504636189
20
-3.91543886940966
30
0
41
1
10
70.4942146041844
20
-3.9622191147005
30
0
41
1
10
70.5354295550779
20
-4.00860227809246
30
0
41
1
10
70.5771213058524
20
-4.05455624401112
30
0
41
1
10
70.6192609099199
20
-4.10004957555217
30
0
41
1
10
70.6618439547819
20
-4.14507901157511
30
0
41
1
10
70.7048656297869
20
-4.18964172620476
30
0
41
1
10
70.7483447885389
20
-4.23375788508917
30
0
41
1
10
70.7923010835238
20
-4.27744681865261
30
0
41
1
10
70.8367317982196
20
-4.32070365799532
30
0
41
1
10
70.8816337733728
20
-4.36352392327212
30
0
41
1
10
70.9269763242871
20
-4.40587793616591
30
0
41
1
10
70.9727280670104
20
-4.44773676140314
30
0
41
1
10
71.0188843610549
20
-4.48909748481686
30
0
41
1
10
71.065440199883
20
-4.52995765466155
30
0
41
1
10
71.1124160263185
20
-4.57033575196939
30
0
41
1
10
71.1598330671953
20
-4.6102494088666
30
0
41
1
10
71.2076882358077
20
-4.64969396560079
30
0
41
1
10
71.2559780280853
20
-4.68866518298635
30
0
41
1
10
71.3046694018103
20
-4.72713595920364
30
0
41
1
10
71.3548943053461
20
-4.7659815363168
30
0
41
1
10
71.406681351627
20
-4.80515643252056
30
0
41
1
10
71.4600581885239
20
-4.84461331965749
30
0
41
1
10
71.5138700769102
20
-4.88347884272365
30
0
41
1
10
71.568144994473
20
-4.92177239882465
30
0
41
1
10
71.6228787578922
20
-4.95948843628006
30
0
41
1
10
71.6780666724867
20
-4.99662200077242
30
0
41
1
10
71.733665224381
20
-5.03314323643435
30
0
41
1
10
71.788467814046
20
-5.06827820514538
30
0
41
1
10
71.8424395251925
20
-5.10206847060102
30
0
41
1
10
71.8955474506127
20
-5.13455591871964
30
0
41
1
10
71.9489921023737
20
-5.16649222364522
30
0
41
1
10
72.0027979413298
20
-5.19789137508747
30
0
41
1
10
72.0569610690158
20
-5.22874914926408
30
0
41
1
10
72.1114772274816
20
-5.25906182498634
30
0
41
1
10
72.1663084220457
20
-5.28880781760621
30
0
41
1
10
72.2214161700541
20
-5.31796647073834
30
0
41
1
10
72.2767951269755
20
-5.34653599286967
30
0
41
1
10
72.3324396831828
20
-5.37451515395989
30
0
41
1
10
72.3883747843519
20
-5.4019168754074
30
0
41
1
10
72.4446261020128
20
-5.42875311005537
30
0
41
1
10
72.5011893706089
20
-5.45501992883278
30
0
41
1
10
72.5580599991467
20
-5.48071393990241
30
0
41
1
10
72.6151980918291
20
-5.50581666500209
30
0
41
1
10
72.6725633430865
20
-5.53031059812646
30
0
41
1
10
72.7301502317693
20
-5.55419437233315
30
0
41
1
10
72.7879530138907
20
-5.57746721203131
30
0
41
1
10
72.8459977483012
20
-5.60013997149617
30
0
41
1
10
72.9043111578764
20
-5.62222247976005
30
0
41
1
10
72.9628886216984
20
-5.64371114210966
30
0
41
1
10
73.0217252318174
20
-5.66460293640651
30
0
41
1
10
73.0807794287127
20
-5.68488266461976
30
0
41
1
10
73.1414497034478
20
-5.70501409108655
30
0
41
1
10
73.2037485192814
20
-5.7249428596526
30
0
41
1
10
73.267686698345
20
-5.74461310529835
30
0
41
1
10
73.3318439268482
20
-5.76357057569525
30
0
41
1
10
73.3962543408262
20
-5.78182458754659
30
0
41
1
10
73.460911848121
20
-5.79937104320175
30
0
41
1
10
73.5258100399568
20
-5.81620664623448
30
0
41
1
10
73.5908957385685
20
-5.83231706527427
30
0
41
1
10
73.6544838094755
20
-5.84730476209054
30
0
41
1
10
73.7165520337444
20
-5.86123170579991
30
0
41
1
10
73.7770807896731
20
-5.87415897365976
30
0
41
1
10
73.8377422683074
20
-5.88646183959895
30
0
41
1
10
73.8985641184415
20
-5.89814537505925
30
0
41
1
10
73.9595411824656
20
-5.90920689400899
30
0
41
1
10
74.0206681296592
20
-5.91964432719815
30
0
41
1
10
74.0819018759639
20
-5.92944994808154
30
0
41
1
10
74.1431991807952
20
-5.93861706092807
30
0
41
1
10
74.2045543380408
20
-5.94714576673466
30
0
41
1
10
74.2659615833001
20
-5.95503680613783
30
0
41
1
10
74.327448682968
20
-5.9622941423714
30
0
41
1
10
74.3890436827358
20
-5.96892058202939
30
0
41
1
10
74.4507411864183
20
-5.97491389451777
30
0
41
1
10
74.5125356786851
20
-5.98027248393888
30
0
41
1
10
74.5743834266612
20
-5.98499222395579
30
0
41
1
10
74.6362406199874
20
-5.98907003181987
30
0
41
1
10
74.6981015554931
20
-5.99250651486505
30
0
41
1
10
74.7599605311174
20
-5.99530292741633
30
0
41
1
10
74.8218456518624
20
-5.99746096926589
30
0
41
1
10
74.8837851349103
20
-5.99898115845071
30
0
41
1
10
74.9457733994251
20
-5.99986174959458
30
0
41
1
10
75.0078048026157
20
-6.00010164346386
30
0
41
1
10
75.0698353577041
20
-5.99970037155684
30
0
41
1
10
75.1333331730828
20
-5.99863310826205
30
0
41
1
10
75.1982917169838
20
-5.99684511050854
30
0
41
1
10
75.2647024307452
20
-5.99428079759685
30
0
41
1
10
75.3310799411882
20
-5.99098129518457
30
0
41
1
10
75.3974590578693
20
-5.98694430056076
30
0
41
1
10
75.4638327157343
20
-5.98216815615578
30
0
41
1
10
75.5301938492874
20
-5.97665206137421
30
0
41
1
10
75.5964882266739
20
-5.97040018048141
30
0
41
1
10
75.6609954347872
20
-5.96359386790453
30
0
41
1
10
75.7237154693013
20
-5.95629855196453
30
0
41
1
10
75.7846504708772
20
-5.94857791806223
30
0
41
1
10
75.8455014687115
20
-5.94023430949568
30
0
41
1
10
75.9062956351197
20
-5.93126362260322
30
0
41
1
10
75.9670273381645
20
-5.92166519322301
30
0
41
1
10
76.0276910107585
20
-5.91143897604755
30
0
41
1
10
76.0882444094076
20
-5.90059187292132
30
0
41
1
10
76.1486454516878
20
-5.88913178532511
30
0
41
1
10
76.2088889519986
20
-5.87706077318783
30
0
41
1
10
76.2689698994013
20
-5.86438149052291
30
0
41
1
10
76.328915330262
20
-5.85108875797113
30
0
41
1
10
76.3887518876218
20
-5.83717631191006
30
0
41
1
10
76.4484739454582
20
-5.82264397835247
30
0
41
1
10
76.5080759937609
20
-5.80749218612628
30
0
41
1
10
76.5675166909484
20
-5.79173124740209
30
0
41
1
10
76.6267549321122
20
-5.77537245427736
30
0
41
1
10
76.6857857629696
20
-5.75841829221307
30
0
41
1
10
76.7446044527521
20
-5.74087181512899
30
0
41
1
10
76.8032374454684
20
-5.72272568896529
30
0
41
1
10
76.8617106627165
20
-5.70397155004942
30
0
41
1
10
76.9200185333325
20
-5.68460969820407
30
0
41
1
10
76.9781556496086
20
-5.66464101582896
30
0
41
1
10
77.0360818957902
20
-5.64407909287243
30
0
41
1
10
77.0951334177717
20
-5.62243413561414
30
0
41
1
10
77.1552868563866
20
-5.59965876401606
30
0
41
1
10
77.2165168231497
20
-5.57570547973509
30
0
41
1
10
77.2774769250567
20
-5.55108441600607
30
0
41
1
10
77.3381979216726
20
-5.52578268747474
30
0
41
1
10
77.3986730269096
20
-5.49980111376223
30
0
41
1
10
77.4588957283489
20
-5.47314124668065
30
0
41
1
10
77.5188185460121
20
-5.4458238464362
30
0
41
1
10
77.5771462065043
20
-5.41845657744317
30
0
41
1
10
77.6338956827281
20
-5.39109048106427
30
0
41
1
10
77.6890852684355
20
-5.36377502398262
30
0
41
1
10
77.7439886148703
20
-5.33589629327237
30
0
41
1
10
77.7986299049164
20
-5.30744164870689
30
0
41
1
10
77.8530037283149
20
-5.27841230985765
30
0
41
1
10
77.9071049321252
20
-5.24881003093963
30
0
41
1
10
77.9608962888634
20
-5.21865496935241
30
0
41
1
10
78.01434104217
20
-5.18796817130979
30
0
41
1
10
78.0674350874728
20
-5.15675323961657
30
0
41
1
10
78.1201746659587
20
-5.12501425456075
30
0
41
1
10
78.1725834803565
20
-5.09273755586166
30
0
41
1
10
78.2246844745342
20
-5.05990861703815
30
0
41
1
10
78.2764723928899
20
-5.02652906604581
30
0
41
1
10
78.3279422706521
20
-4.99260103706371
30
0
41
1
10
78.3790588441031
20
-4.9581475285066
30
0
41
1
10
78.429787391889
20
-4.92319237908932
30
0
41
1
10
78.4801241353482
20
-4.88773947168321
30
0
41
1
10
78.5300656711055
20
-4.85179313308134
30
0
41
1
10
78.5796343698898
20
-4.81533786453769
30
0
41
1
10
78.6288518167989
20
-4.77835734295563
30
0
41
1
10
78.6777129248929
20
-4.74085358434617
30
0
41
1
10
78.7262129295347
20
-4.70282908459044
30
0
41
1
10
78.7743186948955
20
-4.66430952209779
30
0
41
1
10
78.8231209973061
20
-4.62440282463394
30
0
41
1
10
78.8725826661501
20
-4.58307196781322
30
0
41
1
10
78.9226645978539
20
-4.54028044309281
30
0
41
1
10
78.9722729963483
20
-4.49694255035593
30
0
41
1
10
79.021432495803
20
-4.45303607651222
30
0
41
1
10
79.0701369928707
20
-4.40856387207715
30
0
41
1
10
79.1183808480196
20
-4.36352938120166
30
0
41
1
10
79.1661262596405
20
-4.31796740553448
30
0
41
1
10
79.2124409111731
20
-4.27278716526684
30
0
41
1
10
79.2573541141094
20
-4.22802803163479
30
0
41
1
10
79.300895966279
20
-4.18372778337487
30
0
41
1
10
79.343977136432
20
-4.13897907170017
30
0
41
1
10
79.3866165898307
20
-4.09376155445772
30
0
41
1
10
79.4288094748649
20
-4.04807808658573
30
0
41
1
10
79.4705513447682
20
-4.00193196192015
30
0
41
1
10
79.5118130757227
20
-3.95535490177094
30
0
41
1
10
79.5525663157596
20
-3.90837931266391
30
0
41
1
10
79.5928082382531
20
-3.86100994695247
30
0
41
1
10
79.6325364930095
20
-3.8132519175908
30
0
41
1
10
79.6717691532136
20
-3.7650841184718
30
0
41
1
10
79.7105234306336
20
-3.71648465077795
30
0
41
1
10
79.748794690151
20
-3.66745674455054
30
0
41
1
10
79.786578733366
20
-3.61800404185245
30
0
41
1
10
79.8238490821527
20
-3.56816061522755
30
0
41
1
10
79.8605800895518
20
-3.51796115223757
30
0
41
1
10
79.8967692913088
20
-3.46741062240235
30
0
41
1
10
79.9324147287047
20
-3.41651432284712
30
0
41
1
10
79.9675326521874
20
-3.36524968850147
30
0
41
1
10
80.0021384244635
20
-3.31359337738549
30
0
41
1
10
80.036227647577
20
-3.26154899310442
30
0
41
1
10
80.0697963945383
20
-3.20912052417569
30
0
41
1
10
80.1028209861544
20
-3.15634423988795
30
0
41
1
10
80.1360558934339
20
-3.10198568488022
30
0
41
1
10
80.1694520812376
20
-3.04602094939877
30
0
41
1
10
80.2029587380838
20
-2.98842731802694
30
0
41
1
10
80.2358257153653
20
-2.93046205146707
30
0
41
1
10
80.2680694524768
20
-2.87209471424944
30
0
41
1
10
80.2996847496445
20
-2.81333014713934
30
0
41
1
10
80.3306670754182
20
-2.75417365496478
30
0
41
1
10
80.3609910598097
20
-2.69467255580801
30
0
41
1
10
80.3899724172073
20
-2.63620652404136
30
0
41
1
10
80.4176599210035
20
-2.57880776892382
30
0
41
1
10
80.4441023273028
20
-2.5225062292628
30
0
41
1
10
80.4699612604816
20
-2.46593038132911
30
0
41
1
10
80.4952479542008
20
-2.40905430519909
30
0
41
1
10
80.5199585988621
20
-2.35188236944296
30
0
41
1
10
80.5440899326927
20
-2.29441925203813
30
0
41
1
10
80.5676245891907
20
-2.23670524423699
30
0
41
1
10
80.5905461811469
20
-2.17878101973071
30
0
41
1
10
80.6128534882677
20
-2.12065212914718
30
0
41
1
10
80.6345458879135
20
-2.06232432981522
30
0
41
1
10
80.6556335103374
20
-2.00377135105585
30
0
41
1
10
80.6761254451227
20
-1.94496629312466
30
0
41
1
10
80.6960182321009
20
-1.88591387021474
30
0
41
1
10
80.7153089916824
20
-1.82661906483793
30
0
41
1
10
80.7339836765833
20
-1.76712373901236
30
0
41
1
10
80.7520292532582
20
-1.7074700577177
30
0
41
1
10
80.7694449634975
20
-1.6476637065541
30
0
41
1
10
80.7862306726668
20
-1.5877105284173
30
0
41
1
10
80.8023943528792
20
-1.52758335766265
30
0
41
1
10
80.8179428754897
20
-1.46725450205708
30
0
41
1
10
80.8328731733607
20
-1.4067289953431
30
0
41
1
10
80.8471827908107
20
-1.34601209323118
30
0
41
1
10
80.8608611588828
20
-1.28514692769158
30
0
41
1
10
80.8742172104075
20
-1.22268762366176
30
0
41
1
10
80.887195407263
20
-1.15862782638426
30
0
41
1
10
80.8997388934019
20
-1.09296299413144
30
0
41
1
10
80.9115506666998
20
-1.02715975151884
30
0
41
1
10
80.9226362962277
20
-0.961183099400706
30
0
41
1
10
80.9329924013105
20
-0.895039595453065
30
0
41
1
10
80.9426164445059
20
-0.828736017998943
30
0
41
1
10
80.9515000246969
20
-0.762326949782214
30
0
41
1
10
80.9594271054391
20
-0.697574633657834
30
0
41
1
10
80.9664633522174
20
-0.634494482465005
30
0
41
1
10
80.9726731473347
20
-0.573099342494525
30
0
41
1
10
80.978251457101
20
-0.511642276734037
30
0
41
1
10
80.9832003267755
20
-0.450095447622833
30
0
41
1
10
80.987517708257
20
-0.388464263393985
30
0
41
1
10
80.991202184503
20
-0.32675422809046
30
0
41
1
10
80.9942508474005
20
-0.265008740909713
30
0
41
1
10
80.9966618204386
20
-0.203271252108718
30
0
41
1
10
80.9984358652329
20
-0.141547390396968
30
0
41
1
10
80.9995743814553
20
-0.0798427640647018
30
0
41
1
10
81.0000783186339
20
-0.0181295028651764
30
0
41
1
10
80.999947457471
20
0.0436203167216158
30
0
41
1
10
80.9991802363198
20
0.10540112602968
30
0
41
1
10
80.9977757310549
20
0.167207316822106
30
0
41
1
10
80.9957346502672
20
0.228995362546994
30
0
41
1
10
80.9930587360989
20
0.290721763870091
30
0
41
1
10
80.9897492484629
20
0.3523809761782
30
0
41
1
10
80.985808080669
20
0.413967534286174
30
0
41
1
10
80.9812339194412
20
0.475509340474743
30
0
41
1
10
80.9760242874875
20
0.537034179887113
30
0
41
1
10
80.9701781237422
20
0.598536382273701
30
0
41
1
10
80.9636950042442
20
0.660010294726521
30
0
41
1
10
80.9565792421719
20
0.721412659566415
30
0
41
1
10
80.9486484578968
20
0.784186239104795
30
0
41
1
10
80.9398497188334
20
0.848318640013547
30
0
41
1
10
80.9301294986847
20
0.913795412169235
30
0
41
1
10
80.9196881053237
20
0.9791586765175
30
0
41
1
10
80.908519618194
20
1.04444228158221
30
0
41
1
10
80.8966232301483
20
1.10963915019329
30
0
41
1
10
80.8839989623949
20
1.17474230505538
30
0
41
1
10
80.8706567251408
20
1.23969912966457
30
0
41
1
10
80.8569444811711
20
1.30290515363617
30
0
41
1
10
80.8429238185523
20
1.36436695307622
30
0
41
1
10
80.8286545819942
20
1.42409295658538
30
0
41
1
10
80.8137756986823
20
1.48366702217775
30
0
41
1
10
80.798280215121
20
1.54311559317192
30
0
41
1
10
80.7821681113455
20
1.60243305089063
30
0
41
1
10
80.7654399645033
20
1.66161391102312
30
0
41
1
10
80.7481071674282
20
1.72061718017742
30
0
41
1
10
80.7301820851101
20
1.77940212701304
30
0
41
1
10
80.7116673329541
20
1.83796387665592
30
0
41
1
10
80.6925660861457
20
1.89629779210821
30
0
41
1
10
80.6728703234544
20
1.95443008325322
30
0
41
1
10
80.6525710107083
20
2.01238640784248
30
0
41
1
10
80.6316685963736
20
2.0701612163114
30
0
41
1
10
80.6101641031131
20
2.12774913888905
30
0
41
1
10
80.5880721628752
20
2.18511049038158
30
0
41
1
10
80.565408350303
20
2.24220592219043
30
0
41
1
10
80.542175657223
20
2.29903083679054
30
0
41
1
10
80.5183776042859
20
2.35558091637325
30
0
41
1
10
80.494004103731
20
2.41188151107088
30
0
41
1
10
80.4690441163372
20
2.46795732541144
30
0
41
1
10
80.4434985356744
20
2.52380291615565
30
0
41
1
10
80.4173688046701
20
2.57941306115343
30
0
41
1
10
80.3906726341651
20
2.63474965117572
30
0
41
1
10
80.3627829041394
20
2.69107921698016
30
0
41
1
10
80.3336553609787
20
2.74837364991238
30
0
41
1
10
80.3032458435684
20
2.80660284036449
30
0
41
1
10
80.272202608167
20
2.86449237144352
30
0
41
1
10
80.2405096330502
20
2.92207120406986
30
0
41
1
10
80.2081684349034
20
2.97933275613131
30
0
41
1
10
80.1751812145658
20
3.03627078637989
30
0
41
1
10
80.1415735025927
20
3.09284072330872
30
0
41
1
10
80.1080500638582
20
3.14788519911752
30
0
41
1
10
80.0746573560403
20
3.20142512929931
30
0
41
1
10
80.0414403162098
20
3.25348255784404
30
0
41
1
10
80.0076908877992
20
3.30519317104852
30
0
41
1
10
79.9733938046471
20
3.35657972635516
30
0
41
1
10
79.9385508375096
20
3.40763696119724
30
0
41
1
10
79.903164260836
20
3.4583599210847
30
0
41
1
10
79.8672581980428
20
3.50871365005862
30
0
41
1
10
79.8308576073647
20
3.55866376461691
30
0
41
1
10
79.7939665018526
20
3.60820655515378
30
0
41
1
10
79.7565893337264
20
3.65733870244083
30
0
41
1
10
79.7187098718041
20
3.70608234694424
30
0
41
1
10
79.6803110616332
20
3.75445882508053
30
0
41
1
10
79.6413950623376
20
3.80246305187259
30
0
41
1
10
79.6019645085897
20
3.85009028122785
30
0
41
1
10
79.5620461951694
20
3.89730776213549
30
0
41
1
10
79.5216676951541
20
3.94408338444069
30
0
41
1
10
79.4808332712015
20
3.99041377539629
30
0
41
1
10
79.4395475922367
20
4.0362959798978
30
0
41
1
10
79.3977927052356
20
4.08175062516047
30
0
41
1
10
79.3555498613589
20
4.12679751997738
30
0
41
1
10
79.3128215943232
20
4.17143176749784
30
0
41
1
10
79.2696108876532
20
4.21564884015785
30
0
41
1
10
79.2259470560051
20
4.25941833521818
30
0
41
1
10
79.1808187027166
20
4.30373322359462
30
0
41
1
10
79.1341926424929
20
4.34855220754246
30
0
41
1
10
79.0860364172288
20
4.39383209111754
30
0
41
1
10
79.0373840051729
20
4.43857922530566
30
0
41
1
10
78.9882103385774
20
4.48281587128889
30
0
41
1
10
78.9385189051526
20
4.52653617000616
30
0
41
1
10
78.8883137474397
20
4.56973478861193
30
0
41
1
10
78.8376339595821
20
4.61237754066277
30
0
41
1
10
78.7875204394521
20
4.65360772421566
30
0
41
1
10
78.7380104381132
20
4.6934600601844
30
0
41
1
10
78.6891394420977
20
4.73196986349699
30
0
41
1
10
78.6398704794768
20
4.76997195103556
30
0
41
1
10
78.5901810741148
20
4.80748303431155
30
0
41
1
10
78.540074590056
20
4.84449853074104
30
0
41
1
10
78.4895547947672
20
4.8810143097048
30
0
41
1
10
78.4386566358403
20
4.91700466157392
30
0
41
1
10
78.3874156562939
20
4.95244473088273
30
0
41
1
10
78.3358369151319
20
4.98733216665969
30
0
41
1
10
78.283925789063
20
5.02166513592818
30
0
41
1
10
78.2316591663776
20
5.05545935772961
30
0
41
1
10
78.1790131623239
20
5.08872964593811
30
0
41
1
10
78.1259915142142
20
5.1214716661512
30
0
41
1
10
78.0725983337416
20
5.15368156942258
30
0
41
1
10
78.0188707299737
20
5.18533651205229
30
0
41
1
10
77.9648463324366
20
5.21641455723241
30
0
41
1
10
77.9105304017825
20
5.24691374192769
30
0
41
1
10
77.855928480163
20
5.27683265127436
30
0
41
1
10
77.8010161496467
20
5.3061850553137
30
0
41
1
10
77.7457682486375
20
5.33498377742099
30
0
41
1
10
77.6901888847761
20
5.36322476111871
30
0
41
1
10
77.6342825088558
20
5.39090447111978
30
0
41
1
10
77.5780882085378
20
5.41800309596478
30
0
41
1
10
77.520283378765
20
5.44514128317625
30
0
41
1
10
77.4608493632147
20
5.47226704215389
30
0
41
1
10
77.3997689228315
20
5.49932671357607
30
0
41
1
10
77.3383871756574
20
5.5257064660083
30
0
41
1
10
77.276671636321
20
5.55141945463126
30
0
41
1
10
77.2146277755316
20
5.57646094645045
30
0
41
1
10
77.1522614656848
20
5.60082694466014
30
0
41
1
10
77.0896232417576
20
5.62449713025303
30
0
41
1
10
77.0282533176703
20
5.64690865268511
30
0
41
1
10
76.9681798306537
20
5.66811712151007
30
0
41
1
10
76.9094284438107
20
5.68817772717979
30
0
41
1
10
76.8504693342308
20
5.7076306025207
30
0
41
1
10
76.7912755191981
20
5.72648406584343
30
0
41
1
10
76.7318517841833
20
5.74473480691557
30
0
41
1
10
76.6722031637116
20
5.7623801016523
30
0
41
1
10
76.6123716480272
20
5.77940711047959
30
0
41
1
10
76.5523995006463
20
5.79580400719449
30
0
41
1
10
76.4922923966308
20
5.8115701898417
30
0
41
1
10
76.4320561504833
20
5.82670568084077
30
0
41
1
10
76.3716635516785
20
5.84121768291722
30
0
41
1
10
76.3110869002162
20
5.85511229247483
30
0
41
1
10
76.2503312871553
20
5.86838660278491
30
0
41
1
10
76.1894020047612
20
5.88103832089788
30
0
41
1
10
76.1283422119138
20
5.89305809571149
30
0
41
1
10
76.0671952609794
20
5.90443761383658
30
0
41
1
10
76.0059669044604
20
5.91517676437545
30
0
41
1
10
75.9446629789077
20
5.92527607962438
30
0
41
1
10
75.88325562794
20
5.93474053709093
30
0
41
1
10
75.8217166447785
20
5.94357395775989
30
0
41
1
10
75.7600513855703
20
5.9517738794658
30
0
41
1
10
75.6982653547322
20
5.9593384771143
30
0
41
1
10
75.6364025239939
20
5.96626201026157
30
0
41
1
10
75.572992962376
20
5.97269336252161
30
0
41
1
10
75.5080365567658
20
5.97857681998178
30
0
41
1
10
75.44153513746
20
5.9838555715747
30
0
41
1
10
75.3749779114741
20
5.98839491005537
30
0
41
1
10
75.308329624391
20
5.99219659172769
30
0
41
1
10
75.2415971637889
20
5.99525803756625
30
0
41
1
10
75.1747875335015
20
5.99757753215842
30
0
41
1
10
75.1079557214679
20
5.99915275240991
30
0
41
1
10
75.042881732251
20
5.99996134146462
30
0
41
1
10
74.9795735374181
20
6.00007033502038
30
0
41
1
10
74.9180366919098
20
5.99954518485857
30
0
41
1
10
74.85650867029
20
5.99838907544732
30
0
41
1
10
74.7949617866637
20
5.99660105843981
30
0
41
1
10
74.7334016065106
20
5.9941797500835
30
0
41
1
10
74.6718337125889
20
5.99112439890409
30
0
41
1
10
74.6103012376785
20
5.98743687980626
30
0
41
1
10
74.5488472623542
20
5.98312008897595
30
0
41
1
10
74.4874772462696
20
5.97817543223505
30
0
41
1
10
74.4261965515835
20
5.97260493883655
30
0
41
1
10
74.3649775396074
20
5.96640657645783
30
0
41
1
10
74.3037927439435
20
5.95957716792725
30
0
41
1
10
74.242647808267
20
5.95211582851134
30
0
41
1
10
74.1815483379033
20
5.94402230061764
30
0
41
1
10
74.1205370778398
20
5.93530201353567
30
0
41
1
10
74.0596566440676
20
5.92596140921324
30
0
41
1
10
73.9989123347088
20
5.91600236551205
30
0
41
1
10
73.9383092946809
20
5.90542736768708
30
0
41
1
10
73.8778201589183
20
5.89423215638095
30
0
41
1
10
73.8174178952318
20
5.88241136079517
30
0
41
1
10
73.7571081673355
20
5.86996459317368
30
0
41
1
10
73.6968965468105
20
5.85689208145652
30
0
41
1
10
73.6368250150107
20
5.8432027309083
30
0
41
1
10
73.575493945996
20
5.82856237485457
30
0
41
1
10
73.512921225395
20
5.81292051319759
30
0
41
1
10
73.4491267935007
20
5.79622628773113
30
0
41
1
10
73.3855230858602
20
5.77883311252492
30
0
41
1
10
73.3220775878746
20
5.76073162415043
30
0
41
1
10
73.2587972765807
20
5.74192182981458
30
0
41
1
10
73.1956889384419
20
5.72240452247074
30
0
41
1
10
73.1328029526211
20
5.70219502283714
30
0
41
1
10
73.0716019525136
20
5.68178111608089
30
0
41
1
10
73.0120737891045
20
5.66121955750299
30
0
41
1
10
72.9542047356319
20
5.64056542121285
30
0
41
1
10
72.8965534880715
20
5.61932113265401
30
0
41
1
10
72.8390945795837
20
5.59747696863373
30
0
41
1
10
72.7818335485036
20
5.57503352470756
30
0
41
1
10
72.7247757356716
20
5.55199196449892
30
0
41
1
10
72.667960481016
20
5.52836798669475
30
0
41
1
10
72.6114267627353
20
5.50417822626604
30
0
41
1
10
72.5551790954085
20
5.47942579987962
30
0
41
1
10
72.4992217000815
20
5.45411434426821
30
0
41
1
10
72.4435294519664
20
5.42823308275232
30
0
41
1
10
72.3880779037323
20
5.40177030452717
30
0
41
1
10
72.3328724741996
20
5.3747270434745
30
0
41
1
10
72.2779183457867
20
5.34710487431799
30
0
41
1
10
72.2232531988802
20
5.31892253706781
30
0
41
1
10
72.168914278945
20
5.29019966903534
30
0
41
1
10
72.1149057921538
20
5.26093971197938
30
0
41
1
10
72.0612316164403
20
5.2311465941518
30
0
41
1
10
72.0078677322932
20
5.20080757925514
30
0
41
1
10
71.9547908537425
20
5.16990905348066
30
0
41
1
10
71.9020062560619
20
5.13845246400814
30
0
41
1
10
71.8495189428656
20
5.10643977212539
30
0
41
1
10
71.7973647256508
20
5.07389259047405
30
0
41
1
10
71.7443574865215
20
5.04005365753072
30
0
41
1
10
71.6905297728169
20
5.00488211369754
30
0
41
1
10
71.6359160978723
20
4.96833739454228
30
0
41
1
10
71.5817081079922
20
4.93119847949374
30
0
41
1
10
71.5278788461321
20
4.89344633746328
30
0
41
1
10
71.4744346605128
20
4.85508313510281
30
0
41
1
10
71.4213814991853
20
4.81611167629321
30
0
41
1
10
71.3687607555078
20
4.77656200373705
30
0
41
1
10
71.3176052493857
20
4.73722810223616
30
0
41
1
10
71.2678903968851
20
4.69815237499245
30
0
41
1
10
71.2195906532247
20
4.6593757228367
30
0
41
1
10
71.171694783446
20
4.62010355822374
30
0
41
1
10
71.1241817080403
20
4.58031809313148
30
0
41
1
10
71.0770565093626
20
4.54002162401792
30
0
41
1
10
71.0303239152283
20
4.49921692003286
30
0
41
1
10
70.984016271449
20
4.45793187460682
30
0
41
1
10
70.938165252377
20
4.41619515040229
30
0
41
1
10
70.8927741547959
20
4.37401113025496
30
0
41
1
10
70.8478458440903
20
4.33138459879078
30
0
41
1
10
70.8033599975079
20
4.28829688557604
30
0
41
1
10
70.7592971221903
20
4.24472851652391
30
0
41
1
10
70.7156621071873
20
4.20068216565681
30
0
41
1
10
70.6724594567041
20
4.15616095295745
30
0
41
1
10
70.6297191004812
20
4.11119529133116
30
0
41
1
10
70.5874702319361
20
4.06581629914434
30
0
41
1
10
70.5457158032429
20
4.02002859008787
30
0
41
1
10
70.5044583077466
20
3.9738371478145
30
0
41
1
10
70.4636790943747
20
3.92722170082282
30
0
41
1
10
70.4233603554812
20
3.88016118890199
30
0
41
1
10
70.3835067742607
20
3.83265865799383
30
0
41
1
10
70.3441226173082
20
3.78471757489269
30
0
41
1
10
70.305235258149
20
3.73637072879649
30
0
41
1
10
70.2659600423185
20
3.68649437072256
30
0
41
1
10
70.2263421738183
20
3.63505951583543
30
0
41
1
10
70.1864287094728
20
3.58203812800613
30
0
41
1
10
70.1471026148133
20
3.52857675096519
30
0
41
1
10
70.1083442622123
20
3.47464759824956
30
0
41
1
10
70.0701592349143
20
3.42025480414432
30
0
41
1
10
70.0325525237152
20
3.36540301907012
30
0
41
1
10
69.9955543414818
20
3.31013546728188
30
0
41
1
10
69.9599468052275
20
3.25564839619253
30
0
41
1
10
69.9256887925895
20
3.20197698534669
30
0
41
1
10
69.8927388377861
20
3.14915441770293
30
0
41
1
10
69.8603370952824
20
3.09599036237327
30
0
41
1
10
69.8284693651169
20
3.04246048899708
30
0
41
1
10
69.7971399034217
20
2.98856866000927
30
0
41
1
10
69.7663524669178
20
2.93431910145633
30
0
41
1
10
69.7361289653088
20
2.87974961096923
30
0
41
1
10
69.7064903847979
20
2.82489848260382
30
0
41
1
10
69.6774385621671
20
2.76977104516957
30
0
41
1
10
69.6489747751737
20
2.71437289711574
30
0
41
1
10
69.6210858868796
20
2.65867921245183
30
0
41
1
10
69.5937597247055
20
2.6026644359641
30
0
41
1
10
69.5670002527487
20
2.54633279882536
30
0
41
1
10
69.5408109009117
20
2.48968886183507
30
0
41
1
10
69.5152104873967
20
2.43277234442487
30
0
41
1
10
69.4902168623618
20
2.37562338467399
30
0
41
1
10
69.4658314395348
20
2.31824749044727
30
0
41
1
10
69.4420550435985
20
2.26065039708113
30
0
41
1
10
69.4188765962032
20
2.20280615048869
30
0
41
1
10
69.3962860400796
20
2.14468812913051
30
0
41
1
10
69.3742870078197
20
2.08630092104652
30
0
41
1
10
69.3528825624192
20
2.02764940566232
30
0
41
1
10
69.3320882558966
20
1.9687749876124
30
0
41
1
10
69.3114283174321
20
1.90828381928467
30
0
41
1
10
69.2909569699482
20
1.84616296933378
30
0
41
1
10
69.270729958367
20
1.78240113224846
30
0
41
1
10
69.2512137348351
20
1.71841404857844
30
0
41
1
10
69.2323986915013
20
1.65416768902599
30
0
41
1
10
69.2142889771729
20
1.58966810587583
30
0
41
1
10
69.196887938292
20
1.5249216732514
30
0
41
1
10
69.1802103751062
20
1.45998140683787
30
0
41
1
10
69.1649674531215
20
1.39774953621645
30
0
41
1
10
69.1510525089903
20
1.33825907961266
30
0
41
1
10
69.1383636244939
20
1.28153798947782
30
0
41
1
10
69.1262235605717
20
1.22469162106242
30
0
41
1
10
69.1146340867074
20
1.16772808407719
30
0
41
1
10
69.1035969636549
20
1.11065550500783
30
0
41
1
10
69.0931134494005
20
1.05347925422398
30
0
41
1
10
69.0831844556782
20
0.996201979506524
30
0
41
1
10
69.073810165906
20
0.938826473874195
30
0
41
1
10
69.0649913843241
20
0.881358263752127
30
0
41
1
10
69.0567293868596
20
0.823805592243338
30
0
41
1
10
69.0490254494268
20
0.766176702470009
30
0
41
1
10
69.0418805036615
20
0.708477060413452
30
0
41
1
10
69.0352952921093
20
0.650709378620007
30
0
41
1
10
69.0292698161641
20
0.592876468746567
30
0
41
1
10
69.0238045394156
20
0.53498390491281
30
0
41
1
10
69.0189002391299
20
0.477040013547937
30
0
41
1
10
69.0145576944147
20
0.419053117389666
30
0
41
1
10
69.0107329667045
20
0.360345265842229
30
0
41
1
10
69.0074500737556
20
0.300917530798077
30
0
41
1
10
69.0047326319683
20
0.240771821792325
30
0
41
1
10
69.002618532762
20
0.180598201700243
30
0
41
1
10
69.0011080834565
20
0.120406135306298
30
0
41
1
10
69.0002015251858
20
0.0602042575096165
30
0
41
1
10
69.0000000531767
20
0.0200681928279665
30
0
41
1
10
69.0000000352743
20
-0.0205632541908342
30
0
0
SPLINE
5
CF
100
AcDbEntity
8
SK1
62
256
6
ByLayer
370
-1
48
1
60
0
100
AcDbSpline
70
4
71
3
72
80
73
76
40
0
40
0
40
0
40
0
40
0.015008719647774
40
0.0300222169839462
40
0.045037565532229
40
0.0600515471737593
40
0.0750606731434785
40
0.0902246333911636
40
0.105392856448099
40
0.120562725412855
40
0.135731370251604
40
0.150895684352012
40
0.167063837016453
40
0.183236479763008
40
0.199410846936802
40
0.21558391659993
40
0.231752427423628
40
0.247917933551529
40
0.264087406113225
40
0.28025836313204
40
0.296428139734134
40
0.312593900926614
40
0.329339029543708
40
0.346088185418693
40
0.362838790340399
40
0.379588144567611
40
0.396333439584808
40
0.414675449157563
40
0.433020866034413
40
0.451366294247192
40
0.4697083192809
40
0.488050711907594
40
0.506396591548072
40
0.524742359720648
40
0.543084600316596
40
0.557759744161412
40
0.572437962026317
40
0.587117010773437
40
0.601794855267746
40
0.616469685898079
40
0.632123939998578
40
0.647783085187806
40
0.663443268233845
40
0.679101271534317
40
0.694754567628052
40
0.709518721478459
40
0.724284526238116
40
0.739048287319254
40
0.750123683248774
40
0.761201130102622
40
0.772278263077734
40
0.783353230909324
40
0.794679778161758
40
0.806009430480798
40
0.817338539946346
40
0.828664346734622
40
0.837834721074897
40
0.847007423462756
40
0.856179789578131
40
0.865349705245548
40
0.87452398756105
40
0.883701421354611
40
0.892878430769064
40
0.902052134182117
40
0.911615431841859
40
0.921183410667528
40
0.930750863454938
40
0.940313443431454
40
0.950200340557188
40
0.960090242940644
40
0.969976849382474
40
0.97748118273345
40
0.984988493001605
40
0.99249574548195
40
1
40
1
40
1
40
1
41
1
10
-31.8931944457737
20
-20.4073694667617
30
0
41
1
10
-31.8922352440765
20
-20.4138054015759
30
0
41
1
10
-31.8901251344464
20
-20.426571613862
30
0
41
1
10
-31.8863796092371
20
-20.4454019557293
30
0
41
1
10
-31.8820705355728
20
-20.4639063464747
30
0
41
1
10
-31.877209170546
20
-20.4820763060337
30
0
41
1
10
-31.87178875732
20
-20.4999672890704
30
0
41
1
10
-31.865813042797
20
-20.5175726416859
30
0
41
1
10
-31.8592866432284
20
-20.5348884430448
30
0
41
1
10
-31.8522411108628
20
-20.5518516374856
30
0
41
1
10
-31.8446885758982
20
-20.5684567890039
30
0
41
1
10
-31.8364621411734
20
-20.585059536967
30
0
41
1
10
-31.827532502715
20
-20.6016314433795
30
0
41
1
10
-31.817871072847
20
-20.618145288277
30
0
41
1
10
-31.8076778276152
20
-20.6342502285527
30
0
41
1
10
-31.7969654662007
20
-20.6499431877358
30
0
41
1
10
-31.7857454285416
20
-20.6652226251053
30
0
41
1
10
-31.7740266083531
20
-20.6800902565997
30
0
41
1
10
-31.7618165987151
20
-20.6945499680624
30
0
41
1
10
-31.7491231412137
20
-20.7086039635636
30
0
41
1
10
-31.7359563005012
20
-20.7222516639644
30
0
41
1
10
-31.7221612408585
20
-20.7356525561084
30
0
41
1
10
-31.7077244426439
20
-20.7487926824428
30
0
41
1
10
-31.6926308496975
20
-20.7616597145177
30
0
41
1
10
-31.6770546829742
20
-20.7741032613365
30
0
41
1
10
-31.6610037068348
20
-20.7861245430464
30
0
41
1
10
-31.643958322332
20
-20.7980950450617
30
0
41
1
10
-31.6258682226749
20
-20.8099714948449
30
0
41
1
10
-31.6066791372349
20
-20.8217112743321
30
0
41
1
10
-31.5869346761695
20
-20.8329641218474
30
0
41
1
10
-31.5666374674565
20
-20.8437346245792
30
0
41
1
10
-31.5457877510279
20
-20.8540282146335
30
0
41
1
10
-31.5243809428617
20
-20.8638521140203
30
0
41
1
10
-31.5024146197214
20
-20.8732118351689
30
0
41
1
10
-31.4813873083649
20
-20.8815196256405
30
0
41
1
10
-31.4614190865643
20
-20.8888808286601
30
0
41
1
10
-31.4426160002504
20
-20.8953906074582
30
0
41
1
10
-31.423437576055
20
-20.9016184285505
30
0
41
1
10
-31.4038810140573
20
-20.9075669005996
30
0
41
1
10
-31.3834976420165
20
-20.913365507104
30
0
41
1
10
-31.3622491758368
20
-20.9189961832234
30
0
41
1
10
-31.3400899899094
20
-20.9244425837255
30
0
41
1
10
-31.3174609931185
20
-20.9295898038903
30
0
41
1
10
-31.2943550302391
20
-20.9344416347894
30
0
41
1
10
-31.2712086828906
20
-20.938916047523
30
0
41
1
10
-31.2480414073917
20
-20.9430365520755
30
0
41
1
10
-31.224868664498
20
-20.9468270974429
30
0
41
1
10
-31.2031910219872
20
-20.9500779984675
30
0
41
1
10
-31.1831286164383
20
-20.9528583214918
30
0
41
1
10
-31.1647899472632
20
-20.9552281710167
30
0
41
1
10
-31.1461659286325
20
-20.9574673931389
30
0
41
1
10
-31.1271093604648
20
-20.9595938968403
30
0
41
1
10
-31.107605824793
20
-20.9616063190537
30
0
41
1
10
-31.0876405342265
20
-20.9635041897029
30
0
41
1
10
-31.0673561574369
20
-20.9652749340265
30
0
41
1
10
-31.0480580737927
20
-20.9668163549131
30
0
41
1
10
-31.029810976823
20
-20.9681564737846
30
0
41
1
10
-31.0126742289081
20
-20.9693206140548
30
0
41
1
10
-30.9953239406751
20
-20.9704074461216
30
0
41
1
10
-30.9777598351597
20
-20.9714183622816
30
0
41
1
10
-30.9599812329972
20
-20.9723546332585
30
0
41
1
10
-30.9419902447869
20
-20.973217862729
30
0
41
1
10
-30.9237965990006
20
-20.974009194472
30
0
41
1
10
-30.9051481383997
20
-20.9747400049642
30
0
41
1
10
-30.886038550344
20
-20.9754080911212
30
0
41
1
10
-30.8664681029102
20
-20.9760115365497
30
0
41
1
10
-30.846716499153
20
-20.9765423797455
30
0
41
1
10
-30.8265766748975
20
-20.9770069107365
30
0
41
1
10
-30.8060567180367
20
-20.9774034702727
30
0
41
1
10
-30.7851727476167
20
-20.9777304192755
30
0
41
1
10
-30.7658615233855
20
-20.9779638911288
30
0
41
1
10
-30.7481725454211
20
-20.9781235594129
30
0
41
1
10
-30.732135913561
20
-20.9782265340742
30
0
41
1
10
-30.7160726201314
20
-20.9782882313066
30
0
41
1
10
-30.705358483768
20
-20.97830193985
30
0
41
1
10
-30.7000000000006
20
-20.9783019329304
30
0
0
SPLINE
5
D0
100
AcDbEntity
8
SK1
62
256
6
ByLayer
370
-1
48
1
60
0
100
AcDbSpline
70
4
71
3
72
16
73
12
40
0
40
0
40
0
40
0
40
0.124993154603022
40
0.249986647392056
40
0.374980070531196
40
0.499973130156823
40
0.599978279351304
40
0.699983875908692
40
0.799989540384304
40
0.899994981324082
40
1
40
1
40
1
40
1
41
1
10
-30.7000000000006
20
-20.9783019329304
30
0
41
1
10
-30.605618004315
20
-20.9792049075143
30
0
41
1
10
-30.416873606774
20
-20.9809166638359
30
0
41
1
10
-30.1338142416443
20
-20.9832094081696
30
0
41
1
10
-29.8508189787627
20
-20.9852041743836
30
0
41
1
10
-29.5867464001213
20
-20.9867738238202
30
0
41
1
10
-29.3415852760433
20
-20.9879744236587
30
0
41
1
10
-29.1153241075823
20
-20.9888596766313
30
0
41
1
10
-28.8891181251869
20
-20.9895083726461
30
0
41
1
10
-28.6629717632753
20
-20.9899089571791
30
0
41
1
10
-28.5122514136793
20
-20.9899985587169
30
0
41
1
10
-28.4369019648397
20
-20.99
30
0
0
SPLINE
5
D1
100
AcDbEntity
8
1
62
256
6
ByLayer
370
-1
48
1
60
0
100
AcDbSpline
70
4
71
3
72
12
73
8
40
0
40
0
40
0
40
0
40
0.201999752250207
40
0.404010161956242
40
0.606024127470184
40
0.808034541585384
40
1
40
1
40
1
40
1
41
1
10
4.94999956280016
20
31.4750002238783
30
0
41
1
10
4.95000049098781
20
31.4749998509578
30
0
41
1
10
4.95017630668753
20
31.4749551741183
30
0
41
1
10
4.95096952500387
20
31.4747535419499
30
0
41
1
10
4.95229130153661
20
31.4744176453099
30
0
41
1
10
4.95411086894754
20
31.4739553506718
30
0
41
1
10
4.9556486606586
20
31.4735647492661
30
0
41
1
10
4.9564774825691
20
31.4733542419087
30
0
0
SPLINE
5
D2
100
AcDbEntity
8
1
62
256
6
ByLayer
370
-1
48
1
60
0
100
AcDbSpline
70
4
71
3
72
187
73
183
40
0
40
0
40
0
40
0
40
0.0060503865044807
40
0.0121012147307522
40
0.018152190405828
40
0.024203018918466
40
0.0302534056631437
40
0.0363037885074406
40
0.0423546122027643
40
0.0484055833515871
40
0.0544564078933148
40
0.0605067914475517
40
0.0666165626679552
40
0.0727267861333717
40
0.0788371611583824
40
0.084947386050009
40
0.091057158466678
40
0.0972445667302263
40
0.103432442113823
40
0.109620474328441
40
0.115808351725815
40
0.121995761678465
40
0.128183154500368
40
0.134371011160524
40
0.140559023782345
40
0.146746882883474
40
0.1529342777528
40
0.159184311405405
40
0.165434819173357
40
0.171685486560791
40
0.177935997205313
40
0.184186033270709
40
0.189285352883451
40
0.194384927866263
40
0.199484588714076
40
0.204584165060042
40
0.209683485816131
40
0.214791321720118
40
0.219899412249562
40
0.225007588421227
40
0.230115680362136
40
0.235223517449991
40
0.240322817477672
40
0.245422368814825
40
0.250522004683931
40
0.255621557423982
40
0.260720858628347
40
0.26582853870515
40
0.270936469309429
40
0.276044484170711
40
0.281152416150856
40
0.286260097381666
40
0.291359378224825
40
0.296458906429371
40
0.301558517793109
40
0.306658047293744
40
0.311757329223997
40
0.3168648597412
40
0.32197263700992
40
0.32708049718458
40
0.332188275654633
40
0.337295807179456
40
0.342745531090909
40
0.348195552688231
40
0.353645674272133
40
0.359095697249579
40
0.364545422318619
40
0.370005080851463
40
0.375465036858028
40
0.380925092670204
40
0.386385049847609
40
0.391844709362502
40
0.397081289582584
40
0.402318130980551
40
0.40755505987632
40
0.412791902059427
40
0.418028482938047
40
0.423265058277227
40
0.428501893828539
40
0.433738816440415
40
0.438975652558256
40
0.444212228372614
40
0.449448800401457
40
0.454685632003945
40
0.459922550332957
40
0.465159382272109
40
0.47039595458333
40
0.475720348217695
40
0.481045014391204
40
0.486369771493612
40
0.491694437773128
40
0.497018831496406
40
0.502400736931104
40
0.507782923889042
40
0.513165204632955
40
0.518547391432933
40
0.523929296735141
40
0.529311204053827
40
0.534693393338938
40
0.540075676418893
40
0.545457865282429
40
0.550839772247518
40
0.556221683266903
40
0.561603877069242
40
0.566986164806521
40
0.572368357936432
40
0.577750268391817
40
0.583227376524643
40
0.588704783956973
40
0.594182290674506
40
0.599659697134544
40
0.605136804451856
40
0.610464907497482
40
0.615793287517733
40
0.621121759325878
40
0.626450138275404
40
0.631778240422955
40
0.637106351495496
40
0.642434741237857
40
0.647763223244284
40
0.653091611746811
40
0.658419721779438
40
0.663747841974051
40
0.669076242753765
40
0.67440473636411
40
0.679733135767149
40
0.68506125480707
40
0.690483414481449
40
0.695905872080757
40
0.7013284281835
40
0.706750884197452
40
0.712173042542105
40
0.71765906650595
40
0.723145401507773
40
0.728631839309188
40
0.734118172579469
40
0.739604195090969
40
0.745090231301563
40
0.750576581088698
40
0.756063034510527
40
0.761549382544436
40
0.767035417284498
40
0.772521465747156
40
0.778007830315805
40
0.78349429937779
40
0.788980662221975
40
0.794466709238227
40
0.800058658327739
40
0.805650944801953
40
0.811243342839544
40
0.816835627538875
40
0.822427575139686
40
0.828267483086496
40
0.83410777819773
40
0.839948201389135
40
0.845788494562574
40
0.851628400884028
40
0.857468321761954
40
0.863308632431005
40
0.869149072184043
40
0.874989381157951
40
0.880829300614049
40
0.886721497726441
40
0.892614097485882
40
0.898506830750166
40
0.904399429067018
40
0.910291624969414
40
0.91625307452516
40
0.922214942970968
40
0.928176950506749
40
0.93413881782794
40
0.94010026644039
40
0.94606172265288
40
0.952023599045703
40
0.957985615185754
40
0.963947490884722
40
0.969908946515228
40
0.975926868720071
40
0.981945223819647
40
0.987963723144253
40
0.993982077999823
40
1
40
1
40
1
40
1
41
1
10
12.95
20
30.4413472927858
30
0
41
1
10
12.9245499098829
20
30.4413473217302
30
0
41
1
10
12.8736507333296
20
30.4414111882442
30
0
41
1
10
12.7973055574755
20
30.4416985382681
30
0
41
1
10
12.7209740041748
20
30.442177122871
30
0
41
1
10
12.6446664315173
20
30.4428467507886
30
0
41
1
10
12.5683911111075
20
30.4437072313001
30
0
41
1
10
12.4921529578966
20
30.4447584583634
30
0
41
1
10
12.4159569011102
20
30.4459998202771
30
0
41
1
10
12.3398109178993
20
30.4474307083499
30
0
41
1
10
12.2637260864435
20
30.4490504705035
30
0
41
1
10
12.1874617022846
20
30.4508644436297
30
0
41
1
10
12.1110234953688
20
30.4528743223751
30
0
41
1
10
12.0344173666605
20
30.4550812844347
30
0
41
1
10
11.9578999111111
20
30.4574777710303
30
0
41
1
10
11.8814824106801
20
30.4600626735691
30
0
41
1
10
11.8048497982239
20
30.4628467400806
30
0
41
1
10
11.7280087018
20
30.4658319107378
30
0
41
1
10
11.6509659545721
20
30.4690195875699
30
0
41
1
10
11.5740525792474
20
30.4723957676946
30
0
41
1
10
11.4972801033659
20
30.4759588592891
30
0
41
1
10
11.420656900401
20
30.4797074270924
30
0
41
1
10
11.3441881018797
20
30.4836402300626
30
0
41
1
10
11.267878606153
20
30.4877555377091
30
0
41
1
10
11.1917364516072
20
30.4920515107392
30
0
41
1
10
11.1157729174042
20
30.4965261406204
30
0
41
1
10
11.0397404145487
20
30.5011933113555
30
0
41
1
10
10.9636461496627
20
30.5060535189414
30
0
41
1
10
10.8874973482998
20
30.5111067387166
30
0
41
1
10
10.8115571798957
20
30.5163344194045
30
0
41
1
10
10.7358369869738
20
30.5217340879427
30
0
41
1
10
10.6649777646396
20
30.5269617349094
30
0
41
1
10
10.5989381392277
20
30.5319811344919
30
0
41
1
10
10.5376760816362
20
30.5367597547032
30
0
41
1
10
10.4765759990109
20
30.5416473526225
30
0
41
1
10
10.4156438623275
20
30.5466424057263
30
0
41
1
10
10.3548501442775
20
30.5517463765844
30
0
41
1
10
10.2941978034211
20
30.5569582466421
30
0
41
1
10
10.2336896639054
20
30.5622768133046
30
0
41
1
10
10.173363628621
20
30.5676976482178
30
0
41
1
10
10.1132255523033
20
30.5732190755109
30
0
41
1
10
10.0533130191888
20
30.5788364459463
30
0
41
1
10
9.99362821309517
20
30.5845482162393
30
0
41
1
10
9.93417312116791
20
30.5903526917091
30
0
41
1
10
9.87491848862651
20
30.5962514163725
30
0
41
1
10
9.81586997439657
20
30.6022425914526
30
0
41
1
10
9.75699939461151
20
30.6083279179702
30
0
41
1
10
9.69830961384371
20
30.6145061133816
30
0
41
1
10
9.63980333936006
20
30.6207757439396
30
0
41
1
10
9.58151660372825
20
30.6271316745978
30
0
41
1
10
9.52345492367284
20
30.6335719811342
30
0
41
1
10
9.46565393811064
20
30.6400913434856
30
0
41
1
10
9.40811560166666
20
30.6466880464315
30
0
41
1
10
9.35084165799722
20
30.6533602590633
30
0
41
1
10
9.29380430537998
20
30.6601097648564
30
0
41
1
10
9.23700886248974
20
30.6669345484447
30
0
41
1
10
9.18042862795095
20
30.6738365020043
30
0
41
1
10
9.12406636623724
20
30.6808141265957
30
0
41
1
10
9.06792466941938
20
30.6878658062689
30
0
41
1
10
9.01203756215709
20
30.6949858596533
30
0
41
1
10
8.95641021662187
20
30.7021721762225
30
0
41
1
10
8.89980992969753
20
30.7095847621969
30
0
41
1
10
8.84225987587327
20
30.7172269268022
30
0
41
1
10
8.7837845305836
20
30.7251015763444
30
0
41
1
10
8.7256184417903
20
30.7330429266338
30
0
41
1
10
8.66776768946021
20
30.7410483237071
30
0
41
1
10
8.61020164331926
20
30.7491202626228
30
0
41
1
10
8.55292361458085
20
30.7572567133269
30
0
41
1
10
8.49593667744009
20
30.7654555375263
30
0
41
1
10
8.43927975721075
20
30.7737093039182
30
0
41
1
10
8.38295875242842
20
30.7820152703951
30
0
41
1
10
8.32774029285233
20
30.7902571514117
30
0
41
1
10
8.27361093544035
20
30.7984304549205
30
0
41
1
10
8.22055669160058
20
30.8065309732636
30
0
41
1
10
8.1678232554489
20
30.8146708985051
30
0
41
1
10
8.11541564992228
20
30.8228477645377
30
0
41
1
10
8.06333747399966
20
30.831059331745
30
0
41
1
10
8.01159091456441
20
30.839303591022
30
0
41
1
10
7.96017792534507
20
30.8475784911856
30
0
41
1
10
7.90910192004242
20
30.8558817664424
30
0
41
1
10
7.85836775605456
20
30.8642109193638
30
0
41
1
10
7.80797891034393
20
30.872563682954
30
0
41
1
10
7.75793750962529
20
30.8809380212469
30
0
41
1
10
7.70824544297552
20
30.8893318741055
30
0
41
1
10
7.65890601741045
20
30.8977429609753
30
0
41
1
10
7.60992392736682
20
30.9061687675968
30
0
41
1
10
7.56103072854226
20
30.9146541843325
30
0
41
1
10
7.51223557724554
20
30.9231973730891
30
0
41
1
10
7.46354763178649
20
30.9317963676068
30
0
41
1
10
7.41524001922665
20
30.9404015378996
30
0
41
1
10
7.367317508174
20
30.9490102375444
30
0
41
1
10
7.31961237202895
20
30.9576510656284
30
0
41
1
10
7.272131645746
20
30.9663218545261
30
0
41
1
10
7.22488224704378
20
30.9750203657778
30
0
41
1
10
7.17803727199865
20
30.9837131370937
30
0
41
1
10
7.13160147430297
20
30.9923974468318
30
0
41
1
10
7.08557826482486
20
31.0010708280192
30
0
41
1
10
7.03996979190059
20
31.0097310571441
30
0
41
1
10
6.99477791888089
20
31.0183759418777
30
0
41
1
10
6.95000590623426
20
31.0270030399663
30
0
41
1
10
6.90565833712445
20
31.0356096563846
30
0
41
1
10
6.86173850725136
20
31.044193349318
30
0
41
1
10
6.81824851740206
20
31.0527519152254
30
0
41
1
10
6.7751901739119
20
31.0612832007938
30
0
41
1
10
6.73256662955943
20
31.0697848019574
30
0
41
1
10
6.69038229701953
20
31.0782540651469
30
0
41
1
10
6.64839426243856
20
31.0867383140116
30
0
41
1
10
6.60661375347321
20
31.0952346204048
30
0
41
1
10
6.56505195125545
20
31.1037399869703
30
0
41
1
10
6.52395550958946
20
31.1122024282285
30
0
41
1
10
6.48332889761078
20
31.1206192067907
30
0
41
1
10
6.443539482635
20
31.1289119530027
30
0
41
1
10
6.40457448202973
20
31.1370799979892
30
0
41
1
10
6.36642066653699
20
31.1451229480247
30
0
41
1
10
6.32872099537305
20
31.1531140247122
30
0
41
1
10
6.29147940621663
20
31.1610507780746
30
0
41
1
10
6.2546987589142
20
31.1689309904378
30
0
41
1
10
6.21838095042964
20
31.1767526528631
30
0
41
1
10
6.18252755762906
20
31.1845138589964
30
0
41
1
10
6.14714130202705
20
31.1922124665278
30
0
41
1
10
6.11222594368153
20
31.1998461081354
30
0
41
1
10
6.07778422318744
20
31.2074126417836
30
0
41
1
10
6.04381798465142
20
31.214910124172
30
0
41
1
10
6.01032873640337
20
31.222336732384
30
0
41
1
10
5.97731907328721
20
31.2296904133209
30
0
41
1
10
5.94479256588427
20
31.2369688971544
30
0
41
1
10
5.91256334983919
20
31.2442124914888
30
0
41
1
10
5.88064326626526
20
31.2514176999381
30
0
41
1
10
5.84904402839265
20
31.2585810432903
30
0
41
1
10
5.81795380494526
20
31.265658576571
30
0
41
1
10
5.78737614523467
20
31.2726480267594
30
0
41
1
10
5.75719565397378
20
31.2795744200374
30
0
41
1
10
5.72742124851951
20
31.2864346200657
30
0
41
1
10
5.69806158085587
20
31.2932255802455
30
0
41
1
10
5.66923512369325
20
31.2999185844803
30
0
41
1
10
5.64094531091738
20
31.3065114207971
30
0
41
1
10
5.61319468145764
20
31.3130020879201
30
0
41
1
10
5.58598502564726
20
31.3193887596158
30
0
41
1
10
5.55931769513593
20
31.3256698045574
30
0
41
1
10
5.53319501531264
20
31.3318433707959
30
0
41
1
10
5.50762015730863
20
31.3379074065581
30
0
41
1
10
5.48259547927455
20
31.3438600547188
30
0
41
1
10
5.45812267038817
20
31.3496996167516
30
0
41
1
10
5.43420295909454
20
31.355424608149
30
0
41
1
10
5.41083846726013
20
31.3610333382119
30
0
41
1
10
5.38803208387453
20
31.3665239318524
30
0
41
1
10
5.36564284487367
20
31.3719292452507
30
0
41
1
10
5.34368502201044
20
31.3772449769902
30
0
41
1
10
5.322172630543
20
31.3824669445692
30
0
41
1
10
5.30124715027952
20
31.3875597819673
30
0
41
1
10
5.28091131803061
20
31.3925217092961
30
0
41
1
10
5.26087537960748
20
31.3974224923056
30
0
41
1
10
5.24117189538745
20
31.402253634179
30
0
41
1
10
5.22183372376766
20
31.4070065806008
30
0
41
1
10
5.20314568930032
20
31.4116103968448
30
0
41
1
10
5.18511050282523
20
31.4160633178457
30
0
41
1
10
5.16773021886388
20
31.4203637424835
30
0
41
1
10
5.15100640928099
20
31.4245101869962
30
0
41
1
10
5.13493997152812
20
31.4285015090161
30
0
41
1
10
5.11953256219636
20
31.4323363834379
30
0
41
1
10
5.10478644762677
20
31.4360133327018
30
0
41
1
10
5.0906613497792
20
31.4395415073899
30
0
41
1
10
5.07716558348253
20
31.4429179742325
30
0
41
1
10
5.06430682774038
20
31.4461401253055
30
0
41
1
10
5.0521264411881
20
31.4491968720738
30
0
41
1
10
5.04062627092171
20
31.4520870098536
30
0
41
1
10
5.02976536742338
20
31.4548201049277
30
0
41
1
10
5.01955429367943
20
31.45739279959
30
0
41
1
10
5.01000294797993
20
31.4598020863817
30
0
41
1
10
5.00115200595091
20
31.4620371628142
30
0
41
1
10
4.99300285485561
20
31.4640971239212
30
0
41
1
10
4.98555658717158
20
31.4659811400934
30
0
41
1
10
4.97881416382266
20
31.4676884134419
30
0
41
1
10
4.97277575005322
20
31.469218564666
30
0
41
1
10
4.96744192472359
20
31.4705711118671
30
0
41
1
10
4.9628135294331
20
31.4717455059544
30
0
41
1
10
4.95887886647152
20
31.4727443819694
30
0
41
1
10
4.95564645873525
20
31.473565241903
30
0
41
1
10
4.95312404947663
20
31.4742060060807
30
0
41
1
10
4.95132195168598
20
31.4746639370106
30
0
41
1
10
4.95024040948531
20
31.4749388689666
30
0
41
1
10
4.95000050333003
20
31.4749998422325
30
0
41
1
10
4.94999957299386
20
31.4750002096301
30
0
0
SPLINE
5
D3
100
AcDbEntity
8
1
62
256
6
ByLayer
370
-1
48
1
60
0
100
AcDbSpline
70
4
71
3
72
152
73
148
40
0
40
0
40
0
40
0
40
0.0085833687490152
40
0.017167158260269
40
0.0257511439419299
40
0.0343351126641992
40
0.0429188630374505
40
0.0515022056932056
40
0.0600858273203006
40
0.0686699204097849
40
0.0772542332645688
40
0.0858385270564811
40
0.0944225761535324
40
0.103006168450753
40
0.11159007383046
40
0.120174507503582
40
0.128759187468258
40
0.137343846102919
40
0.14592823055144
40
0.154512103112757
40
0.163265729426
40
0.172019984019849
40
0.18077453127201
40
0.189529052839581
40
0.198283248159201
40
0.2070368349535
40
0.215559062934253
40
0.224081602534121
40
0.232604131516309
40
0.241126345017876
40
0.247952353934929
40
0.254778624010816
40
0.261604974267163
40
0.268431231240856
40
0.275257229168553
40
0.282075165556724
40
0.288893381747281
40
0.29571168396107
40
0.302529886337872
40
0.309347811139838
40
0.316175297635725
40
0.323003085878445
40
0.329830967025518
40
0.336658740623938
40
0.343486214836968
40
0.350304354883768
40
0.357122817174219
40
0.363941378875049
40
0.370759825895007
40
0.377577953133695
40
0.384407085516349
40
0.391236564532613
40
0.398066150700655
40
0.404895613700165
40
0.411724732648733
40
0.418944479798963
40
0.426164665469299
40
0.433384986458942
40
0.440605151401192
40
0.447824881165524
40
0.455059596277393
40
0.462294783459215
40
0.469530116747125
40
0.476765282434027
40
0.483999979516727
40
0.491103104126553
40
0.498206541929188
40
0.505309972521673
40
0.512413087299043
40
0.519526479058721
40
0.5266402012467
40
0.533753916122963
40
0.540867297911654
40
0.54797057317191
40
0.555074193348803
40
0.56217780624673
40
0.569281071580638
40
0.576395635546655
40
0.583510562015243
40
0.590625481205507
40
0.597740035246027
40
0.604843460541087
40
0.611947262351417
40
0.61905105703513
40
0.626154472611558
40
0.633270197706175
40
0.64038631677688
40
0.64750242884156
40
0.654618144381975
40
0.660679754831177
40
0.666741746954869
40
0.672803861064666
40
0.678865843153584
40
0.684927445185994
40
0.691001964908954
40
0.697076883049132
40
0.70315192897146
40
0.709226837479286
40
0.71530134912297
40
0.720984279766537
40
0.726667547317577
40
0.732350923555845
40
0.738034184171923
40
0.743717108998726
40
0.74941140434966
40
0.755106048372392
40
0.76080080524407
40
0.766495442784125
40
0.772189732697642
40
0.777872754219669
40
0.783556131237087
40
0.789239623708145
40
0.794922994867512
40
0.800606011476026
40
0.80630100532902
40
0.811996364986248
40
0.817691843848145
40
0.823387198241319
40
0.829082187679017
40
0.834765283238212
40
0.840448749343518
40
0.846132336625003
40
0.851815798206767
40
0.857498889971777
40
0.863194443296307
40
0.868890375625335
40
0.874586432328113
40
0.880282360848384
40
0.88597791097826
40
0.892168249599056
40
0.898359081369687
40
0.904550075407579
40
0.910740903028114
40
0.916931238167906
40
0.92313814132797
40
0.929345546661828
40
0.935553117925714
40
0.94176052034848
40
0.947967421066785
40
0.9544650931787
40
0.960963151428319
40
0.967461208955753
40
0.973958880082812
40
0.980468965454771
40
0.986979440329206
40
0.993489914960126
40
1
40
1
40
1
40
1
41
1
10
5.13573938589654
20
19.85
30
0
41
1
10
5.14428076846274
20
19.8722003339453
30
0
41
1
10
5.1615440823078
20
19.9165101815563
30
0
41
1
10
5.18797744521147
20
19.9827019750356
30
0
41
1
10
5.21495672495791
20
20.0486161384981
30
0
41
1
10
5.24248597705092
20
20.1142475840344
30
0
41
1
10
5.27056995594013
20
20.1795907392057
30
0
41
1
10
5.29921417903228
20
20.2446423497372
30
0
41
1
10
5.32842474690377
20
20.3093999543528
30
0
41
1
10
5.35820757116859
20
20.3738611643849
30
0
41
1
10
5.388567498443
20
20.4380211575286
30
0
41
1
10
5.41950886678565
20
20.5018739572508
30
0
41
1
10
5.45103601534118
20
20.5654135864831
30
0
41
1
10
5.48315447731316
20
20.6286364526702
30
0
41
1
10
5.51587044721811
20
20.6915398540551
30
0
41
1
10
5.54918982408184
20
20.7541211951124
30
0
41
1
10
5.58311716128647
20
20.8163752318159
30
0
41
1
10
5.61765637542611
20
20.8782954637277
30
0
41
1
10
5.65281138551108
20
20.9398753905758
30
0
41
1
10
5.68882293611975
20
21.0015139144734
30
0
41
1
10
5.72571183280311
20
21.063200109651
30
0
41
1
10
5.76349878941287
20
21.1249227935903
30
0
41
1
10
5.80194867436913
20
21.1862755093781
30
0
41
1
10
5.84106498981227
20
21.2472507940575
30
0
41
1
10
5.88085122458481
20
21.3078411972351
30
0
41
1
10
5.92095578934568
20
21.3675108831977
30
0
41
1
10
5.96136356217212
20
21.4262677392538
30
0
41
1
10
6.00205886662974
20
21.484120237268
30
0
41
1
10
6.04340766356873
20
21.5415894343187
30
0
41
1
10
6.0826267008205
20
21.5948825286947
30
0
41
1
10
6.11957549878774
20
21.6440808224771
30
0
41
1
10
6.15412489403075
20
21.6892611480759
30
0
41
1
10
6.1891029314787
20
21.7341839062518
30
0
41
1
10
6.22451059525011
20
21.7788451812408
30
0
41
1
10
6.26033547830258
20
21.8232244779897
30
0
41
1
10
6.29657950367221
20
21.8673200400769
30
0
41
1
10
6.33324429062042
20
21.9111302438347
30
0
41
1
10
6.37034554405079
20
21.9546694367785
30
0
41
1
10
6.40788384318779
20
21.9979335537672
30
0
41
1
10
6.44587834383524
20
22.0409395668816
30
0
41
1
10
6.4843321021823
20
22.0836848231244
30
0
41
1
10
6.52324782680735
20
22.1261668008487
30
0
41
1
10
6.56260864424282
20
22.1683623973754
30
0
41
1
10
6.60241467210558
20
22.2102673866479
30
0
41
1
10
6.64264862640535
20
22.2518595637716
30
0
41
1
10
6.68331190403409
20
22.293137116605
30
0
41
1
10
6.72440549475484
20
22.3340984239275
30
0
41
1
10
6.76594862509446
20
22.3747590992424
30
0
41
1
10
6.80794088109157
20
22.4151148083644
30
0
41
1
10
6.8504057462354
20
22.4551837767565
30
0
41
1
10
6.89334591141089
20
22.4949630872033
30
0
41
1
10
6.93676360509154
20
22.5344500115705
30
0
41
1
10
6.98063596706816
20
22.5736198709717
30
0
41
1
10
7.02496197911042
20
22.6124682067347
30
0
41
1
10
7.07059560535176
20
22.6517261091277
30
0
41
1
10
7.11756945433553
20
22.6913691165127
30
0
41
1
10
7.16591616492113
20
22.7313717916719
30
0
41
1
10
7.21477263966206
20
22.7710021074829
30
0
41
1
10
7.26413684384181
20
22.8102546973898
30
0
41
1
10
7.31404285354111
20
22.8491523564683
30
0
41
1
10
7.36449326748256
20
22.8876912702069
30
0
41
1
10
7.41548994682964
20
22.9258679514456
30
0
41
1
10
7.46699691669826
20
22.9636517649568
30
0
41
1
10
7.51901117536516
20
23.0010372622861
30
0
41
1
10
7.57121319816372
20
23.0377960788888
30
0
41
1
10
7.62359255976722
20
23.0739335841787
30
0
41
1
10
7.67613836523625
20
23.1094556916553
30
0
41
1
10
7.72916991406574
20
23.1445800562816
30
0
41
1
10
7.78271083588186
20
23.1793192596313
30
0
41
1
10
7.83676140474835
20
23.2136693763581
30
0
41
1
10
7.89132124650379
20
23.2476268040987
30
0
41
1
10
7.94636149032624
20
23.281170923715
30
0
41
1
10
8.00185297460148
20
23.3142818865317
30
0
41
1
10
8.05779380820874
20
23.3469571528618
30
0
41
1
10
8.11418145049912
20
23.3791945767952
30
0
41
1
10
8.1710388854149
20
23.4110056498354
30
0
41
1
10
8.22839292976773
20
23.4424029211678
30
0
41
1
10
8.2862427863878
20
23.4733824120193
30
0
41
1
10
8.34458694357959
20
23.5039405319254
30
0
41
1
10
8.40339046163656
20
23.5340569398514
30
0
41
1
10
8.4626180998208
20
23.5637121398211
30
0
41
1
10
8.52226674710262
20
23.592903820657
30
0
41
1
10
8.582332606279
20
23.6216301348821
30
0
41
1
10
8.64284176187048
20
23.6499025147753
30
0
41
1
10
8.70382432555748
20
23.6777331312838
30
0
41
1
10
8.76527829759897
20
23.705118028933
30
0
41
1
10
8.82720092693076
20
23.7320537104536
30
0
41
1
10
8.88955088528022
20
23.7585206868039
30
0
41
1
10
8.94922276943246
20
23.7832316452372
30
0
41
1
10
9.00614364684261
20
23.8062622201598
30
0
41
1
10
9.06024729366701
20
23.827684785357
30
0
41
1
10
9.11464856709916
20
23.8487591458789
30
0
41
1
10
9.16934182209295
20
23.8694825193614
30
0
41
1
10
9.22436233193568
20
23.8898672880636
30
0
41
1
10
9.27970901050494
20
23.9099111207441
30
0
41
1
10
9.33538026365694
20
23.9296120307785
30
0
41
1
10
9.3913325722318
20
23.9489539045409
30
0
41
1
10
9.44755962232845
20
23.9679341016385
30
0
41
1
10
9.50284316673889
20
23.9861506312346
30
0
41
1
10
9.55716090919145
20
24.0036289861141
30
0
41
1
10
9.61049170977236
20
24.0203946362885
30
0
41
1
10
9.66405123660588
20
24.0368385577408
30
0
41
1
10
9.71783385235064
20
24.0529587399872
30
0
41
1
10
9.77187167673484
20
24.0687642157613
30
0
41
1
10
9.82616313982994
20
24.084253179638
30
0
41
1
10
9.88070630151519
20
24.0994241232872
30
0
41
1
10
9.93546075506872
20
24.1142654029006
30
0
41
1
10
9.99042038475185
20
24.1287751561443
30
0
41
1
10
10.0455445362522
20
24.1429426449135
30
0
41
1
10
10.1008303759018
20
24.1567676658884
30
0
41
1
10
10.1562747829621
20
24.1702503443883
30
0
41
1
10
10.2119097210988
20
24.183398623868
30
0
41
1
10
10.2677286999436
20
24.1962108308276
30
0
41
1
10
10.323766485031
20
24.2086944834682
30
0
41
1
10
10.3800209172416
20
24.2208478705208
30
0
41
1
10
10.4364895089097
20
24.2326696024267
30
0
41
1
10
10.4931279119803
20
24.2441501015494
30
0
41
1
10
10.5499292148539
20
24.2552878771346
30
0
41
1
10
10.6068488616185
20
24.2660743052819
30
0
41
1
10
10.663883611477
20
24.2765094283061
30
0
41
1
10
10.7210300005303
20
24.2865936356158
30
0
41
1
10
10.7783226630375
20
24.2963333064166
30
0
41
1
10
10.8357543944689
20
24.3057271645209
30
0
41
1
10
10.8933621268211
20
24.3147808709348
30
0
41
1
10
10.9511431631616
20
24.3234928415779
30
0
41
1
10
11.0090945406111
20
24.3318618330278
30
0
41
1
10
11.0671686935243
20
24.3398807452974
30
0
41
1
10
11.1253580838776
20
24.347548510386
30
0
41
1
10
11.1853454464335
20
24.3550761774322
30
0
41
1
10
11.2471390788362
20
24.3624265565677
30
0
41
1
10
11.3107455913804
20
24.3695613194199
30
0
41
1
10
11.3744664349356
20
24.3762785556218
30
0
41
1
10
11.438291596805
20
24.3825771971315
30
0
41
1
10
11.5022709052561
20
24.3884616831469
30
0
41
1
10
11.5664003024426
20
24.3939300506043
30
0
41
1
10
11.6306754670501
20
24.398980836096
30
0
41
1
10
11.6950318444887
20
24.403608673353
30
0
41
1
10
11.7594590984974
20
24.4078128236451
30
0
41
1
10
11.8249567853945
20
24.4116517204178
30
0
41
1
10
11.8915232437443
20
24.4151013680353
30
0
41
1
10
11.9591554351983
20
24.4181377392368
30
0
41
1
10
12.0268360645204
20
24.4207082280017
30
0
41
1
10
12.0945988775837
20
24.4228137659545
30
0
41
1
10
12.162437336465
20
24.4244528821475
30
0
41
1
10
12.2303444910149
20
24.4256245940992
30
0
41
1
10
12.2982685750659
20
24.426327784749
30
0
41
1
10
12.343554591554
20
24.4264840621707
30
0
41
1
10
12.3661984870957
20
24.42648409002
30
0
0
SPLINE
5
D4
100
AcDbEntity
8
1
62
256
6
ByLayer
370
-1
48
1
60
0
100
AcDbSpline
70
4
71
3
72
13
73
9
40
0
40
0
40
0
40
0
40
0.187875398857552
40
0.375750795696015
40
0.563626650130926
40
0.751502501909196
40
0.875751227877521
40
1
40
1
40
1
40
1
41
1
10
14.6225009252407
20
-30.1608293155212
30
0
41
1
10
14.7353522764331
20
-29.9568552000068
30
0
41
1
10
14.9609016095172
20
-29.5488222913764
30
0
41
1
10
15.2987781041964
20
-28.9365249846997
30
0
41
1
10
15.6361701135477
20
-28.3239599625286
30
0
41
1
10
15.9350191089112
20
-27.7802954331882
30
0
41
1
10
16.1954885214001
20
-27.3056223137399
30
0
41
1
10
16.3436476425422
20
-27.0352225239831
30
0
41
1
10
16.4176860016494
20
-26.9
30
0
0
SPLINE
5
D5
100
AcDbEntity
8
1
62
256
6
ByLayer
370
-1
48
1
60
0
100
AcDbSpline
70
4
71
3
72
13
73
9
40
0
40
0
40
0
40
0
40
0.0114521956105585
40
0.258588793195565
40
0.505725386704857
40
0.670483587836288
40
0.8352418029557
40
1
40
1
40
1
40
1
41
1
10
14.6225009252408
20
30.4413472927858
30
0
41
1
10
14.6295037627159
20
30.428806179741
30
0
41
1
10
14.7876217284411
20
30.1456270032019
30
0
41
1
10
15.0966425683595
20
29.5916912243809
30
0
41
1
10
15.4987654651951
20
28.8695145486726
30
0
41
1
10
15.8501709331785
20
28.2373577327711
30
0
41
1
10
16.1510491506958
20
27.6953267819387
30
0
41
1
10
16.3513994527676
20
27.3338424235359
30
0
41
1
10
16.4515172442699
20
27.1530684347513
30
0
0
SPLINE
5
D6
100
AcDbEntity
8
1
62
256
6
ByLayer
370
-1
48
1
60
0
100
AcDbSpline
70
4
71
3
72
23
73
19
40
0
40
0
40
0
40
0
40
0.0617638926006374
40
0.123527945669272
40
0.196559505347997
40
0.269591217199981
40
0.342622914434227
40
0.415654454179629
40
0.474079817804374
40
0.532505329537816
40
0.590930879532549
40
0.649356370100042
40
0.707781715972657
40
0.766225263183464
40
0.824668993670075
40
0.883112771272411
40
0.941556475126345
40
1
40
1
40
1
40
1
41
1
10
14.6225009252407
20
24.42648409002
30
0
41
1
10
14.6614196680666
20
24.339625893451
30
0
41
1
10
14.7391161773412
20
24.1658463771282
30
0
41
1
10
14.8623035554816
20
23.8891272712093
30
0
41
1
10
14.9920242727237
20
23.5963105079608
30
0
41
1
10
15.128159058735
20
23.2873448079314
30
0
41
1
10
15.2636575395745
20
22.9780995516373
30
0
41
1
10
15.3895131448197
20
22.6892042961436
30
0
41
1
10
15.5058563630125
20
22.4207171659267
30
0
41
1
10
15.612811580275
20
22.1726927258613
30
0
41
1
10
15.7193182679161
20
21.9244751301185
30
0
41
1
10
15.8253663714548
20
21.6760615340998
30
0
41
1
10
15.9309569241998
20
21.4274229679537
30
0
41
1
10
16.0360799745428
20
21.1785558651172
30
0
41
1
10
16.1407243888076
20
20.929456300395
30
0
41
1
10
16.2448676607875
20
20.6801465629711
30
0
41
1
10
16.3484995149228
20
20.4306240328237
30
0
41
1
10
16.4172360109271
20
20.2641306109657
30
0
41
1
10
16.4515172442699
20
20.1808479857088
30
0
0
SPLINE
5
D7
100
AcDbEntity
8
1
62
256
6
ByLayer
370
-1
48
1
60
0
100
AcDbSpline
70
4
71
3
72
65
73
61
40
0
40
0
40
0
40
0
40
0.0143826892487903
40
0.0287791220629382
40
0.0431804220609678
40
0.0575773486006238
40
0.0719604523386243
40
0.0868130553159213
40
0.101679353921783
40
0.11655093494082
40
0.131418545103324
40
0.146272249117958
40
0.164255761276343
40
0.182253299070478
40
0.200252076880373
40
0.218237281266806
40
0.236645702273858
40
0.255066248002874
40
0.273488087601611
40
0.291898274115902
40
0.30912918089735
40
0.32636791735396
40
0.343607476331308
40
0.360839505231831
40
0.378062682311127
40
0.395292051966628
40
0.412522055774606
40
0.429746097912389
40
0.447861722446766
40
0.465983097986571
40
0.484105037334217
40
0.502221430937173
40
0.525655984758066
40
0.549100512431135
40
0.57254600383424
40
0.595981872381919
40
0.619409706138995
40
0.642846094756315
40
0.666282631268929
40
0.689710666774821
40
0.709420339680371
40
0.729139228005966
40
0.748859894232584
40
0.768576221937829
40
0.788283746244579
40
0.805959525931764
40
0.823642618061297
40
0.841323415568306
40
0.858996064856198
40
0.873398894201868
40
0.887815029448192
40
0.902232370467402
40
0.916642237213378
40
0.931039804432931
40
0.942467004332955
40
0.953897254667638
40
0.965323870698679
40
0.976881363917712
40
0.988442766803933
40
1
40
1
40
1
40
1
41
1
10
19.5310839484729
20
26.9
30
0
41
1
10
19.530028459027
20
26.8949756659361
30
0
41
1
10
19.5278112832556
20
26.8849521686791
30
0
41
1
10
19.5241683564926
20
26.8699936137471
30
0
41
1
10
19.520209033577
20
26.8551386144585
30
0
41
1
10
19.5159355871836
20
26.8404141465092
30
0
41
1
10
19.5112980676463
20
26.8256835167489
30
0
41
1
10
19.5062808852018
20
26.8109667641223
30
0
41
1
10
19.5008772030727
20
26.7962811279497
30
0
41
1
10
19.4951471417312
20
26.7818010419553
30
0
41
1
10
19.4890999137696
20
26.7675512619441
30
0
41
1
10
19.4822945609802
20
26.7525661373427
30
0
41
1
10
19.4746520842956
20
26.7369215644755
30
0
41
1
10
19.466102484706
20
26.72070302416
30
0
41
1
10
19.4571342936372
20
26.7048938181765
30
0
41
1
10
19.4476907158168
20
26.6893927392034
30
0
41
1
10
19.4377719552061
20
26.6742231129697
30
0
41
1
10
19.4273855016468
20
26.6593992902582
30
0
41
1
10
19.4166280353967
20
26.6450475325897
30
0
41
1
10
19.4057552075445
20
26.6314721611328
30
0
41
1
10
19.3948056421038
20
26.6186404654194
30
0
41
1
10
19.383815801922
20
26.6065132430573
30
0
41
1
10
19.3725559130811
20
26.5948050518562
30
0
41
1
10
19.3610413852511
20
26.5835178642739
30
0
41
1
10
19.3492819281801
20
26.5726481856326
30
0
41
1
10
19.3372873973408
20
26.5621893735974
30
0
41
1
10
19.325067288276
20
26.5521363483238
30
0
41
1
10
19.3124177920788
20
26.5423190674492
30
0
41
1
10
19.2993333419092
20
26.5327559345061
30
0
41
1
10
19.2858089922955
20
26.5234635250991
30
0
41
1
10
19.2720726266594
20
26.5145952944994
30
0
41
1
10
19.256769360839
20
26.505318305962
30
0
41
1
10
19.2398300654917
20
26.4957761180538
30
0
41
1
10
19.2211834495387
20
26.4861213456484
30
0
41
1
10
19.202226891816
20
26.4771194453161
30
0
41
1
10
19.1829725661601
20
26.4687561130326
30
0
41
1
10
19.1634255173097
20
26.461014509665
30
0
41
1
10
19.1435824355483
20
26.4538758501356
30
0
41
1
10
19.1234406715622
20
26.4473232586375
30
0
41
1
10
19.1040802136888
20
26.4416572497963
30
0
41
1
10
19.0855511564806
20
26.4367644697671
30
0
41
1
10
19.0678905239143
20
26.4325418016754
30
0
41
1
10
19.0499922776245
20
26.4286888585396
30
0
41
1
10
19.03185212904
20
26.4251963326135
30
0
41
1
10
19.0140943169569
20
26.422162209307
30
0
41
1
10
18.9967379517871
20
26.4195367806936
30
0
41
1
10
18.9797964545023
20
26.4172716913939
30
0
41
1
10
18.9626224141354
20
26.4152614822008
30
0
41
1
10
18.9462855035502
20
26.4136068449167
30
0
41
1
10
18.9308267067855
20
26.4122510792281
30
0
41
1
10
18.9162862063905
20
26.411143227109
30
0
41
1
10
18.9015817656833
20
26.4101829692706
30
0
41
1
10
18.886727250308
20
26.4093661808854
30
0
41
1
10
18.8727628009252
20
26.40873521731
30
0
41
1
10
18.8597294058116
20
26.4082551568473
30
0
41
1
10
18.8476611330805
20
26.4078960328509
30
0
41
1
10
18.8354839565841
20
26.4076169728553
30
0
41
1
10
18.8232103417989
20
26.4074175176449
30
0
41
1
10
18.8108543534645
20
26.4072978855772
30
0
41
1
10
18.8026083710533
20
26.4072713123625
30
0
41
1
10
18.7984827557302
20
26.4072713643288
30
0
0
SPLINE
5
D8
100
AcDbEntity
8
1
62
256
6
ByLayer
370
-1
48
1
60
0
100
AcDbSpline
70
4
71
3
72
23
73
19
40
0
40
0
40
0
40
0
40
0.0584243975756318
40
0.116848973962603
40
0.175273624023733
40
0.233698227009514
40
0.292122646893892
40
0.350546874367041
40
0.40897124653701
40
0.46739567813487
40
0.525820071470792
40
0.584244316696073
40
0.657301163623508
40
0.730358168210341
40
0.803415187435764
40
0.876472054324959
40
0.93823594577047
40
1
40
1
40
1
40
1
41
1
10
19.5484827557302
20
20.1808479857088
30
0
41
1
10
19.5827527687666
20
20.2641033545954
30
0
41
1
10
19.651466711691
20
20.4305423102028
30
0
41
1
10
19.7550643939669
20
20.6799832824684
30
0
41
1
10
19.8591731669404
20
20.9292115988596
30
0
41
1
10
19.963782764907
20
21.1782298768465
30
0
41
1
10
20.0688814915671
20
21.4270413885318
30
0
41
1
10
20.1744583957055
20
21.6756499828067
30
0
41
1
10
20.280503697539
20
21.9240591530556
30
0
41
1
10
20.3870075826989
20
22.1722723250436
30
0
41
1
10
20.4939599968119
20
22.4202923432693
30
0
41
1
10
20.6103165402138
20
22.6888124453191
30
0
41
1
10
20.7362018603768
20
22.97777795362
30
0
41
1
10
20.8717467377258
20
23.2871306154653
30
0
41
1
10
21.0079283733354
20
23.5962035230828
30
0
41
1
10
21.137680483211
20
23.8890914156241
30
0
41
1
10
21.2608837211551
20
24.1658461496669
30
0
41
1
10
21.3385802300852
20
24.3396256661548
30
0
41
1
10
21.3774990747594
20
24.42648409002
30
0
0
SPLINE
5
D9
100
AcDbEntity
8
1
62
256
6
ByLayer
370
-1
48
1
60
0
100
AcDbSpline
70
4
71
3
72
13
73
9
40
0
40
0
40
0
40
0
40
0.124248725324791
40
0.248497498089008
40
0.436372879532076
40
0.62424826363176
40
0.812124130806325
40
1
40
1
40
1
40
1
41
1
10
19.5823139983506
20
-26.9
30
0
41
1
10
19.6563523295711
20
-27.0352224730525
30
0
41
1
10
19.8045114506806
20
-27.3056222628246
30
0
41
1
10
20.0649805823746
20
-27.7802948706842
30
0
41
1
10
20.3638290428681
20
-28.323958428421
30
0
41
1
10
20.7012207687823
20
-28.9365229404611
30
0
41
1
10
21.0390975436792
20
-29.5488207590475
30
0
41
1
10
21.2646474410341
20
-29.9568546893767
30
0
41
1
10
21.3774990747593
20
-30.1608293155212
30
0
0
SPLINE
5
DA
100
AcDbEntity
8
1
62
256
6
ByLayer
370
-1
48
1
60
0
100
AcDbSpline
70
4
71
3
72
13
73
9
40
0
40
0
40
0
40
0
40
0.164757704979888
40
0.329515428034725
40
0.494273137101697
40
0.741410468696462
40
0.988547804366994
40
1
40
1
40
1
40
1
41
1
10
19.5484827557302
20
27.1530684347513
30
0
41
1
10
19.6486002482105
20
27.3338418836452
30
0
41
1
10
19.848949951574
20
27.6953251626352
30
0
41
1
10
20.1498272689616
20
28.2373544954953
30
0
41
1
10
20.5012325842138
20
28.8695110432247
30
0
41
1
10
20.9033560788832
20
29.5916887988034
30
0
41
1
10
21.2123778202185
20
30.1456261948792
30
0
41
1
10
21.3704962372705
20
30.4288061797164
30
0
41
1
10
21.3774990747593
20
30.4413472927858
30
0
0
SPLINE
5
DB
100
AcDbEntity
8
1
62
256
6
ByLayer
370
-1
48
1
60
0
100
AcDbSpline
70
4
71
1
72
4
73
2
40
0
40
0
40
1
40
1
41
1
10
62.2851921689146
20
-36.5299758367213
30
0
41
1
10
62.2850125997226
20
-36.5299117887878
30
0
0
SPLINE
5
DC
100
AcDbEntity
8
SK1
62
256
6
ByLayer
370
-1
48
1
60
0
100
AcDbSpline
70
4
71
3
72
28
73
24
40
0
40
0
40
0
40
0
40
0.0552609822760758
40
0.110302750336679
40
0.166123417990359
40
0.208095442769307
40
0.249344855799575
40
0.290299721634667
40
0.331399446053496
40
0.37243672102501
40
0.413390121710016
40
0.454684045496959
40
0.496734562661197
40
0.552503014896073
40
0.607600251209098
40
0.662974995695017
40
0.718478585785956
40
0.773999319579964
40
0.830464386488115
40
0.887172941848545
40
0.942924826479576
40
0.998648963140735
40
1
40
1
40
1
40
1
41
1
10
-11.9933801824849
20
23.5269354235927
30
0
41
1
10
-11.8642871523559
20
23.5161572000877
30
0
41
1
10
-11.5917524446219
20
23.496714443874
30
0
41
1
10
-11.1327673998228
20
23.4723208199006
30
0
41
1
10
-10.6763343174558
20
23.4581128139424
30
0
41
1
10
-10.2413099631306
20
23.4525824575878
30
0
41
1
10
-9.84039135770773
20
23.4544901382862
30
0
41
1
10
-9.43393141590161
20
23.4638873636353
30
0
41
1
10
-9.02421421000325
20
23.4810377954916
30
0
41
1
10
-8.61492976801136
20
23.5056038554523
30
0
41
1
10
-8.20963029732702
20
23.537337659545
30
0
41
1
10
-7.80990931850548
20
23.575841243122
30
0
41
1
10
-7.37684244898369
20
23.6249734465421
30
0
41
1
10
-6.92259601172513
20
23.6847293986528
30
0
41
1
10
-6.46585758953743
20
23.7542636355325
30
0
41
1
10
-6.05517751571538
20
23.8247589300886
30
0
41
1
10
-5.69411104339965
20
23.8926720885263
30
0
41
1
10
-5.38918274326393
20
23.9547143453772
30
0
41
1
10
-5.14516599129158
20
24.0073145386044
30
0
41
1
10
-4.96361791937776
20
24.0472786501672
30
0
41
1
10
-4.85260782071805
20
24.0722352382353
30
0
41
1
10
-4.82711043212318
20
24.0780924377831
30
0
41
1
10
-4.82670009636947
20
24.0781650099771
30
0
41
1
10
-4.82669743486981
20
24.0781651279957
30
0
0
SPLINE
5
DD
100
AcDbEntity
8
SK1
62
256
6
ByLayer
370
-1
48
1
60
0
100
AcDbSpline
70
4
71
3
72
13
73
9
40
0
40
0
40
0
40
0
40
0.163178289933634
40
0.329973007306112
40
0.499315781884114
40
0.668220262296504
40
0.834168946165412
40
1
40
1
40
1
40
1
41
1
10
-13.217793242595
20
23.6586103375809
30
0
41
1
10
-13.217764256148
20
23.6585419402996
30
0
41
1
10
-13.1945686486287
20
23.6555414623569
30
0
41
1
10
-13.087629087871
20
23.6417857054719
30
0
41
1
10
-12.9086398495414
20
23.6197804961537
30
0
41
1
10
-12.6666805010241
20
23.5912267144402
30
0
41
1
10
-12.3624537267811
20
23.5589018768472
30
0
41
1
10
-12.1229197959322
20
23.5377080207857
30
0
41
1
10
-11.9933801824849
20
23.5269354235927
30
0
0
SPLINE
5
DE
100
AcDbEntity
8
SK1
62
256
6
ByLayer
370
-1
48
1
60
0
100
AcDbSpline
70
4
71
3
72
65
73
61
40
0
40
0
40
0
40
0
40
0.0121752010633545
40
0.0243544297017126
40
0.0365366391790192
40
0.0487199592070017
40
0.0609017511289662
40
0.0730786616732237
40
0.0876756610416285
40
0.10227571833267
40
0.116877375273661
40
0.13147852161787
40
0.146076434582541
40
0.160667833775134
40
0.175261247920469
40
0.18985558961033
40
0.204449485400913
40
0.219041288610898
40
0.234890770892877
40
0.25074220720366
40
0.266594458911935
40
0.282446204432746
40
0.298295946084552
40
0.317366264938611
40
0.336440300443042
40
0.355516366017646
40
0.374592630791494
40
0.393667126032278
40
0.412737751438202
40
0.431806428132928
40
0.450878617174516
40
0.469952578406272
40
0.489026556224886
40
0.508098783547378
40
0.527167485767419
40
0.546236533887749
40
0.565309229082336
40
0.584383681876042
40
0.603458054140635
40
0.622530563481168
40
0.641599487675301
40
0.662060613343474
40
0.682526698131279
40
0.702995097823991
40
0.72346329804223
40
0.743928922449322
40
0.764389741123782
40
0.783913634430121
40
0.803439860407112
40
0.822965991985489
40
0.842489756550949
40
0.86201471488593
40
0.881542230034202
40
0.901069631291345
40
0.920594434299736
40
0.936474083462172
40
0.952356046916861
40
0.968238694555725
40
0.984120490962537
40
1
40
1
40
1
40
1
41
1
10
-26.6928290162941
20
21.0850947952871
30
0
41
1
10
-26.6854568704364
20
21.0879621615892
30
0
41
1
10
-26.6708475517567
20
21.0937469838742
30
0
41
1
10
-26.6493489576416
20
21.1025791567888
30
0
41
1
10
-26.6282461118512
20
21.1115482609546
30
0
41
1
10
-26.607529143489
20
21.1206417217257
30
0
41
1
10
-26.5871866706485
20
21.1298451676932
30
0
41
1
10
-26.5658787582616
20
21.1397629164555
30
0
41
1
10
-26.5436697961129
20
21.150407805528
30
0
41
1
10
-26.5206331427917
20
21.1617935675411
30
0
41
1
10
-26.498052004496
20
21.1732857270182
30
0
41
1
10
-26.4759133219205
20
21.1848716838311
30
0
41
1
10
-26.4542034823337
20
21.1965386731113
30
0
41
1
10
-26.4329043213029
20
21.2082777214114
30
0
41
1
10
-26.4120058127858
20
21.2200834841193
30
0
41
1
10
-26.3914955059382
20
21.2319509724795
30
0
41
1
10
-26.3713659014672
20
21.2438728374902
30
0
41
1
10
-26.3510398133716
20
21.2561866188409
30
0
41
1
10
-26.3305437178246
20
21.268891770551
30
0
41
1
10
-26.3099094154675
20
21.28198844318
30
0
41
1
10
-26.2896877622126
20
21.2951261196753
30
0
41
1
10
-26.2698742219068
20
21.3082986944567
30
0
41
1
10
-26.2491481278302
20
21.3223952519538
30
0
41
1
10
-26.2275998962949
20
21.3374187127736
30
0
41
1
10
-26.2053319057159
20
21.3533709695178
30
0
41
1
10
-26.1836266039228
20
21.3693501434854
30
0
41
1
10
-26.1624831715868
20
21.3853489249068
30
0
41
1
10
-26.1419008954304
20
21.4013600379355
30
0
41
1
10
-26.1218772692092
20
21.4173773039129
30
0
41
1
10
-26.1024085740778
20
21.4333969521664
30
0
41
1
10
-26.0834959404121
20
21.449416429354
30
0
41
1
10
-26.0651408161195
20
21.4654319550259
30
0
41
1
10
-26.0473474199565
20
21.4814377944844
30
0
41
1
10
-26.0301199264278
20
21.4974282020952
30
0
41
1
10
-26.0134607163134
20
21.5133989962761
30
0
41
1
10
-25.9973716355626
20
21.52934746414
30
0
41
1
10
-25.9818568400568
20
21.5452714090741
30
0
41
1
10
-25.9669217778252
20
21.5611669300473
30
0
41
1
10
-25.9525735363142
20
21.5770286821866
30
0
41
1
10
-25.9388191851988
20
21.592851317565
30
0
41
1
10
-25.9253443783629
20
21.6090149235459
30
0
41
1
10
-25.9122066943983
20
21.6255134387541
30
0
41
1
10
-25.8994681529311
20
21.6423398787175
30
0
41
1
10
-25.887442780823
20
21.6591067755109
30
0
41
1
10
-25.8761415781952
20
21.6758073546597
30
0
41
1
10
-25.8655755124396
20
21.6924348554535
30
0
41
1
10
-25.8559043396743
20
21.7087317574313
30
0
41
1
10
-25.847097963977
20
21.7246985959432
30
0
41
1
10
-25.839125767504
20
21.7403368404571
30
0
41
1
10
-25.8318589231307
20
21.7558929187855
30
0
41
1
10
-25.8253073183265
20
21.7713621141402
30
0
41
1
10
-25.8194809233068
20
21.7867405035165
30
0
41
1
10
-25.8143893993829
20
21.8020243540193
30
0
41
1
10
-25.8100432962406
20
21.8172081700802
30
0
41
1
10
-25.8066766661983
20
21.8313483525736
30
0
41
1
10
-25.8041422644387
20
21.844463087074
30
0
41
1
10
-25.8023006489423
20
21.856571590061
30
0
41
1
10
-25.8009776301803
20
21.8686031454082
30
0
41
1
10
-25.8001785394795
20
21.8805542802214
30
0
41
1
10
-25.8000006895652
20
21.8884656331858
30
0
41
1
10
-25.8
20
21.8924073045858
30
0
0
SPLINE
5
DF
100
AcDbEntity
8
SK1
62
256
6
ByLayer
370
-1
48
1
60
0
100
AcDbSpline
70
4
71
3
72
36
73
32
40
0
40
0
40
0
40
0
40
0.0329325918438647
40
0.0658819779958065
40
0.0988310312871918
40
0.13176316899798
40
0.164696609084373
40
0.197647033620463
40
0.230597719834214
40
0.263531516937276
40
0.29875592384325
40
0.333999756675272
40
0.369244610460127
40
0.404470410334938
40
0.437416771179099
40
0.470376949264782
40
0.503338182640576
40
0.536285983111841
40
0.56922108432507
40
0.602167628321797
40
0.635115255736148
40
0.66805183484149
40
0.702602203916975
40
0.737163104520946
40
0.771725173600105
40
0.806277136526715
40
0.838506172844174
40
0.870738816784428
40
0.902968327819537
40
0.951483870517686
40
1
40
1
40
1
40
1
41
1
10
-27.2
20
20.99
30
0
41
1
10
-27.1939564235202
20
20.9899999718833
30
0
41
1
10
-27.1818516025667
20
20.9900788210423
30
0
41
1
10
-27.163640619158
20
20.9904336588898
30
0
41
1
10
-27.1454029308152
20
20.9910258319638
30
0
41
1
10
-27.1271580158265
20
20.9918562213646
30
0
41
1
10
-27.1089222746663
20
20.9929264540385
30
0
41
1
10
-27.0907113400413
20
20.9942335296523
30
0
41
1
10
-27.0725470864314
20
20.9957745097522
30
0
41
1
10
-27.0540315429068
20
20.9975878148913
30
0
41
1
10
-27.0351863433238
20
20.9996908763463
30
0
41
1
10
-27.0160356995786
20
21.002096022741
30
0
41
1
10
-26.9970195832098
20
21.0047493293859
30
0
41
1
10
-26.9785666487135
20
21.0075815475941
30
0
41
1
10
-26.9606799848752
20
21.0105693292537
30
0
41
1
10
-26.9433549777924
20
21.0136882252249
30
0
41
1
10
-26.9262018363704
20
21.0169979789587
30
0
41
1
10
-26.9092353287368
20
21.0204908153105
30
0
41
1
10
-26.8924631232632
20
21.0241603939555
30
0
41
1
10
-26.8758893779335
20
21.0279989688524
30
0
41
1
10
-26.859519978941
20
21.0319990723373
30
0
41
1
10
-26.8430984475789
20
21.0362208768126
30
0
41
1
10
-26.8266403921668
20
21.0406664122315
30
0
41
1
10
-26.8101597863385
20
21.04533621251
30
0
41
1
10
-26.7939210919691
20
21.0501514515237
30
0
41
1
10
-26.7782861971521
20
21.0549929606039
30
0
41
1
10
-26.7632370697446
20
21.0598433536328
30
0
41
1
10
-26.7487539912595
20
21.0646872880113
30
0
41
1
10
-26.7320799987767
20
21.0704655671009
30
0
41
1
10
-26.7133574449977
20
21.0772391250565
30
0
41
1
10
-26.6996189814305
20
21.0824536565344
30
0
41
1
10
-26.6928290162941
20
21.0850947952871
30
0
0
SPLINE
5
E0
100
AcDbEntity
8
SK1
62
256
6
ByLayer
370
-1
48
1
60
0
100
AcDbSpline
70
4
71
3
72
16
73
12
40
0
40
0
40
0
40
0
40
0.125007441809402
40
0.250015221928546
40
0.375022932363402
40
0.500030279148501
40
0.600023998609024
40
0.700018165289771
40
0.800012399875102
40
0.900006411003392
40
1
40
1
40
1
40
1
41
1
10
-30.7
20
20.9783019329299
30
0
41
1
10
-30.6056072159499
20
20.9792050111925
30
0
41
1
10
-30.4168412463332
20
20.9809169526267
30
0
41
1
10
-30.1337495364805
20
20.983209910733
30
0
41
1
10
-29.8507219448083
20
20.9852048183005
30
0
41
1
10
-29.5866364568646
20
20.986774424639
30
0
41
1
10
-29.3414818270049
20
20.9879748708767
30
0
41
1
10
-29.1152465398411
20
20.9888599303161
30
0
41
1
10
-28.8890664274651
20
20.9895084829002
30
0
41
1
10
-28.6629459229136
20
20.9899089777519
30
0
41
1
10
-28.5122428017987
20
20.9899985591757
30
0
41
1
10
-28.4369019648404
20
20.99
30
0
0
SPLINE
5
E1
100
AcDbEntity
8
SK1
62
256
6
ByLayer
370
-1
48
1
60
0
100
AcDbSpline
70
4
71
3
72
82
73
78
40
0
40
0
40
0
40
0
40
0.0148156683975604
40
0.0296359371317396
40
0.0444579851163061
40
0.0592787141795955
40
0.0740947687804783
40
0.0884289882993364
40
0.10276683003368
40
0.117106060195582
40
0.131444241527217
40
0.145778745942126
40
0.160110905810071
40
0.174446246671148
40
0.188782793142589
40
0.203118406721824
40
0.217450795372242
40
0.234117506090475
40
0.25078864244247
40
0.267461449428882
40
0.284132951807938
40
0.30079996959867
40
0.316344882013309
40
0.331893057891641
40
0.347442411972983
40
0.362990756567805
40
0.378535810516426
40
0.394080129638274
40
0.409627563083216
40
0.425176060206665
40
0.440723539363357
40
0.456267896831778
40
0.471812719814096
40
0.487360724666299
40
0.502909724135185
40
0.518457599908493
40
0.534002314609007
40
0.549268783503604
40
0.564537432650423
40
0.579805953769392
40
0.595072248055363
40
0.609374476800004
40
0.623678806864598
40
0.637982939407422
40
0.652284898763945
40
0.666590364298514
40
0.680898507569497
40
0.695206281157044
40
0.709511242481101
40
0.723822727649034
40
0.738137965863309
40
0.752452517949338
40
0.766763067234312
40
0.7782248354656
40
0.789689425439934
40
0.801153531480264
40
0.812614639634009
40
0.823516467111583
40
0.834421802252897
40
0.845326532093766
40
0.856227533887713
40
0.86713731123962
40
0.878052137552251
40
0.888966138875123
40
0.899874790704836
40
0.908541063474319
40
0.917210736903196
40
0.925880052169032
40
0.934545836339042
40
0.942725172774879
40
0.950907971134293
40
0.959090542239629
40
0.967269568650812
40
0.975450306452091
40
0.983634888990136
40
0.991819382989822
40
1
40
1
40
1
40
1
41
1
10
-31.8931944457736
20
20.4073694667616
30
0
41
1
10
-31.892247617392
20
20.4137226084938
30
0
41
1
10
-31.8901671013174
20
20.4263259403422
30
0
41
1
10
-31.8864807109617
20
20.4449201596077
30
0
41
1
10
-31.8822448757193
20
20.4631968658075
30
0
41
1
10
-31.8774704283229
20
20.4811478764068
30
0
41
1
10
-31.8722262038512
20
20.4985765615956
30
0
41
1
10
-31.8665415190248
20
20.5154928213443
30
0
41
1
10
-31.8604448489192
20
20.5319094664543
30
0
41
1
10
-31.853882663139
20
20.5480113298696
30
0
41
1
10
-31.8468652525896
20
20.5637937131066
30
0
41
1
10
-31.8394021146417
20
20.5792533431335
30
0
41
1
10
-31.8315011909703
20
20.5943899553722
30
0
41
1
10
-31.8231701300003
20
20.6092051510444
30
0
41
1
10
-31.8144165645303
20
20.6236990680102
30
0
41
1
10
-31.8052495319295
20
20.6378693125447
30
0
41
1
10
-31.7951570964915
20
20.652466917272
30
0
41
1
10
-31.7840658143939
20
20.6674291273598
30
0
41
1
10
-31.7719002641835
20
20.6826904110832
30
0
41
1
10
-31.7592133566192
20
20.6975193059535
30
0
41
1
10
-31.7460166225478
20
20.7119147839494
30
0
41
1
10
-31.7326267017663
20
20.7255646633035
30
0
41
1
10
-31.719088891616
20
20.7385048089491
30
0
41
1
10
-31.7054438988586
20
20.7507716198086
30
0
41
1
10
-31.6913788568165
20
20.7626712261724
30
0
41
1
10
-31.6769004972031
20
20.7742043837268
30
0
41
1
10
-31.6620139085891
20
20.7853730034315
30
0
41
1
10
-31.6467221621634
20
20.7961803048889
30
0
41
1
10
-31.6310261843563
20
20.8066307044483
30
0
41
1
10
-31.6149278721316
20
20.8167273148513
30
0
41
1
10
-31.5984311305856
20
20.8264718911953
30
0
41
1
10
-31.5815376915014
20
20.8358673518184
30
0
41
1
10
-31.5642476140796
20
20.8449173046465
30
0
41
1
10
-31.5465580229696
20
20.8536265006775
30
0
41
1
10
-31.5284676503728
20
20.8619983969552
30
0
41
1
10
-31.5099771467669
20
20.8700354799279
30
0
41
1
10
-31.4911978183657
20
20.8776950810175
30
0
41
1
10
-31.4721346899151
20
20.8849878911001
30
0
41
1
10
-31.452789364361
20
20.8919254679524
30
0
41
1
10
-31.4330423528272
20
20.8985554135875
30
0
41
1
10
-31.4133134976456
20
20.9047480242428
30
0
41
1
10
-31.3936266612486
20
20.9105287570417
30
0
41
1
10
-31.3740023646591
20
20.9159228748124
30
0
41
1
10
-31.3540015716314
20
20.9210607135481
30
0
41
1
10
-31.3336164246068
20
20.9259458251025
30
0
41
1
10
-31.3128388192129
20
20.9305814788383
30
0
41
1
10
-31.291656964018
20
20.9349721170364
30
0
41
1
10
-31.2700633523871
20
20.9391211154175
30
0
41
1
10
-31.2480461356981
20
20.943032579517
30
0
41
1
10
-31.2255939863418
20
20.9467100068871
30
0
41
1
10
-31.2026918015284
20
20.9501584457165
30
0
41
1
10
-31.1793322592294
20
20.9533816402441
30
0
41
1
10
-31.1570869295144
20
20.956184306157
30
0
41
1
10
-31.1360491581779
20
20.9586180212153
30
0
41
1
10
-31.1163048851301
20
20.9607293253189
30
0
41
1
10
-31.096240656155
20
20.962706810038
30
0
41
1
10
-31.076185021737
20
20.9645226988491
30
0
41
1
10
-31.0561503942319
20
20.9661865737638
30
0
41
1
10
-31.0361501142995
20
20.9677083641472
30
0
41
1
10
-31.0158480345712
20
20.9691182750747
30
0
41
1
10
-30.9952408413682
20
20.9704186902638
30
0
41
1
10
-30.9743256759462
20
20.9716116572577
30
0
41
1
10
-30.9531043885032
20
20.9726999209755
30
0
41
1
10
-30.9315925615185
20
20.9736853761343
30
0
41
1
10
-30.9112947103417
20
20.9745093933945
30
0
41
1
10
-30.8922811544363
20
20.9751963028403
30
0
41
1
10
-30.8746117740042
20
20.9757676912207
30
0
41
1
10
-30.8567888899308
20
20.9762790117344
30
0
41
1
10
-30.8391611450983
20
20.9767226650676
30
0
41
1
10
-30.8217459377104
20
20.9771033074747
30
0
41
1
10
-30.8045612881144
20
20.9774253881364
30
0
41
1
10
-30.7872839571178
20
20.977696846543
30
0
41
1
10
-30.7699285900248
20
20.9779181880054
30
0
41
1
10
-30.7525063530656
20
20.9780898920731
30
0
41
1
10
-30.7350312738839
20
20.9782123172565
30
0
41
1
10
-30.7175216749833
20
20.9782856494486
30
0
41
1
10
-30.7058417820263
20
20.978301942668
30
0
41
1
10
-30.7
20
20.9783019329299
30
0
0
SPLINE
5
E2
100
AcDbEntity
8
SK1
62
256
6
ByLayer
370
-1
48
1
60
0
100
AcDbSpline
70
4
71
3
72
13
73
9
40
0
40
0
40
0
40
0
40
0.166264789227669
40
0.332553192361023
40
0.498819963449981
40
0.665872224690543
40
0.832945864039158
40
1
40
1
40
1
40
1
41
1
10
-31.9
20
20.2690463576854
30
0
41
1
10
-31.8999991361583
20
20.2767383638078
30
0
41
1
10
-31.8998698542571
20
20.292118549065
30
0
41
1
10
-31.8992897730093
20
20.3151793054342
30
0
41
1
10
-31.8983324587931
20
20.3382502834035
30
0
41
1
10
-31.8970023826578
20
20.3613207267546
30
0
41
1
10
-31.8953052762725
20
20.3843803142703
30
0
41
1
10
-31.893937771744
20
20.3997129870267
30
0
41
1
10
-31.8931944457736
20
20.4073694667616
30
0
0
SPLINE
5
E3
100
AcDbEntity
8
SK1
62
256
6
ByLayer
370
-1
48
1
60
0
100
AcDbSpline
70
4
71
3
72
13
73
9
40
0
40
0
40
0
40
0
40
0.167054135960861
40
0.334127775309485
40
0.501180036550066
40
0.667446807639008
40
0.833735210772343
40
1
40
1
40
1
40
1
41
1
10
-31.8931944457737
20
-20.4073694667617
30
0
41
1
10
-31.893937771744
20
-20.3997129870267
30
0
41
1
10
-31.8953052762725
20
-20.3843803142704
30
0
41
1
10
-31.8970023826579
20
-20.3613207267547
30
0
41
1
10
-31.8983324587932
20
-20.3382502834035
30
0
41
1
10
-31.8992897730093
20
-20.3151793054342
30
0
41
1
10
-31.8998698542571
20
-20.2921185490649
30
0
41
1
10
-31.8999991361583
20
-20.2767383638077
30
0
41
1
10
-31.9
20
-20.2690463576853
30
0
0
SPLINE
5
E4
100
AcDbEntity
8
1
62
256
6
ByLayer
370
-1
48
1
60
0
100
AcDbSpline
70
4
71
3
72
11
73
7
40
0
40
0
40
0
40
0
40
0.249643475526797
40
0.499286651575677
40
0.749643518781115
40
1
40
1
40
1
40
1
41
1
10
16.4515172442699
20
-26.8394369844384
30
0
41
1
10
16.4486691958163
20
-26.8444352048247
30
0
41
1
10
16.4429887315
20
-26.85445361606
30
0
41
1
10
16.434504196975
20
-26.8695659584099
30
0
41
1
10
16.4260639534309
20
-26.8847499711342
30
0
41
1
10
16.4204722136183
20
-26.8949113064386
30
0
41
1
10
16.4176860016494
20
-26.9
30
0
0
SPLINE
5
E5
100
AcDbEntity
8
1
62
256
6
ByLayer
370
-1
48
1
60
0
100
AcDbSpline
70
4
71
3
72
15
73
11
40
0
40
0
40
0
40
0
40
0.125324005037926
40
0.250668881288375
40
0.376013761110018
40
0.501337771018529
40
0.625993103179618
40
0.750669239688729
40
0.875345076536444
40
1
40
1
40
1
40
1
41
1
10
16.4515172442699
20
20.0655955555772
30
0
41
1
10
16.4515173291988
20
20.0565561152258
30
0
41
1
10
16.4516823646532
20
20.0384792041203
30
0
41
1
10
16.4524248491656
20
20.0113693291474
30
0
41
1
10
16.4536614809652
20
19.9842782442273
30
0
41
1
10
16.4553889431898
20
19.9572636671233
30
0
41
1
10
16.4576042920403
20
19.9303331240244
30
0
41
1
10
16.4603051430319
20
19.9034940960243
30
0
41
1
10
16.4634960076029
20
19.8767081634524
30
0
41
1
10
16.465950908627
20
19.8588953720591
30
0
41
1
10
16.4672600823504
20
19.85
30
0
0
SPLINE
5
E6
100
AcDbEntity
8
1
62
256
6
ByLayer
370
-1
48
1
60
0
100
AcDbSpline
70
4
71
3
72
46
73
42
40
0
40
0
40
0
40
0
40
0.0222122426008874
40
0.0444456884142961
40
0.066686473296556
40
0.0889203657317608
40
0.111132983276863
40
0.138082393586152
40
0.165055676608273
40
0.192030045791834
40
0.21898093853146
40
0.24313921114159
40
0.267319611993031
40
0.291508787881709
40
0.315691765073296
40
0.339852200482502
40
0.363368756463446
40
0.386902409500333
40
0.410442903745217
40
0.433978670940972
40
0.457497001389318
40
0.484896243472012
40
0.51231821040737
40
0.539749131748166
40
0.567173625881098
40
0.594574989322468
40
0.62128916689078
40
0.648022556810795
40
0.674762572414979
40
0.701496305602547
40
0.728210771280051
40
0.755804466217476
40
0.783421247788601
40
0.811044287531715
40
0.83865821579135
40
0.866249515646397
40
0.892984070356543
40
0.919746555498745
40
0.94651499864737
40
0.973270939595631
40
1
40
1
40
1
40
1
41
1
10
19.5484827557301
20
-26.7585136999393
30
0
41
1
10
19.5484823949503
20
-26.7537438360902
30
0
41
1
10
19.5483828536026
20
-26.7442485386013
30
0
41
1
10
19.5479355031617
20
-26.7301409280483
30
0
41
1
10
19.547193679429
20
-26.7161917300469
30
0
41
1
10
19.5461594665726
20
-26.7024251067404
30
0
41
1
10
19.544740373568
20
-26.6878966385054
30
0
41
1
10
19.5428602820566
20
-26.6726733552982
30
0
41
1
10
19.5404506763925
20
-26.6568365090355
30
0
41
1
10
19.5376419906843
20
-26.6413610654031
30
0
41
1
10
19.5345572967912
20
-26.626795617165
30
0
41
1
10
19.5312505872211
20
-26.6131125639453
30
0
41
1
10
19.5277775447362
20
-26.600270409623
30
0
41
1
10
19.5240296304253
20
-26.5877733281126
30
0
41
1
10
19.5200225079218
20
-26.5756389155593
30
0
41
1
10
19.5158070188883
20
-26.5639830124946
30
0
41
1
10
19.5114015863129
20
-26.5527997810091
30
0
41
1
10
19.5068275517021
20
-26.5420765707206
30
0
41
1
10
19.5020598331912
20
-26.531717661653
30
0
41
1
10
19.4971149764637
20
-26.5217321778949
30
0
41
1
10
19.4917263779012
20
-26.5115969912407
30
0
41
1
10
19.4858745606738
20
-26.5013889030458
30
0
41
1
10
19.4795505558071
20
-26.4911883078668
30
0
41
1
10
19.4730691843676
20
-26.4815043914132
30
0
41
1
10
19.4664580232559
20
-26.4723450792569
30
0
41
1
10
19.4597973872045
20
-26.4637863661393
30
0
41
1
10
19.453110742655
20
-26.4558134394364
30
0
41
1
10
19.4464232347299
20
-26.4484089835673
30
0
41
1
10
19.4397033628161
20
-26.4415084792849
30
0
41
1
10
19.4329790373677
20
-26.4351180264231
30
0
41
1
10
19.4262020136326
20
-26.4291769860225
30
0
41
1
10
19.4193961756162
20
-26.4237077542325
30
0
41
1
10
19.4125934060582
20
-26.4187335736578
30
0
41
1
10
19.4059002671812
20
-26.4143199704036
30
0
41
1
10
19.3993538000397
20
-26.4104766735383
30
0
41
1
10
19.3930538207391
20
-26.4072454217148
30
0
41
1
10
19.3870261533317
20
-26.4046146497542
30
0
41
1
10
19.3812970203024
20
-26.4025708792028
30
0
41
1
10
19.375840820201
20
-26.401096221661
30
0
41
1
10
19.3706946271709
20
-26.4002009616517
30
0
41
1
10
19.3675065984258
20
-26.4000014769908
30
0
41
1
10
19.3659706810963
20
-26.4
30
0
0
SPLINE
5
E7
100
AcDbEntity
8
SK1
62
256
6
ByLayer
370
-1
48
1
60
0
100
AcDbSpline
70
4
71
1
72
4
73
2
40
0
40
0
40
1
40
1
41
1
10
-11.9858865775875
20
23.5263321466379
30
0
41
1
10
-12.1628900684632
20
23.5412891454914
30
0
0
SPLINE
5
E8
100
AcDbEntity
8
1
62
256
6
ByLayer
370
-1
48
1
60
0
100
AcDbSpline
70
4
71
3
72
195
73
191
40
0
40
0
40
0
40
0
40
0.0057471269651745
40
0.0114946404360506
40
0.0172422829423279
40
0.0229897967054135
40
0.0287369239156914
40
0.0344840471450903
40
0.0402315559913532
40
0.045979193878048
40
0.0517267035886053
40
0.057473827542946
40
0.0632728637338101
40
0.069072294337367
40
0.0748718572257909
40
0.0806712892831485
40
0.0864703266934124
40
0.0919694113457799
40
0.0974687191655361
40
0.102968027529737
40
0.108467112924558
40
0.113966191498407
40
0.119465491961616
40
0.124964793065083
40
0.130463872512045
40
0.135962944078622
40
0.141462236060684
40
0.146961528763848
40
0.152460601313783
40
0.158031268259538
40
0.163602162633993
40
0.169173057836004
40
0.17474372591029
40
0.179793140441675
40
0.184842806500015
40
0.189892557305687
40
0.194942225037859
40
0.199991640973175
40
0.20504943848727
40
0.210107486285377
40
0.215165618454017
40
0.220223667997309
40
0.225281466975181
40
0.230330857304754
40
0.235380494138834
40
0.240430214083547
40
0.245479852663586
40
0.250529244457584
40
0.255586848934844
40
0.260644698594846
40
0.265702630912983
40
0.270760482296542
40
0.275818088219435
40
0.280867454528231
40
0.285917062393428
40
0.290966751661202
40
0.296016361162059
40
0.301065728842765
40
0.306123145567168
40
0.311180802707444
40
0.31623854081399
40
0.321296199483582
40
0.3263536174907
40
0.331746165963207
40
0.337139003251421
40
0.342531937775455
40
0.347924776836622
40
0.353317326796203
40
0.358719507133972
40
0.364121975449278
40
0.36952454059304
40
0.374927010438563
40
0.380329192059809
40
0.385547761455972
40
0.390766588686926
40
0.395985502458303
40
0.401204330772528
40
0.406422901077285
40
0.411641463639643
40
0.41686028267679
40
0.42207918765994
40
0.427298007512966
40
0.432516570759644
40
0.437735128413444
40
0.442953941583488
40
0.448172840230967
40
0.453391653934279
40
0.458610212035358
40
0.463915333380199
40
0.469220722599329
40
0.474526201271198
40
0.479831590746449
40
0.485136712306111
40
0.490498235563082
40
0.495860035211784
40
0.501221926983939
40
0.506583726566464
40
0.511945249767931
40
0.517306774456684
40
0.522668575900086
40
0.528030469414345
40
0.533392270462114
40
0.538753794819029
40
0.544115323218089
40
0.549477129203561
40
0.554839027370544
40
0.560200832644033
40
0.565562360445916
40
0.571017319471301
40
0.576472572208466
40
0.581927922309525
40
0.587383173963827
40
0.592838132080955
40
0.598182316236112
40
0.60352677825126
40
0.608871332247745
40
0.614215792998102
40
0.61955997609241
40
0.624904169822381
40
0.630248643440493
40
0.635593209594208
40
0.640937681715918
40
0.646281874190777
40
0.651626079012343
40
0.656970566056292
40
0.662315146312419
40
0.667659631666754
40
0.673003835071148
40
0.678442492545097
40
0.683881450217751
40
0.689320506947792
40
0.694759462646421
40
0.700198118464645
40
0.705701292974812
40
0.711204781582991
40
0.716708373772551
40
0.722211860195225
40
0.727715032872283
40
0.733218222923315
40
0.738721730299511
40
0.744225342303776
40
0.749728847438531
40
0.755232035609536
40
0.760735241408824
40
0.766238767790419
40
0.771742399890408
40
0.777245924038463
40
0.782749127964351
40
0.788359501357045
40
0.793970217845288
40
0.799581047508013
40
0.805191761663448
40
0.810802133099474
40
0.816622706198792
40
0.822443536658377
40
0.828264366214917
40
0.834084938082753
40
0.839905520245153
40
0.845726361677554
40
0.85154720227842
40
0.857367783306859
40
0.86318837370887
40
0.869009225117569
40
0.87483007578457
40
0.88065066517513
40
0.885374177840877
40
0.890097901118645
40
0.894821694208686
40
0.899545416710991
40
0.904268928726322
40
0.909036938361894
40
0.913805165657938
40
0.918573465183524
40
0.923341691831022
40
0.928109700922628
40
0.932877714613435
40
0.937645946768829
40
0.94241425151294
40
0.947182483192605
40
0.951950496484395
40
0.956718512981356
40
0.961486748486227
40
0.966255056858108
40
0.971023292071597
40
0.975791308324161
40
0.98063289364774
40
0.98547470855717
40
0.990316599959426
40
0.9951584147642
40
1
40
1
40
1
40
1
41
1
10
13.9499999999999
20
-30.1608293155212
30
0
41
1
10
13.9227726801227
20
-30.160829346606
30
0
41
1
10
13.8683190296418
20
-30.160903121396
30
0
41
1
10
13.7866420908931
20
-30.1612350549843
30
0
41
1
10
13.7049785777838
20
-30.1617879204934
30
0
41
1
10
13.623338698527
20
-30.1625615120962
30
0
41
1
10
13.5417306072035
20
-30.163555624191
30
0
41
1
10
13.4601591459459
20
-30.1647701413569
30
0
41
1
10
13.3786291714691
20
-30.1662044050185
30
0
41
1
10
13.2971485404904
20
-30.167857759929
30
0
41
1
10
13.2157281673844
20
-30.1697295046107
30
0
41
1
10
13.1341309934981
20
-30.1718253070365
30
0
41
1
10
13.0523625975994
20
-30.1741469629123
30
0
41
1
10
12.9704287057092
20
-30.1766957143501
30
0
41
1
10
12.8885820240166
20
-30.1794635131258
30
0
41
1
10
12.8068336393804
20
-30.1824491647716
30
0
41
1
10
12.7265991300982
20
-30.1855964066594
30
0
41
1
10
12.6478776595001
20
-30.1888913998753
30
0
41
1
10
12.5706670116129
20
-30.1923203621922
30
0
41
1
10
12.493568699887
20
-30.1959408829925
30
0
41
1
10
12.4165899739434
20
-30.1997517067348
30
0
41
1
10
12.3397359948831
20
-30.2037517131102
30
0
41
1
10
12.2630117908526
20
-30.2079394530466
30
0
41
1
10
12.1864244328131
20
-30.2123134035187
30
0
41
1
10
12.109981057488
20
-30.2168720534656
30
0
41
1
10
12.033686729635
20
-30.2216140402797
30
0
41
1
10
11.957546361779
20
-30.2265376897225
30
0
41
1
10
11.8815668772271
20
-30.2316412345374
30
0
41
1
10
11.8054262360242
20
-30.2369458408305
30
0
41
1
10
11.7291319761867
20
-30.2424526153594
30
0
41
1
10
11.6526917729815
20
-30.2481623016236
30
0
41
1
10
11.5764409491319
20
-30.2540491280899
30
0
41
1
10
11.5027586765406
20
-30.2599219579085
30
0
41
1
10
11.4316285669462
20
-30.2657605311182
30
0
41
1
10
11.3630329559379
20
-30.2715456518823
30
0
41
1
10
11.2946104690643
20
-30.2774698381986
30
0
41
1
10
11.2263677395744
20
-30.2835312393829
30
0
41
1
10
11.1582718592984
20
-30.2897316053564
30
0
41
1
10
11.0903260751272
20
-30.2960697047506
30
0
41
1
10
11.0225334802894
20
-30.3025440733745
30
0
41
1
10
10.9549362440927
20
-30.3091493366675
30
0
41
1
10
10.8875408430049
20
-30.3158834476417
30
0
41
1
10
10.8203891301164
20
-30.3227407488559
30
0
41
1
10
10.7534835097987
20
-30.3297193427045
30
0
41
1
10
10.6868261658117
20
-30.3368171402553
30
0
41
1
10
10.6203844197113
20
-30.344036002165
30
0
41
1
10
10.5541645137086
20
-30.351373727378
30
0
41
1
10
10.4881351133839
20
-30.3588323614927
30
0
41
1
10
10.4222993335352
20
-30.3664103415049
30
0
41
1
10
10.356660112435
20
-30.3741059147197
30
0
41
1
10
10.2912574067827
20
-30.3819128256535
30
0
41
1
10
10.2260972841059
20
-30.3898287175956
30
0
41
1
10
10.1612193051829
20
-30.3978470964766
30
0
41
1
10
10.0966255995179
20
-30.4059658502269
30
0
41
1
10
10.0323180631983
20
-30.4141827214128
30
0
41
1
10
9.96826570866024
20
-30.4224998707124
30
0
41
1
10
9.90447436958951
20
-30.4309148286482
30
0
41
1
10
9.84091442933066
20
-30.4394298770099
30
0
41
1
10
9.77758886656186
20
-30.4480431846766
30
0
41
1
10
9.71450047010512
20
-30.4567527746036
30
0
41
1
10
9.65168684846285
20
-30.465551716381
30
0
41
1
10
9.58915365966372
20
-30.4744374239605
30
0
41
1
10
9.52552997171149
20
-30.4836056797324
30
0
41
1
10
9.46084053839768
20
-30.4930609063216
30
0
41
1
10
9.39511150105807
20
-30.5028070449579
30
0
41
1
10
9.32971591145778
20
-30.5126411291059
30
0
41
1
10
9.26466039197236
20
-30.5225599140615
30
0
41
1
10
9.19991110536793
20
-30.5325664097399
30
0
41
1
10
9.13547158296486
20
-30.5426581421429
30
0
41
1
10
9.07134510179614
20
-30.5528325027946
30
0
41
1
10
9.00757448453236
20
-30.5630804411261
30
0
41
1
10
8.94416614341609
20
-30.5733986058733
30
0
41
1
10
8.88183882693871
20
-30.5836663002074
30
0
41
1
10
8.82058088281329
20
-30.5938782399239
30
0
41
1
10
8.76038007572207
20
-30.6040294119971
30
0
41
1
10
8.70053023167469
20
-30.6142353915594
30
0
41
1
10
8.64103692303782
20
-30.6244930995805
30
0
41
1
10
8.58190412705589
20
-30.6347997374811
30
0
41
1
10
8.52313422094074
20
-30.6451527956366
30
0
41
1
10
8.46472933060942
20
-30.655549708885
30
0
41
1
10
8.40669321210398
20
-30.6659876478607
30
0
41
1
10
8.34903125043709
20
-30.6764634941808
30
0
41
1
10
8.2917472841874
20
-30.6869744152253
30
0
41
1
10
8.23484362363962
20
-30.6975178681068
30
0
41
1
10
8.17832232566344
20
-30.7080912763277
30
0
41
1
10
8.12218703152572
20
-30.7186917912687
30
0
41
1
10
8.06644294666184
20
-30.7293162725943
30
0
41
1
10
8.01078774081718
20
-30.7400207316364
30
0
41
1
10
7.95523133603512
20
-30.7508029780657
30
0
41
1
10
7.89978366502894
20
-30.761660659588
30
0
41
1
10
7.8447522661911
20
-30.7725318127915
30
0
41
1
10
7.79014243015861
20
-30.7834131320643
30
0
41
1
10
7.73576590906254
20
-30.794340205538
30
0
41
1
10
7.68163030620794
20
-30.8053103979527
30
0
41
1
10
7.62774310821641
20
-30.8163209819823
30
0
41
1
10
7.57429853401933
20
-30.8273302715692
30
0
41
1
10
7.52130186592698
20
-30.838334865447
30
0
41
1
10
7.46875687669691
20
-30.849331680211
30
0
41
1
10
7.41666591328179
20
-30.8603179382975
30
0
41
1
10
7.36503102620961
20
-30.8712908942587
30
0
41
1
10
7.31385583395196
20
-30.8822474912589
30
0
41
1
10
7.26314544483504
20
-30.8931843563024
30
0
41
1
10
7.21290351590315
20
-30.9040984335574
30
0
41
1
10
7.16313235402118
20
-30.9149869669997
30
0
41
1
10
7.11383396096903
20
-30.9258472552126
30
0
41
1
10
7.06501185404421
20
-30.9366762830542
30
0
41
1
10
7.01667097121506
20
-30.947470722719
30
0
41
1
10
6.9685369001693
20
-30.9582900390847
30
0
41
1
10
6.92062181211431
20
-30.9691306987358
30
0
41
1
10
6.87293784612327
20
-30.9799890747637
30
0
41
1
10
6.82576369865069
20
-30.9907998116166
30
0
41
1
10
6.77910439178755
20
-31.0015594699908
30
0
41
1
10
6.73327588972019
20
-31.0121924684813
30
0
41
1
10
6.68826833621645
20
-31.022697323104
30
0
41
1
10
6.64407139007632
20
-31.0330728336537
30
0
41
1
10
6.60037947573347
20
-31.0433882306302
30
0
41
1
10
6.55719713945495
20
-31.0536403597319
30
0
41
1
10
6.51452767242863
20
-31.0638263679575
30
0
41
1
10
6.47237325027443
20
-31.0739436723385
30
0
41
1
10
6.43073570689191
20
-31.0839898101808
30
0
41
1
10
6.3896182071408
20
-31.0939620130039
30
0
41
1
10
6.34902511939509
20
-31.1038572218301
30
0
41
1
10
6.30895961988329
20
-31.1136726713591
30
0
41
1
10
6.26942384292316
20
-31.1234058544115
30
0
41
1
10
6.23041956252848
20
-31.1330544062639
30
0
41
1
10
6.19194982186897
20
-31.1426156622402
30
0
41
1
10
6.15401879875092
20
-31.152086676673
30
0
41
1
10
6.11640930972653
20
-31.1615200283491
30
0
41
1
10
6.0791346713429
20
-31.1709113338324
30
0
41
1
10
6.04220808040651
20
-31.1802562176449
30
0
41
1
10
6.00584960009716
20
-31.189497326715
30
0
41
1
10
5.97006341662451
20
-31.1986316960567
30
0
41
1
10
5.93471340797163
20
-31.2076923252498
30
0
41
1
10
5.8998097060616
20
-31.2166752298771
30
0
41
1
10
5.86536216635558
20
-31.2255765248498
30
0
41
1
10
5.83151068997283
20
-31.234358355253
30
0
41
1
10
5.79825936387945
20
-31.2430178177744
30
0
41
1
10
5.7656112090048
20
-31.2515522894936
30
0
41
1
10
5.73356836276526
20
-31.2599593788751
30
0
41
1
10
5.70213248020335
20
-31.268236930989
30
0
41
1
10
5.67130637321389
20
-31.2763824978321
30
0
41
1
10
5.6410938529312
20
-31.2843933675751
30
0
41
1
10
5.61149775464578
20
-31.2922670896075
30
0
41
1
10
5.58252011783733
20
-31.3000014247601
30
0
41
1
10
5.55416247049109
20
-31.3075943958092
30
0
41
1
10
5.52642740910224
20
-31.315043749628
30
0
41
1
10
5.49931844322869
20
-31.3223469876743
30
0
41
1
10
5.4726663397001
20
-31.3295482878976
30
0
41
1
10
5.44648739748212
20
-31.3366421510935
30
0
41
1
10
5.42079764548077
20
-31.3436232129474
30
0
41
1
10
5.39576730073313
20
-31.3504438670596
30
0
41
1
10
5.37139972397429
20
-31.357101720334
30
0
41
1
10
5.34740149242121
20
-31.3636756758986
30
0
41
1
10
5.3238040100882
20
-31.3701563706055
30
0
41
1
10
5.30063887649075
20
-31.3765343971341
30
0
41
1
10
5.27819628225632
20
-31.3827285877947
30
0
41
1
10
5.25647893512179
20
-31.3887367335134
30
0
41
1
10
5.23548904693945
20
-31.3945567610097
30
0
41
1
10
5.21522823308894
20
-31.4001869269311
30
0
41
1
10
5.19569885993022
20
-31.4056252841883
30
0
41
1
10
5.17690334080408
20
-31.4108698736129
30
0
41
1
10
5.15884366890004
20
-31.4159188527728
30
0
41
1
10
5.14152121898336
20
-31.420770725769
30
0
41
1
10
5.1249380373094
20
-31.4254238126626
30
0
41
1
10
5.11009149712311
20
-31.4295966812108
30
0
41
1
10
5.09682883560515
20
-31.4333297500738
30
0
41
1
10
5.0850090340407
20
-31.4366608697484
30
0
41
1
10
5.07367994575624
20
-31.4398575528011
30
0
41
1
10
5.06284271618379
20
-31.4429189859058
30
0
41
1
10
5.05246575396036
20
-31.4458536144273
30
0
41
1
10
5.04255519864227
20
-31.4486592435519
30
0
41
1
10
5.03311687595062
20
-31.4513338593892
30
0
41
1
10
5.0241823888481
20
-31.4538681195011
30
0
41
1
10
5.01575266873132
20
-31.4562613638809
30
0
41
1
10
5.00782844318337
20
-31.4585129907955
30
0
41
1
10
5.00041031459863
20
-31.4606224334009
30
0
41
1
10
4.99349850891457
20
-31.4625893414909
30
0
41
1
10
4.98709351163511
20
-31.4644132921735
30
0
41
1
10
4.98119599543506
20
-31.4660938090555
30
0
41
1
10
4.97580649450209
20
-31.4676304554506
30
0
41
1
10
4.97092547995
20
-31.4690228121425
30
0
41
1
10
4.96655304052954
20
-31.4702706809116
30
0
41
1
10
4.96268946016373
20
-31.4713738085951
30
0
41
1
10
4.9593351470291
20
-31.4723319063076
30
0
41
1
10
4.95647580441558
20
-31.4731488871785
30
0
41
1
10
4.95412098955187
20
-31.4738218494944
30
0
41
1
10
4.95227993138631
20
-31.4743480974667
30
0
41
1
10
4.95096470370705
20
-31.474724118702
30
0
41
1
10
4.95017542743822
20
-31.4749498243775
30
0
41
1
10
4.95000048721458
20
-31.4749998357746
30
0
41
1
10
4.94999956841914
20
-31.4750002311265
30
0
0
SPLINE
5
E9
100
AcDbEntity
8
1
62
256
6
ByLayer
370
-1
48
1
60
0
100
AcDbSpline
70
4
71
3
72
41
73
37
40
0
40
0
40
0
40
0
40
0.0314837575917157
40
0.0628027891089694
40
0.0942459047653252
40
0.126098539975566
40
0.157387653641064
40
0.18858727898466
40
0.219945510157494
40
0.251706730645253
40
0.283625405836679
40
0.31487291838298
40
0.34572349756273
40
0.376462028920775
40
0.397798165734104
40
0.418684934832218
40
0.439240230035374
40
0.469713245122619
40
0.500150537104382
40
0.530609012711246
40
0.561042326314489
40
0.591871416282988
40
0.623501393864237
40
0.647913035937579
40
0.672432352692422
40
0.697205461775166
40
0.72237405311666
40
0.748073267490439
40
0.77963936028218
40
0.810952931485344
40
0.8422621690233
40
0.873815355178851
40
0.905753481087454
40
0.937258046427359
40
0.968620313959408
40
1
40
1
40
1
40
1
41
1
10
53.998
20
40
30
0
41
1
10
53.9986446860027
20
39.9996189513457
30
0
41
1
10
54.0681387495915
20
39.9616383053431
30
0
41
1
10
54.3770423902603
20
39.7905195223641
30
0
41
1
10
54.8911214873192
20
39.5123878447679
30
0
41
1
10
55.6007592121274
20
39.1376494683815
30
0
41
1
10
56.4863121414457
20
38.6810143474212
30
0
41
1
10
57.5374872398516
20
38.161053844732
30
0
41
1
10
58.7567304516087
20
37.5903533151802
30
0
41
1
10
60.135991433397
20
36.9846566488264
30
0
41
1
10
61.6506212976028
20
36.3665847600992
30
0
41
1
10
63.2857982474519
20
35.7661558386366
30
0
41
1
10
65.0234867954771
20
35.2079553193753
30
0
41
1
10
66.6727465138599
20
34.7584420224834
30
0
41
1
10
68.1848270930783
20
34.4117928983368
30
0
41
1
10
69.5264326046606
20
34.1570586094443
30
0
41
1
10
71.1018758464486
20
33.9225655799737
30
0
41
1
10
72.9305557276273
20
33.7468286489254
30
0
41
1
10
75.0105626122133
20
33.6827508074222
30
0
41
1
10
77.0892421840797
20
33.7503427642496
30
0
41
1
10
79.1473710890704
20
33.9490578942262
30
0
41
1
10
81.1731418966815
20
34.2728477921546
30
0
41
1
10
82.990012472475
20
34.6731028615874
30
0
41
1
10
84.5998325960268
20
35.1033072817157
30
0
41
1
10
86.0059728262947
20
35.5343431211067
30
0
41
1
10
87.3512285639474
20
35.9974530725719
30
0
41
1
10
88.635568658385
20
36.4842685343944
30
0
41
1
10
89.9419217973879
20
37.0188754062244
30
0
41
1
10
91.2308570952545
20
37.5831030927419
30
0
41
1
10
92.4490466265288
20
38.1539630918686
30
0
41
1
10
93.5040437149954
20
38.6767659071691
30
0
41
1
10
94.395798839947
20
39.1360196055369
30
0
41
1
10
95.1115790897113
20
39.5123326766196
30
0
41
1
10
95.6273829025384
20
39.7909385276067
30
0
41
1
10
95.9351741769151
20
39.9617967569715
30
0
41
1
10
96.0025769251327
20
39.9996210342849
30
0
41
1
10
96.0020031138465
20
39.9999999999517
30
0
0
SPLINE
5
EA
100
AcDbEntity
8
1
62
256
6
ByLayer
370
-1
48
1
60
0
100
AcDbSpline
70
4
71
1
72
4
73
2
40
0
40
0
40
1
40
1
41
1
10
99.7
20
37.2997905490098
30
0
41
1
10
100
20
36.9997888507489
30
0
0
SPLINE
5
EB
100
AcDbEntity
8
1
62
256
6
ByLayer
370
-1
48
1
60
0
100
AcDbSpline
70
4
71
3
72
45
73
41
40
0
40
0
40
0
40
0
40
0.0147417817793937
40
0.0294836120173795
40
0.0441988641351951
40
0.0589141594346749
40
0.0871317030098048
40
0.115376589478943
40
0.143633687041656
40
0.171884268380487
40
0.200106593003169
40
0.227550478482954
40
0.255015405852861
40
0.282487972056907
40
0.309953985938415
40
0.337398783387564
40
0.367429821308784
40
0.397479433113649
40
0.427528324283637
40
0.457558378908846
40
0.486962865529964
40
0.516387006535526
40
0.545809706764865
40
0.575212227360301
40
0.602057485285197
40
0.62892035982953
40
0.65578189949633
40
0.682625335922646
40
0.708858070950504
40
0.735110030878354
40
0.761360731135124
40
0.787591747155762
40
0.814513288536441
40
0.84145837618187
40
0.868402416130215
40
0.89532252757332
40
0.921480504084622
40
0.947661597135215
40
0.973842408265692
40
1
40
1
40
1
40
1
41
1
10
16.6340293189036
20
-26.4
30
0
41
1
10
16.6331840053583
20
-26.4000002085568
30
0
41
1
10
16.631456455689
20
-26.4000609472667
30
0
41
1
10
16.6287529528895
20
-26.4003336758091
30
0
41
1
10
16.6259466160629
20
-26.4007851912762
30
0
41
1
10
16.6221555835597
20
-26.4016053878857
30
0
41
1
10
16.6172586416553
20
-26.4030308123174
30
0
41
1
10
16.6111362029448
20
-26.4053599116424
30
0
41
1
10
16.604758829111
20
-26.4083103382404
30
0
41
1
10
16.5981711514856
20
-26.4118695319855
30
0
41
1
10
16.5914754668578
20
-26.415989506064
30
0
41
1
10
16.5847125959325
20
-26.4206449858533
30
0
41
1
10
16.577914401382
20
-26.4258116176441
30
0
41
1
10
16.5710476629221
20
-26.4315272679147
30
0
41
1
10
16.5641452619928
20
-26.4377841548856
30
0
41
1
10
16.5570202682161
20
-26.4447907964278
30
0
41
1
10
16.5497016250133
20
-26.45260719062
30
0
41
1
10
16.542222410266
20
-26.461293174131
30
0
41
1
10
16.5348334598438
20
-26.4706126596149
30
0
41
1
10
16.527620022651
20
-26.4804917285293
30
0
41
1
10
16.5206108942613
20
-26.4909161500737
30
0
41
1
10
16.513828630712
20
-26.5018682095355
30
0
41
1
10
16.5072540087715
20
-26.5134144098121
30
0
41
1
10
16.5011014879362
20
-26.5251963160268
30
0
41
1
10
16.4953742209712
20
-26.537154752446
30
0
41
1
10
16.4900646718868
20
-26.5492291173033
30
0
41
1
10
16.4850180744359
20
-26.5617770071186
30
0
41
1
10
16.4802925816619
20
-26.5746892034513
30
0
41
1
10
16.4759016733663
20
-26.5879494763321
30
0
41
1
10
16.4718517275596
20
-26.6015349812113
30
0
41
1
10
16.4681259832311
20
-26.6155306044755
30
0
41
1
10
16.4647124753289
20
-26.6300449607425
30
0
41
1
10
16.4616402624427
20
-26.6450806979425
30
0
41
1
10
16.4589305990747
20
-26.6606292848494
30
0
41
1
10
16.4566220208034
20
-26.6765327841548
30
0
41
1
10
16.4547455143634
20
-26.6926095977958
30
0
41
1
10
16.4533006916476
20
-26.7088303324595
30
0
41
1
10
16.4522746062549
20
-26.725159894341
30
0
41
1
10
16.4516555609464
20
-26.7417240667339
30
0
41
1
10
16.4515177659353
20
-26.752895644227
30
0
41
1
10
16.4515172442699
20
-26.7585136999393
30
0
0
SPLINE
5
EC
100
AcDbEntity
8
1
62
256
6
ByLayer
370
-1
48
1
60
0
100
AcDbSpline
70
4
71
1
72
4
73
2
40
0
40
0
40
1
40
1
41
1
10
87.714308388973
20
-36.5299117887878
30
0
41
1
10
90.8731876682257
20
-35.8700000698166
30
0
0
SPLINE
5
ED
100
AcDbEntity
8
1
62
256
6
ByLayer
370
-1
48
1
60
0
100
AcDbSpline
70
4
71
1
72
4
73
2
40
0
40
0
40
1
40
1
41
1
10
87.7148078310855
20
-36.5299758367213
30
0
41
1
10
87.714308388973
20
-36.5299117887878
30
0
0
SPLINE
5
EE
100
AcDbEntity
8
1
62
256
6
ByLayer
370
-1
48
1
60
0
100
AcDbSpline
70
4
71
3
72
11
73
7
40
0
40
0
40
0
40
0
40
0.249640898217645
40
0.499282178147547
40
0.749640937552157
40
1
40
1
40
1
40
1
41
1
10
19.5823139983506
20
-26.9
30
0
41
1
10
19.5795357546289
20
-26.8949258588982
30
0
41
1
10
19.5739600541779
20
-26.8847935244153
30
0
41
1
10
19.5655281079602
20
-26.8696237866825
30
0
41
1
10
19.5570356758877
20
-26.8544967335256
30
0
41
1
10
19.5513389723397
20
-26.844449539385
30
0
41
1
10
19.5484827557301
20
-26.8394369844384
30
0
0
SPLINE
5
EF
100
AcDbEntity
8
1
62
256
6
ByLayer
370
-1
48
1
60
0
100
AcDbSpline
70
4
71
3
72
15
73
11
40
0
40
0
40
0
40
0
40
0.125650111266284
40
0.251342919604068
40
0.377035863561487
40
0.502686159826513
40
0.626994028897457
40
0.751343051297064
40
0.875692097905728
40
1
40
1
40
1
40
1
41
1
10
19.5310839484729
20
26.9
30
0
41
1
10
19.5325372633552
20
26.9069172306978
30
0
41
1
10
19.5352630873326
20
26.9207864711476
30
0
41
1
10
19.538808601469
20
26.9416955065696
30
0
41
1
10
19.5418088670563
20
26.9626885132469
30
0
41
1
10
19.5442529328442
20
26.983675414047
30
0
41
1
10
19.5461451993968
20
27.0046432832811
30
0
41
1
10
19.5474929614111
20
27.0255795453104
30
0
41
1
10
19.5483025907258
20
27.0465446639671
30
0
41
1
10
19.5484825869407
20
27.0605270414835
30
0
41
1
10
19.5484827557302
20
27.0675197423037
30
0
0
SPLINE
5
F0
100
AcDbEntity
8
SK1
62
256
6
ByLayer
370
-1
48
1
60
0
100
AcDbSpline
70
4
71
3
72
46
73
42
40
0
40
0
40
0
40
0
40
0.0303405640139432
40
0.0606834338220106
40
0.0910268697195452
40
0.121369352819589
40
0.151709592473457
40
0.180930104868584
40
0.210153235749281
40
0.239377022162953
40
0.268599738051724
40
0.297819902358316
40
0.327043744417771
40
0.356270876219744
40
0.385498843097329
40
0.414725475274665
40
0.443948898247509
40
0.468305098166919
40
0.492664511030307
40
0.517025329056632
40
0.541385905993026
40
0.56574476245934
40
0.590100591399847
40
0.616414514914876
40
0.642730767285355
40
0.669046857801812
40
0.69536056058703
40
0.720642219128695
40
0.745926268567592
40
0.771210160920791
40
0.796491605234186
40
0.796898538283112
40
0.822283737445104
40
0.847671726687465
40
0.873059533169541
40
0.898444483085244
40
0.918754023250782
40
0.939066080822922
40
0.9593788500991
40
0.979690664124549
40
1
40
1
40
1
40
1
41
1
10
-22.2915445483742
20
-21.324772938566
30
0
41
1
10
-22.2828459281927
20
-21.3321901136452
30
0
41
1
10
-22.2656144922744
20
-21.3470107963162
30
0
41
1
10
-22.2402591574806
20
-21.3692003654374
30
0
41
1
10
-22.215416983177
20
-21.391346061002
30
0
41
1
10
-22.191103318255
20
-21.4134449769052
30
0
41
1
10
-22.1676269894412
20
-21.4352235397582
30
0
41
1
10
-22.1449795203165
20
-21.4566824425966
30
0
41
1
10
-22.1231521652697
20
-21.4778223930937
30
0
41
1
10
-22.1018751124278
20
-21.498911456372
30
0
41
1
10
-22.0811654891884
20
-21.5199459010699
30
0
41
1
10
-22.061038647952
20
-21.5409237866011
30
0
41
1
10
-22.0415102112136
20
-21.5618432598421
30
0
41
1
10
-22.0225962980129
20
-21.5827021871222
30
0
41
1
10
-22.0043150484206
20
-21.6034962529134
30
0
41
1
10
-21.9866851876354
20
-21.6242205622233
30
0
41
1
10
-21.9706660176962
20
-21.6437249578997
30
0
41
1
10
-21.9561478312364
20
-21.6620206973322
30
0
41
1
10
-21.9430226440446
20
-21.6791198097709
30
0
41
1
10
-21.9303944586571
20
-21.6961624864226
30
0
41
1
10
-21.9182749063738
20
-21.7131451626748
30
0
41
1
10
-21.9066756097105
20
-21.7300642756018
30
0
41
1
10
-21.8953109888674
20
-21.7473688154793
30
0
41
1
10
-21.8842436339972
20
-21.7650504586644
30
0
41
1
10
-21.8735408494128
20
-21.7830996850112
30
0
41
1
10
-21.8634988140864
20
-21.8010625853982
30
0
41
1
10
-21.8542548594381
20
-21.8187011514812
30
0
41
1
10
-21.8457924242863
20
-21.836016123234
30
0
41
1
10
-21.8380935305633
20
-21.8530087305601
30
0
41
1
10
-21.8310581302553
20
-21.8699071306843
30
0
41
1
10
-21.8267851341508
20
-21.8811974109997
30
0
41
1
10
-21.8227400437736
20
-21.8924750337257
30
0
41
1
10
-21.8189243457813
20
-21.9037411760356
30
0
41
1
10
-21.8139566692594
20
-21.9203991626963
30
0
41
1
10
-21.8097133613763
20
-21.9369459327206
30
0
41
1
10
-21.8064423436882
20
-21.9522814754859
30
0
41
1
10
-21.803992499969
20
-21.9664280222408
30
0
41
1
10
-21.802220211428
20
-21.9794082645252
30
0
41
1
10
-21.8009447112265
20
-21.9923073132316
30
0
41
1
10
-21.8001727517298
20
-22.0051219385568
30
0
41
1
10
-21.8000008609079
20
-22.0136064071163
30
0
41
1
10
-21.8
20
-22.0178340088453
30
0
0
SPLINE
5
F1
100
AcDbEntity
8
SK1
62
256
6
ByLayer
370
-1
48
1
60
0
100
AcDbSpline
70
4
71
3
72
58
73
54
40
0
40
0
40
0
40
0
40
0.0165608163570037
40
0.0331363847104175
40
0.0497167008037048
40
0.0662919029700961
40
0.0828524119294713
40
0.0989462212900654
40
0.115053080182677
40
0.131164753241474
40
0.147272456194048
40
0.163366974052896
40
0.179366708048214
40
0.195374101309063
40
0.211382022178386
40
0.227382475979894
40
0.242691381263679
40
0.258005940814434
40
0.273320992655204
40
0.288630569487565
40
0.303934541506732
40
0.319243106942561
40
0.334552132925272
40
0.349856733147983
40
0.369163829996872
40
0.388478070756845
40
0.407793276675312
40
0.427101690124422
40
0.445845311273711
40
0.46459375827598
40
0.483342850369886
40
0.502087351410561
40
0.520825594623545
40
0.539567416254245
40
0.558309706773647
40
0.5770485894995
40
0.598866068746539
40
0.620689254072411
40
0.64251520515882
40
0.66434001254252
40
0.686158852589098
40
0.712315318574877
40
0.738476497336001
40
0.764638423423801
40
0.790795908669725
40
0.816946636399246
40
0.843100697697372
40
0.869255243849411
40
0.895406632825412
40
0.921553568217585
40
0.947702934001196
40
0.973852623346847
40
1
40
1
40
1
40
1
41
1
10
-23.2
20
-20.99
30
0
41
1
10
-23.1932304241148
20
-20.9900001118646
30
0
41
1
10
-23.1796696093453
20
-20.9900994278893
30
0
41
1
10
-23.159265383078
20
-20.9905462045536
30
0
41
1
10
-23.1388305139363
20
-20.9912902834556
30
0
41
1
10
-23.1183985727344
20
-20.9923315457234
30
0
41
1
10
-23.0981880639372
20
-20.9936579132791
30
0
41
1
10
-23.0782150497767
20
-20.9952611437388
30
0
41
1
10
-23.0584916337479
20
-20.9971258220426
30
0
41
1
10
-23.038849144893
20
-20.9992618573498
30
0
41
1
10
-23.0193184895662
20
-21.0016629515012
30
0
41
1
10
-22.9999596640524
20
-21.0043192185656
30
0
41
1
10
-22.9807864315857
20
-21.007224504051
30
0
41
1
10
-22.9618075480734
20
-21.0103680322778
30
0
41
1
10
-22.943003158039
20
-21.0137470941581
30
0
41
1
10
-22.9246583835061
20
-21.0173014692999
30
0
41
1
10
-22.9067746018061
20
-21.0210130938253
30
0
41
1
10
-22.8893473001877
20
-21.0248630884674
30
0
41
1
10
-22.8721213959241
20
-21.0288981346752
30
0
41
1
10
-22.8551083912863
20
-21.0331096382174
30
0
41
1
10
-22.8383132882705
20
-21.0374905838815
30
0
41
1
10
-22.821738024228
20
-21.0420331619394
30
0
41
1
10
-22.8053858982201
20
-21.0467298123005
30
0
41
1
10
-22.7878562650393
20
-21.0519948067792
30
0
41
1
10
-22.7692239467402
20
-21.0578677105644
30
0
41
1
10
-22.7495724290929
20
-21.0643849560772
30
0
41
1
10
-22.7302874305713
20
-21.0710963690606
30
0
41
1
10
-22.7115552339773
20
-21.0779210791586
30
0
41
1
10
-22.6933604858898
20
-21.0848415664702
30
0
41
1
10
-22.6756854621848
20
-21.0918423962677
30
0
41
1
10
-22.6583472364891
20
-21.0989818378994
30
0
41
1
10
-22.641344872279
20
-21.1062489499962
30
0
41
1
10
-22.6246723556645
20
-21.1136350057406
30
0
41
1
10
-22.6083229857623
20
-21.1211323715187
30
0
41
1
10
-22.5922904742224
20
-21.1287336272215
30
0
41
1
10
-22.5757091531613
20
-21.1368523596932
30
0
41
1
10
-22.5586318884631
20
-21.1455000587271
30
0
41
1
10
-22.5411134170538
20
-21.154686752975
30
0
41
1
10
-22.5239877285257
20
-21.1639763955062
30
0
41
1
10
-22.5072480205397
20
-21.1733585915752
30
0
41
1
10
-22.4898003846454
20
-21.1834518427394
30
0
41
1
10
-22.4717217154082
20
-21.1942681807199
30
0
41
1
10
-22.4530921558966
20
-21.2058176404173
30
0
41
1
10
-22.4349549401144
20
-21.2174561161298
30
0
41
1
10
-22.4172965184396
20
-21.2291718249792
30
0
41
1
10
-22.4000996886036
20
-21.2409556974786
30
0
41
1
10
-22.3833500168243
20
-21.2528006462409
30
0
41
1
10
-22.3670330413223
20
-21.2646997593727
30
0
41
1
10
-22.351136292251
20
-21.2766447691172
30
0
41
1
10
-22.3356452365667
20
-21.2886293373526
30
0
41
1
10
-22.3205474005475
20
-21.3006483162174
30
0
41
1
10
-22.3058319127412
20
-21.3126972280875
30
0
41
1
10
-22.2962656012193
20
-21.3207450181573
30
0
41
1
10
-22.2915445483742
20
-21.324772938566
30
0
0
SPLINE
5
F2
100
AcDbEntity
8
SK1
62
256
6
ByLayer
370
-1
48
1
60
0
100
AcDbSpline
70
4
71
1
72
4
73
2
40
0
40
0
40
1
40
1
41
1
10
-12.2463985042595
20
-23.5487848715979
30
0
41
1
10
-11.9869530704617
20
-23.5264161118589
30
0
0
SPLINE
5
F3
100
AcDbEntity
8
1
62
256
6
ByLayer
370
-1
48
1
60
0
100
AcDbSpline
70
4
71
3
72
15
73
11
40
0
40
0
40
0
40
0
40
0.125322307249698
40
0.25066586435512
40
0.376009726732917
40
0.501332450333528
40
0.625989071394419
40
0.750666230229084
40
0.875343384780668
40
1
40
1
40
1
40
1
41
1
10
19.5327399176497
20
19.85
30
0
41
1
10
19.534056099254
20
19.8589430090599
30
0
41
1
10
19.5365232645639
20
19.8768512998069
30
0
41
1
10
19.5397272533912
20
19.9037811674647
30
0
41
1
10
19.5424359768175
20
19.9307645964325
30
0
41
1
10
19.5446460758945
20
19.9577439108962
30
0
41
1
10
19.546361288391
20
19.9847109935115
30
0
41
1
10
19.5475847893805
20
20.0116580626473
30
0
41
1
10
19.5483193892801
20
20.0386236221803
30
0
41
1
10
19.5484826720149
20
20.0566042650152
30
0
41
1
10
19.5484827557302
20
20.0655955555772
30
0
0
SPLINE
5
F4
100
AcDbEntity
8
SK1
62
256
6
ByLayer
370
-1
48
1
60
0
100
AcDbSpline
70
4
71
3
72
13
73
9
40
0
40
0
40
0
40
0
40
0.165634323897507
40
0.331441488201523
40
0.500289561283475
40
0.669426223657508
40
0.836054224039135
40
1
40
1
40
1
40
1
41
1
10
-11.993386102029
20
-23.5269343932265
30
0
41
1
10
-12.1230824704956
20
-23.5376562654161
30
0
41
1
10
-12.3628902730634
20
-23.5587749777503
30
0
41
1
10
-12.6673421511416
20
-23.5910745119269
30
0
41
1
10
-12.9092135283401
20
-23.619645449738
30
0
41
1
10
-13.0879859431009
20
-23.6416844150206
30
0
41
1
10
-13.1949039376902
20
-23.6555090623623
30
0
41
1
10
-13.217938707179
20
-23.6585377655197
30
0
41
1
10
-13.2177987344195
20
-23.6586100567721
30
0
0
SPLINE
5
F5
100
AcDbEntity
8
SK1
62
256
6
ByLayer
370
-1
48
1
60
0
100
AcDbSpline
70
4
71
3
72
28
73
24
40
0
40
0
40
0
40
0
40
0.0014469578477018
40
0.0571513419020907
40
0.112838450222491
40
0.169437217173386
40
0.225843301386149
40
0.281280503525523
40
0.336672737028804
40
0.392088440186649
40
0.44716201548871
40
0.502836813136714
40
0.545004705032383
40
0.586357312653017
40
0.627314583152688
40
0.668306540111005
40
0.70950074719238
40
0.750521183421811
40
0.791805712969294
40
0.833781854405185
40
0.889619929325509
40
0.944696550722444
40
1
40
1
40
1
40
1
41
1
10
-4.82670241963483
20
-24.0781649160066
30
0
41
1
10
-4.82670339182928
20
-24.078164681562
30
0
41
1
10
-4.82704433325216
20
-24.0780870152494
30
0
41
1
10
-4.85252082556139
20
-24.0722084522304
30
0
41
1
10
-4.96323160262091
20
-24.0472673096641
30
0
41
1
10
-5.14453820287962
20
-24.0073579902191
30
0
41
1
10
-5.38820779473242
20
-23.9548567783581
30
0
41
1
10
-5.6925209324408
20
-23.8929388923724
30
0
41
1
10
-6.05316055544946
20
-23.8251287123285
30
0
41
1
10
-6.46336986164419
20
-23.7546975125877
30
0
41
1
10
-6.91946333028127
20
-23.6851623175948
30
0
41
1
10
-7.37337522132198
20
-23.6253485772395
30
0
41
1
10
-7.80646369012245
20
-23.5761178368512
30
0
41
1
10
-8.20661791702319
20
-23.5374945875176
30
0
41
1
10
-8.61191535832915
20
-23.5057189705299
30
0
41
1
10
-9.021364076533
20
-23.48117960644
30
0
41
1
10
-9.43141228809093
20
-23.4640727857598
30
0
41
1
10
-9.83846298797673
20
-23.454674371451
30
0
41
1
10
-10.2396824576526
20
-23.4527659124505
30
0
41
1
10
-10.6748343245626
20
-23.4583003404345
30
0
41
1
10
-11.1314082738172
20
-23.4724974596641
30
0
41
1
10
-11.5908606051721
20
-23.4968199883202
30
0
41
1
10
-11.863956971378
20
-23.5161958293955
30
0
41
1
10
-11.993386102029
20
-23.5269343932265
30
0
0
SPLINE
5
F6
100
AcDbEntity
8
1
62
256
6
ByLayer
370
-1
48
1
60
0
100
AcDbSpline
70
4
71
3
72
66
73
62
40
0
40
0
40
0
40
0
40
0.0156422349849791
40
0.0312904951491986
40
0.0469328434603964
40
0.0623693659124871
40
0.0778115150161739
40
0.0932482902887115
40
0.108425000639458
40
0.123615669625232
40
0.138811855261426
40
0.1540041117601
40
0.16918215480902
40
0.183957499981432
40
0.198743435105253
40
0.21353376148442
40
0.228321296794753
40
0.243097985032644
40
0.261536372720964
40
0.279990509190043
40
0.298451719600641
40
0.316909248099842
40
0.335350483188421
40
0.353364625509871
40
0.371389561276773
40
0.389419312786823
40
0.407446520911053
40
0.425462570241766
40
0.445763094398357
40
0.466071735202975
40
0.486381264814156
40
0.50668300145461
40
0.526257577423696
40
0.545837981459994
40
0.565418866401861
40
0.584994098343577
40
0.604565878263791
40
0.624142703831104
40
0.643719699766909
40
0.663291712067318
40
0.687376202217629
40
0.71146524012515
40
0.735549223158236
40
0.752818183223075
40
0.770091680054719
40
0.787364260576087
40
0.804631970786563
40
0.821921763311532
40
0.839219482036005
40
0.856514607800309
40
0.87380086275279
40
0.886630916144284
40
0.899471336223847
40
0.912313032302622
40
0.92514923240685
40
0.937975743697531
40
0.950372199213059
40
0.962782987364662
40
0.975197290124955
40
0.987605613811895
40
1
40
1
40
1
40
1
41
1
10
16.4689160515239
20
26.9
30
0
41
1
10
16.4700637463402
20
26.8945351260516
30
0
41
1
10
16.472483840887
20
26.8836394515759
30
0
41
1
10
16.4764860208579
20
26.8673933925632
30
0
41
1
10
16.4808430077295
20
26.8513507180424
30
0
41
1
10
16.485551423407
20
26.835532830517
30
0
41
1
10
16.4906012521048
20
26.8199600549555
30
0
41
1
10
16.4959793220505
20
26.8046700357022
30
0
41
1
10
16.5016791781446
20
26.7896785646673
30
0
41
1
10
16.5076874541978
20
26.7749946610847
30
0
41
1
10
16.5140275329306
20
26.7605496059903
30
0
41
1
10
16.5206882601217
20
26.7463669914223
30
0
41
1
10
16.5276008248809
20
26.7325857753935
30
0
41
1
10
16.5347518262843
20
26.7192065892842
30
0
41
1
10
16.5421233726418
20
26.7062219780826
30
0
41
1
10
16.54976998245
20
26.6935196749702
30
0
41
1
10
16.5576790703447
20
26.6811122277541
30
0
41
1
10
16.5665157582259
20
26.6680074605491
30
0
41
1
10
16.5763536953434
20
26.65430004002
30
0
41
1
10
16.5872601688848
20
26.6400925698604
30
0
41
1
10
16.5985194470684
20
26.626359854061
30
0
41
1
10
16.6101084633287
20
26.6131112254747
30
0
41
1
10
16.621919278706
20
26.6004478299444
30
0
41
1
10
16.6339329459028
20
26.5883532554015
30
0
41
1
10
16.6461307473534
20
26.5768047843377
30
0
41
1
10
16.6585936100751
20
26.5657043094181
30
0
41
1
10
16.6713045888626
20
26.5550514335714
30
0
41
1
10
16.6847990877845
20
26.5444107747235
30
0
41
1
10
16.6991051533229
20
26.5338414414864
30
0
41
1
10
16.7142485130909
20
26.5234012605702
30
0
41
1
10
16.7296581324623
20
26.5134937124719
30
0
41
1
10
16.7451345319034
20
26.5042220682381
30
0
41
1
10
16.7606593263744
20
26.4955544264004
30
0
41
1
10
16.7762179951533
20
26.4874587123525
30
0
41
1
10
16.7919935126132
20
26.4798201444754
30
0
41
1
10
16.8079788076771
20
26.4726302561836
30
0
41
1
10
16.8241708086236
20
26.4658791290672
30
0
41
1
10
16.8405702098725
20
26.4595559655475
30
0
41
1
10
16.857176781171
20
26.4536511247071
30
0
41
1
10
16.8752815414223
20
26.4477331822243
30
0
41
1
10
16.8949462013703
20
26.4419070811703
30
0
41
1
10
16.916246820706
20
26.436278705947
30
0
41
1
10
16.9358450543439
20
26.4316947371071
30
0
41
1
10
16.9536444051334
20
26.4279714915528
30
0
41
1
10
16.9695640392575
20
26.4249557351934
30
0
41
1
10
16.9856801115189
20
26.4222073326586
30
0
41
1
10
17.0020054541657
20
26.4197182114182
30
0
41
1
10
17.0185491005788
20
26.417482007777
30
0
41
1
10
17.0353232114153
20
26.41548966728
30
0
41
1
10
17.0523260462361
20
26.4137337884121
30
0
41
1
10
17.0680785466514
20
26.4123379950091
30
0
41
1
10
17.0825200742239
20
26.4112330607469
30
0
41
1
10
17.095596451017
20
26.4103602437071
30
0
41
1
10
17.1087998228554
20
26.4096015835763
30
0
41
1
10
17.1221177077661
20
26.408954227883
30
0
41
1
10
17.1353909920897
20
26.4084213260761
30
0
41
1
10
17.1486124901114
20
26.4079954700847
30
0
41
1
10
17.1617678159144
20
26.4076702306527
30
0
41
1
10
17.1749877902646
20
26.4074393652909
30
0
41
1
10
17.1882461635399
20
26.4073017924779
30
0
41
1
10
17.1970924174061
20
26.4072712696645
30
0
41
1
10
17.2015172442699
20
26.4072713643288
30
0
0
SPLINE
5
F7
100
AcDbEntity
8
1
62
256
6
ByLayer
370
-1
48
1
60
0
100
AcDbSpline
70
4
71
3
72
15
73
11
40
0
40
0
40
0
40
0
40
0.13773401644947
40
0.275496006052156
40
0.413230007792829
40
0.549965155844226
40
0.686727702850485
40
0.823462755492184
40
0.911746198402925
40
1
40
1
40
1
40
1
41
1
10
16.4515172442699
20
27.0675197423037
30
0
41
1
10
16.4515174151586
20
27.0597713605877
30
0
41
1
10
16.4517382630331
20
27.0442802814731
30
0
41
1
10
16.4527315310441
20
27.0210574923538
30
0
41
1
10
16.4543814751612
20
26.9979299829289
30
0
41
1
10
16.4566829447026
20
26.9749143206709
30
0
41
1
10
16.4596274334128
20
26.952028832852
30
0
41
1
10
16.4627946477478
20
26.9319278496473
30
0
41
1
10
16.4659427454726
20
26.9145919950385
30
0
41
1
10
16.4678952750995
20
26.9048578423079
30
0
41
1
10
16.4689160515239
20
26.9
30
0
0
SPLINE
5
F8
100
AcDbEntity
8
1
62
256
6
ByLayer
370
-1
48
1
60
0
100
AcDbSpline
70
4
71
1
72
4
73
2
40
0
40
0
40
1
40
1
41
1
10
59.1261333204699
20
-35.8700000698166
30
0
41
1
10
62.2850125997226
20
-36.5299117887878
30
0
0
INSERT
5
11B
100
AcDbEntity
8
SK2
62
256
6
ByLayer
370
-1
48
1
60
0
100
AcDbBlockReference
2
DimnDraft3D33
10
0
20
0
30
0
41
1
42
1
43
1
50
0
210
0
220
0
230
1
0
LINE
5
48
100
AcDbEntity
8
SK1
62
256
6
ByLayer
370
-1
48
1
60
0
100
AcDbLine
10
-30.7
20
20.978302
30
0
11
-30.7
21
-20.978302
31
0
39
0
210
0
220
0
230
1
0
LINE
5
4A
100
AcDbEntity
8
SK1
62
256
6
ByLayer
370
-1
48
1
60
0
100
AcDbLine
10
-1
20
-24.2695
30
0
11
-0.652228
21
-24.176315
31
0
39
0
210
0
220
0
230
1
0
LINE
5
4B
100
AcDbEntity
8
SK1
62
256
6
ByLayer
370
-1
48
1
60
0
100
AcDbLine
10
-1
20
24.2695
30
0
11
-1
21
-24.2695
31
0
39
0
210
0
220
0
230
1
0
LINE
5
4C
100
AcDbEntity
8
SK1
62
256
6
ByLayer
370
-1
48
1
60
0
100
AcDbLine
10
-4.827659
20
-24.078117
30
0
11
-1
21
-24.2695
31
0
39
0
210
0
220
0
230
1
0
LINE
5
4D
100
AcDbEntity
8
SK1
62
256
6
ByLayer
370
-1
48
1
60
0
100
AcDbLine
10
-0.652228
20
24.176315
30
0
11
-1
21
24.2695
31
0
39
0
210
0
220
0
230
1
0
LINE
5
4E
100
AcDbEntity
8
SK1
62
256
6
ByLayer
370
-1
48
1
60
0
100
AcDbLine
10
-0.652228
20
24.176315
30
0
11
-0.652228
21
-24.176315
31
0
39
0
210
0
220
0
230
1
0
LINE
5
4F
100
AcDbEntity
8
SK1
62
256
6
ByLayer
370
-1
48
1
60
0
100
AcDbLine
10
-0.600464
20
24.1695
30
0
11
-0.600464
21
-24.1695
31
0
39
0
210
0
220
0
230
1
0
LINE
5
50
100
AcDbEntity
8
SK1
62
256
6
ByLayer
370
-1
48
1
60
0
100
AcDbLine
10
-0.600464
20
-24.1695
30
0
11
-0.103587
21
-24.1695
31
0
39
0
210
0
220
0
230
1
0
LINE
5
51
100
AcDbEntity
8
SK1
62
256
6
ByLayer
370
-1
48
1
60
0
100
AcDbLine
10
-0.103587
20
24.1695
30
0
11
-0.600464
21
24.1695
31
0
39
0
210
0
220
0
230
1
0
LINE
5
52
100
AcDbEntity
8
SK1
62
256
6
ByLayer
370
-1
48
1
60
0
100
AcDbLine
10
-0.103587
20
24.1695
30
0
11
-0.103587
21
-24.1695
31
0
39
0
210
0
220
0
230
1
0
LINE
5
53
100
AcDbEntity
8
1
62
256
6
ByLayer
370
-1
48
1
60
0
100
AcDbLine
10
4.95
20
31.475
30
0
11
0
21
31.475
31
0
39
0
210
0
220
0
230
1
0
LINE
5
55
100
AcDbEntity
8
1
62
256
6
ByLayer
370
-1
48
1
60
0
100
AcDbLine
10
12.366198
20
24.426484
30
0
11
12.366198
21
19.85
31
0
39
0
210
0
220
0
230
1
0
LINE
5
56
100
AcDbEntity
8
1
62
256
6
ByLayer
370
-1
48
1
60
0
100
AcDbLine
10
12.366198
20
24.426484
30
0
11
14.622501
21
24.426484
31
0
39
0
210
0
220
0
230
1
0
LINE
5
57
100
AcDbEntity
8
1
62
256
6
ByLayer
370
-1
48
1
60
0
100
AcDbLine
10
13.95
20
-30.160829
30
0
11
14.622501
21
-30.160829
31
0
39
0
210
0
220
0
230
1
0
LINE
5
58
100
AcDbEntity
8
1
62
256
6
ByLayer
370
-1
48
1
60
0
100
AcDbLine
10
14.622501
20
19.85
30
0
11
14.622501
21
-30.160829
31
0
39
0
210
0
220
0
230
1
0
LINE
5
59
100
AcDbEntity
8
1
62
256
6
ByLayer
370
-1
48
1
60
0
100
AcDbLine
10
12.95
20
30.441347
30
0
11
14.622501
21
30.441347
31
0
39
0
210
0
220
0
230
1
0
LINE
5
5A
100
AcDbEntity
8
1
62
256
6
ByLayer
370
-1
48
1
60
0
100
AcDbLine
10
14.622501
20
30.441347
30
0
11
14.622501
21
24.426484
31
0
39
0
210
0
220
0
230
1
0
LINE
5
5B
100
AcDbEntity
8
1
62
256
6
ByLayer
370
-1
48
1
60
0
100
AcDbLine
10
16.451517
20
20.180848
30
0
11
16.451517
21
20.065596
31
0
39
0
210
0
220
0
230
1
0
LINE
5
5C
100
AcDbEntity
8
1
62
256
6
ByLayer
370
-1
48
1
60
0
100
AcDbLine
10
16.451517
20
27.153068
30
0
11
16.451517
21
20.180848
31
0
39
0
210
0
220
0
230
1
0
LINE
5
5D
100
AcDbEntity
8
1
62
256
6
ByLayer
370
-1
48
1
60
0
100
AcDbLine
10
16.634029
20
-26.4
30
0
11
17.201517
21
-26.4
31
0
39
0
210
0
220
0
230
1
0
LINE
5
5E
100
AcDbEntity
8
1
62
256
6
ByLayer
370
-1
48
1
60
0
100
AcDbLine
10
17.201517
20
26.407271
30
0
11
17.201517
21
-26.4
31
0
39
0
210
0
220
0
230
1
0
LINE
5
5F
100
AcDbEntity
8
1
62
256
6
ByLayer
370
-1
48
1
60
0
100
AcDbLine
10
18.798483
20
-26.4
30
0
11
17.201517
21
-26.4
31
0
39
0
210
0
220
0
230
1
0
LINE
5
60
100
AcDbEntity
8
1
62
256
6
ByLayer
370
-1
48
1
60
0
100
AcDbLine
10
17.201517
20
26.407271
30
0
11
18.798483
21
26.407271
31
0
39
0
210
0
220
0
230
1
0
LINE
5
61
100
AcDbEntity
8
1
62
256
6
ByLayer
370
-1
48
1
60
0
100
AcDbLine
10
18.798483
20
26.407271
30
0
11
18.798483
21
-26.4
31
0
39
0
210
0
220
0
230
1
0
LINE
5
62
100
AcDbEntity
8
1
62
256
6
ByLayer
370
-1
48
1
60
0
100
AcDbLine
10
19.548483
20
27.153068
30
0
11
19.548483
21
20.180848
31
0
39
0
210
0
220
0
230
1
0
LINE
5
63
100
AcDbEntity
8
1
62
256
6
ByLayer
370
-1
48
1
60
0
100
AcDbLine
10
19.548483
20
20.065596
30
0
11
19.548483
21
20.180848
31
0
39
0
210
0
220
0
230
1
0
LINE
5
64
100
AcDbEntity
8
1
62
256
6
ByLayer
370
-1
48
1
60
0
100
AcDbLine
10
21.377499
20
19.85
30
0
11
21.377499
21
-30.160829
31
0
39
0
210
0
220
0
230
1
0
LINE
5
65
100
AcDbEntity
8
1
62
256
6
ByLayer
370
-1
48
1
60
0
100
AcDbLine
10
21.377499
20
-30.160829
30
0
11
25.95
21
-30.160829
31
0
39
0
210
0
220
0
230
1
0
LINE
5
66
100
AcDbEntity
8
1
62
256
6
ByLayer
370
-1
48
1
60
0
100
AcDbLine
10
21.377499
20
30.441347
30
0
11
21.377499
21
24.426484
31
0
39
0
210
0
220
0
230
1
0
LINE
5
67
100
AcDbEntity
8
1
62
256
6
ByLayer
370
-1
48
1
60
0
100
AcDbLine
10
21.377499
20
30.441347
30
0
11
25.95
21
30.441347
31
0
39
0
210
0
220
0
230
1
0
LINE
5
68
100
AcDbEntity
8
1
62
256
6
ByLayer
370
-1
48
1
60
0
100
AcDbLine
10
21.377499
20
24.426484
30
0
11
25.95
21
24.426484
31
0
39
0
210
0
220
0
230
1
0
LINE
5
69
100
AcDbEntity
8
1
62
256
6
ByLayer
370
-1
48
1
60
0
100
AcDbLine
10
25.95
20
24.426484
30
0
11
25.95
21
19.85
31
0
39
0
210
0
220
0
230
1
0
LINE
5
6A
100
AcDbEntity
8
1
62
256
6
ByLayer
370
-1
48
1
60
0
100
AcDbLine
10
25.95
20
30.441347
30
0
11
25.95
21
24.426484
31
0
39
0
210
0
220
0
230
1
0
LINE
5
6B
100
AcDbEntity
8
1
62
256
6
ByLayer
370
-1
48
1
60
0
100
AcDbLine
10
25.95
20
-26.5
30
0
11
42
21
-26.5
31
0
39
0
210
0
220
0
230
1
0
LINE
5
6C
100
AcDbEntity
8
1
62
256
6
ByLayer
370
-1
48
1
60
0
100
AcDbLine
10
42
20
-26.5
30
0
11
46.913598
21
-40
31
0
39
0
210
0
220
0
230
1
0
LINE
5
6D
100
AcDbEntity
8
1
62
256
6
ByLayer
370
-1
48
1
60
0
100
AcDbLine
10
42
20
26.5
30
0
11
42
21
-26.5
31
0
39
0
210
0
220
0
230
1
0
LINE
5
6E
100
AcDbEntity
8
1
62
256
6
ByLayer
370
-1
48
1
60
0
100
AcDbLine
10
53.998
20
40
30
0
11
46.913598
21
40
31
0
39
0
210
0
220
0
230
1
0
LINE
5
6F
100
AcDbEntity
8
1
62
256
6
ByLayer
370
-1
48
1
60
0
100
AcDbLine
10
46.913598
20
40
30
0
11
42
21
26.5
31
0
39
0
210
0
220
0
230
1
0
LINE
5
70
100
AcDbEntity
8
1
62
256
6
ByLayer
370
-1
48
1
60
0
100
AcDbLine
10
46.913598
20
40
30
0
11
46.913598
21
-40
31
0
39
0
210
0
220
0
230
1
0
LINE
5
71
100
AcDbEntity
8
1
62
256
6
ByLayer
370
-1
48
1
60
0
100
AcDbLine
10
62.285192
20
-36.529976
30
0
11
69.25
21
-37.985
31
0
39
0
210
0
220
0
230
1
0
LINE
5
72
100
AcDbEntity
8
1
62
256
6
ByLayer
370
-1
48
1
60
0
100
AcDbLine
10
62.285192
20
-36.529976
30
0
11
69.25
21
-37.985
31
0
39
0
210
0
220
0
230
1
0
LINE
5
73
100
AcDbEntity
8
1
62
256
6
ByLayer
370
-1
48
1
60
0
100
AcDbLine
10
62.2851
20
-36.529957
30
0
11
62.285192
21
-36.529976
31
0
39
0
210
0
220
0
230
1
0
LINE
5
74
100
AcDbEntity
8
1
62
256
6
ByLayer
370
-1
48
1
60
0
100
AcDbLine
10
69.25
20
-37.985
30
0
11
69.25
21
-38.025
31
0
39
0
210
0
220
0
230
1
0
LINE
5
75
100
AcDbEntity
8
1
62
256
6
ByLayer
370
-1
48
1
60
0
100
AcDbLine
10
69.25
20
-37.985
30
0
11
80.75
21
-37.985
31
0
39
0
210
0
220
0
230
1
0
LINE
5
76
100
AcDbEntity
8
1
62
256
6
ByLayer
370
-1
48
1
60
0
100
AcDbLine
10
69.25
20
-37.985
30
0
11
80.75
21
-37.985
31
0
39
0
210
0
220
0
230
1
0
LINE
5
77
100
AcDbEntity
8
1
62
256
6
ByLayer
370
-1
48
1
60
0
100
AcDbLine
10
80.75
20
-37.985
30
0
11
87.714808
21
-36.529976
31
0
39
0
210
0
220
0
230
1
0
LINE
5
78
100
AcDbEntity
8
1
62
256
6
ByLayer
370
-1
48
1
60
0
100
AcDbLine
10
80.75
20
-38.025
30
0
11
80.75
21
-37.985
31
0
39
0
210
0
220
0
230
1
0
LINE
5
79
100
AcDbEntity
8
1
62
256
6
ByLayer
370
-1
48
1
60
0
100
AcDbLine
10
80.75
20
-37.985
30
0
11
87.714808
21
-36.529976
31
0
39
0
210
0
220
0
230
1
0
LINE
5
7A
100
AcDbEntity
8
1
62
256
6
ByLayer
370
-1
48
1
60
0
100
AcDbLine
10
97
20
-35.87
30
0
11
57.3
21
-35.87
31
0
39
0
210
0
220
0
230
1
0
LINE
5
7B
100
AcDbEntity
8
1
62
256
6
ByLayer
370
-1
48
1
60
0
100
AcDbLine
10
97
20
-35.87
30
0
11
97
21
40
31
0
39
0
210
0
220
0
230
1
0
LINE
5
7C
100
AcDbEntity
8
1
62
256
6
ByLayer
370
-1
48
1
60
0
100
AcDbLine
10
100
20
-35.87
30
0
11
97
21
-35.87
31
0
39
0
210
0
220
0
230
1
0
LINE
5
7D
100
AcDbEntity
8
SK1
62
256
6
ByLayer
370
-1
48
1
60
0
100
AcDbLine
10
-25.8
20
23.0295
30
0
11
-13.216978
21
23.658651
31
0
39
0
210
0
220
0
230
1
0
LINE
5
7E
100
AcDbEntity
8
SK1
62
256
6
ByLayer
370
-1
48
1
60
0
100
AcDbLine
10
-25.8
20
21.892407
30
0
11
-25.8
21
23.0295
31
0
39
0
210
0
220
0
230
1
0
LINE
5
7F
100
AcDbEntity
8
SK1
62
256
6
ByLayer
370
-1
48
1
60
0
100
AcDbLine
10
-28.436902
20
20.99
30
0
11
-27.2
21
20.99
31
0
39
0
210
0
220
0
230
1
0
LINE
5
80
100
AcDbEntity
8
SK1
62
256
6
ByLayer
370
-1
48
1
60
0
100
AcDbLine
10
-31.9
20
-20.269046
30
0
11
-31.9
21
20.269046
31
0
39
0
210
0
220
0
230
1
0
LINE
5
81
100
AcDbEntity
8
1
62
256
6
ByLayer
370
-1
48
1
60
0
100
AcDbLine
10
16.451517
20
19.85
30
0
11
16.451517
21
-26.839437
31
0
39
0
210
0
220
0
230
1
0
LINE
5
82
100
AcDbEntity
8
1
62
256
6
ByLayer
370
-1
48
1
60
0
100
AcDbLine
10
14.622501
20
19.85
30
0
11
16.451517
21
19.85
31
0
39
0
210
0
220
0
230
1
0
LINE
5
83
100
AcDbEntity
8
1
62
256
6
ByLayer
370
-1
48
1
60
0
100
AcDbLine
10
5.135739
20
19.85
30
0
11
14.622501
21
19.85
31
0
39
0
210
0
220
0
230
1
0
LINE
5
84
100
AcDbEntity
8
1
62
256
6
ByLayer
370
-1
48
1
60
0
100
AcDbLine
10
72.212098
20
-0.748956
30
0
11
72.957434
21
2.039916
31
0
39
0
210
0
220
0
230
1
0
LINE
5
85
100
AcDbEntity
8
1
62
256
6
ByLayer
370
-1
48
1
60
0
100
AcDbLine
10
74.254664
20
-2.788872
30
0
11
72.212098
21
-0.748956
31
0
39
0
210
0
220
0
230
1
0
LINE
5
86
100
AcDbEntity
8
1
62
256
6
ByLayer
370
-1
48
1
60
0
100
AcDbLine
10
77.042566
20
-2.039916
30
0
11
74.254664
21
-2.788872
31
0
39
0
210
0
220
0
230
1
0
LINE
5
87
100
AcDbEntity
8
1
62
256
6
ByLayer
370
-1
48
1
60
0
100
AcDbLine
10
77.787902
20
0.748956
30
0
11
77.042566
21
-2.039916
31
0
39
0
210
0
220
0
230
1
0
LINE
5
88
100
AcDbEntity
8
1
62
256
6
ByLayer
370
-1
48
1
60
0
100
AcDbLine
10
75.745336
20
2.788872
30
0
11
77.787902
21
0.748956
31
0
39
0
210
0
220
0
230
1
0
LINE
5
89
100
AcDbEntity
8
1
62
256
6
ByLayer
370
-1
48
1
60
0
100
AcDbLine
10
72.957434
20
2.039916
30
0
11
75.745336
21
2.788872
31
0
39
0
210
0
220
0
230
1
0
LINE
5
8A
100
AcDbEntity
8
1
62
256
6
ByLayer
370
-1
48
1
60
0
100
AcDbLine
10
53.17
20
-40
30
0
11
46.913598
21
-40
31
0
39
0
210
0
220
0
230
1
0
LINE
5
8B
100
AcDbEntity
8
1
62
256
6
ByLayer
370
-1
48
1
60
0
100
AcDbLine
10
57.3
20
-35.87
30
0
11
53.17
21
-40
31
0
39
0
210
0
220
0
230
1
0
LINE
5
8C
100
AcDbEntity
8
1
62
256
6
ByLayer
370
-1
48
1
60
0
100
AcDbLine
10
16.46726
20
19.85
30
0
11
16.451517
21
19.85
31
0
39
0
210
0
220
0
230
1
0
LINE
5
8D
100
AcDbEntity
8
1
62
256
6
ByLayer
370
-1
48
1
60
0
100
AcDbLine
10
19.365971
20
-26.4
30
0
11
18.798483
21
-26.4
31
0
39
0
210
0
220
0
230
1
0
LINE
5
8E
100
AcDbEntity
8
1
62
256
6
ByLayer
370
-1
48
1
60
0
100
AcDbLine
10
0
20
-31.475
30
0
11
0
21
31.475
31
0
39
0
210
0
220
0
230
1
0
LINE
5
8F
100
AcDbEntity
8
1
62
256
6
ByLayer
370
-1
48
1
60
0
100
AcDbLine
10
4.95
20
-31.475
30
0
11
0
21
-31.475
31
0
39
0
210
0
220
0
230
1
0
LINE
5
90
100
AcDbEntity
8
1
62
256
6
ByLayer
370
-1
48
1
60
0
100
AcDbLine
10
59.897256
20
-36.03111
30
0
11
59.126066
21
-35.87
31
0
39
0
210
0
220
0
230
1
0
LINE
5
91
100
AcDbEntity
8
1
62
256
6
ByLayer
370
-1
48
1
60
0
100
AcDbLine
10
62.2851
20
-36.529957
30
0
11
59.897256
21
-36.03111
31
0
39
0
210
0
220
0
230
1
0
LINE
5
92
100
AcDbEntity
8
1
62
256
6
ByLayer
370
-1
48
1
60
0
100
AcDbLine
10
100
20
36.999789
30
0
11
100
21
-35.87
31
0
39
0
210
0
220
0
230
1
0
LINE
5
93
100
AcDbEntity
8
1
62
256
6
ByLayer
370
-1
48
1
60
0
100
AcDbLine
10
99.7
20
37.3
30
0
11
99.7
21
37.299791
31
0
39
0
210
0
220
0
230
1
0
LINE
5
94
100
AcDbEntity
8
1
62
256
6
ByLayer
370
-1
48
1
60
0
100
AcDbLine
10
97
20
40
30
0
11
99.7
21
37.3
31
0
39
0
210
0
220
0
230
1
0
LINE
5
95
100
AcDbEntity
8
1
62
256
6
ByLayer
370
-1
48
1
60
0
100
AcDbLine
10
96.001565
20
40
30
0
11
97
21
40
31
0
39
0
210
0
220
0
230
1
0
LINE
5
96
100
AcDbEntity
8
1
62
256
6
ByLayer
370
-1
48
1
60
0
100
AcDbLine
10
90.873934
20
-35.87
30
0
11
87.714808
21
-36.529976
31
0
39
0
210
0
220
0
230
1
0
LINE
5
97
100
AcDbEntity
8
1
62
256
6
ByLayer
370
-1
48
1
60
0
100
AcDbLine
10
25.95
20
19.85
30
0
11
25.95
21
-30.160829
31
0
39
0
210
0
220
0
230
1
0
LINE
5
98
100
AcDbEntity
8
1
62
256
6
ByLayer
370
-1
48
1
60
0
100
AcDbLine
10
21.377499
20
19.85
30
0
11
25.95
21
19.85
31
0
39
0
210
0
220
0
230
1
0
LINE
5
99
100
AcDbEntity
8
1
62
256
6
ByLayer
370
-1
48
1
60
0
100
AcDbLine
10
19.548483
20
19.85
30
0
11
21.377499
21
19.85
31
0
39
0
210
0
220
0
230
1
0
LINE
5
9A
100
AcDbEntity
8
1
62
256
6
ByLayer
370
-1
48
1
60
0
100
AcDbLine
10
19.548483
20
-26.839437
30
0
11
19.548483
21
19.85
31
0
39
0
210
0
220
0
230
1
0
LINE
5
9B
100
AcDbEntity
8
SK1
62
256
6
ByLayer
370
-1
48
1
60
0
100
AcDbLine
10
-21.8
20
-23.2295
30
0
11
-13.217168
21
-23.658642
31
0
39
0
210
0
220
0
230
1
0
LINE
5
9C
100
AcDbEntity
8
SK1
62
256
6
ByLayer
370
-1
48
1
60
0
100
AcDbLine
10
-21.8
20
-22.017834
30
0
11
-21.8
21
-23.2295
31
0
39
0
210
0
220
0
230
1
0
LINE
5
9D
100
AcDbEntity
8
SK1
62
256
6
ByLayer
370
-1
48
1
60
0
100
AcDbLine
10
-28.436902
20
-20.99
30
0
11
-23.2
21
-20.99
31
0
39
0
210
0
220
0
230
1
0
LINE
5
9E
100
AcDbEntity
8
1
62
256
6
ByLayer
370
-1
48
1
60
0
100
AcDbLine
10
80.75
20
-38.025
30
0
11
69.25
21
-38.025
31
0
39
0
210
0
220
0
230
1
0
LINE
5
9F
100
AcDbEntity
8
1
62
256
6
ByLayer
370
-1
48
1
60
0
100
AcDbLine
10
19.548483
20
19.85
30
0
11
19.53274
21
19.85
31
0
39
0
210
0
220
0
230
1
0
LINE
5
A0
100
AcDbEntity
8
1
62
256
6
ByLayer
370
-1
48
1
60
0
100
AcDbLine
10
25.95
20
26.5
30
0
11
42
21
26.5
31
0
39
0
210
0
220
0
230
1
0
LINE
5
A1
100
AcDbEntity
8
SK1
62
256
6
ByLayer
370
-1
48
1
60
0
100
AcDbLine
10
-4.827549
20
24.078123
30
0
11
-1
21
24.2695
31
0
39
0
210
0
220
0
230
1
0
LINE
5
A2
100
AcDbEntity
8
80
62
256
6
ByLayer
370
-1
48
1
60
0
100
AcDbLine
10
0
20
0
30
0
11
-5.5
21
0
31
0
39
0
210
0
220
0
230
1
0
LINE
5
A3
100
AcDbEntity
8
81
62
256
6
ByLayer
370
-1
48
1
60
0
100
AcDbLine
10
100
20
0
30
0
11
106
21
0
31
0
39
0
210
0
220
0
230
1
0
LINE
5
A4
100
AcDbEntity
8
4
62
256
6
ByLayer
370
-1
48
0.05
60
0
100
AcDbLine
10
0
20
0
30
0
11
100
21
0
31
0
39
0
210
0
220
0
230
1
0
LINE
5
A6
100
AcDbEntity
8
SK4
62
256
6
ByLayer
370
-1
48
0.05
60
0
100
AcDbLine
10
103
20
0
30
0
11
-40
21
0
31
0
39
0
210
0
220
0
230
1
0
LINE
5
A7
100
AcDbEntity
8
SK4
62
256
6
ByLayer
370
-1
48
0.05
60
0
100
AcDbLine
10
75
20
42
30
0
11
75
21
-44
31
0
39
0
210
0
220
0
230
1
0
LINE
5
A8
100
AcDbEntity
8
SK2
62
256
6
ByLayer
370
-1
48
1
60
0
100
AcDbLine
10
168.4
20
11.066445
30
0
11
167.982003
21
7.891445
31
0
39
0
210
0
220
0
230
1
0
LINE
5
AA
100
AcDbEntity
8
SK2
62
256
6
ByLayer
370
-1
48
1
60
0
100
AcDbLine
10
168.322654
20
9.891445
30
0
11
168.191002
21
7.891445
31
0
39
0
210
0
220
0
230
1
0
LINE
5
AB
100
AcDbEntity
8
SK2
62
256
6
ByLayer
370
-1
48
1
60
0
100
AcDbLine
10
148
20
10.720035
30
0
11
148
21
5.231165
31
0
39
0
210
0
220
0
230
1
0
LINE
5
AC
100
AcDbEntity
8
SK2
62
256
6
ByLayer
370
-1
48
1
60
0
100
AcDbLine
10
150
20
11.066445
30
0
11
170.4
21
11.066445
31
0
39
0
210
0
220
0
230
1
0
LINE
5
AD
100
AcDbEntity
8
SK2
62
256
6
ByLayer
370
-1
48
1
60
0
100
AcDbLine
10
142.6465
20
8.32201
30
0
11
147.4
21
11.066445
31
0
39
0
210
0
220
0
230
1
0
LINE
5
AE
100
AcDbEntity
8
SK2
62
256
6
ByLayer
370
-1
48
1
60
0
100
AcDbLine
10
147.4
20
4.884755
30
0
11
142.6465
21
7.62919
31
0
39
0
210
0
220
0
230
1
0
LINE
5
AF
100
AcDbEntity
8
SK2
62
256
6
ByLayer
370
-1
48
1
60
0
100
AcDbLine
10
168.477346
20
9.891445
30
0
11
168.608998
21
7.891445
31
0
39
0
210
0
220
0
230
1
0
LINE
5
B0
100
AcDbEntity
8
SK2
62
256
6
ByLayer
370
-1
48
1
60
0
100
AcDbLine
10
168.4
20
11.066445
30
0
11
168.817997
21
7.891445
31
0
39
0
210
0
220
0
230
1
0
LINE
5
B1
100
AcDbEntity
8
SK2
62
256
6
ByLayer
370
-1
48
1
60
0
100
AcDbLine
10
168.4
20
11.066445
30
0
11
167.982003
21
7.891445
31
0
39
0
210
0
220
0
230
1
0
LINE
5
B2
100
AcDbEntity
8
SK2
62
256
6
ByLayer
370
-1
48
1
60
0
100
AcDbLine
10
167.982003
20
7.891445
30
0
11
168.817997
21
7.891445
31
0
39
0
210
0
220
0
230
1
0
LINE
5
B3
100
AcDbEntity
8
SK2
62
256
6
ByLayer
370
-1
48
1
60
0
100
AcDbLine
10
168.322654
20
9.891445
30
0
11
168.191002
21
7.891445
31
0
39
0
210
0
220
0
230
1
0
LINE
5
B4
100
AcDbEntity
8
SK2
62
256
6
ByLayer
370
-1
48
1
60
0
100
AcDbLine
10
168.4
20
11.066445
30
0
11
168.4
21
-35
31
0
39
0
210
0
220
0
230
1
0
LINE
5
B5
100
AcDbEntity
8
SK2
62
256
6
ByLayer
370
-1
48
1
60
0
100
AcDbLine
10
168.477346
20
9.891445
30
0
11
168.608998
21
7.891445
31
0
39
0
210
0
220
0
230
1
0
LINE
5
B6
100
AcDbEntity
8
SK2
62
256
6
ByLayer
370
-1
48
1
60
0
100
AcDbLine
10
167.982003
20
7.891445
30
0
11
168.817997
21
7.891445
31
0
39
0
210
0
220
0
230
1
0
LINE
5
B7
100
AcDbEntity
8
SK2
62
256
6
ByLayer
370
-1
48
1
60
0
100
AcDbLine
10
168.4
20
11.066445
30
0
11
168.817997
21
7.891445
31
0
39
0
210
0
220
0
230
1
0
LINE
5
B8
100
AcDbEntity
8
SK3
62
256
6
ByLayer
370
-1
48
0.05
60
0
100
AcDbLine
10
100
20
10
30
0
11
28
21
10
31
0
39
0
210
0
220
0
230
1
0
LINE
5
BA
100
AcDbEntity
8
SK3
62
256
6
ByLayer
370
-1
48
0.05
60
0
100
AcDbLine
10
28
20
10
30
0
11
28
21
-10
31
0
39
0
210
0
220
0
230
1
0
LINE
5
BB
100
AcDbEntity
8
SK3
62
256
6
ByLayer
370
-1
48
0.05
60
0
100
AcDbLine
10
28
20
-10
30
0
11
100
21
-10
31
0
39
0
210
0
220
0
230
1
0
MTEXT
5
F9
100
AcDbEntity
8
SK6
62
256
6
ByLayer
370
-1
48
1
60
0
100
AcDbMText
10
4.891915
20
-22.257175
30
0
210
0
220
0
230
1
1
\W00.732;\fsimplex.shx,bigfont.shx;392.410 37A-63 20 100A 
40
3
41
0
44
1.084337
50
89.9999999999999
71
7
72
5
7
DEFAULT
0
MTEXT
5
FD
100
AcDbEntity
8
SK2
62
256
6
ByLayer
370
-1
48
1
60
0
100
AcDbMText
10
167.532816
20
-32.248433
30
0
210
0
220
0
230
1
1
\W00.756;\fsimplex.shx,bigfont.shx;Dc = 3.0 - 36.0 
40
3
41
0
44
1.084337
50
89.9999999999993
71
7
72
5
7
DEFAULT
0
DIMENSION
5
107
100
AcDbEntity
8
SK2
62
256
6
ByLayer
370
-3
48
1
60
0
100
AcDbDimension
2
DimnDraft3D1
10
-58.5
20
-31.475
30
0
11
-58.5
21
-4.073684
31
0
70
32
71
5
72
1
41
1
210
0
220
0
230
1
3
Standard
100
AcDbAlignedDimension
13
-2
23
31.475
33
0
14
-2
24
-31.475
34
0
50
90
100
AcDbRotatedDimension
1001
ACAD
1000
DSTYLE
1002
{
1070
    74
1070
     0
1070
   279
1070
     0
1070
   172
1070
     1
1070
   173
1070
     1
1070
   340
1005
FA
1070
   271
1070
     0
1070
    77
1070
     1
1070
    73
1070
     0
1070
   171
1070
     4
1070
   274
1070
     4
1070
   177
1070
     7
1070
   176
1070
     7
1070
   178
1070
     7
1070
    78
1070
     8
1070
    41
1041
3.175
1070
   147
1041
1.5
1070
    42
1041
2.0
1070
    44
1041
2.0
1070
   140
1041
3.0
1070
   343
1005
0
1070
   344
1005
0
1002
}
0
DIMENSION
5
111
100
AcDbEntity
8
SK2
62
256
6
ByLayer
370
-3
48
1
60
0
100
AcDbDimension
2
DimnDraft3D2
10
28
20
54.206544
30
0
11
60.557895
21
54.206544
31
0
70
32
71
5
72
1
41
1
210
0
220
0
230
1
3
Standard
100
AcDbAlignedDimension
13
100
23
38.999789
33
0
14
28
24
12
34
0
50
0
100
AcDbRotatedDimension
1001
ACAD
1000
DSTYLE
1002
{
1070
   279
1070
     0
1070
   172
1070
     1
1070
   173
1070
     1
1070
   340
1005
FA
1070
   271
1070
     1
1070
    77
1070
     1
1070
    73
1070
     0
1070
   171
1070
     4
1070
   274
1070
     4
1070
   177
1070
     7
1070
   176
1070
     7
1070
   178
1070
     7
1070
    41
1041
3.175
1070
   147
1041
1.5
1070
    42
1041
2.0
1070
    44
1041
2.0
1070
   140
1041
3.0
1070
   343
1005
0
1070
   344
1005
0
1002
}
0
DIMENSION
5
125
100
AcDbEntity
8
SK2
62
256
6
ByLayer
370
-3
48
1
60
0
100
AcDbDimension
2
DimnDraft3D4
10
136.5
20
40
30
0
11
136.5
21
-4.073684
31
0
70
32
71
5
72
1
41
1
210
0
220
0
230
1
3
Standard
100
AcDbAlignedDimension
13
55.17
23
-40
33
0
14
99
24
40
34
0
50
90
100
AcDbRotatedDimension
1001
ACAD
1000
DSTYLE
1002
{
1070
    74
1070
     0
1070
   279
1070
     0
1070
   172
1070
     1
1070
   173
1070
     1
1070
   340
1005
FA
1070
   271
1070
     0
1070
    77
1070
     1
1070
    73
1070
     0
1070
   171
1070
     4
1070
   274
1070
     4
1070
   177
1070
     7
1070
   176
1070
     7
1070
   178
1070
     7
1070
    78
1070
     8
1070
    41
1041
3.175
1070
   147
1041
1.5
1070
    42
1041
2.0
1070
    44
1041
2.0
1070
   140
1041
3.0
1070
   343
1005
0
1070
   344
1005
0
1002
}
0
DIMENSION
5
12F
100
AcDbEntity
8
SK2
62
256
6
ByLayer
370
-3
48
1
60
0
100
AcDbDimension
2
DimnDraft3D5
10
121.5
20
-10
30
0
11
121.5
21
-4.073684
31
0
70
32
71
5
72
1
41
1
210
0
220
0
230
1
3
Standard
100
AcDbAlignedDimension
13
102
23
10
33
0
14
102
24
-10
34
0
50
90
100
AcDbRotatedDimension
1001
ACAD
1000
DSTYLE
1002
{
1070
    74
1070
     0
1070
   279
1070
     0
1070
   172
1070
     1
1070
   173
1070
     1
1070
   340
1005
FA
1070
   271
1070
     0
1070
    77
1070
     1
1070
    73
1070
     0
1070
   171
1070
     4
1070
   274
1070
     4
1070
   177
1070
     7
1070
   176
1070
     7
1070
   178
1070
     7
1070
    78
1070
     8
1070
    41
1041
3.175
1070
   147
1041
1.5
1070
    42
1041
2.0
1070
    44
1041
2.0
1070
   140
1041
3.0
1070
   343
1005
0
1070
   344
1005
0
1002
}
0
DIMENSION
5
13A
100
AcDbEntity
8
2
62
256
6
ByLayer
370
-3
48
1
60
0
100
AcDbDimension
2
DimnDraft3D6
10
0
20
65.087216
30
0
11
45.831579
21
65.087216
31
0
70
32
71
5
72
1
41
1
210
0
220
0
230
1
3
Standard
100
AcDbAlignedDimension
13
100
23
38.999789
33
0
14
0
24
33.475
34
0
50
0
100
AcDbRotatedDimension
1001
ACAD
1000
DSTYLE
1002
{
1070
   279
1070
     0
1070
   172
1070
     1
1070
   173
1070
     1
1070
   340
1005
FA
1070
   271
1070
     1
1070
    77
1070
     1
1070
    73
1070
     0
1070
   171
1070
     4
1070
   274
1070
     4
1070
   177
1070
     7
1070
   176
1070
     7
1070
   178
1070
     7
1070
    41
1041
3.175
1070
   147
1041
1.5
1070
    42
1041
2.0
1070
    44
1041
2.0
1070
   140
1041
3.0
1070
   343
1005
0
1070
   344
1005
0
1002
}
0
ENDSEC
0
SECTION
2
OBJECTS
0
DICTIONARY
5
18a
330
0
100
AcDbDictionary
280
0
281
1
3
ACAD_GROUP
350
18b
3
ACAD_MLINESTYLE
350
18c
0
DICTIONARY
5
18b
330
0
100
AcDbDictionary
280
0
281
1
0
DICTIONARY
5
18c
330
0
100
AcDbDictionary
280
0
281
1
3
Standard
350
18
0
MLINESTYLE
5
18
330
18c
100
AcDbMlineStyle
2
Standard
70
0
3

62
256
51
90
52
90
71
2
49
-0.5
62
256
6
ByLayer
49
0.5
62
256
6
ByLayer
0
RASTERVARIABLES
5
177
330

100
AcDbRasterVariables
90
0
70
1
71
1
72
1
0
ENDSEC
0
EOF
