0
SECTION
2
HEADER
9
$ACADVER
1
AC1015
9
$DWGCODEPAGE
3
ANSI_1252
9
$HANDSEED
5
1e1
9
$ANGBASE
50
0
9
$ANGDIR
70
0
9
$ATTMODE
70
1
9
$AUNITS
70
0
9
$AUPREC
70
0
9
$CECOLOR
62
256
9
$CELTSCALE
40
1
9
$CELTYPE
6
ByLayer
9
$CELWEIGHT
370
18
9
$CLAYER
8
0
9
$CMLJUST
70
0
9
$CMLSCALE
40
1
9
$CMLSTYLE
2
Standard
9
$DIMSTYLE
2
Standard
9
$TEXTSIZE
40
0.2
9
$TEXTSTYLE
7
Standard
9
$LUNITS
70
2
9
$LUPREC
70
4
9
$EXTNAMES
290
1
9
$INSUNITS
70
4
9
$LTSCALE
40
1
9
$LWDISPLAY
290
1
9
$PDMODE
70
0
9
$PDSIZE
40
0
9
$PLINEGEN
70
0
0
ENDSEC
0
SECTION
2
CLASSES
0
CLASS
1
RASTERVARIABLES
2
AcDbRasterVariables
3
ISM
90
0
280
0
281
0
0
ENDSEC
0
SECTION
2
TABLES
0
TABLE
2
VPORT
5
1d7
100
AcDbSymbolTable
0
VPORT
5
1
100
AcDbSymbolTableRecord
100
AcDbViewportTableRecord
2
*Active
70
0
10
0
20
0
11
1
21
1
12
-1
22
1
13
0
23
0
14
0.5
24
0.5
15
10
25
10
16
0
26
0
36
1
17
0
27
0
37
0
0
ENDTAB
0
TABLE
2
LTYPE
5
1d8
100
AcDbSymbolTable
0
LTYPE
5
14
100
AcDbSymbolTableRecord
100
AcDbLinetypeTableRecord
70
0
2
ByBlock
3

72
65
73
0
40
0
0
LTYPE
5
15
100
AcDbSymbolTableRecord
100
AcDbLinetypeTableRecord
70
0
2
ByLayer
3

72
65
73
0
40
0
0
LTYPE
5
16
100
AcDbSymbolTableRecord
100
AcDbLinetypeTableRecord
70
0
2
CONTINUOUS
3
Solid line
72
65
73
0
40
0
0
LTYPE
5
6A
100
AcDbSymbolTableRecord
100
AcDbLinetypeTableRecord
70
0
2
CENTER
3
____ _ ____ _ ____ _ ____
72
65
73
4
40
47.5
49
22
74
0
49
-8.5
74
0
49
8.5
74
0
49
-8.5
74
0
0
LTYPE
5
6B
100
AcDbSymbolTableRecord
100
AcDbLinetypeTableRecord
70
0
2
DASHED
3
__ __ __ __ __ __ __ __ __
72
65
73
2
40
25.72
49
12.86
74
0
49
-12.86
74
0
0
ENDTAB
0
TABLE
2
LAYER
5
1d9
100
AcDbSymbolTable
0
LAYER
5
10
100
AcDbSymbolTableRecord
100
AcDbLayerTableRecord
2
0
70
0
62
7
6
CONTINUOUS
290
1
370
-3
390
0
0
LAYER
5
6D
100
AcDbSymbolTableRecord
100
AcDbLayerTableRecord
2
80
70
0
62
-6
6
CONTINUOUS
290
1
370
-3
390
0
0
LAYER
5
6F
100
AcDbSymbolTableRecord
100
AcDbLayerTableRecord
2
1
70
0
62
4
6
CONTINUOUS
290
1
370
-3
390
0
0
LAYER
5
72
100
AcDbSymbolTableRecord
100
AcDbLayerTableRecord
2
81
70
0
62
-3
6
CONTINUOUS
290
1
370
-3
390
0
0
LAYER
5
B6
100
AcDbSymbolTableRecord
100
AcDbLayerTableRecord
2
4
70
0
62
-2
6
CENTER
290
1
370
-3
390
0
0
LAYER
5
138
100
AcDbSymbolTableRecord
100
AcDbLayerTableRecord
2
2
70
0
62
7
6
CONTINUOUS
290
1
370
-3
390
0
0
LAYER
5
1c3
100
AcDbSymbolTableRecord
100
AcDbLayerTableRecord
2
SK1
70
0
62
4
6
CONTINUOUS
290
1
370
-3
390
0
0
LAYER
5
1c4
100
AcDbSymbolTableRecord
100
AcDbLayerTableRecord
2
SK4
70
0
62
2
6
CENTER
290
1
370
-3
390
0
0
LAYER
5
1c5
100
AcDbSymbolTableRecord
100
AcDbLayerTableRecord
2
SK6
70
0
62
5
6
CONTINUOUS
290
1
370
-3
390
0
0
LAYER
5
1c6
100
AcDbSymbolTableRecord
100
AcDbLayerTableRecord
2
SK2
70
0
62
7
6
CONTINUOUS
290
1
370
-3
390
0
0
ENDTAB
0
TABLE
2
STYLE
5
1da
100
AcDbSymbolTable
0
STYLE
5
11
100
AcDbSymbolTableRecord
100
AcDbTextStyleTableRecord
2
Standard
3
txt
70
0
71
0
40
0
41
1
42
0
50
0
0
STYLE
5
133
100
AcDbSymbolTableRecord
100
AcDbTextStyleTableRecord
2
iso_b_vert
3
simplex.shx
70
0
71
0
40
0
41
1
42
0
50
0
0
STYLE
5
134
100
AcDbSymbolTableRecord
100
AcDbTextStyleTableRecord
2
DWGDirectTextStyle
3
simplex
70
0
71
0
40
0
41
1
42
0
50
0
0
ENDTAB
0
TABLE
2
DIMSTYLE
5
1db
100
AcDbSymbolTable
100
AcDbDimStyleTable
0
DIMSTYLE
105
27
100
AcDbSymbolTableRecord
100
AcDbDimStyleTableRecord
2
Standard
70
0
3
<>
41
0.18
42
0.0625
44
0.18
140
0.18
147
0.09
73
0
74
0
77
1
271
2
275
0
278
52
280
0
340
11
0
ENDTAB
0
TABLE
2
VIEW
5
1dc
100
AcDbSymbolTable
0
ENDTAB
0
TABLE
2
UCS
5
1dd
100
AcDbSymbolTable
0
ENDTAB
0
TABLE
2
APPID
5
1de
100
AcDbSymbolTable
0
APPID
5
12
100
AcDbSymbolTableRecord
100
AcDbRegAppTableRecord
2
ACAD
70
0
0
ENDTAB
0
TABLE
2
BLOCK_RECORD
5
1df
100
AcDbSymbolTable
0
BLOCK_RECORD
5
1F
100
AcDbSymbolTableRecord
100
AcDbBlockTableRecord
2
*Model_Space
340
0
70
0
0
BLOCK_RECORD
5
1B
100
AcDbSymbolTableRecord
100
AcDbBlockTableRecord
2
*Paper_Space
340
0
70
0
0
BLOCK_RECORD
5
23
100
AcDbSymbolTableRecord
100
AcDbBlockTableRecord
2
*Paper_Space0
340
0
70
0
0
BLOCK_RECORD
5
136
100
AcDbSymbolTableRecord
100
AcDbBlockTableRecord
2
DimnDraft3D1
340
0
70
0
0
BLOCK_RECORD
5
141
100
AcDbSymbolTableRecord
100
AcDbBlockTableRecord
2
DimnDraft3D2
340
0
70
0
0
BLOCK_RECORD
5
14B
100
AcDbSymbolTableRecord
100
AcDbBlockTableRecord
2
DimnDraft3D3
340
0
70
0
0
BLOCK_RECORD
5
155
100
AcDbSymbolTableRecord
100
AcDbBlockTableRecord
2
DimnDraft3D44
340
0
70
0
0
BLOCK_RECORD
5
15F
100
AcDbSymbolTableRecord
100
AcDbBlockTableRecord
2
DimnDraft3D5
340
0
70
0
0
ENDTAB
0
ENDSEC
0
SECTION
2
BLOCKS
0
BLOCK
5
20
100
AcDbEntity
8
0
100
AcDbBlockBegin
2
*Model_Space
70
0
10
0
20
0
30
0
3
*Model_Space
0
ENDBLK
5
21
100
AcDbEntity
8
0
100
AcDbBlockEnd
0
BLOCK
5
1C
100
AcDbEntity
8
0
100
AcDbBlockBegin
2
*Paper_Space
70
0
10
0
20
0
30
0
3
*Paper_Space
0
ENDBLK
5
1D
100
AcDbEntity
8
0
100
AcDbBlockEnd
0
BLOCK
5
24
100
AcDbEntity
8
0
100
AcDbBlockBegin
2
*Paper_Space0
70
0
10
0
20
0
30
0
3
*Paper_Space0
0
ENDBLK
5
25
100
AcDbEntity
8
0
100
AcDbBlockEnd
0
BLOCK
5
13E
100
AcDbEntity
8
0
100
AcDbBlockBegin
2
DimnDraft3D1
70
0
10
0
20
0
30
0
3
DimnDraft3D1
0
MTEXT
5
137
100
AcDbEntity
8
2
62
256
6
ByLayer
370
18
48
1
60
0
100
AcDbMText
10
23.302804
20
-7.778143
30
0
210
0
220
0
230
1
1
\W1.1332;%%c34,7
40
3.5
41
0
44
1.084337
50
90
71
7
72
5
7
iso_b_vert
0
LINE
5
139
100
AcDbEntity
8
2
62
256
6
ByLayer
370
13
48
1
60
0
100
AcDbLine
10
7.637535
20
16.881061
30
0
11
27.052804
21
16.881061
31
0
39
0
210
0
220
0
230
1
0
LINE
5
13A
100
AcDbEntity
8
2
62
256
6
ByLayer
370
13
48
1
60
0
100
AcDbLine
10
7.637535
20
-17.818939
30
0
11
27.052804
21
-17.818939
31
0
39
0
210
0
220
0
230
1
0
LINE
5
13B
100
AcDbEntity
8
2
62
256
6
ByLayer
370
13
48
1
60
0
100
AcDbLine
10
25.052804
20
16.881061
30
0
11
25.052804
21
-17.818939
31
0
39
0
210
0
220
0
230
1
0
SOLID
5
13C
100
AcDbEntity
8
2
62
256
6
ByLayer
370
13
48
1
60
0
100
AcDbTrace
10
25.052804
20
16.881061
30
0
11
25.513587
21
13.381063
31
0
12
24.59202
22
13.381059
32
0
13
25.052804
23
16.881061
33
0
39
0
210
0
220
0
230
1
0
SOLID
5
13D
100
AcDbEntity
8
2
62
256
6
ByLayer
370
13
48
1
60
0
100
AcDbTrace
10
25.052804
20
-17.818939
30
0
11
24.59202
21
-14.318941
31
0
12
25.513587
22
-14.318937
32
0
13
25.052804
23
-17.818939
33
0
39
0
210
0
220
0
230
1
0
ENDBLK
5
13F
100
AcDbEntity
8
0
100
AcDbBlockEnd
0
BLOCK
5
148
100
AcDbEntity
8
0
100
AcDbBlockBegin
2
DimnDraft3D2
70
0
10
0
20
0
30
0
3
DimnDraft3D2
0
MTEXT
5
142
100
AcDbEntity
8
2
62
256
6
ByLayer
370
18
48
1
60
0
100
AcDbMText
10
12.624274
20
24.500817
30
0
210
0
220
0
230
1
1
\W0.5211;3
40
3.5
41
0
44
1.084337
50
0
71
7
72
5
7
iso_b_vert
0
LINE
5
143
100
AcDbEntity
8
2
62
256
6
ByLayer
370
13
48
1
60
0
100
AcDbLine
10
3.253974
20
18.267741
30
0
11
3.253974
21
25.625817
31
0
39
0
210
0
220
0
230
1
0
LINE
5
144
100
AcDbEntity
8
2
62
256
6
ByLayer
370
13
48
1
60
0
100
AcDbLine
10
6.245762
20
18.259806
30
0
11
6.245762
21
25.625817
31
0
39
0
210
0
220
0
230
1
0
LINE
5
145
100
AcDbEntity
8
2
62
256
6
ByLayer
370
13
48
1
60
0
100
AcDbLine
10
13.269011
20
23.625817
30
0
11
-5.496026
21
23.625817
31
0
39
0
210
0
220
0
230
1
0
SOLID
5
146
100
AcDbEntity
8
2
62
256
6
ByLayer
370
13
48
1
60
0
100
AcDbTrace
10
3.253974
20
23.625817
30
0
11
-0.246024
21
23.165033
31
0
12
-0.246028
22
24.086601
32
0
13
3.253974
23
23.625817
33
0
39
0
210
0
220
0
230
1
0
SOLID
5
147
100
AcDbEntity
8
2
62
256
6
ByLayer
370
13
48
1
60
0
100
AcDbTrace
10
6.245762
20
23.625817
30
0
11
9.74576
21
24.086601
31
0
12
9.745764
22
23.165033
32
0
13
6.245762
23
23.625817
33
0
39
0
210
0
220
0
230
1
0
ENDBLK
5
149
100
AcDbEntity
8
0
100
AcDbBlockEnd
0
BLOCK
5
152
100
AcDbEntity
8
0
100
AcDbBlockBegin
2
DimnDraft3D3
70
0
10
0
20
0
30
0
3
DimnDraft3D3
0
MTEXT
5
14C
100
AcDbEntity
8
2
62
256
6
ByLayer
370
18
48
1
60
0
100
AcDbMText
10
13.381866
20
35.937816
30
0
210
0
220
0
230
1
1
\W0.5211;6
40
3.5
41
0
44
1.084337
50
0
71
7
72
5
7
iso_b_vert
0
LINE
5
14D
100
AcDbEntity
8
2
62
256
6
ByLayer
370
13
48
1
60
0
100
AcDbLine
10
3.5E-05
20
8.086703
30
0
11
3.5E-05
21
37.062816
31
0
39
0
210
0
220
0
230
1
0
LINE
5
14E
100
AcDbEntity
8
2
62
256
6
ByLayer
370
13
48
1
60
0
100
AcDbLine
10
6.245762
20
18.259806
30
0
11
6.245762
21
37.062816
31
0
39
0
210
0
220
0
230
1
0
LINE
5
14F
100
AcDbEntity
8
2
62
256
6
ByLayer
370
13
48
1
60
0
100
AcDbLine
10
14.026603
20
35.062816
30
0
11
-8.749965
21
35.062816
31
0
39
0
210
0
220
0
230
1
0
SOLID
5
150
100
AcDbEntity
8
2
62
256
6
ByLayer
370
13
48
1
60
0
100
AcDbTrace
10
3.5E-05
20
35.062816
30
0
11
-3.499963
21
34.602032
31
0
12
-3.499967
22
35.523599
32
0
13
3.5E-05
23
35.062816
33
0
39
0
210
0
220
0
230
1
0
SOLID
5
151
100
AcDbEntity
8
2
62
256
6
ByLayer
370
13
48
1
60
0
100
AcDbTrace
10
6.245762
20
35.062816
30
0
11
9.74576
21
35.523599
31
0
12
9.745764
22
34.602032
32
0
13
6.245762
23
35.062816
33
0
39
0
210
0
220
0
230
1
0
ENDBLK
5
153
100
AcDbEntity
8
0
100
AcDbBlockEnd
0
BLOCK
5
156
100
AcDbEntity
8
0
100
AcDbBlockBegin
2
DimnDraft3D44
70
0
10
0
20
0
30
0
3
DimnDraft3D44
0
LINE
5
158
100
AcDbEntity
8
2
62
256
6
ByLayer
370
25
48
1
60
0
100
AcDbLine
10
1.862535
20
16.881061
30
0
11
-10.839551
21
16.881061
31
0
39
0
210
0
220
0
230
1
0
LINE
5
159
100
AcDbEntity
8
2
62
256
6
ByLayer
370
25
48
1
60
0
100
AcDbLine
10
-1.487465
20
6.531061
30
0
11
-10.839551
21
6.531061
31
0
39
0
210
0
220
0
230
1
0
LINE
5
15A
100
AcDbEntity
8
2
62
256
6
ByLayer
370
25
48
1
60
0
100
AcDbLine
10
-8.839551
20
6.531061
30
0
11
-8.839551
21
24.60269
31
0
39
0
210
0
220
0
230
1
0
SOLID
5
15B
100
AcDbEntity
8
2
62
256
6
ByLayer
370
25
48
1
60
0
100
AcDbTrace
10
-8.839551
20
16.881061
30
0
11
-8.378767
21
13.381063
31
0
12
-9.300335
22
13.381059
32
0
13
-8.839551
23
16.881061
33
0
39
0
210
0
220
0
230
1
0
SOLID
5
15C
100
AcDbEntity
8
2
62
256
6
ByLayer
370
25
48
1
60
0
100
AcDbTrace
10
-8.839551
20
6.531061
30
0
11
-9.300335
21
10.031059
31
0
12
-8.378767
22
10.031063
32
0
13
-8.839551
23
6.531061
33
0
39
0
210
0
220
0
230
1
0
MTEXT
5
15D
100
AcDbEntity
8
2
62
256
6
ByLayer
370
18
48
1
60
0
100
AcDbMText
10
-9.714551
20
22.263216
30
0
210
0
220
0
230
1
1
\W0.5144;10
40
3.5
41
0
44
1.084337
50
90
71
7
72
5
7
iso_b_vert
0
ENDBLK
5
157
100
AcDbEntity
8
0
100
AcDbBlockEnd
0
BLOCK
5
167
100
AcDbEntity
8
0
100
AcDbBlockBegin
2
DimnDraft3D5
70
0
10
0
20
0
30
0
3
DimnDraft3D5
0
MTEXT
5
160
100
AcDbEntity
8
SK2
62
256
6
ByLayer
370
18
48
1
60
0
100
AcDbMText
10
-14.333155
20
-4.757237
30
0
210
0
220
0
230
1
1
\W1.2012;%%c12
40
3.5
41
0
44
1.084337
50
90
71
7
72
5
7
iso_b_vert
0
LINE
5
162
100
AcDbEntity
8
SK2
62
256
6
ByLayer
370
13
48
1
60
0
100
AcDbLine
10
-1.587465
20
6
30
0
11
-14.583155
21
6
31
0
39
0
210
0
220
0
230
1
0
LINE
5
163
100
AcDbEntity
8
SK2
62
256
6
ByLayer
370
13
48
1
60
0
100
AcDbLine
10
-1.587465
20
-6
30
0
11
-14.583155
21
-6
31
0
39
0
210
0
220
0
230
1
0
LINE
5
164
100
AcDbEntity
8
SK2
62
256
6
ByLayer
370
13
48
1
60
0
100
AcDbLine
10
-12.583155
20
6
30
0
11
-12.583155
21
-6
31
0
39
0
210
0
220
0
230
1
0
SOLID
5
165
100
AcDbEntity
8
SK2
62
256
6
ByLayer
370
13
48
1
60
0
100
AcDbTrace
10
-12.583155
20
6
30
0
11
-12.122371
21
2.500002
31
0
12
-13.043939
22
2.499998
32
0
13
-12.583155
23
6
33
0
39
0
210
0
220
0
230
1
0
SOLID
5
166
100
AcDbEntity
8
SK2
62
256
6
ByLayer
370
13
48
1
60
0
100
AcDbTrace
10
-12.583155
20
-6
30
0
11
-13.043939
21
-2.500002
31
0
12
-12.122371
22
-2.499998
32
0
13
-12.583155
23
-6
33
0
39
0
210
0
220
0
230
1
0
ENDBLK
5
168
100
AcDbEntity
8
0
100
AcDbBlockEnd
0
ENDSEC
0
SECTION
2
ENTITIES
0
ELLIPSE
5
BA
100
AcDbEntity
8
1
62
256
6
ByLayer
370
18
48
1
60
0
100
AcDbEllipse
10
3.230028
20
-0.689088
30
0
11
1.16632743419062
21
17.1121945193329
31
0
210
0
220
0
230
1
40
0.03923
41
0.974930065687966
42
1.03073861880843
0
ELLIPSE
5
BB
100
AcDbEntity
8
1
62
256
6
ByLayer
370
13
48
1
60
0
100
AcDbEllipse
10
3.230028
20
-0.689088
30
0
11
1.16632743419062
21
17.1121945193329
31
0
210
0
220
0
230
1
40
0.03923
41
-2.07526444528564
42
-2.01945589216518
0
ELLIPSE
5
BC
100
AcDbEntity
8
1
62
256
6
ByLayer
370
13
48
1
60
0
100
AcDbEllipse
10
3.230028
20
-0.468939
30
0
11
2.00926453688723E-14
21
17.1518955497995
31
0
210
0
220
0
230
1
40
0.078459
41
-3.12379785884194
42
-3.06798930572148
0
ELLIPSE
5
BD
100
AcDbEntity
8
1
62
256
6
ByLayer
370
18
48
1
60
0
100
AcDbEllipse
10
3.230028
20
-0.24879
30
0
11
-1.16632743419059
21
17.1121945193329
31
0
210
0
220
0
230
1
40
0.03923
41
2.11085403478136
42
2.16666258790182
0
ELLIPSE
5
BE
100
AcDbEntity
8
1
62
256
6
ByLayer
370
13
48
1
60
0
100
AcDbEllipse
10
3.230218
20
-0.248777
30
0
11
-1.16573429196687
21
17.1034920188066
31
0
210
0
220
0
230
1
40
0.03923
41
2.11098181689508
42
2.16847653794553
0
ELLIPSE
5
BF
100
AcDbEntity
8
1
62
256
6
ByLayer
370
18
48
1
60
0
100
AcDbEllipse
10
5.975622
20
-0.468939
30
0
11
1.27102706271064E-14
21
10.8500015903107
31
0
210
0
220
0
230
1
40
0.078459
41
2.66023725909552
42
3.14159227320377
0
ELLIPSE
5
C0
100
AcDbEntity
8
1
62
256
6
ByLayer
370
13
48
1
60
0
100
AcDbEllipse
10
6.248615
20
-0.468939
30
0
11
2.0080213603211E-14
21
17.1412832913235
31
0
210
0
220
0
230
1
40
0.078459
41
3.08514066068218
42
3.13947146712281
0
ELLIPSE
5
C1
100
AcDbEntity
8
1
62
256
6
ByLayer
370
13
48
1
60
0
100
AcDbEllipse
10
3.230218
20
-0.468939
30
0
11
2.00824271436938E-14
21
17.1431728590961
31
0
210
0
220
0
230
1
40
0.078459
41
-3.12367007672823
42
-3.06617535567778
0
ELLIPSE
5
C2
100
AcDbEntity
8
1
62
256
6
ByLayer
370
18
48
1
60
0
100
AcDbEllipse
10
3.505379
20
-0.468939
30
0
11
1.2655848613803E-14
21
10.8035447564467
31
0
210
0
220
0
230
1
40
0.078459
41
-3.13577832419569
42
-2.62940065900815
0
ELLIPSE
5
C3
100
AcDbEntity
8
1
62
256
6
ByLayer
370
13
48
1
60
0
100
AcDbEllipse
10
3.230218
20
-0.689101
30
0
11
1.1657342919669
21
17.1034920188066
31
0
210
0
220
0
230
1
40
0.03923
41
-2.07513666317193
42
-2.01862564823355
0
ELLIPSE
5
C4
100
AcDbEntity
8
1
62
256
6
ByLayer
370
13
48
1
60
0
100
AcDbEllipse
10
6.248615
20
-0.455404
30
0
11
-1.16560580151953
21
17.1016068247656
31
0
210
0
220
0
230
1
40
0.03923
41
2.03660724712588
42
2.09093805356651
0
POINT
5
6C
100
AcDbEntity
8
80
62
256
6
ByLayer
370
18
48
1
60
0
100
AcDbPoint
10
0
20
0
30
0
39
0
210
0
220
0
230
1
50
360
0
POINT
5
6E
100
AcDbEntity
8
1
62
256
6
ByLayer
370
18
48
1
60
1
100
AcDbPoint
10
3.5E-05
20
6
30
0
39
0
210
0
220
0
230
1
50
360
0
POINT
5
70
100
AcDbEntity
8
1
62
256
6
ByLayer
370
18
48
1
60
1
100
AcDbPoint
10
3.5E-05
20
-6
30
0
39
0
210
0
220
0
230
1
50
360
0
POINT
5
71
100
AcDbEntity
8
81
62
256
6
ByLayer
370
18
48
1
60
0
100
AcDbPoint
10
6.050035
20
16.881061
30
0
39
0
210
0
220
0
230
1
50
360
0
SPLINE
5
C5
100
AcDbEntity
8
1
62
256
6
ByLayer
370
18
48
1
60
0
100
AcDbSpline
70
4
71
1
72
4
73
2
40
0
40
0
40
1
40
1
41
1
10
5.97562523222518
20
-11.3189404492318
30
0
41
1
10
6.05003450784395
20
-11.3189472797056
30
0
0
SPLINE
5
C6
100
AcDbEntity
8
1
62
256
6
ByLayer
370
18
48
1
60
0
100
AcDbSpline
70
4
71
1
72
4
73
2
40
0
40
0
40
1
40
1
41
1
10
3.33110835922417
20
-8.12643656091933
30
0
41
1
10
3.3294139261977
20
-8.14579943868713
30
0
0
SPLINE
5
C7
100
AcDbEntity
8
1
62
256
6
ByLayer
370
18
48
1
60
0
100
AcDbSpline
70
4
71
1
72
4
73
2
40
0
40
0
40
1
40
1
41
1
10
6.0782682061452
20
-17.8160684671543
30
0
41
1
10
6.08726988555904
20
-17.815528344473
30
0
0
SPLINE
5
C8
100
AcDbEntity
8
1
62
256
6
ByLayer
370
18
48
1
60
0
100
AcDbSpline
70
4
71
1
72
4
73
2
40
0
40
0
40
1
40
1
41
1
10
6.05003450784398
20
10.3810695617467
30
0
41
1
10
5.99170150808976
20
10.3810642070107
30
0
0
SPLINE
5
C9
100
AcDbEntity
8
1
62
256
6
ByLayer
370
18
48
1
60
0
100
AcDbSpline
70
4
71
1
72
4
73
2
40
0
40
0
40
1
40
1
41
1
10
6.0872698855591
20
16.8776506265141
30
0
41
1
10
6.07826820614525
20
16.8781907491955
30
0
0
SPLINE
5
CA
100
AcDbEntity
8
1
62
256
6
ByLayer
370
18
48
1
60
0
100
AcDbSpline
70
4
71
3
72
12
73
8
40
0
40
0
40
0
40
0
40
0.115418693854376
40
0.328015689001966
40
0.578144478703019
40
0.865791670198336
40
1
40
1
40
1
40
1
41
1
10
6.24345649750725
20
8.16008341308972
30
0
41
1
10
6.24105145178351
20
8.18658093579958
30
0
41
1
10
6.23421482075901
20
8.26175437039814
30
0
41
1
10
6.22215318564878
20
8.39354765777045
30
0
41
1
10
6.20649468498755
20
8.56352202774772
30
0
41
1
10
6.19246931340535
20
8.71480920970779
30
0
41
1
10
6.18366809143561
20
8.80879349898015
30
0
41
1
10
6.18086824809137
20
8.83861509527057
30
0
0
SPLINE
5
CB
100
AcDbEntity
8
SK1
62
256
6
ByLayer
370
13
48
1
60
0
100
AcDbSpline
70
4
71
3
72
8
73
4
40
0
40
0
40
0
40
0
40
1
40
1
40
1
40
1
41
0.999853147932469
10
3.49360614126E-05
20
-6.16998337704202
30
0
41
0.999491687023561
10
-0.279758515532264
20
-6.07493754077596
30
0
41
0.999540637712738
10
-0.561021156271147
20
-5.97527196977554
30
0
41
1
10
-0.843406470052059
20
-5.87111005417725
30
0
0
SPLINE
5
CC
100
AcDbEntity
8
SK1
62
256
6
ByLayer
370
13
48
1
60
0
100
AcDbSpline
70
4
71
3
72
8
73
4
40
0
40
0
40
0
40
0
40
1
40
1
40
1
40
1
41
0.998687417648178
10
3.49360614015E-05
20
0.062834796646268
30
0
41
0.995623602379676
10
-0.269495847387316
20
-0.1080305345451
30
0
41
0.996061129830284
10
-0.551636370532192
20
-0.28169086381518
30
0
41
1
10
-0.843406470052059
20
-0.456318389510386
30
0
0
SPLINE
5
CD
100
AcDbEntity
8
SK1
62
256
6
ByLayer
370
13
48
1
60
0
100
AcDbSpline
70
4
71
3
72
8
73
4
40
0
40
0
40
0
40
0
40
1
40
1
40
1
40
1
41
1
10
-0.843406470052059
20
-2.92156736715236
30
0
41
0.999540637712738
10
-0.561021156271147
20
-3.07497659597135
30
0
41
0.999491687023561
10
-0.279758515532264
20
-3.22628171909319
30
0
41
0.999853147932469
10
3.49360614126E-05
20
-3.37529610798659
30
0
0
SPLINE
5
CE
100
AcDbEntity
8
SK1
62
256
6
ByLayer
370
13
48
1
60
0
100
AcDbSpline
70
4
71
3
72
8
73
4
40
0
40
0
40
0
40
0
40
1
40
1
40
1
40
1
41
0.999853147932469
10
3.49360614126E-05
20
-1.13602495681534
30
0
41
0.999491687023561
10
-0.279758515532264
20
-1.29907961317151
30
0
41
0.999540637712738
10
-0.561021156271147
20
-1.46148220286355
30
0
41
1
10
-0.843406470052031
20
-1.6230328659297
30
0
0
SPLINE
5
CF
100
AcDbEntity
8
SK1
62
256
6
ByLayer
370
13
48
1
60
0
100
AcDbSpline
70
4
71
3
72
8
73
4
40
0
40
0
40
0
40
0
40
1
40
1
40
1
40
1
41
0.998687417648178
10
3.4936061373E-05
20
1.4249862458506
30
0
41
0.995623602379676
10
-0.269495847387287
20
1.54197085368283
30
0
41
0.996061129830283
10
-0.551636370532192
20
1.64502638988128
30
0
41
1
10
-0.843406470052059
20
1.73308863924555
30
0
0
SPLINE
5
D0
100
AcDbEntity
8
SK1
62
256
6
ByLayer
370
13
48
1
60
0
100
AcDbSpline
70
4
71
3
72
8
73
4
40
0
40
0
40
0
40
0
40
1
40
1
40
1
40
1
41
1
10
-0.843406470052059
20
2.08102991019214
30
0
41
0.996061129830283
10
-0.551636370532192
20
2.08016563240839
30
0
41
0.995623602379676
10
-0.269495847387287
20
2.06143018712873
30
0
41
0.998687417648178
10
3.4936061373E-05
20
2.02499714244127
30
0
0
SPLINE
5
D1
100
AcDbEntity
8
SK1
62
256
6
ByLayer
370
13
48
1
60
0
100
AcDbSpline
70
4
71
3
72
8
73
4
40
0
40
0
40
0
40
0
40
1
40
1
40
1
40
1
41
1
10
-0.843406470052059
20
6.43526761411513
30
0
41
0.999540637712738
10
-0.561021156271147
20
6.46227211532613
30
0
41
0.999491687023561
10
-0.279758515532264
20
6.48359282494237
30
0
41
0.999853147932469
10
3.49360613842E-05
20
6.49920265350966
30
0
0
SPLINE
5
D2
100
AcDbEntity
8
1
62
256
6
ByLayer
370
18
48
1
60
0
100
AcDbSpline
70
4
71
3
72
20
73
16
40
0
40
0
40
0
40
0
40
0.124999999999999
40
0.124999999999999
40
0.249999999999998
40
0.249999999999998
40
0.374999999999998
40
0.374999999999998
40
0.499999999999997
40
0.499999999999997
40
0.624999999999996
40
0.624999999999996
40
0.749999999999995
40
0.749999999999995
40
1
40
1
40
1
40
1
41
1
10
3.25397407594184
20
8.14899703054047
30
0
41
1
10
3.25373800148523
20
8.15290081522022
30
0
41
1
10
3.25474749439053
20
8.15670645820578
30
0
41
1
10
3.2591779842856
20
8.16413201645287
30
0
41
1
10
3.26264679152902
20
8.16778524838475
30
0
41
1
10
3.2719596703208
20
8.17473885765716
30
0
41
1
10
3.27773572733756
20
8.17801123626435
30
0
41
1
10
3.29152921751191
20
8.1841675006728
30
0
41
1
10
3.29965751275813
20
8.18707727785133
30
0
41
1
10
3.31762775132305
20
8.19228196426025
30
0
41
1
10
3.3274872994709
20
8.19460041160565
30
0
41
1
10
3.34900466502734
20
8.19868004467037
30
0
41
1
10
3.36067509279292
20
8.20042972080657
30
0
41
1
10
3.39681081477656
20
8.20460133748134
30
0
41
1
10
3.42331284037815
20
8.20606114101258
30
0
41
1
10
3.45003493604162
20
8.20606114101352
30
0
0
SPLINE
5
D3
100
AcDbEntity
8
1
62
256
6
ByLayer
370
18
48
1
60
0
100
AcDbSpline
70
4
71
3
72
20
73
16
40
0
40
0
40
0
40
0
40
0.125000000000001
40
0.125000000000001
40
0.250000000000001
40
0.250000000000001
40
0.375000000000001
40
0.375000000000001
40
0.500000000000002
40
0.500000000000002
40
0.625000000000002
40
0.625000000000002
40
0.750000000000003
40
0.750000000000003
40
1
40
1
40
1
40
1
41
1
10
3.25397407594184
20
-9.00018297666458
30
0
41
1
10
3.25373800148523
20
-9.00928223892305
30
0
41
1
10
3.25474749439053
20
-9.01828670544953
30
0
41
1
10
3.2591779842856
20
-9.03610885218723
30
0
41
1
10
3.26264679152899
20
-9.04500935533139
30
0
41
1
10
3.2719596703208
20
-9.06218701169317
30
0
41
1
10
3.27773572733756
20
-9.07039193076585
30
0
41
1
10
3.29152921751191
20
-9.08601767809833
30
0
41
1
10
3.29965751275813
20
-9.0935072718955
30
0
41
1
10
3.31762775132302
20
-9.10704551331997
30
0
41
1
10
3.3274872994709
20
-9.11315214818976
30
0
41
1
10
3.34900466502734
20
-9.12398334084335
30
0
41
1
10
3.36067509279292
20
-9.12867805025678
30
0
41
1
10
3.39681081477653
20
-9.13992762867593
30
0
41
1
10
3.42331284037815
20
-9.14393885898417
30
0
41
1
10
3.45003493604162
20
-9.14393885898667
30
0
0
SPLINE
5
D4
100
AcDbEntity
8
1
62
256
6
ByLayer
370
18
48
1
60
0
100
AcDbSpline
70
4
71
3
72
20
73
16
40
0
40
0
40
0
40
0
40
0.125
40
0.125
40
0.249999999999999
40
0.249999999999999
40
0.374999999999999
40
0.374999999999999
40
0.499999999999998
40
0.499999999999998
40
0.624999999999998
40
0.624999999999998
40
0.749999999999997
40
0.749999999999997
40
1
40
1
40
1
40
1
41
1
10
3.25397407594181
20
-17.6181188661844
30
0
41
1
10
3.2537380014852
20
-17.6311219131227
30
0
41
1
10
3.2547474943905
20
-17.6439320226347
30
0
41
1
10
3.25917798428557
20
-17.6691797276195
30
0
41
1
10
3.26264679152899
20
-17.6817334626955
30
0
41
1
10
3.27195967032077
20
-17.7058647283297
30
0
41
1
10
3.27773572733753
20
-17.7173420260096
30
0
41
1
10
3.29152921751188
20
-17.7391240377505
30
0
41
1
10
3.2996575127581
20
-17.7495234087263
30
0
41
1
10
3.31762775132299
20
-17.7682663365596
30
0
41
1
10
3.32748729947087
20
-17.7766914187748
30
0
41
1
10
3.34900466502731
20
-17.7916022444931
30
0
41
1
10
3.36067509279289
20
-17.7980466300428
30
0
41
1
10
3.3968108147765
20
-17.8134678251367
30
0
41
1
10
3.42331284037812
20
-17.8189388589762
30
0
41
1
10
3.45003493604159
20
-17.8189388589796
30
0
0
SPLINE
5
D5
100
AcDbEntity
8
1
62
256
6
ByLayer
370
18
48
1
60
0
100
AcDbSpline
70
4
71
3
72
10
73
6
40
0
40
0
40
0
40
0
40
0.686568522654372
40
0.686568522654372
40
1
40
1
40
1
40
1
41
1
10
3.25397407594184
20
8.06230525870581
30
0
41
1
10
3.25373800148523
20
8.07140452096428
30
0
41
1
10
3.25474749439053
20
8.08040898749076
30
0
41
1
10
3.25797404042993
20
8.09338813389027
30
0
41
1
10
3.25924659577169
20
8.09745400398609
30
0
41
1
10
3.2607741325815
20
8.10148902318349
30
0
0
SPLINE
5
D6
100
AcDbEntity
8
1
62
256
6
ByLayer
370
18
48
1
60
0
100
AcDbSpline
70
4
71
3
72
20
73
16
40
0
40
0
40
0
40
0
40
0.125
40
0.125
40
0.249999999999999
40
0.249999999999999
40
0.374999999999999
40
0.374999999999999
40
0.499999999999998
40
0.499999999999998
40
0.624999999999998
40
0.624999999999998
40
0.749999999999997
40
0.749999999999997
40
1
40
1
40
1
40
1
41
1
10
3.25397407594187
20
16.6802411482256
30
0
41
1
10
3.25373800148526
20
16.6932441951638
30
0
41
1
10
3.25474749439056
20
16.7060543046758
30
0
41
1
10
3.25917798428563
20
16.7313020096606
30
0
41
1
10
3.26264679152905
20
16.7438557447366
30
0
41
1
10
3.27195967032082
20
16.7679870103709
30
0
41
1
10
3.27773572733759
20
16.7794643080507
30
0
41
1
10
3.29152921751194
20
16.8012463197917
30
0
41
1
10
3.29965751275816
20
16.8116456907674
30
0
41
1
10
3.31762775132305
20
16.8303886186007
30
0
41
1
10
3.32748729947093
20
16.8388137008159
30
0
41
1
10
3.34900466502737
20
16.8537245265343
30
0
41
1
10
3.36067509279295
20
16.8601689120839
30
0
41
1
10
3.39681081477656
20
16.8755901071778
30
0
41
1
10
3.42331284037817
20
16.8810611410173
30
0
41
1
10
3.45003493604165
20
16.8810611410207
30
0
0
SPLINE
5
D7
100
AcDbEntity
8
1
62
256
6
ByLayer
370
18
48
1
60
0
100
AcDbSpline
70
4
71
3
72
8
73
4
40
0
40
0
40
0
40
0
40
1
40
1
40
1
40
1
41
1
10
6.05003493606142
20
5.60996471511075
30
0
41
1
10
6.05003493606142
20
5.33987080573283
30
0
41
1
10
6.05003493606142
20
5.0612149811879
30
0
41
1
10
6.05003493606142
20
4.7738597151008
30
0
0
SPLINE
5
D8
100
AcDbEntity
8
1
62
256
6
ByLayer
370
18
48
1
60
0
100
AcDbSpline
70
4
71
3
72
18
73
14
40
0
40
0
40
0
40
0
40
0.125
40
0.125
40
0.25
40
0.25
40
0.5
40
0.5
40
0.625
40
0.625
40
0.75
40
0.75
40
1
40
1
40
1
40
1
41
1
10
6.05003493606142
20
-0.955259583828848
30
0
41
1
10
6.05003493606142
20
-1.18097127059926
30
0
41
1
10
6.05003493606142
20
-1.4060466621813
30
0
41
1
10
6.05003493606142
20
-1.8549283269133
30
0
41
1
10
6.05003493606142
20
-2.07882715032466
30
0
41
1
10
6.05003493606142
20
-2.74514533777932
30
0
41
1
10
6.05003493606142
20
-3.18335285187695
30
0
41
1
10
6.05003493606142
20
-3.83160747196317
30
0
41
1
10
6.05003493606142
20
-4.04518814470788
30
0
41
1
10
6.05003493606142
20
-4.46629521851111
30
0
41
1
10
6.05003493606142
20
-4.67400518635361
30
0
41
1
10
6.05003493606142
20
-5.28865790500461
30
0
41
1
10
6.05003493606142
20
-5.68715674806401
30
0
41
1
10
6.05003493606142
20
-6.07413520440997
30
0
0
SPLINE
5
D9
100
AcDbEntity
8
1
62
256
6
ByLayer
370
18
48
1
60
0
100
AcDbSpline
70
4
71
3
72
18
73
14
40
0
40
0
40
0
40
0
40
0.129754975801819
40
0.129754975801819
40
0.259509951603638
40
0.259509951603638
40
0.519019903207276
40
0.519019903207276
40
0.648774879009095
40
0.648774879009095
40
0.778529854810914
40
0.778529854810914
40
1
40
1
40
1
40
1
41
1
10
6.05003493606142
20
-10.1052201972914
30
0
41
1
10
6.05003493606142
20
-10.2088147396659
30
0
41
1
10
6.05003493606142
20
-10.3060289744448
30
0
41
1
10
6.05003493606142
20
-10.4877316429591
30
0
41
1
10
6.05003493606139
20
-10.5722346497273
30
0
41
1
10
6.05003493606142
20
-10.8053816025627
30
0
41
1
10
6.05003493606142
20
-10.934234895352
30
0
41
1
10
6.05003493606142
20
-11.087427681608
30
0
41
1
10
6.05003493606142
20
-11.1315463371096
30
0
41
1
10
6.05003493606142
20
-11.205868404921
30
0
41
1
10
6.05003493606142
20
-11.2361153591892
30
0
41
1
10
6.05003493606145
20
-11.299390987887
30
0
41
1
10
6.05003493606139
20
-11.3193330142535
30
0
41
1
10
6.05003493606139
20
-11.3189387299043
30
0
0
SPLINE
5
DA
100
AcDbEntity
8
1
62
256
6
ByLayer
370
18
48
1
60
0
100
AcDbSpline
70
4
71
3
72
8
73
4
40
0
40
0
40
0
40
0
40
1
40
1
40
1
40
1
41
1
10
3.38086648617679
20
6.44100307777492
30
0
41
1
10
3.42844813770523
20
5.92493090586191
30
0
41
1
10
3.47169246874398
20
5.35960038464762
30
0
41
1
10
3.51030783682765
20
4.7480577756466
30
0
0
SPLINE
5
DB
100
AcDbEntity
8
1
62
256
6
ByLayer
370
18
48
1
60
0
100
AcDbSpline
70
4
71
3
72
8
73
4
40
0
40
0
40
0
40
0
40
1
40
1
40
1
40
1
41
1
10
3.51030783682765
20
4.7480577756466
30
0
41
1
10
3.49021686990341
20
4.74803972142686
30
0
41
1
10
3.47012590298132
20
4.74802166636542
30
0
41
1
10
3.4500349360614
20
4.74800361046209
30
0
0
SPLINE
5
DC
100
AcDbEntity
8
1
62
256
6
ByLayer
370
18
48
1
60
0
100
AcDbSpline
70
4
71
3
72
8
73
4
40
0
40
0
40
0
40
0
40
1
40
1
40
1
40
1
41
1
10
6.05003493606438
20
4.7738597151008
30
0
41
1
10
6.03056585783759
20
4.7738768096759
30
0
41
1
10
6.01109677960886
20
4.77389390349256
30
0
41
1
10
5.99162770137826
20
4.773910996551
30
0
0
SPLINE
5
DD
100
AcDbEntity
8
1
62
256
6
ByLayer
370
18
48
1
60
0
100
AcDbSpline
70
4
71
3
72
8
73
4
40
0
40
0
40
0
40
0
40
1
40
1
40
1
40
1
41
1
10
5.99162770137826
20
4.773910996551
30
0
41
1
10
6.02970619357748
20
5.37557998130484
30
0
41
1
10
6.07236438834551
20
5.93220907812145
30
0
41
1
10
6.11928271471356
20
6.44100307777501
30
0
0
SPLINE
5
DE
100
AcDbEntity
8
1
62
256
6
ByLayer
370
18
48
1
60
0
100
AcDbSpline
70
4
71
3
72
8
73
4
40
0
40
0
40
0
40
0
40
1
40
1
40
1
40
1
41
1
10
3.5059769240936
20
-6.05530153390441
30
0
41
1
10
3.48732959474768
20
-6.05528933690715
30
0
41
1
10
3.4686822654036
20
-6.05527713944554
30
0
41
1
10
3.4500349360614
20
-6.0552649415196
30
0
0
SPLINE
5
DF
100
AcDbEntity
8
1
62
256
6
ByLayer
370
18
48
1
60
0
100
AcDbSpline
70
4
71
3
72
8
73
4
40
0
40
0
40
0
40
0
40
1
40
1
40
1
40
1
41
1
10
6.05003493606438
20
-6.07413520440997
30
0
41
1
10
6.03119793995421
20
-6.07414730767832
30
0
41
1
10
6.01236094384223
20
-6.07415941048941
30
0
41
1
10
5.99352394772848
20
-6.07417151284335
30
0
0
SPLINE
5
E0
100
AcDbEntity
8
1
62
256
6
ByLayer
370
18
48
1
60
0
100
AcDbSpline
70
4
71
3
72
8
73
4
40
0
40
0
40
0
40
0
40
1
40
1
40
1
40
1
41
1
10
3.38086648617573
20
-14.4508673608883
30
0
41
1
10
3.4284481377052
20
-13.3904386075568
30
0
41
1
10
3.47169246874398
20
-12.3289692010995
30
0
41
1
10
3.51030783682768
20
-11.2723010013208
30
0
0
SPLINE
5
E1
100
AcDbEntity
8
1
62
256
6
ByLayer
370
18
48
1
60
0
100
AcDbSpline
70
4
71
3
72
8
73
4
40
0
40
0
40
0
40
0
40
1
40
1
40
1
40
1
41
1
10
3.51030783682768
20
-11.2723010013208
30
0
41
1
10
3.49021686990341
20
-11.272269805915
30
0
41
1
10
3.47012590298132
20
-11.2722386091286
30
0
41
1
10
3.4500349360614
20
-11.2722074109611
30
0
0
SPLINE
5
E2
100
AcDbEntity
8
1
62
256
6
ByLayer
370
18
48
1
60
0
100
AcDbSpline
70
4
71
3
72
8
73
4
40
0
40
0
40
0
40
0
40
1
40
1
40
1
40
1
41
1
10
5.99162770137823
20
-11.3170225866686
30
0
41
1
10
6.02970619357745
20
-12.3589831082285
30
0
41
1
10
6.07236438834548
20
-13.405393847455
30
0
41
1
10
6.11928271471353
20
-14.4508673608885
30
0
0
SPLINE
5
E3
100
AcDbEntity
8
1
62
256
6
ByLayer
370
18
48
1
60
0
100
AcDbSpline
70
4
71
3
72
8
73
4
40
0
40
0
40
0
40
0
40
1
40
1
40
1
40
1
41
1
10
3.38086648617576
20
-7.37888079573392
30
0
41
1
10
3.40511231984331
20
-7.11590967896015
30
0
41
1
10
3.42823195037366
20
-6.84014842882297
30
0
41
1
10
3.45018679053823
20
-6.55200009633074
30
0
0
SPLINE
5
E4
100
AcDbEntity
8
1
62
256
6
ByLayer
370
18
48
1
60
0
100
AcDbSpline
70
4
71
3
72
8
73
4
40
0
40
0
40
0
40
0
40
1
40
1
40
1
40
1
41
1
10
6.04982742922144
20
-6.54986207402038
30
0
41
1
10
6.07180583825257
20
-6.83878470978763
30
0
41
1
10
6.09497241807347
20
-7.11525389303407
30
0
41
1
10
6.11928271471356
20
-7.37888079573403
30
0
0
SPLINE
5
E5
100
AcDbEntity
8
1
62
256
6
ByLayer
370
18
48
1
60
0
100
AcDbSpline
70
4
71
3
72
8
73
4
40
0
40
0
40
0
40
0
40
1
40
1
40
1
40
1
41
1
10
3.38086648617579
20
13.5129896429294
30
0
41
1
10
3.4282444268126
20
12.4571008935911
30
0
41
1
10
3.47132210611963
20
11.40018038273
30
0
41
1
10
3.50981161143722
20
10.3479952588223
30
0
0
SPLINE
5
E6
100
AcDbEntity
8
1
62
256
6
ByLayer
370
18
48
1
60
0
100
AcDbSpline
70
4
71
3
72
8
73
4
40
0
40
0
40
0
40
0
40
1
40
1
40
1
40
1
41
1
10
3.5076008666621
20
10.3344190802193
30
0
41
1
10
3.48841222312655
20
10.3343892857398
30
0
41
1
10
3.46922357959298
20
10.3343594900008
30
0
41
1
10
3.4500349360614
20
10.3343296930021
30
0
0
SPLINE
5
E7
100
AcDbEntity
8
1
62
256
6
ByLayer
370
18
48
1
60
0
100
AcDbSpline
70
4
71
3
72
8
73
4
40
0
40
0
40
0
40
0
40
1
40
1
40
1
40
1
41
1
10
6.05003493606142
20
10.3790560605318
30
0
41
1
10
6.0305658578356
20
10.3790856645043
30
0
41
1
10
6.01109677960787
20
10.3791152672303
30
0
41
1
10
5.99162770137823
20
10.3791448687097
30
0
0
SPLINE
5
E8
100
AcDbEntity
8
1
62
256
6
ByLayer
370
18
48
1
60
0
100
AcDbSpline
70
4
71
3
72
8
73
4
40
0
40
0
40
0
40
0
40
1
40
1
40
1
40
1
41
1
10
5.99162770137823
20
10.3791448687097
30
0
41
1
10
6.02970619357745
20
11.4211053902696
30
0
41
1
10
6.07236438834553
20
12.4675161294961
30
0
41
1
10
6.11928271471359
20
13.5129896429296
30
0
0
SPLINE
5
E9
100
AcDbEntity
8
1
62
256
6
ByLayer
370
18
48
1
60
0
100
AcDbSpline
70
4
71
3
72
8
73
4
40
0
40
0
40
0
40
0
40
1
40
1
40
1
40
1
41
0.999853147932469
10
3.49360613842E-05
20
6.49920265350966
30
0
41
0.999896260165857
10
0.0333930105033199
20
6.50106371859323
30
0
41
0.999945210855034
10
0.066726537251337
20
6.50284337043029
30
0
41
1
10
0.100034936061405
20
6.50454158980534
30
0
0
SPLINE
5
EA
100
AcDbEntity
8
1
62
256
6
ByLayer
370
18
48
1
60
0
100
AcDbSpline
70
4
71
3
72
20
73
16
40
0
40
0
40
0
40
0
40
0.0312499999999998
40
0.0312499999999998
40
0.0624999999999997
40
0.0624999999999997
40
0.125
40
0.125
40
0.25
40
0.25
40
0.5
40
0.5
40
0.75
40
0.75
40
1
40
1
40
1
40
1
41
1
10
6.05003493606139
20
-17.8189388589794
30
0
41
1
10
6.05570426926906
20
-17.8189388589795
30
0
41
1
10
6.06109857037438
20
-17.8186829433307
30
0
41
1
10
6.0702967722043
20
-17.8178993400742
30
0
41
1
10
6.07412005468336
20
-17.8173934958843
30
0
41
1
10
6.08421806280933
20
-17.8157619292542
30
0
41
1
10
6.08912190751946
20
-17.814540506597
30
0
41
1
10
6.10187329710254
20
-17.8108124012781
30
0
41
1
10
6.10768315707202
20
-17.808183751098
30
0
41
1
10
6.12230597705533
20
-17.800335858098
30
0
41
1
10
6.12819410596362
20
-17.7950284901497
30
0
41
1
10
6.13750707592985
20
-17.784365617384
30
0
41
1
10
6.14068238105571
20
-17.7790033270291
30
0
41
1
10
6.14538538012869
20
-17.76828138525
30
0
41
1
10
6.14688778692567
20
-17.7629155725987
30
0
41
1
10
6.14783227999527
20
-17.7575465785272
30
0
0
SPLINE
5
EB
100
AcDbEntity
8
1
62
256
6
ByLayer
370
18
48
1
60
0
100
AcDbSpline
70
4
71
3
72
18
73
14
40
0
40
0
40
0
40
0
40
0.500000000000004
40
0.500000000000004
40
0.750000000000004
40
0.750000000000004
40
0.875000000000005
40
0.875000000000005
40
0.937500000000003
40
0.937500000000003
40
0.968750000000002
40
0.968750000000002
40
1
40
1
40
1
40
1
41
1
10
3.36110054104685
20
-17.757546578528
30
0
41
1
10
3.3624437141743
20
-17.7682276564863
30
0
41
1
10
3.36552720863494
20
-17.7788917407118
30
0
41
1
10
3.37778853977153
20
-17.7948133028606
30
0
41
1
10
3.38300332538105
20
-17.8001094788244
30
0
41
1
10
3.39626210570694
20
-17.8080006559322
30
0
41
1
10
3.40149541018684
20
-17.8106227770847
30
0
41
1
10
3.41317416582862
20
-17.8143935245318
30
0
41
1
10
3.41763944089271
20
-17.8156241413694
30
0
41
1
10
3.42696378949927
20
-17.8172970254906
30
0
41
1
10
3.43054700018399
20
-17.817825956818
30
0
41
1
10
3.43918394514819
20
-17.8186505181328
30
0
41
1
10
3.44443586093846
20
-17.8189388589794
30
0
41
1
10
3.45003493606134
20
-17.8189388589794
30
0
0
SPLINE
5
EC
100
AcDbEntity
8
1
62
256
6
ByLayer
370
18
48
1
60
0
100
AcDbSpline
70
4
71
3
72
12
73
8
40
0
40
0
40
0
40
0
40
0.250000000000002
40
0.250000000000002
40
0.500000000000003
40
0.500000000000003
40
1
40
1
40
1
40
1
41
1
10
6.14783228000496
20
-17.7575465785151
30
0
41
1
10
6.158753174976
20
-17.7432541397682
30
0
41
1
10
6.16581922455691
20
-17.7288385085881
30
0
41
1
10
6.17594146084042
20
-17.6998790998068
30
0
41
1
10
6.17887997765888
20
-17.685331561723
30
0
41
1
10
6.18319775390282
20
-17.6415452084509
30
0
41
1
10
6.18012855626262
20
-17.6121438513468
30
0
41
1
10
6.17273320729453
20
-17.5829162465423
30
0
0
SPLINE
5
ED
100
AcDbEntity
8
1
62
256
6
ByLayer
370
18
48
1
60
0
100
AcDbSpline
70
4
71
3
72
8
73
4
40
0
40
0
40
0
40
0
40
1
40
1
40
1
40
1
41
1
10
6.17273320729453
20
-17.5829162465421
30
0
41
1
10
6.10943590217352
20
-17.3327551483897
30
0
41
1
10
6.04801900062202
20
-17.0825374009239
30
0
41
1
10
5.98865816740303
20
-16.832263437803
30
0
0
SPLINE
5
EE
100
AcDbEntity
8
1
62
256
6
ByLayer
370
18
48
1
60
0
100
AcDbSpline
70
4
71
3
72
8
73
4
40
0
40
0
40
0
40
0
40
1
40
1
40
1
40
1
41
1
10
3.50924930050866
20
-16.832263437803
30
0
41
1
10
3.45192381571562
20
-17.0760227548267
30
0
41
1
10
3.39264396595072
20
-17.3197290918861
30
0
41
1
10
3.33156065989593
20
-17.5633816197042
30
0
0
SPLINE
5
EF
100
AcDbEntity
8
1
62
256
6
ByLayer
370
18
48
1
60
0
100
AcDbSpline
70
4
71
3
72
8
73
4
40
0
40
0
40
0
40
0
40
1
40
1
40
1
40
1
41
1
10
3.33156065989593
20
-17.5633816197042
30
0
41
1
10
3.33064027680706
20
-17.5670528955511
30
0
41
1
10
3.32978260570746
20
-17.5707242177249
30
0
41
1
10
3.32898874125417
20
-17.5743955870343
30
0
0
SPLINE
5
F0
100
AcDbEntity
8
1
62
256
6
ByLayer
370
18
48
1
60
0
100
AcDbSpline
70
4
71
3
72
12
73
8
40
0
40
0
40
0
40
0
40
0.499999999999996
40
0.499999999999996
40
0.749999999999998
40
0.749999999999998
40
1
40
1
40
1
40
1
41
1
10
3.32898874125417
20
-17.5743955870343
30
0
41
1
10
3.32235558062413
20
-17.6050718344226
30
0
41
1
10
3.31995918360275
20
-17.6357282573905
30
0
41
1
10
3.32562210959316
20
-17.6816695745918
30
0
41
1
10
3.3290720393565
20
-17.6969831290241
30
0
41
1
10
3.34070275793502
20
-17.7275591845824
30
0
41
1
10
3.34868327976136
20
-17.7427018332479
30
0
41
1
10
3.36110054104685
20
-17.757546578528
30
0
0
SPLINE
5
F1
100
AcDbEntity
8
1
62
256
6
ByLayer
370
18
48
1
60
0
100
AcDbSpline
70
4
71
3
72
20
73
16
40
0
40
0
40
0
40
0
40
0.0312499999999979
40
0.0312499999999979
40
0.0624999999999957
40
0.0624999999999957
40
0.124999999999997
40
0.124999999999997
40
0.249999999999999
40
0.249999999999999
40
0.499999999999999
40
0.499999999999999
40
0.75
40
0.75
40
1
40
1
40
1
40
1
41
1
10
6.05003493606142
20
-9.14393885897931
30
0
41
1
10
6.05570426926909
20
-9.14393885897931
30
0
41
1
10
6.06109857037441
20
-9.14200587411111
30
0
41
1
10
6.07029677220433
20
-9.13608715344947
30
0
41
1
10
6.07412005468339
20
-9.1322664055989
30
0
41
1
10
6.08421806280936
20
-9.1199428387377
30
0
41
1
10
6.08912190751946
20
-9.11071717580558
30
0
41
1
10
6.10187329710254
20
-9.08255801006013
30
0
41
1
10
6.10768315707207
20
-9.06270326085689
30
0
41
1
10
6.12230597705536
20
-9.00342646987721
30
0
41
1
10
6.12819410596364
20
-8.96333880058904
30
0
41
1
10
6.1375070759299
20
-8.88279987374892
30
0
41
1
10
6.14068238105574
20
-8.84229736378094
30
0
41
1
10
6.14538538012872
20
-8.76131227622449
30
0
41
1
10
6.14688778692567
20
-8.72078316141889
30
0
41
1
10
6.1478322799953
20
-8.68023001685569
30
0
0
SPLINE
5
F2
100
AcDbEntity
8
1
62
256
6
ByLayer
370
18
48
1
60
0
100
AcDbSpline
70
4
71
3
72
18
73
14
40
0
40
0
40
0
40
0
40
0.499999999999995
40
0.499999999999995
40
0.749999999999999
40
0.749999999999999
40
0.874999999999995
40
0.874999999999995
40
0.937499999999997
40
0.937499999999997
40
0.968749999999998
40
0.968749999999998
40
1
40
1
40
1
40
1
41
1
10
3.36110054104688
20
-8.68023001686134
30
0
41
1
10
3.36244371417433
20
-8.76090645136128
30
0
41
1
10
3.36552720863497
20
-8.84145452862288
30
0
41
1
10
3.37778853977156
20
-8.96171344545118
30
0
41
1
10
3.38300332538108
20
-9.00171657947973
30
0
41
1
10
3.39626210570697
20
-9.06132030445454
30
0
41
1
10
3.40149541018687
20
-9.08112573853504
30
0
41
1
10
3.41317416582865
20
-9.10960698926758
30
0
41
1
10
3.41763944089274
20
-9.11890209778369
30
0
41
1
10
3.4269637894993
20
-9.13153774436884
30
0
41
1
10
3.43054700018405
20
-9.13553287424185
30
0
41
1
10
3.43918394514822
20
-9.14176095975583
30
0
41
1
10
3.44443586093851
20
-9.14393885897934
30
0
41
1
10
3.4500349360614
20
-9.14393885897934
30
0
0
SPLINE
5
F3
100
AcDbEntity
8
1
62
256
6
ByLayer
370
18
48
1
60
0
100
AcDbSpline
70
4
71
3
72
12
73
8
40
0
40
0
40
0
40
0
40
0.25
40
0.25
40
0.5
40
0.5
40
1
40
1
40
1
40
1
41
1
10
6.14783228000499
20
-8.68023001682434
30
0
41
1
10
6.158753174976
20
-8.63907657963028
30
0
41
1
10
6.16581922455694
20
-8.59756842396251
30
0
41
1
10
6.17594146084045
20
-8.51418312971288
30
0
41
1
10
6.17887997765891
20
-8.47229516325322
30
0
41
1
10
6.18319775390285
20
-8.34621738385937
30
0
41
1
10
6.18012855626264
20
-8.26155955013112
30
0
41
1
10
6.17273320729456
20
-8.17740201621049
30
0
0
SPLINE
5
F4
100
AcDbEntity
8
1
62
256
6
ByLayer
370
18
48
1
60
0
100
AcDbSpline
70
4
71
3
72
8
73
4
40
0
40
0
40
0
40
0
40
1
40
1
40
1
40
1
41
1
10
6.17273320729456
20
-8.17740201621044
30
0
41
1
10
6.10943590217354
20
-7.45709184217498
30
0
41
1
10
6.04801900062205
20
-6.73661855294259
30
0
41
1
10
5.98865816740309
20
-6.01598339718268
30
0
0
SPLINE
5
F5
100
AcDbEntity
8
1
62
256
6
ByLayer
370
18
48
1
60
0
100
AcDbSpline
70
4
71
3
72
8
73
4
40
0
40
0
40
0
40
0
40
1
40
1
40
1
40
1
41
1
10
3.50924930050866
20
-6.01598339718268
30
0
41
1
10
3.45192381571565
20
-6.71786037711638
30
0
41
1
10
3.39264396595072
20
-7.41958480732265
30
0
41
1
10
3.33156065989596
20
-8.12115429999375
30
0
0
SPLINE
5
F6
100
AcDbEntity
8
1
62
256
6
ByLayer
370
18
48
1
60
0
100
AcDbSpline
70
4
71
3
72
8
73
4
40
0
40
0
40
0
40
0
40
1
40
1
40
1
40
1
41
1
10
3.33156065989596
20
-8.12115429999375
30
0
41
1
10
3.33064027680709
20
-8.13172531748492
30
0
41
1
10
3.32978260570746
20
-8.14229646836924
30
0
41
1
10
3.32898874125419
20
-8.15286775497512
30
0
0
SPLINE
5
F7
100
AcDbEntity
8
1
62
256
6
ByLayer
370
18
48
1
60
0
100
AcDbSpline
70
4
71
3
72
12
73
8
40
0
40
0
40
0
40
0
40
0.500000000000005
40
0.500000000000005
40
0.750000000000002
40
0.750000000000002
40
1
40
1
40
1
40
1
41
1
10
3.32898874125419
20
-8.15286775497512
30
0
41
1
10
3.32235558062416
20
-8.24119648897198
30
0
41
1
10
3.3199591836028
20
-8.32946814083306
30
0
41
1
10
3.32562210959318
20
-8.46175089156108
30
0
41
1
10
3.32907203935653
20
-8.50584451418118
30
0
41
1
10
3.34070275793502
20
-8.59388475730114
30
0
41
1
10
3.34868327976139
20
-8.63748627638699
30
0
41
1
10
3.36110054104688
20
-8.68023001686137
30
0
0
SPLINE
5
F8
100
AcDbEntity
8
1
62
256
6
ByLayer
370
18
48
1
60
0
100
AcDbSpline
70
4
71
3
72
20
73
16
40
0
40
0
40
0
40
0
40
0.031249999999996
40
0.031249999999996
40
0.062499999999992
40
0.062499999999992
40
0.124999999999986
40
0.124999999999986
40
0.249999999999988
40
0.249999999999988
40
0.499999999999992
40
0.499999999999992
40
0.749999999999996
40
0.749999999999996
40
1
40
1
40
1
40
1
41
1
10
6.05003493606142
20
8.20606114102068
30
0
41
1
10
6.05570426926909
20
8.20606114102068
30
0
41
1
10
6.06109857037441
20
8.20773821024022
30
0
41
1
10
6.07029677220433
20
8.2128733276453
30
0
41
1
10
6.07412005468339
20
8.21618823130601
30
0
41
1
10
6.08421806280936
20
8.22688023153705
30
0
41
1
10
6.08912190751946
20
8.23488447181202
30
0
41
1
10
6.10187329710254
20
8.25931553223859
30
0
41
1
10
6.10768315707205
20
8.27654163126167
30
0
41
1
10
6.12230597705536
20
8.32797052924136
30
0
41
1
10
6.12819410596364
20
8.36275083058121
30
0
41
1
10
6.1375070759299
20
8.43262688465563
30
0
41
1
10
6.14068238105574
20
8.46776710426875
30
0
41
1
10
6.14538538012872
20
8.53803025004612
30
0
41
1
10
6.1468877869257
20
8.57319355220039
30
0
41
1
10
6.1478322799953
20
8.60837770269214
30
0
0
SPLINE
5
F9
100
AcDbEntity
8
1
62
256
6
ByLayer
370
18
48
1
60
0
100
AcDbSpline
70
4
71
3
72
18
73
14
40
0
40
0
40
0
40
0
40
0.499999999999992
40
0.499999999999992
40
0.749999999999988
40
0.749999999999988
40
0.87499999999999
40
0.87499999999999
40
0.937499999999994
40
0.937499999999994
40
0.968749999999997
40
0.968749999999997
40
1
40
1
40
1
40
1
41
1
10
3.36110054104688
20
8.60837770268722
30
0
41
1
10
3.36244371417433
20
8.53838234614568
30
0
41
1
10
3.36552720863494
20
8.46849835310954
30
0
41
1
10
3.37778853977156
20
8.36416099843001
30
0
41
1
10
3.38300332538105
20
8.32945404036528
30
0
41
1
10
3.39626210570697
20
8.27774149249825
30
0
41
1
10
3.40149541018687
20
8.2605581795703
30
0
41
1
10
3.41317416582865
20
8.23584767628478
30
0
41
1
10
3.41763944089271
20
8.22778318460624
30
0
41
1
10
3.42696378949927
20
8.21682042214229
30
0
41
1
10
3.43054700018405
20
8.21335422359667
30
0
41
1
10
3.43918394514824
20
8.20795069939751
30
0
41
1
10
3.44443586093851
20
8.20606114102068
30
0
41
1
10
3.45003493606143
20
8.20606114102068
30
0
0
SPLINE
5
FA
100
AcDbEntity
8
1
62
256
6
ByLayer
370
18
48
1
60
0
100
AcDbSpline
70
4
71
3
72
12
73
8
40
0
40
0
40
0
40
0
40
0.25
40
0.25
40
0.499999999999999
40
0.499999999999999
40
1
40
1
40
1
40
1
41
1
10
6.14783228000499
20
8.60837770271138
30
0
41
1
10
6.15875317497603
20
8.63523870115847
30
0
41
1
10
6.16581922455694
20
8.6623312256462
30
0
41
1
10
6.17594146084045
20
8.7167571111145
30
0
41
1
10
6.17887997765891
20
8.74409753949038
30
0
41
1
10
6.18319775390285
20
8.82638896561215
30
0
41
1
10
6.18012855626264
20
8.88164544223628
30
0
41
1
10
6.17273320729456
20
8.93657537135238
30
0
0
SPLINE
5
FB
100
AcDbEntity
8
1
62
256
6
ByLayer
370
18
48
1
60
0
100
AcDbSpline
70
4
71
3
72
8
73
4
40
0
40
0
40
0
40
0
40
1
40
1
40
1
40
1
41
1
10
6.17273320729456
20
8.93657537135226
30
0
41
1
10
6.10943590217354
20
9.40672444723529
30
0
41
1
10
6.04801900062205
20
9.87697998900185
30
0
41
1
10
5.98865816740309
20
10.3473411816409
30
0
0
SPLINE
5
FC
100
AcDbEntity
8
1
62
256
6
ByLayer
370
18
48
1
60
0
100
AcDbSpline
70
4
71
3
72
8
73
4
40
0
40
0
40
0
40
0
40
1
40
1
40
1
40
1
41
1
10
3.50924930050866
20
10.3473411816409
30
0
41
1
10
3.45192381571562
20
9.88922351873092
30
0
41
1
10
3.39264396595072
20
9.43120542558401
30
0
41
1
10
3.33156065989596
20
8.97328846073103
30
0
0
SPLINE
5
FD
100
AcDbEntity
8
1
62
256
6
ByLayer
370
18
48
1
60
0
100
AcDbSpline
70
4
71
3
72
8
73
4
40
0
40
0
40
0
40
0
40
1
40
1
40
1
40
1
41
1
10
3.33156065989596
20
8.97328846073103
30
0
41
1
10
3.33064027680709
20
8.96638871908669
30
0
41
1
10
3.32978260570746
20
8.95948889037621
30
0
41
1
10
3.32898874125419
20
8.95258897307974
30
0
0
SPLINE
5
FE
100
AcDbEntity
8
1
62
256
6
ByLayer
370
18
48
1
60
0
100
AcDbSpline
70
4
71
3
72
12
73
8
40
0
40
0
40
0
40
0
40
0.499999999999997
40
0.499999999999997
40
0.749999999999998
40
0.749999999999998
40
1
40
1
40
1
40
1
41
1
10
3.32898874125419
20
8.95258897307974
30
0
41
1
10
3.32235558062416
20
8.89493648647127
30
0
41
1
10
3.31995918360278
20
8.83732125757797
30
0
41
1
10
3.32562210959318
20
8.75097982405134
30
0
41
1
10
3.32907203935653
20
8.7221997558635
30
0
41
1
10
3.34070275793502
20
8.66473556830184
30
0
41
1
10
3.34868327976139
20
8.6362766978815
30
0
41
1
10
3.36110054104688
20
8.60837770268722
30
0
0
SPLINE
5
FF
100
AcDbEntity
8
1
62
256
6
ByLayer
370
18
48
1
60
0
100
AcDbSpline
70
4
71
3
72
8
73
4
40
0
40
0
40
0
40
0
40
1
40
1
40
1
40
1
41
1
10
3.50924930050866
20
-11.2852188995998
30
0
41
1
10
3.50871009771225
20
-11.2809098505649
30
0
41
1
10
3.50817072200809
20
-11.2766008103392
30
0
41
1
10
3.50763117352176
20
-11.272291778924
30
0
0
SPLINE
5
100
100
AcDbEntity
8
1
62
256
6
ByLayer
370
18
48
1
60
0
100
AcDbSpline
70
4
71
3
72
8
73
4
40
0
40
0
40
0
40
0
40
1
40
1
40
1
40
1
41
1
10
3.45046274688306
20
-10.8207646207462
30
0
41
1
10
3.41164833786405
20
-10.5175211184985
30
0
41
1
10
3.37199971305495
20
-10.2143214870727
30
0
41
1
10
3.33156065989596
20
-9.91116617868983
30
0
0
SPLINE
5
101
100
AcDbEntity
8
1
62
256
6
ByLayer
370
18
48
1
60
0
100
AcDbSpline
70
4
71
3
72
8
73
4
40
0
40
0
40
0
40
0
40
1
40
1
40
1
40
1
41
1
10
3.33156065989596
20
-9.91116617868983
30
0
41
1
10
3.33064027680709
20
-9.90426643704549
30
0
41
1
10
3.32978260570749
20
-9.89736660833501
30
0
41
1
10
3.32898874125419
20
-9.89046669103854
30
0
0
SPLINE
5
102
100
AcDbEntity
8
1
62
256
6
ByLayer
370
18
48
1
60
0
100
AcDbSpline
70
4
71
3
72
10
73
6
40
0
40
0
40
0
40
0
40
0.408334455349098
40
0.408334455349098
40
1
40
1
40
1
40
1
41
1
10
6.23867608952
20
8.10352141125892
30
0
41
1
10
6.24116202174815
20
8.09726759393192
30
0
41
1
10
6.24304453111262
20
8.09089303730437
30
0
41
1
10
6.2460805811246
20
8.07532447064014
30
0
41
1
10
6.24658370646355
20
8.06606501650762
30
0
41
1
10
6.24576182678297
20
8.05675730887273
30
0
0
SPLINE
5
103
100
AcDbEntity
8
1
62
256
6
ByLayer
370
18
48
1
60
0
100
AcDbSpline
70
4
71
3
72
18
73
14
40
0
40
0
40
0
40
0
40
0.279344892200863
40
0.279344892200863
40
0.419017338301296
40
0.419017338301296
40
0.488853561351511
40
0.488853561351511
40
0.558689784401727
40
0.558689784401727
40
0.83803467660259
40
0.83803467660259
40
1
40
1
40
1
40
1
41
1
10
6.24576182678297
20
8.05675730887273
30
0
41
1
10
6.2296360518817
20
7.87413447281537
30
0
41
1
10
6.21488047389101
20
7.70642455856813
30
0
41
1
10
6.19472759465373
20
7.47669856975415
30
0
41
1
10
6.18834140748456
20
7.40377589742803
30
0
41
1
10
6.17926211837033
20
7.2999187325739
30
0
41
1
10
6.17631910533464
20
7.2662216063936
30
0
41
1
10
6.17060143957122
20
7.2006889352547
30
0
41
1
10
6.16782270497674
20
7.16880647520242
30
0
41
1
10
6.15441393116259
20
7.01477969901063
30
0
41
1
10
6.14523650467532
20
6.90878971318298
30
0
41
1
10
6.13314714588134
20
6.76790835871671
30
0
41
1
10
6.12922268177633
20
6.72185538252927
30
0
41
1
10
6.12582682027099
20
6.68155690647524
30
0
0
SPLINE
5
104
100
AcDbEntity
8
1
62
256
6
ByLayer
370
18
48
1
60
0
100
AcDbSpline
70
4
71
3
72
9
73
5
40
0
40
0
40
0
40
0
40
0.5
40
1
40
1
40
1
40
1
41
1
10
3.2543229269335
20
8.05618097841443
30
0
41
1
10
3.25423289962018
20
8.05720319720234
30
0
41
1
10
3.25408492942557
20
8.05924611860516
30
0
41
1
10
3.25400051888798
20
8.06128604084896
30
0
41
1
10
3.25397407594184
20
8.06230525870581
30
0
0
SPLINE
5
105
100
AcDbEntity
8
1
62
256
6
ByLayer
370
18
48
1
60
0
100
AcDbSpline
70
4
71
3
72
16
73
12
40
0
40
0
40
0
40
0
40
0.163236126539622
40
0.163236126539622
40
0.442157417693081
40
0.442157417693081
40
0.581618063269811
40
0.581618063269811
40
0.721078708846541
40
0.721078708846541
40
1
40
1
40
1
40
1
41
1
10
3.37433724071016
20
6.68042510048119
30
0
41
1
10
3.37088886434131
20
6.72096063858675
30
0
41
1
10
3.36691257043654
20
6.76730608321182
30
0
41
1
10
3.35476441418058
20
6.90819206342275
30
0
41
1
10
3.34561530938001
20
7.0136157322965
30
0
41
1
10
3.32964988603166
20
7.19690104342826
30
0
41
1
10
3.32395013207392
20
7.26223355848936
30
0
41
1
10
3.31179020866026
20
7.40141337479798
30
0
41
1
10
3.30538158247825
20
7.4746706595719
30
0
41
1
10
3.285180222897
20
7.70528598177017
30
0
41
1
10
3.27041722744147
20
7.87343758916882
30
0
41
1
10
3.2543229269335
20
8.05618097841443
30
0
0
SPLINE
5
106
100
AcDbEntity
8
1
62
256
6
ByLayer
370
18
48
1
60
0
100
AcDbSpline
70
4
71
3
72
9
73
5
40
0
40
0
40
0
40
0
40
0.5
40
1
40
1
40
1
40
1
41
1
10
3.2543229269335
20
-9.08423860000755
30
0
41
1
10
3.25423289962018
20
-9.08468006007027
30
0
41
1
10
3.25408492942557
20
-9.08556086690567
30
0
41
1
10
3.25400051888798
20
-9.0864374815053
30
0
41
1
10
3.25397407594184
20
-9.08687474849924
30
0
0
SPLINE
5
107
100
AcDbEntity
8
1
62
256
6
ByLayer
370
18
48
1
60
0
100
AcDbSpline
70
4
71
3
72
8
73
4
40
0
40
0
40
0
40
0
40
1
40
1
40
1
40
1
41
1
10
3.38086648617576
20
-7.37888079573395
30
0
41
1
10
3.378960239225
20
-7.46197915758535
30
0
41
1
10
3.37678208166079
20
-7.54257525396696
30
0
41
1
10
3.37433889379184
20
-7.62071201681425
30
0
0
SPLINE
5
108
100
AcDbEntity
8
1
62
256
6
ByLayer
370
18
48
1
60
0
100
AcDbSpline
70
4
71
3
72
8
73
4
40
0
40
0
40
0
40
0
40
1
40
1
40
1
40
1
41
1
10
3.26272451536948
20
-9.04085123424181
30
0
41
1
10
3.259965366215
20
-9.0558397732124
30
0
41
1
10
3.25716490259427
20
-9.07030262094349
30
0
41
1
10
3.2543229269335
20
-9.08423860000755
30
0
0
SPLINE
5
109
100
AcDbEntity
8
1
62
256
6
ByLayer
370
18
48
1
60
0
100
AcDbSpline
70
4
71
3
72
8
73
4
40
0
40
0
40
0
40
0
40
1
40
1
40
1
40
1
41
1
10
6.12582741370346
20
-7.62385665120544
30
0
41
1
10
6.12336612126057
20
-7.54467454092804
30
0
41
1
10
6.12118250540755
20
-7.46302656612247
30
0
41
1
10
6.11928271471356
20
-7.37888079573406
30
0
0
SPLINE
5
10A
100
AcDbEntity
8
1
62
256
6
ByLayer
370
18
48
1
60
0
100
AcDbSpline
70
4
71
3
72
8
73
4
40
0
40
0
40
0
40
0
40
1
40
1
40
1
40
1
41
1
10
6.05003493606142
20
-10.1052201972914
30
0
41
1
10
5.89385482270549
20
-10.0988316907001
30
0
41
1
10
5.73767497148052
20
-10.0924367725595
30
0
41
1
10
5.58149538476212
20
-10.0860354042849
30
0
0
SPLINE
5
10B
100
AcDbEntity
8
1
62
256
6
ByLayer
370
18
48
1
60
0
100
AcDbSpline
70
4
71
3
72
22
73
18
40
0
40
0
40
0
40
0
40
0.02068872596882
40
0.02068872596882
40
0.160590336544703
40
0.160590336544703
40
0.300491947120586
40
0.300491947120586
40
0.440393557696469
40
0.440393557696469
40
0.580295168272351
40
0.580295168272351
40
0.720196778848234
40
0.720196778848234
40
0.860098389424117
40
0.860098389424117
40
1
40
1
40
1
40
1
41
1
10
6.08454266287353
20
-17.8159291020766
30
0
41
1
10
6.08650845943143
20
-17.8155824609514
30
0
41
1
10
6.08846902747334
20
-17.8152061513978
30
0
41
1
10
6.10364699147451
20
-17.8120559687053
30
0
41
1
10
6.11677187934509
20
-17.8078831156282
30
0
41
1
10
6.14148482189827
20
-17.7970909063304
30
0
41
1
10
6.15315170034026
20
-17.7904897357806
30
0
41
1
10
6.17510439066763
20
-17.7748673778802
30
0
41
1
10
6.1852341430214
20
-17.765922097548
30
0
41
1
10
6.20325467330315
20
-17.7463956224165
30
0
41
1
10
6.21131475115678
20
-17.7356279219014
30
0
41
1
10
6.22500110784554
20
-17.712789696149
30
0
41
1
10
6.23059073156639
20
-17.7008392319721
30
0
41
1
10
6.23934205996869
20
-17.6759039031384
30
0
41
1
10
6.24248792875673
20
-17.662842444491
30
0
41
1
10
6.24608058112457
20
-17.6367038507432
30
0
41
1
10
6.24658370646353
20
-17.6235084686837
30
0
41
1
10
6.24576182678294
20
-17.6101835872978
30
0
0
SPLINE
5
10C
100
AcDbEntity
8
1
62
256
6
ByLayer
370
18
48
1
60
0
100
AcDbSpline
70
4
71
3
72
18
73
14
40
0
40
0
40
0
40
0
40
0.250000000000002
40
0.250000000000002
40
0.375000000000004
40
0.375000000000004
40
0.437500000000004
40
0.437500000000004
40
0.500000000000003
40
0.500000000000003
40
0.750000000000002
40
0.750000000000002
40
1
40
1
40
1
40
1
41
1
10
6.24576182678294
20
-17.6101835872978
30
0
41
1
10
6.22963605188167
20
-17.348741380015
30
0
41
1
10
6.21488047389099
20
-17.0854920126429
30
0
41
1
10
6.1947275946537
20
-16.6879729176561
30
0
41
1
10
6.18834140748453
20
-16.5550241459962
30
0
41
1
10
6.1792621183703
20
-16.3549316636832
30
0
41
1
10
6.17631910533461
20
-16.2881225192653
30
0
41
1
10
6.17060143957119
20
-16.1542787875206
30
0
41
1
10
6.16782270497671
20
-16.0871403782144
30
0
41
1
10
6.15441393116257
20
-15.7523526587858
30
0
41
1
10
6.1452365046753
20
-15.4876984559885
30
0
41
1
10
6.12993162158074
20
-14.9645872431107
30
0
41
1
10
6.1238035540745
20
-14.7061300615105
30
0
41
1
10
6.11928271471353
20
-14.4508673608885
30
0
0
SPLINE
5
10D
100
AcDbEntity
8
1
62
256
6
ByLayer
370
18
48
1
60
0
100
AcDbSpline
70
4
71
3
72
8
73
4
40
0
40
0
40
0
40
0
40
1
40
1
40
1
40
1
41
1
10
5.58149538476212
20
-10.0860354042849
30
0
41
1
10
5.59187552883816
20
-10.3536733379449
30
0
41
1
10
5.60234969110158
20
-10.621307636298
30
0
41
1
10
5.61290144892644
20
-10.8889388589794
30
0
0
SPLINE
5
10E
100
AcDbEntity
8
1
62
256
6
ByLayer
370
18
48
1
60
0
100
AcDbSpline
70
4
71
3
72
18
73
14
40
0
40
0
40
0
40
0
40
0.25
40
0.25
40
0.5
40
0.5
40
0.5625
40
0.5625
40
0.625
40
0.625
40
0.75
40
0.75
40
1
40
1
40
1
40
1
41
1
10
5.61290144892644
20
-10.8889388589794
30
0
41
1
10
5.6339326477252
20
-11.4243902621914
30
0
41
1
10
5.65754417370781
20
-11.9527130963689
30
0
41
1
10
5.71008195454525
20
-12.9956587682158
30
0
41
1
10
5.73900588107398
20
-13.510281190922
30
0
41
1
10
5.7788229549104
20
-14.144680210855
30
0
41
1
10
5.78694892037683
20
-14.2707561512131
30
0
41
1
10
5.80344380221499
20
-14.5200171375846
30
0
41
1
10
5.81182519999859
20
-14.6434021400913
30
0
41
1
10
5.83737404415666
20
-15.0098673258125
30
0
41
1
10
5.85494556441176
20
-15.2492634294925
30
0
41
1
10
5.90931972377345
20
-15.9528679476028
30
0
41
1
10
5.94777068985957
20
-16.4025875945152
30
0
41
1
10
5.98865816740303
20
-16.8322634378029
30
0
0
SPLINE
5
10F
100
AcDbEntity
8
1
62
256
6
ByLayer
370
18
48
1
60
0
100
AcDbSpline
70
4
71
3
72
8
73
4
40
0
40
0
40
0
40
0
40
1
40
1
40
1
40
1
41
1
10
6.05003493606142
20
-0.955259583828848
30
0
41
1
10
5.89385482270549
20
-0.952051530600272
30
0
41
1
10
5.73767497148052
20
-0.948840257747321
30
0
41
1
10
5.58149538476212
20
-0.945625745894347
30
0
0
SPLINE
5
110
100
AcDbEntity
8
1
62
256
6
ByLayer
370
18
48
1
60
0
100
AcDbSpline
70
4
71
3
72
9
73
5
40
0
40
0
40
0
40
0
40
0.5
40
1
40
1
40
1
40
1
41
1
10
3.25432292693347
20
-17.6093584374014
30
0
41
1
10
3.25423289962015
20
-17.610822116252
30
0
41
1
10
3.25408492942555
20
-17.6137458444902
30
0
41
1
10
3.25400051888795
20
-17.6166623813337
30
0
41
1
10
3.25397407594181
20
-17.6181188661844
30
0
0
SPLINE
5
111
100
AcDbEntity
8
1
62
256
6
ByLayer
370
18
48
1
60
0
100
AcDbSpline
70
4
71
3
72
16
73
12
40
0
40
0
40
0
40
0
40
0.249999999999999
40
0.249999999999999
40
0.499999999999998
40
0.499999999999998
40
0.624999999999999
40
0.624999999999999
40
0.749999999999999
40
0.749999999999999
40
1
40
1
40
1
40
1
41
1
10
3.38086648617573
20
-14.4508673608883
30
0
41
1
10
3.37626941639954
20
-14.706335147562
30
0
41
1
10
3.37009098925296
20
-14.9645090646183
30
0
41
1
10
3.35476441418055
20
-15.4860473972074
30
0
41
1
10
3.34561530937998
20
-15.7494125032281
30
0
41
1
10
3.32964988603163
20
-16.1484054650742
30
0
41
1
10
3.32395013207389
20
-16.2821242165708
30
0
41
1
10
3.31179020866023
20
-16.5506674608986
30
0
41
1
10
3.30538158247822
20
-16.6843600850735
30
0
41
1
10
3.28518022289697
20
-17.0837258006092
30
0
41
1
10
3.27041722744144
20
-17.3476946555484
30
0
41
1
10
3.25432292693347
20
-17.6093584374014
30
0
0
SPLINE
5
112
100
AcDbEntity
8
1
62
256
6
ByLayer
370
18
48
1
60
0
100
AcDbSpline
70
4
71
3
72
18
73
14
40
0
40
0
40
0
40
0
40
0.250000000000001
40
0.250000000000001
40
0.500000000000003
40
0.500000000000003
40
0.562500000000003
40
0.562500000000003
40
0.625000000000002
40
0.625000000000002
40
0.750000000000001
40
0.750000000000001
40
1
40
1
40
1
40
1
41
1
10
3.50924930050866
20
-16.832263437803
30
0
41
1
10
3.54986517995249
20
-16.4025794473652
30
0
41
1
10
3.58802691416901
20
-15.9531215970075
30
0
41
1
10
3.65992590561905
20
-15.0161679984977
30
0
41
1
10
3.69366082416218
20
-14.5286718530005
30
0
41
1
10
3.73316516171471
20
-13.8946323630057
30
0
41
1
10
3.74091945316925
20
-13.7667712162668
30
0
41
1
10
3.75603717232016
20
-13.5106993110977
30
0
41
1
10
3.76341610003811
20
-13.3822420091313
30
0
41
1
10
3.78502776464174
20
-12.9956216307331
30
0
41
1
10
3.79873617359436
20
-12.7362120276551
30
0
41
1
10
3.83784996621958
20
-11.9530470509591
30
0
41
1
10
3.86125518645915
20
-11.4243879007768
30
0
41
1
10
3.88207665449116
20
-10.8889388589793
30
0
0
SPLINE
5
113
100
AcDbEntity
8
1
62
256
6
ByLayer
370
18
48
1
60
0
100
AcDbSpline
70
4
71
3
72
8
73
4
40
0
40
0
40
0
40
0
40
1
40
1
40
1
40
1
41
1
10
3.88207665449116
20
-10.8889388589794
30
0
41
1
10
3.89512447949977
20
-10.5546613470058
30
0
41
1
10
3.90804270760089
20
-10.2203787367528
30
0
41
1
10
3.92079678479144
20
-9.88608988827502
30
0
0
SPLINE
5
114
100
AcDbEntity
8
1
62
256
6
ByLayer
370
18
48
1
60
0
100
AcDbSpline
70
4
71
3
72
16
73
12
40
0
40
0
40
0
40
0
40
0.125
40
0.125
40
0.25
40
0.25
40
0.5
40
0.5
40
0.75
40
0.75
40
1
40
1
40
1
40
1
41
1
10
3.4500349360614
20
-9.90577791742663
30
0
41
1
10
3.4500349360614
20
-10.0164152495294
30
0
41
1
10
3.4500349360614
20
-10.1206331260656
30
0
41
1
10
3.4500349360614
20
-10.3162657387724
30
0
41
1
10
3.4500349360614
20
-10.4076952098191
30
0
41
1
10
3.4500349360614
20
-10.6613745725149
30
0
41
1
10
3.4500349360614
20
-10.8036356101673
30
0
41
1
10
3.4500349360614
20
-11.0341114710524
30
0
41
1
10
3.4500349360614
20
-11.1209093383218
30
0
41
1
10
3.4500349360614
20
-11.2386740403835
30
0
41
1
10
3.4500349360614
20
-11.2696948414066
30
0
41
1
10
3.4500349360614
20
-11.2722074109611
30
0
0
SPLINE
5
115
100
AcDbEntity
8
1
62
256
6
ByLayer
370
18
48
1
60
0
100
AcDbSpline
70
4
71
3
72
8
73
4
40
0
40
0
40
0
40
0
40
1
40
1
40
1
40
1
41
1
10
3.92079678479144
20
-9.88608988827502
30
0
41
1
10
3.76387645819915
20
-9.89265948682518
30
0
41
1
10
3.60695584104448
20
-9.89922214871754
30
0
41
1
10
3.4500349360614
20
-9.90577791742663
30
0
0
SPLINE
5
116
100
AcDbEntity
8
1
62
256
6
ByLayer
370
18
48
1
60
0
100
AcDbSpline
70
4
71
3
72
9
73
5
40
0
40
0
40
0
40
0
40
0.5
40
1
40
1
40
1
40
1
41
1
10
3.2543229269335
20
-8.9940586963732
30
0
41
1
10
3.25423289962018
20
-8.99508091516114
30
0
41
1
10
3.25408492942557
20
-8.99712383656393
30
0
41
1
10
3.25400051888798
20
-8.99916375880775
30
0
41
1
10
3.25397407594184
20
-9.00018297666458
30
0
0
SPLINE
5
117
100
AcDbEntity
8
1
62
256
6
ByLayer
370
18
48
1
60
0
100
AcDbSpline
70
4
71
3
72
16
73
12
40
0
40
0
40
0
40
0
40
0.250000000000002
40
0.250000000000002
40
0.500000000000003
40
0.500000000000003
40
0.625000000000003
40
0.625000000000003
40
0.750000000000002
40
0.750000000000002
40
1
40
1
40
1
40
1
41
1
10
3.38086648617576
20
-7.54092542413352
30
0
41
1
10
3.37626941639957
20
-7.59599474324963
30
0
41
1
10
3.37009098925301
20
-7.6683226807634
30
0
41
1
10
3.35476441418058
20
-7.84606978138146
30
0
41
1
10
3.34561530938001
20
-7.95149345025521
30
0
41
1
10
3.32964988603169
20
-8.13477876138697
30
0
41
1
10
3.32395013207392
20
-8.20011127644807
30
0
41
1
10
3.31179020866026
20
-8.3392910927567
30
0
41
1
10
3.30538158247825
20
-8.41254837753064
30
0
41
1
10
3.285180222897
20
-8.64316369972892
30
0
41
1
10
3.27041722744147
20
-8.81131530712756
30
0
41
1
10
3.2543229269335
20
-8.9940586963732
30
0
0
SPLINE
5
118
100
AcDbEntity
8
1
62
256
6
ByLayer
370
18
48
1
60
0
100
AcDbSpline
70
4
71
3
72
18
73
14
40
0
40
0
40
0
40
0
40
0.249999999999999
40
0.249999999999999
40
0.499999999999999
40
0.499999999999999
40
0.562499999999999
40
0.562499999999999
40
0.624999999999999
40
0.624999999999999
40
0.749999999999999
40
0.749999999999999
40
1
40
1
40
1
40
1
41
1
10
3.50924930050866
20
-6.01598339718268
30
0
41
1
10
3.54986517995249
20
-5.52614014501381
30
0
41
1
10
3.58802691416901
20
-5.05956541699874
30
0
41
1
10
3.65992590561908
20
-4.17121468901698
30
0
41
1
10
3.69366082416221
20
-3.74943886055061
30
0
41
1
10
3.73316516171474
20
-3.25129962160963
30
0
41
1
10
3.74091945316925
20
-3.15329331576845
30
0
41
1
10
3.75603717232016
20
-2.96183150121456
30
0
41
1
10
3.76341610003811
20
-2.86818066109072
30
0
41
1
10
3.78502776464174
20
-2.59339366648791
30
0
41
1
10
3.79873617359439
20
-2.41841342058751
30
0
41
1
10
3.83784996621955
20
-1.91786760978169
30
0
41
1
10
3.86125518645915
20
-1.61653636095559
30
0
41
1
10
3.88207665449116
20
-1.34881184005687
30
0
0
SPLINE
5
119
100
AcDbEntity
8
1
62
256
6
ByLayer
370
18
48
1
60
0
100
AcDbSpline
70
4
71
3
72
8
73
4
40
0
40
0
40
0
40
0
40
1
40
1
40
1
40
1
41
1
10
3.88207665449116
20
-1.34881184005724
30
0
41
1
10
3.89512447949974
20
-1.18095100494548
30
0
41
1
10
3.90804270760089
20
-1.01308760968112
30
0
41
1
10
3.92079678479144
20
-0.845221081829095
30
0
0
SPLINE
5
11A
100
AcDbEntity
8
1
62
256
6
ByLayer
370
18
48
1
60
0
100
AcDbSpline
70
4
71
3
72
9
73
5
40
0
40
0
40
0
40
0
40
0.5
40
1
40
1
40
1
40
1
41
1
10
3.25432292693353
20
16.6714807194425
30
0
41
1
10
3.25423289962021
20
16.6729443982931
30
0
41
1
10
3.2540849294256
20
16.6758681265313
30
0
41
1
10
3.25400051888801
20
16.6787846633748
30
0
41
1
10
3.25397407594187
20
16.6802411482256
30
0
0
SPLINE
5
11B
100
AcDbEntity
8
1
62
256
6
ByLayer
370
18
48
1
60
0
100
AcDbSpline
70
4
71
3
72
16
73
12
40
0
40
0
40
0
40
0
40
0.249999999999999
40
0.249999999999999
40
0.499999999999998
40
0.499999999999998
40
0.624999999999998
40
0.624999999999998
40
0.749999999999998
40
0.749999999999998
40
1
40
1
40
1
40
1
41
1
10
3.38086648617579
20
13.5129896429294
30
0
41
1
10
3.3762694163996
20
13.7684574296031
30
0
41
1
10
3.37009098925301
20
14.0266313466593
30
0
41
1
10
3.35476441418061
20
14.5481696792485
30
0
41
1
10
3.34561530938004
20
14.8115347852692
30
0
41
1
10
3.32964988603169
20
15.2105277471153
30
0
41
1
10
3.32395013207395
20
15.3442464986119
30
0
41
1
10
3.31179020866028
20
15.6127897429397
30
0
41
1
10
3.30538158247828
20
15.7464823671146
30
0
41
1
10
3.28518022289703
20
16.1458480826503
30
0
41
1
10
3.2704172274415
20
16.4098169375895
30
0
41
1
10
3.25432292693353
20
16.6714807194425
30
0
0
SPLINE
5
11C
100
AcDbEntity
8
1
62
256
6
ByLayer
370
18
48
1
60
0
100
AcDbSpline
70
4
71
3
72
8
73
4
40
0
40
0
40
0
40
0
40
1
40
1
40
1
40
1
41
1
10
0.100034936061405
20
-6.20377759874108
30
0
41
0.999945210855034
10
0.066726537251337
20
-6.1925799180794
30
0
41
0.999896260165857
10
0.0333930105033199
20
-6.18131511502052
30
0
41
0.999853147932469
10
3.49360614126E-05
20
-6.16998337704202
30
0
0
SPLINE
5
11D
100
AcDbEntity
8
1
62
256
6
ByLayer
370
18
48
1
60
0
100
AcDbSpline
70
4
71
3
72
18
73
14
40
0
40
0
40
0
40
0
40
0.249999999999999
40
0.249999999999999
40
0.374999999999999
40
0.374999999999999
40
0.437499999999998
40
0.437499999999998
40
0.499999999999998
40
0.499999999999998
40
0.749999999999999
40
0.749999999999999
40
1
40
1
40
1
40
1
41
1
10
6.245761826783
20
16.6723058693389
30
0
41
1
10
6.22963605188173
20
16.4108636620561
30
0
41
1
10
6.21488047389104
20
16.147614294684
30
0
41
1
10
6.19472759465376
20
15.7500951996972
30
0
41
1
10
6.18834140748459
20
15.6171464280373
30
0
41
1
10
6.17926211837033
20
15.4170539457243
30
0
41
1
10
6.17631910533467
20
15.3502448013064
30
0
41
1
10
6.17060143957124
20
15.2164010695617
30
0
41
1
10
6.16782270497677
20
15.1492626602555
30
0
41
1
10
6.15441393116259
20
14.8144749408269
30
0
41
1
10
6.14523650467535
20
14.5498207380296
30
0
41
1
10
6.12993162158079
20
14.0267095251518
30
0
41
1
10
6.12380355407456
20
13.7682523435516
30
0
41
1
10
6.11928271471359
20
13.5129896429296
30
0
0
SPLINE
5
11E
100
AcDbEntity
8
1
62
256
6
ByLayer
370
18
48
1
60
0
100
AcDbSpline
70
4
71
3
72
22
73
18
40
0
40
0
40
0
40
0
40
0.125
40
0.125
40
0.25
40
0.25
40
0.375
40
0.375
40
0.5
40
0.5
40
0.625
40
0.625
40
0.75
40
0.75
40
0.875
40
0.875
40
1
40
1
40
1
40
1
41
1
10
6.05003493606145
20
16.8810611410205
30
0
41
1
10
6.06374127653186
20
16.8810611410205
30
0
41
1
10
6.07720179365367
20
16.8796669450449
30
0
41
1
10
6.10364699147456
20
16.8741782507464
30
0
41
1
10
6.11677187934515
20
16.8700053976693
30
0
41
1
10
6.14148482189833
20
16.8592131883715
30
0
41
1
10
6.15315170034032
20
16.8526120178217
30
0
41
1
10
6.17510439066768
20
16.8369896599213
30
0
41
1
10
6.18523414302146
20
16.8280443795891
30
0
41
1
10
6.20325467330321
20
16.8085179044577
30
0
41
1
10
6.21131475115683
20
16.7977502039425
30
0
41
1
10
6.2250011078456
20
16.7749119781901
30
0
41
1
10
6.23059073156645
20
16.7629615140133
30
0
41
1
10
6.23934205996875
20
16.7380261851795
30
0
41
1
10
6.24248792875679
20
16.7249647265321
30
0
41
1
10
6.24608058112463
20
16.6988261327843
30
0
41
1
10
6.24658370646358
20
16.6856307507248
30
0
41
1
10
6.245761826783
20
16.6723058693389
30
0
0
SPLINE
5
11F
100
AcDbEntity
8
1
62
256
6
ByLayer
370
18
48
1
60
0
100
AcDbSpline
70
4
71
3
72
12
73
8
40
0
40
0
40
0
40
0
40
0.471008445373103
40
0.471008445373103
40
0.942016890746207
40
0.942016890746207
40
1
40
1
40
1
40
1
41
1
10
6.05003493606145
20
16.8810611410205
30
0
41
1
10
6.05570426926911
20
16.8810611410206
30
0
41
1
10
6.06109857037444
20
16.8808052253719
30
0
41
1
10
6.07029677220436
20
16.8800216221153
30
0
41
1
10
6.07412005468342
20
16.8795157779254
30
0
41
1
10
6.07790042640119
20
16.8789049714904
30
0
41
1
10
6.07830786913115
20
16.8788375140111
30
0
41
1
10
6.07870865954044
20
16.8787695761634
30
0
0
SPLINE
5
120
100
AcDbEntity
8
1
62
256
6
ByLayer
370
18
48
1
60
0
100
AcDbSpline
70
4
71
3
72
8
73
4
40
0
40
0
40
0
40
0
40
1
40
1
40
1
40
1
41
1
10
5.90518397568249
20
10.410968550748
30
0
41
1
10
5.93183697350384
20
10.4110791298352
30
0
41
1
10
5.95963368581201
20
10.3900451678555
30
0
41
1
10
5.98865816740309
20
10.3473411816409
30
0
0
SPLINE
5
121
100
AcDbEntity
8
1
62
256
6
ByLayer
370
18
48
1
60
0
100
AcDbSpline
70
4
71
3
72
8
73
4
40
0
40
0
40
0
40
0
40
1
40
1
40
1
40
1
41
1
10
0.100034936061405
20
-1.07768382233965
30
0
41
0.999945210855034
10
0.066726537251337
20
-1.09713778142306
30
0
41
0.999896260165857
10
0.0333930105033199
20
-1.11658494013929
30
0
41
0.999853147932469
10
3.49360614126E-05
20
-1.13602495681534
30
0
0
SPLINE
5
122
100
AcDbEntity
8
1
62
256
6
ByLayer
370
18
48
1
60
0
100
AcDbSpline
70
4
71
3
72
8
73
4
40
0
40
0
40
0
40
0
40
1
40
1
40
1
40
1
41
1
10
3.4500349360614
20
5.61278461046746
30
0
41
1
10
3.4500349360614
20
5.33445393264159
30
0
41
1
10
3.4500349360614
20
5.04625119458655
30
0
41
1
10
3.4500349360614
20
4.74800361046209
30
0
0
SPLINE
5
123
100
AcDbEntity
8
1
62
256
6
ByLayer
370
18
48
1
60
0
100
AcDbSpline
70
4
71
3
72
22
73
18
40
0
40
0
40
0
40
0
40
0.125
40
0.125
40
0.25
40
0.25
40
0.375
40
0.375
40
0.5
40
0.5
40
0.625
40
0.625
40
0.75
40
0.75
40
0.875
40
0.875
40
1
40
1
40
1
40
1
41
1
10
6.05003493606142
20
8.20606114102074
30
0
41
1
10
6.06374127653183
20
8.20606114102074
30
0
41
1
10
6.07720179365364
20
8.20568802210414
30
0
41
1
10
6.10364699147453
20
8.20421363230085
30
0
41
1
10
6.11677187934512
20
8.2030911811662
30
0
41
1
10
6.1414848218983
20
8.20017053251857
30
0
41
1
10
6.15315170034029
20
8.19837734402228
30
0
41
1
10
6.17510439066763
20
8.19409931674184
30
0
41
1
10
6.18523414302143
20
8.19163470670509
30
0
41
1
10
6.20325467330318
20
8.18620381053967
30
0
41
1
10
6.21131475115681
20
8.18318547932483
30
0
41
1
10
6.22500110784557
20
8.17671591532266
30
0
41
1
10
6.23059073156642
20
8.17329919758723
30
0
41
1
10
6.23934205996872
20
8.16609222411429
30
0
41
1
10
6.24248792875676
20
8.16227862796299
30
0
41
1
10
6.2460805811246
20
8.15456280316482
30
0
41
1
10
6.24658370646355
20
8.15062687523786
30
0
41
1
10
6.24576182678297
20
8.14660970148691
30
0
0
SPLINE
5
124
100
AcDbEntity
8
1
62
256
6
ByLayer
370
18
48
1
60
0
100
AcDbSpline
70
4
71
3
72
9
73
5
40
0
40
0
40
0
40
0
40
0.5
40
1
40
1
40
1
40
1
41
1
10
3.2543229269335
20
8.14636088204878
30
0
41
1
10
3.25423289962018
20
8.14680234211147
30
0
41
1
10
3.25408492942557
20
8.14768314894687
30
0
41
1
10
3.25400051888798
20
8.14855976354653
30
0
41
1
10
3.25397407594184
20
8.14899703054047
30
0
0
SPLINE
5
125
100
AcDbEntity
8
1
62
256
6
ByLayer
370
18
48
1
60
0
100
AcDbSpline
70
4
71
3
72
16
73
12
40
0
40
0
40
0
40
0
40
0.25
40
0.25
40
0.5
40
0.5
40
0.625
40
0.625
40
0.75
40
0.75
40
1
40
1
40
1
40
1
41
1
10
3.38086648617576
20
6.44100307777492
30
0
41
1
10
3.37626941639957
20
6.64140154533251
30
0
41
1
10
3.37009098925301
20
6.82724752487508
30
0
41
1
10
3.35476441418058
20
7.17103875684623
30
0
41
1
10
3.34561530938001
20
7.32898019399323
30
0
41
1
10
3.32964988603169
20
7.5446878447076
30
0
41
1
10
3.32395013207392
20
7.61307408114314
30
0
41
1
10
3.31179020866026
20
7.7424375091623
30
0
41
1
10
3.30538158247825
20
7.80287284856328
30
0
41
1
10
3.285180222897
20
7.9716232419008
30
0
41
1
10
3.2704172274415
20
8.0674404894414
30
0
41
1
10
3.2543229269335
20
8.14636088204878
30
0
0
SPLINE
5
126
100
AcDbEntity
8
1
62
256
6
ByLayer
370
18
48
1
60
0
100
AcDbSpline
70
4
71
3
72
8
73
4
40
0
40
0
40
0
40
0
40
1
40
1
40
1
40
1
41
1
10
3.50924930050866
20
10.3473411816409
30
0
41
1
10
3.53808093583066
20
10.390045904996
30
0
41
1
10
3.56567592033571
20
10.4110614475979
30
0
41
1
10
3.59212078432304
20
10.4109687414423
30
0
0
SPLINE
5
127
100
AcDbEntity
8
1
62
256
6
ByLayer
370
18
48
1
60
0
100
AcDbSpline
70
4
71
3
72
18
73
14
40
0
40
0
40
0
40
0
40
0.249999999999997
40
0.249999999999997
40
0.374999999999996
40
0.374999999999996
40
0.437499999999996
40
0.437499999999996
40
0.499999999999996
40
0.499999999999996
40
0.749999999999998
40
0.749999999999998
40
1
40
1
40
1
40
1
41
1
10
6.24576182678297
20
8.14660970148691
30
0
41
1
10
6.2296360518817
20
8.0677903302614
30
0
41
1
10
6.21488047389101
20
7.97225087713656
30
0
41
1
10
6.1947275946537
20
7.80445777096369
30
0
41
1
10
6.18834140748456
20
7.74443167162983
30
0
41
1
10
6.1792621183703
20
7.64819635417098
30
0
41
1
10
6.17631910533464
20
7.61508433593335
30
0
41
1
10
6.17060143957122
20
7.54677327532761
30
0
41
1
10
6.16782270497674
20
7.51151732607363
30
0
41
1
10
6.15441393116257
20
7.33075638283674
30
0
41
1
10
6.14523650467532
20
7.17209216586707
30
0
41
1
10
6.12993162158077
20
6.82733389106087
30
0
41
1
10
6.12380355407453
20
6.6412406681786
30
0
41
1
10
6.11928271471356
20
6.44100307777504
30
0
0
SPLINE
5
128
100
AcDbEntity
8
1
62
256
6
ByLayer
370
18
48
1
60
0
100
AcDbSpline
70
4
71
3
72
16
73
12
40
0
40
0
40
0
40
0
40
0.125
40
0.125
40
0.25
40
0.25
40
0.5
40
0.5
40
0.75
40
0.75
40
1
40
1
40
1
40
1
41
1
10
3.4500349360614
20
-0.855107624886045
30
0
41
1
10
3.4500349360614
20
-1.08288296053027
30
0
41
1
10
3.4500349360614
20
-1.31022663735641
30
0
41
1
10
3.4500349360614
20
-1.7640530786804
30
0
41
1
10
3.4500349360614
20
-1.99062470804066
30
0
41
1
10
3.4500349360614
20
-2.66547069937306
30
0
41
1
10
3.4500349360614
20
-3.11007686068183
30
0
41
1
10
3.4500349360614
20
-3.98864200991156
30
0
41
1
10
3.4500349360614
20
-4.41728658344741
30
0
41
1
10
3.4500349360614
20
-5.25258504029821
30
0
41
1
10
3.4500349360614
20
-5.65944489257538
30
0
41
1
10
3.4500349360614
20
-6.05526494151962
30
0
0
SPLINE
5
129
100
AcDbEntity
8
1
62
256
6
ByLayer
370
18
48
1
60
0
100
AcDbSpline
70
4
71
3
72
8
73
4
40
0
40
0
40
0
40
0
40
1
40
1
40
1
40
1
41
1
10
3.92079678479144
20
-0.845221081829095
30
0
41
1
10
3.76387645819912
20
-0.848520072217269
30
0
41
1
10
3.60695584104448
20
-0.85181557929252
30
0
41
1
10
3.4500349360614
20
-0.855107624886045
30
0
0
SPLINE
5
12A
100
AcDbEntity
8
1
62
256
6
ByLayer
370
18
48
1
60
0
100
AcDbSpline
70
4
71
3
72
22
73
18
40
0
40
0
40
0
40
0
40
0.125
40
0.125
40
0.25
40
0.25
40
0.375
40
0.375
40
0.5
40
0.5
40
0.625
40
0.625
40
0.75
40
0.75
40
0.875
40
0.875
40
1
40
1
40
1
40
1
41
1
10
6.05003493606142
20
-9.14393885897931
30
0
41
1
10
6.06374127653183
20
-9.14393885897931
30
0
41
1
10
6.07720179365364
20
-9.1429177819202
30
0
41
1
10
6.10364699147453
20
-9.13890347742503
30
0
41
1
10
6.11677187934512
20
-9.1358530754826
30
0
41
1
10
6.1414848218983
20
-9.12798151483241
30
0
41
1
10
6.15315170034029
20
-9.12317353277894
30
0
41
1
10
6.17510439066763
20
-9.11182920215893
30
0
41
1
10
6.18523414302143
20
-9.10534853186348
30
0
41
1
10
6.20325467330318
20
-9.09125295289746
30
0
41
1
10
6.21131475115681
20
-9.08350358359709
30
0
41
1
10
6.22500110784557
20
-9.0671349218469
30
0
41
1
10
6.23059073156642
20
-9.05860117540553
30
0
41
1
10
6.23934205996872
20
-9.04087282004471
30
0
41
1
10
6.24248792875676
20
-9.03162495754859
30
0
41
1
10
6.2460805811246
20
-9.01320218859891
30
0
41
1
10
6.24658370646355
20
-9.00394273446642
30
0
41
1
10
6.24576182678297
20
-8.9946350268315
30
0
0
SPLINE
5
12B
100
AcDbEntity
8
1
62
256
6
ByLayer
370
18
48
1
60
0
100
AcDbSpline
70
4
71
3
72
18
73
14
40
0
40
0
40
0
40
0
40
0.250000000000003
40
0.250000000000003
40
0.375000000000004
40
0.375000000000004
40
0.437500000000003
40
0.437500000000003
40
0.500000000000002
40
0.500000000000002
40
0.750000000000001
40
0.750000000000001
40
1
40
1
40
1
40
1
41
1
10
6.24576182678297
20
-8.9946350268315
30
0
41
1
10
6.2296360518817
20
-8.81201219077414
30
0
41
1
10
6.21488047389101
20
-8.64430227652687
30
0
41
1
10
6.1947275946537
20
-8.41457628771289
30
0
41
1
10
6.18834140748456
20
-8.34165361538678
30
0
41
1
10
6.1792621183703
20
-8.23779645053261
30
0
41
1
10
6.17631910533464
20
-8.20409932435231
30
0
41
1
10
6.17060143957122
20
-8.13856665321342
30
0
41
1
10
6.16782270497674
20
-8.10668419316116
30
0
41
1
10
6.15441393116257
20
-7.95265741696934
30
0
41
1
10
6.1452365046753
20
-7.8466674311417
30
0
41
1
10
6.12993162158077
20
-7.66831449307006
30
0
41
1
10
6.12380355407453
20
-7.59595053435206
30
0
41
1
10
6.11928271471356
20
-7.54092542413358
30
0
0
SPLINE
5
12C
100
AcDbEntity
8
1
62
256
6
ByLayer
370
18
48
1
60
0
100
AcDbSpline
70
4
71
3
72
8
73
4
40
0
40
0
40
0
40
0
40
1
40
1
40
1
40
1
41
1
10
5.58149538476212
20
-0.945625745894347
30
0
41
1
10
5.59187552883816
20
-1.08002284244594
30
0
41
1
10
5.60234969110158
20
-1.2144181134914
30
0
41
1
10
5.61290144892644
20
-1.34881184005724
30
0
0
SPLINE
5
12D
100
AcDbEntity
8
1
62
256
6
ByLayer
370
18
48
1
60
0
100
AcDbSpline
70
4
71
3
72
18
73
14
40
0
40
0
40
0
40
0
40
0.250000000000001
40
0.250000000000001
40
0.500000000000001
40
0.500000000000001
40
0.562500000000001
40
0.562500000000001
40
0.625000000000001
40
0.625000000000001
40
0.750000000000001
40
0.750000000000001
40
1
40
1
40
1
40
1
41
1
10
5.61290144892644
20
-1.34881184005724
30
0
41
1
10
5.63393264772523
20
-1.61653754166326
30
0
41
1
10
5.65754417370781
20
-1.91769977472919
30
0
41
1
10
5.71008195454527
20
-2.58418861788829
30
0
41
1
10
5.73900588107401
20
-2.94951783914081
30
0
41
1
10
5.77882295491045
20
-3.44770610599113
30
0
41
1
10
5.78694892037686
20
-3.5491606657059
30
0
41
1
10
5.80344380221504
20
-3.75461520293686
30
0
41
1
10
5.81182519999865
20
-3.85877144784951
30
0
41
1
10
5.83737404415669
20
-4.17547258218616
30
0
41
1
10
5.85494556441179
20
-4.39224327774468
30
0
41
1
10
5.90931972377351
20
-5.05927588646645
30
0
41
1
10
5.94777068985959
20
-5.52614943283118
30
0
41
1
10
5.98865816740309
20
-6.01598339718262
30
0
0
SPLINE
5
12E
100
AcDbEntity
8
1
62
256
6
ByLayer
370
18
48
1
60
0
100
AcDbSpline
70
4
71
3
72
8
73
4
40
0
40
0
40
0
40
0
40
1
40
1
40
1
40
1
41
0.999853147932469
10
3.49360614126E-05
20
-3.37529610798659
30
0
41
0.999896260165857
10
0.0333930105033199
20
-3.39306218881983
30
0
41
0.999945210855034
10
0.066726537251337
20
-3.41079374821803
30
0
41
1
10
0.100034936061405
20
-3.42849048067598
30
0
0
SPLINE
5
12F
100
AcDbEntity
8
1
62
256
6
ByLayer
370
18
48
1
60
0
100
AcDbSpline
70
4
71
3
72
8
73
4
40
0
40
0
40
0
40
0
40
1
40
1
40
1
40
1
41
1
10
0.100034936061405
20
0.12647099746971
30
0
41
0.999507799161098
10
0.066934338765579
20
0.105325651185464
30
0
41
0.999070271710491
10
0.0335992832131584
20
0.0841124526487582
30
0
41
0.998687417648178
10
3.4936061373E-05
20
0.062834796646268
30
0
0
SPLINE
5
130
100
AcDbEntity
8
1
62
256
6
ByLayer
370
18
48
1
60
0
100
AcDbSpline
70
4
71
3
72
8
73
4
40
0
40
0
40
0
40
0
40
1
40
1
40
1
40
1
41
0.998687417648178
10
3.4936061373E-05
20
2.02499714244127
30
0
41
0.999070271710491
10
0.0335992832131584
20
2.02046017881864
30
0
41
0.999507799161098
10
0.0669343387655791
20
2.01565229063694
30
0
41
1
10
0.100034936061405
20
2.01057462209764
30
0
0
SPLINE
5
131
100
AcDbEntity
8
1
62
256
6
ByLayer
370
18
48
1
60
0
100
AcDbSpline
70
4
71
3
72
8
73
4
40
0
40
0
40
0
40
0
40
1
40
1
40
1
40
1
41
1
10
0.100034936061405
20
1.38067787643467
30
0
41
0.999507799161098
10
0.0669343387655791
20
1.39564793952385
30
0
41
0.999070271710491
10
0.0335992832131584
20
1.4104182920961
30
0
41
0.998687417648178
10
3.4936061373E-05
20
1.4249862458506
30
0
0
INSERT
5
15E
100
AcDbEntity
8
2
62
256
6
ByLayer
370
25
48
1
60
0
100
AcDbBlockReference
2
DimnDraft3D44
10
0
20
0
30
0
41
1
42
1
43
1
50
0
210
0
220
0
230
1
0
LINE
5
73
100
AcDbEntity
8
1
62
256
6
ByLayer
370
18
48
1
60
1
100
AcDbLine
10
0
20
0
30
0
11
0
21
297
31
0
39
0
210
0
220
0
230
1
0
LINE
5
74
100
AcDbEntity
8
1
62
256
6
ByLayer
370
18
48
1
60
1
100
AcDbLine
10
420
20
297
30
0
11
0
21
297
31
0
39
0
210
0
220
0
230
1
0
LINE
5
75
100
AcDbEntity
8
1
62
256
6
ByLayer
370
18
48
1
60
1
100
AcDbLine
10
420
20
297
30
0
11
420
21
0
31
0
39
0
210
0
220
0
230
1
0
LINE
5
76
100
AcDbEntity
8
1
62
256
6
ByLayer
370
18
48
1
60
1
100
AcDbLine
10
0
20
0
30
0
11
420
21
0
31
0
39
0
210
0
220
0
230
1
0
LINE
5
77
100
AcDbEntity
8
1
62
256
6
ByLayer
370
18
48
1
60
0
100
AcDbLine
10
0.100035
20
-0.468939
30
0
11
3.450035
21
-0.468939
31
0
39
0
210
0
220
0
230
1
0
LINE
5
78
100
AcDbEntity
8
1
62
256
6
ByLayer
370
18
48
1
60
0
100
AcDbLine
10
0.100035
20
-6.468939
30
0
11
3.450035
21
-6.468939
31
0
39
0
210
0
220
0
230
1
0
LINE
5
79
100
AcDbEntity
8
1
62
256
6
ByLayer
370
18
48
1
60
0
100
AcDbLine
10
5.905424
20
10.410934
30
0
11
3.591939
21
10.410934
31
0
39
0
210
0
220
0
230
1
0
LINE
5
7A
100
AcDbEntity
8
SK1
62
256
6
ByLayer
370
13
48
1
60
0
100
AcDbLine
10
-0.843406
20
-5.87111
30
0
11
-0.843406
21
-2.921605
31
0
39
0
210
0
220
0
230
1
0
LINE
5
7C
100
AcDbEntity
8
1
62
256
6
ByLayer
370
13
48
1
60
0
100
AcDbLine
10
3.5E-05
20
-6.169983
30
0
11
3.5E-05
21
-3.375346
31
0
39
0
210
0
220
0
230
1
0
LINE
5
7D
100
AcDbEntity
8
1
62
256
6
ByLayer
370
13
48
1
60
0
100
AcDbLine
10
3.5E-05
20
-1.136025
30
0
11
3.5E-05
21
-3.375296
31
0
39
0
210
0
220
0
230
1
0
LINE
5
7E
100
AcDbEntity
8
1
62
256
6
ByLayer
370
13
48
1
60
0
100
AcDbLine
10
3.5E-05
20
-1.136025
30
0
11
3.5E-05
21
0.062835
31
0
39
0
210
0
220
0
230
1
0
LINE
5
7F
100
AcDbEntity
8
SK1
62
256
6
ByLayer
370
18
48
1
60
0
100
AcDbLine
10
-0.843406
20
-1.623033
30
0
11
-0.843406
21
-0.456318
31
0
39
0
210
0
220
0
230
1
0
LINE
5
80
100
AcDbEntity
8
SK1
62
256
6
ByLayer
370
18
48
1
60
0
100
AcDbLine
10
-0.843406
20
-1.623033
30
0
11
-0.843406
21
-2.921567
31
0
39
0
210
0
220
0
230
1
0
LINE
5
81
100
AcDbEntity
8
SK1
62
256
6
ByLayer
370
13
48
1
60
0
100
AcDbLine
10
-0.843406
20
6.435268
30
0
11
-0.843406
21
2.08103
31
0
39
0
210
0
220
0
230
1
0
LINE
5
82
100
AcDbEntity
8
SK1
62
256
6
ByLayer
370
13
48
1
60
0
100
AcDbLine
10
-0.843406
20
2.081061
30
0
11
-0.843406
21
1.733089
31
0
39
0
210
0
220
0
230
1
0
LINE
5
83
100
AcDbEntity
8
1
62
256
6
ByLayer
370
13
48
1
60
0
100
AcDbLine
10
3.5E-05
20
1.424986
30
0
11
3.5E-05
21
2.024995
31
0
39
0
210
0
220
0
230
1
0
LINE
5
84
100
AcDbEntity
8
1
62
256
6
ByLayer
370
13
48
1
60
0
100
AcDbLine
10
3.5E-05
20
2.024997
30
0
11
3.5E-05
21
6.499203
31
0
39
0
210
0
220
0
230
1
0
LINE
5
85
100
AcDbEntity
8
1
62
256
6
ByLayer
370
18
48
1
60
0
100
AcDbLine
10
3.5E-05
20
2.024997
30
0
11
3.5E-05
21
6.499203
31
0
39
0
210
0
220
0
230
1
0
LINE
5
86
100
AcDbEntity
8
1
62
256
6
ByLayer
370
18
48
1
60
0
100
AcDbLine
10
3.5E-05
20
-6.169983
30
0
11
3.5E-05
21
-3.375346
31
0
39
0
210
0
220
0
230
1
0
LINE
5
87
100
AcDbEntity
8
1
62
256
6
ByLayer
370
18
48
1
60
0
100
AcDbLine
10
6.050035
20
4.77386
30
0
11
6.050035
21
3.77026
31
0
39
0
210
0
220
0
230
1
0
LINE
5
88
100
AcDbEntity
8
1
62
256
6
ByLayer
370
18
48
1
60
0
100
AcDbLine
10
6.050035
20
3.77026
30
0
11
6.050035
21
0.471516
31
0
39
0
210
0
220
0
230
1
0
LINE
5
89
100
AcDbEntity
8
1
62
256
6
ByLayer
370
18
48
1
60
0
100
AcDbLine
10
6.050035
20
0.471516
30
0
11
6.050035
21
-0.95526
31
0
39
0
210
0
220
0
230
1
0
LINE
5
8A
100
AcDbEntity
8
1
62
256
6
ByLayer
370
18
48
1
60
0
100
AcDbLine
10
6.050035
20
-6.081248
30
0
11
6.050035
21
-6.746933
31
0
39
0
210
0
220
0
230
1
0
LINE
5
8B
100
AcDbEntity
8
1
62
256
6
ByLayer
370
18
48
1
60
0
100
AcDbLine
10
6.050035
20
-9.143937
30
0
11
6.050035
21
-10.10522
31
0
39
0
210
0
220
0
230
1
0
LINE
5
8C
100
AcDbEntity
8
1
62
256
6
ByLayer
370
18
48
1
60
0
100
AcDbLine
10
6.050035
20
10.379056
30
0
11
6.050035
21
9.867738
31
0
39
0
210
0
220
0
230
1
0
LINE
5
8D
100
AcDbEntity
8
1
62
256
6
ByLayer
370
18
48
1
60
0
100
AcDbLine
10
3.450035
20
4.748004
30
0
11
3.450035
21
3.77026
31
0
39
0
210
0
220
0
230
1
0
LINE
5
8E
100
AcDbEntity
8
1
62
256
6
ByLayer
370
18
48
1
60
0
100
AcDbLine
10
3.450035
20
10.33433
30
0
11
3.450035
21
9.882397
31
0
39
0
210
0
220
0
230
1
0
LINE
5
8F
100
AcDbEntity
8
1
62
256
6
ByLayer
370
18
48
1
60
0
100
AcDbLine
10
5.612901
20
-1.348812
30
0
11
3.882077
21
-1.348812
31
0
39
0
210
0
220
0
230
1
0
LINE
5
90
100
AcDbEntity
8
1
62
256
6
ByLayer
370
18
48
1
60
0
100
AcDbLine
10
5.612901
20
-10.888939
30
0
11
3.882077
21
-10.888939
31
0
39
0
210
0
220
0
230
1
0
LINE
5
91
100
AcDbEntity
8
1
62
256
6
ByLayer
370
13
48
1
60
0
100
AcDbLine
10
6.050035
20
3.77026
30
0
11
3.450035
21
3.77026
31
0
39
0
210
0
220
0
230
1
0
LINE
5
92
100
AcDbEntity
8
1
62
256
6
ByLayer
370
18
48
1
60
0
100
AcDbLine
10
3.450035
20
3.77026
30
0
11
3.450035
21
0.471516
31
0
39
0
210
0
220
0
230
1
0
LINE
5
93
100
AcDbEntity
8
1
62
256
6
ByLayer
370
13
48
1
60
0
100
AcDbLine
10
6.050035
20
0.471516
30
0
11
3.450035
21
0.471516
31
0
39
0
210
0
220
0
230
1
0
LINE
5
94
100
AcDbEntity
8
1
62
256
6
ByLayer
370
18
48
1
60
0
100
AcDbLine
10
3.450035
20
0.471516
30
0
11
3.450035
21
-0.855108
31
0
39
0
210
0
220
0
230
1
0
LINE
5
95
100
AcDbEntity
8
1
62
256
6
ByLayer
370
18
48
1
60
0
100
AcDbLine
10
3.450035
20
-6.062679
30
0
11
3.450035
21
-6.727228
31
0
39
0
210
0
220
0
230
1
0
LINE
5
96
100
AcDbEntity
8
1
62
256
6
ByLayer
370
18
48
1
60
0
100
AcDbLine
10
3.450035
20
-9.143898
30
0
11
3.450035
21
-9.905778
31
0
39
0
210
0
220
0
230
1
0
LINE
5
97
100
AcDbEntity
8
1
62
256
6
ByLayer
370
18
48
1
60
0
100
AcDbLine
10
3.5E-05
20
1.424986
30
0
11
3.5E-05
21
2.024995
31
0
39
0
210
0
220
0
230
1
0
LINE
5
98
100
AcDbEntity
8
1
62
256
6
ByLayer
370
18
48
1
60
0
100
AcDbLine
10
0.100035
20
6.531061
30
0
11
3.378533
21
6.531061
31
0
39
0
210
0
220
0
230
1
0
LINE
5
99
100
AcDbEntity
8
1
62
256
6
ByLayer
370
18
48
1
60
0
100
AcDbLine
10
3.5E-05
20
-1.136025
30
0
11
3.5E-05
21
0.062835
31
0
39
0
210
0
220
0
230
1
0
LINE
5
9A
100
AcDbEntity
8
1
62
256
6
ByLayer
370
18
48
1
60
0
100
AcDbLine
10
6.147832
20
-17.757547
30
0
11
3.361101
21
-17.757547
31
0
39
0
210
0
220
0
230
1
0
LINE
5
9B
100
AcDbEntity
8
1
62
256
6
ByLayer
370
18
48
1
60
0
100
AcDbLine
10
5.988658
20
-16.832263
30
0
11
3.509249
21
-16.832263
31
0
39
0
210
0
220
0
230
1
0
LINE
5
9C
100
AcDbEntity
8
1
62
256
6
ByLayer
370
18
48
1
60
0
100
AcDbLine
10
6.147832
20
-8.68023
30
0
11
3.361101
21
-8.68023
31
0
39
0
210
0
220
0
230
1
0
LINE
5
9D
100
AcDbEntity
8
1
62
256
6
ByLayer
370
18
48
1
60
0
100
AcDbLine
10
5.988658
20
-6.015983
30
0
11
3.509249
21
-6.015983
31
0
39
0
210
0
220
0
230
1
0
LINE
5
9E
100
AcDbEntity
8
1
62
256
6
ByLayer
370
18
48
1
60
0
100
AcDbLine
10
6.147832
20
8.608378
30
0
11
3.361101
21
8.608378
31
0
39
0
210
0
220
0
230
1
0
LINE
5
9F
100
AcDbEntity
8
1
62
256
6
ByLayer
370
18
48
1
60
0
100
AcDbLine
10
5.988658
20
10.347341
30
0
11
3.509249
21
10.347341
31
0
39
0
210
0
220
0
230
1
0
LINE
5
A0
100
AcDbEntity
8
1
62
256
6
ByLayer
370
18
48
1
60
0
100
AcDbLine
10
0.100035
20
-6.468931
30
0
11
0.100035
21
-6.531117
31
0
39
0
210
0
220
0
230
1
0
LINE
5
A1
100
AcDbEntity
8
1
62
256
6
ByLayer
370
18
48
1
60
0
100
AcDbLine
10
0.100035
20
-6.531117
30
0
11
3.450035
21
-6.531117
31
0
39
0
210
0
220
0
230
1
0
LINE
5
A2
100
AcDbEntity
8
1
62
256
6
ByLayer
370
18
48
1
60
0
100
AcDbLine
10
0.100035
20
-6.468939
30
0
11
0.100035
21
-4.42114
31
0
39
0
210
0
220
0
230
1
0
LINE
5
A3
100
AcDbEntity
8
1
62
256
6
ByLayer
370
18
48
1
60
0
100
AcDbLine
10
6.050035
20
-17.818939
30
0
11
3.450035
21
-17.818939
31
0
39
0
210
0
220
0
230
1
0
LINE
5
A4
100
AcDbEntity
8
1
62
256
6
ByLayer
370
18
48
1
60
0
100
AcDbLine
10
0.100035
20
-3.968944
30
0
11
0.100035
21
-4.42114
31
0
39
0
210
0
220
0
230
1
0
LINE
5
A5
100
AcDbEntity
8
1
62
256
6
ByLayer
370
13
48
1
60
0
100
AcDbLine
10
0.100035
20
-4.42114
30
0
11
3.450035
21
-4.42114
31
0
39
0
210
0
220
0
230
1
0
LINE
5
A6
100
AcDbEntity
8
1
62
256
6
ByLayer
370
18
48
1
60
0
100
AcDbLine
10
0.100035
20
6.531061
30
0
11
0.100035
21
5.416775
31
0
39
0
210
0
220
0
230
1
0
LINE
5
A7
100
AcDbEntity
8
1
62
256
6
ByLayer
370
13
48
1
60
0
100
AcDbLine
10
0.100035
20
5.416775
30
0
11
3.450035
21
5.416775
31
0
39
0
210
0
220
0
230
1
0
LINE
5
A8
100
AcDbEntity
8
1
62
256
6
ByLayer
370
18
48
1
60
0
100
AcDbLine
10
3.380866
20
13.51299
30
0
11
6.119283
21
13.51299
31
0
39
0
210
0
220
0
230
1
0
LINE
5
A9
100
AcDbEntity
8
1
62
256
6
ByLayer
370
18
48
1
60
0
100
AcDbLine
10
6.050035
20
16.881061
30
0
11
3.450035
21
16.881061
31
0
39
0
210
0
220
0
230
1
0
LINE
5
AA
100
AcDbEntity
8
1
62
256
6
ByLayer
370
18
48
1
60
0
100
AcDbLine
10
0.100035
20
-0.468939
30
0
11
0.100035
21
-1.077684
31
0
39
0
210
0
220
0
230
1
0
LINE
5
AB
100
AcDbEntity
8
1
62
256
6
ByLayer
370
18
48
1
60
0
100
AcDbLine
10
0.100035
20
0.696551
30
0
11
0.100035
21
-0.468939
31
0
39
0
210
0
220
0
230
1
0
LINE
5
AC
100
AcDbEntity
8
1
62
256
6
ByLayer
370
18
48
1
60
0
100
AcDbLine
10
0.100035
20
5.416775
30
0
11
0.100035
21
0.696551
31
0
39
0
210
0
220
0
230
1
0
LINE
5
AD
100
AcDbEntity
8
1
62
256
6
ByLayer
370
13
48
1
60
0
100
AcDbLine
10
0.100035
20
0.696551
30
0
11
3.450035
21
0.696551
31
0
39
0
210
0
220
0
230
1
0
LINE
5
AE
100
AcDbEntity
8
1
62
256
6
ByLayer
370
18
48
1
60
0
100
AcDbLine
10
6.050035
20
-9.143939
30
0
11
3.450035
21
-9.143939
31
0
39
0
210
0
220
0
230
1
0
LINE
5
AF
100
AcDbEntity
8
1
62
256
6
ByLayer
370
18
48
1
60
0
100
AcDbLine
10
3.380866
20
6.441003
30
0
11
6.119283
21
6.441003
31
0
39
0
210
0
220
0
230
1
0
LINE
5
B0
100
AcDbEntity
8
1
62
256
6
ByLayer
370
18
48
1
60
0
100
AcDbLine
10
6.050035
20
8.206061
30
0
11
3.450035
21
8.206061
31
0
39
0
210
0
220
0
230
1
0
LINE
5
B1
100
AcDbEntity
8
1
62
256
6
ByLayer
370
18
48
1
60
0
100
AcDbLine
10
0.100035
20
-3.968939
30
0
11
3.450035
21
-3.968939
31
0
39
0
210
0
220
0
230
1
0
LINE
5
B2
100
AcDbEntity
8
1
62
256
6
ByLayer
370
18
48
1
60
0
100
AcDbLine
10
0.100035
20
-3.42849
30
0
11
0.100035
21
-3.968939
31
0
39
0
210
0
220
0
230
1
0
LINE
5
B3
100
AcDbEntity
8
1
62
256
6
ByLayer
370
18
48
1
60
0
100
AcDbLine
10
3.5E-05
20
-1.136025
30
0
11
3.5E-05
21
-3.375296
31
0
39
0
210
0
220
0
230
1
0
LINE
5
B4
100
AcDbEntity
8
80
62
256
6
ByLayer
370
18
48
1
60
0
100
AcDbLine
10
0
20
0
30
0
11
-1.694118
21
0
31
0
39
0
210
0
220
0
230
1
0
LINE
5
B5
100
AcDbEntity
8
4
62
256
6
ByLayer
370
18
48
0.05
60
0
100
AcDbLine
10
0
20
0
30
0
11
7.488658
21
0
31
0
39
0
210
0
220
0
230
1
0
LINE
5
B7
100
AcDbEntity
8
SK4
62
256
6
ByLayer
370
18
48
0.05
60
0
100
AcDbLine
10
-1.694118
20
0
30
0
11
8.696244
21
0
31
0
39
0
210
0
220
0
230
1
0
LINE
5
B9
100
AcDbEntity
8
81
62
256
6
ByLayer
370
18
48
1
60
0
100
AcDbLine
10
6.050035
20
16.881061
30
0
11
6.544584
21
16.881061
31
0
39
0
210
0
220
0
230
1
0
MTEXT
5
132
100
AcDbEntity
8
SK6
62
256
6
ByLayer
370
18
48
1
60
0
100
AcDbMText
10
-17.329058
20
-33.188631
30
0
210
0
220
0
230
1
1
\W0.7377;327R14-35 30002-GMM
40
3.5
41
0
44
1.084337
50
0
71
7
72
5
7
iso_b_vert
0
DIMENSION
5
140
100
AcDbEntity
8
2
62
256
6
ByLayer
370
13
48
1
60
0
100
AcDbDimension
2
DimnDraft3D1
10
25.052804
20
-17.818939
30
0
11
25.052804
21
-8.653143
31
0
70
32
71
5
72
1
41
1
210
0
220
0
230
1
3
Standard
100
AcDbAlignedDimension
13
7.637535
23
16.881061
33
0
14
7.637535
24
-17.818939
34
0
50
90
100
AcDbRotatedDimension
1001
ACAD
1000
DSTYLE
1002
{
1070
    74
1070
     0
1070
   279
1070
     0
1070
   172
1070
     1
1070
   173
1070
     1
1070
   340
1005
133
1070
   271
1070
     2
1070
   272
1070
     2
1070
    77
1070
     1
1070
    73
1070
     0
1070
   171
1070
     3
1070
   274
1070
     4
1070
   177
1070
     7
1070
   176
1070
     7
1070
   178
1070
     7
1070
    78
1070
     8
1070
    48
1040
-0.005
1070
    41
1041
3.5
1070
   147
1041
1.75
1070
    42
1041
1.5875
1070
    44
1041
2.0
1070
   140
1041
3.5
1070
   343
1005
0
1070
   344
1005
0
1002
}
0
DIMENSION
5
14A
100
AcDbEntity
8
2
62
256
6
ByLayer
370
13
48
1
60
0
100
AcDbDimension
2
DimnDraft3D2
10
6.245762
20
23.625817
30
0
11
11.749274
21
23.625817
31
0
70
32
71
5
72
1
41
1
210
0
220
0
230
1
3
Standard
100
AcDbAlignedDimension
13
3.253974
23
18.267741
33
0
14
6.245762
24
18.259806
34
0
50
0
100
AcDbRotatedDimension
1001
ACAD
1000
DSTYLE
1002
{
1070
   279
1070
     0
1070
   172
1070
     1
1070
   173
1070
     1
1070
   340
1005
133
1070
   271
1070
     0
1070
   272
1070
     2
1070
    77
1070
     1
1070
    73
1070
     0
1070
   171
1070
     3
1070
   274
1070
     4
1070
   177
1070
     7
1070
   176
1070
     7
1070
   178
1070
     7
1070
    78
1070
     8
1070
    48
1040
-0.005
1070
    41
1041
3.5
1070
   147
1041
1.75
1070
    42
1041
1.5875
1070
    44
1041
2.0
1070
   140
1041
3.5
1070
   343
1005
0
1070
   344
1005
0
1002
}
0
DIMENSION
5
154
100
AcDbEntity
8
2
62
256
6
ByLayer
370
13
48
1
60
0
100
AcDbDimension
2
DimnDraft3D3
10
6.245762
20
35.062816
30
0
11
12.506866
21
35.062816
31
0
70
32
71
5
72
1
41
1
210
0
220
0
230
1
3
Standard
100
AcDbAlignedDimension
13
3.5E-05
23
8.086703
33
0
14
6.245762
24
18.259806
34
0
50
0
100
AcDbRotatedDimension
1001
ACAD
1000
DSTYLE
1002
{
1070
   279
1070
     0
1070
   172
1070
     1
1070
   173
1070
     1
1070
   340
1005
133
1070
   271
1070
     0
1070
   272
1070
     2
1070
    77
1070
     1
1070
    73
1070
     0
1070
   171
1070
     3
1070
   274
1070
     4
1070
   177
1070
     7
1070
   176
1070
     7
1070
   178
1070
     7
1070
    78
1070
     8
1070
    48
1040
-0.005
1070
    41
1041
3.5
1070
   147
1041
1.75
1070
    42
1041
1.5875
1070
    44
1041
2.0
1070
   140
1041
3.5
1070
   343
1005
0
1070
   344
1005
0
1002
}
0
DIMENSION
5
169
100
AcDbEntity
8
SK2
62
256
6
ByLayer
370
13
48
1
60
0
100
AcDbDimension
2
DimnDraft3D5
10
-12.583155
20
-6
30
0
11
-12.583155
21
-5.632237
31
0
70
32
71
5
72
1
41
1
210
0
220
0
230
1
3
Standard
100
AcDbAlignedDimension
13
-1.587465
23
6
33
0
14
-1.587465
24
-6
34
0
50
90
100
AcDbRotatedDimension
1001
ACAD
1000
DSTYLE
1002
{
1070
    74
1070
     0
1070
   279
1070
     0
1070
   172
1070
     1
1070
   173
1070
     1
1070
   340
1005
133
1070
   271
1070
     2
1070
   272
1070
     2
1070
    77
1070
     1
1070
    73
1070
     0
1070
   171
1070
     3
1070
   274
1070
     4
1070
   177
1070
     7
1070
   176
1070
     7
1070
   178
1070
     7
1070
    78
1070
     8
1070
    48
1040
-0.005
1070
    41
1041
3.5
1070
   147
1041
1.75
1070
    42
1041
1.5875
1070
    44
1041
2.0
1070
   140
1041
3.5
1070
   343
1005
0
1070
   344
1005
0
1002
}
0
ENDSEC
0
SECTION
2
OBJECTS
0
DICTIONARY
5
1d4
330
0
100
AcDbDictionary
280
0
281
1
3
ACAD_GROUP
350
1d5
3
ACAD_MLINESTYLE
350
1d6
0
DICTIONARY
5
1d5
330
0
100
AcDbDictionary
280
0
281
1
0
DICTIONARY
5
1d6
330
0
100
AcDbDictionary
280
0
281
1
3
Standard
350
18
0
MLINESTYLE
5
18
330
1d6
100
AcDbMlineStyle
2
Standard
70
0
3

62
256
51
90
52
90
71
2
49
-0.5
62
256
6
ByLayer
49
0.5
62
256
6
ByLayer
0
RASTERVARIABLES
5
1c2
330

100
AcDbRasterVariables
90
0
70
1
71
1
72
1
0
ENDSEC
0
EOF
