0
SECTION
2
HEADER
9
$ACADVER
1
AC1015
9
$DWGCODEPAGE
3
ANSI_1252
9
$HANDSEED
5
1df
9
$ANGBASE
50
0
9
$ANGDIR
70
0
9
$ATTMODE
70
1
9
$AUNITS
70
0
9
$AUPREC
70
0
9
$CECOLOR
62
256
9
$CELTSCALE
40
1
9
$CELTYPE
6
ByLayer
9
$CELWEIGHT
370
18
9
$CLAYER
8
0
9
$CMLJUST
70
0
9
$CMLSCALE
40
1
9
$CMLSTYLE
2
Standard
9
$DIMSTYLE
2
Standard
9
$TEXTSIZE
40
0.2
9
$TEXTSTYLE
7
Standard
9
$LUNITS
70
2
9
$LUPREC
70
4
9
$EXTNAMES
290
1
9
$INSUNITS
70
4
9
$LTSCALE
40
1
9
$LWDISPLAY
290
1
9
$PDMODE
70
0
9
$PDSIZE
40
0
9
$PLINEGEN
70
0
0
ENDSEC
0
SECTION
2
CLASSES
0
CLASS
1
RASTERVARIABLES
2
AcDbRasterVariables
3
ISM
90
0
280
0
281
0
0
ENDSEC
0
SECTION
2
TABLES
0
TABLE
2
VPORT
5
1d5
100
AcDbSymbolTable
0
VPORT
5
1
100
AcDbSymbolTableRecord
100
AcDbViewportTableRecord
2
*Active
70
0
10
0
20
0
11
1
21
1
12
-1
22
1
13
0
23
0
14
0.5
24
0.5
15
10
25
10
16
0
26
0
36
1
17
0
27
0
37
0
0
ENDTAB
0
TABLE
2
LTYPE
5
1d6
100
AcDbSymbolTable
0
LTYPE
5
14
100
AcDbSymbolTableRecord
100
AcDbLinetypeTableRecord
70
0
2
ByBlock
3

72
65
73
0
40
0
0
LTYPE
5
15
100
AcDbSymbolTableRecord
100
AcDbLinetypeTableRecord
70
0
2
ByLayer
3

72
65
73
0
40
0
0
LTYPE
5
16
100
AcDbSymbolTableRecord
100
AcDbLinetypeTableRecord
70
0
2
CONTINUOUS
3
Solid line
72
65
73
0
40
0
0
LTYPE
5
6A
100
AcDbSymbolTableRecord
100
AcDbLinetypeTableRecord
70
0
2
CENTER
3
____ _ ____ _ ____ _ ____
72
65
73
4
40
47.5
49
22
74
0
49
-8.5
74
0
49
8.5
74
0
49
-8.5
74
0
0
LTYPE
5
6B
100
AcDbSymbolTableRecord
100
AcDbLinetypeTableRecord
70
0
2
DASHED
3
__ __ __ __ __ __ __ __ __
72
65
73
2
40
25.72
49
12.86
74
0
49
-12.86
74
0
0
ENDTAB
0
TABLE
2
LAYER
5
1d7
100
AcDbSymbolTable
0
LAYER
5
10
100
AcDbSymbolTableRecord
100
AcDbLayerTableRecord
2
0
70
0
62
7
6
CONTINUOUS
290
1
370
-3
390
0
0
LAYER
5
6D
100
AcDbSymbolTableRecord
100
AcDbLayerTableRecord
2
80
70
0
62
-6
6
CONTINUOUS
290
1
370
-3
390
0
0
LAYER
5
6F
100
AcDbSymbolTableRecord
100
AcDbLayerTableRecord
2
1
70
0
62
4
6
CONTINUOUS
290
1
370
-3
390
0
0
LAYER
5
72
100
AcDbSymbolTableRecord
100
AcDbLayerTableRecord
2
81
70
0
62
-3
6
CONTINUOUS
290
1
370
-3
390
0
0
LAYER
5
B2
100
AcDbSymbolTableRecord
100
AcDbLayerTableRecord
2
4
70
0
62
-2
6
CENTER
290
1
370
-3
390
0
0
LAYER
5
141
100
AcDbSymbolTableRecord
100
AcDbLayerTableRecord
2
2
70
0
62
7
6
CONTINUOUS
290
1
370
-3
390
0
0
LAYER
5
1c1
100
AcDbSymbolTableRecord
100
AcDbLayerTableRecord
2
SK1
70
0
62
4
6
CONTINUOUS
290
1
370
-3
390
0
0
LAYER
5
1c2
100
AcDbSymbolTableRecord
100
AcDbLayerTableRecord
2
SK4
70
0
62
2
6
CENTER
290
1
370
-3
390
0
0
LAYER
5
1c3
100
AcDbSymbolTableRecord
100
AcDbLayerTableRecord
2
SK6
70
0
62
5
6
CONTINUOUS
290
1
370
-3
390
0
0
LAYER
5
1c4
100
AcDbSymbolTableRecord
100
AcDbLayerTableRecord
2
SK2
70
0
62
7
6
CONTINUOUS
290
1
370
-3
390
0
0
ENDTAB
0
TABLE
2
STYLE
5
1d8
100
AcDbSymbolTable
0
STYLE
5
11
100
AcDbSymbolTableRecord
100
AcDbTextStyleTableRecord
2
Standard
3
txt
70
0
71
0
40
0
41
1
42
0
50
0
0
STYLE
5
131
100
AcDbSymbolTableRecord
100
AcDbTextStyleTableRecord
2
iso_b_vert
3
simplex.shx
70
0
71
0
40
0
41
1
42
0
50
0
0
STYLE
5
132
100
AcDbSymbolTableRecord
100
AcDbTextStyleTableRecord
2
DWGDirectTextStyle
3
simplex
70
0
71
0
40
0
41
1
42
0
50
0
0
ENDTAB
0
TABLE
2
DIMSTYLE
5
1d9
100
AcDbSymbolTable
100
AcDbDimStyleTable
0
DIMSTYLE
105
27
100
AcDbSymbolTableRecord
100
AcDbDimStyleTableRecord
2
Standard
70
0
3
<>
41
0.18
42
0.0625
44
0.18
140
0.18
147
0.09
73
0
74
0
77
1
271
2
275
0
278
52
280
0
340
11
0
ENDTAB
0
TABLE
2
VIEW
5
1da
100
AcDbSymbolTable
0
ENDTAB
0
TABLE
2
UCS
5
1db
100
AcDbSymbolTable
0
ENDTAB
0
TABLE
2
APPID
5
1dc
100
AcDbSymbolTable
0
APPID
5
12
100
AcDbSymbolTableRecord
100
AcDbRegAppTableRecord
2
ACAD
70
0
0
ENDTAB
0
TABLE
2
BLOCK_RECORD
5
1dd
100
AcDbSymbolTable
0
BLOCK_RECORD
5
1F
100
AcDbSymbolTableRecord
100
AcDbBlockTableRecord
2
*Model_Space
340
0
70
0
0
BLOCK_RECORD
5
1B
100
AcDbSymbolTableRecord
100
AcDbBlockTableRecord
2
*Paper_Space
340
0
70
0
0
BLOCK_RECORD
5
23
100
AcDbSymbolTableRecord
100
AcDbBlockTableRecord
2
*Paper_Space0
340
0
70
0
0
BLOCK_RECORD
5
134
100
AcDbSymbolTableRecord
100
AcDbBlockTableRecord
2
DimnDraft3D1
340
0
70
0
0
BLOCK_RECORD
5
13F
100
AcDbSymbolTableRecord
100
AcDbBlockTableRecord
2
DimnDraft3D2
340
0
70
0
0
BLOCK_RECORD
5
14A
100
AcDbSymbolTableRecord
100
AcDbBlockTableRecord
2
DimnDraft3D3
340
0
70
0
0
BLOCK_RECORD
5
154
100
AcDbSymbolTableRecord
100
AcDbBlockTableRecord
2
DimnDraft3D44
340
0
70
0
0
BLOCK_RECORD
5
15E
100
AcDbSymbolTableRecord
100
AcDbBlockTableRecord
2
DimnDraft3D5
340
0
70
0
0
ENDTAB
0
ENDSEC
0
SECTION
2
BLOCKS
0
BLOCK
5
20
100
AcDbEntity
8
0
100
AcDbBlockBegin
2
*Model_Space
70
0
10
0
20
0
30
0
3
*Model_Space
0
ENDBLK
5
21
100
AcDbEntity
8
0
100
AcDbBlockEnd
0
BLOCK
5
1C
100
AcDbEntity
8
0
100
AcDbBlockBegin
2
*Paper_Space
70
0
10
0
20
0
30
0
3
*Paper_Space
0
ENDBLK
5
1D
100
AcDbEntity
8
0
100
AcDbBlockEnd
0
BLOCK
5
24
100
AcDbEntity
8
0
100
AcDbBlockBegin
2
*Paper_Space0
70
0
10
0
20
0
30
0
3
*Paper_Space0
0
ENDBLK
5
25
100
AcDbEntity
8
0
100
AcDbBlockEnd
0
BLOCK
5
13C
100
AcDbEntity
8
0
100
AcDbBlockBegin
2
DimnDraft3D1
70
0
10
0
20
0
30
0
3
DimnDraft3D1
0
MTEXT
5
135
100
AcDbEntity
8
SK2
62
256
6
ByLayer
370
18
48
1
60
0
100
AcDbMText
10
-18.949146
20
-4.757237
30
0
210
0
220
0
230
1
1
\W1.2012;%%c12
40
3.5
41
0
44
1.084337
50
90
71
7
72
5
7
iso_b_vert
0
LINE
5
137
100
AcDbEntity
8
SK2
62
256
6
ByLayer
370
13
48
1
60
0
100
AcDbLine
10
-1.58748
20
6
30
0
11
-19.199146
21
6
31
0
39
0
210
0
220
0
230
1
0
LINE
5
138
100
AcDbEntity
8
SK2
62
256
6
ByLayer
370
13
48
1
60
0
100
AcDbLine
10
-1.58748
20
-6
30
0
11
-19.199146
21
-6
31
0
39
0
210
0
220
0
230
1
0
LINE
5
139
100
AcDbEntity
8
SK2
62
256
6
ByLayer
370
13
48
1
60
0
100
AcDbLine
10
-17.199146
20
6
30
0
11
-17.199146
21
-6
31
0
39
0
210
0
220
0
230
1
0
SOLID
5
13A
100
AcDbEntity
8
SK2
62
256
6
ByLayer
370
13
48
1
60
0
100
AcDbTrace
10
-17.199146
20
6
30
0
11
-16.738362
21
2.500002
31
0
12
-17.65993
22
2.499998
32
0
13
-17.199146
23
6
33
0
39
0
210
0
220
0
230
1
0
SOLID
5
13B
100
AcDbEntity
8
SK2
62
256
6
ByLayer
370
13
48
1
60
0
100
AcDbTrace
10
-17.199146
20
-6
30
0
11
-17.65993
21
-2.500002
31
0
12
-16.738362
22
-2.499998
32
0
13
-17.199146
23
-6
33
0
39
0
210
0
220
0
230
1
0
ENDBLK
5
13D
100
AcDbEntity
8
0
100
AcDbBlockEnd
0
BLOCK
5
147
100
AcDbEntity
8
0
100
AcDbBlockBegin
2
DimnDraft3D2
70
0
10
0
20
0
30
0
3
DimnDraft3D2
0
MTEXT
5
140
100
AcDbEntity
8
2
62
256
6
ByLayer
370
18
48
1
60
0
100
AcDbMText
10
13.616977
20
27.25077
30
0
210
0
220
0
230
1
1
\W0.5404;2
40
3.5
41
0
44
1.084337
50
0
71
7
72
5
7
iso_b_vert
0
LINE
5
142
100
AcDbEntity
8
2
62
256
6
ByLayer
370
13
48
1
60
0
100
AcDbLine
10
4.250016
20
18.468613
30
0
11
4.250016
21
28.37577
31
0
39
0
210
0
220
0
230
1
0
LINE
5
143
100
AcDbEntity
8
2
62
256
6
ByLayer
370
13
48
1
60
0
100
AcDbLine
10
6.250024
20
18.468613
30
0
11
6.250024
21
28.37577
31
0
39
0
210
0
220
0
230
1
0
LINE
5
144
100
AcDbEntity
8
2
62
256
6
ByLayer
370
13
48
1
60
0
100
AcDbLine
10
14.307766
20
26.37577
30
0
11
-4.499984
21
26.37577
31
0
39
0
210
0
220
0
230
1
0
SOLID
5
145
100
AcDbEntity
8
2
62
256
6
ByLayer
370
13
48
1
60
0
100
AcDbTrace
10
4.250016
20
26.37577
30
0
11
0.750018
21
25.914986
31
0
12
0.750015
22
26.836553
32
0
13
4.250016
23
26.37577
33
0
39
0
210
0
220
0
230
1
0
SOLID
5
146
100
AcDbEntity
8
2
62
256
6
ByLayer
370
13
48
1
60
0
100
AcDbTrace
10
6.250024
20
26.37577
30
0
11
9.750022
21
26.836553
31
0
12
9.750026
22
25.914986
32
0
13
6.250024
23
26.37577
33
0
39
0
210
0
220
0
230
1
0
ENDBLK
5
148
100
AcDbEntity
8
0
100
AcDbBlockEnd
0
BLOCK
5
151
100
AcDbEntity
8
0
100
AcDbBlockBegin
2
DimnDraft3D3
70
0
10
0
20
0
30
0
3
DimnDraft3D3
0
MTEXT
5
14B
100
AcDbEntity
8
2
62
256
6
ByLayer
370
18
48
1
60
0
100
AcDbMText
10
13.02478
20
35.42309
30
0
210
0
220
0
230
1
1
\W0.7150;6,25
40
3.5
41
0
44
1.084337
50
0
71
7
72
5
7
iso_b_vert
0
LINE
5
14C
100
AcDbEntity
8
2
62
256
6
ByLayer
370
13
48
1
60
0
100
AcDbLine
10
6.250024
20
18.468613
30
0
11
6.250024
21
36.54809
31
0
39
0
210
0
220
0
230
1
0
LINE
5
14D
100
AcDbEntity
8
2
62
256
6
ByLayer
370
13
48
1
60
0
100
AcDbLine
10
0
20
1.5875
30
0
11
0
21
36.54809
31
0
39
0
210
0
220
0
230
1
0
LINE
5
14E
100
AcDbEntity
8
2
62
256
6
ByLayer
370
13
48
1
60
0
100
AcDbLine
10
-8.75
20
34.54809
30
0
11
20.181359
21
34.54809
31
0
39
0
210
0
220
0
230
1
0
SOLID
5
14F
100
AcDbEntity
8
2
62
256
6
ByLayer
370
13
48
1
60
0
100
AcDbTrace
10
6.250024
20
34.54809
30
0
11
9.750022
21
35.008874
31
0
12
9.750026
22
34.087306
32
0
13
6.250024
23
34.54809
33
0
39
0
210
0
220
0
230
1
0
SOLID
5
150
100
AcDbEntity
8
2
62
256
6
ByLayer
370
13
48
1
60
0
100
AcDbTrace
10
0
20
34.54809
30
0
11
-3.499998
21
34.087306
31
0
12
-3.500002
22
35.008874
32
0
13
0
23
34.54809
33
0
39
0
210
0
220
0
230
1
0
ENDBLK
5
152
100
AcDbEntity
8
0
100
AcDbBlockEnd
0
BLOCK
5
155
100
AcDbEntity
8
0
100
AcDbBlockBegin
2
DimnDraft3D44
70
0
10
0
20
0
30
0
3
DimnDraft3D44
0
LINE
5
157
100
AcDbEntity
8
2
62
256
6
ByLayer
370
25
48
1
60
0
100
AcDbLine
10
2.662516
20
6.881113
30
0
11
-11.529521
21
6.881113
31
0
39
0
210
0
220
0
230
1
0
LINE
5
158
100
AcDbEntity
8
2
62
256
6
ByLayer
370
25
48
1
60
0
100
AcDbLine
10
2.86952
20
16.881113
30
0
11
-11.529521
21
16.881113
31
0
39
0
210
0
220
0
230
1
0
LINE
5
159
100
AcDbEntity
8
2
62
256
6
ByLayer
370
25
48
1
60
0
100
AcDbLine
10
-9.529521
20
6.881113
30
0
11
-9.529521
21
16.881113
31
0
39
0
210
0
220
0
230
1
0
SOLID
5
15A
100
AcDbEntity
8
2
62
256
6
ByLayer
370
25
48
1
60
0
100
AcDbTrace
10
-9.529521
20
6.881113
30
0
11
-9.990304
21
10.381111
31
0
12
-9.068737
22
10.381114
32
0
13
-9.529521
23
6.881113
33
0
39
0
210
0
220
0
230
1
0
SOLID
5
15B
100
AcDbEntity
8
2
62
256
6
ByLayer
370
25
48
1
60
0
100
AcDbTrace
10
-9.529521
20
16.881113
30
0
11
-9.068737
21
13.381114
31
0
12
-9.990304
22
13.381111
32
0
13
-9.529521
23
16.881113
33
0
39
0
210
0
220
0
230
1
0
MTEXT
5
15C
100
AcDbEntity
8
2
62
256
6
ByLayer
370
18
48
1
60
0
100
AcDbMText
10
-10.404521
20
11.102823
30
0
210
0
220
0
230
1
1
\W0.5321;10
40
3.5
41
0
44
1.084337
50
90
71
7
72
5
7
iso_b_vert
0
ENDBLK
5
156
100
AcDbEntity
8
0
100
AcDbBlockEnd
0
BLOCK
5
165
100
AcDbEntity
8
0
100
AcDbBlockBegin
2
DimnDraft3D5
70
0
10
0
20
0
30
0
3
DimnDraft3D5
0
MTEXT
5
15F
100
AcDbEntity
8
2
62
256
6
ByLayer
370
18
48
1
60
0
100
AcDbMText
10
19.897745
20
-7.818887
30
0
210
0
220
0
230
1
1
\W1.1446;%%c34,7
40
3.5
41
0
44
1.084337
50
90
71
7
72
5
7
iso_b_vert
0
LINE
5
160
100
AcDbEntity
8
2
62
256
6
ByLayer
370
13
48
1
60
0
100
AcDbLine
10
7.64452
20
16.881113
30
0
11
23.647745
21
16.881113
31
0
39
0
210
0
220
0
230
1
0
LINE
5
161
100
AcDbEntity
8
2
62
256
6
ByLayer
370
13
48
1
60
0
100
AcDbLine
10
7.63752
20
-17.818887
30
0
11
23.647745
21
-17.818887
31
0
39
0
210
0
220
0
230
1
0
LINE
5
162
100
AcDbEntity
8
2
62
256
6
ByLayer
370
13
48
1
60
0
100
AcDbLine
10
21.647745
20
16.881113
30
0
11
21.647745
21
-17.818887
31
0
39
0
210
0
220
0
230
1
0
SOLID
5
163
100
AcDbEntity
8
2
62
256
6
ByLayer
370
13
48
1
60
0
100
AcDbTrace
10
21.647745
20
16.881113
30
0
11
22.108529
21
13.381114
31
0
12
21.186961
22
13.381111
32
0
13
21.647745
23
16.881113
33
0
39
0
210
0
220
0
230
1
0
SOLID
5
164
100
AcDbEntity
8
2
62
256
6
ByLayer
370
13
48
1
60
0
100
AcDbTrace
10
21.647745
20
-17.818887
30
0
11
21.186961
21
-14.318889
31
0
12
22.108529
22
-14.318886
32
0
13
21.647745
23
-17.818887
33
0
39
0
210
0
220
0
230
1
0
ENDBLK
5
166
100
AcDbEntity
8
0
100
AcDbBlockEnd
0
ENDSEC
0
SECTION
2
ENTITIES
0
ELLIPSE
5
B6
100
AcDbEntity
8
1
62
256
6
ByLayer
370
13
48
1
60
0
100
AcDbEllipse
10
6.241344
20
0.74308
30
0
11
1.12171634329934
21
19.7616422734291
31
0
210
0
220
0
230
1
40
0.032702
41
-2.13472052401511
42
-2.08945843479318
0
ELLIPSE
5
B7
100
AcDbEntity
8
1
62
256
6
ByLayer
370
13
48
1
60
0
100
AcDbEllipse
10
4.250141
20
0.856119
30
0
11
-1.12169185160511
21
19.7612107952731
31
0
210
0
220
0
230
1
40
0.032702
41
2.09607100983724
42
2.14234348619019
0
ELLIPSE
5
B8
100
AcDbEntity
8
1
62
256
6
ByLayer
370
18
48
1
60
0
100
AcDbEllipse
10
6.015572
20
2.181113
30
0
11
1.55809217186665E-14
21
13.3005055821164
31
0
210
0
220
0
230
1
40
0.065403
41
2.76457923596285
42
3.1415539642526
0
ELLIPSE
5
B9
100
AcDbEntity
8
1
62
256
6
ByLayer
370
13
48
1
60
0
100
AcDbEllipse
10
6.241344
20
2.181113
30
0
11
2.3187105821606E-14
21
19.7934522733606
31
0
210
0
220
0
230
1
40
0.065403
41
3.10033962227949
42
-3.13758359567816
0
ELLIPSE
5
BA
100
AcDbEntity
8
1
62
256
6
ByLayer
370
18
48
1
60
0
100
AcDbEllipse
10
6.015572
20
0.956329
30
0
11
-0.753754033382194
21
13.2791303780432
31
0
210
0
220
0
230
1
40
0.032702
41
1.97581027723121
42
2.11936680602202
0
ELLIPSE
5
BB
100
AcDbEntity
8
1
62
256
6
ByLayer
370
13
48
1
60
0
100
AcDbEllipse
10
6.241344
20
0.969145
30
0
11
-1.1217163432993
21
19.7616422734291
31
0
210
0
220
0
230
1
40
0.032702
41
2.05221446139451
42
2.09747655061645
0
ELLIPSE
5
BC
100
AcDbEntity
8
1
62
256
6
ByLayer
370
13
48
1
60
0
100
AcDbEllipse
10
4.250141
20
2.181113
30
0
11
2.31865995514527E-14
21
19.7930201006611
31
0
210
0
220
0
230
1
40
0.065403
41
-3.13898913645737
42
-3.09271666010443
0
ELLIPSE
5
BD
100
AcDbEntity
8
1
62
256
6
ByLayer
370
18
48
1
60
0
100
AcDbEllipse
10
4.475913
20
2.181113
30
0
11
1.55803391482566E-14
21
13.3000082764288
31
0
210
0
220
0
230
1
40
0.065403
41
3.14159211207313
42
-2.75395316603152
0
ELLIPSE
5
BE
100
AcDbEntity
8
1
62
256
6
ByLayer
370
13
48
1
60
0
100
AcDbEllipse
10
4.250141
20
0.856106
30
0
11
1.12169185160516
21
19.7612107952731
31
0
210
0
220
0
230
1
40
0.032702
41
-2.09086397557238
42
-2.04459149921943
0
ELLIPSE
5
BF
100
AcDbEntity
8
1
62
256
6
ByLayer
370
18
48
1
60
0
100
AcDbEllipse
10
4.475913
20
0.84329
30
0
11
0.75372585053116
21
13.2786338715741
31
0
210
0
220
0
230
1
40
0.032702
41
-2.10951420000521
42
-1.97694742790707
0
ELLIPSE
5
C0
100
AcDbEntity
8
1
62
256
6
ByLayer
370
13
48
1
60
0
100
AcDbEllipse
10
4.25002
20
0.856113
30
0
11
1.12208741004816
21
19.7681794772359
31
0
210
0
220
0
230
1
40
0.032702
41
-2.09094642570665
42
-2.04573147794906
0
ELLIPSE
5
C1
100
AcDbEntity
8
1
62
256
6
ByLayer
370
18
48
1
60
0
100
AcDbEllipse
10
4.25002
20
-1.793887
30
0
11
1.12208741004816
21
19.7681794772359
31
0
210
0
220
0
230
1
40
0.032702
41
1.00038914612922
42
1.04560409388681
0
ELLIPSE
5
C2
100
AcDbEntity
8
1
62
256
6
ByLayer
370
13
48
1
60
0
100
AcDbEllipse
10
4.25002
20
2.181113
30
0
11
2.31947761778623E-14
21
19.8
31
0
210
0
220
0
230
1
40
0.065403
41
-3.13907158659165
42
-3.09385663883404
0
ELLIPSE
5
C3
100
AcDbEntity
8
1
62
256
6
ByLayer
370
18
48
1
60
0
100
AcDbEllipse
10
4.25002
20
0.856113
30
0
11
-1.12208741004812
21
19.7681794772359
31
0
210
0
220
0
230
1
40
0.032702
41
2.09598855970297
42
2.14120350746057
0
POINT
5
6C
100
AcDbEntity
8
80
62
256
6
ByLayer
370
18
48
1
60
0
100
AcDbPoint
10
0
20
0
30
0
39
0
210
0
220
0
230
1
50
360
0
POINT
5
6E
100
AcDbEntity
8
1
62
256
6
ByLayer
370
18
48
1
60
1
100
AcDbPoint
10
2E-05
20
6
30
0
39
0
210
0
220
0
230
1
50
360
0
POINT
5
70
100
AcDbEntity
8
1
62
256
6
ByLayer
370
18
48
1
60
1
100
AcDbPoint
10
2E-05
20
-6
30
0
39
0
210
0
220
0
230
1
50
360
0
POINT
5
71
100
AcDbEntity
8
81
62
256
6
ByLayer
370
13
48
1
60
0
100
AcDbPoint
10
6.250024
20
16.881113
30
0
39
0
210
0
220
0
230
1
50
360
0
POINT
5
73
100
AcDbEntity
8
1
62
256
6
ByLayer
370
18
48
1
60
1
100
AcDbPoint
10
4.250016
20
16.881113
30
0
39
0
210
0
220
0
230
1
50
360
0
POINT
5
74
100
AcDbEntity
8
1
62
256
6
ByLayer
370
18
48
1
60
1
100
AcDbPoint
10
4.250016
20
6.881113
30
0
39
0
210
0
220
0
230
1
50
360
0
SPLINE
5
C4
100
AcDbEntity
8
1
62
256
6
ByLayer
370
18
48
1
60
0
100
AcDbSpline
70
4
71
1
72
4
73
2
40
0
40
0
40
1
40
1
41
1
10
6.01553972097889
20
-11.1193929799214
30
0
41
1
10
6.05001471390554
20
-11.1194147104534
30
0
0
SPLINE
5
C5
100
AcDbEntity
8
1
62
256
6
ByLayer
370
18
48
1
60
0
100
AcDbSpline
70
4
71
1
72
4
73
2
40
0
40
0
40
1
40
1
41
1
10
6.24395639045648
20
8.15989176832251
30
0
41
1
10
6.1928904845102
20
8.82770392572313
30
0
0
SPLINE
5
C6
100
AcDbEntity
8
1
62
256
6
ByLayer
370
18
48
1
60
0
100
AcDbSpline
70
4
71
1
72
4
73
2
40
0
40
0
40
1
40
1
41
1
10
4.4500213541688
20
-11.1188952783319
30
0
41
1
10
4.47590867976612
20
-11.1188956834368
30
0
0
SPLINE
5
C7
100
AcDbEntity
8
SK1
62
256
6
ByLayer
370
13
48
1
60
0
100
AcDbSpline
70
4
71
3
72
8
73
4
40
0
40
0
40
0
40
0
40
1
40
1
40
1
40
1
41
0.99985143073379
10
2.01545161369E-05
20
-6.21974619439269
30
0
41
0.999482743625509
10
-0.281812341673639
20
-6.12547442658193
30
0
41
0.999532266714245
10
-0.56526429770603
20
-6.02645292755011
30
0
41
1
10
-0.849979845483858
20
-5.92280663836321
30
0
0
SPLINE
5
C8
100
AcDbEntity
8
SK1
62
256
6
ByLayer
370
13
48
1
60
0
100
AcDbSpline
70
4
71
3
72
8
73
4
40
0
40
0
40
0
40
0
40
1
40
1
40
1
40
1
41
0.998629157219995
10
2.01545160936E-05
20
0.157097895338073
30
0
41
0.995424945773022
10
-0.270093411553466
20
-0.0161060910712379
30
0
41
0.995881893366357
10
-0.554474428495191
20
-0.192910823039014
30
0
41
1
10
-0.849979845483858
20
-0.371369433780737
30
0
0
SPLINE
5
C9
100
AcDbEntity
8
SK1
62
256
6
ByLayer
370
13
48
1
60
0
100
AcDbSpline
70
4
71
3
72
8
73
4
40
0
40
0
40
0
40
0
40
1
40
1
40
1
40
1
41
1
10
-0.849979845483858
20
-2.99810741933775
30
0
41
0.999532266714245
10
-0.56526429770603
20
-3.15227922983695
30
0
41
0.999482743625508
10
-0.281812341673668
20
-3.30424239048223
30
0
41
0.99985143073379
10
2.01545161369E-05
20
-3.4538058871273
30
0
0
SPLINE
5
CA
100
AcDbEntity
8
SK1
62
256
6
ByLayer
370
13
48
1
60
0
100
AcDbSpline
70
4
71
3
72
8
73
4
40
0
40
0
40
0
40
0
40
1
40
1
40
1
40
1
41
0.99985143073379
10
2.01545161369E-05
20
-1.04971573063633
30
0
41
0.999482743625508
10
-0.281812341673668
20
-1.21449553797249
30
0
41
0.999532266714245
10
-0.56526429770603
20
-1.37868195405708
30
0
41
1
10
-0.849979845483858
20
-1.54206907374965
30
0
0
SPLINE
5
CB
100
AcDbEntity
8
SK1
62
256
6
ByLayer
370
13
48
1
60
0
100
AcDbSpline
70
4
71
3
72
8
73
4
40
0
40
0
40
0
40
0
40
1
40
1
40
1
40
1
41
1
10
-0.849979845483858
20
2.07924725271834
30
0
41
0.995881893366357
10
-0.554474428495191
20
2.072417581459
30
0
41
0.995424945773022
10
-0.270093411553466
20
2.04694495779083
30
0
41
0.998629157219995
10
2.01545160936E-05
20
2.00308395211233
30
0
0
SPLINE
5
CC
100
AcDbEntity
8
SK1
62
256
6
ByLayer
370
13
48
1
60
0
100
AcDbSpline
70
4
71
3
72
8
73
4
40
0
40
0
40
0
40
0
40
1
40
1
40
1
40
1
41
1
10
-0.849979845483858
20
6.44835778948492
30
0
41
0.999532266714245
10
-0.56526429770603
20
6.47370661787348
30
0
41
0.999482743625508
10
-0.281812341673668
20
6.49325372459284
30
0
41
0.99985143073379
10
2.01545161369E-05
20
6.50697371951533
30
0
0
SPLINE
5
CD
100
AcDbEntity
8
SK1
62
256
6
ByLayer
370
13
48
1
60
0
100
AcDbSpline
70
4
71
3
72
8
73
4
40
0
40
0
40
0
40
0
40
1
40
1
40
1
40
1
41
0.998629157219995
10
2.01545160651E-05
20
1.35890993614897
30
0
41
0.995424945773022
10
-0.270093411553467
20
1.48349667450671
30
0
41
0.995881893366357
10
-0.554474428495191
20
1.59395897968831
30
0
41
1
10
-0.849979845483858
20
1.68910295386924
30
0
0
SPLINE
5
CE
100
AcDbEntity
8
1
62
256
6
ByLayer
370
18
48
1
60
0
100
AcDbSpline
70
4
71
3
72
8
73
4
40
0
40
0
40
0
40
0
40
1
40
1
40
1
40
1
41
1
10
0.10002015451613
20
1.31182248715341
30
0
41
0.999486020985534
10
0.0669464001010045
20
1.32771961486921
30
0
41
0.999029073392199
10
0.0336112826019559
20
1.34341641930391
30
0
41
0.998629157219995
10
2.01545160651E-05
20
1.35890993614897
30
0
0
SPLINE
5
CF
100
AcDbEntity
8
1
62
256
6
ByLayer
370
18
48
1
60
0
100
AcDbSpline
70
4
71
3
72
8
73
4
40
0
40
0
40
0
40
0
40
1
40
1
40
1
40
1
41
0.99985143073379
10
2.01545161369E-05
20
6.50697371951533
30
0
41
0.999895089459736
10
0.0333800773816219
20
6.50859772660646
30
0
41
0.999944612548473
10
0.0667136048876717
20
6.51013987665685
30
0
41
1
10
0.10002015451613
20
6.51160015469667
30
0
0
SPLINE
5
D0
100
AcDbEntity
8
1
62
256
6
ByLayer
370
18
48
1
60
0
100
AcDbSpline
70
4
71
3
72
10
73
6
40
0
40
0
40
0
40
0
40
0.785937991384709
40
0.785937991384709
40
1
40
1
40
1
40
1
41
1
10
4.2532848871958
20
8.06294423730804
30
0
41
1
10
4.25308886912893
20
8.07203103560982
30
0
41
1
10
4.25414554258177
20
8.08102007505763
30
0
41
1
10
4.25702987934548
20
8.09233512848552
30
0
41
1
10
4.25774076486238
20
8.0947563619758
30
0
41
1
10
4.25854360059373
20
8.09717048329101
30
0
0
SPLINE
5
D1
100
AcDbEntity
8
1
62
256
6
ByLayer
370
18
48
1
60
0
100
AcDbSpline
70
4
71
3
72
20
73
16
40
0
40
0
40
0
40
0
40
0.0312499999999998
40
0.0312499999999998
40
0.0624999999999997
40
0.0624999999999997
40
0.125000000000001
40
0.125000000000001
40
0.250000000000002
40
0.250000000000002
40
0.500000000000001
40
0.500000000000001
40
0.750000000000001
40
0.750000000000001
40
1
40
1
40
1
40
1
41
1
10
6.05002015451612
20
-17.818887407159
30
0
41
1
10
6.05571825516117
20
-17.818887407159
30
0
41
1
10
6.06117729148662
20
-17.8186406004874
30
0
41
1
10
6.07053440860673
20
-17.817884129244
30
0
41
1
10
6.07452166054694
20
-17.8173869785895
30
0
41
1
10
6.08500881982798
20
-17.8157880335745
30
0
41
1
10
6.09024654405039
20
-17.8145692969763
30
0
41
1
10
6.10381355407154
20
-17.8108675534184
30
0
41
1
10
6.11014792759079
20
-17.808241939778
30
0
41
1
10
6.12626095972675
20
-17.8003867443159
30
0
41
1
10
6.13302947692574
20
-17.7950732414901
30
0
41
1
10
6.14405675758144
20
-17.784397786715
30
0
41
1
10
6.14805752992956
20
-17.7790279089702
30
0
41
1
10
6.15437720022121
20
-17.7682695976687
30
0
41
1
10
6.15666454046646
20
-17.7628843634337
30
0
41
1
10
6.15837737951256
20
-17.7574951267068
30
0
0
SPLINE
5
D2
100
AcDbEntity
8
1
62
256
6
ByLayer
370
18
48
1
60
0
100
AcDbSpline
70
4
71
3
72
18
73
14
40
0
40
0
40
0
40
0
40
0.500000000000001
40
0.500000000000001
40
0.750000000000001
40
0.750000000000001
40
0.875000000000001
40
0.875000000000001
40
0.937500000000001
40
0.937500000000001
40
0.96875
40
0.96875
40
1
40
1
40
1
40
1
41
1
10
4.34504758157158
20
-17.7574951267076
30
0
41
1
10
4.34830016547443
20
-17.7682509169652
30
0
41
1
10
4.3534194214005
20
-17.7789827177137
30
0
41
1
10
4.36930664362754
20
-17.7949749294965
30
0
41
1
10
4.37581038316304
20
-17.8002901421792
30
0
41
1
10
4.3914448185694
20
-17.8081874095538
30
0
41
1
10
4.39753298614218
20
-17.8108047585278
30
0
41
1
10
4.41074617627677
20
-17.8145357043875
30
0
41
1
10
4.41576452128234
20
-17.8157456413704
30
0
41
1
10
4.42596729066631
20
-17.8173596757148
30
0
41
1
10
4.42985785265941
20
-17.8178636482794
30
0
41
1
10
4.43900131787137
20
-17.8186323772646
30
0
41
1
10
4.44437644121692
20
-17.8188874071587
30
0
41
1
10
4.45002015451524
20
-17.8188874071587
30
0
0
SPLINE
5
D3
100
AcDbEntity
8
1
62
256
6
ByLayer
370
18
48
1
60
0
100
AcDbSpline
70
4
71
3
72
12
73
8
40
0
40
0
40
0
40
0
40
0.25
40
0.25
40
0.5
40
0.5
40
1
40
1
40
1
40
1
41
1
10
6.15837737952035
20
-17.7574951266972
30
0
41
1
10
6.1686312874316
20
-17.7442404899977
30
0
41
1
10
6.1756563236676
20
-17.7308790633316
30
0
41
1
10
6.18608743886585
20
-17.704036518577
30
0
41
1
10
6.18941307890844
20
-17.6905527400868
30
0
41
1
10
6.19525453122196
20
-17.6499646303866
30
0
41
1
10
6.19368725556336
20
-17.6226684757968
30
0
41
1
10
6.18795458348461
20
-17.5954996957694
30
0
0
SPLINE
5
D4
100
AcDbEntity
8
1
62
256
6
ByLayer
370
18
48
1
60
0
100
AcDbSpline
70
4
71
3
72
8
73
4
40
0
40
0
40
0
40
0
40
1
40
1
40
1
40
1
41
1
10
6.18795458348461
20
-17.5954996957692
30
0
41
1
10
6.13427651667129
20
-17.3411039149753
30
0
41
1
10
6.08193155817497
20
-17.0866747430941
30
0
41
1
10
6.03103966396472
20
-16.8322119859825
30
0
0
SPLINE
5
D5
100
AcDbEntity
8
1
62
256
6
ByLayer
370
18
48
1
60
0
100
AcDbSpline
70
4
71
3
72
8
73
4
40
0
40
0
40
0
40
0
40
1
40
1
40
1
40
1
41
1
10
4.46827732298033
20
-16.8322119859825
30
0
41
1
10
4.41803738365707
20
-17.0842644542256
30
0
41
1
10
4.36636956551632
20
-17.3362840314183
30
0
41
1
10
4.31338749745683
20
-17.5882708096773
30
0
0
SPLINE
5
D6
100
AcDbEntity
8
1
62
256
6
ByLayer
370
18
48
1
60
0
100
AcDbSpline
70
4
71
3
72
8
73
4
40
0
40
0
40
0
40
0
40
1
40
1
40
1
40
1
41
1
10
4.31338749745683
20
-17.5882708096773
30
0
41
1
10
4.31282241664522
20
-17.5909583773467
30
0
41
1
10
4.31229778591242
20
-17.5936455394284
30
0
41
1
10
4.31181395763144
20
-17.5963322923892
30
0
0
SPLINE
5
D7
100
AcDbEntity
8
1
62
256
6
ByLayer
370
18
48
1
60
0
100
AcDbSpline
70
4
71
3
72
12
73
8
40
0
40
0
40
0
40
0
40
0.5
40
0.5
40
0.75
40
0.75
40
1
40
1
40
1
40
1
41
1
10
4.31181395763144
20
-17.5963322923892
30
0
41
1
10
4.30694390691397
20
-17.623376232767
30
0
41
1
10
4.30603936944806
20
-17.6503616290039
30
0
41
1
10
4.31268325722831
20
-17.6907216065542
30
0
41
1
10
4.31624932849789
20
-17.7041549806335
30
0
41
1
10
4.32719991854697
20
-17.7309653558299
30
0
41
1
10
4.33454198374017
20
-17.7443726766158
30
0
41
1
10
4.34504758157158
20
-17.7574951267076
30
0
0
SPLINE
5
D8
100
AcDbEntity
8
1
62
256
6
ByLayer
370
18
48
1
60
0
100
AcDbSpline
70
4
71
3
72
20
73
16
40
0
40
0
40
0
40
0
40
0.0312499999999959
40
0.0312499999999959
40
0.0624999999999918
40
0.0624999999999918
40
0.124999999999991
40
0.124999999999991
40
0.249999999999988
40
0.249999999999988
40
0.499999999999992
40
0.499999999999992
40
0.749999999999996
40
0.749999999999996
40
1
40
1
40
1
40
1
41
1
10
6.05002015451615
20
-9.14388740715888
30
0
41
1
10
6.0557182551612
20
-9.14388740715888
30
0
41
1
10
6.06117729148664
20
-9.14202322431698
30
0
41
1
10
6.07053440860673
20
-9.13630943747277
30
0
41
1
10
6.07452166054696
20
-9.13255435373541
30
0
41
1
10
6.085008819828
20
-9.12047718481339
30
0
41
1
10
6.09024654405039
20
-9.11127181024279
30
0
41
1
10
6.10381355407156
20
-9.08331176043797
30
0
41
1
10
6.11014792759082
20
-9.06347994685977
30
0
41
1
10
6.12626095972681
20
-9.00414799884369
30
0
41
1
10
6.13302947692577
20
-8.9640139913623
30
0
41
1
10
6.14405675758147
20
-8.88338002995193
30
0
41
1
10
6.14805752992959
20
-8.84282021081752
30
0
41
1
10
6.15437720022123
20
-8.76156041658801
30
0
41
1
10
6.15666454046649
20
-8.72088460664419
30
0
41
1
10
6.15837737951261
20
-8.68017856503483
30
0
0
SPLINE
5
D9
100
AcDbEntity
8
1
62
256
6
ByLayer
370
18
48
1
60
0
100
AcDbSpline
70
4
71
3
72
18
73
14
40
0
40
0
40
0
40
0
40
0.499999999999993
40
0.499999999999993
40
0.749999999999991
40
0.749999999999991
40
0.874999999999995
40
0.874999999999995
40
0.937499999999998
40
0.937499999999998
40
0.968749999999999
40
0.968749999999999
40
1
40
1
40
1
40
1
41
1
10
4.34504758157164
20
-8.68017856504091
30
0
41
1
10
4.34830016547448
20
-8.76141931729451
30
0
41
1
10
4.35341942140053
20
-8.84247887173118
30
0
41
1
10
4.36930664362757
20
-8.96327142014565
30
0
41
1
10
4.37581038316307
20
-9.00341834253173
30
0
41
1
10
4.39144481856942
20
-9.0630680685761
30
0
41
1
10
4.39753298614218
20
-9.08283745738513
30
0
41
1
10
4.41074617627677
20
-9.11101807833425
30
0
41
1
10
4.4157645212824
20
-9.12015698754699
30
0
41
1
10
4.42596729066636
20
-9.13234812935614
30
0
41
1
10
4.42985785265947
20
-9.13615474042693
30
0
41
1
10
4.4390013178714
20
-9.14196111257929
30
0
41
1
10
4.44437644121692
20
-9.14388740716087
30
0
41
1
10
4.45002015451527
20
-9.14388740716101
30
0
0
SPLINE
5
DA
100
AcDbEntity
8
1
62
256
6
ByLayer
370
18
48
1
60
0
100
AcDbSpline
70
4
71
3
72
12
73
8
40
0
40
0
40
0
40
0
40
0.25
40
0.25
40
0.5
40
0.5
40
1
40
1
40
1
40
1
41
1
10
6.15837737952037
20
-8.68017856501104
30
0
41
1
10
6.1686312874316
20
-8.64201335971627
30
0
41
1
10
6.17565632366762
20
-8.60354066496761
30
0
41
1
10
6.18608743886588
20
-8.52625063775475
30
0
41
1
10
6.18941307890847
20
-8.48742564496946
30
0
41
1
10
6.19525453122199
20
-8.37055684091534
30
0
41
1
10
6.19368725556339
20
-8.29196069623741
30
0
41
1
10
6.18795458348464
20
-8.21373131199486
30
0
0
SPLINE
5
DB
100
AcDbEntity
8
1
62
256
6
ByLayer
370
18
48
1
60
0
100
AcDbSpline
70
4
71
3
72
8
73
4
40
0
40
0
40
0
40
0
40
1
40
1
40
1
40
1
41
1
10
6.18795458348464
20
-8.2137313119948
30
0
41
1
10
6.13427651667135
20
-7.48122785525895
30
0
41
1
10
6.081931558175
20
-6.748628252719
30
0
41
1
10
6.03103966396475
20
-6.01593194536225
30
0
0
SPLINE
5
DC
100
AcDbEntity
8
1
62
256
6
ByLayer
370
18
48
1
60
0
100
AcDbSpline
70
4
71
3
72
8
73
4
40
0
40
0
40
0
40
0
40
1
40
1
40
1
40
1
41
1
10
4.46827732298033
20
-6.01593194536225
30
0
41
1
10
4.41803738365709
20
-6.74168810252298
30
0
41
1
10
4.36636956551632
20
-7.46734955367874
30
0
41
1
10
4.31338749745686
20
-8.19291656406893
30
0
0
SPLINE
5
DD
100
AcDbEntity
8
1
62
256
6
ByLayer
370
18
48
1
60
0
100
AcDbSpline
70
4
71
3
72
8
73
4
40
0
40
0
40
0
40
0
40
1
40
1
40
1
40
1
41
1
10
4.31338749745686
20
-8.19291656406893
30
0
41
1
10
4.31282241664525
20
-8.20065510675205
30
0
41
1
10
4.31229778591245
20
-8.20839248159181
30
0
41
1
10
4.31181395763147
20
-8.21612867841476
30
0
0
SPLINE
5
DE
100
AcDbEntity
8
1
62
256
6
ByLayer
370
18
48
1
60
0
100
AcDbSpline
70
4
71
3
72
12
73
8
40
0
40
0
40
0
40
0
40
0.500000000000001
40
0.500000000000001
40
0.75
40
0.75
40
1
40
1
40
1
40
1
41
1
10
4.31181395763147
20
-8.21612867841476
30
0
41
1
10
4.306943906914
20
-8.29399860121243
30
0
41
1
10
4.30603936944811
20
-8.37169995287486
30
0
41
1
10
4.31268325722834
20
-8.48791187658348
30
0
41
1
10
4.31624932849792
20
-8.52659173565201
30
0
41
1
10
4.327199918547
20
-8.60378913431354
30
0
41
1
10
4.33454198374019
20
-8.64239397591352
30
0
41
1
10
4.34504758157164
20
-8.68017856504091
30
0
0
SPLINE
5
DF
100
AcDbEntity
8
1
62
256
6
ByLayer
370
18
48
1
60
0
100
AcDbSpline
70
4
71
3
72
20
73
16
40
0
40
0
40
0
40
0
40
0.031250000000003
40
0.031250000000003
40
0.062500000000006
40
0.062500000000006
40
0.125000000000009
40
0.125000000000009
40
0.250000000000008
40
0.250000000000008
40
0.500000000000005
40
0.500000000000005
40
0.750000000000002
40
0.750000000000002
40
1
40
1
40
1
40
1
41
1
10
6.05002015451615
20
8.20611259284114
30
0
41
1
10
6.05571825516122
20
8.20611259284114
30
0
41
1
10
6.06117729148664
20
8.20772996901149
30
0
41
1
10
6.07053440860673
20
8.21268728461228
30
0
41
1
10
6.07452166054694
20
8.21594521769511
30
0
41
1
10
6.085008819828
20
8.22642344160211
30
0
41
1
10
6.09024654405039
20
8.23441007957455
30
0
41
1
10
6.10381355407154
20
8.25866838582146
30
0
41
1
10
6.11014792759082
20
8.27587458575925
30
0
41
1
10
6.12626095972678
20
8.32735133831323
30
0
41
1
10
6.13302947692577
20
8.36217184296881
30
0
41
1
10
6.14405675758147
20
8.43213034960416
30
0
41
1
10
6.14805752992959
20
8.46732029099376
30
0
41
1
10
6.15437720022123
20
8.53782177392175
30
0
41
1
10
6.15666454046649
20
8.57311234963054
30
0
41
1
10
6.15837737951261
20
8.60842915451294
30
0
0
SPLINE
5
E0
100
AcDbEntity
8
1
62
256
6
ByLayer
370
18
48
1
60
0
100
AcDbSpline
70
4
71
3
72
18
73
14
40
0
40
0
40
0
40
0
40
0.500000000000004
40
0.500000000000004
40
0.750000000000006
40
0.750000000000006
40
0.875000000000011
40
0.875000000000011
40
0.937500000000012
40
0.937500000000012
40
0.968750000000006
40
0.968750000000006
40
1
40
1
40
1
40
1
41
1
10
4.34504758157161
20
8.60842915450765
30
0
41
1
10
4.34830016547446
20
8.53794419251172
30
0
41
1
10
4.35341942140053
20
8.4676164388235
30
0
41
1
10
4.36930664362757
20
8.36281610219182
30
0
41
1
10
4.37581038316307
20
8.32798439248849
30
0
41
1
10
4.39144481856942
20
8.2762319338187
30
0
41
1
10
4.39753298614218
20
8.25907989398356
30
0
41
1
10
4.41074617627675
20
8.23463021889412
30
0
41
1
10
4.41576452128237
20
8.22670124666435
30
0
41
1
10
4.42596729066634
20
8.21612413919958
30
0
41
1
10
4.42985785265947
20
8.21282150069347
30
0
41
1
10
4.4390013178714
20
8.2077838575262
30
0
41
1
10
4.44437644121695
20
8.20611259283878
30
0
41
1
10
4.45002015451527
20
8.20611259283867
30
0
0
SPLINE
5
E1
100
AcDbEntity
8
1
62
256
6
ByLayer
370
18
48
1
60
0
100
AcDbSpline
70
4
71
3
72
12
73
8
40
0
40
0
40
0
40
0
40
0.25
40
0.25
40
0.500000000000001
40
0.500000000000001
40
1
40
1
40
1
40
1
41
1
10
6.15837737952037
20
8.60842915452718
30
0
41
1
10
6.16863128743162
20
8.63333972312249
30
0
41
1
10
6.17565632366762
20
8.65845099120508
30
0
41
1
10
6.18608743886588
20
8.70889847366325
30
0
41
1
10
6.18941307890847
20
8.73423968795836
30
0
41
1
10
6.19525453122199
20
8.81052038231225
30
0
41
1
10
6.19368725556339
20
8.86182037240041
30
0
41
1
10
6.18795458348464
20
8.91288097661549
30
0
0
SPLINE
5
E2
100
AcDbEntity
8
1
62
256
6
ByLayer
370
18
48
1
60
0
100
AcDbSpline
70
4
71
3
72
8
73
4
40
0
40
0
40
0
40
0
40
1
40
1
40
1
40
1
41
1
10
6.18795458348464
20
8.91288097661537
30
0
41
1
10
6.13427651667135
20
9.3909886525574
30
0
41
1
10
6.081931558175
20
9.86915908321617
30
0
41
1
10
6.03103966396475
20
10.3473926334613
30
0
0
SPLINE
5
E3
100
AcDbEntity
8
1
62
256
6
ByLayer
370
18
48
1
60
0
100
AcDbSpline
70
4
71
3
72
8
73
4
40
0
40
0
40
0
40
0
40
1
40
1
40
1
40
1
41
1
10
4.46827732298033
20
10.3473926334613
30
0
41
1
10
4.41803738365709
20
9.87368894454365
30
0
41
1
10
4.36636956551632
20
9.40004707058059
30
0
41
1
10
4.31338749745686
20
8.92646683844938
30
0
0
SPLINE
5
E4
100
AcDbEntity
8
1
62
256
6
ByLayer
370
18
48
1
60
0
100
AcDbSpline
70
4
71
3
72
8
73
4
40
0
40
0
40
0
40
0
40
1
40
1
40
1
40
1
41
1
10
4.31338749745686
20
8.92646683844938
30
0
41
1
10
4.31282241664525
20
8.92141586343572
30
0
41
1
10
4.31229778591245
20
8.91636565067767
30
0
41
1
10
4.31181395763147
20
8.91131620681548
30
0
0
SPLINE
5
E5
100
AcDbEntity
8
1
62
256
6
ByLayer
370
18
48
1
60
0
100
AcDbSpline
70
4
71
3
72
12
73
8
40
0
40
0
40
0
40
0
40
0.499999999999992
40
0.499999999999992
40
0.749999999999996
40
0.749999999999996
40
1
40
1
40
1
40
1
41
1
10
4.31181395763147
20
8.91131620681548
30
0
41
1
10
4.306943906914
20
8.86049022439558
30
0
41
1
10
4.30603936944809
20
8.80977426897001
30
0
41
1
10
4.31268325722834
20
8.73392232281173
30
0
41
1
10
4.31624932849792
20
8.7086758378225
30
0
41
1
10
4.327199918547
20
8.6582888143574
30
0
41
1
10
4.33454198374019
20
8.63309129354334
30
0
41
1
10
4.34504758157161
20
8.60842915450765
30
0
0
SPLINE
5
E6
100
AcDbEntity
8
1
62
256
6
ByLayer
370
18
48
1
60
0
100
AcDbSpline
70
4
71
3
72
8
73
4
40
0
40
0
40
0
40
0
40
1
40
1
40
1
40
1
41
1
10
6.24653362936809
20
-9.08499164840388
30
0
41
1
10
6.24425385376242
20
-9.07122179231829
30
0
41
1
10
6.24201068708203
20
-9.05694021183235
30
0
41
1
10
6.239803813082
20
-9.04215047128606
30
0
0
SPLINE
5
E7
100
AcDbEntity
8
1
62
256
6
ByLayer
370
18
48
1
60
0
100
AcDbSpline
70
4
71
3
72
8
73
4
40
0
40
0
40
0
40
0
40
1
40
1
40
1
40
1
41
1
10
6.15243584217643
20
-7.64699384896165
30
0
41
1
10
6.15057262668523
20
-7.5684141437694
30
0
41
1
10
6.14894245748098
20
-7.48745707321951
30
0
41
1
10
6.14754856154821
20
-7.40410750742985
30
0
0
SPLINE
5
E8
100
AcDbEntity
8
1
62
256
6
ByLayer
370
18
48
1
60
0
100
AcDbSpline
70
4
71
3
72
8
73
4
40
0
40
0
40
0
40
0
40
1
40
1
40
1
40
1
41
1
10
6.18795458348464
20
-9.85065579093325
30
0
41
1
10
6.13757269352016
20
-10.2994045956223
30
0
41
1
10
6.08836521592002
20
-10.7482086845777
30
0
41
1
10
6.04043133765552
20
-11.1970683594961
30
0
0
SPLINE
5
E9
100
AcDbEntity
8
1
62
256
6
ByLayer
370
18
48
1
60
0
100
AcDbSpline
70
4
71
3
72
8
73
4
40
0
40
0
40
0
40
0
40
1
40
1
40
1
40
1
41
1
10
4.45955184871821
20
-11.2030317967945
30
0
41
1
10
4.41206048077015
20
-10.7567135966202
30
0
41
1
10
4.36330734921805
20
-10.3104502635466
30
0
41
1
10
4.31338749745686
20
-9.86424165276729
30
0
0
SPLINE
5
EA
100
AcDbEntity
8
1
62
256
6
ByLayer
370
18
48
1
60
0
100
AcDbSpline
70
4
71
3
72
8
73
4
40
0
40
0
40
0
40
0
40
1
40
1
40
1
40
1
41
1
10
4.31338749745686
20
-9.86424165276729
30
0
41
1
10
4.31282241664522
20
-9.85919067775363
30
0
41
1
10
4.31229778591245
20
-9.85414046499558
30
0
41
1
10
4.31181395763147
20
-9.84909102113338
30
0
0
SPLINE
5
EB
100
AcDbEntity
8
1
62
256
6
ByLayer
370
18
48
1
60
0
100
AcDbSpline
70
4
71
3
72
9
73
5
40
0
40
0
40
0
40
0
40
0.5
40
1
40
1
40
1
40
1
41
1
10
4.25351178334023
20
8.05806403033599
30
0
41
1
10
4.25345357247386
20
8.05887851621238
30
0
41
1
10
4.25335765128094
20
8.06050636352946
30
0
41
1
10
4.25330240896744
20
8.0621319815442
30
0
41
1
10
4.2532848871958
20
8.06294423730804
30
0
0
SPLINE
5
EC
100
AcDbEntity
8
1
62
256
6
ByLayer
370
18
48
1
60
0
100
AcDbSpline
70
4
71
3
72
16
73
12
40
0
40
0
40
0
40
0
40
0.157848431866008
40
0.157848431866008
40
0.438565621244005
40
0.438565621244005
40
0.578924215933004
40
0.578924215933004
40
0.719282810622002
40
0.719282810622002
40
1
40
1
40
1
40
1
41
1
10
4.34740723539625
20
6.71026935759894
30
0
41
1
10
4.34490304283921
20
6.748851664189
30
0
41
1
10
4.3419966755587
20
6.79272204889045
30
0
41
1
10
4.33284146241638
20
6.92895871643591
30
0
41
1
10
4.32575116581779
20
7.03249723641721
30
0
41
1
10
4.31325850771933
20
7.21264261863998
30
0
41
1
10
4.30878068928703
20
7.27688501054819
30
0
41
1
10
4.29919769868647
20
7.41374408802036
30
0
41
1
10
4.29413205544947
20
7.48579648376718
30
0
41
1
10
4.27812241148828
20
7.7126681090936
30
0
41
1
10
4.2663699875153
20
7.87815216248568
30
0
41
1
10
4.25351178334023
20
8.05806403033596
30
0
0
SPLINE
5
ED
100
AcDbEntity
8
1
62
256
6
ByLayer
370
18
48
1
60
0
100
AcDbSpline
70
4
71
3
72
9
73
5
40
0
40
0
40
0
40
0
40
0.5
40
1
40
1
40
1
40
1
41
1
10
4.25351178334023
20
-9.08488898883454
30
0
41
1
10
4.25345357247386
20
-9.08524105350623
30
0
41
1
10
4.25335765128094
20
-9.08594375353244
30
0
41
1
10
4.25330240896744
20
-9.08664361489563
30
0
41
1
10
4.2532848871958
20
-9.08699284052057
30
0
0
SPLINE
5
EE
100
AcDbEntity
8
1
62
256
6
ByLayer
370
18
48
1
60
0
100
AcDbSpline
70
4
71
3
72
8
73
4
40
0
40
0
40
0
40
0
40
1
40
1
40
1
40
1
41
1
10
4.35251764862761
20
-7.40410750742985
30
0
41
1
10
4.35106237757105
20
-7.49052152824943
30
0
41
1
10
4.34935721411083
20
-7.57419292963668
30
0
41
1
10
4.34740847406445
20
-7.6551709816231
30
0
0
SPLINE
5
EF
100
AcDbEntity
8
1
62
256
6
ByLayer
370
18
48
1
60
0
100
AcDbSpline
70
4
71
3
72
8
73
4
40
0
40
0
40
0
40
0
40
1
40
1
40
1
40
1
41
1
10
4.26108113802005
20
-9.03631891738613
30
0
41
1
10
4.25860195542703
20
-9.05317217451646
30
0
41
1
10
4.25607890736859
20
-9.06936278668926
30
0
41
1
10
4.25351178334023
20
-9.08488898883454
30
0
0
SPLINE
5
F0
100
AcDbEntity
8
1
62
256
6
ByLayer
370
18
48
1
60
0
100
AcDbSpline
70
4
71
3
72
10
73
6
40
0
40
0
40
0
40
0
40
0.353561283333363
40
0.353561283333363
40
1
40
1
40
1
40
1
41
1
10
6.24024764958523
20
8.10089937924362
30
0
41
1
10
6.24208655535517
20
8.09594905190823
30
0
41
1
10
6.24354695906095
20
8.0909359306141
30
0
41
1
10
6.24654417628139
20
8.07677109488102
30
0
41
1
10
6.2471962067595
20
8.06756235179738
30
0
41
1
10
6.24653362936809
20
8.05830155959025
30
0
0
SPLINE
5
F1
100
AcDbEntity
8
1
62
256
6
ByLayer
370
18
48
1
60
0
100
AcDbSpline
70
4
71
3
72
16
73
12
40
0
40
0
40
0
40
0
40
0.279495938524782
40
0.279495938524782
40
0.558991877049564
40
0.558991877049564
40
0.698739846311954
40
0.698739846311954
40
0.838487815574345
40
0.838487815574345
40
1
40
1
40
1
40
1
41
1
10
6.24653362936809
20
8.05830155959025
30
0
41
1
10
6.2336595383772
20
7.8783614000471
30
0
41
1
10
6.22195289102655
20
7.7136609903099
30
0
41
1
10
6.20076058274088
20
7.41354161700374
30
0
41
1
10
6.19127512367677
20
7.2781260328337
30
0
41
1
10
6.17873531884709
20
7.09730501102211
30
0
41
1
10
6.17483570780672
20
7.0407291728627
30
0
41
1
10
6.1676283416696
20
6.93538274090195
30
0
41
1
10
6.16434968663742
20
6.88703793791247
30
0
41
1
10
6.15797648348985
20
6.79202522267783
30
0
41
1
10
6.15498829159728
20
6.7467711295915
30
0
41
1
10
6.152437005547
20
6.70725120848555
30
0
0
SPLINE
5
F2
100
AcDbEntity
8
1
62
256
6
ByLayer
370
18
48
1
60
0
100
AcDbSpline
70
4
71
3
72
8
73
4
40
0
40
0
40
0
40
0
40
1
40
1
40
1
40
1
41
1
10
6.04976608772751
20
-5.82700058853934
30
0
41
1
10
6.07898202991893
20
-6.39444800090852
30
0
41
1
10
6.11164842678517
20
-6.92096402102923
30
0
41
1
10
6.14754856154821
20
-7.40410750742985
30
0
0
SPLINE
5
F3
100
AcDbEntity
8
1
62
256
6
ByLayer
370
18
48
1
60
0
100
AcDbSpline
70
4
71
3
72
8
73
4
40
0
40
0
40
0
40
0
40
1
40
1
40
1
40
1
41
1
10
4.35251764862761
20
-7.40410750742985
30
0
41
1
10
4.3730470022889
20
-7.12779963538387
30
0
41
1
10
4.3925214060562
20
-6.8373291591849
30
0
41
1
10
4.41090373695516
20
-6.53313018347647
30
0
0
SPLINE
5
F4
100
AcDbEntity
8
1
62
256
6
ByLayer
370
18
48
1
60
0
100
AcDbSpline
70
4
71
3
72
8
73
4
40
0
40
0
40
0
40
0
40
1
40
1
40
1
40
1
41
1
10
6.05002015451615
20
-10.1946841691681
30
0
41
1
10
5.93178831033762
20
-10.1915491741149
30
0
41
1
10
5.81355649813764
20
-10.1884129728115
30
0
41
1
10
5.69532471802677
20
-10.1852755624859
30
0
0
SPLINE
5
F5
100
AcDbEntity
8
1
62
256
6
ByLayer
370
18
48
1
60
0
100
AcDbSpline
70
4
71
3
72
8
73
4
40
0
40
0
40
0
40
0
40
1
40
1
40
1
40
1
41
1
10
6.05002015451612
20
-17.818887407159
30
0
41
1
10
6.05605247718657
20
-17.818887407159
30
0
41
1
10
6.06203720542678
20
-17.8186177536501
30
0
41
1
10
6.06797506105653
20
-17.8180824684447
30
0
0
SPLINE
5
F6
100
AcDbEntity
8
1
62
256
6
ByLayer
370
18
48
1
60
0
100
AcDbSpline
70
4
71
3
72
18
73
14
40
0
40
0
40
0
40
0
40
0.0903071568741637
40
0.0903071568741637
40
0.241922630728471
40
0.241922630728471
40
0.393538104582779
40
0.393538104582779
40
0.696769052291388
40
0.696769052291388
40
0.848384526145694
40
0.848384526145694
40
1
40
1
40
1
40
1
41
1
10
6.10606510251168
20
-17.8108401932351
30
0
41
1
10
6.1137916725132
20
-17.8085686299159
30
0
41
1
10
6.12139130441321
20
-17.8058261315769
30
0
41
1
10
6.14103994431122
20
-17.7973295514281
30
0
41
1
10
6.15267405290379
20
-17.7908165482089
30
0
41
1
10
6.17458470972173
20
-17.7754117210284
30
0
41
1
10
6.18473592052624
20
-17.7665699135192
30
0
41
1
10
6.21184862825064
20
-17.7376387575974
30
0
41
1
10
6.22594953762678
20
-17.7145561694491
30
0
41
1
10
6.239392106038
20
-17.6775197701599
30
0
41
1
10
6.24266914177429
20
-17.6645609448148
30
0
41
1
10
6.24654417628136
20
-17.6385706522552
30
0
41
1
10
6.24719620675947
20
-17.6254433781257
30
0
41
1
10
6.24653362936806
20
-17.6121806151531
30
0
0
SPLINE
5
F7
100
AcDbEntity
8
1
62
256
6
ByLayer
370
18
48
1
60
0
100
AcDbSpline
70
4
71
3
72
16
73
12
40
0
40
0
40
0
40
0
40
0.249999999999999
40
0.249999999999999
40
0.499999999999998
40
0.499999999999998
40
0.624999999999999
40
0.624999999999999
40
0.749999999999999
40
0.749999999999999
40
1
40
1
40
1
40
1
41
1
10
6.24653362936806
20
-17.6121806151531
30
0
41
1
10
6.2336595383772
20
-17.3544808814929
30
0
41
1
10
6.22195289102652
20
-17.0957022160001
30
0
41
1
10
6.20076058274086
20
-16.576072724062
30
0
41
1
10
6.19127512367675
20
-16.3152216606421
30
0
41
1
10
6.17873531884706
20
-15.9223669236371
30
0
41
1
10
6.17483570780669
20
-15.7910723841742
30
0
41
1
10
6.16762834166957
20
-15.52826472548
30
0
41
1
10
6.16434968663739
20
-15.397825053283
30
0
41
1
10
6.1554805197064
20
-15.0093597147241
30
0
41
1
10
6.15085129875658
20
-14.7541744544767
30
0
41
1
10
6.14754856154818
20
-14.5028379540498
30
0
0
SPLINE
5
F8
100
AcDbEntity
8
1
62
256
6
ByLayer
370
18
48
1
60
0
100
AcDbSpline
70
4
71
3
72
8
73
4
40
0
40
0
40
0
40
0
40
1
40
1
40
1
40
1
41
1
10
5.69532471802677
20
-10.1852755624859
30
0
41
1
10
5.70296430995168
20
-10.4198137767456
30
0
41
1
10
5.71063382443907
20
-10.6543510177663
30
0
41
1
10
5.71832923663652
20
-10.888887407159
30
0
0
SPLINE
5
F9
100
AcDbEntity
8
1
62
256
6
ByLayer
370
18
48
1
60
0
100
AcDbSpline
70
4
71
3
72
18
73
14
40
0
40
0
40
0
40
0
40
0.249999999999999
40
0.249999999999999
40
0.499999999999998
40
0.499999999999998
40
0.562499999999998
40
0.562499999999998
40
0.624999999999999
40
0.624999999999999
40
0.749999999999999
40
0.749999999999999
40
1
40
1
40
1
40
1
41
1
10
5.71832923663652
20
-10.888887407159
30
0
41
1
10
5.73582213969271
20
-11.4241944231299
30
0
41
1
10
5.75548506634013
20
-11.9522163878388
30
0
41
1
10
5.79922096706861
20
-12.994291824481
30
0
41
1
10
5.82329272330725
20
-13.5083444852745
30
0
41
1
10
5.85639599583459
20
-14.1418776384647
30
0
41
1
10
5.86317381839595
20
-14.2682153722174
30
0
41
1
10
5.8769230691712
20
-14.5178450634972
30
0
41
1
10
5.88390800220174
20
-14.6414021860847
30
0
41
1
10
5.90519540377679
20
-15.0083493911721
30
0
41
1
10
5.91982998859115
20
-15.2480211300855
30
0
41
1
10
5.96509357341671
20
-15.9523309285337
30
0
41
1
10
5.99707315141163
20
-16.4023591958624
30
0
41
1
10
6.03103966396472
20
-16.8322119859825
30
0
0
SPLINE
5
FA
100
AcDbEntity
8
1
62
256
6
ByLayer
370
18
48
1
60
0
100
AcDbSpline
70
4
71
3
72
8
73
4
40
0
40
0
40
0
40
0
40
1
40
1
40
1
40
1
41
1
10
6.05002015451615
20
-1.00015920780312
30
0
41
1
10
5.93178831033762
20
-0.998584938314886
30
0
41
1
10
5.81355649813764
20
-0.997010063095908
30
0
41
1
10
5.69532471802677
20
-0.995434580754202
30
0
0
SPLINE
5
FB
100
AcDbEntity
8
1
62
256
6
ByLayer
370
18
48
1
60
0
100
AcDbSpline
70
4
71
3
72
20
73
16
40
0
40
0
40
0
40
0
40
0.125000000000005
40
0.125000000000005
40
0.250000000000009
40
0.250000000000009
40
0.375000000000014
40
0.375000000000014
40
0.500000000000019
40
0.500000000000019
40
0.75000000000002
40
0.75000000000002
40
0.87500000000001
40
0.87500000000001
40
1
40
1
40
1
40
1
41
1
10
6.05002015451615
20
-9.14388740715888
30
0
41
1
10
6.06365252693226
20
-9.14388740715888
30
0
41
1
10
6.07704183017293
20
-9.14287881627164
30
0
41
1
10
6.10335096000688
20
-9.13891788153181
30
0
41
1
10
6.11641192303222
20
-9.13590966475187
30
0
41
1
10
6.14103994431125
20
-9.12814210602313
30
0
41
1
10
6.15267405290382
20
-9.12339845557504
30
0
41
1
10
6.17458470972176
20
-9.11221248063161
30
0
41
1
10
6.18473592052626
20
-9.10580705288761
30
0
41
1
10
6.21184862825069
20
-9.08492390725216
30
0
41
1
10
6.2259495376268
20
-9.06835993527413
30
0
41
1
10
6.239392106038
20
-9.04203266429759
30
0
41
1
10
6.24266914177431
20
-9.03285930566509
30
0
41
1
10
6.24654417628139
20
-9.01454590919892
30
0
41
1
10
6.2471962067595
20
-9.00533716611532
30
0
41
1
10
6.24653362936809
20
-8.99607637390816
30
0
0
SPLINE
5
FC
100
AcDbEntity
8
1
62
256
6
ByLayer
370
18
48
1
60
0
100
AcDbSpline
70
4
71
3
72
16
73
12
40
0
40
0
40
0
40
0
40
0.250000000000001
40
0.250000000000001
40
0.500000000000001
40
0.500000000000001
40
0.625000000000001
40
0.625000000000001
40
0.750000000000001
40
0.750000000000001
40
1
40
1
40
1
40
1
41
1
10
6.24653362936809
20
-8.99607637390816
30
0
41
1
10
6.2336595383772
20
-8.81613621436501
30
0
41
1
10
6.22195289102655
20
-8.65143580462778
30
0
41
1
10
6.20076058274088
20
-8.35131643132162
30
0
41
1
10
6.19127512367677
20
-8.21590084715155
30
0
41
1
10
6.17873531884709
20
-8.03507982533993
30
0
41
1
10
6.17483570780672
20
-7.97850398718053
30
0
41
1
10
6.16762834166957
20
-7.87315755521977
30
0
41
1
10
6.16434968663742
20
-7.82481275223029
30
0
41
1
10
6.15548051970643
20
-7.69258981621699
30
0
41
1
10
6.15085129875661
20
-7.62146349010019
30
0
41
1
10
6.14754856154821
20
-7.56761785377868
30
0
0
SPLINE
5
FD
100
AcDbEntity
8
1
62
256
6
ByLayer
370
18
48
1
60
0
100
AcDbSpline
70
4
71
3
72
8
73
4
40
0
40
0
40
0
40
0
40
1
40
1
40
1
40
1
41
1
10
5.69532471802677
20
-0.995434580754202
30
0
41
1
10
5.70296430995171
20
-1.11321031828082
30
0
41
1
10
5.71063382443907
20
-1.23098556708565
30
0
41
1
10
5.71832923663652
20
-1.34876038823681
30
0
0
SPLINE
5
FE
100
AcDbEntity
8
1
62
256
6
ByLayer
370
18
48
1
60
0
100
AcDbSpline
70
4
71
3
72
18
73
14
40
0
40
0
40
0
40
0
40
0.250000000000001
40
0.250000000000001
40
0.500000000000002
40
0.500000000000002
40
0.562500000000002
40
0.562500000000002
40
0.625000000000001
40
0.625000000000001
40
0.750000000000001
40
0.750000000000001
40
1
40
1
40
1
40
1
41
1
10
5.71832923663652
20
-1.34876038823681
30
0
41
1
10
5.73582213969271
20
-1.61641389622228
30
0
41
1
10
5.75548506634016
20
-1.91740508918017
30
0
41
1
10
5.79922096706866
20
-2.583255272556
30
0
41
1
10
5.82329272330728
20
-2.9481182940709
30
0
41
1
10
5.85639599583465
20
-3.44546154667359
30
0
41
1
10
5.86317381839598
20
-3.54708798402738
30
0
41
1
10
5.87692306917123
20
-3.7527857686514
30
0
41
1
10
5.88390800220179
20
-3.85706044229731
30
0
41
1
10
5.90519540377684
20
-4.17410561414611
30
0
41
1
10
5.91982998859118
20
-4.39109066404044
30
0
41
1
10
5.96509357341674
20
-5.05870869971751
30
0
41
1
10
5.99707315141168
20
-5.52589626017929
30
0
41
1
10
6.03103966396475
20
-6.01593194536222
30
0
0
SPLINE
5
FF
100
AcDbEntity
8
1
62
256
6
ByLayer
370
18
48
1
60
0
100
AcDbSpline
70
4
71
3
72
9
73
5
40
0
40
0
40
0
40
0
40
0.5
40
1
40
1
40
1
40
1
41
1
10
4.2535117833402
20
-17.6118404263295
30
0
41
1
10
4.25345357247383
20
-17.6130069768776
30
0
41
1
10
4.25335765128091
20
-17.6153375242209
30
0
41
1
10
4.25330240896741
20
-17.6176630035988
30
0
41
1
10
4.25328488719578
20
-17.6188244849876
30
0
0
SPLINE
5
100
100
AcDbEntity
8
1
62
256
6
ByLayer
370
18
48
1
60
0
100
AcDbSpline
70
4
71
3
72
16
73
12
40
0
40
0
40
0
40
0
40
0.250000000000001
40
0.250000000000001
40
0.500000000000002
40
0.500000000000002
40
0.625
40
0.625
40
0.749999999999999
40
0.749999999999999
40
1
40
1
40
1
40
1
41
1
10
4.35251764862758
20
-14.5028379540498
30
0
41
1
10
4.34919209897703
20
-14.7541494244925
30
0
41
1
10
4.34456160452041
20
-15.0081691935383
30
0
41
1
10
4.33284146241635
20
-15.5214041602151
30
0
41
1
10
4.32575116581776
20
-15.7806200384937
30
0
41
1
10
4.3132585077193
20
-16.1733947861035
30
0
41
1
10
4.308780689287
20
-16.3050585112423
30
0
41
1
10
4.29919769868644
20
-16.5694238419914
30
0
41
1
10
4.29413205544944
20
-16.7010439648933
30
0
41
1
10
4.27812241148825
20
-17.0942405500563
30
0
41
1
10
4.26636998751528
20
-17.3541609574432
30
0
41
1
10
4.2535117833402
20
-17.6118404263295
30
0
0
SPLINE
5
101
100
AcDbEntity
8
1
62
256
6
ByLayer
370
18
48
1
60
0
100
AcDbSpline
70
4
71
3
72
18
73
14
40
0
40
0
40
0
40
0
40
0.249999999999999
40
0.249999999999999
40
0.499999999999999
40
0.499999999999999
40
0.562499999999998
40
0.562499999999998
40
0.624999999999998
40
0.624999999999998
40
0.749999999999998
40
0.749999999999998
40
1
40
1
40
1
40
1
41
1
10
4.46827732298033
20
-16.8322119859825
30
0
41
1
10
4.50215417757835
20
-16.4023599709591
30
0
41
1
10
4.53400505654832
20
-15.9528742087082
30
0
41
1
10
4.59404991917074
20
-15.0162077940706
30
0
41
1
10
4.62224209989759
20
-14.529025798295
30
0
41
1
10
4.65527304350485
20
-13.8956469486055
30
0
41
1
10
4.66177205060222
20
-13.7676485573962
30
0
41
1
10
4.67444149885105
20
-13.5113533280868
30
0
41
1
10
4.68062594667646
20
-13.3827945353266
30
0
41
1
10
4.69874026213537
20
-12.9959003260923
30
0
41
1
10
4.71023179481821
20
-12.7363489831546
30
0
41
1
10
4.74302005097405
20
-11.9528836607934
30
0
41
1
10
4.76264079065274
20
-11.4241898933573
30
0
41
1
10
4.78007506605036
20
-10.888887407159
30
0
0
SPLINE
5
102
100
AcDbEntity
8
1
62
256
6
ByLayer
370
18
48
1
60
0
100
AcDbSpline
70
4
71
3
72
8
73
4
40
0
40
0
40
0
40
0
40
1
40
1
40
1
40
1
41
1
10
4.78007506605036
20
-10.888887407159
30
0
41
1
10
4.78832445735779
20
-10.6366217572967
30
0
41
1
10
4.79654260488667
20
-10.3843550831111
30
0
41
1
10
4.80472428646974
20
-10.1320872281692
30
0
0
SPLINE
5
103
100
AcDbEntity
8
1
62
256
6
ByLayer
370
18
48
1
60
0
100
AcDbSpline
70
4
71
3
72
18
73
14
40
0
40
0
40
0
40
0
40
0.259974097766745
40
0.259974097766745
40
0.389961146650118
40
0.389961146650118
40
0.51994819553349
40
0.51994819553349
40
0.649935244416863
40
0.649935244416863
40
0.779922293300236
40
0.779922293300236
40
1
40
1
40
1
40
1
41
1
10
4.45002015451612
20
-10.1415372187112
30
0
41
1
10
4.45002015451612
20
-10.3093276771254
30
0
41
1
10
4.45002015451612
20
-10.4562572996245
30
0
41
1
10
4.45002015451612
20
-10.6441834158262
30
0
41
1
10
4.45002015451612
20
-10.7014525359292
30
0
41
1
10
4.45002015451612
20
-10.8052169408444
30
0
41
1
10
4.45002015451612
20
-10.8516588604368
30
0
41
1
10
4.45002015451612
20
-10.933450666363
30
0
41
1
10
4.45002015451612
20
-10.968841021525
30
0
41
1
10
4.45002015451612
20
-11.0285926321368
30
0
41
1
10
4.45002015451612
20
-11.0529397156893
30
0
41
1
10
4.45002015451612
20
-11.1033955041997
30
0
41
1
10
4.45002015451612
20
-11.1191573774783
30
0
41
1
10
4.45002015451612
20
-11.1188937115446
30
0
0
SPLINE
5
104
100
AcDbEntity
8
1
62
256
6
ByLayer
370
18
48
1
60
0
100
AcDbSpline
70
4
71
3
72
8
73
4
40
0
40
0
40
0
40
0
40
1
40
1
40
1
40
1
41
1
10
4.80472428646974
20
-10.1320872281692
30
0
41
1
10
4.68648960843419
20
-10.1352384489957
30
0
41
1
10
4.56825489774516
20
-10.1383884448986
30
0
41
1
10
4.45002015451612
20
-10.1415372187112
30
0
0
SPLINE
5
105
100
AcDbEntity
8
1
62
256
6
ByLayer
370
18
48
1
60
0
100
AcDbSpline
70
4
71
3
72
9
73
5
40
0
40
0
40
0
40
0
40
0.5
40
1
40
1
40
1
40
1
41
1
10
4.25351178334023
20
-8.9958388446539
30
0
41
1
10
4.25345357247386
20
-8.99665333053029
30
0
41
1
10
4.25335765128094
20
-8.99828117784737
30
0
41
1
10
4.25330240896744
20
-8.99990679586214
30
0
41
1
10
4.2532848871958
20
-9.00071905162597
30
0
0
SPLINE
5
106
100
AcDbEntity
8
1
62
256
6
ByLayer
370
18
48
1
60
0
100
AcDbSpline
70
4
71
3
72
16
73
12
40
0
40
0
40
0
40
0
40
0.250000000000001
40
0.250000000000001
40
0.500000000000002
40
0.500000000000002
40
0.625000000000001
40
0.625000000000001
40
0.750000000000001
40
0.750000000000001
40
1
40
1
40
1
40
1
41
1
10
4.35251764862761
20
-7.56761785377868
30
0
41
1
10
4.34919209897708
20
-7.62145812774566
30
0
41
1
10
4.34456160452044
20
-7.69232873224213
30
0
41
1
10
4.33284146241638
20
-7.86673353075376
30
0
41
1
10
4.32575116581779
20
-7.97027205073503
30
0
41
1
10
4.31325850771933
20
-8.15041743295783
30
0
41
1
10
4.30878068928706
20
-8.21465982486604
30
0
41
1
10
4.29919769868647
20
-8.35151890233824
30
0
41
1
10
4.29413205544947
20
-8.42357129808503
30
0
41
1
10
4.27812241148828
20
-8.65044292341148
30
0
41
1
10
4.2663699875153
20
-8.81592697680359
30
0
41
1
10
4.25351178334023
20
-8.9958388446539
30
0
0
SPLINE
5
107
100
AcDbEntity
8
1
62
256
6
ByLayer
370
18
48
1
60
0
100
AcDbSpline
70
4
71
3
72
18
73
14
40
0
40
0
40
0
40
0
40
0.25
40
0.25
40
0.5
40
0.5
40
0.5625
40
0.5625
40
0.625
40
0.625
40
0.75
40
0.75
40
1
40
1
40
1
40
1
41
1
10
4.46827732298033
20
-6.01593194536225
30
0
41
1
10
4.50215417757835
20
-5.5258971437958
30
0
41
1
10
4.53400505654835
20
-5.05932516227726
30
0
41
1
10
4.59404991917077
20
-4.1712527819187
30
0
41
1
10
4.62224209989762
20
-3.7497538079754
30
0
41
1
10
4.65527304350488
20
-3.25207379371504
30
0
41
1
10
4.66177205060222
20
-3.15394654750023
30
0
41
1
10
4.67444149885108
20
-2.96229734832731
30
0
41
1
10
4.68062594667646
20
-2.86856473606944
30
0
41
1
10
4.6987402621354
20
-2.5935643914684
30
0
41
1
10
4.71023179481824
20
-2.41848446095475
30
0
41
1
10
4.74302005097402
20
-1.91774046555836
30
0
41
1
10
4.76264079065274
20
-1.61641163133587
30
0
41
1
10
4.78007506605036
20
-1.34876038823672
30
0
0
SPLINE
5
108
100
AcDbEntity
8
1
62
256
6
ByLayer
370
18
48
1
60
0
100
AcDbSpline
70
4
71
3
72
8
73
4
40
0
40
0
40
0
40
0
40
1
40
1
40
1
40
1
41
1
10
4.78007506605036
20
-1.34876038823681
30
0
41
1
10
4.78832445735776
20
-1.22208263954267
30
0
41
1
10
4.79654260488667
20
-1.0954043764742
30
0
41
1
10
4.80472428646971
20
-0.96872552047706
30
0
0
SPLINE
5
109
100
AcDbEntity
8
1
62
256
6
ByLayer
370
18
48
1
60
0
100
AcDbSpline
70
4
71
3
72
18
73
14
40
0
40
0
40
0
40
0
40
0.25
40
0.25
40
0.375
40
0.375
40
0.5
40
0.5
40
0.625
40
0.625
40
0.75
40
0.75
40
1
40
1
40
1
40
1
41
1
10
4.45002015451612
20
-0.973470928849887
30
0
41
1
10
4.45002015451612
20
-1.41595621544009
30
0
41
1
10
4.45002015451612
20
-1.85523969818963
30
0
41
1
10
4.45002015451612
20
-2.50543301376389
30
0
41
1
10
4.45002015451612
20
-2.720805324879
30
0
41
1
10
4.45002015451612
20
-3.14882527834397
30
0
41
1
10
4.45002015451612
20
-3.36128888851338
30
0
41
1
10
4.45002015451612
20
-3.78203081442028
30
0
41
1
10
4.45002015451612
20
-3.99047159527241
30
0
41
1
10
4.45002015451612
20
-4.40348648073903
30
0
41
1
10
4.45002015451612
20
-4.60806023574095
30
0
41
1
10
4.45002015451612
20
-5.21351991825097
30
0
41
1
10
4.45002015451612
20
-5.60700221606792
30
0
41
1
10
4.45002015451612
20
-5.99027663843723
30
0
0
SPLINE
5
10A
100
AcDbEntity
8
1
62
256
6
ByLayer
370
18
48
1
60
0
100
AcDbSpline
70
4
71
3
72
8
73
4
40
0
40
0
40
0
40
0
40
1
40
1
40
1
40
1
41
1
10
4.80472428646971
20
-0.96872552047706
30
0
41
1
10
4.68648960843419
20
-0.97030793790149
30
0
41
1
10
4.56825489774516
20
-0.971889740218225
30
0
41
1
10
4.45002015451612
20
-0.973470928849887
30
0
0
SPLINE
5
10B
100
AcDbEntity
8
1
62
256
6
ByLayer
370
18
48
1
60
0
100
AcDbSpline
70
4
71
3
72
12
73
8
40
0
40
0
40
0
40
0
40
0.284560310010237
40
0.284560310010237
40
0.642280155005118
40
0.642280155005118
40
1
40
1
40
1
40
1
41
1
10
4.41522308195346
20
16.8777056618195
30
0
41
1
10
4.41743775700502
20
16.8781697062425
30
0
41
1
10
4.41986098858564
20
16.878618870605
30
0
41
1
10
4.42596729066636
20
16.8795848613968
30
0
41
1
10
4.42985785265947
20
16.8800888339614
30
0
41
1
10
4.43900131787143
20
16.8808575629465
30
0
41
1
10
4.44437644121697
20
16.8811125928407
30
0
41
1
10
4.4500201545153
20
16.8811125928407
30
0
0
SPLINE
5
10C
100
AcDbEntity
8
1
62
256
6
ByLayer
370
18
48
1
60
0
100
AcDbSpline
70
4
71
3
72
9
73
5
40
0
40
0
40
0
40
0
40
0.5
40
1
40
1
40
1
40
1
41
1
10
4.25351178334026
20
16.6740656120115
30
0
41
1
10
4.25345357247389
20
16.6752321625595
30
0
41
1
10
4.25335765128097
20
16.6775627099029
30
0
41
1
10
4.25330240896747
20
16.6798881892808
30
0
41
1
10
4.25328488719583
20
16.6810496706696
30
0
0
SPLINE
5
10D
100
AcDbEntity
8
1
62
256
6
ByLayer
370
18
48
1
60
0
100
AcDbSpline
70
4
71
3
72
16
73
12
40
0
40
0
40
0
40
0
40
0.25
40
0.25
40
0.5
40
0.5
40
0.624999999999999
40
0.624999999999999
40
0.749999999999998
40
0.749999999999998
40
1
40
1
40
1
40
1
41
1
10
4.35251764862764
20
13.5650631397318
30
0
41
1
10
4.34919209897708
20
13.8163746101745
30
0
41
1
10
4.34456160452046
20
14.0703943792202
30
0
41
1
10
4.33284146241641
20
14.5836293458971
30
0
41
1
10
4.32575116581782
20
14.8428452241756
30
0
41
1
10
4.31325850771935
20
15.2356199717854
30
0
41
1
10
4.30878068928706
20
15.3672836969243
30
0
41
1
10
4.2991976986865
20
15.6316490276733
30
0
41
1
10
4.2941320554495
20
15.7632691505753
30
0
41
1
10
4.27812241148831
20
16.1564657357383
30
0
41
1
10
4.26636998751533
20
16.4163861431252
30
0
41
1
10
4.25351178334026
20
16.6740656120115
30
0
0
SPLINE
5
10E
100
AcDbEntity
8
1
62
256
6
ByLayer
370
18
48
1
60
0
100
AcDbSpline
70
4
71
3
72
20
73
16
40
0
40
0
40
0
40
0
40
0.125
40
0.125
40
0.25
40
0.25
40
0.375
40
0.375
40
0.5
40
0.5
40
0.625
40
0.625
40
0.75
40
0.75
40
1
40
1
40
1
40
1
41
1
10
4.25328488719583
20
16.6810496706696
30
0
41
1
10
4.25308886912896
20
16.6940432960534
30
0
41
1
10
4.2541455425818
20
16.7068386929044
30
0
41
1
10
4.25867936226692
20
16.7320475156558
30
0
41
1
10
4.26220611567996
20
16.7445789261331
30
0
41
1
10
4.27163000023654
20
16.7686406192594
30
0
41
1
10
4.27746101709101
20
16.7800794133298
30
0
41
1
10
4.29135965836676
20
16.8017789886981
30
0
41
1
10
4.29953569290609
20
16.8121292118298
30
0
41
1
10
4.31757676652592
20
16.8307679123514
30
0
41
1
10
4.32746636587262
20
16.8391444953743
30
0
41
1
10
4.3490321865855
20
16.8539664646649
30
0
41
1
10
4.36070587212731
20
16.8603624241876
30
0
41
1
10
4.39684509148788
20
16.8756765601508
30
0
41
1
10
4.42332544430894
20
16.8811125928374
30
0
41
1
10
4.45002015449458
20
16.881112592841
30
0
0
SPLINE
5
10F
100
AcDbEntity
8
1
62
256
6
ByLayer
370
18
48
1
60
0
100
AcDbSpline
70
4
71
3
72
16
73
12
40
0
40
0
40
0
40
0
40
0.250000000000002
40
0.250000000000002
40
0.500000000000004
40
0.500000000000004
40
0.625000000000003
40
0.625000000000003
40
0.750000000000003
40
0.750000000000003
40
1
40
1
40
1
40
1
41
1
10
6.24653362936812
20
16.6744058008351
30
0
41
1
10
6.23365953837725
20
16.4167060671749
30
0
41
1
10
6.22195289102658
20
16.1579274016821
30
0
41
1
10
6.20076058274091
20
15.638297909744
30
0
41
1
10
6.1912751236768
20
15.3774468463241
30
0
41
1
10
6.17873531884712
20
14.984592109319
30
0
41
1
10
6.17483570780675
20
14.8532975698562
30
0
41
1
10
6.16762834166963
20
14.590489911162
30
0
41
1
10
6.16434968663745
20
14.460050238965
30
0
41
1
10
6.15548051970646
20
14.071584900406
30
0
41
1
10
6.15085129875663
20
13.8163996401586
30
0
41
1
10
6.14754856154823
20
13.5650631397318
30
0
0
SPLINE
5
110
100
AcDbEntity
8
1
62
256
6
ByLayer
370
18
48
1
60
0
100
AcDbSpline
70
4
71
3
72
20
73
16
40
0
40
0
40
0
40
0
40
0.125000000000001
40
0.125000000000001
40
0.250000000000002
40
0.250000000000002
40
0.375000000000003
40
0.375000000000003
40
0.500000000000004
40
0.500000000000004
40
0.750000000000001
40
0.750000000000001
40
0.875
40
0.875
40
1
40
1
40
1
40
1
41
1
10
6.05002015451618
20
16.881112592841
30
0
41
1
10
6.06365252693229
20
16.881112592841
30
0
41
1
10
6.07704183017296
20
16.8797354473272
30
0
41
1
10
6.10335096000691
20
16.8743197004206
30
0
41
1
10
6.11641192303225
20
16.8702045305712
30
0
41
1
10
6.14103994431127
20
16.8595547371101
30
0
41
1
10
6.15267405290385
20
16.8530417338909
30
0
41
1
10
6.17458470972178
20
16.8376369067104
30
0
41
1
10
6.18473592052629
20
16.8287950992012
30
0
41
1
10
6.21184862825069
20
16.7998639432794
30
0
41
1
10
6.22594953762683
20
16.7767813551311
30
0
41
1
10
6.23939210603805
20
16.7397449558419
30
0
41
1
10
6.24266914177434
20
16.7267861304968
30
0
41
1
10
6.24654417628142
20
16.7007958379372
30
0
41
1
10
6.24719620675953
20
16.6876685638077
30
0
41
1
10
6.24653362936812
20
16.6744058008351
30
0
0
SPLINE
5
111
100
AcDbEntity
8
1
62
256
6
ByLayer
370
18
48
1
60
0
100
AcDbSpline
70
4
71
3
72
8
73
4
40
0
40
0
40
0
40
0
40
1
40
1
40
1
40
1
41
1
10
6.04044751694065
20
10.2592280042419
30
0
41
1
10
6.07198377294677
20
11.3579398483741
30
0
41
1
10
6.10778230210803
20
12.4619791084978
30
0
41
1
10
6.14754856154823
20
13.5650631397318
30
0
0
SPLINE
5
112
100
AcDbEntity
8
1
62
256
6
ByLayer
370
18
48
1
60
0
100
AcDbSpline
70
4
71
3
72
8
73
4
40
0
40
0
40
0
40
0
40
1
40
1
40
1
40
1
41
1
10
4.35251764862764
20
13.5650631397318
30
0
41
1
10
4.39221006642686
20
12.4639312463436
30
0
41
1
10
4.42795885217038
20
11.3620039282177
30
0
41
1
10
4.45949569416598
20
10.2652260456879
30
0
0
SPLINE
5
113
100
AcDbEntity
8
1
62
256
6
ByLayer
370
18
48
1
60
0
100
AcDbSpline
70
4
71
3
72
14
73
10
40
0
40
0
40
0
40
0
40
0.168209535586311
40
0.168209535586311
40
0.336419071172623
40
0.336419071172623
40
0.672838142345256
40
0.672838142345256
40
1
40
1
40
1
40
1
41
1
10
6.05002015451618
20
16.881112592841
30
0
41
1
10
6.05571825516122
20
16.881112592841
30
0
41
1
10
6.06117729148667
20
16.8808657861694
30
0
41
1
10
6.07053440860679
20
16.880109314926
30
0
41
1
10
6.07452166054699
20
16.8796121642715
30
0
41
1
10
6.08500881982803
20
16.8780132192564
30
0
41
1
10
6.09024654405044
20
16.8767944826583
30
0
41
1
10
6.09916677666376
20
16.8743606071352
30
0
41
1
10
6.10292387413892
20
16.8731233409856
30
0
41
1
10
6.10624100539124
20
16.8718677384738
30
0
0
SPLINE
5
114
100
AcDbEntity
8
1
62
256
6
ByLayer
370
18
48
1
60
0
100
AcDbSpline
70
4
71
3
72
8
73
4
40
0
40
0
40
0
40
0
40
1
40
1
40
1
40
1
41
0.998629157219995
10
2.01545160936E-05
20
2.00308395211233
30
0
41
0.9990290733922
10
0.0336112826019843
20
1.99762942910867
30
0
41
0.999486020985534
10
0.0669464001010045
20
1.99189510757781
30
0
41
1
10
0.10002015451613
20
1.98588235218906
30
0
0
SPLINE
5
115
100
AcDbEntity
8
1
62
256
6
ByLayer
370
18
48
1
60
0
100
AcDbSpline
70
4
71
3
72
8
73
4
40
0
40
0
40
0
40
0
40
1
40
1
40
1
40
1
41
1
10
6.05002015451615
20
4.88899288436291
30
0
41
1
10
6.05002015451615
20
4.8120263571296
30
0
41
1
10
6.05002015451615
20
4.73459311883126
30
0
41
1
10
6.05002015451615
20
4.65669288436657
30
0
0
SPLINE
5
116
100
AcDbEntity
8
1
62
256
6
ByLayer
370
18
48
1
60
0
100
AcDbSpline
70
4
71
3
72
18
73
14
40
0
40
0
40
0
40
0
40
0.25
40
0.25
40
0.375
40
0.375
40
0.5
40
0.5
40
0.625
40
0.625
40
0.75
40
0.75
40
1
40
1
40
1
40
1
41
1
10
6.05002015451615
20
-1.00015920780312
30
0
41
1
10
6.05002015451615
20
-1.44112359202479
30
0
41
1
10
6.05002015451615
20
-1.87866371297214
30
0
41
1
10
6.05002015451615
20
-2.52593652402568
30
0
41
1
10
6.05002015451615
20
-2.74028323550915
30
0
41
1
10
6.05002015451615
20
-3.16614762047807
30
0
41
1
10
6.05002015451615
20
-3.3774821814669
30
0
41
1
10
6.05002015451615
20
-3.79578821158641
30
0
41
1
10
6.05002015451615
20
-4.00293284474433
30
0
41
1
10
6.05002015451615
20
-4.41320262925221
30
0
41
1
10
6.05002015451615
20
-4.61651501581378
30
0
41
1
10
6.05002015451615
20
-5.21832159976811
30
0
41
1
10
6.05002015451615
20
-5.60907282807063
30
0
41
1
10
6.05002015451615
20
-5.98933869728567
30
0
0
SPLINE
5
117
100
AcDbEntity
8
1
62
256
6
ByLayer
370
18
48
1
60
0
100
AcDbSpline
70
4
71
3
72
8
73
4
40
0
40
0
40
0
40
0
40
1
40
1
40
1
40
1
41
1
10
6.03809950203092
20
-11.1149324190928
30
0
41
1
10
6.07020332255701
20
-12.2407284720964
30
0
41
1
10
6.1067920422303
20
-13.372284910813
30
0
41
1
10
6.14754856154818
20
-14.5028379540498
30
0
0
SPLINE
5
118
100
AcDbEntity
8
1
62
256
6
ByLayer
370
18
48
1
60
0
100
AcDbSpline
70
4
71
3
72
8
73
4
40
0
40
0
40
0
40
0
40
1
40
1
40
1
40
1
41
1
10
4.35251764862758
20
-14.5028379540498
30
0
41
1
10
4.39324544022898
20
-13.3729831161201
30
0
41
1
10
4.42982117773036
20
-12.2422908150352
30
0
41
1
10
4.46195500030817
20
-11.1171833654447
30
0
0
SPLINE
5
119
100
AcDbEntity
8
1
62
256
6
ByLayer
370
18
48
1
60
0
100
AcDbSpline
70
4
71
3
72
8
73
4
40
0
40
0
40
0
40
0
40
1
40
1
40
1
40
1
41
1
10
5.96166692683229
20
10.4110200227747
30
0
41
1
10
5.98383427312751
20
10.4111409789379
30
0
41
1
10
6.00693671279282
20
10.3900989719121
30
0
41
1
10
6.03103966396475
20
10.3473926334613
30
0
0
SPLINE
5
11A
100
AcDbEntity
8
1
62
256
6
ByLayer
370
18
48
1
60
0
100
AcDbSpline
70
4
71
3
72
8
73
4
40
0
40
0
40
0
40
0
40
1
40
1
40
1
40
1
41
1
10
6.05002015451637
20
4.65669288436654
30
0
41
1
10
6.04604660368793
20
4.65669549589051
30
0
41
1
10
6.04207305285942
20
4.6566981073974
30
0
41
1
10
6.03809950203092
20
4.65670071888728
30
0
0
SPLINE
5
11B
100
AcDbEntity
8
1
62
256
6
ByLayer
370
18
48
1
60
0
100
AcDbSpline
70
4
71
3
72
8
73
4
40
0
40
0
40
0
40
0
40
1
40
1
40
1
40
1
41
1
10
6.03809950203092
20
4.65670071888728
30
0
41
1
10
6.07020332255701
20
5.31343077238082
30
0
41
1
10
6.10679204223032
20
5.91783205469439
30
0
41
1
10
6.14754856154821
20
6.46633269311172
30
0
0
SPLINE
5
11C
100
AcDbEntity
8
1
62
256
6
ByLayer
370
18
48
1
60
0
100
AcDbSpline
70
4
71
3
72
8
73
4
40
0
40
0
40
0
40
0
40
1
40
1
40
1
40
1
41
1
10
4.35251764862761
20
6.46633269311172
30
0
41
1
10
4.39324544022901
20
5.9181707969223
30
0
41
1
10
4.42982117773036
20
5.31426796082984
30
0
41
1
10
4.46195500030817
20
4.65801372814513
30
0
0
SPLINE
5
11D
100
AcDbEntity
8
1
62
256
6
ByLayer
370
18
48
1
60
0
100
AcDbSpline
70
4
71
3
72
8
73
4
40
0
40
0
40
0
40
0
40
1
40
1
40
1
40
1
41
1
10
4.46195500030817
20
4.65801372814513
30
0
41
1
10
4.45797671838221
20
4.65801111925611
30
0
41
1
10
4.45399843645629
20
4.65800851035006
30
0
41
1
10
4.45002015453039
20
4.65800590142705
30
0
0
SPLINE
5
11E
100
AcDbEntity
8
1
62
256
6
ByLayer
370
18
48
1
60
0
100
AcDbSpline
70
4
71
3
72
8
73
4
40
0
40
0
40
0
40
0
40
1
40
1
40
1
40
1
41
1
10
6.05002015451637
20
-5.98933869728567
30
0
41
1
10
6.04604660368793
20
-5.98934056254996
30
0
41
1
10
6.04207305285942
20
-5.98934242780357
30
0
41
1
10
6.03809950203092
20
-5.98934429304652
30
0
0
SPLINE
5
11F
100
AcDbEntity
8
1
62
256
6
ByLayer
370
18
48
1
60
0
100
AcDbSpline
70
4
71
3
72
8
73
4
40
0
40
0
40
0
40
0
40
1
40
1
40
1
40
1
41
1
10
6.03809950203092
20
-5.98934429304652
30
0
41
1
10
6.07020332255701
20
-6.45841029255639
30
0
41
1
10
6.10679204223032
20
-6.98556544895934
30
0
41
1
10
6.14754856154821
20
-7.56761785377868
30
0
0
SPLINE
5
120
100
AcDbEntity
8
1
62
256
6
ByLayer
370
18
48
1
60
0
100
AcDbSpline
70
4
71
3
72
8
73
4
40
0
40
0
40
0
40
0
40
1
40
1
40
1
40
1
41
1
10
4.35251764862761
20
-7.56761785377868
30
0
41
1
10
4.39324544022901
20
-6.98592491203847
30
0
41
1
10
4.42982117773036
20
-6.45913544704627
30
0
41
1
10
4.46195500030817
20
-5.9902822301406
30
0
0
SPLINE
5
121
100
AcDbEntity
8
1
62
256
6
ByLayer
370
18
48
1
60
0
100
AcDbSpline
70
4
71
3
72
8
73
4
40
0
40
0
40
0
40
0
40
1
40
1
40
1
40
1
41
1
10
4.46195500030817
20
-5.9902822301406
30
0
41
1
10
4.45797671838221
20
-5.99028036625013
30
0
41
1
10
4.45399843645626
20
-5.99027850234902
30
0
41
1
10
4.45002015453036
20
-5.99027663843726
30
0
0
SPLINE
5
122
100
AcDbEntity
8
1
62
256
6
ByLayer
370
18
48
1
60
0
100
AcDbSpline
70
4
71
3
72
8
73
4
40
0
40
0
40
0
40
0
40
1
40
1
40
1
40
1
41
1
10
0.10002015451613
20
0.221478748290584
30
0
41
0.999486020985534
10
0.0669464001010045
20
0.200098890685812
30
0
41
0.9990290733922
10
0.0336112826019843
20
0.178637418054851
30
0
41
0.998629157219995
10
2.01545160936E-05
20
0.157097895338073
30
0
0
SPLINE
5
123
100
AcDbEntity
8
1
62
256
6
ByLayer
370
18
48
1
60
0
100
AcDbSpline
70
4
71
3
72
8
73
4
40
0
40
0
40
0
40
0
40
1
40
1
40
1
40
1
41
1
10
0.10002015451613
20
-0.991183682062493
30
0
41
0.999944612548473
10
0.0667136048876717
20
-1.01070029204727
30
0
41
0.999895089459736
10
0.0333800773816219
20
-1.03021108962851
30
0
41
0.99985143073379
10
2.01545161369E-05
20
-1.04971573063635
30
0
0
SPLINE
5
124
100
AcDbEntity
8
1
62
256
6
ByLayer
370
18
48
1
60
0
100
AcDbSpline
70
4
71
3
72
20
73
16
40
0
40
0
40
0
40
0
40
0.124999999999998
40
0.124999999999998
40
0.249999999999995
40
0.249999999999995
40
0.374999999999993
40
0.374999999999993
40
0.49999999999999
40
0.49999999999999
40
0.749999999999994
40
0.749999999999994
40
0.874999999999997
40
0.874999999999997
40
1
40
1
40
1
40
1
41
1
10
6.05002015451615
20
8.20611259284117
30
0
41
1
10
6.06365252693226
20
8.20611259284117
30
0
41
1
10
6.07704183017293
20
8.20574403821458
30
0
41
1
10
6.10335096000688
20
8.20428922604784
30
0
41
1
10
6.11641192303222
20
8.20318227297834
30
0
41
1
10
6.14103994431125
20
8.20030003824598
30
0
41
1
10
6.15267405290382
20
8.19853068547487
30
0
41
1
10
6.17458470972178
20
8.1943118332378
30
0
41
1
10
6.18473592052626
20
8.19187545347264
30
0
41
1
10
6.21184862825069
20
8.18382744318628
30
0
41
1
10
6.2259495376268
20
8.17730882701604
30
0
41
1
10
6.239392106038
20
8.16659969870337
30
0
41
1
10
6.24266914177431
20
8.16281423199077
30
0
41
1
10
6.24654417628139
20
8.15513733589727
30
0
41
1
10
6.2471962067595
20
8.15121880485136
30
0
41
1
10
6.24653362936809
20
8.14721683408597
30
0
0
SPLINE
5
125
100
AcDbEntity
8
1
62
256
6
ByLayer
370
18
48
1
60
0
100
AcDbSpline
70
4
71
3
72
8
73
4
40
0
40
0
40
0
40
0
40
1
40
1
40
1
40
1
41
1
10
4.45002015451612
20
4.89218790141597
30
0
41
1
10
4.45002015451612
20
4.81461955937225
30
0
41
1
10
4.45002015451612
20
4.73655905578112
30
0
41
1
10
4.45002015451612
20
4.65800590142708
30
0
0
SPLINE
5
126
100
AcDbEntity
8
1
62
256
6
ByLayer
370
18
48
1
60
0
100
AcDbSpline
70
4
71
3
72
18
73
14
40
0
40
0
40
0
40
0
40
0.266660443641371
40
0.266660443641371
40
0.399990665462056
40
0.399990665462056
40
0.533320887282742
40
0.533320887282742
40
0.666651109103427
40
0.666651109103427
40
0.799981330924112
40
0.799981330924112
40
1
40
1
40
1
40
1
41
1
10
6.05002015451615
20
-10.1946841691681
30
0
41
1
10
6.05002015451615
20
-10.3577463448116
30
0
41
1
10
6.05002015451615
20
-10.4999415837828
30
0
41
1
10
6.05002015451615
20
-10.6808027000864
30
0
41
1
10
6.05002015451612
20
-10.7357216232095
30
0
41
1
10
6.05002015451612
20
-10.8347956399265
30
0
41
1
10
6.05002015451615
20
-10.8788987228772
30
0
41
1
10
6.05002015451615
20
-10.9560272782801
30
0
41
1
10
6.05002015451615
20
-10.9890942362295
30
0
41
1
10
6.05002015451615
20
-11.0442260729343
30
0
41
1
10
6.05002015451615
20
-11.0663008785068
30
0
41
1
10
6.05002015451618
20
-11.1075117438266
30
0
41
1
10
6.05002015451615
20
-11.1197310443477
30
0
41
1
10
6.05002015451615
20
-11.119413072375
30
0
0
SPLINE
5
127
100
AcDbEntity
8
1
62
256
6
ByLayer
370
18
48
1
60
0
100
AcDbSpline
70
4
71
3
72
9
73
5
40
0
40
0
40
0
40
0
40
0.5
40
1
40
1
40
1
40
1
41
1
10
4.25351178334023
20
8.14711417451664
30
0
41
1
10
4.25345357247386
20
8.1474662391883
30
0
41
1
10
4.25335765128094
20
8.14816893921453
30
0
41
1
10
4.25330240896744
20
8.14886880057772
30
0
41
1
10
4.2532848871958
20
8.14921802620264
30
0
0
SPLINE
5
128
100
AcDbEntity
8
1
62
256
6
ByLayer
370
18
48
1
60
0
100
AcDbSpline
70
4
71
3
72
16
73
12
40
0
40
0
40
0
40
0
40
0.25
40
0.25
40
0.500000000000001
40
0.500000000000001
40
0.625000000000001
40
0.625000000000001
40
0.750000000000001
40
0.750000000000001
40
1
40
1
40
1
40
1
41
1
10
4.35251764862761
20
6.46633269311172
30
0
41
1
10
4.34919209897708
20
6.6638038895875
30
0
41
1
10
4.34456160452044
20
6.8469530541368
30
0
41
1
10
4.33284146241638
20
7.18578322230208
30
0
41
1
10
4.32575116581779
20
7.34146058059939
30
0
41
1
10
4.31325850771933
20
7.55408994598644
30
0
41
1
10
4.30878068928706
20
7.62151127921711
30
0
41
1
10
4.29919769868647
20
7.749017532494
30
0
41
1
10
4.29413205544947
20
7.80858525964921
30
0
41
1
10
4.27812241148828
20
7.97491021948573
30
0
41
1
10
4.2663699875153
20
8.06934657348065
30
0
41
1
10
4.25351178334023
20
8.14711417451664
30
0
0
SPLINE
5
129
100
AcDbEntity
8
1
62
256
6
ByLayer
370
18
48
1
60
0
100
AcDbSpline
70
4
71
3
72
8
73
4
40
0
40
0
40
0
40
0
40
1
40
1
40
1
40
1
41
1
10
4.46827732298033
20
10.3473926334613
30
0
41
1
10
4.49231669977431
20
10.3900989797081
30
0
41
1
10
4.51533590206381
20
10.4111041669904
30
0
41
1
10
4.53740551103834
20
10.4110204069911
30
0
0
SPLINE
5
12A
100
AcDbEntity
8
1
62
256
6
ByLayer
370
18
48
1
60
0
100
AcDbSpline
70
4
71
3
72
16
73
12
40
0
40
0
40
0
40
0
40
0.25
40
0.25
40
0.499999999999999
40
0.499999999999999
40
0.624999999999999
40
0.624999999999999
40
0.749999999999999
40
0.749999999999999
40
1
40
1
40
1
40
1
41
1
10
6.24653362936809
20
8.14721683408597
30
0
41
1
10
6.2336595383772
20
8.06945725996888
30
0
41
1
10
6.22195289102655
20
7.97537900421331
30
0
41
1
10
6.20076058274086
20
7.75586888558128
30
0
41
1
10
6.19127512367677
20
7.63043340633137
30
0
41
1
10
6.17873531884709
20
7.41839969113791
30
0
41
1
10
6.17483570780672
20
7.34368098983449
30
0
41
1
10
6.16762834166957
20
7.18621976310091
30
0
41
1
10
6.16434968663742
20
7.10412489389338
30
0
41
1
10
6.15548051970643
20
6.84788249134774
30
0
41
1
10
6.15085129875661
20
6.66382355721708
30
0
41
1
10
6.14754856154821
20
6.46633269311172
30
0
0
SPLINE
5
12B
100
AcDbEntity
8
1
62
256
6
ByLayer
370
18
48
1
60
0
100
AcDbSpline
70
4
71
3
72
20
73
16
40
0
40
0
40
0
40
0
40
0.125
40
0.125
40
0.250000000000001
40
0.250000000000001
40
0.375000000000001
40
0.375000000000001
40
0.500000000000001
40
0.500000000000001
40
0.625000000000002
40
0.625000000000002
40
0.750000000000002
40
0.750000000000002
40
1
40
1
40
1
40
1
41
1
10
4.2532848871958
20
-9.00071905162594
30
0
41
1
10
4.25308886912893
20
-9.00980584992775
30
0
41
1
10
4.25414554258177
20
-9.01879488937554
30
0
41
1
10
4.25867936226689
20
-9.0365807501026
30
0
41
1
10
4.26220611567993
20
-9.04546168880064
30
0
41
1
10
4.27163000023651
20
-9.06258362925454
30
0
41
1
10
4.27746101709099
20
-9.07075861037914
30
0
41
1
10
4.2913596583667
20
-9.0863213709314
30
0
41
1
10
4.29953569290606
20
-9.09377416252264
30
0
41
1
10
4.31757676652589
20
-9.10723502611828
30
0
41
1
10
4.3274663658726
20
-9.11330582764033
30
0
41
1
10
4.34903218658545
20
-9.12407154339332
30
0
41
1
10
4.36070587212728
20
-9.12873073501184
30
0
41
1
10
4.39684509148785
20
-9.13990177809499
30
0
41
1
10
4.42332544430892
20
-9.14388740716411
30
0
41
1
10
4.45002015449455
20
-9.14388740716678
30
0
0
SPLINE
5
12C
100
AcDbEntity
8
1
62
256
6
ByLayer
370
18
48
1
60
0
100
AcDbSpline
70
4
71
3
72
20
73
16
40
0
40
0
40
0
40
0
40
0.125000000000001
40
0.125000000000001
40
0.250000000000002
40
0.250000000000002
40
0.375000000000003
40
0.375000000000003
40
0.500000000000004
40
0.500000000000004
40
0.625000000000005
40
0.625000000000005
40
0.750000000000006
40
0.750000000000006
40
1
40
1
40
1
40
1
41
1
10
4.2532848871958
20
8.14921802620267
30
0
41
1
10
4.25308886912893
20
8.1531248532847
30
0
41
1
10
4.25414554258177
20
8.15693121068789
30
0
41
1
10
4.25867936226689
20
8.16435417271221
30
0
41
1
10
4.26220611567993
20
8.16800464449152
30
0
41
1
10
4.27163000023651
20
8.17494439716389
30
0
41
1
10
4.27746101709099
20
8.17820821010974
30
0
41
1
10
4.29135965836673
20
8.18434502492572
30
0
41
1
10
4.29953569290606
20
8.1872424564662
30
0
41
1
10
4.31757676652589
20
8.19242029339218
30
0
41
1
10
4.3274663658726
20
8.19472607489296
30
0
41
1
10
4.34903218658545
20
8.1987823284306
30
0
41
1
10
4.36070587212728
20
8.20051909633479
30
0
41
1
10
4.39684509148785
20
8.20466218921483
30
0
41
1
10
4.42332544430889
20
8.20611259283227
30
0
41
1
10
4.45002015449455
20
8.20611259283324
30
0
0
SPLINE
5
12D
100
AcDbEntity
8
1
62
256
6
ByLayer
370
18
48
1
60
0
100
AcDbSpline
70
4
71
3
72
8
73
4
40
0
40
0
40
0
40
0
40
1
40
1
40
1
40
1
41
0.99985143073379
10
2.01545161369E-05
20
-3.4538058871273
30
0
41
0.999895089459736
10
0.0333800773816219
20
-3.47150940527737
30
0
41
0.999944612548473
10
0.0667136048876717
20
-3.48917732665597
30
0
41
1
10
0.10002015451613
20
-3.50680934571847
30
0
0
SPLINE
5
12E
100
AcDbEntity
8
1
62
256
6
ByLayer
370
18
48
1
60
0
100
AcDbSpline
70
4
71
3
72
20
73
16
40
0
40
0
40
0
40
0
40
0.146909424720068
40
0.146909424720068
40
0.293818849440137
40
0.293818849440137
40
0.440728274160205
40
0.440728274160205
40
0.587637698880274
40
0.587637698880274
40
0.734547123600342
40
0.734547123600342
40
0.881456548320411
40
0.881456548320411
40
1
40
1
40
1
40
1
41
1
10
4.25328488719578
20
-17.6188244849876
30
0
41
1
10
4.2530888691289
20
-17.6318181103714
30
0
41
1
10
4.25414554258174
20
-17.6446135072224
30
0
41
1
10
4.25867936226686
20
-17.6698223299738
30
0
41
1
10
4.2622061156799
20
-17.6823537404511
30
0
41
1
10
4.27163000023648
20
-17.7064154335774
30
0
41
1
10
4.27746101709096
20
-17.7178542276479
30
0
41
1
10
4.2913596583667
20
-17.7395538030161
30
0
41
1
10
4.29953569290603
20
-17.7499040261478
30
0
41
1
10
4.31757676652586
20
-17.7685427266694
30
0
41
1
10
4.32746636587257
20
-17.7769193096923
30
0
41
1
10
4.34903218658545
20
-17.7917412789829
30
0
41
1
10
4.36070587212726
20
-17.7981372385056
30
0
41
1
10
4.38247270736917
20
-17.8073610203216
30
0
41
1
10
4.39258177523848
20
-17.8107030868452
30
0
41
1
10
4.40293676050729
20
-17.8132246317254
30
0
0
SPLINE
5
12F
100
AcDbEntity
8
1
62
256
6
ByLayer
370
18
48
1
60
0
100
AcDbSpline
70
4
71
3
72
8
73
4
40
0
40
0
40
0
40
0
40
1
40
1
40
1
40
1
41
1
10
0.10002015451613
20
-6.25301882907559
30
0
41
0.999944612548473
10
0.0667136048876717
20
-6.24199588620413
30
0
41
0.999895089459736
10
0.0333800773816219
20
-6.23090494629345
30
0
41
0.99985143073379
10
2.01545161369E-05
20
-6.21974619439269
30
0
0
INSERT
5
15D
100
AcDbEntity
8
2
62
256
6
ByLayer
370
25
48
1
60
0
100
AcDbBlockReference
2
DimnDraft3D44
10
0
20
0
30
0
41
1
42
1
43
1
50
0
210
0
220
0
230
1
0
LINE
5
75
100
AcDbEntity
8
1
62
256
6
ByLayer
370
18
48
1
60
0
100
AcDbLine
10
0.10002
20
-0.468887
30
0
11
4.45002
21
-0.468887
31
0
39
0
210
0
220
0
230
1
0
LINE
5
76
100
AcDbEntity
8
1
62
256
6
ByLayer
370
18
48
1
60
0
100
AcDbLine
10
0.10002
20
-6.468887
30
0
11
4.42895
21
-6.468887
31
0
39
0
210
0
220
0
230
1
0
LINE
5
77
100
AcDbEntity
8
1
62
256
6
ByLayer
370
18
48
1
60
0
100
AcDbLine
10
5.9619
20
10.410986
30
0
11
4.537288
21
10.410986
31
0
39
0
210
0
220
0
230
1
0
LINE
5
78
100
AcDbEntity
8
SK1
62
256
6
ByLayer
370
13
48
1
60
0
100
AcDbLine
10
-0.84998
20
-5.922807
30
0
11
-0.84998
21
-2.99811
31
0
39
0
210
0
220
0
230
1
0
LINE
5
7A
100
AcDbEntity
8
1
62
256
6
ByLayer
370
13
48
1
60
0
100
AcDbLine
10
2E-05
20
-3.453808
30
0
11
2E-05
21
-6.219746
31
0
39
0
210
0
220
0
230
1
0
LINE
5
7B
100
AcDbEntity
8
SK1
62
256
6
ByLayer
370
13
48
1
60
0
100
AcDbLine
10
-0.84998
20
-2.998107
30
0
11
-0.84998
21
-1.542069
31
0
39
0
210
0
220
0
230
1
0
LINE
5
7C
100
AcDbEntity
8
1
62
256
6
ByLayer
370
13
48
1
60
0
100
AcDbLine
10
2E-05
20
0.157098
30
0
11
2E-05
21
-1.049716
31
0
39
0
210
0
220
0
230
1
0
LINE
5
7D
100
AcDbEntity
8
1
62
256
6
ByLayer
370
13
48
1
60
0
100
AcDbLine
10
2E-05
20
-1.049716
30
0
11
2E-05
21
-3.453806
31
0
39
0
210
0
220
0
230
1
0
LINE
5
7E
100
AcDbEntity
8
SK1
62
256
6
ByLayer
370
13
48
1
60
0
100
AcDbLine
10
-0.84998
20
-1.542069
30
0
11
-0.84998
21
-0.371369
31
0
39
0
210
0
220
0
230
1
0
LINE
5
7F
100
AcDbEntity
8
SK1
62
256
6
ByLayer
370
18
48
1
60
0
100
AcDbLine
10
-0.84998
20
1.689103
30
0
11
-0.84998
21
2.079247
31
0
39
0
210
0
220
0
230
1
0
LINE
5
80
100
AcDbEntity
8
1
62
256
6
ByLayer
370
13
48
1
60
0
100
AcDbLine
10
2E-05
20
1.35891
30
0
11
2E-05
21
2.003079
31
0
39
0
210
0
220
0
230
1
0
LINE
5
81
100
AcDbEntity
8
SK1
62
256
6
ByLayer
370
18
48
1
60
0
100
AcDbLine
10
-0.84998
20
6.448358
30
0
11
-0.84998
21
2.079247
31
0
39
0
210
0
220
0
230
1
0
LINE
5
82
100
AcDbEntity
8
1
62
256
6
ByLayer
370
13
48
1
60
0
100
AcDbLine
10
2E-05
20
6.506974
30
0
11
2E-05
21
2.003084
31
0
39
0
210
0
220
0
230
1
0
LINE
5
83
100
AcDbEntity
8
1
62
256
6
ByLayer
370
18
48
1
60
0
100
AcDbLine
10
0.10002
20
6.531113
30
0
11
4.351058
21
6.531113
31
0
39
0
210
0
220
0
230
1
0
LINE
5
84
100
AcDbEntity
8
1
62
256
6
ByLayer
370
18
48
1
60
0
100
AcDbLine
10
6.158377
20
-17.757495
30
0
11
4.345048
21
-17.757495
31
0
39
0
210
0
220
0
230
1
0
LINE
5
85
100
AcDbEntity
8
1
62
256
6
ByLayer
370
18
48
1
60
0
100
AcDbLine
10
6.03104
20
-16.832212
30
0
11
4.468277
21
-16.832212
31
0
39
0
210
0
220
0
230
1
0
LINE
5
86
100
AcDbEntity
8
1
62
256
6
ByLayer
370
18
48
1
60
0
100
AcDbLine
10
6.158377
20
-8.680179
30
0
11
4.345048
21
-8.680179
31
0
39
0
210
0
220
0
230
1
0
LINE
5
87
100
AcDbEntity
8
1
62
256
6
ByLayer
370
18
48
1
60
0
100
AcDbLine
10
6.03104
20
-6.015932
30
0
11
4.468277
21
-6.015932
31
0
39
0
210
0
220
0
230
1
0
LINE
5
88
100
AcDbEntity
8
1
62
256
6
ByLayer
370
18
48
1
60
0
100
AcDbLine
10
6.158377
20
8.608429
30
0
11
4.345048
21
8.608429
31
0
39
0
210
0
220
0
230
1
0
LINE
5
89
100
AcDbEntity
8
1
62
256
6
ByLayer
370
18
48
1
60
0
100
AcDbLine
10
6.03104
20
10.347393
30
0
11
4.468277
21
10.347393
31
0
39
0
210
0
220
0
230
1
0
LINE
5
8A
100
AcDbEntity
8
1
62
256
6
ByLayer
370
18
48
1
60
0
100
AcDbLine
10
0.10002
20
-6.468879
30
0
11
0.10002
21
-6.531065
31
0
39
0
210
0
220
0
230
1
0
LINE
5
8B
100
AcDbEntity
8
1
62
256
6
ByLayer
370
18
48
1
60
0
100
AcDbLine
10
0.10002
20
-6.531065
30
0
11
4.424668
21
-6.531065
31
0
39
0
210
0
220
0
230
1
0
LINE
5
8C
100
AcDbEntity
8
1
62
256
6
ByLayer
370
18
48
1
60
0
100
AcDbLine
10
0.10002
20
-6.468887
30
0
11
0.10002
21
-4.421089
31
0
39
0
210
0
220
0
230
1
0
LINE
5
8D
100
AcDbEntity
8
1
62
256
6
ByLayer
370
18
48
1
60
0
100
AcDbLine
10
6.05002
20
-17.818887
30
0
11
4.45002
21
-17.818887
31
0
39
0
210
0
220
0
230
1
0
LINE
5
8E
100
AcDbEntity
8
1
62
256
6
ByLayer
370
18
48
1
60
0
100
AcDbLine
10
2E-05
20
1.35891
30
0
11
2E-05
21
2.003079
31
0
39
0
210
0
220
0
230
1
0
LINE
5
8F
100
AcDbEntity
8
1
62
256
6
ByLayer
370
18
48
1
60
0
100
AcDbLine
10
2E-05
20
-3.453808
30
0
11
2E-05
21
-6.219746
31
0
39
0
210
0
220
0
230
1
0
LINE
5
90
100
AcDbEntity
8
1
62
256
6
ByLayer
370
18
48
1
60
0
100
AcDbLine
10
6.05702
20
16.881113
30
0
11
4.45702
21
16.881113
31
0
39
0
210
0
220
0
230
1
0
LINE
5
91
100
AcDbEntity
8
1
62
256
6
ByLayer
370
18
48
1
60
0
100
AcDbLine
10
4.352518
20
13.565063
30
0
11
6.147549
21
13.565063
31
0
39
0
210
0
220
0
230
1
0
LINE
5
92
100
AcDbEntity
8
1
62
256
6
ByLayer
370
18
48
1
60
0
100
AcDbLine
10
6.05002
20
4.656693
30
0
11
6.05002
21
3.770312
31
0
39
0
210
0
220
0
230
1
0
LINE
5
93
100
AcDbEntity
8
1
62
256
6
ByLayer
370
18
48
1
60
0
100
AcDbLine
10
6.05002
20
3.770312
30
0
11
6.05002
21
0.471567
31
0
39
0
210
0
220
0
230
1
0
LINE
5
94
100
AcDbEntity
8
1
62
256
6
ByLayer
370
18
48
1
60
0
100
AcDbLine
10
6.05002
20
0.471567
30
0
11
6.05002
21
-1.000159
31
0
39
0
210
0
220
0
230
1
0
LINE
5
95
100
AcDbEntity
8
1
62
256
6
ByLayer
370
18
48
1
60
0
100
AcDbLine
10
0.10002
20
-3.968892
30
0
11
0.10002
21
-4.421089
31
0
39
0
210
0
220
0
230
1
0
LINE
5
96
100
AcDbEntity
8
1
62
256
6
ByLayer
370
13
48
1
60
0
100
AcDbLine
10
0.10002
20
-4.421089
30
0
11
4.45002
21
-4.421089
31
0
39
0
210
0
220
0
230
1
0
LINE
5
97
100
AcDbEntity
8
1
62
256
6
ByLayer
370
18
48
1
60
0
100
AcDbLine
10
0.10002
20
-3.506809
30
0
11
0.10002
21
-3.968887
31
0
39
0
210
0
220
0
230
1
0
LINE
5
98
100
AcDbEntity
8
1
62
256
6
ByLayer
370
18
48
1
60
0
100
AcDbLine
10
0.10002
20
-3.968887
30
0
11
4.45002
21
-3.968887
31
0
39
0
210
0
220
0
230
1
0
LINE
5
99
100
AcDbEntity
8
1
62
256
6
ByLayer
370
18
48
1
60
0
100
AcDbLine
10
0.10002
20
6.531113
30
0
11
0.10002
21
5.416827
31
0
39
0
210
0
220
0
230
1
0
LINE
5
9A
100
AcDbEntity
8
1
62
256
6
ByLayer
370
13
48
1
60
0
100
AcDbLine
10
0.10002
20
5.416827
30
0
11
4.421269
21
5.416827
31
0
39
0
210
0
220
0
230
1
0
LINE
5
9B
100
AcDbEntity
8
1
62
256
6
ByLayer
370
18
48
1
60
0
100
AcDbLine
10
4.45002
20
4.658006
30
0
11
4.45002
21
3.770312
31
0
39
0
210
0
220
0
230
1
0
LINE
5
9C
100
AcDbEntity
8
1
62
256
6
ByLayer
370
18
48
1
60
0
100
AcDbLine
10
6.05002
20
8.206113
30
0
11
4.45002
21
8.206113
31
0
39
0
210
0
220
0
230
1
0
LINE
5
9D
100
AcDbEntity
8
1
62
256
6
ByLayer
370
18
48
1
60
0
100
AcDbLine
10
4.352518
20
6.466333
30
0
11
6.147549
21
6.466333
31
0
39
0
210
0
220
0
230
1
0
LINE
5
9E
100
AcDbEntity
8
1
62
256
6
ByLayer
370
13
48
1
60
0
100
AcDbLine
10
6.05002
20
3.770312
30
0
11
4.45002
21
3.770312
31
0
39
0
210
0
220
0
230
1
0
LINE
5
9F
100
AcDbEntity
8
1
62
256
6
ByLayer
370
18
48
1
60
0
100
AcDbLine
10
4.45002
20
3.770312
30
0
11
4.45002
21
0.471567
31
0
39
0
210
0
220
0
230
1
0
LINE
5
A0
100
AcDbEntity
8
1
62
256
6
ByLayer
370
13
48
1
60
0
100
AcDbLine
10
6.05002
20
0.471567
30
0
11
4.45002
21
0.471567
31
0
39
0
210
0
220
0
230
1
0
LINE
5
A1
100
AcDbEntity
8
1
62
256
6
ByLayer
370
18
48
1
60
0
100
AcDbLine
10
4.45002
20
0.471567
30
0
11
4.45002
21
-0.973472
31
0
39
0
210
0
220
0
230
1
0
LINE
5
A2
100
AcDbEntity
8
1
62
256
6
ByLayer
370
18
48
1
60
0
100
AcDbLine
10
0.10002
20
-0.468887
30
0
11
0.10002
21
-0.991184
31
0
39
0
210
0
220
0
230
1
0
LINE
5
A3
100
AcDbEntity
8
1
62
256
6
ByLayer
370
18
48
1
60
0
100
AcDbLine
10
0.10002
20
5.416827
30
0
11
0.10002
21
0.696603
31
0
39
0
210
0
220
0
230
1
0
LINE
5
A4
100
AcDbEntity
8
1
62
256
6
ByLayer
370
13
48
1
60
0
100
AcDbLine
10
0.10002
20
0.696603
30
0
11
4.45002
21
0.696603
31
0
39
0
210
0
220
0
230
1
0
LINE
5
A5
100
AcDbEntity
8
1
62
256
6
ByLayer
370
18
48
1
60
0
100
AcDbLine
10
4.45002
20
-6.001633
30
0
11
4.45002
21
-6.160888
31
0
39
0
210
0
220
0
230
1
0
LINE
5
A6
100
AcDbEntity
8
1
62
256
6
ByLayer
370
18
48
1
60
0
100
AcDbLine
10
4.45002
20
-9.14385
30
0
11
4.45002
21
-10.141539
31
0
39
0
210
0
220
0
230
1
0
LINE
5
A7
100
AcDbEntity
8
1
62
256
6
ByLayer
370
18
48
1
60
0
100
AcDbLine
10
6.05002
20
-9.143887
30
0
11
4.45002
21
-9.143887
31
0
39
0
210
0
220
0
230
1
0
LINE
5
A8
100
AcDbEntity
8
1
62
256
6
ByLayer
370
18
48
1
60
0
100
AcDbLine
10
6.05002
20
-6.000739
30
0
11
6.05002
21
-6.159774
31
0
39
0
210
0
220
0
230
1
0
LINE
5
A9
100
AcDbEntity
8
1
62
256
6
ByLayer
370
18
48
1
60
0
100
AcDbLine
10
6.05002
20
-9.143858
30
0
11
6.05002
21
-10.194684
31
0
39
0
210
0
220
0
230
1
0
LINE
5
AA
100
AcDbEntity
8
1
62
256
6
ByLayer
370
18
48
1
60
0
100
AcDbLine
10
5.718329
20
-1.34876
30
0
11
4.780075
21
-1.34876
31
0
39
0
210
0
220
0
230
1
0
LINE
5
AB
100
AcDbEntity
8
1
62
256
6
ByLayer
370
18
48
1
60
0
100
AcDbLine
10
5.718329
20
-10.888887
30
0
11
4.780075
21
-10.888887
31
0
39
0
210
0
220
0
230
1
0
LINE
5
AC
100
AcDbEntity
8
1
62
256
6
ByLayer
370
18
48
1
60
0
100
AcDbLine
10
0.10002
20
0.696603
30
0
11
0.10002
21
-0.468887
31
0
39
0
210
0
220
0
230
1
0
LINE
5
AD
100
AcDbEntity
8
1
62
256
6
ByLayer
370
18
48
1
60
0
100
AcDbLine
10
2E-05
20
-1.049716
30
0
11
2E-05
21
-3.453806
31
0
39
0
210
0
220
0
230
1
0
LINE
5
AE
100
AcDbEntity
8
1
62
256
6
ByLayer
370
18
48
1
60
0
100
AcDbLine
10
2E-05
20
0.157098
30
0
11
2E-05
21
-1.049716
31
0
39
0
210
0
220
0
230
1
0
LINE
5
AF
100
AcDbEntity
8
1
62
256
6
ByLayer
370
18
48
1
60
0
100
AcDbLine
10
2E-05
20
6.506974
30
0
11
2E-05
21
2.003084
31
0
39
0
210
0
220
0
230
1
0
LINE
5
B0
100
AcDbEntity
8
80
62
256
6
ByLayer
370
18
48
1
60
0
100
AcDbLine
10
0
20
0
30
0
11
-3.24309
21
0
31
0
39
0
210
0
220
0
230
1
0
LINE
5
B1
100
AcDbEntity
8
4
62
256
6
ByLayer
370
18
48
0.05
60
0
100
AcDbLine
10
0
20
0
30
0
11
7.009755
21
0
31
0
39
0
210
0
220
0
230
1
0
LINE
5
B3
100
AcDbEntity
8
SK4
62
256
6
ByLayer
370
18
48
0.05
60
0
100
AcDbLine
10
-3.24309
20
0
30
0
11
8.632839
21
0
31
0
39
0
210
0
220
0
230
1
0
LINE
5
B5
100
AcDbEntity
8
81
62
256
6
ByLayer
370
13
48
1
60
0
100
AcDbLine
10
6.250024
20
16.881113
30
0
11
7.258133
21
16.881113
31
0
39
0
210
0
220
0
230
1
0
MTEXT
5
130
100
AcDbEntity
8
SK6
62
256
6
ByLayer
370
18
48
1
60
0
100
AcDbMText
10
-17.89254
20
-32.984981
30
0
210
0
220
0
230
1
1
\W0.7377;327R14-35 20002-GMM
40
3.5
41
0
44
1.084337
50
0
71
7
72
5
7
iso_b_vert
0
DIMENSION
5
13E
100
AcDbEntity
8
SK2
62
256
6
ByLayer
370
13
48
1
60
0
100
AcDbDimension
2
DimnDraft3D1
10
-17.199146
20
-6
30
0
11
-17.199146
21
-5.632237
31
0
70
32
71
5
72
1
41
1
210
0
220
0
230
1
3
Standard
100
AcDbAlignedDimension
13
-1.58748
23
6
33
0
14
-1.58748
24
-6
34
0
50
90
100
AcDbRotatedDimension
1001
ACAD
1000
DSTYLE
1002
{
1070
    74
1070
     0
1070
   279
1070
     0
1070
   172
1070
     1
1070
   173
1070
     1
1070
   340
1005
131
1070
   272
1070
     2
1070
    77
1070
     1
1070
    73
1070
     0
1070
   171
1070
     3
1070
   274
1070
     4
1070
   177
1070
     7
1070
   176
1070
     7
1070
   178
1070
     7
1070
    78
1070
     8
1070
    48
1040
-0.005
1070
    41
1041
3.5
1070
   147
1041
1.75
1070
    42
1041
1.5875
1070
    44
1041
2.0
1070
   140
1041
3.5
1070
   343
1005
0
1070
   344
1005
0
1002
}
0
DIMENSION
5
149
100
AcDbEntity
8
2
62
256
6
ByLayer
370
13
48
1
60
0
100
AcDbDimension
2
DimnDraft3D2
10
6.250024
20
26.37577
30
0
11
12.741977
21
26.37577
31
0
70
32
71
5
72
1
41
1
210
0
220
0
230
1
3
Standard
100
AcDbAlignedDimension
13
4.250016
23
18.468613
33
0
14
6.250024
24
18.468613
34
0
50
0
100
AcDbRotatedDimension
1001
ACAD
1000
DSTYLE
1002
{
1070
   279
1070
     0
1070
   172
1070
     1
1070
   173
1070
     1
1070
   340
1005
131
1070
   272
1070
     2
1070
    77
1070
     1
1070
    73
1070
     0
1070
   171
1070
     3
1070
   274
1070
     4
1070
   177
1070
     7
1070
   176
1070
     7
1070
   178
1070
     7
1070
    78
1070
     8
1070
    48
1040
-0.005
1070
    41
1041
3.5
1070
   147
1041
1.75
1070
    42
1041
1.5875
1070
    44
1041
2.0
1070
   140
1041
3.5
1070
   343
1005
0
1070
   344
1005
0
1002
}
0
DIMENSION
5
153
100
AcDbEntity
8
2
62
256
6
ByLayer
370
13
48
1
60
0
100
AcDbDimension
2
DimnDraft3D3
10
0
20
34.54809
30
0
11
12.14978
21
34.54809
31
0
70
32
71
5
72
1
41
1
210
0
220
0
230
1
3
Standard
100
AcDbAlignedDimension
13
6.250024
23
18.468613
33
0
14
0
24
1.5875
34
0
50
0
100
AcDbRotatedDimension
1001
ACAD
1000
DSTYLE
1002
{
1070
   279
1070
     0
1070
   172
1070
     1
1070
   173
1070
     1
1070
   340
1005
131
1070
   272
1070
     2
1070
    77
1070
     1
1070
    73
1070
     0
1070
   171
1070
     3
1070
   274
1070
     4
1070
   177
1070
     7
1070
   176
1070
     7
1070
   178
1070
     7
1070
    78
1070
     8
1070
    48
1040
-0.005
1070
    41
1041
3.5
1070
   147
1041
1.75
1070
    42
1041
1.5875
1070
    44
1041
2.0
1070
   140
1041
3.5
1070
   343
1005
0
1070
   344
1005
0
1002
}
0
DIMENSION
5
167
100
AcDbEntity
8
2
62
256
6
ByLayer
370
13
48
1
60
0
100
AcDbDimension
2
DimnDraft3D5
10
21.647745
20
-17.818887
30
0
11
21.647745
21
-8.693887
31
0
70
32
71
5
72
1
41
1
210
0
220
0
230
1
3
Standard
100
AcDbAlignedDimension
13
7.64452
23
16.881113
33
0
14
7.63752
24
-17.818887
34
0
50
90
100
AcDbRotatedDimension
1001
ACAD
1000
DSTYLE
1002
{
1070
    74
1070
     0
1070
   279
1070
     0
1070
   172
1070
     1
1070
   173
1070
     1
1070
   340
1005
131
1070
   272
1070
     2
1070
    77
1070
     1
1070
    73
1070
     0
1070
   171
1070
     3
1070
   274
1070
     4
1070
   177
1070
     7
1070
   176
1070
     7
1070
   178
1070
     7
1070
    78
1070
     8
1070
    48
1040
-0.005
1070
    41
1041
3.5
1070
   147
1041
1.75
1070
    42
1041
1.5875
1070
    44
1041
2.0
1070
   140
1041
3.5
1070
   343
1005
0
1070
   344
1005
0
1002
}
0
ENDSEC
0
SECTION
2
OBJECTS
0
DICTIONARY
5
1d2
330
0
100
AcDbDictionary
280
0
281
1
3
ACAD_GROUP
350
1d3
3
ACAD_MLINESTYLE
350
1d4
0
DICTIONARY
5
1d3
330
0
100
AcDbDictionary
280
0
281
1
0
DICTIONARY
5
1d4
330
0
100
AcDbDictionary
280
0
281
1
3
Standard
350
18
0
MLINESTYLE
5
18
330
1d4
100
AcDbMlineStyle
2
Standard
70
0
3

62
256
51
90
52
90
71
2
49
-0.5
62
256
6
ByLayer
49
0.5
62
256
6
ByLayer
0
RASTERVARIABLES
5
1c0
330

100
AcDbRasterVariables
90
0
70
1
71
1
72
1
0
ENDSEC
0
EOF
