0
SECTION
2
HEADER
9
$ACADVER
1
AC1015
9
$DWGCODEPAGE
3
ANSI_1252
9
$HANDSEED
5
196
9
$ANGBASE
50
0
9
$ANGDIR
70
0
9
$ATTMODE
70
1
9
$AUNITS
70
0
9
$AUPREC
70
0
9
$CECOLOR
62
256
9
$CELTSCALE
40
1
9
$CELTYPE
6
ByLayer
9
$CELWEIGHT
370
18
9
$CLAYER
8
0
9
$CMLJUST
70
0
9
$CMLSCALE
40
1
9
$CMLSTYLE
2
Standard
9
$DIMSTYLE
2
Standard
9
$TEXTSIZE
40
0.2
9
$TEXTSTYLE
7
Standard
9
$LUNITS
70
2
9
$LUPREC
70
4
9
$EXTNAMES
290
1
9
$INSUNITS
70
4
9
$LTSCALE
40
1
9
$LWDISPLAY
290
1
9
$PDMODE
70
0
9
$PDSIZE
40
0
9
$PLINEGEN
70
0
0
ENDSEC
0
SECTION
2
CLASSES
0
CLASS
1
RASTERVARIABLES
2
AcDbRasterVariables
3
ISM
90
0
280
0
281
0
0
ENDSEC
0
SECTION
2
TABLES
0
TABLE
2
VPORT
5
18c
100
AcDbSymbolTable
0
VPORT
5
1
100
AcDbSymbolTableRecord
100
AcDbViewportTableRecord
2
*Active
70
0
10
0
20
0
11
1
21
1
12
-1
22
1
13
0
23
0
14
0.5
24
0.5
15
10
25
10
16
0
26
0
36
1
17
0
27
0
37
0
0
ENDTAB
0
TABLE
2
LTYPE
5
18d
100
AcDbSymbolTable
0
LTYPE
5
14
100
AcDbSymbolTableRecord
100
AcDbLinetypeTableRecord
70
0
2
ByBlock
3

72
65
73
0
40
0
0
LTYPE
5
15
100
AcDbSymbolTableRecord
100
AcDbLinetypeTableRecord
70
0
2
ByLayer
3

72
65
73
0
40
0
0
LTYPE
5
16
100
AcDbSymbolTableRecord
100
AcDbLinetypeTableRecord
70
0
2
CONTINUOUS
3
Solid line
72
65
73
0
40
0
0
LTYPE
5
6A
100
AcDbSymbolTableRecord
100
AcDbLinetypeTableRecord
70
0
2
CENTER
3
____ _ ____ _ ____ _ ____
72
65
73
4
40
47.5
49
22
74
0
49
-8.5
74
0
49
8.5
74
0
49
-8.5
74
0
0
LTYPE
5
6B
100
AcDbSymbolTableRecord
100
AcDbLinetypeTableRecord
70
0
2
DASHED
3
__ __ __ __ __ __ __ __ __
72
65
73
2
40
25.72
49
12.86
74
0
49
-12.86
74
0
0
ENDTAB
0
TABLE
2
LAYER
5
18e
100
AcDbSymbolTable
0
LAYER
5
10
100
AcDbSymbolTableRecord
100
AcDbLayerTableRecord
2
0
70
0
62
7
6
CONTINUOUS
290
1
370
-3
390
0
0
LAYER
5
6D
100
AcDbSymbolTableRecord
100
AcDbLayerTableRecord
2
80
70
0
62
-6
6
CONTINUOUS
290
1
370
-3
390
0
0
LAYER
5
6F
100
AcDbSymbolTableRecord
100
AcDbLayerTableRecord
2
81
70
0
62
-3
6
CONTINUOUS
290
1
370
-3
390
0
0
LAYER
5
71
100
AcDbSymbolTableRecord
100
AcDbLayerTableRecord
2
1
70
0
62
4
6
CONTINUOUS
290
1
370
-3
390
0
0
LAYER
5
96
100
AcDbSymbolTableRecord
100
AcDbLayerTableRecord
2
4
70
0
62
-2
6
CENTER
290
1
370
-3
390
0
0
LAYER
5
EF
100
AcDbSymbolTableRecord
100
AcDbLayerTableRecord
2
2
70
0
62
7
6
CONTINUOUS
290
1
370
-3
390
0
0
LAYER
5
178
100
AcDbSymbolTableRecord
100
AcDbLayerTableRecord
2
SK1
70
0
62
4
6
CONTINUOUS
290
1
370
-3
390
0
0
LAYER
5
179
100
AcDbSymbolTableRecord
100
AcDbLayerTableRecord
2
SK4
70
0
62
2
6
CENTER
290
1
370
-3
390
0
0
LAYER
5
17a
100
AcDbSymbolTableRecord
100
AcDbLayerTableRecord
2
SK6
70
0
62
5
6
CONTINUOUS
290
1
370
-3
390
0
0
LAYER
5
17b
100
AcDbSymbolTableRecord
100
AcDbLayerTableRecord
2
SK2
70
0
62
7
6
CONTINUOUS
290
1
370
-3
390
0
0
ENDTAB
0
TABLE
2
STYLE
5
18f
100
AcDbSymbolTable
0
STYLE
5
11
100
AcDbSymbolTableRecord
100
AcDbTextStyleTableRecord
2
Standard
3
txt
70
0
71
0
40
0
41
1
42
0
50
0
0
STYLE
5
EA
100
AcDbSymbolTableRecord
100
AcDbTextStyleTableRecord
2
iso_b_vert
3
simplex.shx
70
0
71
0
40
0
41
1
42
0
50
0
0
STYLE
5
EB
100
AcDbSymbolTableRecord
100
AcDbTextStyleTableRecord
2
DWGDirectTextStyle
3
simplex
70
0
71
0
40
0
41
1
42
0
50
0
0
ENDTAB
0
TABLE
2
DIMSTYLE
5
190
100
AcDbSymbolTable
100
AcDbDimStyleTable
0
DIMSTYLE
105
27
100
AcDbSymbolTableRecord
100
AcDbDimStyleTableRecord
2
Standard
70
0
3
<>
41
0.18
42
0.0625
44
0.18
140
0.18
147
0.09
73
0
74
0
77
1
271
2
275
0
278
52
280
0
340
11
0
ENDTAB
0
TABLE
2
VIEW
5
191
100
AcDbSymbolTable
0
ENDTAB
0
TABLE
2
UCS
5
192
100
AcDbSymbolTable
0
ENDTAB
0
TABLE
2
APPID
5
193
100
AcDbSymbolTable
0
APPID
5
12
100
AcDbSymbolTableRecord
100
AcDbRegAppTableRecord
2
ACAD
70
0
0
ENDTAB
0
TABLE
2
BLOCK_RECORD
5
194
100
AcDbSymbolTable
0
BLOCK_RECORD
5
1F
100
AcDbSymbolTableRecord
100
AcDbBlockTableRecord
2
*Model_Space
340
0
70
0
0
BLOCK_RECORD
5
1B
100
AcDbSymbolTableRecord
100
AcDbBlockTableRecord
2
*Paper_Space
340
0
70
0
0
BLOCK_RECORD
5
23
100
AcDbSymbolTableRecord
100
AcDbBlockTableRecord
2
*Paper_Space0
340
0
70
0
0
BLOCK_RECORD
5
ED
100
AcDbSymbolTableRecord
100
AcDbBlockTableRecord
2
DimnDraft3D1
340
0
70
0
0
BLOCK_RECORD
5
F8
100
AcDbSymbolTableRecord
100
AcDbBlockTableRecord
2
DimnDraft3D2
340
0
70
0
0
BLOCK_RECORD
5
102
100
AcDbSymbolTableRecord
100
AcDbBlockTableRecord
2
DimnDraft3D3
340
0
70
0
0
BLOCK_RECORD
5
10C
100
AcDbSymbolTableRecord
100
AcDbBlockTableRecord
2
DimnDraft3D4
340
0
70
0
0
BLOCK_RECORD
5
117
100
AcDbSymbolTableRecord
100
AcDbBlockTableRecord
2
DimnDraft3D5
340
0
70
0
0
ENDTAB
0
ENDSEC
0
SECTION
2
BLOCKS
0
BLOCK
5
20
100
AcDbEntity
8
0
100
AcDbBlockBegin
2
*Model_Space
70
0
10
0
20
0
30
0
3
*Model_Space
0
ENDBLK
5
21
100
AcDbEntity
8
0
100
AcDbBlockEnd
0
BLOCK
5
1C
100
AcDbEntity
8
0
100
AcDbBlockBegin
2
*Paper_Space
70
0
10
0
20
0
30
0
3
*Paper_Space
0
ENDBLK
5
1D
100
AcDbEntity
8
0
100
AcDbBlockEnd
0
BLOCK
5
24
100
AcDbEntity
8
0
100
AcDbBlockBegin
2
*Paper_Space0
70
0
10
0
20
0
30
0
3
*Paper_Space0
0
ENDBLK
5
25
100
AcDbEntity
8
0
100
AcDbBlockEnd
0
BLOCK
5
F5
100
AcDbEntity
8
0
100
AcDbBlockBegin
2
DimnDraft3D1
70
0
10
0
20
0
30
0
3
DimnDraft3D1
0
MTEXT
5
EE
100
AcDbEntity
8
2
62
256
6
ByLayer
370
18
48
1
60
0
100
AcDbMText
10
10.937725
20
23.507463
30
0
210
0
220
0
230
1
1
\W0.5585;1,5
40
3.5
41
0
44
1.084337
50
0
71
7
72
5
7
iso_b_vert
0
LINE
5
F0
100
AcDbEntity
8
2
62
256
6
ByLayer
370
13
48
1
60
0
100
AcDbLine
10
5.002657
20
13.029346
30
0
11
5.002657
21
24.632463
31
0
39
0
210
0
220
0
230
1
0
LINE
5
F1
100
AcDbEntity
8
2
62
256
6
ByLayer
370
13
48
1
60
0
100
AcDbLine
10
6.497225
20
13.025426
30
0
11
6.497225
21
24.632463
31
0
39
0
210
0
220
0
230
1
0
LINE
5
F2
100
AcDbEntity
8
2
62
256
6
ByLayer
370
13
48
1
60
0
100
AcDbLine
10
14.465357
20
22.632463
30
0
11
-3.747343
21
22.632463
31
0
39
0
210
0
220
0
230
1
0
SOLID
5
F3
100
AcDbEntity
8
2
62
256
6
ByLayer
370
13
48
1
60
0
100
AcDbTrace
10
5.002657
20
22.632463
30
0
11
1.502659
21
22.171679
31
0
12
1.502655
22
23.093246
32
0
13
5.002657
23
22.632463
33
0
39
0
210
0
220
0
230
1
0
SOLID
5
F4
100
AcDbEntity
8
2
62
256
6
ByLayer
370
13
48
1
60
0
100
AcDbTrace
10
6.497225
20
22.632463
30
0
11
9.997224
21
23.093246
31
0
12
9.997227
22
22.171679
32
0
13
6.497225
23
22.632463
33
0
39
0
210
0
220
0
230
1
0
ENDBLK
5
F6
100
AcDbEntity
8
0
100
AcDbBlockEnd
0
BLOCK
5
FF
100
AcDbEntity
8
0
100
AcDbBlockBegin
2
DimnDraft3D2
70
0
10
0
20
0
30
0
3
DimnDraft3D2
0
MTEXT
5
F9
100
AcDbEntity
8
2
62
256
6
ByLayer
370
18
48
1
60
0
100
AcDbMText
10
13.350402
20
31.176329
30
0
210
0
220
0
230
1
1
\W0.6702;6,5
40
3.5
41
0
44
1.084337
50
0
71
7
72
5
7
iso_b_vert
0
LINE
5
FA
100
AcDbEntity
8
2
62
256
6
ByLayer
370
13
48
1
60
0
100
AcDbLine
10
0
20
4.756885
30
0
11
0
21
32.301329
31
0
39
0
210
0
220
0
230
1
0
LINE
5
FB
100
AcDbEntity
8
2
62
256
6
ByLayer
370
13
48
1
60
0
100
AcDbLine
10
6.497225
20
13.025426
30
0
11
6.497225
21
32.301329
31
0
39
0
210
0
220
0
230
1
0
LINE
5
FC
100
AcDbEntity
8
2
62
256
6
ByLayer
370
13
48
1
60
0
100
AcDbLine
10
17.753034
20
30.301329
30
0
11
-8.75
21
30.301329
31
0
39
0
210
0
220
0
230
1
0
SOLID
5
FD
100
AcDbEntity
8
2
62
256
6
ByLayer
370
13
48
1
60
0
100
AcDbTrace
10
0
20
30.301329
30
0
11
-3.499998
21
29.840545
31
0
12
-3.500002
22
30.762113
32
0
13
0
23
30.301329
33
0
39
0
210
0
220
0
230
1
0
SOLID
5
FE
100
AcDbEntity
8
2
62
256
6
ByLayer
370
13
48
1
60
0
100
AcDbTrace
10
6.497225
20
30.301329
30
0
11
9.997224
21
30.762113
31
0
12
9.997227
22
29.840545
32
0
13
6.497225
23
30.301329
33
0
39
0
210
0
220
0
230
1
0
ENDBLK
5
100
100
AcDbEntity
8
0
100
AcDbBlockEnd
0
BLOCK
5
109
100
AcDbEntity
8
0
100
AcDbBlockBegin
2
DimnDraft3D3
70
0
10
0
20
0
30
0
3
DimnDraft3D3
0
MTEXT
5
103
100
AcDbEntity
8
2
62
256
6
ByLayer
370
18
48
1
60
0
100
AcDbMText
10
-9.74104
20
19.969621
30
0
210
0
220
0
230
1
1
\W0.6702;5,6
40
3.5
41
0
44
1.084337
50
90
71
7
72
5
7
iso_b_vert
0
LINE
5
104
100
AcDbEntity
8
2
62
256
6
ByLayer
370
13
48
1
60
0
100
AcDbLine
10
3.6125
20
11.641324
30
0
11
-10.86604
21
11.641324
31
0
39
0
210
0
220
0
230
1
0
LINE
5
105
100
AcDbEntity
8
2
62
256
6
ByLayer
370
13
48
1
60
0
100
AcDbLine
10
-0.362515
20
6.002231
30
0
11
-10.86604
21
6.002231
31
0
39
0
210
0
220
0
230
1
0
LINE
5
106
100
AcDbEntity
8
2
62
256
6
ByLayer
370
13
48
1
60
0
100
AcDbLine
10
-8.86604
20
-2.747769
30
0
11
-8.86604
21
24.372253
31
0
39
0
210
0
220
0
230
1
0
SOLID
5
107
100
AcDbEntity
8
2
62
256
6
ByLayer
370
13
48
1
60
0
100
AcDbTrace
10
-8.86604
20
11.641324
30
0
11
-9.326824
21
15.141323
31
0
12
-8.405257
22
15.141326
32
0
13
-8.86604
23
11.641324
33
0
39
0
210
0
220
0
230
1
0
SOLID
5
108
100
AcDbEntity
8
2
62
256
6
ByLayer
370
13
48
1
60
0
100
AcDbTrace
10
-8.86604
20
6.002231
30
0
11
-8.405257
21
2.502233
31
0
12
-9.326824
22
2.50223
32
0
13
-8.86604
23
6.002231
33
0
39
0
210
0
220
0
230
1
0
ENDBLK
5
10A
100
AcDbEntity
8
0
100
AcDbBlockEnd
0
BLOCK
5
114
100
AcDbEntity
8
0
100
AcDbBlockBegin
2
DimnDraft3D4
70
0
10
0
20
0
30
0
3
DimnDraft3D4
0
MTEXT
5
10D
100
AcDbEntity
8
SK2
62
256
6
ByLayer
370
18
48
1
60
0
100
AcDbMText
10
-17.866625
20
-4.757237
30
0
210
0
220
0
230
1
1
\W1.2012;%%c12
40
3.5
41
0
44
1.084337
50
90
71
7
72
5
7
iso_b_vert
0
LINE
5
10F
100
AcDbEntity
8
SK2
62
256
6
ByLayer
370
13
48
1
60
0
100
AcDbLine
10
-1.5875
20
6
30
0
11
-18.116625
21
6
31
0
39
0
210
0
220
0
230
1
0
LINE
5
110
100
AcDbEntity
8
SK2
62
256
6
ByLayer
370
13
48
1
60
0
100
AcDbLine
10
-1.5875
20
-6
30
0
11
-18.116625
21
-6
31
0
39
0
210
0
220
0
230
1
0
LINE
5
111
100
AcDbEntity
8
SK2
62
256
6
ByLayer
370
13
48
1
60
0
100
AcDbLine
10
-16.116625
20
6
30
0
11
-16.116625
21
-6
31
0
39
0
210
0
220
0
230
1
0
SOLID
5
112
100
AcDbEntity
8
SK2
62
256
6
ByLayer
370
13
48
1
60
0
100
AcDbTrace
10
-16.116625
20
6
30
0
11
-15.655841
21
2.500002
31
0
12
-16.577409
22
2.499998
32
0
13
-16.116625
23
6
33
0
39
0
210
0
220
0
230
1
0
SOLID
5
113
100
AcDbEntity
8
SK2
62
256
6
ByLayer
370
13
48
1
60
0
100
AcDbTrace
10
-16.116625
20
-6
30
0
11
-16.577409
21
-2.500002
31
0
12
-15.655841
22
-2.499998
32
0
13
-16.116625
23
-6
33
0
39
0
210
0
220
0
230
1
0
ENDBLK
5
115
100
AcDbEntity
8
0
100
AcDbBlockEnd
0
BLOCK
5
11C
100
AcDbEntity
8
0
100
AcDbBlockBegin
2
DimnDraft3D5
70
0
10
0
20
0
30
0
3
DimnDraft3D5
0
MTEXT
5
118
100
AcDbEntity
8
2
62
256
6
ByLayer
370
18
48
1
60
0
100
AcDbMText
10
19.07683
20
-8.9464
30
0
210
0
220
0
230
1
1
\W1.1065;%%c27,7
40
3.5
41
0
44
1.084337
50
90
71
7
72
5
7
iso_b_vert
0
LINE
5
119
100
AcDbEntity
8
2
62
256
6
ByLayer
370
13
48
1
60
0
100
AcDbLine
10
7.8875
20
11.641324
30
0
11
22.82683
21
11.641324
31
0
39
0
210
0
220
0
230
1
0
LINE
5
11A
100
AcDbEntity
8
2
62
256
6
ByLayer
370
13
48
1
60
0
100
AcDbLine
10
20.82683
20
11.641324
30
0
11
20.82683
21
-11.3214
31
0
39
0
210
0
220
0
230
1
0
SOLID
5
11B
100
AcDbEntity
8
2
62
256
6
ByLayer
370
13
48
1
60
0
100
AcDbTrace
10
20.82683
20
11.641324
30
0
11
21.287613
21
8.141326
31
0
12
20.366046
22
8.141323
32
0
13
20.82683
23
11.641324
33
0
39
0
210
0
220
0
230
1
0
ENDBLK
5
11D
100
AcDbEntity
8
0
100
AcDbBlockEnd
0
ENDSEC
0
SECTION
2
ENTITIES
0
ELLIPSE
5
9A
100
AcDbEntity
8
1
62
256
6
ByLayer
370
13
48
1
60
0
100
AcDbEllipse
10
4.986305
20
-0.222467
30
0
11
-0.357626054721615
21
13.647823266473
31
0
210
0
220
0
230
1
40
0.045324
41
2.64028742076124
42
2.7135131353821
0
ELLIPSE
5
9B
100
AcDbEntity
8
1
62
256
6
ByLayer
370
13
48
1
60
0
100
AcDbEllipse
10
6.495823
20
0.603605
30
0
11
0.387552803757053
21
14.7898960444008
31
0
210
0
220
0
230
1
40
0.045324
41
-2.67767913613568
42
-2.61558891585689
0
ELLIPSE
5
9C
100
AcDbEntity
8
1
62
256
6
ByLayer
370
18
48
1
60
0
100
AcDbEllipse
10
6.292269
20
0.608939
30
0
11
0.183372890636734
21
6.99792638212647
31
0
210
0
220
0
230
1
40
0.045324
41
2.65246904715044
42
3.14149138983132
0
ELLIPSE
5
9D
100
AcDbEntity
8
1
62
256
6
ByLayer
370
13
48
1
60
0
100
AcDbEllipse
10
4.986373
20
-0.222465
30
0
11
-0.357488941228857
21
13.6425907038789
31
0
210
0
220
0
230
1
40
0.045324
41
2.64038766035531
42
2.7150043050105
0
ELLIPSE
5
9E
100
AcDbEntity
8
1
62
256
6
ByLayer
370
18
48
1
60
0
100
AcDbEllipse
10
5.15859
20
-0.217952
30
0
11
-0.184810137794322
21
7.05277500106308
31
0
210
0
220
0
230
1
40
0.045324
41
3.14150374038406
42
-2.56849285102353
0
POINT
5
6C
100
AcDbEntity
8
80
62
256
6
ByLayer
370
18
48
1
60
0
100
AcDbPoint
10
0
20
0
30
0
39
0
210
0
220
0
230
1
50
360
0
POINT
5
6E
100
AcDbEntity
8
81
62
256
6
ByLayer
370
18
48
1
60
0
100
AcDbPoint
10
6.3
20
11.641324
30
0
39
0
210
0
220
0
230
1
50
360
0
POINT
5
70
100
AcDbEntity
8
1
62
256
6
ByLayer
370
18
48
1
60
1
100
AcDbPoint
10
0
20
6
30
0
39
0
210
0
220
0
230
1
50
360
0
POINT
5
72
100
AcDbEntity
8
1
62
256
6
ByLayer
370
18
48
1
60
1
100
AcDbPoint
10
0
20
-6
30
0
39
0
210
0
220
0
230
1
50
360
0
POINT
5
73
100
AcDbEntity
8
81
62
256
6
ByLayer
370
18
48
1
60
1
100
AcDbPoint
10
6.3
20
-16.058676
30
0
39
0
210
0
220
0
230
1
50
360
0
SPLINE
5
9F
100
AcDbEntity
8
1
62
256
6
ByLayer
370
18
48
1
60
0
100
AcDbSpline
70
4
71
3
72
14
73
10
40
0
40
0
40
0
40
0
40
0.222952678888358
40
0.222952678888358
40
0.445905357759238
40
0.445905357759238
40
0.668858036613861
40
0.668858036613861
40
1
40
1
40
1
40
1
41
1
10
0.0999999997701195
20
-0.881962641951333
30
0
41
1
10
0.474994850280353
20
-0.880775752200918
30
0
41
1
10
0.849989782114648
20
-0.879599224928967
30
0
41
1
10
1.59997980007668
20
-0.877266267246512
30
0
41
1
10
1.97497488681137
20
-0.876109836890492
30
0
41
1
10
2.72496520792782
20
-0.873816472883249
30
0
41
1
10
3.09996044288269
20
-0.872679539282501
30
0
41
1
10
4.03192004387367
20
-0.869877481351693
30
0
41
1
10
4.58888449659477
20
-0.868223764800376
30
0
41
1
10
5.14584909536956
20
-0.866590026785588
30
0
0
SPLINE
5
A0
100
AcDbEntity
8
1
62
256
6
ByLayer
370
18
48
1
60
0
100
AcDbSpline
70
4
71
2
72
6
73
3
40
0
40
0
40
0
40
1
40
1
40
1
41
1
10
5.00332023228944
20
-12.2122384657848
30
0
41
1
10
5.02757847759551
20
-12.4365085049692
30
0
41
1
10
5.05216503467653
20
-12.6320957239607
30
0
0
SPLINE
5
A1
100
AcDbEntity
8
SK1
62
256
6
ByLayer
370
13
48
1
60
0
100
AcDbSpline
70
4
71
1
72
4
73
2
40
0
40
0
40
1
40
1
41
1
10
-0.899685569481164
20
-7.42934902637614
30
0
41
1
10
1.67848166654E-05
20
-7.40556500852657
30
0
0
SPLINE
5
A2
100
AcDbEntity
8
1
62
256
6
ByLayer
370
18
48
1
60
0
100
AcDbSpline
70
4
71
3
72
39
73
35
40
0
40
0
40
0
40
0
40
0.0593101070920633
40
0.130794133797518
40
0.198460840926444
40
0.262310229431447
40
0.322342299877021
40
0.378557052500307
40
0.430954487268925
40
0.484182663086976
40
0.532791883449076
40
0.576782147650135
40
0.616153454913001
40
0.650905804474809
40
0.675717730752079
40
0.697486511903747
40
0.716450062997476
40
0.734614769019893
40
0.752434590830553
40
0.769909554595167
40
0.787039688057276
40
0.798825623611071
40
0.810435526909316
40
0.820978272462013
40
0.829834857077763
40
0.837547888844132
40
0.845417171212525
40
0.856839947006037
40
0.871816216668486
40
0.890345980795909
40
0.912429240149461
40
0.938065995670892
40
0.967256248500871
40
1
40
1
40
1
40
1
41
1
10
1.58933774799E-05
20
-7.40555902031608
30
0
41
1
10
0.105655459142355
20
-7.40278065668502
30
0
41
1
10
0.338618354264497
20
-7.39666944678831
30
0
41
1
10
0.692106412752594
20
-7.38745325680367
30
0
41
1
10
1.0536805414342
20
-7.37807624247739
30
0
41
1
10
1.39485782753076
20
-7.36927565924654
30
0
41
1
10
1.71563804181122
20
-7.36104254333918
30
0
41
1
10
2.01602099255049
20
-7.35336942719684
30
0
41
1
10
2.30428545930192
20
-7.34603854079867
30
0
41
1
10
2.57900344962621
20
-7.33908244382349
30
0
41
1
10
2.83874694401925
20
-7.33253311930892
30
0
41
1
10
3.07380893655679
20
-7.32662884431858
30
0
41
1
10
3.28418927549862
20
-7.32136282371127
30
0
41
1
10
3.46040939824937
20
-7.31696549800071
30
0
41
1
10
3.60527616449238
20
-7.31335955714741
30
0
41
1
10
3.72201991179222
20
-7.31045931718182
30
0
41
1
10
3.82692396546955
20
-7.30785766587317
30
0
41
1
10
3.924789133545
20
-7.30543441285437
30
0
41
1
10
4.01999778629212
20
-7.30308054601983
30
0
41
1
10
4.11335844029441
20
-7.30077582820766
30
0
41
1
10
4.19596828915584
20
-7.29873949516659
30
0
41
1
10
4.26813035514897
20
-7.29696286556097
30
0
41
1
10
4.32855824024347
20
-7.29547659180281
30
0
41
1
10
4.3837725357368
20
-7.29411979574604
30
0
41
1
10
4.43205357034748
20
-7.29293433322189
30
0
41
1
10
4.4755826060098
20
-7.29186629787216
30
0
41
1
10
4.52368319720441
20
-7.29068687578467
30
0
41
1
10
4.58472052254584
20
-7.28919147340102
30
0
41
1
10
4.66474600242719
20
-7.28723306695358
30
0
41
1
10
4.76375953447248
20
-7.28481343702958
30
0
41
1
10
4.88176122389442
20
-7.28193478088039
30
0
41
1
10
5.01875111116331
20
-7.27859971875981
30
0
41
1
10
5.1747292723511
20
-7.27481129150283
30
0
41
1
10
5.28504422867954
20
-7.27213905822052
30
0
41
1
10
5.34336643812068
20
-7.27072826966611
30
0
0
SPLINE
5
A3
100
AcDbEntity
8
1
62
256
6
ByLayer
370
18
48
1
60
0
100
AcDbSpline
70
4
71
1
72
4
73
2
40
0
40
0
40
1
40
1
41
1
10
6.10885930178671
20
-6.38898617822875
30
0
41
1
10
6.2999659758047
20
-6.39410312844964
30
0
0
SPLINE
5
A4
100
AcDbEntity
8
1
62
256
6
ByLayer
370
13
48
1
60
0
100
AcDbSpline
70
4
71
3
72
12
73
8
40
0
40
0
40
0
40
0
40
0.245910236618575
40
0.245910236618575
40
0.49727349107905
40
0.49727349107905
40
1
40
1
40
1
40
1
41
1
10
-2.298464E-10
20
-7.40555176461896
30
0
41
1
10
-2.298748E-10
20
-7.40563683183936
30
0
41
1
10
-2.298748E-10
20
-7.40351316289826
30
0
41
1
10
-2.298748E-10
20
-7.39468130385362
30
0
41
1
10
-2.298748E-10
20
-7.38784450814069
30
0
41
1
10
-2.298748E-10
20
-7.36040444907118
30
0
41
1
10
-2.298748E-10
20
-7.33292620568534
30
0
41
1
10
-2.298748E-10
20
-7.29651967853383
30
0
0
SPLINE
5
A5
100
AcDbEntity
8
SK1
62
256
6
ByLayer
370
13
48
1
60
0
100
AcDbSpline
70
4
71
3
72
8
73
4
40
0
40
0
40
0
40
0
40
1
40
1
40
1
40
1
41
1
10
-0.899711431932872
20
-2.79789236285077
30
0
41
0.995434801224093
10
-0.586462416909228
20
-2.74425962014909
30
0
41
0.994952202617515
10
-0.285321534126858
20
-2.67095583807352
30
0
41
0.998552204180264
10
-2.299235E-10
20
-2.5788516075127
30
0
0
SPLINE
5
A6
100
AcDbEntity
8
1
62
256
6
ByLayer
370
13
48
1
60
0
100
AcDbSpline
70
4
71
3
72
8
73
4
40
0
40
0
40
0
40
0
40
1
40
1
40
1
40
1
41
1
10
-0.899711431932872
20
-7.42934255580496
30
0
41
1
10
-0.899711431932872
20
-7.42816053508258
30
0
41
1
10
-0.8997114319329
20
-7.41736589786774
30
0
41
1
10
-0.8997114319329
20
-7.39695555580494
30
0
0
SPLINE
5
A7
100
AcDbEntity
8
SK1
62
256
6
ByLayer
370
13
48
1
60
0
100
AcDbSpline
70
4
71
3
72
8
73
4
40
0
40
0
40
0
40
0
40
1
40
1
40
1
40
1
41
1
10
-0.899711431932872
20
-7.39695555580491
30
0
41
1
10
-0.599165477620801
20
-7.3709572086847
30
0
41
1
10
-0.299257028655319
20
-7.3375325797501
30
0
41
1
10
4.79502376E-08
20
-7.29652013255404
30
0
0
SPLINE
5
A8
100
AcDbEntity
8
SK1
62
256
6
ByLayer
370
13
48
1
60
0
100
AcDbSpline
70
4
71
3
72
8
73
4
40
0
40
0
40
0
40
0
40
1
40
1
40
1
40
1
41
0.999236342541788
10
-2.298798E-10
20
-0.317989651818095
30
0
41
0.99540702278768
10
-0.285288845182307
20
-0.129298390196854
30
0
41
0.995661575273751
10
-0.586426497803367
20
0.0579245283526986
30
0
41
1
10
-0.899711431932872
20
0.241386441702446
30
0
0
SPLINE
5
A9
100
AcDbEntity
8
1
62
256
6
ByLayer
370
13
48
1
60
0
100
AcDbSpline
70
4
71
3
72
14
73
10
40
0
40
0
40
0
40
0
40
0.499999999999999
40
0.499999999999999
40
0.624999999999999
40
0.624999999999999
40
0.749999999999999
40
0.749999999999999
40
1
40
1
40
1
40
1
41
1
10
-2.298748E-10
20
2.03936333412753
30
0
41
1
10
-2.298748E-10
20
2.43116109798089
30
0
41
1
10
-2.298748E-10
20
2.80786119700659
30
0
41
1
10
-2.298748E-10
20
3.2597658910066
30
0
41
1
10
-2.298748E-10
20
3.3491913720346
30
0
41
1
10
-2.298748E-10
20
3.52610036694628
30
0
41
1
10
-2.298748E-10
20
3.61379474400962
30
0
41
1
10
-2.298748E-10
20
3.87175368081219
30
0
41
1
10
-2.298748E-10
20
4.03719673384856
30
0
41
1
10
-2.298748E-10
20
4.19629262432136
30
0
0
SPLINE
5
AA
100
AcDbEntity
8
SK1
62
256
6
ByLayer
370
18
48
1
60
0
100
AcDbSpline
70
4
71
3
72
8
73
4
40
0
40
0
40
0
40
0
40
1
40
1
40
1
40
1
41
1
10
-0.899711431932872
20
2.5358292214359
30
0
41
1
10
-0.899711431932872
20
2.98073919700093
30
0
41
1
10
-0.8997114319329
20
3.40102042539755
30
0
41
1
10
-0.8997114319329
20
3.79665487366691
30
0
0
SPLINE
5
AB
100
AcDbEntity
8
SK1
62
256
6
ByLayer
370
13
48
1
60
0
100
AcDbSpline
70
4
71
3
72
8
73
4
40
0
40
0
40
0
40
0
40
1
40
1
40
1
40
1
41
1
10
-0.899711431932872
20
3.79665487366697
30
0
41
1
10
-0.599269708818355
20
3.93388106985796
30
0
41
1
10
-0.299185909184871
20
4.06720022147187
30
0
41
1
10
1.41558303E-08
20
4.19629272070389
30
0
0
SPLINE
5
AC
100
AcDbEntity
8
SK1
62
256
6
ByLayer
370
13
48
1
60
0
100
AcDbSpline
70
4
71
3
72
8
73
4
40
0
40
0
40
0
40
0
40
1
40
1
40
1
40
1
41
1
10
9.2256016E-09
20
2.0393633810186
30
0
41
1
10
-0.29944095193963
20
2.20736777470961
30
0
41
1
10
-0.599457624951071
20
2.37289852597624
30
0
41
1
10
-0.899711431932872
20
2.5358292214359
30
0
0
SPLINE
5
AD
100
AcDbEntity
8
1
62
256
6
ByLayer
370
18
48
1
60
0
100
AcDbSpline
70
4
71
3
72
8
73
4
40
0
40
0
40
0
40
0
40
1
40
1
40
1
40
1
41
1
10
5.00265687842028
20
-12.1987978219817
30
0
41
1
10
5.00258271970745
20
-12.203273262475
30
0
41
1
10
5.00277182399276
20
-12.2077131513352
30
0
41
1
10
5.00322003753104
20
-12.2121181776336
30
0
0
SPLINE
5
AE
100
AcDbEntity
8
1
62
256
6
ByLayer
370
18
48
1
60
0
100
AcDbSpline
70
4
71
3
72
20
73
16
40
0
40
0
40
0
40
0
40
0.125000000000001
40
0.125000000000001
40
0.250000000000002
40
0.250000000000002
40
0.375000000000003
40
0.375000000000003
40
0.500000000000004
40
0.500000000000004
40
0.625000000000005
40
0.625000000000005
40
0.750000000000006
40
0.750000000000006
40
1
40
1
40
1
40
1
41
1
10
5.00265687842031
20
11.4418464613226
30
0
41
1
10
5.00249544841375
20
11.4546689478959
30
0
41
1
10
5.00358149953783
20
11.467315382093
30
0
41
1
10
5.00816287287321
20
11.4922671550929
30
0
41
1
10
5.01170554063896
20
11.5046850951649
30
0
41
1
10
5.02116125109688
20
11.528595489657
30
0
41
1
10
5.02700390798864
20
11.5399816780995
30
0
41
1
10
5.04091613085953
20
11.5616124310761
30
0
41
1
10
5.04909747257045
20
11.5719534328545
30
0
41
1
10
5.06716967118936
20
11.5906236779984
30
0
41
1
10
5.07707281315925
20
11.5990266340178
30
0
41
1
10
5.09865970465304
20
11.6139120158217
30
0
41
1
10
5.1103748988435
20
11.6203648744164
30
0
41
1
10
5.14662494119466
20
11.6358150222968
30
0
41
1
10
5.17319450643512
20
11.6413242944291
30
0
41
1
10
5.19999999975366
20
11.641324294432
30
0
0
SPLINE
5
AF
100
AcDbEntity
8
1
62
256
6
ByLayer
370
18
48
1
60
0
100
AcDbSpline
70
4
71
3
72
20
73
16
40
0
40
0
40
0
40
0
40
0.125000000000002
40
0.125000000000002
40
0.250000000000004
40
0.250000000000004
40
0.375000000000005
40
0.375000000000005
40
0.500000000000007
40
0.500000000000007
40
0.625000000000009
40
0.625000000000009
40
0.75000000000001
40
0.75000000000001
40
1
40
1
40
1
40
1
41
1
10
5.00265687842028
20
-0.302431283299512
30
0
41
1
10
5.00249544841375
20
-0.305511551319711
30
0
41
1
10
5.00358149953783
20
-0.308584229648318
30
0
41
1
10
5.00816287287321
20
-0.314711200838758
30
0
41
1
10
5.01170554063893
20
-0.31779384621575
30
0
41
1
10
5.02116125109686
20
-0.32378822826692
30
0
41
1
10
5.02700390798864
20
-0.32667258472938
30
0
41
1
10
5.0409161308595
20
-0.332198233663661
30
0
41
1
10
5.04909747257045
20
-0.334864886931911
30
0
41
1
10
5.06716967118936
20
-0.339713134061128
30
0
41
1
10
5.07707281315922
20
-0.341913113815139
30
0
41
1
10
5.09865970465304
20
-0.345830267057011
30
0
41
1
10
5.1103748988435
20
-0.347539842079698
30
0
41
1
10
5.14662494119463
20
-0.35164613393863
30
0
41
1
10
5.17319450643512
20
-0.3531275479925
30
0
41
1
10
5.19999999975366
20
-0.353127547993267
30
0
0
SPLINE
5
B0
100
AcDbEntity
8
1
62
256
6
ByLayer
370
18
48
1
60
0
100
AcDbSpline
70
4
71
3
72
8
73
4
40
0
40
0
40
0
40
0
40
1
40
1
40
1
40
1
41
1
10
0.0529165122300412
20
-0.353127547986162
30
0
41
0.999729580962687
10
0.0353491063287253
20
-0.341415944051973
30
0
41
0.999475028476617
10
0.0177100070202142
20
-0.329703126321092
30
0
41
0.999236342541788
10
-2.298798E-10
20
-0.317989651818095
30
0
0
SPLINE
5
B1
100
AcDbEntity
8
1
62
256
6
ByLayer
370
18
48
1
60
0
100
AcDbSpline
70
4
71
3
72
14
73
10
40
0
40
0
40
0
40
0
40
0.500000000000001
40
0.500000000000001
40
0.625
40
0.625
40
0.75
40
0.75
40
1
40
1
40
1
40
1
41
1
10
-2.298748E-10
20
2.03936333861154
30
0
41
1
10
-2.298748E-10
20
2.43116110554243
30
0
41
1
10
-2.298748E-10
20
2.80786120740393
30
0
41
1
10
-2.298748E-10
20
3.25976590463
30
0
41
1
10
-2.298748E-10
20
3.34919138628706
30
0
41
1
10
-2.298748E-10
20
3.5261003824231
30
0
41
1
10
-2.298748E-10
20
3.61379476007121
30
0
41
1
10
-2.298748E-10
20
3.87175369834668
30
0
41
1
10
-2.298748E-10
20
4.03719675226722
30
0
41
1
10
-2.298748E-10
20
4.19629264352503
30
0
0
SPLINE
5
B2
100
AcDbEntity
8
1
62
256
6
ByLayer
370
18
48
1
60
0
100
AcDbSpline
70
4
71
3
72
16
73
12
40
0
40
0
40
0
40
0
40
0.25
40
0.25
40
0.5
40
0.5
40
0.625
40
0.625
40
0.75
40
0.75
40
1
40
1
40
1
40
1
41
1
10
6.2696951151045
20
-13.2099210289845
30
0
41
1
10
6.24360199745337
20
-12.9461129230338
30
0
41
1
10
6.21936150187176
20
-12.64920656966
30
0
41
1
10
6.17428503008293
20
-11.992145154676
30
0
41
1
10
6.15345027173296
20
-11.6319803089111
30
0
41
1
10
6.12468867167095
20
-11.0435531662952
30
0
41
1
10
6.11551810138917
20
-10.8393515274857
30
0
41
1
10
6.09801871093597
20
-10.4143269849577
30
0
41
1
10
6.08976969291032
20
-10.1954190725465
30
0
41
1
10
6.06652593096007
20
-9.52099390398422
30
0
41
1
10
6.05300457603505
20
-9.04734129595485
30
0
41
1
10
6.04142844147827
20
-8.54927967350989
30
0
0
SPLINE
5
B3
100
AcDbEntity
8
1
62
256
6
ByLayer
370
18
48
1
60
0
100
AcDbSpline
70
4
71
3
72
10
73
6
40
0
40
0
40
0
40
0
40
0.5
40
0.5
40
1
40
1
40
1
40
1
41
1
10
5.4445481546164
20
-8.54927967350989
30
0
41
1
10
5.42387957517781
20
-9.53898080392406
30
0
41
1
10
5.39480280830719
20
-10.4418319738203
30
0
41
1
10
5.32113488727956
20
-12.0192066390596
30
0
41
1
10
5.27689995723247
20
-12.685695469062
30
0
41
1
10
5.22618614476329
20
-13.2099210289845
30
0
0
SPLINE
5
B4
100
AcDbEntity
8
1
62
256
6
ByLayer
370
18
48
1
60
0
100
AcDbSpline
70
4
71
3
72
16
73
12
40
0
40
0
40
0
40
0
40
0.25
40
0.25
40
0.500000000000001
40
0.500000000000001
40
0.625000000000001
40
0.625000000000001
40
0.750000000000001
40
0.750000000000001
40
1
40
1
40
1
40
1
41
1
10
6.2696951151045
20
3.74825671681643
30
0
41
1
10
6.24360199745337
20
4.05844959677287
30
0
41
1
10
6.21936150187179
20
4.33011705122641
30
0
41
1
10
6.17428503008293
20
4.79982656057584
30
0
41
1
10
6.15345027173296
20
4.99785725508283
30
0
41
1
10
6.12468867167095
20
5.23881463878143
30
0
41
1
10
6.11551810138917
20
5.30975157300529
30
0
41
1
10
6.09801871093597
20
5.43227504480095
30
0
41
1
10
6.08976969291032
20
5.48329324576454
30
0
41
1
10
6.06652593096007
20
5.60574102507303
30
0
41
1
10
6.05300457603505
20
5.64687246846
30
0
41
1
10
6.04142844147825
20
5.64687245201384
30
0
0
SPLINE
5
B5
100
AcDbEntity
8
1
62
256
6
ByLayer
370
18
48
1
60
0
100
AcDbSpline
70
4
71
3
72
10
73
6
40
0
40
0
40
0
40
0
40
0.5
40
0.5
40
1
40
1
40
1
40
1
41
1
10
5.4445481546164
20
5.64687245201384
30
0
41
1
10
5.42387957517781
20
5.64687248469409
30
0
41
1
10
5.39480280830719
20
5.48361662286356
30
0
41
1
10
5.32113488727956
20
4.84087112004437
30
0
41
1
10
5.2768999572325
20
4.36465565419238
30
0
41
1
10
5.22618614476332
20
3.74825671681643
30
0
0
SPLINE
5
B6
100
AcDbEntity
8
1
62
256
6
ByLayer
370
18
48
1
60
0
100
AcDbSpline
70
4
71
3
72
9
73
5
40
0
40
0
40
0
40
0
40
0.5
40
1
40
1
40
1
40
1
41
1
10
5.00279053294696
20
11.4366661113013
30
0
41
1
10
5.0027567905297
20
11.4375308396968
30
0
41
1
10
5.00270081788699
20
11.4392589543916
30
0
41
1
10
5.00266773141428
20
11.4409844012092
30
0
41
1
10
5.00265687842028
20
11.4418464613226
30
0
0
SPLINE
5
B7
100
AcDbEntity
8
1
62
256
6
ByLayer
370
18
48
1
60
0
100
AcDbSpline
70
4
71
3
72
10
73
6
40
0
40
0
40
0
40
0
40
0.5
40
0.5
40
1
40
1
40
1
40
1
41
1
10
5.07569274676808
20
9.17442175433879
30
0
41
1
10
5.06746713271079
20
9.51573363277376
30
0
41
1
10
5.05723286443651
20
9.87536929037188
30
0
41
1
10
5.03294816311791
20
10.6294604358192
30
0
41
1
10
5.01889636804492
20
11.023916401138
30
0
41
1
10
5.00279053294699
20
11.4366661113007
30
0
0
SPLINE
5
B8
100
AcDbEntity
8
1
62
256
6
ByLayer
370
18
48
1
60
0
100
AcDbSpline
70
4
71
3
72
10
73
6
40
0
40
0
40
0
40
0
40
0.5
40
0.5
40
1
40
1
40
1
40
1
41
1
10
6.497225287135
20
11.4379261080157
30
0
41
1
10
6.48104204577592
20
11.0249375038514
30
0
41
1
10
6.46693281313392
20
10.6302579452985
30
0
41
1
10
6.44258920914061
20
9.87574680942191
30
0
41
1
10
6.43235348255158
20
9.51591474600028
30
0
41
1
10
6.42416558818758
20
9.17442175435536
30
0
0
SPLINE
5
B9
100
AcDbEntity
8
1
62
256
6
ByLayer
370
18
48
1
60
0
100
AcDbSpline
70
4
71
3
72
8
73
4
40
0
40
0
40
0
40
0
40
1
40
1
40
1
40
1
41
1
10
6.36243943635674
20
5.83775411477157
30
0
41
1
10
6.34272348706205
20
5.50601917824966
30
0
41
1
10
6.32322468846007
20
5.17432731680896
30
0
41
1
10
6.30402539584745
20
4.84269619458323
30
0
0
SPLINE
5
BA
100
AcDbEntity
8
1
62
256
6
ByLayer
370
18
48
1
60
0
100
AcDbSpline
70
4
71
3
72
8
73
4
40
0
40
0
40
0
40
0
40
1
40
1
40
1
40
1
41
1
10
6.30402539584745
20
4.84269619458323
30
0
41
1
10
6.30268014919216
20
4.82919108186655
30
0
41
1
10
6.30133834767622
20
4.81568876470035
30
0
41
1
10
6.29999999977014
20
4.80218925141455
30
0
0
SPLINE
5
BB
100
AcDbEntity
8
1
62
256
6
ByLayer
370
18
48
1
60
0
100
AcDbSpline
70
4
71
3
72
10
73
6
40
0
40
0
40
0
40
0
40
0.5
40
0.5
40
1
40
1
40
1
40
1
41
1
10
6.497225287135
20
-12.1958181492521
30
0
41
1
10
6.48104204577589
20
-11.8818112864269
30
0
41
1
10
6.46693281313389
20
-11.5459998849539
30
0
41
1
10
6.44258920914055
20
-10.8328800075277
30
0
41
1
10
6.43235348255152
20
-10.455572181196
30
0
41
1
10
6.42416558818752
20
-10.0564256659728
30
0
0
SPLINE
5
BC
100
AcDbEntity
8
1
62
256
6
ByLayer
370
18
48
1
60
0
100
AcDbSpline
70
4
71
3
72
8
73
4
40
0
40
0
40
0
40
0
40
1
40
1
40
1
40
1
41
1
10
6.36243943635645
20
-5.70605959549221
30
0
41
1
10
6.34272348706187
20
-5.6155853880926
30
0
41
1
10
6.32322468846002
20
-5.52531833329215
30
0
41
1
10
6.3040253958475
20
-5.43533728482629
30
0
0
SPLINE
5
BD
100
AcDbEntity
8
1
62
256
6
ByLayer
370
18
48
1
60
0
100
AcDbSpline
70
4
71
3
72
8
73
4
40
0
40
0
40
0
40
0
40
1
40
1
40
1
40
1
41
1
10
6.3040253958475
20
-5.43533728482629
30
0
41
1
10
6.30268014919218
20
-5.44651236198743
30
0
41
1
10
6.30133834767625
20
-5.45769061075453
30
0
41
1
10
6.29999999977014
20
-5.46887203746891
30
0
0
SPLINE
5
BE
100
AcDbEntity
8
1
62
256
6
ByLayer
370
18
48
1
60
0
100
AcDbSpline
70
4
71
3
72
15
73
11
40
0
40
0
40
0
40
0
40
0.200280597055635
40
0.200280597055635
40
0.33356716421303
40
0.33356716421303
40
0.466853731370424
40
0.466853731370424
40
0.733426865685212
40
1
40
1
40
1
40
1
41
1
10
6.29999999977011
20
-6.39409879518871
30
0
41
1
10
6.29999999977014
20
-6.39375617837695
30
0
41
1
10
6.29999999977014
20
-6.38260354890818
30
0
41
1
10
6.29999999977014
20
-6.3461188435443
30
0
41
1
10
6.29999999977014
20
-6.32676315395116
30
0
41
1
10
6.29999999977014
20
-6.27835264171316
30
0
41
1
10
6.29999999977014
20
-6.24925679360589
30
0
41
1
10
6.29999999977014
20
-6.14727473010973
30
0
41
1
10
6.29999999977014
20
-5.97429891055469
30
0
41
1
10
6.29999999977011
20
-5.7290560068723
30
0
41
1
10
6.29999999977011
20
-5.58788379518936
30
0
0
SPLINE
5
BF
100
AcDbEntity
8
1
62
256
6
ByLayer
370
18
48
1
60
0
100
AcDbSpline
70
4
71
3
72
8
73
4
40
0
40
0
40
0
40
0
40
1
40
1
40
1
40
1
41
1
10
6.45295503700271
20
-12.6043708287848
30
0
41
1
10
6.45344869005686
20
-12.6132339706884
30
0
41
1
10
6.45207032291734
20
-12.6221182239562
30
0
41
1
10
6.44917652933623
20
-12.6309803687668
30
0
0
SPLINE
5
C0
100
AcDbEntity
8
1
62
256
6
ByLayer
370
18
48
1
60
0
100
AcDbSpline
70
4
71
3
72
8
73
4
40
0
40
0
40
0
40
0
40
1
40
1
40
1
40
1
41
1
10
6.44917652933623
20
-12.6309803687668
30
0
41
1
10
6.38617184068892
20
-12.823930093367
30
0
41
1
10
6.32621358000856
20
-13.0169107365406
30
0
41
1
10
6.2696951151045
20
-13.2099210289845
30
0
0
SPLINE
5
C1
100
AcDbEntity
8
1
62
256
6
ByLayer
370
18
48
1
60
0
100
AcDbSpline
70
4
71
3
72
8
73
4
40
0
40
0
40
0
40
0
40
1
40
1
40
1
40
1
41
1
10
5.22618614476329
20
-13.2099210289845
30
0
41
1
10
5.17283184688046
20
-13.0229656063732
30
0
41
1
10
5.11598925548097
20
-12.8360421103209
30
0
41
1
10
5.05597576785902
20
-12.6491476358533
30
0
0
SPLINE
5
C2
100
AcDbEntity
8
1
62
256
6
ByLayer
370
18
48
1
60
0
100
AcDbSpline
70
4
71
3
72
8
73
4
40
0
40
0
40
0
40
0
40
1
40
1
40
1
40
1
41
1
10
5.05597576785902
20
-12.6491476358533
30
0
41
1
10
5.05558565361881
20
-12.6479327390228
30
0
41
1
10
5.05521815445306
20
-12.6467179098954
30
0
41
1
10
5.05487364437133
20
-12.6455031495908
30
0
0
SPLINE
5
C3
100
AcDbEntity
8
1
62
256
6
ByLayer
370
18
48
1
60
0
100
AcDbSpline
70
4
71
3
72
8
73
4
40
0
40
0
40
0
40
0
40
1
40
1
40
1
40
1
41
1
10
5.05487364437133
20
-12.6455031495908
30
0
41
1
10
5.05358677961408
20
-12.6409655981303
30
0
41
1
10
5.05260288469975
20
-12.6364294286095
30
0
41
1
10
5.05196791403722
20
-12.6318948506409
30
0
0
SPLINE
5
C4
100
AcDbEntity
8
1
62
256
6
ByLayer
370
18
48
1
60
0
100
AcDbSpline
70
4
71
3
72
10
73
6
40
0
40
0
40
0
40
0
40
0.499997733635931
40
0.499997733635931
40
1
40
1
40
1
40
1
41
1
10
6.04142844147827
20
-8.54927967350989
30
0
41
1
10
6.02986698949692
20
-8.05184980030734
30
0
41
1
10
6.01886420316262
20
-7.55440964623486
30
0
41
1
10
5.99859146022422
20
-6.55949910944602
30
0
41
1
10
5.9893209254586
20
-6.06202725979497
30
0
41
1
10
5.98137169433045
20
-5.56454008878916
30
0
0
SPLINE
5
C5
100
AcDbEntity
8
1
62
256
6
ByLayer
370
18
48
1
60
0
100
AcDbSpline
70
4
71
3
72
8
73
4
40
0
40
0
40
0
40
0
40
1
40
1
40
1
40
1
41
1
10
5.98137169433045
20
-5.56454008878916
30
0
41
1
10
6.08757837814542
20
-5.57234943868357
30
0
41
1
10
6.19378784284783
20
-5.58013047316365
30
0
41
1
10
6.29999999977014
20
-5.58788379518936
30
0
0
SPLINE
5
C6
100
AcDbEntity
8
1
62
256
6
ByLayer
370
18
48
1
60
0
100
AcDbSpline
70
4
71
3
72
18
73
14
40
0
40
0
40
0
40
0
40
0.162910349304753
40
0.162910349304753
40
0.325820712111535
40
0.325820712111535
40
0.488731090907445
40
0.488731090907445
40
0.651641488779103
40
0.651641488779103
40
0.825820188554145
40
0.825820188554145
40
1
40
1
40
1
40
1
41
1
10
0.0999999997701195
20
-6.56309102636695
30
0
41
1
10
0.392698712660376
20
-6.54158654402562
30
0
41
1
10
0.685376537274436
20
-6.51986761262725
30
0
41
1
10
1.27068641293241
20
-6.47597392910541
30
0
41
1
10
1.56331870420345
20
-6.453799173308
30
0
41
1
10
2.14853345262077
20
-6.40896397682531
30
0
41
1
10
2.44111618290555
20
-6.38630353256477
30
0
41
1
10
3.02622718463985
20
-6.34046369234332
30
0
41
1
10
3.31875576844675
20
-6.31728429307998
30
0
41
1
10
3.92398486449619
20
-6.26874678695773
30
0
41
1
10
4.23668153202931
20
-6.24334890985065
30
0
41
1
10
4.86200097033631
20
-6.19186584183853
30
0
41
1
10
5.17462425662188
20
-6.1657806502345
30
0
41
1
10
5.48720519932684
20
-6.13932251300227
30
0
0
SPLINE
5
C7
100
AcDbEntity
8
1
62
256
6
ByLayer
370
18
48
1
60
0
100
AcDbSpline
70
4
71
3
72
8
73
4
40
0
40
0
40
0
40
0
40
1
40
1
40
1
40
1
41
1
10
5.48720519932684
20
-6.13932251300227
30
0
41
1
10
5.4761330305453
20
-6.94268334167344
30
0
41
1
10
5.46132368700239
20
-7.74599455841579
30
0
41
1
10
5.4445481546164
20
-8.54927967350989
30
0
0
SPLINE
5
C8
100
AcDbEntity
8
1
62
256
6
ByLayer
370
18
48
1
60
0
100
AcDbSpline
70
4
71
3
72
8
73
4
40
0
40
0
40
0
40
0
40
1
40
1
40
1
40
1
41
1
10
6.36243943635645
20
-5.70605959549221
30
0
41
1
10
6.35580632740306
20
-6.0452282704687
30
0
41
1
10
6.35191927985153
20
-6.39162834806692
30
0
41
1
10
6.35054399655502
20
-6.73762082694338
30
0
0
SPLINE
5
C9
100
AcDbEntity
8
1
62
256
6
ByLayer
370
18
48
1
60
0
100
AcDbSpline
70
4
71
3
72
28
73
24
40
0
40
0
40
0
40
0
40
0.125
40
0.125
40
0.25
40
0.25
40
0.3125
40
0.3125
40
0.375000000000001
40
0.375000000000001
40
0.500000000000001
40
0.500000000000001
40
0.625000000000001
40
0.625000000000001
40
0.687500000000001
40
0.687500000000001
40
0.750000000000001
40
0.750000000000001
40
0.875000000000001
40
0.875000000000001
40
0.9375
40
0.9375
40
1
40
1
40
1
40
1
41
1
10
6.3624394363581
20
5.83775411479402
30
0
41
1
10
6.35861877561922
20
5.89558961926363
30
0
41
1
10
6.35573539137044
20
5.96557125911275
30
0
41
1
10
6.3516638746662
20
6.12885999534075
30
0
41
1
10
6.35047618561535
20
6.22217002364539
30
0
41
1
10
6.34991706928284
20
6.37984922234341
30
0
41
1
10
6.34993526691335
20
6.43537072449772
30
0
41
1
10
6.3503827720117
20
6.55249414326804
30
0
41
1
10
6.3508109588368
20
6.61364008572272
30
0
41
1
10
6.35267793954546
20
6.80373913886203
30
0
41
1
10
6.35469733603716
20
6.939702696295
30
0
41
1
10
6.36022245492504
20
7.22978792330474
30
0
41
1
10
6.36372829849444
20
7.38390802019981
30
0
41
1
10
6.37013013827109
20
7.6292060621565
30
0
41
1
10
6.37244598955493
20
7.71294230963133
30
0
41
1
10
6.37739225360286
20
7.88275985727194
30
0
41
1
10
6.38002854893256
20
7.96906876817701
30
0
41
1
10
6.3884198697377
20
8.23212879138558
30
0
41
1
10
6.39465490891772
20
8.41299540906004
30
0
41
1
10
6.40498565756891
20
8.69259446303658
30
0
41
1
10
6.4085928754528
20
8.78718174621557
30
0
41
1
10
6.41614501120327
20
8.97919739211528
30
0
41
1
10
6.4200857715592
20
9.07650583197753
30
0
41
1
10
6.42416558818815
20
9.17442175436162
30
0
0
SPLINE
5
CA
100
AcDbEntity
8
1
62
256
6
ByLayer
370
18
48
1
60
0
100
AcDbSpline
70
4
71
3
72
26
73
22
40
0
40
0
40
0
40
0
40
0.125000000000001
40
0.125000000000001
40
0.250000000000001
40
0.250000000000001
40
0.312500000000002
40
0.312500000000002
40
0.375000000000002
40
0.375000000000002
40
0.500000000000001
40
0.500000000000001
40
0.625000000000001
40
0.625000000000001
40
0.687500000000001
40
0.687500000000001
40
0.75
40
0.75
40
0.875
40
0.875
40
1
40
1
40
1
40
1
41
1
10
5.07569274676805
20
9.17442175433879
30
0
41
1
10
5.08293958979473
20
8.99937530214061
30
0
41
1
10
5.08966214774605
20
8.82839172473967
30
0
41
1
10
5.10211791896748
20
8.49424402478684
30
0
41
1
10
5.10785099541408
20
8.33108086360079
30
0
41
1
10
5.1157163275364
20
8.0922245586423
30
0
41
1
10
5.11821536088684
20
8.013589710178
30
0
41
1
10
5.12296468524775
20
7.85832299792776
30
0
41
1
10
5.12522187569118
20
7.7814390797615
30
0
41
1
10
5.13155071507697
20
7.55604437101701
30
0
41
1
10
5.13518176630285
20
7.41288655522388
30
0
41
1
10
5.14130088957273
20
7.14033160213026
30
0
41
1
10
5.14378901167402
20
7.01093554373406
30
0
41
1
10
5.14664222838653
20
6.82726668926915
30
0
41
1
10
5.14744631914132
20
6.7677857223895
30
0
41
1
10
5.14875048081635
20
6.65238129917086
30
0
41
1
10
5.14924976851967
20
6.59642377410111
30
0
41
1
10
5.15026320204234
20
6.43595590863768
30
0
41
1
10
5.15030481064852
20
6.33810766745242
30
0
41
1
10
5.14908352064208
20
6.16040511819335
30
0
41
1
10
5.1478209525545
20
6.08054997644265
30
0
41
1
10
5.14584909536953
20
6.0099440918294
30
0
0
SPLINE
5
CB
100
AcDbEntity
8
1
62
256
6
ByLayer
370
18
48
1
60
0
100
AcDbSpline
70
4
71
3
72
20
73
16
40
0
40
0
40
0
40
0
40
0.25
40
0.25
40
0.375
40
0.375
40
0.4375
40
0.4375
40
0.5
40
0.5
40
0.75
40
0.75
40
0.875
40
0.875
40
1
40
1
40
1
40
1
41
1
10
6.35054399655502
20
-6.73762082694338
30
0
41
1
10
6.34929728878376
20
-7.05126639604674
30
0
41
1
10
6.35011000105115
20
-7.35938360655075
30
0
41
1
10
6.35412016135581
20
-7.81359932933262
30
0
41
1
10
6.35592737473507
20
-7.96366699685564
30
0
41
1
10
6.35935175199219
20
-8.18670519553683
30
0
41
1
10
6.36061608056701
20
-8.26087127834555
30
0
41
1
10
6.36335579274345
20
-8.40688150341515
30
0
41
1
10
6.36483315111309
20
-8.47889099885413
30
0
41
1
10
6.37274563044551
20
-8.83405147912805
30
0
41
1
10
6.38073773968063
20
-9.10269653382176
30
0
41
1
10
6.39524349749263
20
-9.48227724352438
30
0
41
1
10
6.40052381208602
20
-9.60524082020962
30
0
41
1
10
6.41179123903811
20
-9.83918917705802
30
0
41
1
10
6.41779107653855
20
-9.95060679199057
30
0
41
1
10
6.42416558818803
20
-10.0564256659693
30
0
0
SPLINE
5
CC
100
AcDbEntity
8
1
62
256
6
ByLayer
370
18
48
1
60
0
100
AcDbSpline
70
4
71
3
72
14
73
10
40
0
40
0
40
0
40
0
40
0.222952678888358
40
0.222952678888358
40
0.445905357759238
40
0.445905357759238
40
0.668858036613861
40
0.668858036613861
40
1
40
1
40
1
40
1
41
1
10
0.0999999997701195
20
5.99995639135395
30
0
41
1
10
0.474994850280353
20
6.00071949161804
30
0
41
1
10
0.849989782114648
20
6.00147777520448
30
0
41
1
10
1.59997980007668
20
6.00298494323988
30
0
41
1
10
1.97497488681137
20
6.00373382767373
30
0
41
1
10
2.72496520792782
20
6.00522242263264
30
0
41
1
10
3.09996044288269
20
6.00596213314361
30
0
41
1
10
4.03192004387367
20
6.00778937323273
30
0
41
1
10
4.58888449659477
20
6.00887150252578
30
0
41
1
10
5.14584909536956
20
6.0099440918294
30
0
0
SPLINE
5
CD
100
AcDbEntity
8
1
62
256
6
ByLayer
370
18
48
1
60
0
100
AcDbSpline
70
4
71
3
72
9
73
5
40
0
40
0
40
0
40
0
40
0.5
40
1
40
1
40
1
40
1
41
1
10
5.00279053294696
20
-12.1948600264564
30
0
41
1
10
5.0027567905297
20
-12.1955176572885
30
0
41
1
10
5.00270081788699
20
-12.196831582242
30
0
41
1
10
5.00266773141428
20
-12.1981428493301
30
0
41
1
10
5.00265687842028
20
-12.1987978219817
30
0
0
SPLINE
5
CE
100
AcDbEntity
8
1
62
256
6
ByLayer
370
18
48
1
60
0
100
AcDbSpline
70
4
71
3
72
10
73
6
40
0
40
0
40
0
40
0
40
0.5
40
0.5
40
1
40
1
40
1
40
1
41
1
10
5.07569274676808
20
-10.0564256659554
30
0
41
1
10
5.06746713271079
20
-10.455360491018
30
0
41
1
10
5.05723286443651
20
-10.8324842098329
30
0
41
1
10
5.03294816311791
20
-11.5452850535792
30
0
41
1
10
5.01889636804492
20
-11.8809615390799
30
0
41
1
10
5.00279053294699
20
-12.1948600264559
30
0
0
SPLINE
5
CF
100
AcDbEntity
8
1
62
256
6
ByLayer
370
18
48
1
60
0
100
AcDbSpline
70
4
71
3
72
8
73
4
40
0
40
0
40
0
40
0
40
1
40
1
40
1
40
1
41
1
10
6.29999999977014
20
5.8201696075038
30
0
41
0.999983942533649
10
6.32080881757083
20
5.82589238956782
30
0
41
0.999983942533649
10
6.34162229731157
20
5.83175398612028
30
0
41
1
10
6.36243943635674
20
5.83775411477157
30
0
0
SPLINE
5
D0
100
AcDbEntity
8
1
62
256
6
ByLayer
370
18
48
1
60
0
100
AcDbSpline
70
4
71
3
72
8
73
4
40
0
40
0
40
0
40
0
40
1
40
1
40
1
40
1
41
1
10
4.79498681E-08
20
-7.29652013255409
30
0
41
1
10
0.0333414571436492
20
-7.29195077433033
30
0
41
1
10
0.0666747808097057
20
-7.28728722802194
30
0
41
1
10
0.0999999997701195
20
-7.28252927022584
30
0
0
SPLINE
5
D1
100
AcDbEntity
8
1
62
256
6
ByLayer
370
18
48
1
60
0
100
AcDbSpline
70
4
71
3
72
18
73
14
40
0
40
0
40
0
40
0
40
0.0312500000000002
40
0.0312500000000002
40
0.0625000000000004
40
0.0625000000000004
40
0.125000000000001
40
0.125000000000001
40
0.249999999999999
40
0.249999999999999
40
0.499999999999999
40
0.499999999999999
40
1
40
1
40
1
40
1
41
1
10
6.29999999977014
20
-0.353127547986162
30
0
41
1
10
6.30570610743794
20
-0.353127547986162
30
0
41
1
10
6.3111657170447
20
-0.351097189785378
30
0
41
1
10
6.32053452539179
20
-0.344930218438861
30
0
41
1
10
6.3245375181377
20
-0.340886876459337
30
0
41
1
10
6.3350896420645
20
-0.327895486541621
30
0
41
1
10
6.34040391220364
20
-0.317986762204356
30
0
41
1
10
6.3542002306061
20
-0.287897314894991
30
0
41
1
10
6.36071230392781
20
-0.266543933520779
30
0
41
1
10
6.37735656145213
20
-0.20258818535649
30
0
41
1
10
6.3844701094055
20
-0.159314794497533
30
0
41
1
10
6.40201692890733
20
-0.028888557275252
30
0
41
1
10
6.40803718502849
20
0.0590112704851435
30
0
41
1
10
6.4120972523132
20
0.14687245201381
30
0
0
SPLINE
5
D2
100
AcDbEntity
8
1
62
256
6
ByLayer
370
18
48
1
60
0
100
AcDbSpline
70
4
71
3
72
18
73
14
40
0
40
0
40
0
40
0
40
0.499999999999999
40
0.499999999999999
40
0.75
40
0.75
40
0.875
40
0.875
40
0.9375
40
0.9375
40
0.96875
40
0.96875
40
1
40
1
40
1
40
1
41
1
10
5.10272760568427
20
0.14687245201381
30
0
41
1
10
5.10562136763224
20
0.0597575513579045
30
0
41
1
10
5.1102859003372
20
-0.0271850014827351
30
0
41
1
10
5.12489820839244
20
-0.156857618853593
30
0
41
1
10
5.13089897174277
20
-0.19997184315892
30
0
41
1
10
5.14525540391489
20
-0.264121953457732
30
0
41
1
10
5.15084613784444
20
-0.285426330963929
30
0
41
1
10
5.16294409596105
20
-0.316035877483841
30
0
41
1
10
5.16753599096742
20
-0.326027577954164
30
0
41
1
10
5.17694012194073
20
-0.339618761573689
30
0
41
1
10
5.18053197317485
20
-0.343927524196658
30
0
41
1
10
5.18915594098317
20
-0.35070158057647
30
0
41
1
10
5.19438950952053
20
-0.35312754798619
30
0
41
1
10
5.19999999977011
20
-0.35312754798619
30
0
0
SPLINE
5
D3
100
AcDbEntity
8
1
62
256
6
ByLayer
370
18
48
1
60
0
100
AcDbSpline
70
4
71
3
72
12
73
8
40
0
40
0
40
0
40
0
40
0.249999999999999
40
0.249999999999999
40
0.499999999999998
40
0.499999999999998
40
1
40
1
40
1
40
1
41
1
10
6.4120972523132
20
0.14687245201381
30
0
41
1
10
6.42350165267217
20
0.185075044976912
30
0
41
1
10
6.43134002751211
20
0.2236550509854
30
0
41
1
10
6.44319643985745
20
0.301219391333717
30
0
41
1
10
6.44711503825732
20
0.340214249887566
30
0
41
1
10
6.45459279902786
20
0.457651594603505
30
0
41
1
10
6.45392418668627
20
0.536653969050235
30
0
41
1
10
6.44917652933626
20
0.615334312511095
30
0
0
SPLINE
5
D4
100
AcDbEntity
8
1
62
256
6
ByLayer
370
18
48
1
60
0
100
AcDbSpline
70
4
71
3
72
8
73
4
40
0
40
0
40
0
40
0
40
1
40
1
40
1
40
1
41
1
10
6.44917652933626
20
0.615334312511095
30
0
41
1
10
6.38617184068895
20
1.65947675515332
30
0
41
1
10
6.32621358000858
20
2.7037865128554
30
0
41
1
10
6.2696951151045
20
3.74825671681643
30
0
0
SPLINE
5
D5
100
AcDbEntity
8
1
62
256
6
ByLayer
370
18
48
1
60
0
100
AcDbSpline
70
4
71
3
72
8
73
4
40
0
40
0
40
0
40
0
40
1
40
1
40
1
40
1
41
1
10
5.22618614476332
20
3.74825671681643
30
0
41
1
10
5.17283184688048
20
2.73655228430141
30
0
41
1
10
5.115989255481
20
1.72502062153487
30
0
41
1
10
5.05597576785905
20
0.713646008322883
30
0
0
SPLINE
5
D6
100
AcDbEntity
8
1
62
256
6
ByLayer
370
18
48
1
60
0
100
AcDbSpline
70
4
71
3
72
8
73
4
40
0
40
0
40
0
40
0
40
1
40
1
40
1
40
1
41
1
10
5.05597576785905
20
0.713646008322883
30
0
41
1
10
5.05558565361883
20
0.707071625556239
30
0
41
1
10
5.05521815445309
20
0.700497609163506
30
0
41
1
10
5.05487364437136
20
0.693923965203766
30
0
0
SPLINE
5
D7
100
AcDbEntity
8
1
62
256
6
ByLayer
370
18
48
1
60
0
100
AcDbSpline
70
4
71
3
72
12
73
8
40
0
40
0
40
0
40
0
40
0.5
40
0.5
40
0.75
40
0.75
40
1
40
1
40
1
40
1
41
1
10
5.05487364437136
20
0.693923965203766
30
0
41
1
10
5.05005751499542
20
0.602026742275399
30
0
41
1
10
5.04948494102717
20
0.510234264797134
30
0
41
1
10
5.05860479750592
20
0.372791857429291
30
0
41
1
10
5.06334691953521
20
0.326884042903089
30
0
41
1
10
5.07803236829477
20
0.23591195596893
30
0
41
1
10
5.08772708510099
20
0.190880010055537
30
0
41
1
10
5.10272760568421
20
0.146872452013724
30
0
0
SPLINE
5
D8
100
AcDbEntity
8
1
62
256
6
ByLayer
370
18
48
1
60
0
100
AcDbSpline
70
4
71
3
72
9
73
5
40
0
40
0
40
0
40
0
40
0.5
40
1
40
1
40
1
40
1
41
1
10
0.0999999997701195
20
-6.56309102636695
30
0
41
1
10
0.0999999997701195
20
-6.73580847560649
30
0
41
1
10
0.0999999997701195
20
-7.02746759108959
30
0
41
1
10
0.0999999997701195
20
-7.21541170013845
30
0
41
1
10
0.0999999997701195
20
-7.28252927022584
30
0
0
SPLINE
5
D9
100
AcDbEntity
8
1
62
256
6
ByLayer
370
18
48
1
60
0
100
AcDbSpline
70
4
71
3
72
20
73
16
40
0
40
0
40
0
40
0
40
0.124999999999998
40
0.124999999999998
40
0.249999999999997
40
0.249999999999997
40
0.374999999999995
40
0.374999999999995
40
0.499999999999994
40
0.499999999999994
40
0.749999999999991
40
0.749999999999991
40
0.874999999999995
40
0.874999999999995
40
1
40
1
40
1
40
1
41
1
10
6.29999999977014
20
11.6413242944283
30
0
41
1
10
6.31357877767471
20
11.6413242944283
30
0
41
1
10
6.32691598280795
20
11.6399571640637
30
0
41
1
10
6.35312485941006
20
11.6345895941642
30
0
41
1
10
6.3661377725544
20
11.6305139688133
30
0
41
1
10
6.39069946978393
20
11.6199734679325
30
0
41
1
10
6.40230731488393
20
11.6135323493988
30
0
41
1
10
6.42418288853403
20
11.5983240925794
30
0
41
1
10
6.43434461218666
20
11.5895915025711
30
0
41
1
10
6.46151264984854
20
11.5610701283322
30
0
41
1
10
6.47572373394939
20
11.5383447220025
30
0
41
1
10
6.48942901590064
20
11.5019927966617
30
0
41
1
10
6.49281626100066
20
11.4892825008614
30
0
41
1
10
6.49694379854367
20
11.4637780868659
30
0
41
1
10
6.49773409541328
20
11.4509106527046
30
0
41
1
10
6.497225287135
20
11.4379261080157
30
0
0
SPLINE
5
DA
100
AcDbEntity
8
1
62
256
6
ByLayer
370
18
48
1
60
0
100
AcDbSpline
70
4
71
3
72
14
73
10
40
0
40
0
40
0
40
0
40
0.390045572340331
40
0.390045572340331
40
0.780091144680663
40
0.780091144680663
40
0.975113930850829
40
0.975113930850829
40
1
40
1
40
1
40
1
41
1
10
6.3624394363581
20
-1.1910771632534
30
0
41
1
10
6.35861877561922
20
-1.05355202325001
30
0
41
1
10
6.35573539137044
20
-0.927312957713866
30
0
41
1
10
6.3516638746662
20
-0.69650944122219
30
0
41
1
10
6.35047618561535
20
-0.591947712881449
30
0
41
1
10
6.34991706928284
20
-0.451566079698153
30
0
41
1
10
6.34993526691335
20
-0.407524437923257
30
0
41
1
10
6.35018757162055
20
-0.361048486992558
30
0
41
1
10
6.35021945263918
20
-0.35584051999021
30
0
41
1
10
6.35025464112863
20
-0.350684301148249
30
0
0
SPLINE
5
DB
100
AcDbEntity
8
1
62
256
6
ByLayer
370
18
48
1
60
0
100
AcDbSpline
70
4
71
3
72
15
73
11
40
0
40
0
40
0
40
0
40
0.208392104578269
40
0.208392104578269
40
0.340326753815225
40
0.340326753815225
40
0.47226140305218
40
0.47226140305218
40
0.73613070152609
40
1
40
1
40
1
40
1
41
1
10
6.29999999977011
20
3.20345045196459
30
0
41
1
10
6.29999999977014
20
3.40850640469139
30
0
41
1
10
6.29999999977017
20
3.60703924814848
30
0
41
1
10
6.29999999977014
20
3.92067031103988
30
0
41
1
10
6.29999999977014
20
4.03964762286091
30
0
41
1
10
6.29999999977014
20
4.27230676438433
30
0
41
1
10
6.29999999977014
20
4.38612226972424
30
0
41
1
10
6.29999999977014
20
4.71855590878332
30
0
41
1
10
6.29999999977014
20
5.13148729015245
30
0
41
1
10
6.29999999977014
20
5.48520968566237
30
0
41
1
10
6.29999999977014
20
5.64687245201384
30
0
0
SPLINE
5
DC
100
AcDbEntity
8
1
62
256
6
ByLayer
370
18
48
1
60
0
100
AcDbSpline
70
4
71
3
72
8
73
4
40
0
40
0
40
0
40
0
40
1
40
1
40
1
40
1
41
1
10
6.04147199977015
20
5.64687245201384
30
0
41
1
10
6.12764619583226
20
5.64687245201384
30
0
41
1
10
6.21382221161952
20
5.64687245201384
30
0
41
1
10
6.29999999977014
20
5.64687245201384
30
0
0
SPLINE
5
DD
100
AcDbEntity
8
1
62
256
6
ByLayer
370
18
48
1
60
0
100
AcDbSpline
70
4
71
3
72
18
73
14
40
0
40
0
40
0
40
0
40
0.164309541320415
40
0.164309541320415
40
0.328619096258825
40
0.328619096258825
40
0.492928667323688
40
0.492928667323688
40
0.657238257628136
40
0.657238257628136
40
0.832912930170186
40
0.832912930170186
40
1
40
1
40
1
40
1
41
1
10
0.0999999997701195
20
5.64687245201384
30
0
41
1
10
0.392698712660376
20
5.64687245201384
30
0
41
1
10
0.685376537274436
20
5.64687245201384
30
0
41
1
10
1.27068641293241
20
5.64687245201384
30
0
41
1
10
1.56331870420345
20
5.64687245201384
30
0
41
1
10
2.14853345262077
20
5.64687245201384
30
0
41
1
10
2.44111618290555
20
5.64687245201384
30
0
41
1
10
3.02622718463985
20
5.64687245201384
30
0
41
1
10
3.31875576844675
20
5.64687245201384
30
0
41
1
10
3.92398486449619
20
5.64687245201384
30
0
41
1
10
4.23668153202931
20
5.64687245201384
30
0
41
1
10
4.84671510468556
20
5.64687245201381
30
0
41
1
10
5.14405609579171
20
5.64687245201384
30
0
41
1
10
5.44135899971263
20
5.64687245201384
30
0
0
SPLINE
5
DE
100
AcDbEntity
8
1
62
256
6
ByLayer
370
18
48
1
60
0
100
AcDbSpline
70
4
71
3
72
16
73
12
40
0
40
0
40
0
40
0
40
0.25
40
0.25
40
0.5
40
0.5
40
0.75
40
0.75
40
0.875
40
0.875
40
1
40
1
40
1
40
1
41
1
10
0.0999999997701195
20
1.98315327029113
30
0
41
1
10
0.0999999997701195
20
1.7524735380166
30
0
41
1
10
0.0999999997701195
20
1.51963574224496
30
0
41
1
10
0.0999999997701195
20
1.04979939175737
30
0
41
1
10
0.0999999997701195
20
0.812800375617542
30
0
41
1
10
0.0999999997701195
20
0.334659748837083
30
0
41
1
10
0.0999999997701195
20
0.0935183868883769
30
0
41
1
10
0.0999999997701195
20
-0.271385786313175
30
0
41
1
10
0.0999999997701195
20
-0.393754100493737
30
0
41
1
10
0.0999999997701195
20
-0.638033765655933
30
0
41
1
10
0.0999999997701195
20
-0.760056737826744
30
0
41
1
10
0.0999999997701195
20
-0.881962641951304
30
0
0
SPLINE
5
DF
100
AcDbEntity
8
1
62
256
6
ByLayer
370
18
48
1
60
0
100
AcDbSpline
70
4
71
3
72
9
73
5
40
0
40
0
40
0
40
0
40
0.5
40
1
40
1
40
1
40
1
41
1
10
0.0999999997701195
20
5.64687245201384
30
0
41
1
10
0.0999999997701195
20
5.45480608748861
30
0
41
1
10
0.0999999997701195
20
5.02736699662802
30
0
41
1
10
0.0999999997701195
20
4.51640481519479
30
0
41
1
10
0.0999999997701195
20
4.23929744672893
30
0
0
SPLINE
5
E0
100
AcDbEntity
8
1
62
256
6
ByLayer
370
18
48
1
60
0
100
AcDbSpline
70
4
71
3
72
20
73
16
40
0
40
0
40
0
40
0
40
0.124999999999995
40
0.124999999999995
40
0.249999999999991
40
0.249999999999991
40
0.374999999999986
40
0.374999999999986
40
0.499999999999981
40
0.499999999999981
40
0.749999999999983
40
0.749999999999983
40
0.874999999999992
40
0.874999999999992
40
1
40
1
40
1
40
1
41
1
10
6.29999999977014
20
-0.353127547986162
30
0
41
1
10
6.31357877767471
20
-0.353127547986162
30
0
41
1
10
6.32691598280795
20
-0.35276086023336
30
0
41
1
10
6.35312485941006
20
-0.351325609849113
30
0
41
1
10
6.3661377725544
20
-0.350237045035073
30
0
41
1
10
6.39069946978393
20
-0.347436016938275
30
0
41
1
10
6.40230731488393
20
-0.345729809123526
30
0
41
1
10
6.42418288853403
20
-0.341728824386536
30
0
41
1
10
6.43434461218664
20
-0.339443618150113
30
0
41
1
10
6.46151264984854
20
-0.332042001605714
30
0
41
1
10
6.47572373394939
20
-0.326224276160531
30
0
41
1
10
6.48942901590061
20
-0.317123602955917
30
0
41
1
10
6.49281626100066
20
-0.313973229951444
30
0
41
1
10
6.49694379854367
20
-0.307722209096141
30
0
41
1
10
6.49773409541328
20
-0.304602632523569
30
0
41
1
10
6.497225287135
20
-0.30149060272214
30
0
0
SPLINE
5
E1
100
AcDbEntity
8
1
62
256
6
ByLayer
370
18
48
1
60
0
100
AcDbSpline
70
4
71
3
72
10
73
6
40
0
40
0
40
0
40
0
40
0.481528465254418
40
0.481528465254418
40
1
40
1
40
1
40
1
41
1
10
5.14972233822161
20
-0.34814479274354
30
0
41
1
10
5.15026582002545
20
-0.41477575045559
30
0
41
1
10
5.1502612998687
20
-0.489437822330984
30
0
41
1
10
5.14908352064208
20
-0.660941838512798
30
0
41
1
10
5.1478209525545
20
-0.759045118989008
30
0
41
1
10
5.14584909536956
20
-0.866590026785588
30
0
0
SPLINE
5
E2
100
AcDbEntity
8
1
62
256
6
ByLayer
370
18
48
1
60
0
100
AcDbSpline
70
4
71
3
72
8
73
4
40
0
40
0
40
0
40
0
40
1
40
1
40
1
40
1
41
1
10
6.29999999977014
20
-1.23419374147852
30
0
41
0.999983942533649
10
6.32080881757097
20
-1.21971709500787
30
0
41
0.999983942533649
10
6.34162229731188
20
-1.20534467148144
30
0
41
1
10
6.36243943635719
20
-1.19107716324183
30
0
0
SPLINE
5
E3
100
AcDbEntity
8
1
62
256
6
ByLayer
370
18
48
1
60
0
100
AcDbSpline
70
4
71
3
72
8
73
4
40
0
40
0
40
0
40
0
40
1
40
1
40
1
40
1
41
1
10
1.41562282E-08
20
4.19629272070407
30
0
41
1
10
0.0333447447832782
20
4.21068027799552
30
0
41
1
10
0.0666783224895084
20
4.22501533415766
30
0
41
1
10
0.0999999997701195
20
4.23929744672893
30
0
0
SPLINE
5
E4
100
AcDbEntity
8
1
62
256
6
ByLayer
370
18
48
1
60
0
100
AcDbSpline
70
4
71
3
72
8
73
4
40
0
40
0
40
0
40
0
40
1
40
1
40
1
40
1
41
1
10
0.0999999997701195
20
1.98315327029113
30
0
41
1
10
0.06667411839598
20
2.00192052387655
30
0
41
1
10
0.0333406324297414
20
2.02065728561706
30
0
41
1
10
9.2255448E-09
20
2.03936338101866
30
0
0
SPLINE
5
E5
100
AcDbEntity
8
1
62
256
6
ByLayer
370
18
48
1
60
0
100
AcDbSpline
70
4
71
3
72
18
73
14
40
0
40
0
40
0
40
0
40
0.292208765380288
40
0.292208765380288
40
0.438313148070432
40
0.438313148070432
40
0.511365339415504
40
0.511365339415504
40
0.584417530760576
40
0.584417530760576
40
0.876626296140862
40
0.876626296140862
40
1
40
1
40
1
40
1
41
1
10
5.07569274676808
20
-10.0564256659554
30
0
41
1
10
5.08836031081677
20
-9.84478403056204
30
0
41
1
10
5.09943878059417
20
-9.61294543801415
30
0
41
1
10
5.11383619187123
20
-9.23607105577787
30
0
41
1
10
5.1182617931085
20
-9.10555385723504
30
0
41
1
10
5.12432846005495
20
-8.90222717338034
30
0
41
1
10
5.12625899026975
20
-8.83302240631514
30
0
41
1
10
5.1298857625477
20
-8.69358247316572
30
0
41
1
10
5.13158677537959
20
-8.62320833670142
30
0
41
1
10
5.13953985046601
20
-8.26812582023791
30
0
41
1
10
5.14415887697777
20
-7.97388396495208
30
0
41
1
10
5.14816835227489
20
-7.54082163610224
30
0
41
1
10
5.14903368836127
20
-7.4100234784047
30
0
41
1
10
5.14955092690673
20
-7.27877309469662
30
0
0
SPLINE
5
E6
100
AcDbEntity
8
1
62
256
6
ByLayer
370
18
48
1
60
0
100
AcDbSpline
70
4
71
3
72
8
73
4
40
0
40
0
40
0
40
0
40
1
40
1
40
1
40
1
41
1
10
0.0999999997701195
20
-0.384628882069791
30
0
41
0.999987282053348
10
0.0843623755253162
20
-0.374128904789363
30
0
41
0.999987282053348
10
0.0686676800743145
20
-0.363628326548998
30
0
41
1
10
0.0529165122300412
20
-0.353127547986162
30
0
0
SPLINE
5
E7
100
AcDbEntity
8
1
62
256
6
ByLayer
370
18
48
1
60
0
100
AcDbSpline
70
4
71
3
72
12
73
8
40
0
40
0
40
0
40
0
40
0.240601682004676
40
0.240601682004676
40
0.493734454669785
40
0.493734454669785
40
1
40
1
40
1
40
1
41
1
10
-2.298748E-10
20
-7.40555366381722
30
0
41
1
10
-2.298748E-10
20
-7.40551427911387
30
0
41
1
10
-2.298748E-10
20
-7.40338900660151
30
0
41
1
10
-2.298748E-10
20
-7.39468130042491
30
0
41
1
10
-2.298748E-10
20
-7.38784450357704
30
0
41
1
10
-2.298748E-10
20
-7.36040444079225
30
0
41
1
10
-2.298748E-10
20
-7.33292619443679
30
0
41
1
10
-2.298748E-10
20
-7.29651966381809
30
0
0
SPLINE
5
E8
100
AcDbEntity
8
1
62
256
6
ByLayer
370
18
48
1
60
0
100
AcDbSpline
70
4
71
3
72
8
73
4
40
0
40
0
40
0
40
0
40
1
40
1
40
1
40
1
41
0.998552204180263
10
-2.299804E-10
20
-2.57885160751271
30
0
41
0.998977755462732
10
0.0335915591116999
20
-2.56800796495883
30
0
41
0.999460354069311
10
0.0669266703624899
20
-2.55691439131598
30
0
41
1
10
0.0999999997701195
20
-2.54557314700929
30
0
0
LINE
5
74
100
AcDbEntity
8
1
62
256
6
ByLayer
370
18
48
1
60
1
100
AcDbLine
10
0
20
0
30
0
11
0
21
297
31
0
39
0
210
0
220
0
230
1
0
LINE
5
75
100
AcDbEntity
8
1
62
256
6
ByLayer
370
18
48
1
60
1
100
AcDbLine
10
420
20
297
30
0
11
0
21
297
31
0
39
0
210
0
220
0
230
1
0
LINE
5
76
100
AcDbEntity
8
1
62
256
6
ByLayer
370
18
48
1
60
1
100
AcDbLine
10
420
20
297
30
0
11
420
21
0
31
0
39
0
210
0
220
0
230
1
0
LINE
5
77
100
AcDbEntity
8
1
62
256
6
ByLayer
370
18
48
1
60
1
100
AcDbLine
10
0
20
0
30
0
11
420
21
0
31
0
39
0
210
0
220
0
230
1
0
LINE
5
78
100
AcDbEntity
8
1
62
256
6
ByLayer
370
13
48
1
60
0
100
AcDbLine
10
0
20
-7.29652
30
0
11
0
21
-2.578852
31
0
39
0
210
0
220
0
230
1
0
LINE
5
79
100
AcDbEntity
8
SK1
62
256
6
ByLayer
370
13
48
1
60
0
100
AcDbLine
10
-0.899711
20
-7.396956
30
0
11
-0.899711
21
-2.797892
31
0
39
0
210
0
220
0
230
1
0
LINE
5
7B
100
AcDbEntity
8
1
62
256
6
ByLayer
370
13
48
1
60
0
100
AcDbLine
10
0
20
-0.31799
30
0
11
0
21
2.039363
31
0
39
0
210
0
220
0
230
1
0
LINE
5
7C
100
AcDbEntity
8
SK1
62
256
6
ByLayer
370
18
48
1
60
0
100
AcDbLine
10
-0.899711
20
2.535829
30
0
11
-0.899711
21
0.241386
31
0
39
0
210
0
220
0
230
1
0
LINE
5
7D
100
AcDbEntity
8
1
62
256
6
ByLayer
370
18
48
1
60
0
100
AcDbLine
10
5.054874
20
0.693924
30
0
11
5.002657
21
-0.302431
31
0
39
0
210
0
220
0
230
1
0
LINE
5
7E
100
AcDbEntity
8
1
62
256
6
ByLayer
370
18
48
1
60
0
100
AcDbLine
10
5.226186
20
-13.209921
30
0
11
6.269695
21
-13.209921
31
0
39
0
210
0
220
0
230
1
0
LINE
5
7F
100
AcDbEntity
8
1
62
256
6
ByLayer
370
18
48
1
60
0
100
AcDbLine
10
5.226186
20
3.748257
30
0
11
6.269695
21
3.748257
31
0
39
0
210
0
220
0
230
1
0
LINE
5
80
100
AcDbEntity
8
1
62
256
6
ByLayer
370
18
48
1
60
0
100
AcDbLine
10
6.3
20
-0.353128
30
0
11
5.2
21
-0.353128
31
0
39
0
210
0
220
0
230
1
0
LINE
5
81
100
AcDbEntity
8
1
62
256
6
ByLayer
370
18
48
1
60
0
100
AcDbLine
10
6.3
20
11.641324
30
0
11
5.2
21
11.641324
31
0
39
0
210
0
220
0
230
1
0
LINE
5
82
100
AcDbEntity
8
1
62
256
6
ByLayer
370
18
48
1
60
0
100
AcDbLine
10
0.1
20
5.646872
30
0
11
0.1
21
5.999956
31
0
39
0
210
0
220
0
230
1
0
LINE
5
83
100
AcDbEntity
8
1
62
256
6
ByLayer
370
13
48
1
60
0
100
AcDbLine
10
5.444548
20
-8.54928
30
0
11
6.041428
21
-8.54928
31
0
39
0
210
0
220
0
230
1
0
LINE
5
84
100
AcDbEntity
8
1
62
256
6
ByLayer
370
18
48
1
60
0
100
AcDbLine
10
5.444548
20
5.646872
30
0
11
6.041428
21
5.646872
31
0
39
0
210
0
220
0
230
1
0
LINE
5
85
100
AcDbEntity
8
1
62
256
6
ByLayer
370
18
48
1
60
0
100
AcDbLine
10
6.3
20
-5.431079
30
0
11
6.304025
21
-5.435337
31
0
39
0
210
0
220
0
230
1
0
LINE
5
86
100
AcDbEntity
8
1
62
256
6
ByLayer
370
18
48
1
60
0
100
AcDbLine
10
6.424166
20
9.174422
30
0
11
5.075693
21
9.174422
31
0
39
0
210
0
220
0
230
1
0
LINE
5
87
100
AcDbEntity
8
1
62
256
6
ByLayer
370
18
48
1
60
0
100
AcDbLine
10
6.3
20
5.82017
30
0
11
6.3
21
5.646872
31
0
39
0
210
0
220
0
230
1
0
LINE
5
88
100
AcDbEntity
8
1
62
256
6
ByLayer
370
18
48
1
60
0
100
AcDbLine
10
6.3
20
4.839983
30
0
11
6.304025
21
4.842696
31
0
39
0
210
0
220
0
230
1
0
LINE
5
89
100
AcDbEntity
8
1
62
256
6
ByLayer
370
18
48
1
60
0
100
AcDbLine
10
6.412097
20
0.146872
30
0
11
5.102728
21
0.146872
31
0
39
0
210
0
220
0
230
1
0
LINE
5
8A
100
AcDbEntity
8
1
62
256
6
ByLayer
370
18
48
1
60
0
100
AcDbLine
10
5.055976
20
0.713646
30
0
11
5.054844
21
0.692043
31
0
39
0
210
0
220
0
230
1
0
LINE
5
8B
100
AcDbEntity
8
1
62
256
6
ByLayer
370
18
48
1
60
0
100
AcDbLine
10
0.1
20
-6.563091
30
0
11
0.1
21
-2.218634
31
0
39
0
210
0
220
0
230
1
0
LINE
5
8C
100
AcDbEntity
8
1
62
256
6
ByLayer
370
18
48
1
60
0
100
AcDbLine
10
0.1
20
-2.218634
30
0
11
0.1
21
-0.881963
31
0
39
0
210
0
220
0
230
1
0
LINE
5
8D
100
AcDbEntity
8
1
62
256
6
ByLayer
370
18
48
1
60
0
100
AcDbLine
10
6.3
20
-1.234194
30
0
11
6.3
21
-2.218634
31
0
39
0
210
0
220
0
230
1
0
LINE
5
8E
100
AcDbEntity
8
1
62
256
6
ByLayer
370
18
48
1
60
0
100
AcDbLine
10
6.3
20
-2.218634
30
0
11
6.3
21
-5.587884
31
0
39
0
210
0
220
0
230
1
0
LINE
5
8F
100
AcDbEntity
8
1
62
256
6
ByLayer
370
18
48
1
60
0
100
AcDbLine
10
6.449177
20
0.615334
30
0
11
6.497225
21
-0.301491
31
0
39
0
210
0
220
0
230
1
0
LINE
5
90
100
AcDbEntity
8
1
62
256
6
ByLayer
370
13
48
1
60
0
100
AcDbLine
10
0.1
20
-2.218634
30
0
11
6.3
21
-2.218634
31
0
39
0
210
0
220
0
230
1
0
LINE
5
91
100
AcDbEntity
8
1
62
256
6
ByLayer
370
18
48
1
60
0
100
AcDbLine
10
0
20
-0.31799
30
0
11
0
21
2.039363
31
0
39
0
210
0
220
0
230
1
0
LINE
5
92
100
AcDbEntity
8
1
62
256
6
ByLayer
370
18
48
1
60
0
100
AcDbLine
10
0
20
-7.29652
30
0
11
0
21
-2.578852
31
0
39
0
210
0
220
0
230
1
0
LINE
5
93
100
AcDbEntity
8
1
62
256
6
ByLayer
370
18
48
1
60
0
100
AcDbLine
10
0
20
2.039381
30
0
11
0
21
4.194812
31
0
39
0
210
0
220
0
230
1
0
LINE
5
94
100
AcDbEntity
8
80
62
256
6
ByLayer
370
18
48
1
60
0
100
AcDbLine
10
0
20
0
30
0
11
-0.998462
21
0
31
0
39
0
210
0
220
0
230
1
0
LINE
5
95
100
AcDbEntity
8
4
62
256
6
ByLayer
370
18
48
0.05
60
0
100
AcDbLine
10
0
20
0
30
0
11
7.084981
21
0
31
0
39
0
210
0
220
0
230
1
0
LINE
5
97
100
AcDbEntity
8
SK4
62
256
6
ByLayer
370
18
48
0.05
60
0
100
AcDbLine
10
-0.998462
20
0
30
0
11
7.561105
21
0
31
0
39
0
210
0
220
0
230
1
0
LINE
5
99
100
AcDbEntity
8
81
62
256
6
ByLayer
370
18
48
1
60
0
100
AcDbLine
10
6.3
20
11.641324
30
0
11
7.356407
21
11.641324
31
0
39
0
210
0
220
0
230
1
0
MTEXT
5
E9
100
AcDbEntity
8
SK6
62
256
6
ByLayer
370
18
48
1
60
0
100
AcDbMText
10
-19.266272
20
-26.320978
30
0
210
0
220
0
230
1
1
\W0.7245;327R14-28 15000-GMM
40
3.5
41
0
44
1.084337
50
0
71
7
72
5
7
iso_b_vert
0
DIMENSION
5
F7
100
AcDbEntity
8
2
62
256
6
ByLayer
370
13
48
1
60
0
100
AcDbDimension
2
DimnDraft3D1
10
6.497225
20
22.632463
30
0
11
10.062725
21
22.632463
31
0
70
32
71
5
72
1
41
1
210
0
220
0
230
1
3
Standard
100
AcDbAlignedDimension
13
5.002657
23
13.029346
33
0
14
6.497225
24
13.025426
34
0
50
0
100
AcDbRotatedDimension
1001
ACAD
1000
DSTYLE
1002
{
1070
   279
1070
     0
1070
   172
1070
     1
1070
   173
1070
     1
1070
   340
1005
EA
1070
   271
1070
     1
1070
   272
1070
     2
1070
    77
1070
     1
1070
    73
1070
     0
1070
   171
1070
     3
1070
   274
1070
     4
1070
   177
1070
     7
1070
   176
1070
     7
1070
   178
1070
     7
1070
    78
1070
     8
1070
    48
1040
-0.005
1070
    41
1041
3.5
1070
   147
1041
1.75
1070
    42
1041
1.5875
1070
    44
1041
2.0
1070
   140
1041
3.5
1070
   343
1005
0
1070
   344
1005
0
1002
}
0
DIMENSION
5
101
100
AcDbEntity
8
2
62
256
6
ByLayer
370
13
48
1
60
0
100
AcDbDimension
2
DimnDraft3D2
10
6.497225
20
30.301329
30
0
11
12.475402
21
30.301329
31
0
70
32
71
5
72
1
41
1
210
0
220
0
230
1
3
Standard
100
AcDbAlignedDimension
13
0
23
4.756885
33
0
14
6.497225
24
13.025426
34
0
50
0
100
AcDbRotatedDimension
1001
ACAD
1000
DSTYLE
1002
{
1070
   279
1070
     0
1070
   172
1070
     1
1070
   173
1070
     1
1070
   340
1005
EA
1070
   271
1070
     1
1070
   272
1070
     2
1070
    77
1070
     1
1070
    73
1070
     0
1070
   171
1070
     3
1070
   274
1070
     4
1070
   177
1070
     7
1070
   176
1070
     7
1070
   178
1070
     7
1070
    78
1070
     8
1070
    48
1040
-0.005
1070
    41
1041
3.5
1070
   147
1041
1.75
1070
    42
1041
1.5875
1070
    44
1041
2.0
1070
   140
1041
3.5
1070
   343
1005
0
1070
   344
1005
0
1002
}
0
DIMENSION
5
10B
100
AcDbEntity
8
2
62
256
6
ByLayer
370
13
48
1
60
0
100
AcDbDimension
2
DimnDraft3D3
10
-8.86604
20
6.002231
30
0
11
-8.86604
21
19.094621
31
0
70
32
71
5
72
1
41
1
210
0
220
0
230
1
3
Standard
100
AcDbAlignedDimension
13
3.6125
23
11.641324
33
0
14
-0.362515
24
6.002231
34
0
50
90
100
AcDbRotatedDimension
1001
ACAD
1000
DSTYLE
1002
{
1070
    74
1070
     0
1070
   279
1070
     0
1070
   172
1070
     1
1070
   173
1070
     1
1070
   340
1005
EA
1070
   271
1070
     1
1070
   272
1070
     2
1070
    77
1070
     1
1070
    73
1070
     0
1070
   171
1070
     3
1070
   274
1070
     4
1070
   177
1070
     7
1070
   176
1070
     7
1070
   178
1070
     7
1070
    78
1070
     8
1070
    48
1040
-0.005
1070
    41
1041
3.5
1070
   147
1041
1.75
1070
    42
1041
1.5875
1070
    44
1041
2.0
1070
   140
1041
3.5
1070
   343
1005
0
1070
   344
1005
0
1002
}
0
DIMENSION
5
116
100
AcDbEntity
8
SK2
62
256
6
ByLayer
370
13
48
1
60
0
100
AcDbDimension
2
DimnDraft3D4
10
-16.116625
20
-6
30
0
11
-16.116625
21
-5.632237
31
0
70
32
71
5
72
1
41
1
210
0
220
0
230
1
3
Standard
100
AcDbAlignedDimension
13
-1.5875
23
6
33
0
14
-1.5875
24
-6
34
0
50
90
100
AcDbRotatedDimension
1001
ACAD
1000
DSTYLE
1002
{
1070
    74
1070
     0
1070
   279
1070
     0
1070
   172
1070
     1
1070
   173
1070
     1
1070
   340
1005
EA
1070
   271
1070
     2
1070
   272
1070
     2
1070
    77
1070
     1
1070
    73
1070
     0
1070
   171
1070
     3
1070
   274
1070
     4
1070
   177
1070
     7
1070
   176
1070
     7
1070
   178
1070
     7
1070
    78
1070
     8
1070
    48
1040
-0.005
1070
    41
1041
3.5
1070
   147
1041
1.75
1070
    42
1041
1.5875
1070
    44
1041
2.0
1070
   140
1041
3.5
1070
   343
1005
0
1070
   344
1005
0
1002
}
0
DIMENSION
5
11E
100
AcDbEntity
8
2
62
256
6
ByLayer
370
13
48
1
60
0
100
AcDbDimension
2
DimnDraft3D5
10
20.82683
20
-16.058676
30
0
11
20.82683
21
-9.8214
31
0
70
32
71
5
72
1
41
1
210
0
220
0
230
1
3
Standard
100
AcDbAlignedDimension
13
6.3
23
-16.058676
33
0
14
0
24
0
34
0
50
90
100
AcDbRotatedDimension
1001
ACAD
1000
DSTYLE
1002
{
1070
    74
1070
     0
1070
   279
1070
     0
1070
   172
1070
     1
1070
   173
1070
     1
1070
   340
1005
EA
1070
    76
1070
     1
1070
   271
1070
     2
1070
   272
1070
     2
1070
    77
1070
     1
1070
    73
1070
     0
1070
   171
1070
     3
1070
   274
1070
     4
1070
   282
1070
     1
1070
   177
1070
     7
1070
   176
1070
     7
1070
   178
1070
     7
1070
    78
1070
     8
1070
    48
1040
-0.005
1070
    41
1041
3.5
1070
   147
1041
1.75
1070
    42
1041
1.5875
1070
    44
1041
2.0
1070
   140
1041
3.5
1070
   343
1005
0
1070
   344
1005
0
1002
}
0
ENDSEC
0
SECTION
2
OBJECTS
0
DICTIONARY
5
189
330
0
100
AcDbDictionary
280
0
281
1
3
ACAD_GROUP
350
18a
3
ACAD_MLINESTYLE
350
18b
0
DICTIONARY
5
18a
330
0
100
AcDbDictionary
280
0
281
1
0
DICTIONARY
5
18b
330
0
100
AcDbDictionary
280
0
281
1
3
Standard
350
18
0
MLINESTYLE
5
18
330
18b
100
AcDbMlineStyle
2
Standard
70
0
3

62
256
51
90
52
90
71
2
49
-0.5
62
256
6
ByLayer
49
0.5
62
256
6
ByLayer
0
RASTERVARIABLES
5
177
330

100
AcDbRasterVariables
90
0
70
1
71
1
72
1
0
ENDSEC
0
EOF
