0
SECTION
2
HEADER
9
$ACADVER
1
AC1015
9
$DWGCODEPAGE
3
ANSI_1252
9
$HANDSEED
5
1b3
9
$ANGBASE
50
0
9
$ANGDIR
70
0
9
$ATTMODE
70
1
9
$AUNITS
70
0
9
$AUPREC
70
0
9
$CECOLOR
62
256
9
$CELTSCALE
40
1
9
$CELTYPE
6
ByLayer
9
$CELWEIGHT
370
18
9
$CLAYER
8
0
9
$CMLJUST
70
0
9
$CMLSCALE
40
1
9
$CMLSTYLE
2
Standard
9
$DIMSTYLE
2
Standard
9
$TEXTSIZE
40
0.2
9
$TEXTSTYLE
7
Standard
9
$LUNITS
70
2
9
$LUPREC
70
4
9
$EXTNAMES
290
1
9
$INSUNITS
70
4
9
$LTSCALE
40
1
9
$LWDISPLAY
290
1
9
$PDMODE
70
0
9
$PDSIZE
40
0
9
$PLINEGEN
70
0
0
ENDSEC
0
SECTION
2
CLASSES
0
CLASS
1
RASTERVARIABLES
2
AcDbRasterVariables
3
ISM
90
0
280
0
281
0
0
ENDSEC
0
SECTION
2
TABLES
0
TABLE
2
VPORT
5
1a9
100
AcDbSymbolTable
0
VPORT
5
1
100
AcDbSymbolTableRecord
100
AcDbViewportTableRecord
2
*Active
70
0
10
0
20
0
11
1
21
1
12
-1
22
1
13
0
23
0
14
0.5
24
0.5
15
10
25
10
16
0
26
0
36
1
17
0
27
0
37
0
0
ENDTAB
0
TABLE
2
LTYPE
5
1aa
100
AcDbSymbolTable
0
LTYPE
5
14
100
AcDbSymbolTableRecord
100
AcDbLinetypeTableRecord
70
0
2
ByBlock
3

72
65
73
0
40
0
0
LTYPE
5
15
100
AcDbSymbolTableRecord
100
AcDbLinetypeTableRecord
70
0
2
ByLayer
3

72
65
73
0
40
0
0
LTYPE
5
16
100
AcDbSymbolTableRecord
100
AcDbLinetypeTableRecord
70
0
2
CONTINUOUS
3
Solid line
72
65
73
0
40
0
0
LTYPE
5
6A
100
AcDbSymbolTableRecord
100
AcDbLinetypeTableRecord
70
0
2
CENTER
3
____ _ ____ _ ____ _ ____
72
65
73
4
40
47.5
49
22
74
0
49
-8.5
74
0
49
8.5
74
0
49
-8.5
74
0
0
LTYPE
5
6B
100
AcDbSymbolTableRecord
100
AcDbLinetypeTableRecord
70
0
2
DASHED
3
__ __ __ __ __ __ __ __ __
72
65
73
2
40
25.72
49
12.86
74
0
49
-12.86
74
0
0
ENDTAB
0
TABLE
2
LAYER
5
1ab
100
AcDbSymbolTable
0
LAYER
5
10
100
AcDbSymbolTableRecord
100
AcDbLayerTableRecord
2
0
70
0
62
7
6
CONTINUOUS
290
1
370
-3
390
0
0
LAYER
5
6D
100
AcDbSymbolTableRecord
100
AcDbLayerTableRecord
2
81
70
0
62
-3
6
CONTINUOUS
290
1
370
-3
390
0
0
LAYER
5
6F
100
AcDbSymbolTableRecord
100
AcDbLayerTableRecord
2
1
70
0
62
4
6
CONTINUOUS
290
1
370
-3
390
0
0
LAYER
5
73
100
AcDbSymbolTableRecord
100
AcDbLayerTableRecord
2
80
70
0
62
-6
6
CONTINUOUS
290
1
370
-3
390
0
0
LAYER
5
A2
100
AcDbSymbolTableRecord
100
AcDbLayerTableRecord
2
4
70
0
62
-2
6
CENTER
290
1
370
-3
390
0
0
LAYER
5
10C
100
AcDbSymbolTableRecord
100
AcDbLayerTableRecord
2
2
70
0
62
7
6
CONTINUOUS
290
1
370
-3
390
0
0
LAYER
5
195
100
AcDbSymbolTableRecord
100
AcDbLayerTableRecord
2
SK1
70
0
62
4
6
CONTINUOUS
290
1
370
-3
390
0
0
LAYER
5
196
100
AcDbSymbolTableRecord
100
AcDbLayerTableRecord
2
SK4
70
0
62
2
6
CENTER
290
1
370
-3
390
0
0
LAYER
5
197
100
AcDbSymbolTableRecord
100
AcDbLayerTableRecord
2
SK6
70
0
62
5
6
CONTINUOUS
290
1
370
-3
390
0
0
LAYER
5
198
100
AcDbSymbolTableRecord
100
AcDbLayerTableRecord
2
SK2
70
0
62
7
6
CONTINUOUS
290
1
370
-3
390
0
0
ENDTAB
0
TABLE
2
STYLE
5
1ac
100
AcDbSymbolTable
0
STYLE
5
11
100
AcDbSymbolTableRecord
100
AcDbTextStyleTableRecord
2
Standard
3
txt
70
0
71
0
40
0
41
1
42
0
50
0
0
STYLE
5
107
100
AcDbSymbolTableRecord
100
AcDbTextStyleTableRecord
2
iso_b_vert
3
simplex.shx
70
0
71
0
40
0
41
1
42
0
50
0
0
STYLE
5
108
100
AcDbSymbolTableRecord
100
AcDbTextStyleTableRecord
2
DWGDirectTextStyle
3
simplex
70
0
71
0
40
0
41
1
42
0
50
0
0
ENDTAB
0
TABLE
2
DIMSTYLE
5
1ad
100
AcDbSymbolTable
100
AcDbDimStyleTable
0
DIMSTYLE
105
27
100
AcDbSymbolTableRecord
100
AcDbDimStyleTableRecord
2
Standard
70
0
3
<>
41
0.18
42
0.0625
44
0.18
140
0.18
147
0.09
73
0
74
0
77
1
271
2
275
0
278
52
280
0
340
11
0
ENDTAB
0
TABLE
2
VIEW
5
1ae
100
AcDbSymbolTable
0
ENDTAB
0
TABLE
2
UCS
5
1af
100
AcDbSymbolTable
0
ENDTAB
0
TABLE
2
APPID
5
1b0
100
AcDbSymbolTable
0
APPID
5
12
100
AcDbSymbolTableRecord
100
AcDbRegAppTableRecord
2
ACAD
70
0
0
ENDTAB
0
TABLE
2
BLOCK_RECORD
5
1b1
100
AcDbSymbolTable
0
BLOCK_RECORD
5
1F
100
AcDbSymbolTableRecord
100
AcDbBlockTableRecord
2
*Model_Space
340
0
70
0
0
BLOCK_RECORD
5
1B
100
AcDbSymbolTableRecord
100
AcDbBlockTableRecord
2
*Paper_Space
340
0
70
0
0
BLOCK_RECORD
5
23
100
AcDbSymbolTableRecord
100
AcDbBlockTableRecord
2
*Paper_Space0
340
0
70
0
0
BLOCK_RECORD
5
10A
100
AcDbSymbolTableRecord
100
AcDbBlockTableRecord
2
DimnDraft3D1
340
0
70
0
0
BLOCK_RECORD
5
113
100
AcDbSymbolTableRecord
100
AcDbBlockTableRecord
2
DimnDraft3D2
340
0
70
0
0
BLOCK_RECORD
5
11E
100
AcDbSymbolTableRecord
100
AcDbBlockTableRecord
2
DimnDraft3D33
340
0
70
0
0
BLOCK_RECORD
5
128
100
AcDbSymbolTableRecord
100
AcDbBlockTableRecord
2
DimnDraft3D4
340
0
70
0
0
BLOCK_RECORD
5
132
100
AcDbSymbolTableRecord
100
AcDbBlockTableRecord
2
DimnDraft3D5
340
0
70
0
0
ENDTAB
0
ENDSEC
0
SECTION
2
BLOCKS
0
BLOCK
5
20
100
AcDbEntity
8
0
100
AcDbBlockBegin
2
*Model_Space
70
0
10
0
20
0
30
0
3
*Model_Space
0
ENDBLK
5
21
100
AcDbEntity
8
0
100
AcDbBlockEnd
0
BLOCK
5
1C
100
AcDbEntity
8
0
100
AcDbBlockBegin
2
*Paper_Space
70
0
10
0
20
0
30
0
3
*Paper_Space
0
ENDBLK
5
1D
100
AcDbEntity
8
0
100
AcDbBlockEnd
0
BLOCK
5
24
100
AcDbEntity
8
0
100
AcDbBlockBegin
2
*Paper_Space0
70
0
10
0
20
0
30
0
3
*Paper_Space0
0
ENDBLK
5
25
100
AcDbEntity
8
0
100
AcDbBlockEnd
0
BLOCK
5
110
100
AcDbEntity
8
0
100
AcDbBlockBegin
2
DimnDraft3D1
70
0
10
0
20
0
30
0
3
DimnDraft3D1
0
MTEXT
5
10B
100
AcDbEntity
8
2
62
256
6
ByLayer
370
18
48
1
60
0
100
AcDbMText
10
19.404371
20
-6.636184
30
0
210
0
220
0
230
1
1
\W1.0454;%%c21,7
40
3.5
41
0
44
1.084337
50
90
71
7
72
5
7
iso_b_vert
0
LINE
5
10D
100
AcDbEntity
8
2
62
256
6
ByLayer
370
13
48
1
60
0
100
AcDbLine
10
7.2875
20
10.85
30
0
11
23.154371
21
10.85
31
0
39
0
210
0
220
0
230
1
0
LINE
5
10E
100
AcDbEntity
8
2
62
256
6
ByLayer
370
13
48
1
60
0
100
AcDbLine
10
21.154371
20
10.85
30
0
11
21.154371
21
-9.011184
31
0
39
0
210
0
220
0
230
1
0
SOLID
5
10F
100
AcDbEntity
8
2
62
256
6
ByLayer
370
13
48
1
60
0
100
AcDbTrace
10
21.154371
20
10.85
30
0
11
21.615155
21
7.350002
31
0
12
20.693587
22
7.349998
32
0
13
21.154371
23
10.85
33
0
39
0
210
0
220
0
230
1
0
ENDBLK
5
111
100
AcDbEntity
8
0
100
AcDbBlockEnd
0
BLOCK
5
11B
100
AcDbEntity
8
0
100
AcDbBlockBegin
2
DimnDraft3D2
70
0
10
0
20
0
30
0
3
DimnDraft3D2
0
MTEXT
5
114
100
AcDbEntity
8
SK2
62
256
6
ByLayer
370
18
48
1
60
0
100
AcDbMText
10
-23.713075
20
-4.757237
30
0
210
0
220
0
230
1
1
\W1.2012;%%c12
40
3.5
41
0
44
1.084337
50
90
71
7
72
5
7
iso_b_vert
0
LINE
5
116
100
AcDbEntity
8
SK2
62
256
6
ByLayer
370
13
48
1
60
0
100
AcDbLine
10
-1.5875
20
6
30
0
11
-23.963075
21
6
31
0
39
0
210
0
220
0
230
1
0
LINE
5
117
100
AcDbEntity
8
SK2
62
256
6
ByLayer
370
13
48
1
60
0
100
AcDbLine
10
-1.5875
20
-6
30
0
11
-23.963075
21
-6
31
0
39
0
210
0
220
0
230
1
0
LINE
5
118
100
AcDbEntity
8
SK2
62
256
6
ByLayer
370
13
48
1
60
0
100
AcDbLine
10
-21.963075
20
6
30
0
11
-21.963075
21
-6
31
0
39
0
210
0
220
0
230
1
0
SOLID
5
119
100
AcDbEntity
8
SK2
62
256
6
ByLayer
370
13
48
1
60
0
100
AcDbTrace
10
-21.963075
20
6
30
0
11
-21.502291
21
2.500002
31
0
12
-22.423859
22
2.499998
32
0
13
-21.963075
23
6
33
0
39
0
210
0
220
0
230
1
0
SOLID
5
11A
100
AcDbEntity
8
SK2
62
256
6
ByLayer
370
13
48
1
60
0
100
AcDbTrace
10
-21.963075
20
-6
30
0
11
-22.423859
21
-2.500002
31
0
12
-21.502291
22
-2.499998
32
0
13
-21.963075
23
-6
33
0
39
0
210
0
220
0
230
1
0
ENDBLK
5
11C
100
AcDbEntity
8
0
100
AcDbBlockEnd
0
BLOCK
5
11F
100
AcDbEntity
8
0
100
AcDbBlockBegin
2
DimnDraft3D33
70
0
10
0
20
0
30
0
3
DimnDraft3D33
0
LINE
5
121
100
AcDbEntity
8
2
62
256
6
ByLayer
370
25
48
1
60
0
100
AcDbLine
10
5.7
20
12.4375
30
0
11
5.7
21
29.070127
31
0
39
0
210
0
220
0
230
1
0
LINE
5
122
100
AcDbEntity
8
2
62
256
6
ByLayer
370
25
48
1
60
0
100
AcDbLine
10
0
20
7.333292
30
0
11
0
21
29.070127
31
0
39
0
210
0
220
0
230
1
0
LINE
5
123
100
AcDbEntity
8
2
62
256
6
ByLayer
370
25
48
1
60
0
100
AcDbLine
10
-8.75
20
27.070127
30
0
11
16.830512
21
27.070127
31
0
39
0
210
0
220
0
230
1
0
SOLID
5
124
100
AcDbEntity
8
2
62
256
6
ByLayer
370
25
48
1
60
0
100
AcDbTrace
10
5.7
20
27.070127
30
0
11
9.199998
21
27.530911
31
0
12
9.200002
22
26.609343
32
0
13
5.7
23
27.070127
33
0
39
0
210
0
220
0
230
1
0
SOLID
5
125
100
AcDbEntity
8
2
62
256
6
ByLayer
370
25
48
1
60
0
100
AcDbTrace
10
0
20
27.070127
30
0
11
-3.499998
21
26.609343
31
0
12
-3.500002
22
27.530911
32
0
13
0
23
27.070127
33
0
39
0
210
0
220
0
230
1
0
MTEXT
5
126
100
AcDbEntity
8
2
62
256
6
ByLayer
370
18
48
1
60
0
100
AcDbMText
10
12.427881
20
27.945127
30
0
210
0
220
0
230
1
1
\W0.6702;5,7
40
3.5
41
0
44
1.084337
50
0
71
7
72
5
7
iso_b_vert
0
ENDBLK
5
120
100
AcDbEntity
8
0
100
AcDbBlockEnd
0
BLOCK
5
12F
100
AcDbEntity
8
0
100
AcDbBlockBegin
2
DimnDraft3D4
70
0
10
0
20
0
30
0
3
DimnDraft3D4
0
MTEXT
5
129
100
AcDbEntity
8
2
62
256
6
ByLayer
370
18
48
1
60
0
100
AcDbMText
10
11.719788
20
19.624065
30
0
210
0
220
0
230
1
1
\W0.6198;4
40
3.5
41
0
44
1.084337
50
0
71
7
72
5
7
iso_b_vert
0
LINE
5
12A
100
AcDbEntity
8
2
62
256
6
ByLayer
370
13
48
1
60
0
100
AcDbLine
10
5.7
20
12.4375
30
0
11
5.7
21
20.749065
31
0
39
0
210
0
220
0
230
1
0
LINE
5
12B
100
AcDbEntity
8
2
62
256
6
ByLayer
370
13
48
1
60
0
100
AcDbLine
10
1.704023
20
12.234668
30
0
11
1.704023
21
20.749065
31
0
39
0
210
0
220
0
230
1
0
LINE
5
12C
100
AcDbEntity
8
2
62
256
6
ByLayer
370
13
48
1
60
0
100
AcDbLine
10
-7.045977
20
18.749065
30
0
11
12.732946
21
18.749065
31
0
39
0
210
0
220
0
230
1
0
SOLID
5
12D
100
AcDbEntity
8
2
62
256
6
ByLayer
370
13
48
1
60
0
100
AcDbTrace
10
5.7
20
18.749065
30
0
11
9.199998
21
19.209849
31
0
12
9.200002
22
18.288282
32
0
13
5.7
23
18.749065
33
0
39
0
210
0
220
0
230
1
0
SOLID
5
12E
100
AcDbEntity
8
2
62
256
6
ByLayer
370
13
48
1
60
0
100
AcDbTrace
10
1.704023
20
18.749065
30
0
11
-1.795976
21
18.288282
31
0
12
-1.795979
22
19.209849
32
0
13
1.704023
23
18.749065
33
0
39
0
210
0
220
0
230
1
0
ENDBLK
5
130
100
AcDbEntity
8
0
100
AcDbBlockEnd
0
BLOCK
5
139
100
AcDbEntity
8
0
100
AcDbBlockBegin
2
DimnDraft3D5
70
0
10
0
20
0
30
0
3
DimnDraft3D5
0
MTEXT
5
133
100
AcDbEntity
8
2
62
256
6
ByLayer
370
18
48
1
60
0
100
AcDbMText
10
-13.881565
20
17.411008
30
0
210
0
220
0
230
1
1
\W0.7191;4,5
40
3.5
41
0
44
1.084337
50
90
71
7
72
5
7
iso_b_vert
0
LINE
5
134
100
AcDbEntity
8
2
62
256
6
ByLayer
370
13
48
1
60
0
100
AcDbLine
10
0.3125
20
10.85
30
0
11
-15.006565
21
10.85
31
0
39
0
210
0
220
0
230
1
0
LINE
5
135
100
AcDbEntity
8
2
62
256
6
ByLayer
370
13
48
1
60
0
100
AcDbLine
10
0.2475
20
6.311353
30
0
11
-15.006565
21
6.311353
31
0
39
0
210
0
220
0
230
1
0
LINE
5
136
100
AcDbEntity
8
2
62
256
6
ByLayer
370
13
48
1
60
0
100
AcDbLine
10
-13.006565
20
-2.438647
30
0
11
-13.006565
21
22.18206
31
0
39
0
210
0
220
0
230
1
0
SOLID
5
137
100
AcDbEntity
8
2
62
256
6
ByLayer
370
13
48
1
60
0
100
AcDbTrace
10
-13.006565
20
10.85
30
0
11
-13.467348
21
14.349999
31
0
12
-12.545781
22
14.350002
32
0
13
-13.006565
23
10.85
33
0
39
0
210
0
220
0
230
1
0
SOLID
5
138
100
AcDbEntity
8
2
62
256
6
ByLayer
370
13
48
1
60
0
100
AcDbTrace
10
-13.006565
20
6.311353
30
0
11
-12.545781
21
2.811354
31
0
12
-13.467348
22
2.811351
32
0
13
-13.006565
23
6.311353
33
0
39
0
210
0
220
0
230
1
0
ENDBLK
5
13A
100
AcDbEntity
8
0
100
AcDbBlockEnd
0
ENDSEC
0
SECTION
2
ENTITIES
0
ELLIPSE
5
A5
100
AcDbEntity
8
1
62
256
6
ByLayer
370
18
48
1
60
0
100
AcDbEllipse
10
5.584921
20
0.694137
30
0
11
-0.5706804616919
21
8.37294466594752
31
0
210
0
220
0
230
1
40
0.03923
41
1.33649630282275
42
1.96372877374126
0
ELLIPSE
5
A6
100
AcDbEntity
8
1
62
256
6
ByLayer
370
13
48
1
60
0
100
AcDbEllipse
10
5.585043
20
0.694145
30
0
11
-0.571153290054868
21
8.37988193817843
31
0
210
0
220
0
230
1
40
0.03923
41
1.33736557835316
42
1.96365115392858
0
ELLIPSE
5
A7
100
AcDbEntity
8
1
62
256
6
ByLayer
370
13
48
1
60
0
100
AcDbEllipse
10
5.755313
20
0.70575
30
0
11
-0.903943856286996
21
13.2625390176761
31
0
210
0
220
0
230
1
40
0.03923
41
1.95412999535979
42
2.03589503912787
0
ELLIPSE
5
A8
100
AcDbEntity
8
1
62
256
6
ByLayer
370
13
48
1
60
0
100
AcDbEllipse
10
1.609347
20
0.481234
30
0
11
0.560982849328452
21
8.23066264095889
31
0
210
0
220
0
230
1
40
0.03923
41
-2.0585894545778
42
-1.33042167267748
0
ELLIPSE
5
A9
100
AcDbEntity
8
1
62
256
6
ByLayer
370
13
48
1
60
0
100
AcDbEllipse
10
1.797592
20
0.468403
30
0
11
0.575074357527342
21
8.43741129686916
31
0
210
0
220
0
230
1
40
0.03923
41
-2.0366527963112
42
-1.35358749605445
0
ELLIPSE
5
AA
100
AcDbEntity
8
1
62
256
6
ByLayer
370
13
48
1
60
0
100
AcDbEllipse
10
5.585043
20
1.937355
30
0
11
0.571153290054869
21
8.37988193817843
31
0
210
0
220
0
230
1
40
0.03923
41
-2.84875290171384
42
-2.84232387692397
0
ELLIPSE
5
AB
100
AcDbEntity
8
1
62
256
6
ByLayer
370
18
48
1
60
0
100
AcDbEllipse
10
5.755313
20
1.925749
30
0
11
0.903943856286995
21
13.2625390176761
31
0
210
0
220
0
230
1
40
0.03923
41
-2.23198848470722
42
-2.15022344093913
0
ELLIPSE
5
AC
100
AcDbEntity
8
1
62
256
6
ByLayer
370
18
48
1
60
0
100
AcDbEllipse
10
5.584921
20
1.937363
30
0
11
0.570680461691901
21
8.37294466594752
31
0
210
0
220
0
230
1
40
0.03923
41
-2.84962217724426
42
-2.81839782722529
0
ELLIPSE
5
AD
100
AcDbEntity
8
1
62
256
6
ByLayer
370
13
48
1
60
0
100
AcDbEllipse
10
5.643139
20
0.698105
30
0
11
-0.561072699902043
21
8.23198091612581
31
0
210
0
220
0
230
1
40
0.03923
41
1.31918942750322
42
1.87010829700943
0
ELLIPSE
5
AE
100
AcDbEntity
8
1
62
256
6
ByLayer
370
13
48
1
60
0
100
AcDbEllipse
10
1.646619
20
0.478693
30
0
11
0.870417837377835
21
12.7706499132836
31
0
210
0
220
0
230
1
40
0.03923
41
-2.03587003983548
42
-1.95234715789873
0
ELLIPSE
5
AF
100
AcDbEntity
8
1
62
256
6
ByLayer
370
13
48
1
60
0
100
AcDbEllipse
10
1.64674
20
0.478685
30
0
11
0.869943910691495
21
12.7636965266043
31
0
210
0
220
0
230
1
40
0.03923
41
-2.03570713760763
42
-1.95013081062284
0
POINT
5
6C
100
AcDbEntity
8
81
62
256
6
ByLayer
370
18
48
1
60
0
100
AcDbPoint
10
5.7
20
10.85
30
0
39
0
210
0
220
0
230
1
50
360
0
POINT
5
6E
100
AcDbEntity
8
1
62
256
6
ByLayer
370
18
48
1
60
1
100
AcDbPoint
10
5.7
20
-10.85
30
0
39
0
210
0
220
0
230
1
50
360
0
POINT
5
70
100
AcDbEntity
8
1
62
256
6
ByLayer
370
18
48
1
60
1
100
AcDbPoint
10
0
20
6
30
0
39
0
210
0
220
0
230
1
50
360
0
POINT
5
71
100
AcDbEntity
8
1
62
256
6
ByLayer
370
18
48
1
60
1
100
AcDbPoint
10
0
20
-6
30
0
39
0
210
0
220
0
230
1
50
360
0
POINT
5
72
100
AcDbEntity
8
80
62
256
6
ByLayer
370
18
48
1
60
0
100
AcDbPoint
10
0
20
0
30
0
39
0
210
0
220
0
230
1
50
360
0
SPLINE
5
B0
100
AcDbEntity
8
1
62
256
6
ByLayer
370
18
48
1
60
0
100
AcDbSpline
70
4
71
3
72
9
73
5
40
0
40
0
40
0
40
0
40
0.5
40
1
40
1
40
1
40
1
41
1
10
1.70427577303031
20
10.6400908024703
30
0
41
1
10
1.71947430130684
20
10.3530014766894
30
0
41
1
10
1.74710516860501
20
9.77478108720556
30
0
41
1
10
1.76943738240661
20
9.18866274699853
30
0
41
1
10
1.77926286323302
20
8.89357994637144
30
0
0
SPLINE
5
B1
100
AcDbEntity
8
1
62
256
6
ByLayer
370
18
48
1
60
0
100
AcDbSpline
70
4
71
3
72
9
73
5
40
0
40
0
40
0
40
0
40
0.5
40
1
40
1
40
1
40
1
41
1
10
5.5781624130932
20
5.98795828222272
30
0
41
1
10
5.57380191197857
20
6.05966405739916
30
0
41
1
10
5.56676375551687
20
6.21595593580757
30
0
41
1
10
5.56286518795674
20
6.39694780386859
30
0
41
1
10
5.56171638817401
20
6.49389638536372
30
0
0
SPLINE
5
B2
100
AcDbEntity
8
1
62
256
6
ByLayer
370
18
48
1
60
0
100
AcDbSpline
70
4
71
3
72
14
73
10
40
0
40
0
40
0
40
0
40
0.125000000000002
40
0.125000000000002
40
0.250000000000003
40
0.250000000000003
40
0.500000000000002
40
0.500000000000002
40
1
40
1
40
1
40
1
41
1
10
5.55812655149027
20
-4.9612907412071
30
0
41
1
10
5.57003610000297
20
-4.93499534930151
30
0
41
1
10
5.57860362768691
20
-4.90790888051824
30
0
41
1
10
5.59279245846674
20
-4.85303855347774
30
0
41
1
10
5.59827870367454
20
-4.82522272618771
30
0
41
1
10
5.61168941116728
20
-4.74105375732002
30
0
41
1
10
5.6165658211032
20
-4.68411389160859
30
0
41
1
10
5.62422051437111
20
-4.51417353765239
30
0
41
1
10
5.62019886328495
20
-4.40085279003002
30
0
41
1
10
5.61087816457965
20
-4.28751625909284
30
0
0
SPLINE
5
B3
100
AcDbEntity
8
1
62
256
6
ByLayer
370
18
48
1
60
0
100
AcDbSpline
70
4
71
3
72
8
73
4
40
0
40
0
40
0
40
0
40
1
40
1
40
1
40
1
41
1
10
5.13293886139244
20
-6.08767063835619
30
0
41
1
10
5.13295268021782
20
-6.08919375645427
30
0
41
1
10
5.13300701574358
20
-6.0907191296942
30
0
41
1
10
5.13310221402029
20
-6.09224677733694
30
0
0
SPLINE
5
B4
100
AcDbEntity
8
SK1
62
256
6
ByLayer
370
18
48
1
60
0
100
AcDbSpline
70
4
71
3
72
8
73
4
40
0
40
0
40
0
40
0
40
1
40
1
40
1
40
1
41
1
10
-0.849999999999989
20
0.440032406729653
30
0
41
1
10
-0.849999999999989
20
-0.0655260515297762
30
0
41
1
10
-0.849999999999989
20
-0.56559118629686
30
0
41
1
10
-0.849999999999989
20
-1.06016995033936
30
0
0
SPLINE
5
B5
100
AcDbEntity
8
1
62
256
6
ByLayer
370
18
48
1
60
0
100
AcDbSpline
70
4
71
3
72
9
73
5
40
0
40
0
40
0
40
0
40
0.5
40
1
40
1
40
1
40
1
41
1
10
1.70402269843027
20
10.6471682173035
30
0
41
1
10
1.70404457736448
20
10.6459910853012
30
0
41
1
10
1.70410856638654
20
10.6436339657886
30
0
41
1
10
1.70421317420284
20
10.6412732495367
30
0
41
1
10
1.70427577303031
20
10.6400908024703
30
0
0
SPLINE
5
B6
100
AcDbEntity
8
1
62
256
6
ByLayer
370
18
48
1
60
0
100
AcDbSpline
70
4
71
3
72
22
73
18
40
0
40
0
40
0
40
0
40
0.250000000000001
40
0.250000000000001
40
0.375000000000002
40
0.375000000000002
40
0.437500000000002
40
0.437500000000002
40
0.500000000000002
40
0.500000000000002
40
0.750000000000002
40
0.750000000000002
40
0.812500000000001
40
0.812500000000001
40
0.875000000000001
40
0.875000000000001
40
1
40
1
40
1
40
1
41
1
10
5.19517704999226
20
-7.02576344273202
30
0
41
1
10
5.20875109584742
20
-7.21960150396389
30
0
41
1
10
5.22501006560115
20
-7.36975824475248
30
0
41
1
10
5.2535223240042
20
-7.53214739706
30
0
41
1
10
5.2637187898724
20
-7.57571345964859
30
0
41
1
10
5.28011428567775
20
-7.62474197895778
30
0
41
1
10
5.28576908378515
20
-7.63834801062091
30
0
41
1
10
5.29731737676378
20
-7.65977367739128
30
0
41
1
10
5.30322671401939
20
-7.66764918647984
30
0
41
1
10
5.33344901556638
20
-7.69309096621901
30
0
41
1
10
5.35976764534914
20
-7.66931016568633
30
0
41
1
10
5.39554423976694
20
-7.58372588110699
30
0
41
1
10
5.40286048995705
20
-7.56373727914984
30
0
41
1
10
5.4177145558152
20
-7.51822997147751
30
0
41
1
10
5.42524090201497
20
-7.49275827287197
30
0
41
1
10
5.44812091598329
20
-7.4082530248263
30
0
41
1
10
5.46377477654975
20
-7.34115214926034
30
0
41
1
10
5.47984622386725
20
-7.26318294684423
30
0
0
SPLINE
5
B7
100
AcDbEntity
8
1
62
256
6
ByLayer
370
18
48
1
60
0
100
AcDbSpline
70
4
71
3
72
8
73
4
40
0
40
0
40
0
40
0
40
1
40
1
40
1
40
1
41
1
10
5.50000000000003
20
3.01627137237882
30
0
41
1
10
5.43742670495627
20
2.93240331129756
30
0
41
1
10
5.36463507623302
20
2.8607431229842
30
0
41
1
10
5.28549333895487
20
2.79934027902077
30
0
0
SPLINE
5
B8
100
AcDbEntity
8
1
62
256
6
ByLayer
370
18
48
1
60
0
100
AcDbSpline
70
4
71
3
72
22
73
18
40
0
40
0
40
0
40
0
40
0.25
40
0.25
40
0.375
40
0.375
40
0.4375
40
0.4375
40
0.5
40
0.5
40
0.75
40
0.75
40
0.8125
40
0.8125
40
0.875
40
0.875
40
1
40
1
40
1
40
1
41
1
10
1.91975225668882
20
-7.26318294684423
30
0
41
1
10
1.95182521687526
20
-7.41933963532903
30
0
41
1
10
1.98185621933221
20
-7.53053337273677
30
0
41
1
10
2.02415334432587
20
-7.63330246139244
30
0
41
1
10
2.03779020604157
20
-7.65679595191829
30
0
41
1
10
2.0575592826447
20
-7.67550020135476
30
0
41
1
10
2.06403439855368
20
-7.67897329363529
30
0
41
1
10
2.07675409205149
20
-7.68025732669388
30
0
41
1
10
2.08298146451552
20
-7.67804768388708
30
0
41
1
10
2.11316830138373
20
-7.65301303074678
30
0
41
1
10
2.13459785538163
20
-7.5887619892054
30
0
41
1
10
2.15822110414712
20
-7.45384130891209
30
0
41
1
10
2.16278596845763
20
-7.42409824999782
30
0
41
1
10
2.17159574014131
20
-7.3589942006244
30
0
41
1
10
2.17584867460761
20
-7.3235501168437
30
0
41
1
10
2.18804083962068
20
-7.20938210998272
30
0
41
1
10
2.19542865994538
20
-7.1228191342279
30
0
41
1
10
2.20209676709116
20
-7.02576344273202
30
0
0
SPLINE
5
B9
100
AcDbEntity
8
1
62
256
6
ByLayer
370
18
48
1
60
0
100
AcDbSpline
70
4
71
3
72
20
73
16
40
0
40
0
40
0
40
0
40
0.25
40
0.25
40
0.375
40
0.375
40
0.5
40
0.5
40
0.625
40
0.625
40
0.75
40
0.75
40
0.875
40
0.875
40
1
40
1
40
1
40
1
41
1
10
1.83499971164927
20
6.31135274568028
30
0
41
1
10
1.83440374020626
20
6.28724570795826
30
0
41
1
10
1.82915619868005
20
6.26427384400791
30
0
41
1
10
1.81507095090476
20
6.23130146000103
30
0
41
1
10
1.80931874228782
20
6.22062678021843
30
0
41
1
10
1.79600308365378
20
6.20041526546494
30
0
41
1
10
1.78840880478879
20
6.19079594460315
30
0
41
1
10
1.77118880640533
20
6.17255338533929
30
0
41
1
10
1.76147400164797
20
6.16387630180598
30
0
41
1
10
1.74034688732673
20
6.14820802748475
30
0
41
1
10
1.7288975730925
20
6.14114578023615
30
0
41
1
10
1.70382435514305
20
6.12881896058654
30
0
41
1
10
1.69034760490388
20
6.12365715242096
30
0
41
1
10
1.66203730333152
20
6.11601729007846
30
0
41
1
10
1.64696669136376
20
6.11349883295376
30
0
41
1
10
1.63165412638057
20
6.11267404242802
30
0
0
SPLINE
5
BA
100
AcDbEntity
8
1
62
256
6
ByLayer
370
18
48
1
60
0
100
AcDbSpline
70
4
71
3
72
8
73
4
40
0
40
0
40
0
40
0
40
1
40
1
40
1
40
1
41
1
10
5.5781624130932
20
5.98795828222272
30
0
41
1
10
5.57223345939312
20
5.92546196776557
30
0
41
1
10
5.56631892567891
20
5.86296989378034
30
0
41
1
10
5.56041979095875
20
5.80048235717673
30
0
0
SPLINE
5
BB
100
AcDbEntity
8
1
62
256
6
ByLayer
370
18
48
1
60
0
100
AcDbSpline
70
4
71
3
72
18
73
14
40
0
40
0
40
0
40
0
40
0.249999999999998
40
0.249999999999998
40
0.499999999999996
40
0.499999999999996
40
0.624999999999997
40
0.624999999999997
40
0.749999999999998
40
0.749999999999998
40
0.874999999999999
40
0.874999999999999
40
1
40
1
40
1
40
1
41
1
10
2.24474200244644
20
2.26467678650731
30
0
41
1
10
2.24564657091796
20
2.28184809610267
30
0
41
1
10
2.24294645215426
20
2.29874438078049
30
0
41
1
10
2.22990540053795
20
2.33195398298046
30
0
41
1
10
2.21939743376419
20
2.34838147204586
30
0
41
1
10
2.19685122882769
20
2.37080537171859
30
0
41
1
10
2.18805963572053
20
2.37803467686005
30
0
41
1
10
2.16805617532169
20
2.39124339728467
30
0
41
1
10
2.15689465558766
20
2.39723151745029
30
0
41
1
10
2.1315545390801
20
2.40760467063516
30
0
41
1
10
2.11780392087295
20
2.4117985965381
30
0
41
1
10
2.08808309289021
20
2.41766574735599
30
0
41
1
10
2.07241925741008
20
2.41924796664891
30
0
41
1
10
2.05650042774329
20
2.41930450066552
30
0
0
SPLINE
5
BC
100
AcDbEntity
8
1
62
256
6
ByLayer
370
18
48
1
60
0
100
AcDbSpline
70
4
71
3
72
8
73
4
40
0
40
0
40
0
40
0
40
1
40
1
40
1
40
1
41
1
10
1.91975225668884
20
-2.65175359810637
30
0
41
1
10
1.87762726806057
20
-3.19441102995642
30
0
41
1
10
1.8342542657419
20
-3.73697469003988
30
0
41
1
10
1.78971672527781
20
-4.27944317775043
30
0
0
SPLINE
5
BD
100
AcDbEntity
8
1
62
256
6
ByLayer
370
18
48
1
60
0
100
AcDbSpline
70
4
71
3
72
9
73
5
40
0
40
0
40
0
40
0
40
0.5
40
1
40
1
40
1
40
1
41
1
10
5.5781624130932
20
-3.45418528814908
30
0
41
1
10
5.57380191197857
20
-3.41366971360474
30
0
41
1
10
5.56676375551684
20
-3.35176415638007
30
0
41
1
10
5.56286518795674
20
-3.32653764675324
30
0
41
1
10
5.56171638817401
20
-3.32350709278284
30
0
0
SPLINE
5
BE
100
AcDbEntity
8
1
62
256
6
ByLayer
370
18
48
1
60
0
100
AcDbSpline
70
4
71
3
72
8
73
4
40
0
40
0
40
0
40
0
40
1
40
1
40
1
40
1
41
1
10
5.5781624130932
20
-2.53377174404882
30
0
41
0.999957542235723
10
5.55210097254615
20
-2.51891345333352
30
0
41
0.999957542235723
10
5.526045728601
20
-2.50402920078392
30
0
41
1
10
5.50000000000001
20
-2.48912088225628
30
0
0
SPLINE
5
BF
100
AcDbEntity
8
SK1
62
256
6
ByLayer
370
18
48
1
60
0
100
AcDbSpline
70
4
71
3
72
10
73
6
40
0
40
0
40
0
40
0
40
0.652722883047655
40
0.652722883047655
40
1
40
1
40
1
40
1
41
1
10
-0.849999999999989
20
-1.06016995033936
30
0
41
1
10
-0.664941281084987
20
-1.16629979042527
30
0
41
1
10
-0.479946884628384
20
-1.27230985148119
30
0
41
1
10
-0.196672220063248
20
-1.43451140362453
30
0
41
1
10
-0.0983215706949775
20
-1.49080288573938
30
0
41
1
10
-2.31243E-11
20
-1.54705407046476
30
0
0
SPLINE
5
C0
100
AcDbEntity
8
1
62
256
6
ByLayer
370
18
48
1
60
0
100
AcDbSpline
70
4
71
3
72
20
73
16
40
0
40
0
40
0
40
0
40
0.125000000000001
40
0.125000000000001
40
0.250000000000002
40
0.250000000000002
40
0.375000000000004
40
0.375000000000004
40
0.500000000000005
40
0.500000000000005
40
0.625000000000006
40
0.625000000000006
40
0.750000000000007
40
0.750000000000007
40
1
40
1
40
1
40
1
41
1
10
5.69572433635748
20
-5.27433942939688
30
0
41
1
10
5.69643076582586
20
-5.28372757513417
30
0
41
1
10
5.69584350973324
20
-5.29304221893562
30
0
41
1
10
5.69216401675459
20
-5.3115273303052
30
0
41
1
10
5.68902468675939
20
-5.32078717571908
30
0
41
1
10
5.68025893001647
20
-5.33869193338537
30
0
41
1
10
5.67469670521323
20
-5.34726902667662
30
0
41
1
10
5.66119692373471
20
-5.36365374645111
30
0
41
1
10
5.65314786691537
20
-5.37153214937566
30
0
41
1
10
5.63520698628799
20
-5.38579821409637
30
0
41
1
10
5.62529107505171
20
-5.39225522117004
30
0
41
1
10
5.60349300182731
20
-5.40374502230468
30
0
41
1
10
5.59163288556341
20
-5.40872857079969
30
0
41
1
10
5.55474373797268
20
-5.42070157887027
30
0
41
1
10
5.5274898129261
20
-5.42499958332504
30
0
41
1
10
5.50000000000001
20
-5.42499958332504
30
0
0
SPLINE
5
C1
100
AcDbEntity
8
1
62
256
6
ByLayer
370
18
48
1
60
0
100
AcDbSpline
70
4
71
3
72
10
73
6
40
0
40
0
40
0
40
0
40
0.499999207799842
40
0.499999207799842
40
1
40
1
40
1
40
1
41
1
10
5.13310221402029
20
2.61075211200661
30
0
41
1
10
5.1427983843625
20
2.42408992764028
30
0
41
1
10
5.15287482970834
20
2.23743353576561
30
0
41
1
10
5.17361659916904
20
1.8641300680416
30
0
41
1
10
5.18428222148078
20
1.67748284341006
30
0
41
1
10
5.19517704999226
20
1.49083965546198
30
0
0
SPLINE
5
C2
100
AcDbEntity
8
SK1
62
256
6
ByLayer
370
18
48
1
60
0
100
AcDbSpline
70
4
71
3
72
8
73
4
40
0
40
0
40
0
40
0
40
1
40
1
40
1
40
1
41
1
10
-0.849999999999989
20
2.51272734731078
30
0
41
0.995881893366482
10
-0.55449458302029
20
2.54315055225406
30
0
41
0.99542494577305
10
-0.270113566086826
20
2.55499433729682
30
0
41
0.998629157219704
10
-2.45419E-11
20
2.54810293349868
30
0
0
SPLINE
5
C3
100
AcDbEntity
8
1
62
256
6
ByLayer
370
18
48
1
60
0
100
AcDbSpline
70
4
71
3
72
12
73
8
40
0
40
0
40
0
40
0
40
0.250000000000002
40
0.250000000000002
40
0.500000000000004
40
0.500000000000004
40
1
40
1
40
1
40
1
41
1
10
5.19068573285003
20
-5.99599226354052
30
0
41
1
10
5.18032618139964
20
-6.00261235301897
30
0
41
1
10
5.17169915554357
20
-6.00962809670064
30
0
41
1
10
5.15711539200249
20
-6.02426939366201
30
0
41
1
10
5.15115510149287
20
-6.03194035321436
30
0
41
1
10
5.13715024208637
20
-6.0553085174572
30
0
41
1
10
5.13279191851448
20
-6.07147451814264
30
0
41
1
10
5.13293886139244
20
-6.08767063835616
30
0
0
SPLINE
5
C4
100
AcDbEntity
8
1
62
256
6
ByLayer
370
18
48
1
60
0
100
AcDbSpline
70
4
71
3
72
8
73
4
40
0
40
0
40
0
40
0
40
1
40
1
40
1
40
1
41
1
10
2.20209676709116
20
-7.02576344273202
30
0
41
1
10
2.21686852731603
20
-6.81075738900576
30
0
41
1
10
2.23115313717503
20
-6.59574421179706
30
0
41
1
10
2.24474200244644
20
-6.38072207908723
30
0
0
SPLINE
5
C5
100
AcDbEntity
8
1
62
256
6
ByLayer
370
18
48
1
60
0
100
AcDbSpline
70
4
71
3
72
10
73
6
40
0
40
0
40
0
40
0
40
0.499993931535833
40
0.499993931535833
40
1
40
1
40
1
40
1
41
1
10
1.63165412637574
20
-3.39573356663259
30
0
41
1
10
1.37629889525338
20
-3.40098670167213
30
0
41
1
10
1.12097826153428
20
-3.40664049135869
30
0
41
1
10
0.610420476189836
20
-3.41888043635023
30
0
41
1
10
0.355181614915642
20
-3.42546610581941
30
0
41
1
10
0.1
20
-3.43260415969233
30
0
0
SPLINE
5
C6
100
AcDbEntity
8
1
62
256
6
ByLayer
370
18
48
1
60
0
100
AcDbSpline
70
4
71
3
72
12
73
8
40
0
40
0
40
0
40
0
40
0.249999999999999
40
0.249999999999999
40
0.499999999999998
40
0.499999999999998
40
1
40
1
40
1
40
1
41
1
10
5.19068573285003
20
2.72622581804229
30
0
41
1
10
5.18032618139964
20
2.7182838916202
30
0
41
1
10
5.17169915554357
20
2.70986731050119
30
0
41
1
10
5.15711539200249
20
2.6923025776423
30
0
41
1
10
5.15115510149287
20
2.68309995333403
30
0
41
1
10
5.13715024208634
20
2.65506585475579
30
0
41
1
10
5.13279191851448
20
2.63567197973323
30
0
41
1
10
5.13293886139244
20
2.61624197119969
30
0
0
SPLINE
5
C7
100
AcDbEntity
8
1
62
256
6
ByLayer
370
18
48
1
60
0
100
AcDbSpline
70
4
71
3
72
8
73
4
40
0
40
0
40
0
40
0
40
1
40
1
40
1
40
1
41
1
10
5.50000000000001
20
-2.54493155135849
30
0
41
1
10
5.51969365152607
20
-2.77511433246655
30
0
41
1
10
5.5398295264989
20
-3.00540178871019
30
0
41
1
10
5.56041979095875
20
-3.23579269516542
30
0
0
SPLINE
5
C8
100
AcDbEntity
8
1
62
256
6
ByLayer
370
18
48
1
60
0
100
AcDbSpline
70
4
71
3
72
8
73
4
40
0
40
0
40
0
40
0
40
1
40
1
40
1
40
1
41
1
10
5.61087816457942
20
-4.2875162590896
30
0
41
1
10
5.56604449675681
20
-3.74235408398092
30
0
41
1
10
5.52234018676717
20
-3.19709950717176
30
0
41
1
10
5.47984622386725
20
-2.65175359810637
30
0
0
SPLINE
5
C9
100
AcDbEntity
8
1
62
256
6
ByLayer
370
18
48
1
60
0
100
AcDbSpline
70
4
71
3
72
8
73
4
40
0
40
0
40
0
40
0
40
1
40
1
40
1
40
1
41
1
10
5.28549333895487
20
2.79934027902077
30
0
41
1
10
5.25401814334047
20
2.77491995933236
30
0
41
1
10
5.22241329767454
20
2.75054907051078
30
0
41
1
10
5.19068573285003
20
2.72622581804229
30
0
0
SPLINE
5
CA
100
AcDbEntity
8
1
62
256
6
ByLayer
370
18
48
1
60
0
100
AcDbSpline
70
4
71
3
72
8
73
4
40
0
40
0
40
0
40
0
40
1
40
1
40
1
40
1
41
1
10
5.49999999998852
20
-5.80346907134159
30
0
41
1
10
5.43742670494737
20
-5.83916088463979
30
0
41
1
10
5.36463507622813
20
-5.88386372598392
30
0
41
1
10
5.28549333895493
20
-5.93504681427261
30
0
0
SPLINE
5
CB
100
AcDbEntity
8
1
62
256
6
ByLayer
370
18
48
1
60
0
100
AcDbSpline
70
4
71
3
72
8
73
4
40
0
40
0
40
0
40
0
40
1
40
1
40
1
40
1
41
1
10
0.1
20
2.42574424106659
30
0
41
1
10
0.1
20
1.95274515415634
30
0
41
1
10
0.0999999999999716
20
1.47375853258718
30
0
41
1
10
0.0999999999999716
20
0.988794040049964
30
0
0
SPLINE
5
CC
100
AcDbEntity
8
1
62
256
6
ByLayer
370
18
48
1
60
0
100
AcDbSpline
70
4
71
3
72
10
73
6
40
0
40
0
40
0
40
0
40
0.251672661092308
40
0.251672661092308
40
1
40
1
40
1
40
1
41
1
10
5.50000000000001
20
-2.53253709222914
30
0
41
1
10
5.50000000000001
20
-2.53283271970305
30
0
41
1
10
5.50000000000001
20
-2.53310006924535
30
0
41
1
10
5.50000000000001
20
-2.53403282997467
30
0
41
1
10
5.50000000000001
20
-2.53445293227124
30
0
41
1
10
5.50000000000001
20
-2.53460203098483
30
0
0
SPLINE
5
CD
100
AcDbEntity
8
1
62
256
6
ByLayer
370
18
48
1
60
0
100
AcDbSpline
70
4
71
3
72
20
73
16
40
0
40
0
40
0
40
0
40
0.124999999999997
40
0.124999999999997
40
0.249999999999995
40
0.249999999999995
40
0.374999999999992
40
0.374999999999992
40
0.49999999999999
40
0.49999999999999
40
0.749999999999995
40
0.749999999999995
40
0.874999999999997
40
0.874999999999997
40
1
40
1
40
1
40
1
41
1
10
1.90000000000001
20
10.8500004166749
30
0
41
1
10
1.88657365062978
20
10.8500004166749
30
0
41
1
10
1.87338748030792
20
10.8486424783474
30
0
41
1
10
1.84747899928289
20
10.843302745629
30
0
41
1
10
1.83461785000231
20
10.8392456489112
30
0
41
1
10
1.81036184067458
20
10.8287545256427
30
0
41
1
10
1.79890206664579
20
10.8223420024737
30
0
41
1
10
1.77730718930647
20
10.8071983816583
30
0
41
1
10
1.76729079207985
20
10.7985139932213
30
0
41
1
10
1.74046888123949
20
10.7701299275673
30
0
41
1
10
1.7264153455592
20
10.7475314452253
30
0
41
1
10
1.71263398133252
20
10.7112964345789
30
0
41
1
10
1.70917162819948
20
10.698621532369
30
0
41
1
10
1.7047680611286
20
10.6731175792136
30
0
41
1
10
1.70378014752723
20
10.6602179585457
30
0
41
1
10
1.70402269843027
20
10.6471682173035
30
0
0
SPLINE
5
CE
100
AcDbEntity
8
1
62
256
6
ByLayer
370
18
48
1
60
0
100
AcDbSpline
70
4
71
3
72
8
73
4
40
0
40
0
40
0
40
0
40
1
40
1
40
1
40
1
41
1
10
0.1
20
0.988794040049964
30
0
41
1
10
0.0666694071825983
20
0.969499031554687
30
0
41
1
10
0.0333359764762797
20
0.950206774823848
30
0
41
1
10
-2.44016E-11
20
0.930917441967016
30
0
0
SPLINE
5
CF
100
AcDbEntity
8
1
62
256
6
ByLayer
370
18
48
1
60
0
100
AcDbSpline
70
4
71
3
72
8
73
4
40
0
40
0
40
0
40
0
40
1
40
1
40
1
40
1
41
1
10
2.20209676709116
20
1.49083965546198
30
0
41
1
10
2.21686852731603
20
1.74877608737198
30
0
41
1
10
2.23115313717503
20
2.00672106511415
30
0
41
1
10
2.24474200244644
20
2.26467678650731
30
0
0
SPLINE
5
D0
100
AcDbEntity
8
1
62
256
6
ByLayer
370
18
48
1
60
0
100
AcDbSpline
70
4
71
3
72
8
73
4
40
0
40
0
40
0
40
0
40
1
40
1
40
1
40
1
41
1
10
5.5608987868931
20
-3.25161189973865
30
0
41
1
10
5.56112983940316
20
-3.22480008298426
30
0
41
1
10
5.56140226795222
20
-3.19772567673617
30
0
41
1
10
5.56171638817401
20
-3.17038804255602
30
0
0
SPLINE
5
D1
100
AcDbEntity
8
1
62
256
6
ByLayer
370
18
48
1
60
0
100
AcDbSpline
70
4
71
3
72
10
73
6
40
0
40
0
40
0
40
0
40
0.499993931535834
40
0.499993931535834
40
1
40
1
40
1
40
1
41
1
10
1.63165412637571
20
6.11267404242393
30
0
41
1
10
1.37629889525338
20
6.09891967955623
30
0
41
1
10
1.12097826153428
20
6.08504837327861
30
0
41
1
10
0.610420476189836
20
6.057031102646
30
0
41
1
10
0.355181614915642
20
6.04288517911801
30
0
41
1
10
0.1
20
6.02857634101111
30
0
0
SPLINE
5
D2
100
AcDbEntity
8
1
62
256
6
ByLayer
370
18
48
1
60
0
100
AcDbSpline
70
4
71
3
72
8
73
4
40
0
40
0
40
0
40
0
40
1
40
1
40
1
40
1
41
1
10
0.0529165124598649
20
1.15767619101076
30
0
41
0.999743120000011
10
0.0353489875507008
20
1.14724100480549
30
0
41
0.999502101839426
10
0.0177098873302804
20
1.13676817842701
30
0
41
0.999276945518247
10
-1.86217E-11
20
1.12625818335522
30
0
0
SPLINE
5
D3
100
AcDbEntity
8
1
62
256
6
ByLayer
370
18
48
1
60
0
100
AcDbSpline
70
4
71
3
72
8
73
4
40
0
40
0
40
0
40
0
40
1
40
1
40
1
40
1
41
1
10
1.78971672527781
20
-4.27944317775043
30
0
41
1
10
1.78892760610882
20
-4.28905467128546
30
0
41
1
10
1.78817834333146
20
-4.29866673962441
30
0
41
1
10
1.78747000498703
20
-4.30827939817037
30
0
0
SPLINE
5
D4
100
AcDbEntity
8
1
62
256
6
ByLayer
370
18
48
1
60
0
100
AcDbSpline
70
4
71
3
72
20
73
16
40
0
40
0
40
0
40
0
40
0.249999999999995
40
0.249999999999995
40
0.374999999999996
40
0.374999999999996
40
0.499999999999997
40
0.499999999999997
40
0.624999999999997
40
0.624999999999997
40
0.749999999999998
40
0.749999999999998
40
0.874999999999999
40
0.874999999999999
40
1
40
1
40
1
40
1
41
1
10
1.83499971164927
20
-3.34173790549919
30
0
41
1
10
1.83440374020626
20
-3.34593202628578
30
0
41
1
10
1.82915619868005
20
-3.35069410907825
30
0
41
1
10
1.81507095090476
20
-3.35854761019319
30
0
41
1
10
1.80931874228782
20
-3.36127087516615
30
0
41
1
10
1.79600308365378
20
-3.36673325449035
30
0
41
1
10
1.78840880478879
20
-3.36949204596947
30
0
41
1
10
1.77118880640533
20
-3.37498307579905
30
0
41
1
10
1.76147400164797
20
-3.37773509632637
30
0
41
1
10
1.74034688732673
20
-3.3829018107616
30
0
41
1
10
1.72889757309253
20
-3.38533682222958
30
0
41
1
10
1.70382435514305
20
-3.38970670237795
30
0
41
1
10
1.69034760490391
20
-3.39160515625999
30
0
41
1
10
1.66203730333155
20
-3.39445464679521
30
0
41
1
10
1.64696669136376
20
-3.39541855852171
30
0
41
1
10
1.63165412638057
20
-3.39573356664333
30
0
0
SPLINE
5
D5
100
AcDbEntity
8
1
62
256
6
ByLayer
370
18
48
1
60
0
100
AcDbSpline
70
4
71
3
72
8
73
4
40
0
40
0
40
0
40
0
40
1
40
1
40
1
40
1
41
1
10
5.5781624130932
20
-2.53377174404882
30
0
41
1
10
5.57223345939312
20
-2.5440686587216
30
0
41
1
10
5.56631892567891
20
-2.55437402413473
30
0
41
1
10
5.56041979095875
20
-2.56468841198653
30
0
0
SPLINE
5
D6
100
AcDbEntity
8
1
62
256
6
ByLayer
370
18
48
1
60
0
100
AcDbSpline
70
4
71
3
72
9
73
5
40
0
40
0
40
0
40
0
40
0.500000000000015
40
1
40
1
40
1
40
1
41
1
10
1.70402269843027
20
-5.2793181281226
30
0
41
1
10
1.70404457736448
20
-5.27848880860289
30
0
41
1
10
1.70410856638654
20
-5.27682871609567
30
0
41
1
10
1.70421317420284
20
-5.2751672107013
30
0
41
1
10
1.70427577303031
20
-5.27433526934089
30
0
0
SPLINE
5
D7
100
AcDbEntity
8
1
62
256
6
ByLayer
370
18
48
1
60
0
100
AcDbSpline
70
4
71
3
72
10
73
6
40
0
40
0
40
0
40
0
40
0.5
40
0.5
40
1
40
1
40
1
40
1
41
1
10
1.91975225668884
20
-2.65175359810637
30
0
41
1
10
1.94419915423854
20
-2.33022217257896
30
0
41
1
10
1.96751326047457
20
-2.01672531429306
30
0
41
1
10
2.01205206163036
20
-1.40521165085206
30
0
41
1
10
2.03327601298091
20
-1.10719452219472
30
0
41
1
10
2.05346815289034
20
-0.817240753773309
30
0
0
SPLINE
5
D8
100
AcDbEntity
8
1
62
256
6
ByLayer
370
18
48
1
60
0
100
AcDbSpline
70
4
71
3
72
10
73
6
40
0
40
0
40
0
40
0
40
0.499999943030701
40
0.499999943030701
40
1
40
1
40
1
40
1
41
1
10
2.05650042774329
20
2.41930450066552
30
0
41
1
10
1.73041802858186
20
2.42046254732831
30
0
41
1
10
1.40433511313012
20
2.42157824666641
30
0
41
1
10
0.752168285616426
20
2.42372485518355
30
0
41
1
10
0.426084354976984
20
2.42475576440087
30
0
41
1
10
0.1
20
2.42574424106659
30
0
0
SPLINE
5
D9
100
AcDbEntity
8
1
62
256
6
ByLayer
370
18
48
1
60
0
100
AcDbSpline
70
4
71
3
72
8
73
4
40
0
40
0
40
0
40
0
40
1
40
1
40
1
40
1
41
1
10
1.91975225668882
20
-7.26318294684423
30
0
41
1
10
1.87762726806057
20
-6.92580634586607
30
0
41
1
10
1.8342542657419
20
-6.58848804391422
30
0
41
1
10
1.78971672527781
20
-6.25122891176229
30
0
0
SPLINE
5
DA
100
AcDbEntity
8
1
62
256
6
ByLayer
370
18
48
1
60
0
100
AcDbSpline
70
4
71
3
72
20
73
16
40
0
40
0
40
0
40
0
40
0.125
40
0.125
40
0.25
40
0.25
40
0.375
40
0.375
40
0.5
40
0.5
40
0.625
40
0.625
40
0.75
40
0.75
40
1
40
1
40
1
40
1
41
1
10
5.50000000000001
20
3.01627137237885
30
0
41
1
10
5.50000000000001
20
2.8261407556733
30
0
41
1
10
5.50000000000001
20
2.63392233611706
30
0
41
1
10
5.50000000000001
20
2.24533129005028
30
0
41
1
10
5.50000000000001
20
2.04871924330224
30
0
41
1
10
5.50000000000001
20
1.65375804380367
30
0
41
1
10
5.50000000000001
20
1.45516553551213
30
0
41
1
10
5.50000000000001
20
1.0557649254422
30
0
41
1
10
5.50000000000001
20
0.854659551233294
30
0
41
1
10
5.50000000000001
20
0.451615028436589
30
0
41
1
10
5.50000000000001
20
0.250106176839449
30
0
41
1
10
5.50000000000001
20
-0.152884882742473
30
0
41
1
10
5.50000000000001
20
-0.354567924269436
30
0
41
1
10
5.50000000000001
20
-0.958248714695191
30
0
41
1
10
5.50000000000001
20
-1.35639452782864
30
0
41
1
10
5.50000000000001
20
-1.75023263607112
30
0
0
SPLINE
5
DB
100
AcDbEntity
8
1
62
256
6
ByLayer
370
18
48
1
60
0
100
AcDbSpline
70
4
71
3
72
14
73
10
40
0
40
0
40
0
40
0
40
0.500000000000003
40
0.500000000000003
40
0.750000000000002
40
0.750000000000002
40
0.875000000000001
40
0.875000000000001
40
1
40
1
40
1
40
1
41
1
10
1.78747000498703
20
-4.30827939817037
30
0
41
1
10
1.77936664753901
20
-4.41824776122472
30
0
41
1
10
1.77620551181972
20
-4.52822792852864
30
0
41
1
10
1.78466342587334
20
-4.6932297061115
30
0
41
1
10
1.78972652712506
20
-4.74837514672119
30
0
41
1
10
1.80311345392099
20
-4.8295962030983
30
0
41
1
10
1.80855036282859
20
-4.8564608408543
30
0
41
1
10
1.82252148023313
20
-4.90952575829015
30
0
41
1
10
1.83092605938478
20
-4.93575384293375
30
0
41
1
10
1.8425530141451
20
-4.96129074120724
30
0
0
SPLINE
5
DC
100
AcDbEntity
8
1
62
256
6
ByLayer
370
18
48
1
60
0
100
AcDbSpline
70
4
71
3
72
18
73
14
40
0
40
0
40
0
40
0
40
0.499999999999998
40
0.499999999999998
40
0.749999999999995
40
0.749999999999995
40
0.874999999999997
40
0.874999999999997
40
0.937499999999996
40
0.937499999999996
40
0.968749999999998
40
0.968749999999998
40
1
40
1
40
1
40
1
41
1
10
1.84255301414505
20
-4.9612907412071
30
0
41
1
10
1.84053138626192
20
-5.04076838187765
30
0
41
1
10
1.84022654456363
20
-5.12019013365741
30
0
41
1
10
1.84617822723269
20
-5.23911412217762
30
0
41
1
10
1.8491275768252
20
-5.27872402189938
30
0
41
1
10
1.85784464799071
20
-5.33799911405673
30
0
41
1
10
1.86139937238042
20
-5.35776778476005
30
0
41
1
10
1.86973364164613
20
-5.38671404960421
30
0
41
1
10
1.872982340596
20
-5.39632005588728
30
0
41
1
10
1.8799542141149
20
-5.4098113493583
30
0
41
1
10
1.88263712454927
20
-5.41421139617861
30
0
41
1
10
1.88973432996582
20
-5.4217751900243
30
0
41
1
10
1.89449108851756
20
-5.42499958339868
30
0
41
1
10
1.89999999995667
20
-5.42499958341184
30
0
0
SPLINE
5
DD
100
AcDbEntity
8
1
62
256
6
ByLayer
370
18
48
1
60
0
100
AcDbSpline
70
4
71
3
72
8
73
4
40
0
40
0
40
0
40
0
40
1
40
1
40
1
40
1
41
1
10
1.83828745685705
20
6.49389638536372
30
0
41
1
10
1.83754004496357
20
6.43070068000311
30
0
41
1
10
1.83644595088737
20
6.36985310551573
30
0
41
1
10
1.83499971164927
20
6.31135274568031
30
0
0
SPLINE
5
DE
100
AcDbEntity
8
1
62
256
6
ByLayer
370
18
48
1
60
0
100
AcDbSpline
70
4
71
3
72
20
73
16
40
0
40
0
40
0
40
0
40
0.249999999999998
40
0.249999999999998
40
0.374999999999998
40
0.374999999999998
40
0.437499999999998
40
0.437499999999998
40
0.499999999999997
40
0.499999999999997
40
0.749999999999999
40
0.749999999999999
40
0.874999999999999
40
0.874999999999999
40
1
40
1
40
1
40
1
41
1
10
1.83828745685705
20
6.49389638536372
30
0
41
1
10
1.84039958412953
20
6.67248248221225
30
0
41
1
10
1.84061570021863
20
6.85927131085996
30
0
41
1
10
1.83829512084882
20
7.1512701243859
30
0
41
1
10
1.83707641014542
20
7.25058852544241
30
0
41
1
10
1.83456703121181
20
7.40262994772756
30
0
41
1
10
1.833614021607
20
7.45393033449262
30
0
41
1
10
1.83150090829222
20
7.55641003281142
30
0
41
1
10
1.83033925705025
20
7.60770951043649
30
0
41
1
10
1.8240157304507
20
7.8644996234059
30
0
41
1
10
1.81732653312597
20
8.07085917969392
30
0
41
1
10
1.80481391588447
20
8.38179963238532
30
0
41
1
10
1.8002082254742
20
8.48599557253486
30
0
41
1
10
1.79028863976232
20
8.69144854846656
30
0
41
1
10
1.78496253754236
20
8.79307066008353
30
0
41
1
10
1.77926286323302
20
8.89357994637147
30
0
0
SPLINE
5
DF
100
AcDbEntity
8
1
62
256
6
ByLayer
370
18
48
1
60
0
100
AcDbSpline
70
4
71
3
72
8
73
4
40
0
40
0
40
0
40
0
40
1
40
1
40
1
40
1
41
1
10
5.53088591377983
20
-2.90185533311369
30
0
41
1
10
5.54062529429982
20
-2.78942928555081
30
0
41
1
10
5.55046957706339
20
-2.67704008769168
30
0
41
1
10
5.56041979095875
20
-2.56468841198653
30
0
0
SPLINE
5
E0
100
AcDbEntity
8
1
62
256
6
ByLayer
370
18
48
1
60
0
100
AcDbSpline
70
4
71
3
72
8
73
4
40
0
40
0
40
0
40
0
40
1
40
1
40
1
40
1
41
1
10
0.1
20
-2.54795923333255
30
0
41
0.999486020985455
10
0.0669262455798038
20
-2.54707096418859
30
0
41
0.999029073392059
10
0.0335911280755801
20
-2.54589266827952
30
0
41
0.998629157219811
10
-1.55596E-11
20
-2.5444241493549
30
0
0
SPLINE
5
E1
100
AcDbEntity
8
1
62
256
6
ByLayer
370
18
48
1
60
0
100
AcDbSpline
70
4
71
3
72
18
73
14
40
0
40
0
40
0
40
0
40
0.249999999999999
40
0.249999999999999
40
0.499999999999998
40
0.499999999999998
40
0.624999999999999
40
0.624999999999999
40
0.749999999999999
40
0.749999999999999
40
0.875
40
0.875
40
1
40
1
40
1
40
1
41
1
10
2.24474200244644
20
-6.38072207908723
30
0
41
1
10
2.24564657091796
20
-6.36640872487793
30
0
41
1
10
2.24294645215426
20
-6.35232462103763
30
0
41
1
10
2.22990540053795
20
-6.32464235272851
30
0
41
1
10
2.21939743376419
20
-6.31094901917949
30
0
41
1
10
2.19685122882769
20
-6.29225730455012
30
0
41
1
10
2.1880596357205
20
-6.28623122921782
30
0
41
1
10
2.16805617532169
20
-6.27522093946449
30
0
41
1
10
2.15689465558766
20
-6.27022946898264
30
0
41
1
10
2.1315545390801
20
-6.26158280083088
30
0
41
1
10
2.11780392087295
20
-6.25808690282479
30
0
41
1
10
2.08808309289021
20
-6.25319626781589
30
0
41
1
10
2.07241925741005
20
-6.25187738965748
30
0
41
1
10
2.05650042774329
20
-6.25183026503955
30
0
0
SPLINE
5
E2
100
AcDbEntity
8
1
62
256
6
ByLayer
370
18
48
1
60
0
100
AcDbSpline
70
4
71
3
72
20
73
16
40
0
40
0
40
0
40
0
40
0.250000000000001
40
0.250000000000001
40
0.375000000000002
40
0.375000000000002
40
0.437500000000002
40
0.437500000000002
40
0.500000000000003
40
0.500000000000003
40
0.750000000000002
40
0.750000000000002
40
0.875000000000001
40
0.875000000000001
40
1
40
1
40
1
40
1
41
1
10
1.83828745685705
20
-3.32350709278284
30
0
41
1
10
1.84039958412953
20
-3.31792459950122
30
0
41
1
10
1.84061570021863
20
-3.33414023925774
30
0
41
1
10
1.83829512084882
20
-3.38986185102452
30
0
41
1
10
1.83707641014545
20
-3.41371180650852
30
0
41
1
10
1.83456703121181
20
-3.45762835093392
30
0
41
1
10
1.833614021607
20
-3.47366906441902
30
0
41
1
10
1.83150090829222
20
-3.50812631181377
30
0
41
1
10
1.83033925705025
20
-3.52657252598117
30
0
41
1
10
1.8240157304507
20
-3.62478053869062
30
0
41
1
10
1.81732653312597
20
-3.72228291715088
30
0
41
1
10
1.80481391588447
20
-3.89715232979335
30
0
41
1
10
1.8002082254742
20
-3.96048720444388
30
0
41
1
10
1.79028863976232
20
-4.09490935829966
30
0
41
1
10
1.78496253754236
20
-4.16617350045938
30
0
41
1
10
1.77926286323302
20
-4.24152076466011
30
0
0
SPLINE
5
E3
100
AcDbEntity
8
1
62
256
6
ByLayer
370
18
48
1
60
0
100
AcDbSpline
70
4
71
3
72
8
73
4
40
0
40
0
40
0
40
0
40
1
40
1
40
1
40
1
41
1
10
5.50000000000001
20
-2.53460203098483
30
0
41
1
10
5.50000000000001
20
-2.53805561581324
30
0
41
1
10
5.50000000000001
20
-2.5414986650634
30
0
41
1
10
5.50000000000001
20
-2.54493155135849
30
0
0
SPLINE
5
E4
100
AcDbEntity
8
1
62
256
6
ByLayer
370
18
48
1
60
0
100
AcDbSpline
70
4
71
3
72
20
73
16
40
0
40
0
40
0
40
0
40
0.504964385191976
40
0.504964385191976
40
0.757446577787964
40
0.757446577787964
40
0.883687674085959
40
0.883687674085959
40
0.946808222234956
40
0.946808222234956
40
0.978368496309454
40
0.978368496309454
40
0.994148633346702
40
0.994148633346702
40
1
40
1
40
1
40
1
41
1
10
5.50000000000001
20
-1.75023263607112
30
0
41
1
10
5.50000000000001
20
-1.88056296416117
30
0
41
1
10
5.50000000000066
20
-2.01057747454535
30
0
41
1
10
5.50000000000066
20
-2.20617473100844
30
0
41
1
10
5.50000000000197
20
-2.27147745464181
30
0
41
1
10
5.50000000000197
20
-2.37014089928612
30
0
41
1
10
5.50000000000228
20
-2.40316826333161
30
0
41
1
10
5.50000000000228
20
-2.45309346588987
30
0
41
1
10
5.50000000000001
20
-2.46982784882137
30
0
41
1
10
5.50000000000001
20
-2.49489830708625
30
0
41
1
10
5.50000000002553
20
-2.50329599329568
30
0
41
1
10
5.50000000002553
20
-2.51544461250224
30
0
41
1
10
5.50000000000001
20
-2.51946405091984
30
0
41
1
10
5.50000000000003
20
-2.52459330942653
30
0
41
1
10
5.50000000000003
20
-2.52594261195616
30
0
41
1
10
5.50000000000003
20
-2.52719963606622
30
0
0
SPLINE
5
E5
100
AcDbEntity
8
1
62
256
6
ByLayer
370
18
48
1
60
0
100
AcDbSpline
70
4
71
3
72
8
73
4
40
0
40
0
40
0
40
0
40
1
40
1
40
1
40
1
41
1
10
5.5781624130932
20
-3.45418528814908
30
0
41
1
10
5.57223345939312
20
-3.38139205901918
30
0
41
1
10
5.56631892567891
20
-3.30859461962082
30
0
41
1
10
5.56041979095875
20
-3.23579269516542
30
0
0
SPLINE
5
E6
100
AcDbEntity
8
1
62
256
6
ByLayer
370
18
48
1
60
0
100
AcDbSpline
70
4
71
3
72
8
73
4
40
0
40
0
40
0
40
0
40
1
40
1
40
1
40
1
41
1
10
5.5781624130932
20
5.98795828222272
30
0
41
0.999957542235723
10
5.55210097254615
20
5.97846432001148
30
0
41
0.999957542235723
10
5.526045728601
20
5.96910273016468
30
0
41
1
10
5.50000000000001
20
5.95987470509878
30
0
0
SPLINE
5
E7
100
AcDbEntity
8
1
62
256
6
ByLayer
370
18
48
1
60
0
100
AcDbSpline
70
4
71
3
72
8
73
4
40
0
40
0
40
0
40
0
40
1
40
1
40
1
40
1
41
1
10
5.61087816457942
20
-6.24620978075668
30
0
41
1
10
5.56604449675681
20
-6.5851436105081
30
0
41
1
10
5.52234018676717
20
-6.92413488749937
30
0
41
1
10
5.47984622386725
20
-7.26318294684423
30
0
0
SPLINE
5
E8
100
AcDbEntity
8
1
62
256
6
ByLayer
370
18
48
1
60
0
100
AcDbSpline
70
4
71
3
72
20
73
16
40
0
40
0
40
0
40
0
40
0.125
40
0.125
40
0.25
40
0.25
40
0.375
40
0.375
40
0.5
40
0.5
40
0.625
40
0.625
40
0.75
40
0.75
40
1
40
1
40
1
40
1
41
1
10
5.69572433635748
20
10.6400967151987
30
0
41
1
10
5.69643076582586
20
10.6534401711234
30
0
41
1
10
5.69584350973324
20
10.6666282680797
30
0
41
1
10
5.69216401675459
20
10.69270423594
30
0
41
1
10
5.68902468675939
20
10.7057170715629
30
0
41
1
10
5.68025893001647
20
10.730790184307
30
0
41
1
10
5.67469670521323
20
10.7427566426319
30
0
41
1
10
5.66119692373471
20
10.7655459253622
30
0
41
1
10
5.65314786691537
20
10.7764660445467
30
0
41
1
10
5.63520698628799
20
10.7961884664089
30
0
41
1
10
5.62529107505174
20
10.8050878154204
30
0
41
1
10
5.60349300182731
20
10.8208926274938
30
0
41
1
10
5.59163288556341
20
10.827730136341
30
0
41
1
10
5.55474373797268
20
10.8441372112562
30
0
41
1
10
5.5274898129261
20
10.8500004166749
30
0
41
1
10
5.50000000000001
20
10.8500004166749
30
0
0
SPLINE
5
E9
100
AcDbEntity
8
1
62
256
6
ByLayer
370
18
48
1
60
0
100
AcDbSpline
70
4
71
3
72
9
73
5
40
0
40
0
40
0
40
0
40
0.5
40
1
40
1
40
1
40
1
41
1
10
0.1
20
-1.60425734547441
30
0
41
1
10
0.1
20
-1.92414619730882
30
0
41
1
10
0.1
20
-2.54858957357773
30
0
41
1
10
0.1
20
-3.14304102888226
30
0
41
1
10
0.1
20
-3.43260415969236
30
0
0
SPLINE
5
EA
100
AcDbEntity
8
1
62
256
6
ByLayer
370
18
48
1
60
0
100
AcDbSpline
70
4
71
3
72
16
73
12
40
0
40
0
40
0
40
0
40
0.249999999999999
40
0.249999999999999
40
0.499999999999999
40
0.499999999999999
40
0.624999999999999
40
0.624999999999999
40
0.749999999999999
40
0.749999999999999
40
1
40
1
40
1
40
1
41
1
10
5.19517704999226
20
1.49083965546198
30
0
41
1
10
5.20356602546929
20
1.34712512842686
30
0
41
1
10
5.21298717455006
20
1.19050823338371
30
0
41
1
10
5.23389353090292
20
0.852526155382701
30
0
41
1
10
5.245378615185
20
0.671157542416136
30
0
41
1
10
5.26422888032756
20
0.380360101784287
30
0
41
1
10
5.27078352415263
20
0.280293858544962
30
0
41
1
10
5.28445820479661
20
0.0737407205896652
30
0
41
1
10
5.29155398870114
20
-0.0323743469621327
30
0
41
1
10
5.31347613568633
20
-0.356945246237775
30
0
41
1
10
5.32899244769408
20
-0.582474934551914
30
0
41
1
10
5.34545359649358
20
-0.81724075377328
30
0
0
SPLINE
5
EB
100
AcDbEntity
8
1
62
256
6
ByLayer
370
18
48
1
60
0
100
AcDbSpline
70
4
71
3
72
8
73
4
40
0
40
0
40
0
40
0
40
1
40
1
40
1
40
1
41
1
10
5.28549333895493
20
-5.93504681427261
30
0
41
1
10
5.25401814334049
20
-5.95540266911663
30
0
41
1
10
5.22241329767454
20
-5.97571732025968
30
0
41
1
10
5.19068573285003
20
-5.99599226354052
30
0
0
SPLINE
5
EC
100
AcDbEntity
8
1
62
256
6
ByLayer
370
18
48
1
60
0
100
AcDbSpline
70
4
71
3
72
8
73
4
40
0
40
0
40
0
40
0
40
1
40
1
40
1
40
1
41
1
10
1.83828745685705
20
-3.32350709278284
30
0
41
1
10
1.83754004496357
20
-3.32548255227734
30
0
41
1
10
1.83644595088737
20
-3.33156006539962
30
0
41
1
10
1.83499971164927
20
-3.34173790549919
30
0
0
SPLINE
5
ED
100
AcDbEntity
8
1
62
256
6
ByLayer
370
18
48
1
60
0
100
AcDbSpline
70
4
71
3
72
8
73
4
40
0
40
0
40
0
40
0
40
1
40
1
40
1
40
1
41
1
10
5.6882695440632
20
-5.32196144805794
30
0
41
1
10
5.69071857007908
20
-5.33704300055264
30
0
41
1
10
5.69320357805637
20
-5.35164226867783
30
0
41
1
10
5.69572433635748
20
-5.36575603577696
30
0
0
SPLINE
5
EE
100
AcDbEntity
8
1
62
256
6
ByLayer
370
18
48
1
60
0
100
AcDbSpline
70
4
71
3
72
20
73
16
40
0
40
0
40
0
40
0
40
0.124999999999998
40
0.124999999999998
40
0.249999999999996
40
0.249999999999996
40
0.374999999999994
40
0.374999999999994
40
0.499999999999992
40
0.499999999999992
40
0.749999999999999
40
0.749999999999999
40
0.874999999999999
40
0.874999999999999
40
1
40
1
40
1
40
1
41
1
10
1.90000000000001
20
-5.42499958332504
30
0
41
1
10
1.88657365062978
20
-5.42499958332504
30
0
41
1
10
1.87338748030792
20
-5.42400514094969
30
0
41
1
10
1.84747899928289
20
-5.42009913708983
30
0
41
1
10
1.83461785000231
20
-5.41713259717573
30
0
41
1
10
1.81036184067458
20
-5.40947558378294
30
0
41
1
10
1.79890206664579
20
-5.40480074953782
30
0
41
1
10
1.77730718930647
20
-5.39378793733012
30
0
41
1
10
1.76729079207985
20
-5.38748438665791
30
0
41
1
10
1.74046888123949
20
-5.36694244476265
30
0
41
1
10
1.7264153455592
20
-5.35066540758162
30
0
41
1
10
1.71263398133252
20
-5.32476481603768
30
0
41
1
10
1.70917162819948
20
-5.31573531773897
30
0
41
1
10
1.7047680611286
20
-5.29763439133003
30
0
41
1
10
1.70378014752723
20
-5.28851200367654
30
0
41
1
10
1.70402269843027
20
-5.2793181281226
30
0
0
SPLINE
5
EF
100
AcDbEntity
8
1
62
256
6
ByLayer
370
18
48
1
60
0
100
AcDbSpline
70
4
71
3
72
8
73
4
40
0
40
0
40
0
40
0
40
1
40
1
40
1
40
1
41
1
10
0.1
20
1.36230473686718
30
0
41
0.999486020985435
10
0.0669262455785058
20
1.38107900200777
30
0
41
0.999029073392023
10
0.0335911280729637
20
1.39970096157955
30
0
41
0.998629157219764
10
-1.95141E-11
20
1.41816721602481
30
0
0
SPLINE
5
F0
100
AcDbEntity
8
1
62
256
6
ByLayer
370
18
48
1
60
0
100
AcDbSpline
70
4
71
3
72
8
73
4
40
0
40
0
40
0
40
0
40
1
40
1
40
1
40
1
41
1
10
5.13293886139244
20
2.61624197119969
30
0
41
1
10
5.13295268021782
20
2.61441473126485
30
0
41
1
10
5.13300701574358
20
2.61258478590279
30
0
41
1
10
5.13310221402029
20
2.61075211200661
30
0
0
SPLINE
5
F1
100
AcDbEntity
8
1
62
256
6
ByLayer
370
18
48
1
60
0
100
AcDbSpline
70
4
71
3
72
10
73
6
40
0
40
0
40
0
40
0
40
0.499999207799841
40
0.499999207799841
40
1
40
1
40
1
40
1
41
1
10
5.13310221402029
20
-6.09224677733694
30
0
41
1
10
5.1427983843625
20
-6.24784131411228
30
0
41
1
10
5.15287482970834
20
-6.40343102248567
30
0
41
1
10
5.17361659916904
20
-6.71460267374615
30
0
41
1
10
5.18428222148078
20
-6.87018474065239
30
0
41
1
10
5.19517704999226
20
-7.02576344273202
30
0
0
SPLINE
5
F2
100
AcDbEntity
8
1
62
256
6
ByLayer
370
18
48
1
60
0
100
AcDbSpline
70
4
71
3
72
10
73
6
40
0
40
0
40
0
40
0
40
0.5
40
0.5
40
1
40
1
40
1
40
1
41
1
10
5.34545359649358
20
-0.81724075377328
30
0
41
1
10
5.36578430878865
20
-1.10719356238058
30
0
41
1
10
5.38713334130549
20
-1.40521020183424
30
0
41
1
10
5.43189738470259
20
-2.01672384865545
30
0
41
1
10
5.45531164889275
20
-2.33022117789081
30
0
41
1
10
5.47984622386725
20
-2.65175359810631
30
0
0
SPLINE
5
F3
100
AcDbEntity
8
1
62
256
6
ByLayer
370
18
48
1
60
0
100
AcDbSpline
70
4
71
3
72
8
73
4
40
0
40
0
40
0
40
0
40
1
40
1
40
1
40
1
41
1
10
0.1
20
-5.70261868735436
30
0
41
1
10
0.0666696073451025
20
-5.69338721804119
30
0
41
1
10
0.0333361211658158
20
-5.68408444898212
30
0
41
1
10
-2.44985E-11
20
-5.67471046898105
30
0
0
SPLINE
5
F4
100
AcDbEntity
8
1
62
256
6
ByLayer
370
18
48
1
60
0
100
AcDbSpline
70
4
71
3
72
9
73
5
40
0
40
0
40
0
40
0
40
0.5
40
1
40
1
40
1
40
1
41
1
10
5.5781624130932
20
-2.53377174404882
30
0
41
1
10
5.57380191197857
20
-2.64599309376961
30
0
41
1
10
5.56676375551684
20
-2.86419052940268
30
0
41
1
10
5.56286518795674
20
-3.07040890709051
30
0
41
1
10
5.56171638817401
20
-3.17038804255602
30
0
0
SPLINE
5
F5
100
AcDbEntity
8
1
62
256
6
ByLayer
370
18
48
1
60
0
100
AcDbSpline
70
4
71
3
72
10
73
6
40
0
40
0
40
0
40
0
40
0.4999999430307
40
0.4999999430307
40
1
40
1
40
1
40
1
41
1
10
2.05650042774329
20
-6.25183026503955
30
0
41
1
10
1.73041802858186
20
-6.25086496114215
30
0
41
1
10
1.40433511313012
20
-6.24993495637294
30
0
41
1
10
0.752168285616426
20
-6.24814562470413
30
0
41
1
10
0.426084354976984
20
-6.24728629777257
30
0
41
1
10
0.1
20
-6.24646234101111
30
0
0
SPLINE
5
F6
100
AcDbEntity
8
1
62
256
6
ByLayer
370
18
48
1
60
0
100
AcDbSpline
70
4
71
3
72
16
73
12
40
0
40
0
40
0
40
0
40
0.25
40
0.25
40
0.5
40
0.5
40
0.625
40
0.625
40
0.75
40
0.75
40
1
40
1
40
1
40
1
41
1
10
2.05346815289034
20
-0.817240753773309
30
0
41
1
10
2.06985231489265
20
-0.581968537142973
30
0
41
1
10
2.08517413516677
20
-0.357504334372568
30
0
41
1
10
2.11385884632006
20
0.0708219989219394
30
0
41
1
10
2.12722102340974
20
0.274680138322235
30
0
41
1
10
2.14584373258791
20
0.564958226015573
30
0
41
1
10
2.15181383884641
20
0.659124736115341
30
0
41
1
10
2.16327903126669
20
0.842162937120275
30
0
41
1
10
2.16878527248696
20
0.931218117213955
30
0
41
1
10
2.18450500743154
20
1.18888986064969
30
0
41
1
10
2.19384859116366
20
1.34681449961605
30
0
41
1
10
2.20209676709116
20
1.49083965546198
30
0
0
SPLINE
5
F7
100
AcDbEntity
8
SK1
62
256
6
ByLayer
370
18
48
1
60
0
100
AcDbSpline
70
4
71
3
72
8
73
4
40
0
40
0
40
0
40
0
40
1
40
1
40
1
40
1
41
1
10
-0.849999999999989
20
5.57732432807979
30
0
41
1
10
-0.566462622321129
20
5.63684150892903
30
0
41
1
10
-0.283128802767604
20
5.69300550823854
30
0
41
1
10
-2.25093E-11
20
5.74579229734753
30
0
0
SPLINE
5
F8
100
AcDbEntity
8
1
62
256
6
ByLayer
370
18
48
1
60
0
100
AcDbSpline
70
4
71
3
72
20
73
16
40
0
40
0
40
0
40
0
40
0.249999999999998
40
0.249999999999998
40
0.374999999999997
40
0.374999999999997
40
0.437499999999997
40
0.437499999999997
40
0.499999999999997
40
0.499999999999997
40
0.749999999999999
40
0.749999999999999
40
0.874999999999999
40
0.874999999999999
40
1
40
1
40
1
40
1
41
1
10
5.62072979031166
20
8.89357994637139
30
0
41
1
10
5.60932695804715
20
8.69255910039741
30
0
41
1
10
5.59951183556536
20
8.48900969839921
30
0
41
1
10
5.58703667341835
20
8.18003788467076
30
0
41
1
10
5.58325624496439
20
8.076434346113
30
0
41
1
10
5.57816641632218
20
7.92008246412898
30
0
41
1
10
5.57656404848249
20
7.86769348274792
30
0
41
1
10
5.57359014368121
20
7.76376286588625
30
0
41
1
10
5.57221424741792
20
7.71210096481966
30
0
41
1
10
5.56588020225846
20
7.45528149925435
30
0
41
1
10
5.56253839085747
20
7.25454658948281
30
0
41
1
10
5.56016767489584
20
6.96059039839552
30
0
41
1
10
5.55982513605921
20
6.86351008309348
30
0
41
1
10
5.56007323219621
20
6.67498141585154
30
0
41
1
10
5.56065827891618
20
6.58319148548226
30
0
41
1
10
5.56171638817401
20
6.49389638536372
30
0
0
SPLINE
5
F9
100
AcDbEntity
8
1
62
256
6
ByLayer
370
18
48
1
60
0
100
AcDbSpline
70
4
71
3
72
8
73
4
40
0
40
0
40
0
40
0
40
1
40
1
40
1
40
1
41
1
10
0.1
20
1.18565574649015
30
0
41
0.999987282053348
10
0.084362375755179
20
1.17635909032812
30
0
41
0.999987282053348
10
0.0686676803041489
20
1.16703245321934
30
0
41
1
10
0.0529165124598649
20
1.15767619101076
30
0
0
SPLINE
5
FA
100
AcDbEntity
8
1
62
256
6
ByLayer
370
18
48
1
60
0
100
AcDbSpline
70
4
71
3
72
18
73
14
40
0
40
0
40
0
40
0
40
0.0312499999999985
40
0.0312499999999985
40
0.0624999999999969
40
0.0624999999999969
40
0.124999999999998
40
0.124999999999998
40
0.249999999999996
40
0.249999999999996
40
0.499999999999998
40
0.499999999999998
40
1
40
1
40
1
40
1
41
1
10
5.50000000000001
20
-5.42499958332507
30
0
41
1
10
5.5055629422873
20
-5.42499958332507
30
0
41
1
10
5.51039461506051
20
-5.42168042549979
30
0
41
1
10
5.5174932292176
20
-5.41404031951068
30
0
41
1
10
5.52018859935996
20
-5.40958579188096
30
0
41
1
10
5.52713238548942
20
-5.39606626668423
30
0
41
1
10
5.53038317331062
20
-5.38642943021246
30
0
41
1
10
5.53869241520673
20
-5.35752572886723
30
0
41
1
10
5.54222135229467
20
-5.33796047301975
30
0
41
1
10
5.55095809161111
20
-5.27899222070365
30
0
41
1
10
5.55398599853172
20
-5.23923132083867
30
0
41
1
10
5.56012270867016
20
-5.12019081053943
30
0
41
1
10
5.55996284947293
20
-5.04075554899386
30
0
41
1
10
5.55812655149027
20
-4.9612907412071
30
0
0
SPLINE
5
FB
100
AcDbEntity
8
1
62
256
6
ByLayer
370
18
48
1
60
0
100
AcDbSpline
70
4
71
3
72
8
73
4
40
0
40
0
40
0
40
0
40
1
40
1
40
1
40
1
41
1
10
5.62072979031166
20
8.89357994637139
30
0
41
1
10
5.6402957177906
20
9.48115437190897
30
0
41
1
10
5.66542794977392
20
10.0678407191614
30
0
41
1
10
5.69572433635748
20
10.6400967151987
30
0
0
SPLINE
5
FC
100
AcDbEntity
8
1
62
256
6
ByLayer
370
18
48
1
60
0
100
AcDbSpline
70
4
71
3
72
20
73
16
40
0
40
0
40
0
40
0
40
0.258264741443753
40
0.258264741443753
40
0.387397112165629
40
0.387397112165629
40
0.451963297526568
40
0.451963297526568
40
0.516529482887506
40
0.516529482887506
40
0.774794224331256
40
0.774794224331256
40
0.903926595053132
40
0.903926595053132
40
1
40
1
40
1
40
1
41
1
10
5.62072979031166
20
-4.24152076466006
30
0
41
1
10
5.60932695804715
20
-4.0908245319949
30
0
41
1
10
5.59951183556536
20
-3.95774175056805
30
0
41
1
10
5.58703667341835
20
-3.78354113731955
30
0
41
1
10
5.58325624496439
20
-3.72974615000134
30
0
41
1
10
5.57816641632218
20
-3.65565183854672
30
0
41
1
10
5.57656404848249
20
-3.63201243959022
30
0
41
1
10
5.57359014368118
20
-3.58747874306546
30
0
41
1
10
5.57221424741792
20
-3.56652233534247
30
0
41
1
10
5.56588020225846
20
-3.4681758994944
30
0
41
1
10
5.56253839085747
20
-3.40988750246605
30
0
41
1
10
5.56016767489584
20
-3.35332155920971
30
0
41
1
10
5.55982513605921
20
-3.33966017359375
30
0
41
1
10
5.56004147485428
20
-3.32548666102854
30
0
41
1
10
5.56038893919936
20
-3.32244958041149
30
0
41
1
10
5.56099654527535
20
-3.32244034000415
30
0
0
SPLINE
5
FD
100
AcDbEntity
8
SK1
62
256
6
ByLayer
370
18
48
1
60
0
100
AcDbSpline
70
4
71
3
72
8
73
4
40
0
40
0
40
0
40
0
40
1
40
1
40
1
40
1
41
1
10
-0.849999999999989
20
-1.63256449606572
30
0
41
0.997556702799834
10
-0.665274738437137
20
-1.54680445228022
30
0
41
0.996548384641205
10
-0.484601184180205
20
-1.45649853505847
30
0
41
0.996975045524111
10
-0.308771778850326
20
-1.36202289246664
30
0
0
SPLINE
5
FE
100
AcDbEntity
8
1
62
256
6
ByLayer
370
18
48
1
60
0
100
AcDbSpline
70
4
71
3
72
8
73
4
40
0
40
0
40
0
40
0
40
1
40
1
40
1
40
1
41
1
10
-2.25093E-11
20
5.74579229734753
30
0
41
1
10
0.0333361763008458
20
5.75200752410023
30
0
41
1
10
0.066669510435343
20
5.75817593191512
30
0
41
1
10
0.1
20
5.76429748157066
30
0
0
SPLINE
5
FF
100
AcDbEntity
8
1
62
256
6
ByLayer
370
18
48
1
60
0
100
AcDbSpline
70
4
71
3
72
8
73
4
40
0
40
0
40
0
40
0
40
1
40
1
40
1
40
1
41
0.998629157219704
10
-2.45419E-11
20
2.54810293349868
30
0
41
0.999029073391977
10
0.0335911280696372
20
2.5472459234969
30
0
41
0.99948602098541
10
0.0669262455768555
20
2.5460990017116
30
0
41
1
10
0.1
20
2.54466276179799
30
0
0
SPLINE
5
100
100
AcDbEntity
8
SK1
62
256
6
ByLayer
370
18
48
1
60
0
100
AcDbSpline
70
4
71
3
72
8
73
4
40
0
40
0
40
0
40
0
40
1
40
1
40
1
40
1
41
0.998629157219764
10
-1.95141E-11
20
1.41816721602481
30
0
41
0.995424945773044
10
-0.270113566083284
20
1.5666583838808
30
0
41
0.995881893366456
10
-0.554494583018443
20
1.70389368985624
30
0
41
1
10
-0.849999999999989
20
1.82838124312486
30
0
0
SPLINE
5
101
100
AcDbEntity
8
SK1
62
256
6
ByLayer
370
18
48
1
60
0
100
AcDbSpline
70
4
71
3
72
8
73
4
40
0
40
0
40
0
40
0
40
1
40
1
40
1
40
1
41
0.999276945518247
10
-1.86217E-11
20
1.12625818335522
30
0
41
0.995855730551392
10
-0.270084277239476
20
0.965975717033537
30
0
41
0.996096748711977
10
-0.554462515074021
20
0.798332056208547
30
0
41
1
10
-0.849999999999989
20
0.625174373929735
30
0
0
SPLINE
5
102
100
AcDbEntity
8
SK1
62
256
6
ByLayer
370
18
48
1
60
0
100
AcDbSpline
70
4
71
3
72
8
73
4
40
0
40
0
40
0
40
0
40
1
40
1
40
1
40
1
41
1
10
-2.44016E-11
20
0.930917441967016
30
0
41
1
10
-0.283209291350915
20
0.767042887746809
30
0
41
1
10
-0.566602326163769
20
0.603379365026867
30
0
41
1
10
-0.849999999999989
20
0.440032406729653
30
0
0
SPLINE
5
103
100
AcDbEntity
8
1
62
256
6
ByLayer
370
18
48
1
60
0
100
AcDbSpline
70
4
71
3
72
8
73
4
40
0
40
0
40
0
40
0
40
1
40
1
40
1
40
1
41
1
10
-2.31243E-11
20
-1.54705407046476
30
0
41
1
10
0.0333367401340635
20
-1.56612649898588
30
0
41
1
10
0.0666701373897684
20
-1.58519429489896
30
0
41
1
10
0.1
20
-1.60425734547441
30
0
0
SPLINE
5
104
100
AcDbEntity
8
SK1
62
256
6
ByLayer
370
18
48
1
60
0
100
AcDbSpline
70
4
71
3
72
8
73
4
40
0
40
0
40
0
40
0
40
1
40
1
40
1
40
1
41
0.998629157219811
10
-1.55596E-11
20
-2.5444241493549
30
0
41
0.99542494577304
10
-0.270113566080499
20
-2.53261546932225
30
0
41
0.995881893366436
10
-0.55449458301699
20
-2.50220570718529
30
0
41
1
10
-0.849999999999989
20
-2.45355436702984
30
0
0
SPLINE
5
105
100
AcDbEntity
8
SK1
62
256
6
ByLayer
370
18
48
1
60
0
100
AcDbSpline
70
4
71
3
72
8
73
4
40
0
40
0
40
0
40
0
40
1
40
1
40
1
40
1
41
1
10
-2.44985E-11
20
-5.67471046898105
30
0
41
1
10
-0.283236857385687
20
-5.59506543105627
30
0
41
1
10
-0.56666393284653
20
-5.51027976566607
30
0
41
1
10
-0.849999999999989
20
-5.42040794015434
30
0
0
INSERT
5
127
100
AcDbEntity
8
2
62
256
6
ByLayer
370
25
48
1
60
0
100
AcDbBlockReference
2
DimnDraft3D33
10
0
20
0
30
0
41
1
42
1
43
1
50
0
210
0
220
0
230
1
0
LINE
5
74
100
AcDbEntity
8
1
62
256
6
ByLayer
370
18
48
1
60
1
100
AcDbLine
10
0
20
0
30
0
11
0
21
297
31
0
39
0
210
0
220
0
230
1
0
LINE
5
75
100
AcDbEntity
8
1
62
256
6
ByLayer
370
18
48
1
60
1
100
AcDbLine
10
420
20
297
30
0
11
0
21
297
31
0
39
0
210
0
220
0
230
1
0
LINE
5
76
100
AcDbEntity
8
1
62
256
6
ByLayer
370
18
48
1
60
1
100
AcDbLine
10
420
20
297
30
0
11
420
21
0
31
0
39
0
210
0
220
0
230
1
0
LINE
5
77
100
AcDbEntity
8
1
62
256
6
ByLayer
370
18
48
1
60
1
100
AcDbLine
10
0
20
0
30
0
11
420
21
0
31
0
39
0
210
0
220
0
230
1
0
LINE
5
78
100
AcDbEntity
8
1
62
256
6
ByLayer
370
18
48
1
60
0
100
AcDbLine
10
2.07247
20
-7.679724
30
0
11
5.326929
21
-7.679724
31
0
39
0
210
0
220
0
230
1
0
LINE
5
79
100
AcDbEntity
8
1
62
256
6
ByLayer
370
13
48
1
60
0
100
AcDbLine
10
5.345454
20
-0.817241
30
0
11
2.053468
21
-0.817241
31
0
39
0
210
0
220
0
230
1
0
LINE
5
7A
100
AcDbEntity
8
1
62
256
6
ByLayer
370
13
48
1
60
0
100
AcDbLine
10
1.801
20
-3.949172
30
0
11
0.1
21
-3.949172
31
0
39
0
210
0
220
0
230
1
0
LINE
5
7B
100
AcDbEntity
8
SK1
62
256
6
ByLayer
370
18
48
1
60
0
100
AcDbLine
10
-0.85
20
0.440032
30
0
11
-0.85
21
0.625174
31
0
39
0
210
0
220
0
230
1
0
LINE
5
7D
100
AcDbEntity
8
1
62
256
6
ByLayer
370
18
48
1
60
0
100
AcDbLine
10
5.479846
20
-2.651754
30
0
11
1.919752
21
-2.651754
31
0
39
0
210
0
220
0
230
1
0
LINE
5
7E
100
AcDbEntity
8
1
62
256
6
ByLayer
370
18
48
1
60
0
100
AcDbLine
10
5.5
20
5.593965
30
0
11
5.5
21
3.321409
31
0
39
0
210
0
220
0
230
1
0
LINE
5
7F
100
AcDbEntity
8
1
62
256
6
ByLayer
370
18
48
1
60
0
100
AcDbLine
10
5.5
20
5.764737
30
0
11
5.56042
21
5.800482
31
0
39
0
210
0
220
0
230
1
0
LINE
5
80
100
AcDbEntity
8
1
62
256
6
ByLayer
370
13
48
1
60
0
100
AcDbLine
10
5.285493
20
-5.935047
30
0
11
0.1
21
-5.935047
31
0
39
0
210
0
220
0
230
1
0
LINE
5
81
100
AcDbEntity
8
1
62
256
6
ByLayer
370
18
48
1
60
0
100
AcDbLine
10
5.5
20
-5.424998
30
0
11
5.5
21
-5.72556
31
0
39
0
210
0
220
0
230
1
0
LINE
5
82
100
AcDbEntity
8
SK1
62
256
6
ByLayer
370
18
48
1
60
0
100
AcDbLine
10
-0.85
20
-5.420408
30
0
11
-0.85
21
-2.453554
31
0
39
0
210
0
220
0
230
1
0
LINE
5
83
100
AcDbEntity
8
1
62
256
6
ByLayer
370
18
48
1
60
0
100
AcDbLine
10
0.1
20
-5.935047
30
0
11
0.1
21
-6.246462
31
0
39
0
210
0
220
0
230
1
0
LINE
5
84
100
AcDbEntity
8
1
62
256
6
ByLayer
370
18
48
1
60
0
100
AcDbLine
10
5.558127
20
-4.961291
30
0
11
1.842553
21
-4.961291
31
0
39
0
210
0
220
0
230
1
0
LINE
5
85
100
AcDbEntity
8
1
62
256
6
ByLayer
370
13
48
1
60
0
100
AcDbLine
10
5.561716
20
6.493896
30
0
11
1.838287
21
6.493896
31
0
39
0
210
0
220
0
230
1
0
LINE
5
86
100
AcDbEntity
8
1
62
256
6
ByLayer
370
18
48
1
60
0
100
AcDbLine
10
0.1
20
-3.949172
30
0
11
0.1
21
-5.72556
31
0
39
0
210
0
220
0
230
1
0
LINE
5
87
100
AcDbEntity
8
1
62
256
6
ByLayer
370
18
48
1
60
0
100
AcDbLine
10
0.1
20
3.321409
30
0
11
0.1
21
2.79934
31
0
39
0
210
0
220
0
230
1
0
LINE
5
88
100
AcDbEntity
8
1
62
256
6
ByLayer
370
13
48
1
60
0
100
AcDbLine
10
5.285493
20
2.79934
30
0
11
0.1
21
2.79934
31
0
39
0
210
0
220
0
230
1
0
LINE
5
89
100
AcDbEntity
8
1
62
256
6
ByLayer
370
18
48
1
60
0
100
AcDbLine
10
0.1
20
2.79934
30
0
11
0.1
21
2.425744
31
0
39
0
210
0
220
0
230
1
0
LINE
5
8A
100
AcDbEntity
8
1
62
256
6
ByLayer
370
18
48
1
60
0
100
AcDbLine
10
5.5
20
-2.533355
30
0
11
5.56042
21
-2.564688
31
0
39
0
210
0
220
0
230
1
0
LINE
5
8B
100
AcDbEntity
8
1
62
256
6
ByLayer
370
18
48
1
60
0
100
AcDbLine
10
5.5
20
-5.425
30
0
11
1.9
21
-5.425
31
0
39
0
210
0
220
0
230
1
0
LINE
5
8C
100
AcDbEntity
8
SK1
62
256
6
ByLayer
370
18
48
1
60
0
100
AcDbLine
10
-0.85
20
-2.453554
30
0
11
-0.85
21
-1.632564
31
0
39
0
210
0
220
0
230
1
0
LINE
5
8D
100
AcDbEntity
8
1
62
256
6
ByLayer
370
18
48
1
60
0
100
AcDbLine
10
5.62073
20
8.89358
30
0
11
1.779263
21
8.89358
31
0
39
0
210
0
220
0
230
1
0
LINE
5
8E
100
AcDbEntity
8
1
62
256
6
ByLayer
370
13
48
1
60
0
100
AcDbLine
10
5.195177
20
-7.025763
30
0
11
2.202097
21
-7.025763
31
0
39
0
210
0
220
0
230
1
0
LINE
5
8F
100
AcDbEntity
8
1
62
256
6
ByLayer
370
18
48
1
60
0
100
AcDbLine
10
5.5
20
10.85
30
0
11
1.9
21
10.85
31
0
39
0
210
0
220
0
230
1
0
LINE
5
90
100
AcDbEntity
8
1
62
256
6
ByLayer
370
13
48
1
60
0
100
AcDbLine
10
5.5
20
-5.72556
30
0
11
0.1
21
-5.72556
31
0
39
0
210
0
220
0
230
1
0
LINE
5
91
100
AcDbEntity
8
SK1
62
256
6
ByLayer
370
18
48
1
60
0
100
AcDbLine
10
-0.85
20
1.828381
30
0
11
-0.85
21
2.512727
31
0
39
0
210
0
220
0
230
1
0
LINE
5
92
100
AcDbEntity
8
1
62
256
6
ByLayer
370
18
48
1
60
0
100
AcDbLine
10
5.5
20
3.321409
30
0
11
5.5
21
3.016271
31
0
39
0
210
0
220
0
230
1
0
LINE
5
93
100
AcDbEntity
8
1
62
256
6
ByLayer
370
18
48
1
60
0
100
AcDbLine
10
5.5
20
-5.72556
30
0
11
5.5
21
-5.803469
31
0
39
0
210
0
220
0
230
1
0
LINE
5
94
100
AcDbEntity
8
1
62
256
6
ByLayer
370
18
48
1
60
0
100
AcDbLine
10
0.1
20
6.028576
30
0
11
0.1
21
5.593965
31
0
39
0
210
0
220
0
230
1
0
LINE
5
95
100
AcDbEntity
8
1
62
256
6
ByLayer
370
13
48
1
60
0
100
AcDbLine
10
5.5
20
5.593965
30
0
11
0.1
21
5.593965
31
0
39
0
210
0
220
0
230
1
0
LINE
5
96
100
AcDbEntity
8
1
62
256
6
ByLayer
370
13
48
1
60
0
100
AcDbLine
10
5.195177
20
1.49084
30
0
11
2.202097
21
1.49084
31
0
39
0
210
0
220
0
230
1
0
LINE
5
97
100
AcDbEntity
8
1
62
256
6
ByLayer
370
18
48
1
60
0
100
AcDbLine
10
5.5
20
5.959875
30
0
11
5.5
21
5.593965
31
0
39
0
210
0
220
0
230
1
0
LINE
5
98
100
AcDbEntity
8
1
62
256
6
ByLayer
370
13
48
1
60
0
100
AcDbLine
10
5.5
20
3.321409
30
0
11
0.1
21
3.321409
31
0
39
0
210
0
220
0
230
1
0
LINE
5
99
100
AcDbEntity
8
1
62
256
6
ByLayer
370
18
48
1
60
0
100
AcDbLine
10
0.1
20
-3.432604
30
0
11
0.1
21
-3.949172
31
0
39
0
210
0
220
0
230
1
0
LINE
5
9A
100
AcDbEntity
8
1
62
256
6
ByLayer
370
18
48
1
60
0
100
AcDbLine
10
0.1
20
-5.72556
30
0
11
0.1
21
-5.935047
31
0
39
0
210
0
220
0
230
1
0
LINE
5
9B
100
AcDbEntity
8
1
62
256
6
ByLayer
370
18
48
1
60
0
100
AcDbLine
10
0.1
20
5.593965
30
0
11
0.1
21
3.321409
31
0
39
0
210
0
220
0
230
1
0
LINE
5
9C
100
AcDbEntity
8
SK1
62
256
6
ByLayer
370
18
48
1
60
0
100
AcDbLine
10
-0.85
20
5.577324
30
0
11
-0.85
21
2.512727
31
0
39
0
210
0
220
0
230
1
0
LINE
5
9D
100
AcDbEntity
8
1
62
256
6
ByLayer
370
18
48
1
60
0
100
AcDbLine
10
0
20
1.418167
30
0
11
0
21
5.745792
31
0
39
0
210
0
220
0
230
1
0
LINE
5
9E
100
AcDbEntity
8
1
62
256
6
ByLayer
370
18
48
1
60
0
100
AcDbLine
10
0
20
-5.67471
30
0
11
0
21
1.126258
31
0
39
0
210
0
220
0
230
1
0
LINE
5
9F
100
AcDbEntity
8
80
62
256
6
ByLayer
370
18
48
1
60
0
100
AcDbLine
10
0
20
0
30
0
11
-0.594526
21
0
31
0
39
0
210
0
220
0
230
1
0
LINE
5
A0
100
AcDbEntity
8
81
62
256
6
ByLayer
370
18
48
1
60
0
100
AcDbLine
10
5.7
20
10.85
30
0
11
6.65669
21
10.85
31
0
39
0
210
0
220
0
230
1
0
LINE
5
A1
100
AcDbEntity
8
4
62
256
6
ByLayer
370
18
48
0.05
60
0
100
AcDbLine
10
0
20
0
30
0
11
6.176221
21
0
31
0
39
0
210
0
220
0
230
1
0
LINE
5
A3
100
AcDbEntity
8
SK4
62
256
6
ByLayer
370
18
48
0.05
60
0
100
AcDbLine
10
-1.5
20
0
30
0
11
6.927919
21
0
31
0
39
0
210
0
220
0
230
1
0
MTEXT
5
106
100
AcDbEntity
8
SK6
62
256
6
ByLayer
370
18
48
1
60
0
100
AcDbMText
10
-19.6785
20
-20.396833
30
0
210
0
220
0
230
1
1
\W0.7306;327R12-22 40002-GM
40
3.5
41
0
44
1.084337
50
0
71
7
72
5
7
iso_b_vert
0
DIMENSION
5
112
100
AcDbEntity
8
2
62
256
6
ByLayer
370
13
48
1
60
0
100
AcDbDimension
2
DimnDraft3D1
10
21.154371
20
-10.85
30
0
11
21.154371
21
-7.511184
31
0
70
32
71
5
72
1
41
1
210
0
220
0
230
1
3
Standard
100
AcDbAlignedDimension
13
5.7
23
-10.85
33
0
14
0
24
0
34
0
50
90
100
AcDbRotatedDimension
1001
ACAD
1000
DSTYLE
1002
{
1070
    74
1070
     0
1070
   279
1070
     0
1070
   172
1070
     1
1070
   173
1070
     1
1070
   340
1005
107
1070
    76
1070
     1
1070
   271
1070
     2
1070
   272
1070
     2
1070
    77
1070
     1
1070
    73
1070
     0
1070
   171
1070
     3
1070
   274
1070
     4
1070
   282
1070
     1
1070
   177
1070
     7
1070
   176
1070
     7
1070
   178
1070
     7
1070
    78
1070
     8
1070
    48
1040
-0.005
1070
    41
1041
3.5
1070
   147
1041
1.75
1070
    42
1041
1.5875
1070
    44
1041
2.0
1070
   140
1041
3.5
1070
   343
1005
0
1070
   344
1005
0
1002
}
0
DIMENSION
5
11D
100
AcDbEntity
8
SK2
62
256
6
ByLayer
370
13
48
1
60
0
100
AcDbDimension
2
DimnDraft3D2
10
-21.963075
20
-6
30
0
11
-21.963075
21
-5.632237
31
0
70
32
71
5
72
1
41
1
210
0
220
0
230
1
3
Standard
100
AcDbAlignedDimension
13
-1.5875
23
6
33
0
14
-1.5875
24
-6
34
0
50
90
100
AcDbRotatedDimension
1001
ACAD
1000
DSTYLE
1002
{
1070
    74
1070
     0
1070
   279
1070
     0
1070
   172
1070
     1
1070
   173
1070
     1
1070
   340
1005
107
1070
   271
1070
     2
1070
   272
1070
     2
1070
    77
1070
     1
1070
    73
1070
     0
1070
   171
1070
     3
1070
   274
1070
     4
1070
   177
1070
     7
1070
   176
1070
     7
1070
   178
1070
     7
1070
    78
1070
     8
1070
    48
1040
-0.005
1070
    41
1041
3.5
1070
   147
1041
1.75
1070
    42
1041
1.5875
1070
    44
1041
2.0
1070
   140
1041
3.5
1070
   343
1005
0
1070
   344
1005
0
1002
}
0
DIMENSION
5
131
100
AcDbEntity
8
2
62
256
6
ByLayer
370
13
48
1
60
0
100
AcDbDimension
2
DimnDraft3D4
10
1.704023
20
18.749065
30
0
11
10.844788
21
18.749065
31
0
70
32
71
5
72
1
41
1
210
0
220
0
230
1
3
Standard
100
AcDbAlignedDimension
13
5.7
23
12.4375
33
0
14
1.704023
24
12.234668
34
0
50
0
100
AcDbRotatedDimension
1001
ACAD
1000
DSTYLE
1002
{
1070
   279
1070
     0
1070
   172
1070
     1
1070
   173
1070
     1
1070
   340
1005
107
1070
   271
1070
     2
1070
   272
1070
     2
1070
    77
1070
     1
1070
    73
1070
     0
1070
   171
1070
     3
1070
   274
1070
     4
1070
   177
1070
     7
1070
   176
1070
     7
1070
   178
1070
     7
1070
    78
1070
     8
1070
    48
1040
-0.005
1070
    41
1041
3.5
1070
   147
1041
1.75
1070
    42
1041
1.5875
1070
    44
1041
2.0
1070
   140
1041
3.5
1070
   343
1005
0
1070
   344
1005
0
1002
}
0
DIMENSION
5
13B
100
AcDbEntity
8
2
62
256
6
ByLayer
370
13
48
1
60
0
100
AcDbDimension
2
DimnDraft3D5
10
-13.006565
20
6.311353
30
0
11
-13.006565
21
16.536008
31
0
70
32
71
5
72
1
41
1
210
0
220
0
230
1
3
Standard
100
AcDbAlignedDimension
13
0.3125
23
10.85
33
0
14
0.2475
24
6.311353
34
0
50
90
100
AcDbRotatedDimension
1001
ACAD
1000
DSTYLE
1002
{
1070
    74
1070
     0
1070
   279
1070
     0
1070
   172
1070
     1
1070
   173
1070
     1
1070
   340
1005
107
1070
   271
1070
     1
1070
   272
1070
     2
1070
    77
1070
     1
1070
    73
1070
     0
1070
   171
1070
     3
1070
   274
1070
     4
1070
   177
1070
     7
1070
   176
1070
     7
1070
   178
1070
     7
1070
    78
1070
     8
1070
    48
1040
-0.005
1070
    41
1041
3.5
1070
   147
1041
1.75
1070
    42
1041
1.5875
1070
    44
1041
2.0
1070
   140
1041
3.5
1070
   343
1005
0
1070
   344
1005
0
1002
}
0
ENDSEC
0
SECTION
2
OBJECTS
0
DICTIONARY
5
1a6
330
0
100
AcDbDictionary
280
0
281
1
3
ACAD_GROUP
350
1a7
3
ACAD_MLINESTYLE
350
1a8
0
DICTIONARY
5
1a7
330
0
100
AcDbDictionary
280
0
281
1
0
DICTIONARY
5
1a8
330
0
100
AcDbDictionary
280
0
281
1
3
Standard
350
18
0
MLINESTYLE
5
18
330
1a8
100
AcDbMlineStyle
2
Standard
70
0
3

62
256
51
90
52
90
71
2
49
-0.5
62
256
6
ByLayer
49
0.5
62
256
6
ByLayer
0
RASTERVARIABLES
5
194
330

100
AcDbRasterVariables
90
0
70
1
71
1
72
1
0
ENDSEC
0
EOF
