0
SECTION
2
HEADER
9
$ACADVER
1
AC1015
9
$DWGCODEPAGE
3
ANSI_1252
9
$HANDSEED
5
1cf
9
$ANGBASE
50
0
9
$ANGDIR
70
0
9
$ATTMODE
70
1
9
$AUNITS
70
0
9
$AUPREC
70
0
9
$CECOLOR
62
256
9
$CELTSCALE
40
1
9
$CELTYPE
6
ByLayer
9
$CELWEIGHT
370
18
9
$CLAYER
8
0
9
$CMLJUST
70
0
9
$CMLSCALE
40
1
9
$CMLSTYLE
2
Standard
9
$DIMSTYLE
2
Standard
9
$TEXTSIZE
40
0.2
9
$TEXTSTYLE
7
Standard
9
$LUNITS
70
2
9
$LUPREC
70
4
9
$EXTNAMES
290
1
9
$INSUNITS
70
4
9
$LTSCALE
40
1
9
$LWDISPLAY
290
1
9
$PDMODE
70
0
9
$PDSIZE
40
0
9
$PLINEGEN
70
0
0
ENDSEC
0
SECTION
2
CLASSES
0
CLASS
1
RASTERVARIABLES
2
AcDbRasterVariables
3
ISM
90
0
280
0
281
0
0
ENDSEC
0
SECTION
2
TABLES
0
TABLE
2
VPORT
5
1c5
100
AcDbSymbolTable
0
VPORT
5
1
100
AcDbSymbolTableRecord
100
AcDbViewportTableRecord
2
*Active
70
0
10
0
20
0
11
1
21
1
12
-1
22
1
13
0
23
0
14
0.5
24
0.5
15
10
25
10
16
0
26
0
36
1
17
0
27
0
37
0
0
ENDTAB
0
TABLE
2
LTYPE
5
1c6
100
AcDbSymbolTable
0
LTYPE
5
14
100
AcDbSymbolTableRecord
100
AcDbLinetypeTableRecord
70
0
2
ByBlock
3

72
65
73
0
40
0
0
LTYPE
5
15
100
AcDbSymbolTableRecord
100
AcDbLinetypeTableRecord
70
0
2
ByLayer
3

72
65
73
0
40
0
0
LTYPE
5
16
100
AcDbSymbolTableRecord
100
AcDbLinetypeTableRecord
70
0
2
CONTINUOUS
3
Solid line
72
65
73
0
40
0
0
LTYPE
5
6A
100
AcDbSymbolTableRecord
100
AcDbLinetypeTableRecord
70
0
2
CENTER
3
____ _ ____ _ ____ _ ____
72
65
73
4
40
47.5
49
22
74
0
49
-8.5
74
0
49
8.5
74
0
49
-8.5
74
0
0
LTYPE
5
6B
100
AcDbSymbolTableRecord
100
AcDbLinetypeTableRecord
70
0
2
DASHED
3
__ __ __ __ __ __ __ __ __
72
65
73
2
40
25.72
49
12.86
74
0
49
-12.86
74
0
0
ENDTAB
0
TABLE
2
LAYER
5
1c7
100
AcDbSymbolTable
0
LAYER
5
10
100
AcDbSymbolTableRecord
100
AcDbLayerTableRecord
2
0
70
0
62
7
6
CONTINUOUS
290
1
370
-3
390
0
0
LAYER
5
6D
100
AcDbSymbolTableRecord
100
AcDbLayerTableRecord
2
81
70
0
62
-3
6
CONTINUOUS
290
1
370
-3
390
0
0
LAYER
5
6F
100
AcDbSymbolTableRecord
100
AcDbLayerTableRecord
2
80
70
0
62
-6
6
CONTINUOUS
290
1
370
-3
390
0
0
LAYER
5
71
100
AcDbSymbolTableRecord
100
AcDbLayerTableRecord
2
1
70
0
62
4
6
CONTINUOUS
290
1
370
-3
390
0
0
LAYER
5
CA
100
AcDbSymbolTableRecord
100
AcDbLayerTableRecord
2
4
70
0
62
-2
6
CENTER
290
1
370
-3
390
0
0
LAYER
5
114
100
AcDbSymbolTableRecord
100
AcDbLayerTableRecord
2
2
70
0
62
7
6
CONTINUOUS
290
1
370
-3
390
0
0
LAYER
5
1b1
100
AcDbSymbolTableRecord
100
AcDbLayerTableRecord
2
SK1
70
0
62
4
6
CONTINUOUS
290
1
370
-3
390
0
0
LAYER
5
1b2
100
AcDbSymbolTableRecord
100
AcDbLayerTableRecord
2
SK4
70
0
62
2
6
CENTER
290
1
370
-3
390
0
0
LAYER
5
1b3
100
AcDbSymbolTableRecord
100
AcDbLayerTableRecord
2
SK6
70
0
62
5
6
CONTINUOUS
290
1
370
-3
390
0
0
LAYER
5
1b4
100
AcDbSymbolTableRecord
100
AcDbLayerTableRecord
2
SK2
70
0
62
7
6
CONTINUOUS
290
1
370
-3
390
0
0
ENDTAB
0
TABLE
2
STYLE
5
1c8
100
AcDbSymbolTable
0
STYLE
5
11
100
AcDbSymbolTableRecord
100
AcDbTextStyleTableRecord
2
Standard
3
txt
70
0
71
0
40
0
41
1
42
0
50
0
0
STYLE
5
10F
100
AcDbSymbolTableRecord
100
AcDbTextStyleTableRecord
2
iso_b_vert
3
simplex.shx
70
0
71
0
40
0
41
1
42
0
50
0
0
STYLE
5
110
100
AcDbSymbolTableRecord
100
AcDbTextStyleTableRecord
2
DWGDirectTextStyle
3
simplex
70
0
71
0
40
0
41
1
42
0
50
0
0
ENDTAB
0
TABLE
2
DIMSTYLE
5
1c9
100
AcDbSymbolTable
100
AcDbDimStyleTable
0
DIMSTYLE
105
27
100
AcDbSymbolTableRecord
100
AcDbDimStyleTableRecord
2
Standard
70
0
3
<>
41
0.18
42
0.0625
44
0.18
140
0.18
147
0.09
73
0
74
0
77
1
271
2
275
0
278
52
280
0
340
11
0
ENDTAB
0
TABLE
2
VIEW
5
1ca
100
AcDbSymbolTable
0
ENDTAB
0
TABLE
2
UCS
5
1cb
100
AcDbSymbolTable
0
ENDTAB
0
TABLE
2
APPID
5
1cc
100
AcDbSymbolTable
0
APPID
5
12
100
AcDbSymbolTableRecord
100
AcDbRegAppTableRecord
2
ACAD
70
0
0
ENDTAB
0
TABLE
2
BLOCK_RECORD
5
1cd
100
AcDbSymbolTable
0
BLOCK_RECORD
5
1F
100
AcDbSymbolTableRecord
100
AcDbBlockTableRecord
2
*Model_Space
340
0
70
0
0
BLOCK_RECORD
5
1B
100
AcDbSymbolTableRecord
100
AcDbBlockTableRecord
2
*Paper_Space
340
0
70
0
0
BLOCK_RECORD
5
23
100
AcDbSymbolTableRecord
100
AcDbBlockTableRecord
2
*Paper_Space0
340
0
70
0
0
BLOCK_RECORD
5
112
100
AcDbSymbolTableRecord
100
AcDbBlockTableRecord
2
DimnDraft3D1
340
0
70
0
0
BLOCK_RECORD
5
11D
100
AcDbSymbolTableRecord
100
AcDbBlockTableRecord
2
DimnDraft3D2
340
0
70
0
0
BLOCK_RECORD
5
128
100
AcDbSymbolTableRecord
100
AcDbBlockTableRecord
2
DimnDraft3D3
340
0
70
0
0
BLOCK_RECORD
5
132
100
AcDbSymbolTableRecord
100
AcDbBlockTableRecord
2
DimnDraft3D4
340
0
70
0
0
BLOCK_RECORD
5
13C
100
AcDbSymbolTableRecord
100
AcDbBlockTableRecord
2
DimnDraft3D5
340
0
70
0
0
BLOCK_RECORD
5
144
100
AcDbSymbolTableRecord
100
AcDbBlockTableRecord
2
DimnDraft3D6
340
0
70
0
0
BLOCK_RECORD
5
14E
100
AcDbSymbolTableRecord
100
AcDbBlockTableRecord
2
DimnDraft3D7
340
0
70
0
0
ENDTAB
0
ENDSEC
0
SECTION
2
BLOCKS
0
BLOCK
5
20
100
AcDbEntity
8
0
100
AcDbBlockBegin
2
*Model_Space
70
0
10
0
20
0
30
0
3
*Model_Space
0
ENDBLK
5
21
100
AcDbEntity
8
0
100
AcDbBlockEnd
0
BLOCK
5
1C
100
AcDbEntity
8
0
100
AcDbBlockBegin
2
*Paper_Space
70
0
10
0
20
0
30
0
3
*Paper_Space
0
ENDBLK
5
1D
100
AcDbEntity
8
0
100
AcDbBlockEnd
0
BLOCK
5
24
100
AcDbEntity
8
0
100
AcDbBlockBegin
2
*Paper_Space0
70
0
10
0
20
0
30
0
3
*Paper_Space0
0
ENDBLK
5
25
100
AcDbEntity
8
0
100
AcDbBlockEnd
0
BLOCK
5
11A
100
AcDbEntity
8
0
100
AcDbBlockBegin
2
DimnDraft3D1
70
0
10
0
20
0
30
0
3
DimnDraft3D1
0
MTEXT
5
113
100
AcDbEntity
8
2
62
256
6
ByLayer
370
13
48
1
60
0
100
AcDbMText
10
15.529799
20
19.78582
30
0
210
0
220
0
230
1
1
\W0.6702;0,2
40
3.5
41
0
44
1.084337
50
0
71
7
72
5
7
iso_b_vert
0
LINE
5
115
100
AcDbEntity
8
2
62
256
6
ByLayer
370
13
48
1
60
0
100
AcDbLine
10
3.575
20
10.85
30
0
11
3.575
21
20.91082
31
0
39
0
210
0
220
0
230
1
0
LINE
5
116
100
AcDbEntity
8
2
62
256
6
ByLayer
370
13
48
1
60
0
100
AcDbLine
10
3.825
20
10.85
30
0
11
3.825
21
20.91082
31
0
39
0
210
0
220
0
230
1
0
LINE
5
117
100
AcDbEntity
8
2
62
256
6
ByLayer
370
13
48
1
60
0
100
AcDbLine
10
19.932431
20
18.91082
30
0
11
-5.175
21
18.91082
31
0
39
0
210
0
220
0
230
1
0
SOLID
5
118
100
AcDbEntity
8
2
62
256
6
ByLayer
370
13
48
1
60
0
100
AcDbTrace
10
3.575
20
18.91082
30
0
11
0.075003
21
17.972998
31
0
12
0.074997
22
19.848642
32
0
13
3.575
23
18.91082
33
0
39
0
210
0
220
0
230
1
0
SOLID
5
119
100
AcDbEntity
8
2
62
256
6
ByLayer
370
13
48
1
60
0
100
AcDbTrace
10
3.825
20
18.91082
30
0
11
7.324997
21
19.848642
31
0
12
7.325003
22
17.972998
32
0
13
3.825
23
18.91082
33
0
39
0
210
0
220
0
230
1
0
ENDBLK
5
11B
100
AcDbEntity
8
0
100
AcDbBlockEnd
0
BLOCK
5
125
100
AcDbEntity
8
0
100
AcDbBlockBegin
2
DimnDraft3D2
70
0
10
0
20
0
30
0
3
DimnDraft3D2
0
MTEXT
5
11E
100
AcDbEntity
8
SK2
62
256
6
ByLayer
370
13
48
1
60
0
100
AcDbMText
10
1.461412
20
-22.697808
30
0
210
0
220
0
230
1
1
\W0.8385;60%%d
40
3.5
41
0
44
1.084337
50
0.074145598260884
71
7
72
5
7
iso_b_vert
0
LINE
5
120
100
AcDbEntity
8
SK2
62
256
6
ByLayer
370
13
48
1
60
0
100
AcDbLine
10
1.889928
20
7.891466
30
0
11
-14.433468
21
-20.768036
31
0
39
0
210
0
220
0
230
1
0
LINE
5
121
100
AcDbEntity
8
SK2
62
256
6
ByLayer
370
13
48
1
60
0
100
AcDbLine
10
5.85
20
7.315944
30
0
11
21.915055
21
-20.720998
31
0
39
0
210
0
220
0
230
1
0
ARC
5
122
100
AcDbEntity
8
SK2
62
256
6
ByLayer
370
13
48
1
60
0
100
AcDbCircle
39
0
10
3.699624
20
11.068807
30
0
40
34.6386901755466
210
0
220
0
230
1
100
AcDbArc
50
240.335756
51
299.812535
0
SOLID
5
123
100
AcDbEntity
8
SK2
62
256
6
ByLayer
370
13
48
1
60
0
100
AcDbTrace
10
-13.443635
20
-19.030155
30
0
11
-9.916169
21
-19.858692
31
0
12
-10.803024
22
-21.511426
32
0
13
-13.443635
23
-19.030155
33
0
39
0
210
0
220
0
230
1
0
SOLID
5
124
100
AcDbEntity
8
SK2
62
256
6
ByLayer
370
13
48
1
60
0
100
AcDbTrace
10
20.920727
20
-18.985685
30
0
11
18.286553
21
-21.473779
31
0
12
17.395412
22
-19.823352
32
0
13
20.920727
23
-18.985685
33
0
39
0
210
0
220
0
230
1
0
ENDBLK
5
126
100
AcDbEntity
8
0
100
AcDbBlockEnd
0
BLOCK
5
12F
100
AcDbEntity
8
0
100
AcDbBlockBegin
2
DimnDraft3D3
70
0
10
0
20
0
30
0
3
DimnDraft3D3
0
MTEXT
5
129
100
AcDbEntity
8
2
62
256
6
ByLayer
370
13
48
1
60
0
100
AcDbMText
10
28.103427
20
47.974343
30
0
210
0
220
0
230
1
1
\W0.6848;5,9
40
3.5
41
0
44
1.084337
50
0
71
7
72
5
7
iso_b_vert
0
LINE
5
12A
100
AcDbEntity
8
2
62
256
6
ByLayer
370
13
48
1
60
0
100
AcDbLine
10
0
20
0
30
0
11
0
21
49.099343
31
0
39
0
210
0
220
0
230
1
0
LINE
5
12B
100
AcDbEntity
8
2
62
256
6
ByLayer
370
13
48
1
60
0
100
AcDbLine
10
5.85
20
7.315944
30
0
11
5.85
21
49.099343
31
0
39
0
210
0
220
0
230
1
0
LINE
5
12C
100
AcDbEntity
8
2
62
256
6
ByLayer
370
13
48
1
60
0
100
AcDbLine
10
32.506059
20
47.099343
30
0
11
-8.75
21
47.099343
31
0
39
0
210
0
220
0
230
1
0
SOLID
5
12D
100
AcDbEntity
8
2
62
256
6
ByLayer
370
13
48
1
60
0
100
AcDbTrace
10
0
20
47.099343
30
0
11
-3.499997
21
46.161521
31
0
12
-3.500003
22
48.037165
32
0
13
0
23
47.099343
33
0
39
0
210
0
220
0
230
1
0
SOLID
5
12E
100
AcDbEntity
8
2
62
256
6
ByLayer
370
13
48
1
60
0
100
AcDbTrace
10
5.85
20
47.099343
30
0
11
9.349997
21
48.037165
31
0
12
9.350003
22
46.161521
32
0
13
5.85
23
47.099343
33
0
39
0
210
0
220
0
230
1
0
ENDBLK
5
130
100
AcDbEntity
8
0
100
AcDbBlockEnd
0
BLOCK
5
139
100
AcDbEntity
8
0
100
AcDbBlockBegin
2
DimnDraft3D4
70
0
10
0
20
0
30
0
3
DimnDraft3D4
0
MTEXT
5
133
100
AcDbEntity
8
SK2
62
256
6
ByLayer
370
13
48
1
60
0
100
AcDbMText
10
22.827699
20
37.831709
30
0
210
0
220
0
230
1
1
\W0.6702;3,7
40
3.5
41
0
44
1.084337
50
0
71
7
72
5
7
iso_b_vert
0
LINE
5
134
100
AcDbEntity
8
SK2
62
256
6
ByLayer
370
13
48
1
60
0
100
AcDbLine
10
0
20
0
30
0
11
0
21
38.956709
31
0
39
0
210
0
220
0
230
1
0
LINE
5
135
100
AcDbEntity
8
SK2
62
256
6
ByLayer
370
13
48
1
60
0
100
AcDbLine
10
3.7
20
10.85
30
0
11
3.7
21
38.956709
31
0
39
0
210
0
220
0
230
1
0
LINE
5
136
100
AcDbEntity
8
SK2
62
256
6
ByLayer
370
13
48
1
60
0
100
AcDbLine
10
27.230331
20
36.956709
30
0
11
-8.75
21
36.956709
31
0
39
0
210
0
220
0
230
1
0
SOLID
5
137
100
AcDbEntity
8
SK2
62
256
6
ByLayer
370
13
48
1
60
0
100
AcDbTrace
10
0
20
36.956709
30
0
11
-3.499997
21
36.018887
31
0
12
-3.500003
22
37.894531
32
0
13
0
23
36.956709
33
0
39
0
210
0
220
0
230
1
0
SOLID
5
138
100
AcDbEntity
8
SK2
62
256
6
ByLayer
370
13
48
1
60
0
100
AcDbTrace
10
3.7
20
36.956709
30
0
11
7.199997
21
37.894531
31
0
12
7.200003
22
36.018887
32
0
13
3.7
23
36.956709
33
0
39
0
210
0
220
0
230
1
0
ENDBLK
5
13A
100
AcDbEntity
8
0
100
AcDbBlockEnd
0
BLOCK
5
141
100
AcDbEntity
8
0
100
AcDbBlockBegin
2
DimnDraft3D5
70
0
10
0
20
0
30
0
3
DimnDraft3D5
0
MTEXT
5
13D
100
AcDbEntity
8
2
62
256
6
ByLayer
370
13
48
1
60
0
100
AcDbMText
10
25.058259
20
-4.009901
30
0
210
0
220
0
230
1
1
\W1.0454;%%c21,7
40
3.5
41
0
44
1.084337
50
90
71
7
72
5
7
iso_b_vert
0
LINE
5
13E
100
AcDbEntity
8
2
62
256
6
ByLayer
370
13
48
1
60
0
100
AcDbLine
10
3.7
20
10.85
30
0
11
28.808259
21
10.85
31
0
39
0
210
0
220
0
230
1
0
LINE
5
13F
100
AcDbEntity
8
2
62
256
6
ByLayer
370
13
48
1
60
0
100
AcDbLine
10
26.808259
20
10.85
30
0
11
26.808259
21
-6.384901
31
0
39
0
210
0
220
0
230
1
0
SOLID
5
140
100
AcDbEntity
8
2
62
256
6
ByLayer
370
13
48
1
60
0
100
AcDbTrace
10
26.808259
20
10.85
30
0
11
27.746081
21
7.350003
31
0
12
25.870436
22
7.349997
32
0
13
26.808259
23
10.85
33
0
39
0
210
0
220
0
230
1
0
ENDBLK
5
142
100
AcDbEntity
8
0
100
AcDbBlockEnd
0
BLOCK
5
14B
100
AcDbEntity
8
0
100
AcDbBlockBegin
2
DimnDraft3D6
70
0
10
0
20
0
30
0
3
DimnDraft3D6
0
MTEXT
5
145
100
AcDbEntity
8
SK2
62
256
6
ByLayer
370
13
48
1
60
0
100
AcDbMText
10
-26.50371
20
-4.757237
30
0
210
0
220
0
230
1
1
\W1.2012;%%c12
40
3.5
41
0
44
1.084337
50
90
71
7
72
5
7
iso_b_vert
0
LINE
5
146
100
AcDbEntity
8
SK2
62
256
6
ByLayer
370
13
48
1
60
0
100
AcDbLine
10
-0.85
20
6
30
0
11
-26.75371
21
6
31
0
39
0
210
0
220
0
230
1
0
LINE
5
147
100
AcDbEntity
8
SK2
62
256
6
ByLayer
370
13
48
1
60
0
100
AcDbLine
10
-0.85
20
-6
30
0
11
-26.75371
21
-6
31
0
39
0
210
0
220
0
230
1
0
LINE
5
148
100
AcDbEntity
8
SK2
62
256
6
ByLayer
370
13
48
1
60
0
100
AcDbLine
10
-24.75371
20
6
30
0
11
-24.75371
21
-6
31
0
39
0
210
0
220
0
230
1
0
SOLID
5
149
100
AcDbEntity
8
SK2
62
256
6
ByLayer
370
13
48
1
60
0
100
AcDbTrace
10
-24.75371
20
6
30
0
11
-23.815887
21
2.500003
31
0
12
-25.691532
22
2.499997
32
0
13
-24.75371
23
6
33
0
39
0
210
0
220
0
230
1
0
SOLID
5
14A
100
AcDbEntity
8
SK2
62
256
6
ByLayer
370
13
48
1
60
0
100
AcDbTrace
10
-24.75371
20
-6
30
0
11
-25.691532
21
-2.500003
31
0
12
-23.815887
22
-2.499997
32
0
13
-24.75371
23
-6
33
0
39
0
210
0
220
0
230
1
0
ENDBLK
5
14C
100
AcDbEntity
8
0
100
AcDbBlockEnd
0
BLOCK
5
155
100
AcDbEntity
8
0
100
AcDbBlockBegin
2
DimnDraft3D7
70
0
10
0
20
0
30
0
3
DimnDraft3D7
0
MTEXT
5
14F
100
AcDbEntity
8
2
62
256
6
ByLayer
370
13
48
1
60
0
100
AcDbMText
10
-13.599995
20
17.654517
30
0
210
0
220
0
230
1
1
\W0.5404;3
40
3.5
41
0
44
1.084337
50
90
71
7
72
5
7
iso_b_vert
0
LINE
5
150
100
AcDbEntity
8
2
62
256
6
ByLayer
370
13
48
1
60
0
100
AcDbLine
10
3.575
20
10.85
30
0
11
-14.724995
21
10.85
31
0
39
0
210
0
220
0
230
1
0
LINE
5
151
100
AcDbEntity
8
2
62
256
6
ByLayer
370
13
48
1
60
0
100
AcDbLine
10
1.803467
20
7.841375
30
0
11
-14.724995
21
7.841375
31
0
39
0
210
0
220
0
230
1
0
LINE
5
152
100
AcDbEntity
8
2
62
256
6
ByLayer
370
13
48
1
60
0
100
AcDbLine
10
-12.724995
20
-0.908625
30
0
11
-12.724995
21
18.345306
31
0
39
0
210
0
220
0
230
1
0
SOLID
5
153
100
AcDbEntity
8
2
62
256
6
ByLayer
370
13
48
1
60
0
100
AcDbTrace
10
-12.724995
20
10.85
30
0
11
-13.662817
21
14.349997
31
0
12
-11.787173
22
14.350003
32
0
13
-12.724995
23
10.85
33
0
39
0
210
0
220
0
230
1
0
SOLID
5
154
100
AcDbEntity
8
2
62
256
6
ByLayer
370
13
48
1
60
0
100
AcDbTrace
10
-12.724995
20
7.841375
30
0
11
-11.787173
21
4.341379
31
0
12
-13.662817
22
4.341372
32
0
13
-12.724995
23
7.841375
33
0
39
0
210
0
220
0
230
1
0
ENDBLK
5
156
100
AcDbEntity
8
0
100
AcDbBlockEnd
0
ENDSEC
0
SECTION
2
ENTITIES
0
ELLIPSE
5
CE
100
AcDbEntity
8
1
62
256
6
ByLayer
370
18
48
1
60
0
100
AcDbEllipse
10
1.86272
20
-0.112803
30
0
11
0.477602901483728
21
7.88665051568863
31
0
210
0
220
0
230
1
40
0.034878
41
-2.04395399876921
42
-1.44324987755231
0
ELLIPSE
5
CF
100
AcDbEntity
8
1
62
256
6
ByLayer
370
18
48
1
60
0
100
AcDbEllipse
10
1.776375
20
-0.107574
30
0
11
-0.474573797553134
21
-7.8366309617829
31
0
210
0
220
0
230
1
40
0.034878
41
1.09774249361565
42
1.70422631279835
0
ELLIPSE
5
D0
100
AcDbEntity
8
1
62
256
6
ByLayer
370
18
48
1
60
0
100
AcDbEllipse
10
1.86272
20
-0.112803
30
0
11
0.477602901483728
21
7.88665051568863
31
0
210
0
220
0
230
1
40
0.034878
41
-2.04395399876921
42
-1.44324987755231
0
ELLIPSE
5
D1
100
AcDbEntity
8
1
62
256
6
ByLayer
370
18
48
1
60
0
100
AcDbEllipse
10
1.776375
20
-0.107574
30
0
11
-0.474573797553134
21
-7.8366309617829
31
0
210
0
220
0
230
1
40
0.034878
41
1.09774249361565
42
1.70422631279835
0
POINT
5
6C
100
AcDbEntity
8
81
62
256
6
ByLayer
370
18
48
1
60
0
100
AcDbPoint
10
3.7
20
10.85
30
0
39
0
210
0
220
0
230
1
50
360
0
POINT
5
6E
100
AcDbEntity
8
80
62
256
6
ByLayer
370
18
48
1
60
0
100
AcDbPoint
10
0
20
0
30
0
39
0
210
0
220
0
230
1
50
360
0
POINT
5
70
100
AcDbEntity
8
1
62
256
6
ByLayer
370
18
48
1
60
1
100
AcDbPoint
10
-0.85
20
6
30
0
39
0
210
0
220
0
230
1
50
360
0
POINT
5
72
100
AcDbEntity
8
1
62
256
6
ByLayer
370
18
48
1
60
1
100
AcDbPoint
10
-0.85
20
-6
30
0
39
0
210
0
220
0
230
1
50
360
0
POINT
5
73
100
AcDbEntity
8
1
62
256
6
ByLayer
370
18
48
1
60
1
100
AcDbPoint
10
3.7
20
-10.85
30
0
39
0
210
0
220
0
230
1
50
360
0
SPLINE
5
D2
100
AcDbEntity
8
1
62
256
6
ByLayer
370
18
48
1
60
0
100
AcDbSpline
70
4
71
3
72
8
73
4
40
0
40
0
40
0
40
0
40
1
40
1
40
1
40
1
41
1
10
5.50000000031371
20
-1.44227325264433
30
0
41
1
10
5.61848230329422
20
-1.81601483821555
30
0
41
1
10
5.73515943161745
20
-2.16828618451362
30
0
41
1
10
5.8500000003137
20
-2.49871400754304
30
0
0
SPLINE
5
D3
100
AcDbEntity
8
1
62
256
6
ByLayer
370
18
48
1
60
0
100
AcDbSpline
70
4
71
3
72
14
73
10
40
0
40
0
40
0
40
0
40
0.208816024704345
40
0.208816024704345
40
0.416500509870351
40
0.416500509870351
40
0.694250585462992
40
0.694250585462992
40
1
40
1
40
1
40
1
41
1
10
2.11040794747858
20
0.918562043568272
30
0
41
1
10
2.1185689865708
20
0.918884151087866
30
0
41
1
10
2.12695069158805
20
0.918221856048774
30
0
41
1
10
2.1425432826198
20
0.915102847463061
30
0
41
1
10
2.14997045412317
20
0.912628737564916
30
0
41
1
10
2.16542425248678
20
0.905475236263413
30
0
41
1
10
2.17309959055884
20
0.900242293906445
30
0
41
1
10
2.18643812748609
20
0.888209679185508
30
0
41
1
10
2.19201258246666
20
0.881164054217209
30
0
41
1
10
2.19630941496242
20
0.87386314269196
30
0
0
SPLINE
5
D4
100
AcDbEntity
8
1
62
256
6
ByLayer
370
18
48
1
60
0
100
AcDbSpline
70
4
71
3
72
8
73
4
40
0
40
0
40
0
40
0
40
1
40
1
40
1
40
1
41
1
10
5.8500000003137
20
-3.39020561251454
30
0
41
1
10
5.8500000003137
20
-3.09989028959839
30
0
41
1
10
5.8500000003137
20
-2.80272400120194
30
0
41
1
10
5.8500000003137
20
-2.49871400754304
30
0
0
SPLINE
5
D5
100
AcDbEntity
8
1
62
256
6
ByLayer
370
18
48
1
60
0
100
AcDbSpline
70
4
71
3
72
8
73
4
40
0
40
0
40
0
40
0
40
1
40
1
40
1
40
1
41
1
10
0.052916512773595
20
2.54029648018127
30
0
41
0.999987282053348
10
0.0686676806178711
20
2.53938127702619
30
0
41
0.999987282053348
10
0.0843623760688728
20
2.53840147641468
30
0
41
1
10
0.100000000313702
20
2.53735711572995
30
0
0
SPLINE
5
D6
100
AcDbEntity
8
SK1
62
256
6
ByLayer
370
18
48
1
60
0
100
AcDbSpline
70
4
71
3
72
10
73
6
40
0
40
0
40
0
40
0
40
0.499952474403945
40
0.499952474403945
40
1
40
1
40
1
40
1
41
1
10
-0.849999999686287
20
-1.43377293444831
30
0
41
1
10
-0.6915040393916
20
-1.52377003972651
30
0
41
1
10
-0.533083317812907
20
-1.61361473364198
30
0
41
1
10
-0.216408504299193
20
-1.79298836598434
30
0
41
1
10
-0.0581469009588432
20
-1.88252151766022
30
0
41
1
10
0.100000000313702
20
-1.97187783900523
30
0
0
SPLINE
5
D7
100
AcDbEntity
8
1
62
256
6
ByLayer
370
18
48
1
60
0
100
AcDbSpline
70
4
71
3
72
12
73
8
40
0
40
0
40
0
40
0
40
0.611879796013919
40
0.611879796013919
40
0.917819694020879
40
0.917819694020879
40
1
40
1
40
1
40
1
41
1
10
5.50000000032434
20
-7.06738786222945
30
0
41
1
10
5.30517019880533
20
-7.24059149031237
30
0
41
1
10
5.12599095636112
20
-7.36331677602027
30
0
41
1
10
4.87612921707084
20
-7.46897998911609
30
0
41
1
10
4.79597104098549
20
-7.49103159109936
30
0
41
1
10
4.6982106571693
20
-7.50102065731966
30
0
41
1
10
4.67780197868361
20
-7.50210694375778
30
0
41
1
10
4.65767830701178
20
-7.5021560501132
30
0
0
SPLINE
5
D8
100
AcDbEntity
8
SK1
62
256
6
ByLayer
370
18
48
1
60
0
100
AcDbSpline
70
4
71
3
72
8
73
4
40
0
40
0
40
0
40
0
40
1
40
1
40
1
40
1
41
1
10
-0.849999999686287
20
0.0667395819964156
30
0
41
1
10
-0.849999999686287
20
-0.43690225912772
30
0
41
1
10
-0.849999999686287
20
-0.939370771955339
30
0
41
1
10
-0.849999999686287
20
-1.43377293444831
30
0
0
SPLINE
5
D9
100
AcDbEntity
8
1
62
256
6
ByLayer
370
18
48
1
60
0
100
AcDbSpline
70
4
71
3
72
8
73
4
40
0
40
0
40
0
40
0
40
1
40
1
40
1
40
1
41
1
10
3.82598346699364
20
-4.96129115783464
30
0
41
1
10
3.88625716558089
20
-4.46840362483144
30
0
41
1
10
3.92902316469984
20
-3.97407882297949
30
0
41
1
10
3.95153031217997
20
-3.478090900486
30
0
0
SPLINE
5
DA
100
AcDbEntity
8
1
62
256
6
ByLayer
370
18
48
1
60
0
100
AcDbSpline
70
4
71
3
72
20
73
16
40
0
40
0
40
0
40
0
40
0.250000000000001
40
0.250000000000001
40
0.375000000000001
40
0.375000000000001
40
0.437500000000001
40
0.437500000000001
40
0.500000000000001
40
0.500000000000001
40
0.75
40
0.75
40
0.875
40
0.875
40
1
40
1
40
1
40
1
41
1
10
5.50000000032257
20
1.04648369918542
30
0
41
1
10
5.32172884071146
20
0.785087443151298
30
0
41
1
10
5.15658476155717
20
0.490367455149197
30
0
41
1
10
4.92495703398096
20
-0.0016787093645689
30
0
41
1
10
4.85045377398611
20
-0.1740802863483
30
0
41
1
10
4.74249844464059
20
-0.44585517278972
30
0
41
1
10
4.70706988786582
20
-0.53887896552007
30
0
41
1
10
4.63826511802718
20
-0.72718680522533
30
0
41
1
10
4.60479829787709
20
-0.822681237328766
30
0
41
1
10
4.44190780772509
20
-1.30676169789157
30
0
41
1
10
4.32566333177992
20
-1.71494580126804
30
0
41
1
10
4.16986163454995
20
-2.35948758064219
30
0
41
1
10
4.12088237796091
20
-2.58073681804362
30
0
41
1
10
4.03074344706029
20
-3.0261506538242
30
0
41
1
10
3.98937446547068
20
-3.25103057633353
30
0
41
1
10
3.95153031217997
20
-3.478090900486
30
0
0
SPLINE
5
DB
100
AcDbEntity
8
1
62
256
6
ByLayer
370
18
48
1
60
0
100
AcDbSpline
70
4
71
3
72
8
73
4
40
0
40
0
40
0
40
0
40
1
40
1
40
1
40
1
41
1
10
0.100000000313702
20
0.838667687838182
30
0
41
1
10
0.100000000313702
20
0.766673158160728
30
0
41
1
10
0.100000000313702
20
0.694563881165379
30
0
41
1
10
0.100000000313702
20
0.622339655030601
30
0
0
SPLINE
5
DC
100
AcDbEntity
8
1
62
256
6
ByLayer
370
18
48
1
60
0
100
AcDbSpline
70
4
71
3
72
8
73
4
40
0
40
0
40
0
40
0
40
1
40
1
40
1
40
1
41
1
10
0.100000000313702
20
-1.97187783900523
30
0
41
1
10
0.100000000313702
20
-2.57271707734142
30
0
41
1
10
0.100000000313702
20
-3.14710002692985
30
0
41
1
10
0.100000000313702
20
-3.69504044315869
30
0
0
SPLINE
5
DD
100
AcDbEntity
8
1
62
256
6
ByLayer
370
18
48
1
60
0
100
AcDbSpline
70
4
71
3
72
20
73
16
40
0
40
0
40
0
40
0
40
0.25
40
0.25
40
0.3125
40
0.3125
40
0.375
40
0.375
40
0.5
40
0.5
40
0.625
40
0.625
40
0.75
40
0.75
40
1
40
1
40
1
40
1
41
1
10
3.50365073778152
20
-3.478090900486
30
0
41
1
10
3.44374234375498
20
-3.05034363988796
30
0
41
1
10
3.37162781224838
20
-2.63298397269705
30
0
41
1
10
3.26503063467972
20
-2.12390874515165
30
0
41
1
10
3.24287943837719
20
-2.0227316406054
30
0
41
1
10
3.19684574812796
20
-1.82167091789424
30
0
41
1
10
3.17290817171308
20
-1.7215842682119
30
0
41
1
10
3.09916402570527
20
-1.42637700741972
30
0
41
1
10
3.04725094266378
20
-1.23543319777548
30
0
41
1
10
2.93771117695234
20
-0.864834467961884
30
0
41
1
10
2.88008487377501
20
-0.685181178633485
30
0
41
1
10
2.75872462948987
20
-0.337089166092966
30
0
41
1
10
2.69480357443483
20
-0.168199430926961
30
0
41
1
10
2.49424324486823
20
0.31823810458306
30
0
41
1
10
2.35089358756993
20
0.611203295455823
30
0
41
1
10
2.19630941496242
20
0.87386314269196
30
0
0
SPLINE
5
DE
100
AcDbEntity
8
1
62
256
6
ByLayer
370
18
48
1
60
0
100
AcDbSpline
70
4
71
3
72
8
73
4
40
0
40
0
40
0
40
0
40
1
40
1
40
1
40
1
41
1
10
5.50000000031371
20
5.81262397020578
30
0
41
0.968641748978835
10
5.57396951108935
20
5.86346116143779
30
0
41
0.968641748978835
10
5.69441307734041
20
5.93950983543692
30
0
41
1
10
5.8500000003137
20
6.03361573197597
30
0
0
SPLINE
5
DF
100
AcDbEntity
8
1
62
256
6
ByLayer
370
18
48
1
60
0
100
AcDbSpline
70
4
71
3
72
14
73
10
40
0
40
0
40
0
40
0
40
0.404909041701092
40
0.404909041701092
40
0.624355101807759
40
0.624355101807759
40
0.843801161914426
40
0.843801161914426
40
1
40
1
40
1
40
1
41
1
10
1.80346714575255
20
7.84137512527121
30
0
41
1
10
1.5735507313229
20
7.84191715820279
30
0
41
1
10
1.34363431606191
20
7.84245884130297
30
0
41
1
10
0.989111515653735
20
7.84329355884233
30
0
41
1
10
0.864505131091124
20
7.84358683980352
30
0
41
1
10
0.615292361480402
20
7.84417319692889
30
0
41
1
10
0.490685976432235
20
7.8444662730931
30
0
41
1
10
0.277386394321798
20
7.84496778197027
30
0
41
1
10
0.188693197379041
20
7.84517626514099
30
0
41
1
10
0.100000000313702
20
7.84538469654049
30
0
0
SPLINE
5
E0
100
AcDbEntity
8
1
62
256
6
ByLayer
370
18
48
1
60
0
100
AcDbSpline
70
4
71
3
72
8
73
4
40
0
40
0
40
0
40
0
40
1
40
1
40
1
40
1
41
1
10
3.58787400767968
20
-4.96129115783464
30
0
41
1
10
3.5813386327133
20
-5.11579416506939
30
0
41
1
10
3.5770570999289
20
-5.27039151370391
30
0
41
1
10
3.57500000031372
20
-5.42499999995258
30
0
0
SPLINE
5
E1
100
AcDbEntity
8
1
62
256
6
ByLayer
370
18
48
1
60
0
100
AcDbSpline
70
4
71
3
72
12
73
8
40
0
40
0
40
0
40
0
40
0.372155725179403
40
0.372155725179403
40
0.686077862589701
40
0.686077862589701
40
1
40
1
40
1
40
1
41
1
10
2.87529339042341
20
-7.50224069339114
30
0
41
1
10
2.80257451634016
20
-7.50214348554988
30
0
41
1
10
2.72568747626342
20
-7.48587904855591
30
0
41
1
10
2.57571665133419
20
-7.42737755653641
30
0
41
1
10
2.50361769483603
20
-7.38930111871269
30
0
41
1
10
2.35409464410758
20
-7.29196673965697
30
0
41
1
10
2.27665751521765
20
-7.23278905152321
30
0
41
1
10
2.19630941496242
20
-7.16337047340599
30
0
0
SPLINE
5
E2
100
AcDbEntity
8
1
62
256
6
ByLayer
370
18
48
1
60
0
100
AcDbSpline
70
4
71
3
72
10
73
6
40
0
40
0
40
0
40
0
40
0.5
40
0.5
40
1
40
1
40
1
40
1
41
1
10
5.50000000031371
20
1.046483699188
30
0
41
1
10
5.50000000031371
20
0.633687596412102
30
0
41
1
10
5.50000000031371
20
0.219872127026036
30
0
41
1
10
5.50000000031371
20
-0.60971624091016
30
0
41
1
10
5.50000000031371
20
-1.0254892397368
30
0
41
1
10
5.50000000031371
20
-1.44227325264433
30
0
0
SPLINE
5
E3
100
AcDbEntity
8
1
62
256
6
ByLayer
370
18
48
1
60
0
100
AcDbSpline
70
4
71
3
72
8
73
4
40
0
40
0
40
0
40
0
40
1
40
1
40
1
40
1
41
1
10
3.8250000003137
20
-5.42499999995258
30
0
41
1
10
3.82753230141588
20
-5.2704476686705
30
0
41
1
10
3.82787717201664
20
-5.1158512368379
30
0
41
1
10
3.82598346699364
20
-4.96129115783464
30
0
0
SPLINE
5
E4
100
AcDbEntity
8
1
62
256
6
ByLayer
370
18
48
1
60
0
100
AcDbSpline
70
4
71
3
72
18
73
14
40
0
40
0
40
0
40
0
40
0.150337538303723
40
0.150337538303723
40
0.338825853352636
40
0.338825853352636
40
0.52731416755862
40
0.52731416755862
40
0.715802481272312
40
0.715802481272312
40
0.857901240095264
40
0.857901240095264
40
1
40
1
40
1
40
1
41
1
10
5.8500000003137
20
-3.39020561251454
30
0
41
1
10
5.74841920187128
20
-3.49214054412059
30
0
41
1
10
5.64686131005793
20
-3.59408298631615
30
0
41
1
10
5.41801517639972
20
-3.82385122095593
30
0
41
1
10
5.29073749999508
20
-3.951680477341
30
0
41
1
10
5.03622757958447
20
-4.20735386558138
30
0
41
1
10
4.90899537954364
20
-4.33519801380316
30
0
41
1
10
4.65456721091549
20
-4.59089816871642
30
0
41
1
10
4.52737127015858
20
-4.71875418575033
30
0
41
1
10
4.30430979357532
20
-4.94300752649445
30
0
41
1
10
4.20843794662837
20
-5.03940278561555
30
0
41
1
10
4.01670865031444
20
-5.23219801500943
30
0
41
1
10
3.92085120413829
20
-5.32859798657094
30
0
41
1
10
3.8250000003137
20
-5.42499999995258
30
0
0
SPLINE
5
E5
100
AcDbEntity
8
1
62
256
6
ByLayer
370
18
48
1
60
0
100
AcDbSpline
70
4
71
3
72
8
73
4
40
0
40
0
40
0
40
0
40
1
40
1
40
1
40
1
41
1
10
3.50365073778152
20
-3.478090900486
30
0
41
1
10
3.51196526380115
20
-3.97357921429611
30
0
41
1
10
3.54080743932402
20
-4.46793701800252
30
0
41
1
10
3.58787400767968
20
-4.96129115783464
30
0
0
SPLINE
5
E6
100
AcDbEntity
8
1
62
256
6
ByLayer
370
18
48
1
60
0
100
AcDbSpline
70
4
71
3
72
14
73
10
40
0
40
0
40
0
40
0
40
0.208816024704354
40
0.208816024704354
40
0.416500509870352
40
0.416500509870352
40
0.694250585462992
40
0.694250585462992
40
1
40
1
40
1
40
1
41
1
10
2.11040794747858
20
-7.14011357103072
30
0
41
1
10
2.1185689865708
20
-7.13994211732106
30
0
41
1
10
2.12695069158805
20
-7.14029527918245
30
0
41
1
10
2.1425432826198
20
-7.14195226534383
30
0
41
1
10
2.14997045412317
20
-7.14326477730083
30
0
41
1
10
2.1654242524868
20
-7.14703764370188
30
0
41
1
10
2.17309959055884
20
-7.14978293614269
30
0
41
1
10
2.18643812748609
20
-7.15603221583456
30
0
41
1
10
2.19201258246666
20
-7.15965812673647
30
0
41
1
10
2.19630941496242
20
-7.16337047340599
30
0
0
SPLINE
5
E7
100
AcDbEntity
8
1
62
256
6
ByLayer
370
18
48
1
60
0
100
AcDbSpline
70
4
71
3
72
8
73
4
40
0
40
0
40
0
40
0
40
1
40
1
40
1
40
1
41
1
10
5.50000000031371
20
-5.88929357913204
30
0
41
1
10
5.61848230329422
20
-5.49249013547123
30
0
41
1
10
5.73515943161745
20
-5.08160823506503
30
0
41
1
10
5.8500000003137
20
-4.65640310828056
30
0
0
SPLINE
5
E8
100
AcDbEntity
8
1
62
256
6
ByLayer
370
18
48
1
60
0
100
AcDbSpline
70
4
71
3
72
12
73
8
40
0
40
0
40
0
40
0
40
0.346519235022453
40
0.346519235022453
40
0.721854754219698
40
0.721854754219698
40
1
40
1
40
1
40
1
41
1
10
2.11040794747858
20
0.918562043568272
30
0
41
1
10
1.87819745341484
20
0.909396942724186
30
0
41
1
10
1.64598543432884
20
0.900208782686065
30
0
41
1
10
1.16224756855702
20
0.881022849516341
30
0
41
1
10
0.910721434988505
20
0.871021289383378
30
0
41
1
10
0.47279665958975
20
0.853566008285526
30
0
41
1
10
0.286398859811601
20
0.846123159641081
30
0
41
1
10
0.100000000313702
20
0.838667687838182
30
0
0
SPLINE
5
E9
100
AcDbEntity
8
1
62
256
6
ByLayer
370
18
48
1
60
0
100
AcDbSpline
70
4
71
3
72
8
73
4
40
0
40
0
40
0
40
0
40
1
40
1
40
1
40
1
41
1
10
1.88992783216527
20
7.8914655042453
30
0
41
1
10
1.8725393245072
20
7.86089864097153
30
0
41
1
10
1.83873677243342
20
7.84129197636165
30
0
41
1
10
1.80346714575255
20
7.84137512527121
30
0
0
SPLINE
5
EA
100
AcDbEntity
8
1
62
256
6
ByLayer
370
18
48
1
60
0
100
AcDbSpline
70
4
71
3
72
12
73
8
40
0
40
0
40
0
40
0
40
0.346519235022452
40
0.346519235022452
40
0.721854754219698
40
0.721854754219698
40
1
40
1
40
1
40
1
41
1
10
2.11040794747858
20
-7.14011357103072
30
0
41
1
10
1.87819745341484
20
-7.14499203689553
30
0
41
1
10
1.64598543432884
20
-7.14981427419158
30
0
41
1
10
1.16224756855702
20
-7.15974281665694
30
0
41
1
10
0.910721434988505
20
-7.16483939654589
30
0
41
1
10
0.47279665958975
20
-7.17359843779724
30
0
41
1
10
0.286398859811601
20
-7.17729052276223
30
0
41
1
10
0.100000000313702
20
-7.18094660531733
30
0
0
SPLINE
5
EB
100
AcDbEntity
8
1
62
256
6
ByLayer
370
18
48
1
60
0
100
AcDbSpline
70
4
71
3
72
14
73
10
40
0
40
0
40
0
40
0
40
0.404909041701092
40
0.404909041701092
40
0.624355101807758
40
0.624355101807758
40
0.843801161914423
40
0.843801161914423
40
1
40
1
40
1
40
1
41
1
10
1.80346714575255
20
-3.69273186271317
30
0
41
1
10
1.5735507313229
20
-3.69304394760769
30
0
41
1
10
1.34363431606191
20
-3.69335583108071
30
0
41
1
10
0.989111515653764
20
-3.6938364342324
30
0
41
1
10
0.864505131091124
20
-3.69400529585039
30
0
41
1
10
0.615292361480402
20
-3.69434290117096
30
0
41
1
10
0.490685976432235
20
-3.69451164487353
30
0
41
1
10
0.277386394321798
20
-3.69480039733841
30
0
41
1
10
0.188693197379041
20
-3.69492043515265
30
0
41
1
10
0.100000000313702
20
-3.69504044315866
30
0
0
SPLINE
5
EC
100
AcDbEntity
8
1
62
256
6
ByLayer
370
18
48
1
60
0
100
AcDbSpline
70
4
71
3
72
18
73
14
40
0
40
0
40
0
40
0
40
0.235866246083776
40
0.235866246083776
40
0.353799368711462
40
0.353799368711462
40
0.589665615695948
40
0.589665615695948
40
0.707598738419722
40
0.707598738419722
40
0.825531861232496
40
0.825531861232496
40
1
40
1
40
1
40
1
41
1
10
3.57500000031372
20
-5.42499999995258
30
0
41
1
10
3.44242719068474
20
-5.29110191331293
30
0
41
1
10
3.30986954876854
20
-5.157198885486
30
0
41
1
10
3.11106089255579
20
-4.9563352899155
30
0
41
1
10
3.04479598825525
20
-4.88937924463929
30
0
41
1
10
2.84601676674847
20
-4.68850606498037
30
0
41
1
10
2.71351784297049
20
-4.55458391797879
30
0
41
1
10
2.51480799898947
20
-4.35368815688162
30
0
41
1
10
2.44857783033341
20
-4.28672080558761
30
0
41
1
10
2.31613199521287
20
-4.15278138535692
30
0
41
1
10
2.24991632663437
20
-4.08580931675678
30
0
41
1
10
2.08576270607005
20
-3.91975336944037
30
0
41
1
10
1.98783444344754
20
-3.82066633835186
30
0
41
1
10
1.88992783216527
20
-3.7215722702384
30
0
0
SPLINE
5
ED
100
AcDbEntity
8
1
62
256
6
ByLayer
370
18
48
1
60
0
100
AcDbSpline
70
4
71
3
72
14
73
10
40
0
40
0
40
0
40
0
40
0.404909041701092
40
0.404909041701092
40
0.624355101807758
40
0.624355101807758
40
0.843801161914423
40
0.843801161914423
40
1
40
1
40
1
40
1
41
1
10
1.80346714575255
20
-3.69273186271317
30
0
41
1
10
1.5735507313229
20
-3.69304394760769
30
0
41
1
10
1.34363431606191
20
-3.69335583108071
30
0
41
1
10
0.989111515653764
20
-3.6938364342324
30
0
41
1
10
0.864505131091124
20
-3.69400529585039
30
0
41
1
10
0.615292361480402
20
-3.69434290117096
30
0
41
1
10
0.490685976432235
20
-3.69451164487353
30
0
41
1
10
0.277386394321798
20
-3.69480039733841
30
0
41
1
10
0.188693197379041
20
-3.69492043515265
30
0
41
1
10
0.100000000313702
20
-3.69504044315866
30
0
0
SPLINE
5
EE
100
AcDbEntity
8
1
62
256
6
ByLayer
370
18
48
1
60
0
100
AcDbSpline
70
4
71
3
72
8
73
4
40
0
40
0
40
0
40
0
40
1
40
1
40
1
40
1
41
1
10
3.8250000003137
20
-5.42499999995258
30
0
41
1
10
3.82753230141588
20
-5.2704476686705
30
0
41
1
10
3.82787717201664
20
-5.1158512368379
30
0
41
1
10
3.82598346699364
20
-4.96129115783464
30
0
0
SPLINE
5
EF
100
AcDbEntity
8
1
62
256
6
ByLayer
370
18
48
1
60
0
100
AcDbSpline
70
4
71
3
72
8
73
4
40
0
40
0
40
0
40
0
40
1
40
1
40
1
40
1
41
1
10
3.58787400767968
20
-4.96129115783464
30
0
41
1
10
3.5813386327133
20
-5.11579416506939
30
0
41
1
10
3.5770570999289
20
-5.27039151370391
30
0
41
1
10
3.57500000031372
20
-5.42499999995258
30
0
0
SPLINE
5
F0
100
AcDbEntity
8
1
62
256
6
ByLayer
370
18
48
1
60
0
100
AcDbSpline
70
4
71
3
72
8
73
4
40
0
40
0
40
0
40
0
40
1
40
1
40
1
40
1
41
1
10
3.82598346699364
20
-4.96129115783464
30
0
41
1
10
3.88625716558089
20
-4.46840362483144
30
0
41
1
10
3.92902316469984
20
-3.97407882297949
30
0
41
1
10
3.95153031217997
20
-3.478090900486
30
0
0
SPLINE
5
F1
100
AcDbEntity
8
1
62
256
6
ByLayer
370
18
48
1
60
0
100
AcDbSpline
70
4
71
3
72
8
73
4
40
0
40
0
40
0
40
0
40
1
40
1
40
1
40
1
41
1
10
3.50365073778152
20
-3.478090900486
30
0
41
1
10
3.51196526380115
20
-3.97357921429611
30
0
41
1
10
3.54080743932402
20
-4.46793701800252
30
0
41
1
10
3.58787400767968
20
-4.96129115783464
30
0
0
SPLINE
5
F2
100
AcDbEntity
8
1
62
256
6
ByLayer
370
18
48
1
60
0
100
AcDbSpline
70
4
71
3
72
8
73
4
40
0
40
0
40
0
40
0
40
1
40
1
40
1
40
1
41
1
10
1.88992783216527
20
7.8914655042453
30
0
41
1
10
1.8725393245072
20
7.86089864097153
30
0
41
1
10
1.83873677243342
20
7.84129197636165
30
0
41
1
10
1.80346714575255
20
7.84137512527121
30
0
0
SPLINE
5
F3
100
AcDbEntity
8
1
62
256
6
ByLayer
370
18
48
1
60
0
100
AcDbSpline
70
4
71
3
72
14
73
10
40
0
40
0
40
0
40
0
40
0.404909041701092
40
0.404909041701092
40
0.624355101807759
40
0.624355101807759
40
0.843801161914426
40
0.843801161914426
40
1
40
1
40
1
40
1
41
1
10
1.80346714575255
20
7.84137512527121
30
0
41
1
10
1.5735507313229
20
7.84191715820279
30
0
41
1
10
1.34363431606191
20
7.84245884130297
30
0
41
1
10
0.989111515653735
20
7.84329355884233
30
0
41
1
10
0.864505131091124
20
7.84358683980352
30
0
41
1
10
0.615292361480402
20
7.84417319692889
30
0
41
1
10
0.490685976432235
20
7.8444662730931
30
0
41
1
10
0.277386394321798
20
7.84496778197027
30
0
41
1
10
0.188693197379041
20
7.84517626514099
30
0
41
1
10
0.100000000313702
20
7.84538469654049
30
0
0
SPLINE
5
F4
100
AcDbEntity
8
1
62
256
6
ByLayer
370
18
48
1
60
0
100
AcDbSpline
70
4
71
3
72
8
73
4
40
0
40
0
40
0
40
0
40
1
40
1
40
1
40
1
41
1
10
5.50000000031371
20
5.81262397020578
30
0
41
0.968641748978835
10
5.57396951108935
20
5.86346116143779
30
0
41
0.968641748978835
10
5.69441307734041
20
5.93950983543692
30
0
41
1
10
5.8500000003137
20
6.03361573197597
30
0
0
SPLINE
5
F5
100
AcDbEntity
8
1
62
256
6
ByLayer
370
18
48
1
60
0
100
AcDbSpline
70
4
71
3
72
12
73
8
40
0
40
0
40
0
40
0
40
0.372155725179403
40
0.372155725179403
40
0.686077862589701
40
0.686077862589701
40
1
40
1
40
1
40
1
41
1
10
2.87529339042341
20
-7.50224069339114
30
0
41
1
10
2.80257451634016
20
-7.50214348554988
30
0
41
1
10
2.72568747626342
20
-7.48587904855591
30
0
41
1
10
2.57571665133419
20
-7.42737755653641
30
0
41
1
10
2.50361769483603
20
-7.38930111871269
30
0
41
1
10
2.35409464410758
20
-7.29196673965697
30
0
41
1
10
2.27665751521765
20
-7.23278905152321
30
0
41
1
10
2.19630941496242
20
-7.16337047340599
30
0
0
SPLINE
5
F6
100
AcDbEntity
8
1
62
256
6
ByLayer
370
18
48
1
60
0
100
AcDbSpline
70
4
71
3
72
12
73
8
40
0
40
0
40
0
40
0
40
0.611879796013919
40
0.611879796013919
40
0.917819694020879
40
0.917819694020879
40
1
40
1
40
1
40
1
41
1
10
5.50000000032434
20
-7.06738786222945
30
0
41
1
10
5.30517019880533
20
-7.24059149031237
30
0
41
1
10
5.12599095636112
20
-7.36331677602027
30
0
41
1
10
4.87612921707084
20
-7.46897998911609
30
0
41
1
10
4.79597104098549
20
-7.49103159109936
30
0
41
1
10
4.6982106571693
20
-7.50102065731966
30
0
41
1
10
4.67780197868361
20
-7.50210694375778
30
0
41
1
10
4.65767830701178
20
-7.5021560501132
30
0
0
SPLINE
5
F7
100
AcDbEntity
8
1
62
256
6
ByLayer
370
18
48
1
60
0
100
AcDbSpline
70
4
71
3
72
12
73
8
40
0
40
0
40
0
40
0
40
0.346519235022452
40
0.346519235022452
40
0.721854754219698
40
0.721854754219698
40
1
40
1
40
1
40
1
41
1
10
2.11040794747858
20
-7.14011357103072
30
0
41
1
10
1.87819745341484
20
-7.14499203689553
30
0
41
1
10
1.64598543432884
20
-7.14981427419158
30
0
41
1
10
1.16224756855702
20
-7.15974281665694
30
0
41
1
10
0.910721434988505
20
-7.16483939654589
30
0
41
1
10
0.47279665958975
20
-7.17359843779724
30
0
41
1
10
0.286398859811601
20
-7.17729052276223
30
0
41
1
10
0.100000000313702
20
-7.18094660531733
30
0
0
SPLINE
5
F8
100
AcDbEntity
8
SK1
62
256
6
ByLayer
370
18
48
1
60
0
100
AcDbSpline
70
4
71
3
72
12
73
8
40
0
40
0
40
0
40
0
40
0.0663787197010714
40
0.0663787197010714
40
0.632580601029829
40
0.632580601029829
40
1
40
1
40
1
40
1
41
1
10
0.100000000313702
20
-7.08998986743237
30
0
41
1
10
0.0790264023779514
20
-7.0853879899413
30
0
41
1
10
0.0580492030258767
20
-7.0807562615515
30
0
41
1
10
-0.141883370024016
20
-7.03633505809995
30
0
41
1
10
-0.321102111871323
20
-6.99440636660313
30
0
41
1
10
-0.616923766013468
20
-6.92176311868278
30
0
41
1
10
-0.733429531958433
20
-6.89227701796787
30
0
41
1
10
-0.849999999686287
20
-6.86190318329378
30
0
0
SPLINE
5
F9
100
AcDbEntity
8
SK1
62
256
6
ByLayer
370
18
48
1
60
0
100
AcDbSpline
70
4
71
3
72
8
73
4
40
0
40
0
40
0
40
0
40
1
40
1
40
1
40
1
41
1
10
0.100000000313702
20
1.43670392246247
30
0
41
0.995367914351891
10
-0.199300731102447
20
1.60275077808779
30
0
41
0.995367914351891
10
-0.517441050978895
20
1.75431856274564
30
0
41
1
10
-0.849999999686287
20
1.88930105155592
30
0
0
SPLINE
5
FA
100
AcDbEntity
8
SK1
62
256
6
ByLayer
370
18
48
1
60
0
100
AcDbSpline
70
4
71
3
72
8
73
4
40
0
40
0
40
0
40
0
40
1
40
1
40
1
40
1
41
1
10
-0.849999999686287
20
-1.56320628552402
30
0
41
0.999419179047845
10
-0.808469200364027
20
-1.54337625381687
30
0
41
0.998911187702932
10
-0.767122058332556
20
-1.5233161868166
30
0
41
0.99847602596526
10
-0.725967901584729
20
-1.50303012301033
30
0
0
SPLINE
5
FB
100
AcDbEntity
8
1
62
256
6
ByLayer
370
18
48
1
60
0
100
AcDbSpline
70
4
71
3
72
8
73
4
40
0
40
0
40
0
40
0
40
1
40
1
40
1
40
1
41
1
10
5.50000000031371
20
-5.88929357913204
30
0
41
1
10
5.61848230329422
20
-5.49249013547123
30
0
41
1
10
5.73515943161745
20
-5.08160823506503
30
0
41
1
10
5.8500000003137
20
-4.65640310828056
30
0
0
SPLINE
5
FC
100
AcDbEntity
8
SK1
62
256
6
ByLayer
370
18
48
1
60
0
100
AcDbSpline
70
4
71
3
72
12
73
8
40
0
40
0
40
0
40
0
40
0.256563270863955
40
0.256563270863955
40
0.981041399531221
40
0.981041399531221
40
1
40
1
40
1
40
1
41
1
10
-0.849999999686287
20
7.42022753058404
30
0
41
1
10
-0.768662969786175
20
7.43387079675324
30
0
41
1
10
-0.687346243676171
20
7.44721023381572
30
0
41
1
10
-0.376503373288426
20
7.49704844167272
30
0
41
1
10
-0.147124712587879
20
7.53142022115111
30
0
41
1
10
0.0880075629014697
20
7.5641493766588
30
0
41
1
10
0.0940038614671607
20
7.56498235534121
30
0
41
1
10
0.100000000313702
20
7.56581363704765
30
0
0
SPLINE
5
FD
100
AcDbEntity
8
1
62
256
6
ByLayer
370
18
48
1
60
0
100
AcDbSpline
70
4
71
3
72
14
73
10
40
0
40
0
40
0
40
0
40
0.208816024704345
40
0.208816024704345
40
0.416500509870351
40
0.416500509870351
40
0.694250585462992
40
0.694250585462992
40
1
40
1
40
1
40
1
41
1
10
2.11040794747858
20
0.918562043568272
30
0
41
1
10
2.1185689865708
20
0.918884151087866
30
0
41
1
10
2.12695069158805
20
0.918221856048774
30
0
41
1
10
2.1425432826198
20
0.915102847463061
30
0
41
1
10
2.14997045412317
20
0.912628737564916
30
0
41
1
10
2.16542425248678
20
0.905475236263413
30
0
41
1
10
2.17309959055884
20
0.900242293906445
30
0
41
1
10
2.18643812748609
20
0.888209679185508
30
0
41
1
10
2.19201258246666
20
0.881164054217209
30
0
41
1
10
2.19630941496242
20
0.87386314269196
30
0
0
SPLINE
5
FE
100
AcDbEntity
8
1
62
256
6
ByLayer
370
18
48
1
60
0
100
AcDbSpline
70
4
71
3
72
10
73
6
40
0
40
0
40
0
40
0
40
0.5
40
0.5
40
1
40
1
40
1
40
1
41
1
10
5.50000000031371
20
1.046483699188
30
0
41
1
10
5.50000000031371
20
0.633687596412102
30
0
41
1
10
5.50000000031371
20
0.219872127026036
30
0
41
1
10
5.50000000031371
20
-0.60971624091016
30
0
41
1
10
5.50000000031371
20
-1.0254892397368
30
0
41
1
10
5.50000000031371
20
-1.44227325264433
30
0
0
SPLINE
5
FF
100
AcDbEntity
8
1
62
256
6
ByLayer
370
18
48
1
60
0
100
AcDbSpline
70
4
71
3
72
20
73
16
40
0
40
0
40
0
40
0
40
0.25
40
0.25
40
0.3125
40
0.3125
40
0.375
40
0.375
40
0.5
40
0.5
40
0.625
40
0.625
40
0.75
40
0.75
40
1
40
1
40
1
40
1
41
1
10
3.50365073778152
20
-3.478090900486
30
0
41
1
10
3.44374234375498
20
-3.05034363988796
30
0
41
1
10
3.37162781224838
20
-2.63298397269705
30
0
41
1
10
3.26503063467972
20
-2.12390874515165
30
0
41
1
10
3.24287943837719
20
-2.0227316406054
30
0
41
1
10
3.19684574812796
20
-1.82167091789424
30
0
41
1
10
3.17290817171308
20
-1.7215842682119
30
0
41
1
10
3.09916402570527
20
-1.42637700741972
30
0
41
1
10
3.04725094266378
20
-1.23543319777548
30
0
41
1
10
2.93771117695234
20
-0.864834467961884
30
0
41
1
10
2.88008487377501
20
-0.685181178633485
30
0
41
1
10
2.75872462948987
20
-0.337089166092966
30
0
41
1
10
2.69480357443483
20
-0.168199430926961
30
0
41
1
10
2.49424324486823
20
0.31823810458306
30
0
41
1
10
2.35089358756993
20
0.611203295455823
30
0
41
1
10
2.19630941496242
20
0.87386314269196
30
0
0
SPLINE
5
100
100
AcDbEntity
8
1
62
256
6
ByLayer
370
18
48
1
60
0
100
AcDbSpline
70
4
71
3
72
12
73
8
40
0
40
0
40
0
40
0
40
0.346519235022453
40
0.346519235022453
40
0.721854754219698
40
0.721854754219698
40
1
40
1
40
1
40
1
41
1
10
2.11040794747858
20
0.918562043568272
30
0
41
1
10
1.87819745341484
20
0.909396942724186
30
0
41
1
10
1.64598543432884
20
0.900208782686065
30
0
41
1
10
1.16224756855702
20
0.881022849516341
30
0
41
1
10
0.910721434988505
20
0.871021289383378
30
0
41
1
10
0.47279665958975
20
0.853566008285526
30
0
41
1
10
0.286398859811601
20
0.846123159641081
30
0
41
1
10
0.100000000313702
20
0.838667687838182
30
0
0
SPLINE
5
101
100
AcDbEntity
8
1
62
256
6
ByLayer
370
18
48
1
60
0
100
AcDbSpline
70
4
71
3
72
8
73
4
40
0
40
0
40
0
40
0
40
1
40
1
40
1
40
1
41
1
10
0.100000000313702
20
0.838667687838182
30
0
41
1
10
0.100000000313702
20
0.766673158160728
30
0
41
1
10
0.100000000313702
20
0.694563881165379
30
0
41
1
10
0.100000000313702
20
0.622339655030601
30
0
0
SPLINE
5
102
100
AcDbEntity
8
SK1
62
256
6
ByLayer
370
18
48
1
60
0
100
AcDbSpline
70
4
71
3
72
10
73
6
40
0
40
0
40
0
40
0
40
0.499883752774941
40
0.499883752774941
40
1
40
1
40
1
40
1
41
1
10
0.100000000313702
20
0.622339655030601
30
0
41
1
10
-0.0579393206031796
20
0.529622591373879
30
0
41
1
10
-0.21609074344222
20
0.436956323972879
30
0
41
1
10
-0.532776602762181
20
0.251745942109125
30
0
41
1
10
-0.691329602230906
20
0.159191133370143
30
0
41
1
10
-0.849999999686287
20
0.0667395819964156
30
0
0
SPLINE
5
103
100
AcDbEntity
8
1
62
256
6
ByLayer
370
18
48
1
60
0
100
AcDbSpline
70
4
71
3
72
8
73
4
40
0
40
0
40
0
40
0
40
1
40
1
40
1
40
1
41
1
10
0.100000000313702
20
-1.97187783900523
30
0
41
1
10
0.100000000313702
20
-2.57271707734142
30
0
41
1
10
0.100000000313702
20
-3.14710002692985
30
0
41
1
10
0.100000000313702
20
-3.69504044315869
30
0
0
SPLINE
5
104
100
AcDbEntity
8
1
62
256
6
ByLayer
370
18
48
1
60
0
100
AcDbSpline
70
4
71
3
72
8
73
4
40
0
40
0
40
0
40
0
40
1
40
1
40
1
40
1
41
1
10
5.8500000003137
20
-3.39020561251454
30
0
41
1
10
5.8500000003137
20
-3.09989028959839
30
0
41
1
10
5.8500000003137
20
-2.80272400120194
30
0
41
1
10
5.8500000003137
20
-2.49871400754304
30
0
0
SPLINE
5
105
100
AcDbEntity
8
1
62
256
6
ByLayer
370
18
48
1
60
0
100
AcDbSpline
70
4
71
3
72
20
73
16
40
0
40
0
40
0
40
0
40
0.250000000000001
40
0.250000000000001
40
0.375000000000001
40
0.375000000000001
40
0.437500000000001
40
0.437500000000001
40
0.500000000000001
40
0.500000000000001
40
0.75
40
0.75
40
0.875
40
0.875
40
1
40
1
40
1
40
1
41
1
10
5.50000000032257
20
1.04648369918542
30
0
41
1
10
5.32172884071146
20
0.785087443151298
30
0
41
1
10
5.15658476155717
20
0.490367455149197
30
0
41
1
10
4.92495703398096
20
-0.0016787093645689
30
0
41
1
10
4.85045377398611
20
-0.1740802863483
30
0
41
1
10
4.74249844464059
20
-0.44585517278972
30
0
41
1
10
4.70706988786582
20
-0.53887896552007
30
0
41
1
10
4.63826511802718
20
-0.72718680522533
30
0
41
1
10
4.60479829787709
20
-0.822681237328766
30
0
41
1
10
4.44190780772509
20
-1.30676169789157
30
0
41
1
10
4.32566333177992
20
-1.71494580126804
30
0
41
1
10
4.16986163454995
20
-2.35948758064219
30
0
41
1
10
4.12088237796091
20
-2.58073681804362
30
0
41
1
10
4.03074344706029
20
-3.0261506538242
30
0
41
1
10
3.98937446547068
20
-3.25103057633353
30
0
41
1
10
3.95153031217997
20
-3.478090900486
30
0
0
SPLINE
5
106
100
AcDbEntity
8
SK1
62
256
6
ByLayer
370
18
48
1
60
0
100
AcDbSpline
70
4
71
3
72
8
73
4
40
0
40
0
40
0
40
0
40
1
40
1
40
1
40
1
41
1
10
0.0529165127735666
20
-2.54029648008662
30
0
41
0.995839868711987
10
-0.232701923265656
20
-2.52370095546301
30
0
41
0.995839868711987
10
-0.534931408422951
20
-2.48605098255044
30
0
41
1
10
-0.849999999686287
20
-2.42781644783989
30
0
0
SPLINE
5
107
100
AcDbEntity
8
1
62
256
6
ByLayer
370
18
48
1
60
0
100
AcDbSpline
70
4
71
3
72
14
73
10
40
0
40
0
40
0
40
0
40
0.208816024704354
40
0.208816024704354
40
0.416500509870352
40
0.416500509870352
40
0.694250585462992
40
0.694250585462992
40
1
40
1
40
1
40
1
41
1
10
2.11040794747858
20
-7.14011357103072
30
0
41
1
10
2.1185689865708
20
-7.13994211732106
30
0
41
1
10
2.12695069158805
20
-7.14029527918245
30
0
41
1
10
2.1425432826198
20
-7.14195226534383
30
0
41
1
10
2.14997045412317
20
-7.14326477730083
30
0
41
1
10
2.1654242524868
20
-7.14703764370188
30
0
41
1
10
2.17309959055884
20
-7.14978293614269
30
0
41
1
10
2.18643812748609
20
-7.15603221583456
30
0
41
1
10
2.19201258246666
20
-7.15965812673647
30
0
41
1
10
2.19630941496242
20
-7.16337047340599
30
0
0
SPLINE
5
108
100
AcDbEntity
8
1
62
256
6
ByLayer
370
18
48
1
60
0
100
AcDbSpline
70
4
71
3
72
18
73
14
40
0
40
0
40
0
40
0
40
0.150337538303723
40
0.150337538303723
40
0.338825853352636
40
0.338825853352636
40
0.52731416755862
40
0.52731416755862
40
0.715802481272312
40
0.715802481272312
40
0.857901240095264
40
0.857901240095264
40
1
40
1
40
1
40
1
41
1
10
5.8500000003137
20
-3.39020561251454
30
0
41
1
10
5.74841920187128
20
-3.49214054412059
30
0
41
1
10
5.64686131005793
20
-3.59408298631615
30
0
41
1
10
5.41801517639972
20
-3.82385122095593
30
0
41
1
10
5.29073749999508
20
-3.951680477341
30
0
41
1
10
5.03622757958447
20
-4.20735386558138
30
0
41
1
10
4.90899537954364
20
-4.33519801380316
30
0
41
1
10
4.65456721091549
20
-4.59089816871642
30
0
41
1
10
4.52737127015858
20
-4.71875418575033
30
0
41
1
10
4.30430979357532
20
-4.94300752649445
30
0
41
1
10
4.20843794662837
20
-5.03940278561555
30
0
41
1
10
4.01670865031444
20
-5.23219801500943
30
0
41
1
10
3.92085120413829
20
-5.32859798657094
30
0
41
1
10
3.8250000003137
20
-5.42499999995258
30
0
0
SPLINE
5
109
100
AcDbEntity
8
1
62
256
6
ByLayer
370
18
48
1
60
0
100
AcDbSpline
70
4
71
3
72
18
73
14
40
0
40
0
40
0
40
0
40
0.235866246083776
40
0.235866246083776
40
0.353799368711462
40
0.353799368711462
40
0.589665615695948
40
0.589665615695948
40
0.707598738419722
40
0.707598738419722
40
0.825531861232496
40
0.825531861232496
40
1
40
1
40
1
40
1
41
1
10
3.57500000031372
20
-5.42499999995258
30
0
41
1
10
3.44242719068474
20
-5.29110191331293
30
0
41
1
10
3.30986954876854
20
-5.157198885486
30
0
41
1
10
3.11106089255579
20
-4.9563352899155
30
0
41
1
10
3.04479598825525
20
-4.88937924463929
30
0
41
1
10
2.84601676674847
20
-4.68850606498037
30
0
41
1
10
2.71351784297049
20
-4.55458391797879
30
0
41
1
10
2.51480799898947
20
-4.35368815688162
30
0
41
1
10
2.44857783033341
20
-4.28672080558761
30
0
41
1
10
2.31613199521287
20
-4.15278138535692
30
0
41
1
10
2.24991632663437
20
-4.08580931675678
30
0
41
1
10
2.08576270607005
20
-3.91975336944037
30
0
41
1
10
1.98783444344754
20
-3.82066633835186
30
0
41
1
10
1.88992783216527
20
-3.7215722702384
30
0
0
SPLINE
5
10A
100
AcDbEntity
8
1
62
256
6
ByLayer
370
18
48
1
60
0
100
AcDbSpline
70
4
71
3
72
8
73
4
40
0
40
0
40
0
40
0
40
1
40
1
40
1
40
1
41
1
10
5.50000000031371
20
-1.44227325264433
30
0
41
1
10
5.61848230329422
20
-1.81601483821555
30
0
41
1
10
5.73515943161745
20
-2.16828618451362
30
0
41
1
10
5.8500000003137
20
-2.49871400754304
30
0
0
SPLINE
5
10B
100
AcDbEntity
8
SK1
62
256
6
ByLayer
370
18
48
1
60
0
100
AcDbSpline
70
4
71
3
72
8
73
4
40
0
40
0
40
0
40
0
40
1
40
1
40
1
40
1
41
1
10
0.100000000313702
20
1.10614423765401
30
0
41
0.995367914351891
10
-0.199300731102447
20
0.925055312800275
30
0
41
0.995367914351891
10
-0.517441050978895
20
0.734965185306172
30
0
41
1
10
-0.849999999686287
20
0.538515396425908
30
0
0
SPLINE
5
10C
100
AcDbEntity
8
SK1
62
256
6
ByLayer
370
18
48
1
60
0
100
AcDbSpline
70
4
71
3
72
8
73
4
40
0
40
0
40
0
40
0
40
1
40
1
40
1
40
1
41
1
10
-0.849999999686287
20
2.52635658718054
30
0
41
0.995839868711987
10
-0.534931408422958
20
2.55222596245587
30
0
41
0.995839868711987
10
-0.232701923265634
20
2.55689200480485
30
0
41
1
10
0.052916512773595
20
2.54029648018127
30
0
0
SPLINE
5
10D
100
AcDbEntity
8
1
62
256
6
ByLayer
370
18
48
1
60
0
100
AcDbSpline
70
4
71
3
72
8
73
4
40
0
40
0
40
0
40
0
40
1
40
1
40
1
40
1
41
1
10
0.052916512773595
20
2.54029648018127
30
0
41
0.999987282053348
10
0.0686676806178711
20
2.53938127702619
30
0
41
0.999987282053348
10
0.0843623760688728
20
2.53840147641468
30
0
41
1
10
0.100000000313702
20
2.53735711572995
30
0
0
LINE
5
74
100
AcDbEntity
8
1
62
256
6
ByLayer
370
18
48
1
60
0
100
AcDbLine
10
2.861408
20
-7.502152
30
0
11
4.659126
21
-7.502152
31
0
39
0
210
0
220
0
230
1
0
LINE
5
75
100
AcDbEntity
8
1
62
256
6
ByLayer
370
18
48
1
60
0
100
AcDbLine
10
2.861408
20
-7.502152
30
0
11
4.659126
21
-7.502152
31
0
39
0
210
0
220
0
230
1
0
LINE
5
76
100
AcDbEntity
8
1
62
256
6
ByLayer
370
18
48
1
60
0
100
AcDbLine
10
0.1
20
6.292788
30
0
11
0.1
21
7.845388
31
0
39
0
210
0
220
0
230
1
0
LINE
5
77
100
AcDbEntity
8
1
62
256
6
ByLayer
370
18
48
1
60
0
100
AcDbLine
10
0.1
20
-3.907761
30
0
11
0.1
21
-5.740555
31
0
39
0
210
0
220
0
230
1
0
LINE
5
78
100
AcDbEntity
8
1
62
256
6
ByLayer
370
18
48
1
60
0
100
AcDbLine
10
5.85
20
-4.06798
30
0
11
5.85
21
-3.321422
31
0
39
0
210
0
220
0
230
1
0
LINE
5
79
100
AcDbEntity
8
1
62
256
6
ByLayer
370
18
48
1
60
0
100
AcDbLine
10
5.5
20
-5.152166
30
0
11
5.85
21
-4.06798
31
0
39
0
210
0
220
0
230
1
0
LINE
5
7A
100
AcDbEntity
8
1
62
256
6
ByLayer
370
18
48
1
60
0
100
AcDbLine
10
0.1
20
5.749273
30
0
11
0.1
21
3.155578
31
0
39
0
210
0
220
0
230
1
0
LINE
5
7B
100
AcDbEntity
8
1
62
256
6
ByLayer
370
18
48
1
60
0
100
AcDbLine
10
5.85
20
7.315944
30
0
11
5.85
21
6.292788
31
0
39
0
210
0
220
0
230
1
0
LINE
5
7C
100
AcDbEntity
8
1
62
256
6
ByLayer
370
18
48
1
60
0
100
AcDbLine
10
5.5
20
-0.864413
30
0
11
5.85
21
-2.037429
31
0
39
0
210
0
220
0
230
1
0
LINE
5
7D
100
AcDbEntity
8
1
62
256
6
ByLayer
370
18
48
1
60
0
100
AcDbLine
10
3.825
20
-5.425
30
0
11
3.575
21
-5.425
31
0
39
0
210
0
220
0
230
1
0
LINE
5
7E
100
AcDbEntity
8
1
62
256
6
ByLayer
370
13
48
1
60
0
100
AcDbLine
10
5.5
20
-6.939999
30
0
11
0.1
21
-6.939999
31
0
39
0
210
0
220
0
230
1
0
LINE
5
7F
100
AcDbEntity
8
1
62
256
6
ByLayer
370
13
48
1
60
0
100
AcDbLine
10
5.5
20
-5.740555
30
0
11
0.1
21
-5.740555
31
0
39
0
210
0
220
0
230
1
0
LINE
5
80
100
AcDbEntity
8
1
62
256
6
ByLayer
370
18
48
1
60
0
100
AcDbLine
10
0.1
20
1.236843
30
0
11
0.1
21
0.838668
31
0
39
0
210
0
220
0
230
1
0
LINE
5
81
100
AcDbEntity
8
1
62
256
6
ByLayer
370
13
48
1
60
0
100
AcDbLine
10
5.5
20
3.155578
30
0
11
0.1
21
3.155578
31
0
39
0
210
0
220
0
230
1
0
LINE
5
82
100
AcDbEntity
8
1
62
256
6
ByLayer
370
18
48
1
60
0
100
AcDbLine
10
0.1
20
5.749273
30
0
11
0.1
21
6.292788
31
0
39
0
210
0
220
0
230
1
0
LINE
5
83
100
AcDbEntity
8
1
62
256
6
ByLayer
370
18
48
1
60
0
100
AcDbLine
10
5.5
20
5.749273
30
0
11
5.5
21
3.155578
31
0
39
0
210
0
220
0
230
1
0
LINE
5
84
100
AcDbEntity
8
1
62
256
6
ByLayer
370
18
48
1
60
0
100
AcDbLine
10
3.825
20
10.85
30
0
11
3.575
21
10.85
31
0
39
0
210
0
220
0
230
1
0
LINE
5
85
100
AcDbEntity
8
1
62
256
6
ByLayer
370
18
48
1
60
0
100
AcDbLine
10
3.95153
20
-3.478091
30
0
11
3.503651
21
-3.478091
31
0
39
0
210
0
220
0
230
1
0
LINE
5
86
100
AcDbEntity
8
1
62
256
6
ByLayer
370
18
48
1
60
0
100
AcDbLine
10
5.85
20
-4.656403
30
0
11
5.85
21
-4.06798
31
0
39
0
210
0
220
0
230
1
0
LINE
5
87
100
AcDbEntity
8
1
62
256
6
ByLayer
370
18
48
1
60
0
100
AcDbLine
10
5.5
20
-5.740555
30
0
11
5.5
21
-5.924654
31
0
39
0
210
0
220
0
230
1
0
LINE
5
88
100
AcDbEntity
8
1
62
256
6
ByLayer
370
18
48
1
60
0
100
AcDbLine
10
5.5
20
-3.794317
30
0
11
5.5
21
-5.740555
31
0
39
0
210
0
220
0
230
1
0
LINE
5
89
100
AcDbEntity
8
1
62
256
6
ByLayer
370
18
48
1
60
0
100
AcDbLine
10
0.1
20
-5.924654
30
0
11
0.1
21
-6.939999
31
0
39
0
210
0
220
0
230
1
0
LINE
5
8A
100
AcDbEntity
8
1
62
256
6
ByLayer
370
13
48
1
60
0
100
AcDbLine
10
0.1
20
6.292788
30
0
11
5.85
21
6.292788
31
0
39
0
210
0
220
0
230
1
0
LINE
5
8B
100
AcDbEntity
8
1
62
256
6
ByLayer
370
18
48
1
60
0
100
AcDbLine
10
5.5
20
-6.939999
30
0
11
5.5
21
-7.067388
31
0
39
0
210
0
220
0
230
1
0
LINE
5
8C
100
AcDbEntity
8
1
62
256
6
ByLayer
370
18
48
1
60
0
100
AcDbLine
10
3.825983
20
-4.961291
30
0
11
3.587874
21
-4.961291
31
0
39
0
210
0
220
0
230
1
0
LINE
5
8D
100
AcDbEntity
8
1
62
256
6
ByLayer
370
13
48
1
60
0
100
AcDbLine
10
5.5
20
1.236843
30
0
11
0.1
21
1.236843
31
0
39
0
210
0
220
0
230
1
0
LINE
5
8E
100
AcDbEntity
8
1
62
256
6
ByLayer
370
18
48
1
60
0
100
AcDbLine
10
5.5
20
-5.924654
30
0
11
5.5
21
-6.939999
31
0
39
0
210
0
220
0
230
1
0
LINE
5
8F
100
AcDbEntity
8
1
62
256
6
ByLayer
370
13
48
1
60
0
100
AcDbLine
10
5.5
20
2.614866
30
0
11
0.1
21
2.614866
31
0
39
0
210
0
220
0
230
1
0
LINE
5
90
100
AcDbEntity
8
1
62
256
6
ByLayer
370
13
48
1
60
0
100
AcDbLine
10
5.5
20
-5.924654
30
0
11
0.1
21
-5.924654
31
0
39
0
210
0
220
0
230
1
0
LINE
5
91
100
AcDbEntity
8
1
62
256
6
ByLayer
370
18
48
1
60
0
100
AcDbLine
10
0.1
20
-5.740555
30
0
11
0.1
21
-5.924654
31
0
39
0
210
0
220
0
230
1
0
LINE
5
92
100
AcDbEntity
8
1
62
256
6
ByLayer
370
13
48
1
60
0
100
AcDbLine
10
0.1
20
5.749273
30
0
11
5.5
21
5.749273
31
0
39
0
210
0
220
0
230
1
0
LINE
5
93
100
AcDbEntity
8
1
62
256
6
ByLayer
370
18
48
1
60
0
100
AcDbLine
10
5.5
20
2.614866
30
0
11
5.5
21
1.236843
31
0
39
0
210
0
220
0
230
1
0
LINE
5
94
100
AcDbEntity
8
SK1
62
256
6
ByLayer
370
18
48
1
60
0
100
AcDbLine
10
-0.85
20
-2.427816
30
0
11
-0.85
21
-1.563206
31
0
39
0
210
0
220
0
230
1
0
LINE
5
96
100
AcDbEntity
8
1
62
256
6
ByLayer
370
18
48
1
60
0
100
AcDbLine
10
0.1
20
3.155578
30
0
11
0.1
21
2.614866
31
0
39
0
210
0
220
0
230
1
0
LINE
5
97
100
AcDbEntity
8
1
62
256
6
ByLayer
370
18
48
1
60
0
100
AcDbLine
10
0.1
20
2.614866
30
0
11
0.1
21
1.236843
31
0
39
0
210
0
220
0
230
1
0
LINE
5
98
100
AcDbEntity
8
1
62
256
6
ByLayer
370
18
48
1
60
0
100
AcDbLine
10
5.85
20
6.292788
30
0
11
5.85
21
6.033616
31
0
39
0
210
0
220
0
230
1
0
LINE
5
99
100
AcDbEntity
8
1
62
256
6
ByLayer
370
18
48
1
60
0
100
AcDbLine
10
5.5
20
1.236843
30
0
11
5.5
21
1.046484
31
0
39
0
210
0
220
0
230
1
0
LINE
5
9A
100
AcDbEntity
8
1
62
256
6
ByLayer
370
18
48
1
60
0
100
AcDbLine
10
5.5
20
3.155578
30
0
11
5.5
21
2.614866
31
0
39
0
210
0
220
0
230
1
0
LINE
5
9B
100
AcDbEntity
8
1
62
256
6
ByLayer
370
18
48
1
60
0
100
AcDbLine
10
0.1
20
-6.939999
30
0
11
0.1
21
-7.180947
31
0
39
0
210
0
220
0
230
1
0
LINE
5
9C
100
AcDbEntity
8
1
62
256
6
ByLayer
370
18
48
1
60
0
100
AcDbLine
10
5.5
20
5.749273
30
0
11
5.5
21
5.812624
31
0
39
0
210
0
220
0
230
1
0
LINE
5
9D
100
AcDbEntity
8
1
62
256
6
ByLayer
370
18
48
1
60
0
100
AcDbLine
10
3.825983
20
-4.961291
30
0
11
3.587874
21
-4.961291
31
0
39
0
210
0
220
0
230
1
0
LINE
5
9E
100
AcDbEntity
8
1
62
256
6
ByLayer
370
18
48
1
60
0
100
AcDbLine
10
3.95153
20
-3.478091
30
0
11
3.503651
21
-3.478091
31
0
39
0
210
0
220
0
230
1
0
LINE
5
9F
100
AcDbEntity
8
1
62
256
6
ByLayer
370
13
48
1
60
0
100
AcDbLine
10
0.1
20
6.292788
30
0
11
5.85
21
6.292788
31
0
39
0
210
0
220
0
230
1
0
LINE
5
A0
100
AcDbEntity
8
1
62
256
6
ByLayer
370
18
48
1
60
0
100
AcDbLine
10
3.825
20
10.85
30
0
11
3.575
21
10.85
31
0
39
0
210
0
220
0
230
1
0
LINE
5
A1
100
AcDbEntity
8
1
62
256
6
ByLayer
370
13
48
1
60
0
100
AcDbLine
10
0.1
20
5.749273
30
0
11
5.5
21
5.749273
31
0
39
0
210
0
220
0
230
1
0
LINE
5
A2
100
AcDbEntity
8
1
62
256
6
ByLayer
370
18
48
1
60
0
100
AcDbLine
10
5.5
20
5.749273
30
0
11
5.5
21
5.812624
31
0
39
0
210
0
220
0
230
1
0
LINE
5
A3
100
AcDbEntity
8
1
62
256
6
ByLayer
370
18
48
1
60
0
100
AcDbLine
10
0.1
20
5.749273
30
0
11
0.1
21
6.292788
31
0
39
0
210
0
220
0
230
1
0
LINE
5
A4
100
AcDbEntity
8
1
62
256
6
ByLayer
370
18
48
1
60
0
100
AcDbLine
10
0.1
20
6.292788
30
0
11
0.1
21
7.845388
31
0
39
0
210
0
220
0
230
1
0
LINE
5
A5
100
AcDbEntity
8
SK1
62
256
6
ByLayer
370
18
48
1
60
0
100
AcDbLine
10
-0.85
20
1.889301
30
0
11
-0.85
21
2.526357
31
0
39
0
210
0
220
0
230
1
0
LINE
5
A6
100
AcDbEntity
8
SK1
62
256
6
ByLayer
370
18
48
1
60
0
100
AcDbLine
10
-0.85
20
0.06674
30
0
11
-0.85
21
0.538515
31
0
39
0
210
0
220
0
230
1
0
LINE
5
A7
100
AcDbEntity
8
1
62
256
6
ByLayer
370
18
48
1
60
0
100
AcDbLine
10
5.5
20
-5.152166
30
0
11
5.85
21
-4.06798
31
0
39
0
210
0
220
0
230
1
0
LINE
5
A8
100
AcDbEntity
8
1
62
256
6
ByLayer
370
18
48
1
60
0
100
AcDbLine
10
5.85
20
-4.06798
30
0
11
5.85
21
-3.321422
31
0
39
0
210
0
220
0
230
1
0
LINE
5
A9
100
AcDbEntity
8
1
62
256
6
ByLayer
370
18
48
1
60
0
100
AcDbLine
10
5.85
20
-4.656403
30
0
11
5.85
21
-4.06798
31
0
39
0
210
0
220
0
230
1
0
LINE
5
AA
100
AcDbEntity
8
1
62
256
6
ByLayer
370
18
48
1
60
0
100
AcDbLine
10
5.5
20
-0.864413
30
0
11
5.85
21
-2.037429
31
0
39
0
210
0
220
0
230
1
0
LINE
5
AB
100
AcDbEntity
8
1
62
256
6
ByLayer
370
18
48
1
60
0
100
AcDbLine
10
0.1
20
5.749273
30
0
11
0.1
21
3.155578
31
0
39
0
210
0
220
0
230
1
0
LINE
5
AC
100
AcDbEntity
8
1
62
256
6
ByLayer
370
13
48
1
60
0
100
AcDbLine
10
5.5
20
3.155578
30
0
11
0.1
21
3.155578
31
0
39
0
210
0
220
0
230
1
0
LINE
5
AD
100
AcDbEntity
8
1
62
256
6
ByLayer
370
18
48
1
60
0
100
AcDbLine
10
0.1
20
3.155578
30
0
11
0.1
21
2.614866
31
0
39
0
210
0
220
0
230
1
0
LINE
5
AE
100
AcDbEntity
8
1
62
256
6
ByLayer
370
13
48
1
60
0
100
AcDbLine
10
5.5
20
2.614866
30
0
11
0.1
21
2.614866
31
0
39
0
210
0
220
0
230
1
0
LINE
5
AF
100
AcDbEntity
8
1
62
256
6
ByLayer
370
18
48
1
60
0
100
AcDbLine
10
0.1
20
2.614866
30
0
11
0.1
21
1.236843
31
0
39
0
210
0
220
0
230
1
0
LINE
5
B0
100
AcDbEntity
8
1
62
256
6
ByLayer
370
13
48
1
60
0
100
AcDbLine
10
5.5
20
1.236843
30
0
11
0.1
21
1.236843
31
0
39
0
210
0
220
0
230
1
0
LINE
5
B1
100
AcDbEntity
8
1
62
256
6
ByLayer
370
18
48
1
60
0
100
AcDbLine
10
0.1
20
1.236843
30
0
11
0.1
21
0.838668
31
0
39
0
210
0
220
0
230
1
0
LINE
5
B2
100
AcDbEntity
8
1
62
256
6
ByLayer
370
18
48
1
60
0
100
AcDbLine
10
5.85
20
7.315944
30
0
11
5.85
21
6.292788
31
0
39
0
210
0
220
0
230
1
0
LINE
5
B3
100
AcDbEntity
8
1
62
256
6
ByLayer
370
18
48
1
60
0
100
AcDbLine
10
5.85
20
6.292788
30
0
11
5.85
21
6.033616
31
0
39
0
210
0
220
0
230
1
0
LINE
5
B4
100
AcDbEntity
8
1
62
256
6
ByLayer
370
18
48
1
60
0
100
AcDbLine
10
5.5
20
5.749273
30
0
11
5.5
21
3.155578
31
0
39
0
210
0
220
0
230
1
0
LINE
5
B5
100
AcDbEntity
8
1
62
256
6
ByLayer
370
18
48
1
60
0
100
AcDbLine
10
5.5
20
3.155578
30
0
11
5.5
21
2.614866
31
0
39
0
210
0
220
0
230
1
0
LINE
5
B6
100
AcDbEntity
8
1
62
256
6
ByLayer
370
18
48
1
60
0
100
AcDbLine
10
5.5
20
2.614866
30
0
11
5.5
21
1.236843
31
0
39
0
210
0
220
0
230
1
0
LINE
5
B7
100
AcDbEntity
8
1
62
256
6
ByLayer
370
18
48
1
60
0
100
AcDbLine
10
5.5
20
1.236843
30
0
11
5.5
21
1.046484
31
0
39
0
210
0
220
0
230
1
0
LINE
5
B8
100
AcDbEntity
8
1
62
256
6
ByLayer
370
18
48
1
60
0
100
AcDbLine
10
5.5
20
-3.794317
30
0
11
5.5
21
-5.740555
31
0
39
0
210
0
220
0
230
1
0
LINE
5
B9
100
AcDbEntity
8
1
62
256
6
ByLayer
370
18
48
1
60
0
100
AcDbLine
10
5.5
20
-5.740555
30
0
11
5.5
21
-5.924654
31
0
39
0
210
0
220
0
230
1
0
LINE
5
BA
100
AcDbEntity
8
1
62
256
6
ByLayer
370
18
48
1
60
0
100
AcDbLine
10
5.5
20
-5.924654
30
0
11
5.5
21
-6.939999
31
0
39
0
210
0
220
0
230
1
0
LINE
5
BB
100
AcDbEntity
8
1
62
256
6
ByLayer
370
18
48
1
60
0
100
AcDbLine
10
5.5
20
-6.939999
30
0
11
5.5
21
-7.067388
31
0
39
0
210
0
220
0
230
1
0
LINE
5
BC
100
AcDbEntity
8
1
62
256
6
ByLayer
370
18
48
1
60
0
100
AcDbLine
10
0.1
20
-3.907761
30
0
11
0.1
21
-5.740555
31
0
39
0
210
0
220
0
230
1
0
LINE
5
BD
100
AcDbEntity
8
1
62
256
6
ByLayer
370
13
48
1
60
0
100
AcDbLine
10
5.5
20
-5.740555
30
0
11
0.1
21
-5.740555
31
0
39
0
210
0
220
0
230
1
0
LINE
5
BE
100
AcDbEntity
8
1
62
256
6
ByLayer
370
18
48
1
60
0
100
AcDbLine
10
0.1
20
-5.740555
30
0
11
0.1
21
-5.924654
31
0
39
0
210
0
220
0
230
1
0
LINE
5
BF
100
AcDbEntity
8
1
62
256
6
ByLayer
370
13
48
1
60
0
100
AcDbLine
10
5.5
20
-5.924654
30
0
11
0.1
21
-5.924654
31
0
39
0
210
0
220
0
230
1
0
LINE
5
C0
100
AcDbEntity
8
1
62
256
6
ByLayer
370
18
48
1
60
0
100
AcDbLine
10
0.1
20
-5.924654
30
0
11
0.1
21
-6.939999
31
0
39
0
210
0
220
0
230
1
0
LINE
5
C1
100
AcDbEntity
8
1
62
256
6
ByLayer
370
13
48
1
60
0
100
AcDbLine
10
5.5
20
-6.939999
30
0
11
0.1
21
-6.939999
31
0
39
0
210
0
220
0
230
1
0
LINE
5
C2
100
AcDbEntity
8
1
62
256
6
ByLayer
370
18
48
1
60
0
100
AcDbLine
10
0.1
20
-6.939999
30
0
11
0.1
21
-7.180947
31
0
39
0
210
0
220
0
230
1
0
LINE
5
C3
100
AcDbEntity
8
1
62
256
6
ByLayer
370
18
48
1
60
0
100
AcDbLine
10
3.825
20
-5.425
30
0
11
3.575
21
-5.425
31
0
39
0
210
0
220
0
230
1
0
LINE
5
C4
100
AcDbEntity
8
SK1
62
256
6
ByLayer
370
18
48
1
60
0
100
AcDbLine
10
-0.85
20
-6.861903
30
0
11
-0.85
21
-2.427816
31
0
39
0
210
0
220
0
230
1
0
LINE
5
C5
100
AcDbEntity
8
SK1
62
256
6
ByLayer
370
18
48
1
60
0
100
AcDbLine
10
-0.85
20
7.420228
30
0
11
-0.85
21
2.526357
31
0
39
0
210
0
220
0
230
1
0
LINE
5
C6
100
AcDbEntity
8
1
62
256
6
ByLayer
370
18
48
1
60
0
100
AcDbLine
10
1.889928
20
7.891466
30
0
11
3.575
21
10.85
31
0
39
0
210
0
220
0
230
1
0
LINE
5
C7
100
AcDbEntity
8
1
62
256
6
ByLayer
370
18
48
1
60
0
100
AcDbLine
10
3.825
20
10.85
30
0
11
5.85
21
7.315944
31
0
39
0
210
0
220
0
230
1
0
LINE
5
C8
100
AcDbEntity
8
80
62
256
6
ByLayer
370
18
48
1
60
0
100
AcDbLine
10
0
20
0
30
0
11
-4.07255
21
0
31
0
39
0
210
0
220
0
230
1
0
LINE
5
C9
100
AcDbEntity
8
4
62
256
6
ByLayer
370
18
48
0.05
60
0
100
AcDbLine
10
0
20
0
30
0
11
7.002964
21
0
31
0
39
0
210
0
220
0
230
1
0
LINE
5
CB
100
AcDbEntity
8
SK4
62
256
6
ByLayer
370
18
48
0.05
60
0
100
AcDbLine
10
-4.07255
20
0
30
0
11
7.38608
21
0
31
0
39
0
210
0
220
0
230
1
0
LINE
5
CD
100
AcDbEntity
8
81
62
256
6
ByLayer
370
18
48
1
60
0
100
AcDbLine
10
3.7
20
10.85
30
0
11
3.7
21
11.471279
31
0
39
0
210
0
220
0
230
1
0
MTEXT
5
10E
100
AcDbEntity
8
SK6
62
256
6
ByLayer
370
13
48
1
60
0
100
AcDbMText
10
-23.549307
20
-36.621836
30
0
210
0
220
0
230
1
1
\W0.7720;327R12-22 250VM-THM
40
3.5
41
0
44
1.084337
50
0
71
7
72
5
7
iso_b_vert
0
DIMENSION
5
11C
100
AcDbEntity
8
2
62
256
6
ByLayer
370
13
48
1
60
0
100
AcDbDimension
2
DimnDraft3D1
10
3.825
20
18.91082
30
0
11
17.293615
21
18.91082
31
0
70
32
71
5
72
1
41
1
210
0
220
0
230
1
3
Standard
100
AcDbAlignedDimension
13
3.575
23
10.85
33
0
14
3.825
24
10.85
34
0
50
0
100
AcDbRotatedDimension
1001
ACAD
1000
DSTYLE
1002
{
1070
   279
1070
     0
1070
   172
1070
     1
1070
   173
1070
     1
1070
   340
1005
10F
1070
   271
1070
     1
1070
   272
1070
     2
1070
    77
1070
     1
1070
    73
1070
     0
1070
   171
1070
     3
1070
   274
1070
     4
1070
   177
1070
     7
1070
   176
1070
     7
1070
   178
1070
     7
1070
    78
1070
     8
1070
    48
1040
-0.005
1070
    41
1041
3.5
1070
   147
1041
1.75
1070
    42
1041
0.0
1070
    44
1041
2.0
1070
   140
1041
3.5
1070
   343
1005
0
1070
   344
1005
0
1002
}
0
DIMENSION
5
127
100
AcDbEntity
8
SK2
62
256
6
ByLayer
370
13
48
1
60
0
100
AcDbDimension
2
DimnDraft3D2
10
5.85
20
7.315944
30
0
11
3.739921
21
-20.069857
31
0
70
34
71
5
72
1
41
1
210
0
220
0
230
1
3
Standard
100
AcDb2LineAngularDimension
13
1.889928
23
7.891466
33
0
14
3.575
24
10.85
34
0
15
3.825
25
10.85
35
0
16
3.74445
26
-23.569854
36
0
40
0
0
DIMENSION
5
131
100
AcDbEntity
8
2
62
256
6
ByLayer
370
13
48
1
60
0
100
AcDbDimension
2
DimnDraft3D3
10
5.85
20
47.099343
30
0
11
29.867243
21
47.099343
31
0
70
32
71
5
72
1
41
1
210
0
220
0
230
1
3
Standard
100
AcDbAlignedDimension
13
0
23
0
33
0
14
5.85
24
7.315944
34
0
50
0
100
AcDbRotatedDimension
1001
ACAD
1000
DSTYLE
1002
{
1070
   279
1070
     0
1070
   172
1070
     1
1070
   173
1070
     1
1070
   340
1005
10F
1070
   271
1070
     1
1070
   272
1070
     2
1070
    77
1070
     1
1070
    73
1070
     0
1070
   171
1070
     3
1070
   274
1070
     4
1070
   177
1070
     7
1070
   176
1070
     7
1070
   178
1070
     7
1070
    78
1070
     8
1070
    48
1040
-0.005
1070
    41
1041
3.5
1070
   147
1041
1.75
1070
    42
1041
0.0
1070
    44
1041
2.0
1070
   140
1041
3.5
1070
   343
1005
0
1070
   344
1005
0
1002
}
0
DIMENSION
5
13B
100
AcDbEntity
8
SK2
62
256
6
ByLayer
370
13
48
1
60
0
100
AcDbDimension
2
DimnDraft3D4
10
3.7
20
36.956709
30
0
11
24.591515
21
36.956709
31
0
70
32
71
5
72
1
41
1
210
0
220
0
230
1
3
Standard
100
AcDbAlignedDimension
13
0
23
0
33
0
14
3.7
24
10.85
34
0
50
0
100
AcDbRotatedDimension
1001
ACAD
1000
DSTYLE
1002
{
1070
   279
1070
     0
1070
   172
1070
     1
1070
   173
1070
     1
1070
   340
1005
10F
1070
   271
1070
     1
1070
   272
1070
     2
1070
    77
1070
     1
1070
    73
1070
     0
1070
   171
1070
     3
1070
   274
1070
     4
1070
   177
1070
     7
1070
   176
1070
     7
1070
   178
1070
     7
1070
    78
1070
     8
1070
    48
1040
-0.005
1070
    41
1041
3.5
1070
   147
1041
1.75
1070
    42
1041
0.0
1070
    44
1041
2.0
1070
   140
1041
3.5
1070
   343
1005
0
1070
   344
1005
0
1002
}
0
DIMENSION
5
143
100
AcDbEntity
8
2
62
256
6
ByLayer
370
13
48
1
60
0
100
AcDbDimension
2
DimnDraft3D5
10
26.808259
20
10.85
30
0
11
26.808259
21
2.626283
31
0
70
32
71
5
72
1
41
1
210
0
220
0
230
1
3
Standard
100
AcDbAlignedDimension
13
3.7
23
10.85
33
0
14
0
24
0
34
0
50
90
100
AcDbRotatedDimension
1001
ACAD
1000
DSTYLE
1002
{
1070
    74
1070
     0
1070
   279
1070
     0
1070
   172
1070
     1
1070
   173
1070
     1
1070
   340
1005
10F
1070
    75
1070
     1
1070
   271
1070
     1
1070
   272
1070
     2
1070
    77
1070
     1
1070
    73
1070
     0
1070
   171
1070
     3
1070
   274
1070
     4
1070
   281
1070
     1
1070
   177
1070
     7
1070
   176
1070
     7
1070
   178
1070
     7
1070
    78
1070
     8
1070
    48
1040
-0.005
1070
    41
1041
3.5
1070
   147
1041
1.75
1070
    42
1041
0.0
1070
    44
1041
2.0
1070
   140
1041
3.5
1070
   343
1005
0
1070
   344
1005
0
1002
}
0
DIMENSION
5
14D
100
AcDbEntity
8
SK2
62
256
6
ByLayer
370
13
48
1
60
0
100
AcDbDimension
2
DimnDraft3D6
10
-24.75371
20
-6
30
0
11
-24.75371
21
0
31
0
70
32
71
5
72
1
41
1
210
0
220
0
230
1
3
Standard
100
AcDbAlignedDimension
13
-0.85
23
6
33
0
14
-0.85
24
-6
34
0
50
90
100
AcDbRotatedDimension
1001
ACAD
1000
DSTYLE
1002
{
1070
    74
1070
     0
1070
   279
1070
     0
1070
   172
1070
     1
1070
   173
1070
     1
1070
   340
1005
10F
1070
   271
1070
     1
1070
   272
1070
     2
1070
    77
1070
     1
1070
    73
1070
     0
1070
   171
1070
     3
1070
   274
1070
     4
1070
   177
1070
     7
1070
   176
1070
     7
1070
   178
1070
     7
1070
    78
1070
     8
1070
    48
1040
-0.005
1070
    41
1041
3.5
1070
   147
1041
1.75
1070
    42
1041
0.0
1070
    44
1041
2.0
1070
   140
1041
3.5
1070
   343
1005
0
1070
   344
1005
0
1002
}
0
DIMENSION
5
157
100
AcDbEntity
8
2
62
256
6
ByLayer
370
13
48
1
60
0
100
AcDbDimension
2
DimnDraft3D7
10
-12.724995
20
7.841375
30
0
11
-12.724995
21
17.562412
31
0
70
32
71
5
72
1
41
1
210
0
220
0
230
1
3
Standard
100
AcDbAlignedDimension
13
3.575
23
10.85
33
0
14
1.803467
24
7.841375
34
0
50
90
100
AcDbRotatedDimension
1001
ACAD
1000
DSTYLE
1002
{
1070
    74
1070
     0
1070
   279
1070
     0
1070
   172
1070
     1
1070
   173
1070
     1
1070
   340
1005
10F
1070
   271
1070
     1
1070
   272
1070
     2
1070
    77
1070
     1
1070
    73
1070
     0
1070
   171
1070
     3
1070
   274
1070
     4
1070
   177
1070
     7
1070
   176
1070
     7
1070
   178
1070
     7
1070
    78
1070
     8
1070
    48
1040
-0.005
1070
    41
1041
3.5
1070
   147
1041
1.75
1070
    42
1041
0.0
1070
    44
1041
2.0
1070
   140
1041
3.5
1070
   343
1005
0
1070
   344
1005
0
1002
}
0
ENDSEC
0
SECTION
2
OBJECTS
0
DICTIONARY
5
1c2
330
0
100
AcDbDictionary
280
0
281
1
3
ACAD_GROUP
350
1c3
3
ACAD_MLINESTYLE
350
1c4
0
DICTIONARY
5
1c3
330
0
100
AcDbDictionary
280
0
281
1
0
DICTIONARY
5
1c4
330
0
100
AcDbDictionary
280
0
281
1
3
Standard
350
18
0
MLINESTYLE
5
18
330
1c4
100
AcDbMlineStyle
2
Standard
70
0
3

62
256
51
90
52
90
71
2
49
-0.5
62
256
6
ByLayer
49
0.5
62
256
6
ByLayer
0
RASTERVARIABLES
5
1b0
330

100
AcDbRasterVariables
90
0
70
1
71
1
72
1
0
ENDSEC
0
EOF
