0
SECTION
2
HEADER
9
$ACADVER
1
AC1015
9
$DWGCODEPAGE
3
ANSI_1252
9
$HANDSEED
5
1af
9
$ANGBASE
50
0
9
$ANGDIR
70
0
9
$ATTMODE
70
1
9
$AUNITS
70
0
9
$AUPREC
70
0
9
$CECOLOR
62
256
9
$CELTSCALE
40
1
9
$CELTYPE
6
ByLayer
9
$CELWEIGHT
370
18
9
$CLAYER
8
0
9
$CMLJUST
70
0
9
$CMLSCALE
40
1
9
$CMLSTYLE
2
Standard
9
$DIMSTYLE
2
Standard
9
$TEXTSIZE
40
0.2
9
$TEXTSTYLE
7
Standard
9
$LUNITS
70
2
9
$LUPREC
70
4
9
$EXTNAMES
290
1
9
$INSUNITS
70
4
9
$LTSCALE
40
1
9
$LWDISPLAY
290
1
9
$PDMODE
70
0
9
$PDSIZE
40
0
9
$PLINEGEN
70
0
0
ENDSEC
0
SECTION
2
CLASSES
0
CLASS
1
RASTERVARIABLES
2
AcDbRasterVariables
3
ISM
90
0
280
0
281
0
0
ENDSEC
0
SECTION
2
TABLES
0
TABLE
2
VPORT
5
1a5
100
AcDbSymbolTable
0
VPORT
5
1
100
AcDbSymbolTableRecord
100
AcDbViewportTableRecord
2
*Active
70
0
10
0
20
0
11
1
21
1
12
-1
22
1
13
0
23
0
14
0.5
24
0.5
15
10
25
10
16
0
26
0
36
1
17
0
27
0
37
0
0
ENDTAB
0
TABLE
2
LTYPE
5
1a6
100
AcDbSymbolTable
0
LTYPE
5
14
100
AcDbSymbolTableRecord
100
AcDbLinetypeTableRecord
70
0
2
ByBlock
3

72
65
73
0
40
0
0
LTYPE
5
15
100
AcDbSymbolTableRecord
100
AcDbLinetypeTableRecord
70
0
2
ByLayer
3

72
65
73
0
40
0
0
LTYPE
5
16
100
AcDbSymbolTableRecord
100
AcDbLinetypeTableRecord
70
0
2
CONTINUOUS
3
Solid line
72
65
73
0
40
0
0
LTYPE
5
6A
100
AcDbSymbolTableRecord
100
AcDbLinetypeTableRecord
70
0
2
CENTER
3
____ _ ____ _ ____ _ ____
72
65
73
4
40
47.5
49
22
74
0
49
-8.5
74
0
49
8.5
74
0
49
-8.5
74
0
0
LTYPE
5
6B
100
AcDbSymbolTableRecord
100
AcDbLinetypeTableRecord
70
0
2
DASHED
3
__ __ __ __ __ __ __ __ __
72
65
73
2
40
25.72
49
12.86
74
0
49
-12.86
74
0
0
ENDTAB
0
TABLE
2
LAYER
5
1a7
100
AcDbSymbolTable
0
LAYER
5
10
100
AcDbSymbolTableRecord
100
AcDbLayerTableRecord
2
0
70
0
62
7
6
CONTINUOUS
290
1
370
-3
390
0
0
LAYER
5
6D
100
AcDbSymbolTableRecord
100
AcDbLayerTableRecord
2
80
70
0
62
-6
6
CONTINUOUS
290
1
370
-3
390
0
0
LAYER
5
6F
100
AcDbSymbolTableRecord
100
AcDbLayerTableRecord
2
1
70
0
62
4
6
CONTINUOUS
290
1
370
-3
390
0
0
LAYER
5
72
100
AcDbSymbolTableRecord
100
AcDbLayerTableRecord
2
81
70
0
62
-3
6
CONTINUOUS
290
1
370
-3
390
0
0
LAYER
5
A9
100
AcDbSymbolTableRecord
100
AcDbLayerTableRecord
2
4
70
0
62
-2
6
CENTER
290
1
370
-3
390
0
0
LAYER
5
113
100
AcDbSymbolTableRecord
100
AcDbLayerTableRecord
2
2
70
0
62
7
6
CONTINUOUS
290
1
370
-3
390
0
0
LAYER
5
191
100
AcDbSymbolTableRecord
100
AcDbLayerTableRecord
2
SK1
70
0
62
4
6
CONTINUOUS
290
1
370
-3
390
0
0
LAYER
5
192
100
AcDbSymbolTableRecord
100
AcDbLayerTableRecord
2
SK4
70
0
62
2
6
CENTER
290
1
370
-3
390
0
0
LAYER
5
193
100
AcDbSymbolTableRecord
100
AcDbLayerTableRecord
2
SK6
70
0
62
5
6
CONTINUOUS
290
1
370
-3
390
0
0
LAYER
5
194
100
AcDbSymbolTableRecord
100
AcDbLayerTableRecord
2
SK2
70
0
62
7
6
CONTINUOUS
290
1
370
-3
390
0
0
ENDTAB
0
TABLE
2
STYLE
5
1a8
100
AcDbSymbolTable
0
STYLE
5
11
100
AcDbSymbolTableRecord
100
AcDbTextStyleTableRecord
2
Standard
3
txt
70
0
71
0
40
0
41
1
42
0
50
0
0
STYLE
5
103
100
AcDbSymbolTableRecord
100
AcDbTextStyleTableRecord
2
iso_b_vert
3
simplex.shx
70
0
71
0
40
0
41
1
42
0
50
0
0
STYLE
5
104
100
AcDbSymbolTableRecord
100
AcDbTextStyleTableRecord
2
DWGDirectTextStyle
3
simplex
70
0
71
0
40
0
41
1
42
0
50
0
0
ENDTAB
0
TABLE
2
DIMSTYLE
5
1a9
100
AcDbSymbolTable
100
AcDbDimStyleTable
0
DIMSTYLE
105
27
100
AcDbSymbolTableRecord
100
AcDbDimStyleTableRecord
2
Standard
70
0
3
<>
41
0.18
42
0.0625
44
0.18
140
0.18
147
0.09
73
0
74
0
77
1
271
2
275
0
278
52
280
0
340
11
0
ENDTAB
0
TABLE
2
VIEW
5
1aa
100
AcDbSymbolTable
0
ENDTAB
0
TABLE
2
UCS
5
1ab
100
AcDbSymbolTable
0
ENDTAB
0
TABLE
2
APPID
5
1ac
100
AcDbSymbolTable
0
APPID
5
12
100
AcDbSymbolTableRecord
100
AcDbRegAppTableRecord
2
ACAD
70
0
0
ENDTAB
0
TABLE
2
BLOCK_RECORD
5
1ad
100
AcDbSymbolTable
0
BLOCK_RECORD
5
1F
100
AcDbSymbolTableRecord
100
AcDbBlockTableRecord
2
*Model_Space
340
0
70
0
0
BLOCK_RECORD
5
1B
100
AcDbSymbolTableRecord
100
AcDbBlockTableRecord
2
*Paper_Space
340
0
70
0
0
BLOCK_RECORD
5
23
100
AcDbSymbolTableRecord
100
AcDbBlockTableRecord
2
*Paper_Space0
340
0
70
0
0
BLOCK_RECORD
5
106
100
AcDbSymbolTableRecord
100
AcDbBlockTableRecord
2
DimnDraft3D1
340
0
70
0
0
BLOCK_RECORD
5
111
100
AcDbSymbolTableRecord
100
AcDbBlockTableRecord
2
DimnDraft3D2
340
0
70
0
0
BLOCK_RECORD
5
11A
100
AcDbSymbolTableRecord
100
AcDbBlockTableRecord
2
DimnDraft3D3
340
0
70
0
0
BLOCK_RECORD
5
124
100
AcDbSymbolTableRecord
100
AcDbBlockTableRecord
2
DimnDraft3D4
340
0
70
0
0
BLOCK_RECORD
5
12E
100
AcDbSymbolTableRecord
100
AcDbBlockTableRecord
2
DimnDraft3D5
340
0
70
0
0
ENDTAB
0
ENDSEC
0
SECTION
2
BLOCKS
0
BLOCK
5
20
100
AcDbEntity
8
0
100
AcDbBlockBegin
2
*Model_Space
70
0
10
0
20
0
30
0
3
*Model_Space
0
ENDBLK
5
21
100
AcDbEntity
8
0
100
AcDbBlockEnd
0
BLOCK
5
1C
100
AcDbEntity
8
0
100
AcDbBlockBegin
2
*Paper_Space
70
0
10
0
20
0
30
0
3
*Paper_Space
0
ENDBLK
5
1D
100
AcDbEntity
8
0
100
AcDbBlockEnd
0
BLOCK
5
24
100
AcDbEntity
8
0
100
AcDbBlockBegin
2
*Paper_Space0
70
0
10
0
20
0
30
0
3
*Paper_Space0
0
ENDBLK
5
25
100
AcDbEntity
8
0
100
AcDbBlockEnd
0
BLOCK
5
10E
100
AcDbEntity
8
0
100
AcDbBlockBegin
2
DimnDraft3D1
70
0
10
0
20
0
30
0
3
DimnDraft3D1
0
MTEXT
5
107
100
AcDbEntity
8
SK2
62
256
6
ByLayer
370
18
48
1
60
0
100
AcDbMText
10
-20.401874
20
-4.757237
30
0
210
0
220
0
230
1
1
\W1.2012;%%c12
40
3.5
41
0
44
1.084337
50
90
71
7
72
5
7
iso_b_vert
0
LINE
5
109
100
AcDbEntity
8
SK2
62
256
6
ByLayer
370
13
48
1
60
0
100
AcDbLine
10
-1.5875
20
6
30
0
11
-20.651874
21
6
31
0
39
0
210
0
220
0
230
1
0
LINE
5
10A
100
AcDbEntity
8
SK2
62
256
6
ByLayer
370
13
48
1
60
0
100
AcDbLine
10
-1.5875
20
-6
30
0
11
-20.651874
21
-6
31
0
39
0
210
0
220
0
230
1
0
LINE
5
10B
100
AcDbEntity
8
SK2
62
256
6
ByLayer
370
13
48
1
60
0
100
AcDbLine
10
-18.651874
20
6
30
0
11
-18.651874
21
-6
31
0
39
0
210
0
220
0
230
1
0
SOLID
5
10C
100
AcDbEntity
8
SK2
62
256
6
ByLayer
370
13
48
1
60
0
100
AcDbTrace
10
-18.651874
20
6
30
0
11
-18.19109
21
2.500002
31
0
12
-19.112658
22
2.499998
32
0
13
-18.651874
23
6
33
0
39
0
210
0
220
0
230
1
0
SOLID
5
10D
100
AcDbEntity
8
SK2
62
256
6
ByLayer
370
13
48
1
60
0
100
AcDbTrace
10
-18.651874
20
-6
30
0
11
-19.112658
21
-2.500002
31
0
12
-18.19109
22
-2.499998
32
0
13
-18.651874
23
-6
33
0
39
0
210
0
220
0
230
1
0
ENDBLK
5
10F
100
AcDbEntity
8
0
100
AcDbBlockEnd
0
BLOCK
5
117
100
AcDbEntity
8
0
100
AcDbBlockBegin
2
DimnDraft3D2
70
0
10
0
20
0
30
0
3
DimnDraft3D2
0
MTEXT
5
112
100
AcDbEntity
8
2
62
256
6
ByLayer
370
18
48
1
60
0
100
AcDbMText
10
26.786737
20
-6.736184
30
0
210
0
220
0
230
1
1
\W1.0454;%%c21,7
40
3.5
41
0
44
1.084337
50
90
71
7
72
5
7
iso_b_vert
0
LINE
5
114
100
AcDbEntity
8
2
62
256
6
ByLayer
370
13
48
1
60
0
100
AcDbLine
10
7.285044
20
10.75
30
0
11
30.536737
21
10.75
31
0
39
0
210
0
220
0
230
1
0
LINE
5
115
100
AcDbEntity
8
2
62
256
6
ByLayer
370
13
48
1
60
0
100
AcDbLine
10
28.536737
20
10.75
30
0
11
28.536737
21
-9.111184
31
0
39
0
210
0
220
0
230
1
0
SOLID
5
116
100
AcDbEntity
8
2
62
256
6
ByLayer
370
13
48
1
60
0
100
AcDbTrace
10
28.536737
20
10.75
30
0
11
28.99752
21
7.250002
31
0
12
28.075953
22
7.249998
32
0
13
28.536737
23
10.75
33
0
39
0
210
0
220
0
230
1
0
ENDBLK
5
118
100
AcDbEntity
8
0
100
AcDbBlockEnd
0
BLOCK
5
121
100
AcDbEntity
8
0
100
AcDbBlockBegin
2
DimnDraft3D3
70
0
10
0
20
0
30
0
3
DimnDraft3D3
0
MTEXT
5
11B
100
AcDbEntity
8
2
62
256
6
ByLayer
370
18
48
1
60
0
100
AcDbMText
10
-13.631568
20
20.579818
30
0
210
0
220
0
230
1
1
\W0.7208;4,81
40
3.5
41
0
44
1.084337
50
90
71
7
72
5
7
iso_b_vert
0
LINE
5
11C
100
AcDbEntity
8
2
62
256
6
ByLayer
370
13
48
1
60
0
100
AcDbLine
10
-1.487465
20
5.937046
30
0
11
-14.756568
21
5.937046
31
0
39
0
210
0
220
0
230
1
0
LINE
5
11D
100
AcDbEntity
8
2
62
256
6
ByLayer
370
13
48
1
60
0
100
AcDbLine
10
2.0025
20
10.75
30
0
11
-14.756568
21
10.75
31
0
39
0
210
0
220
0
230
1
0
LINE
5
11E
100
AcDbEntity
8
2
62
256
6
ByLayer
370
13
48
1
60
0
100
AcDbLine
10
-12.756568
20
27.045608
30
0
11
-12.756568
21
-2.812954
31
0
39
0
210
0
220
0
230
1
0
SOLID
5
11F
100
AcDbEntity
8
2
62
256
6
ByLayer
370
13
48
1
60
0
100
AcDbTrace
10
-12.756568
20
5.937046
30
0
11
-12.295784
21
2.437047
31
0
12
-13.217352
22
2.437044
32
0
13
-12.756568
23
5.937046
33
0
39
0
210
0
220
0
230
1
0
SOLID
5
120
100
AcDbEntity
8
2
62
256
6
ByLayer
370
13
48
1
60
0
100
AcDbTrace
10
-12.756568
20
10.75
30
0
11
-13.217352
21
14.249998
31
0
12
-12.295784
22
14.250002
32
0
13
-12.756568
23
10.75
33
0
39
0
210
0
220
0
230
1
0
ENDBLK
5
122
100
AcDbEntity
8
0
100
AcDbBlockEnd
0
BLOCK
5
12B
100
AcDbEntity
8
0
100
AcDbBlockBegin
2
DimnDraft3D4
70
0
10
0
20
0
30
0
3
DimnDraft3D4
0
MTEXT
5
125
100
AcDbEntity
8
2
62
256
6
ByLayer
370
18
48
1
60
0
100
AcDbMText
10
14.139472
20
19.895356
30
0
210
0
220
0
230
1
1
\W0.7003;2,26
40
3.5
41
0
44
1.084337
50
0
71
7
72
5
7
iso_b_vert
0
LINE
5
126
100
AcDbEntity
8
2
62
256
6
ByLayer
370
13
48
1
60
0
100
AcDbLine
10
3.442467
20
12.18143
30
0
11
3.442467
21
21.020356
31
0
39
0
210
0
220
0
230
1
0
LINE
5
127
100
AcDbEntity
8
2
62
256
6
ByLayer
370
13
48
1
60
0
100
AcDbLine
10
5.697544
20
12.182228
30
0
11
5.697544
21
21.020356
31
0
39
0
210
0
220
0
230
1
0
LINE
5
128
100
AcDbEntity
8
2
62
256
6
ByLayer
370
13
48
1
60
0
100
AcDbLine
10
21.11184
20
19.020356
30
0
11
-5.307533
21
19.020356
31
0
39
0
210
0
220
0
230
1
0
SOLID
5
129
100
AcDbEntity
8
2
62
256
6
ByLayer
370
13
48
1
60
0
100
AcDbTrace
10
3.442467
20
19.020356
30
0
11
-0.057531
21
18.559572
31
0
12
-0.057535
22
19.481139
32
0
13
3.442467
23
19.020356
33
0
39
0
210
0
220
0
230
1
0
SOLID
5
12A
100
AcDbEntity
8
2
62
256
6
ByLayer
370
13
48
1
60
0
100
AcDbTrace
10
5.697544
20
19.020356
30
0
11
9.197542
21
19.481139
31
0
12
9.197546
22
18.559572
32
0
13
5.697544
23
19.020356
33
0
39
0
210
0
220
0
230
1
0
ENDBLK
5
12C
100
AcDbEntity
8
0
100
AcDbBlockEnd
0
BLOCK
5
135
100
AcDbEntity
8
0
100
AcDbBlockBegin
2
DimnDraft3D5
70
0
10
0
20
0
30
0
3
DimnDraft3D5
0
MTEXT
5
12F
100
AcDbEntity
8
2
62
256
6
ByLayer
370
18
48
1
60
0
100
AcDbMText
10
1.084956
20
37.161922
30
0
210
0
220
0
230
1
1
\W0.6702;5,7
40
3.5
41
0
44
1.084337
50
0
71
7
72
5
7
iso_b_vert
0
LINE
5
130
100
AcDbEntity
8
2
62
256
6
ByLayer
370
13
48
1
60
0
100
AcDbLine
10
0
20
7.37988
30
0
11
0
21
38.286922
31
0
39
0
210
0
220
0
230
1
0
LINE
5
131
100
AcDbEntity
8
2
62
256
6
ByLayer
370
13
48
1
60
0
100
AcDbLine
10
5.697544
20
12.3375
30
0
11
5.697544
21
38.286922
31
0
39
0
210
0
220
0
230
1
0
LINE
5
132
100
AcDbEntity
8
2
62
256
6
ByLayer
370
13
48
1
60
0
100
AcDbLine
10
-8.75
20
36.286922
30
0
11
14.447544
21
36.286922
31
0
39
0
210
0
220
0
230
1
0
SOLID
5
133
100
AcDbEntity
8
2
62
256
6
ByLayer
370
13
48
1
60
0
100
AcDbTrace
10
0
20
36.286922
30
0
11
-3.499998
21
35.826138
31
0
12
-3.500002
22
36.747706
32
0
13
0
23
36.286922
33
0
39
0
210
0
220
0
230
1
0
SOLID
5
134
100
AcDbEntity
8
2
62
256
6
ByLayer
370
13
48
1
60
0
100
AcDbTrace
10
5.697544
20
36.286922
30
0
11
9.197542
21
36.747706
31
0
12
9.197546
22
35.826138
32
0
13
5.697544
23
36.286922
33
0
39
0
210
0
220
0
230
1
0
ENDBLK
5
136
100
AcDbEntity
8
0
100
AcDbBlockEnd
0
ENDSEC
0
SECTION
2
ENTITIES
0
ELLIPSE
5
AD
100
AcDbEntity
8
1
62
256
6
ByLayer
370
18
48
1
60
0
100
AcDbEllipse
10
3.427179
20
0.081532
30
0
11
-0.566077296257741
21
10.6870790876006
31
0
210
0
220
0
230
1
40
0.030524
41
2.17210575426843
42
2.19723553281296
0
ELLIPSE
5
AE
100
AcDbEntity
8
1
62
256
6
ByLayer
370
18
48
1
60
0
100
AcDbEllipse
10
5.69935
20
-0.092089
30
0
11
-0.565691607639433
21
10.6797976000824
31
0
210
0
220
0
230
1
40
0.030524
41
2.01483985983152
42
2.09444278756011
0
ELLIPSE
5
AF
100
AcDbEntity
8
1
62
256
6
ByLayer
370
18
48
1
60
0
100
AcDbEllipse
10
3.588865
20
-0.290096
30
0
11
0.320221455157622
21
6.04552070793118
31
0
210
0
220
0
230
1
40
0.030524
41
-1.12535673535706
42
-1.06552319293871
0
ELLIPSE
5
B0
100
AcDbEntity
8
1
62
256
6
ByLayer
370
18
48
1
60
0
100
AcDbEllipse
10
3.42727
20
-0.281537
30
0
11
0.565800458074661
21
10.6818526077949
31
0
210
0
220
0
230
1
40
0.030524
41
-2.07395264447641
42
-1.98797164515947
0
ELLIPSE
5
B1
100
AcDbEntity
8
1
62
256
6
ByLayer
370
18
48
1
60
0
100
AcDbEllipse
10
3.59
20
-5.45
30
0
11
-0.15
21
1.51595858262354E-16
31
0
210
0
220
0
230
1
40
0.5
41
0
42
1.5707963267949
0
ELLIPSE
5
B2
100
AcDbEntity
8
1
62
256
6
ByLayer
370
18
48
1
60
0
100
AcDbEllipse
10
3.427179
20
-0.281532
30
0
11
0.566077296257773
21
10.6870790876006
31
0
210
0
220
0
230
1
40
0.030524
41
-2.07396276920158
42
-1.98993860680331
0
ELLIPSE
5
B3
100
AcDbEntity
8
1
62
256
6
ByLayer
370
18
48
1
60
0
100
AcDbEllipse
10
5.55
20
-5.45
30
0
11
-0.150000000000001
21
1.51595858262355E-16
31
0
210
0
220
0
230
1
40
0.5
41
1.57079632679489
42
-3.10668606854993
0
ELLIPSE
5
B4
100
AcDbEntity
8
1
62
256
6
ByLayer
370
18
48
1
60
0
100
AcDbEllipse
10
3.59
20
-5.45
30
0
11
-0.15
21
1.51595858262354E-16
31
0
210
0
220
0
230
1
40
0.5
41
-0.0349065850398863
42
0
0
ELLIPSE
5
B5
100
AcDbEntity
8
1
62
256
6
ByLayer
370
13
48
1
60
0
100
AcDbEllipse
10
3.42727
20
0.081537
30
0
11
-0.565800458074631
21
10.6818526077949
31
0
210
0
220
0
230
1
40
0.030524
41
2.17247719637801
42
2.1992024944568
0
ELLIPSE
5
B6
100
AcDbEntity
8
1
62
256
6
ByLayer
370
18
48
1
60
0
100
AcDbEllipse
10
5.69935
20
-0.107911
30
0
11
0.565691607639466
21
10.6797976000824
31
0
210
0
220
0
230
1
40
0.030524
41
-2.17233427978476
42
-2.09273135205617
0
POINT
5
6C
100
AcDbEntity
8
80
62
256
6
ByLayer
370
18
48
1
60
0
100
AcDbPoint
10
0
20
0
30
0
39
0
210
0
220
0
230
1
50
360
0
POINT
5
6E
100
AcDbEntity
8
1
62
256
6
ByLayer
370
18
48
1
60
1
100
AcDbPoint
10
0
20
6
30
0
39
0
210
0
220
0
230
1
50
360
0
POINT
5
70
100
AcDbEntity
8
1
62
256
6
ByLayer
370
18
48
1
60
1
100
AcDbPoint
10
0
20
-6
30
0
39
0
210
0
220
0
230
1
50
360
0
POINT
5
71
100
AcDbEntity
8
81
62
256
6
ByLayer
370
18
48
1
60
0
100
AcDbPoint
10
5.697544
20
10.75
30
0
39
0
210
0
220
0
230
1
50
360
0
POINT
5
73
100
AcDbEntity
8
81
62
256
6
ByLayer
370
18
48
1
60
1
100
AcDbPoint
10
5.697544
20
-10.95
30
0
39
0
210
0
220
0
230
1
50
360
0
SPLINE
5
B7
100
AcDbEntity
8
1
62
256
6
ByLayer
370
18
48
1
60
0
100
AcDbSpline
70
4
71
1
72
4
73
2
40
0
40
0
40
1
40
1
41
1
10
5.60665994410525
20
10.7390127866454
30
0
41
1
10
5.58858647342782
20
10.7412369918579
30
0
0
SPLINE
5
B8
100
AcDbEntity
8
1
62
256
6
ByLayer
370
18
48
1
60
0
100
AcDbSpline
70
4
71
1
72
4
73
2
40
0
40
0
40
1
40
1
41
1
10
3.62081453719657
20
5.93133198142854
30
0
41
1
10
0.100035285696009
20
5.93704564475075
30
0
0
SPLINE
5
B9
100
AcDbEntity
8
1
62
256
6
ByLayer
370
18
48
1
60
0
100
AcDbSpline
70
4
71
3
72
8
73
4
40
0
40
0
40
0
40
0
40
1
40
1
40
1
40
1
41
1
10
5.499999999935
20
-7.29680100942591
30
0
41
0.999989793697239
10
5.5046962109178
20
-7.28982993640603
30
0
41
0.999989793697239
10
5.5094123924788
20
-7.28274272718931
30
0
41
1
10
5.51414840021366
20
-7.27553959877829
30
0
0
SPLINE
5
BA
100
AcDbEntity
8
1
62
256
6
ByLayer
370
18
48
1
60
0
100
AcDbSpline
70
4
71
3
72
8
73
4
40
0
40
0
40
0
40
0
40
1
40
1
40
1
40
1
41
1
10
5.64798899135522
20
-4.69566283039751
30
0
41
1
10
5.62272614853165
20
-4.32318220872662
30
0
41
1
10
5.59811552148832
20
-3.9506580470171
30
0
41
1
10
5.57420439078206
20
-3.57809090100321
30
0
0
SPLINE
5
BB
100
AcDbEntity
8
1
62
256
6
ByLayer
370
18
48
1
60
0
100
AcDbSpline
70
4
71
3
72
8
73
4
40
0
40
0
40
0
40
0
40
1
40
1
40
1
40
1
41
1
10
5.51414840021366
20
-2.63238274350243
30
0
41
1
10
5.53363201192144
20
-2.94481256008612
30
0
41
1
10
5.55363693262424
20
-3.26005008638632
30
0
41
1
10
5.57420439078206
20
-3.57809090100321
30
0
0
SPLINE
5
BC
100
AcDbEntity
8
1
62
256
6
ByLayer
370
18
48
1
60
0
100
AcDbSpline
70
4
71
3
72
8
73
4
40
0
40
0
40
0
40
0
40
1
40
1
40
1
40
1
41
1
10
5.51414840021366
20
-2.63238274350243
30
0
41
1
10
5.50942033402396
20
-2.56127810156784
30
0
41
1
10
5.50470378361888
20
-2.49020925592245
30
0
41
1
10
5.499999999935
20
-2.41918011975412
30
0
0
SPLINE
5
BD
100
AcDbEntity
8
1
62
256
6
ByLayer
370
18
48
1
60
0
100
AcDbSpline
70
4
71
3
72
20
73
16
40
0
40
0
40
0
40
0
40
0.249999999999999
40
0.249999999999999
40
0.374999999999999
40
0.374999999999999
40
0.437499999999999
40
0.437499999999999
40
0.499999999999999
40
0.499999999999999
40
0.749999999999999
40
0.749999999999999
40
0.875
40
0.875
40
1
40
1
40
1
40
1
41
1
10
5.29638370564271
20
1.13684281026355
30
0
41
1
10
5.30747188026365
20
0.925784793324908
30
0
41
1
10
5.32007825577415
20
0.690546729666693
30
0
41
1
10
5.34132496018751
20
0.302970597264192
30
0
41
1
10
5.34879884079712
20
0.167954480581386
30
0
41
1
10
5.36062510341023
20
-0.0434423314709989
30
0
41
1
10
5.36466991507277
20
-0.115388976112399
30
0
41
1
10
5.37297163302478
20
-0.262295827894178
30
0
41
1
10
5.37723349024469
20
-0.337340708077249
30
0
41
1
10
5.39886432037451
20
-0.716287657035025
30
0
41
1
10
5.41735132623091
20
-1.03411833605563
30
0
41
1
10
5.44693380978666
20
-1.53224574412337
30
0
41
1
10
5.45710488513464
20
-1.70187407132596
30
0
41
1
10
5.47810187802514
20
-2.04846785991299
30
0
41
1
10
5.48894303931399
20
-2.22566928743112
30
0
41
1
10
5.499999999935
20
-2.40451956686738
30
0
0
SPLINE
5
BE
100
AcDbEntity
8
1
62
256
6
ByLayer
370
18
48
1
60
0
100
AcDbSpline
70
4
71
3
72
10
73
6
40
0
40
0
40
0
40
0
40
0.49999672908474
40
0.49999672908474
40
1
40
1
40
1
40
1
41
1
10
5.2372743068222
20
2.3949825892976
30
0
41
1
10
5.24570103685912
20
2.18527331067028
30
0
41
1
10
5.25498235664074
20
1.97557502496633
30
0
41
1
10
5.27481624797147
20
1.55619647686422
30
0
41
1
10
5.28536831155873
20
1.34651548504095
30
0
41
1
10
5.29638370564271
20
1.13684281026355
30
0
0
SPLINE
5
BF
100
AcDbEntity
8
1
62
256
6
ByLayer
370
18
48
1
60
0
100
AcDbSpline
70
4
71
3
72
8
73
4
40
0
40
0
40
0
40
0
40
1
40
1
40
1
40
1
41
1
10
3.90119585274789
20
2.51486582435612
30
0
41
1
10
3.90252129974536
20
2.55017526465986
30
0
41
1
10
3.90390801745622
20
2.58785471331168
30
0
41
1
10
3.9053427688637
20
2.62766342725814
30
0
0
SPLINE
5
C0
100
AcDbEntity
8
1
62
256
6
ByLayer
370
18
48
1
60
0
100
AcDbSpline
70
4
71
3
72
10
73
6
40
0
40
0
40
0
40
0
40
0.499996177068374
40
0.499996177068374
40
1
40
1
40
1
40
1
41
1
10
3.83878155212827
20
1.13684281026355
30
0
41
1
10
3.85062897324792
20
1.36648908347985
30
0
41
1
10
3.86190697423382
20
1.59614545855959
30
0
41
1
10
3.88287994464045
20
2.05548486788879
30
0
41
1
10
3.89257348341798
20
2.28516894797264
30
0
41
1
10
3.90119585274789
20
2.51486582435612
30
0
0
SPLINE
5
C1
100
AcDbEntity
8
1
62
256
6
ByLayer
370
18
48
1
60
0
100
AcDbSpline
70
4
71
3
72
25
73
21
40
0
40
0
40
0
40
0
40
0.125
40
0.125
40
0.25
40
0.25
40
0.3125
40
0.3125
40
0.375
40
0.375
40
0.5
40
0.5
40
0.625
40
0.625
40
0.6875
40
0.6875
40
0.75
40
0.75
40
0.875
40
1
40
1
40
1
40
1
41
1
10
3.56439347740729
20
-3.57809090100321
30
0
41
1
10
3.57932396023463
20
-3.34480284292829
30
0
41
1
10
3.59387400541317
20
-3.11425698303916
30
0
41
1
10
3.62227115013502
20
-2.6584459038381
30
0
41
1
10
3.63611804691379
20
-2.43318132258074
30
0
41
1
10
3.65638480068114
20
-2.09925570252497
30
0
41
1
10
3.66305627009837
20
-1.9886106584878
30
0
41
1
10
3.67623285794991
20
-1.76866934972284
30
0
41
1
10
3.6827532459572
20
-1.65911447837851
30
0
41
1
10
3.70195983405472
20
-1.33431912491173
30
0
41
1
10
3.71418218748334
20
-1.12481844758884
30
0
41
1
10
3.73754345195428
20
-0.719396407065574
30
0
41
1
10
3.74868209292708
20
-0.5234763888148
30
0
41
1
10
3.76460602757572
20
-0.239839174600178
30
0
41
1
10
3.76978303373849
20
-0.147004744791957
30
0
41
1
10
3.77987638514333
20
0.0351798494618549
30
0
41
1
10
3.78480623679809
20
0.124778238652652
30
0
41
1
10
3.79908534936678
20
0.386035720586022
30
0
41
1
10
3.81676252507955
20
0.714218628158932
30
0
41
1
10
3.83186320643415
20
1.00274001359335
30
0
41
1
10
3.83878155212827
20
1.13684281026355
30
0
0
SPLINE
5
C2
100
AcDbEntity
8
1
62
256
6
ByLayer
370
18
48
1
60
0
100
AcDbSpline
70
4
71
3
72
8
73
4
40
0
40
0
40
0
40
0
40
1
40
1
40
1
40
1
41
1
10
3.56439347740729
20
-3.57809090100321
30
0
41
1
10
3.54223703510675
20
-3.92723018189935
30
0
41
1
10
3.51946484025996
20
-4.27633203534512
30
0
41
1
10
3.49611184833751
20
-4.62539567591273
30
0
0
SPLINE
5
C3
100
AcDbEntity
8
1
62
256
6
ByLayer
370
18
48
1
60
0
100
AcDbSpline
70
4
71
3
72
8
73
4
40
0
40
0
40
0
40
0
40
1
40
1
40
1
40
1
41
1
10
5.499999999935
20
-2.56727469339575
30
0
41
0.999989793697239
10
5.5046962109178
20
-2.58895321461846
30
0
41
0.999989793697239
10
5.5094123924788
20
-2.6106561194938
30
0
41
1
10
5.51414840021366
20
-2.63238274350243
30
0
0
SPLINE
5
C4
100
AcDbEntity
8
1
62
256
6
ByLayer
370
18
48
1
60
0
100
AcDbSpline
70
4
71
3
72
12
73
8
40
0
40
0
40
0
40
0
40
0.499999999999998
40
0.499999999999998
40
0.749999999999999
40
0.749999999999999
40
1
40
1
40
1
40
1
41
1
10
3.49477641953845
20
-4.64671229829054
30
0
41
1
10
3.4907270970352
20
-4.71609671275075
30
0
41
1
10
3.48946787287554
20
-4.78544487572631
30
0
41
1
10
3.4938987132328
20
-4.88938500922782
30
0
41
1
10
3.49644802921782
20
-4.92407357447325
30
0
41
1
10
3.50469077536849
20
-4.993152652692
30
0
41
1
10
3.51028764967535
20
-5.02745204436872
30
0
41
1
10
3.51871253799439
20
-5.0612911583512
30
0
0
SPLINE
5
C5
100
AcDbEntity
8
1
62
256
6
ByLayer
370
18
48
1
60
0
100
AcDbSpline
70
4
71
3
72
8
73
4
40
0
40
0
40
0
40
0
40
1
40
1
40
1
40
1
41
1
10
3.49611184833751
20
-4.62539567591273
30
0
41
1
10
3.49563647128298
20
-4.63250126845693
30
0
41
1
10
3.49519110077944
20
-4.63960680963908
30
0
41
1
10
3.49477641953845
20
-4.64671229829054
30
0
0
SPLINE
5
C6
100
AcDbEntity
8
1
62
256
6
ByLayer
370
18
48
1
60
0
100
AcDbSpline
70
4
71
3
72
12
73
8
40
0
40
0
40
0
40
0
40
0.250000000000002
40
0.250000000000002
40
0.500000000000005
40
0.500000000000005
40
1
40
1
40
1
40
1
41
1
10
5.6312986828091
20
-5.06129115834989
30
0
41
1
10
5.63772317030913
20
-5.03114267605483
30
0
41
1
10
5.6421299289193
20
-5.0008610212858
30
0
41
1
10
5.64853871812829
20
-4.9401389968813
30
0
41
1
10
5.65050137272911
20
-4.90969602838268
30
0
41
1
10
5.65365139075931
20
-4.81818641525518
30
0
41
1
10
5.65213798904691
20
-4.75683651739317
30
0
41
1
10
5.64798899135522
20
-4.69566283039751
30
0
0
SPLINE
5
C7
100
AcDbEntity
8
1
62
256
6
ByLayer
370
18
48
1
60
0
100
AcDbSpline
70
4
71
3
72
18
73
14
40
0
40
0
40
0
40
0
40
0.500000000000005
40
0.500000000000005
40
0.750000000000009
40
0.750000000000009
40
0.875000000000007
40
0.875000000000007
40
0.937500000000006
40
0.937500000000006
40
0.968750000000003
40
0.968750000000003
40
1
40
1
40
1
40
1
41
1
10
3.51871253799439
20
-5.0612911583512
30
0
41
1
10
3.51870913398793
20
-5.14118912221167
30
0
41
1
10
3.52026276377313
20
-5.22103595854631
30
0
41
1
10
3.52930118659484
20
-5.34058594659376
30
0
41
1
10
3.53333774859038
20
-5.38046155315843
30
0
41
1
10
3.54393250299228
20
-5.43961898157616
30
0
41
1
10
3.54815039448326
20
-5.45928893244562
30
0
41
1
10
3.55766698620553
20
-5.48796242199802
30
0
41
1
10
3.56132994428262
20
-5.49742483662348
30
0
41
1
10
3.56903092401166
20
-5.5106214234024
30
0
41
1
10
3.57196801090746
20
-5.51488390374391
30
0
41
1
10
3.57956788218547
20
-5.52209378810537
30
0
41
1
10
3.58449995354681
20
-5.52500000046916
30
0
41
1
10
3.589999999935
20
-5.52500000046916
30
0
0
SPLINE
5
C8
100
AcDbEntity
8
1
62
256
6
ByLayer
370
18
48
1
60
0
100
AcDbSpline
70
4
71
3
72
18
73
14
40
0
40
0
40
0
40
0
40
0.0312499999999981
40
0.0312499999999981
40
0.0624999999999962
40
0.0624999999999962
40
0.124999999999993
40
0.124999999999993
40
0.249999999999991
40
0.249999999999991
40
0.499999999999991
40
0.499999999999991
40
1
40
1
40
1
40
1
41
1
10
5.54999999993501
20
-5.52500000046916
30
0
41
1
10
5.55561890268496
20
-5.52500000046916
30
0
41
1
10
5.56080775758423
20
-5.52245134012759
30
0
41
1
10
5.56908779632909
20
-5.51564754414377
30
0
41
1
10
5.57238260949856
20
-5.51148932878428
30
0
41
1
10
5.58100864712841
20
-5.49850161540621
30
0
41
1
10
5.5851042108539
20
-5.48916280049673
30
0
41
1
10
5.59587489826231
20
-5.46052320338302
30
0
41
1
10
5.60066747348432
20
-5.44083399566733
30
0
41
1
10
5.61275349616602
20
-5.38177861539842
30
0
41
1
10
5.61748010406808
20
-5.34192628071892
30
0
41
1
10
5.62833095371741
20
-5.22188745119055
30
0
41
1
10
5.63063931444623
20
-5.1415933481594
30
0
41
1
10
5.63129868280885
20
-5.06129115835105
30
0
0
SPLINE
5
C9
100
AcDbEntity
8
1
62
256
6
ByLayer
370
18
48
1
60
0
100
AcDbSpline
70
4
71
3
72
8
73
4
40
0
40
0
40
0
40
0
40
1
40
1
40
1
40
1
41
1
10
5.499999999935
20
2.38033380029799
30
0
41
1
10
5.41242103400398
20
2.38519464207218
30
0
41
1
10
5.32484575343128
20
2.39007738119292
30
0
41
1
10
5.2372743068222
20
2.3949825892976
30
0
0
SPLINE
5
CA
100
AcDbEntity
8
SK1
62
256
6
ByLayer
370
18
48
1
60
0
100
AcDbSpline
70
4
71
3
72
8
73
4
40
0
40
0
40
0
40
0
40
1
40
1
40
1
40
1
41
1
10
-0.850000000064995
20
-1.37551405532432
30
0
41
1
10
-0.566178530145146
20
-1.53636247116994
30
0
41
1
10
-0.282840458382455
20
-1.69645915583598
30
0
41
1
10
-2.18923E-11
20
-1.85578200323305
30
0
0
SPLINE
5
CB
100
AcDbEntity
8
SK1
62
256
6
ByLayer
370
18
48
1
60
0
100
AcDbSpline
70
4
71
3
72
9
73
5
40
0
40
0
40
0
40
0
40
0.5
40
1
40
1
40
1
40
1
41
1
10
-0.850000000064995
20
0.124931060324911
30
0
41
1
10
-0.850000000064995
20
-0.128176354241106
30
0
41
1
10
-0.850000000064995
20
-0.631321407742661
30
0
41
1
10
-0.850000000064995
20
-1.12847202370551
30
0
41
1
10
-0.850000000064995
20
-1.37551405532432
30
0
0
SPLINE
5
CC
100
AcDbEntity
8
1
62
256
6
ByLayer
370
18
48
1
60
0
100
AcDbSpline
70
4
71
3
72
8
73
4
40
0
40
0
40
0
40
0
40
1
40
1
40
1
40
1
41
1
10
0.0999999999349939
20
0.682253646058996
30
0
41
1
10
0.0666780278871794
20
0.662610031288482
30
0
41
1
10
0.0333446819236392
20
0.642969890085807
30
0
41
1
10
-2.26894E-11
20
0.623333210866338
30
0
0
SPLINE
5
CD
100
AcDbEntity
8
1
62
256
6
ByLayer
370
18
48
1
60
0
100
AcDbSpline
70
4
71
3
72
9
73
5
40
0
40
0
40
0
40
0
40
0.5
40
1
40
1
40
1
40
1
41
1
10
0.0999999999349939
20
2.38311132520767
30
0
41
1
10
0.0999999999349939
20
2.11143938340118
30
0
41
1
10
0.0999999999349939
20
1.55609418736765
30
0
41
1
10
0.0999999999349939
20
0.977527742341351
30
0
41
1
10
0.0999999999349939
20
0.682253646058996
30
0
0
SPLINE
5
CE
100
AcDbEntity
8
1
62
256
6
ByLayer
370
18
48
1
60
0
100
AcDbSpline
70
4
71
3
72
10
73
6
40
0
40
0
40
0
40
0
40
0.499995351677588
40
0.499995351677588
40
1
40
1
40
1
40
1
41
1
10
2.37263074088869
20
2.51486582435612
30
0
41
1
10
1.99403560201634
20
2.49194138967942
30
0
41
1
10
1.61534339657149
20
2.46953968032005
30
0
41
1
10
0.857791544766457
20
2.42565859432776
30
0
41
1
10
0.478930091742654
20
2.40417934093458
30
0
41
1
10
0.0999999999349939
20
2.38311132520767
30
0
0
SPLINE
5
CF
100
AcDbEntity
8
1
62
256
6
ByLayer
370
18
48
1
60
0
100
AcDbSpline
70
4
71
3
72
10
73
6
40
0
40
0
40
0
40
0
40
0.49991285069952
40
0.49991285069952
40
1
40
1
40
1
40
1
41
1
10
3.9053427688637
20
2.62766342725814
30
0
41
1
10
3.6505948419458
20
2.6044612746316
30
0
41
1
10
3.39536095243565
20
2.5841695471776
30
0
41
1
10
2.88436296099104
20
2.54710095485407
30
0
41
1
10
2.6285660817401
20
2.53036304658752
30
0
41
1
10
2.37263074088869
20
2.51486582435612
30
0
0
SPLINE
5
D0
100
AcDbEntity
8
1
62
256
6
ByLayer
370
18
48
1
60
0
100
AcDbSpline
70
4
71
3
72
14
73
10
40
0
40
0
40
0
40
0
40
0.28785855273314
40
0.28785855273314
40
0.577109601249397
40
0.577109601249397
40
0.788554791571085
40
0.788554791571085
40
1
40
1
40
1
40
1
41
1
10
3.55699424008662
20
-3.69209005528748
30
0
41
1
10
3.22528358546009
20
-3.6930325411744
30
0
41
1
10
2.89357348763684
20
-3.69399835604637
30
0
41
1
10
2.22854992152699
20
-3.69598519137858
30
0
41
1
10
1.89523644866372
20
-3.6970064539048
30
0
41
1
10
1.31826895719047
20
-3.69882202005391
30
0
41
1
10
1.07461460697129
20
-3.69960348364282
30
0
41
1
10
0.587306695049051
20
-3.70119775542591
30
0
41
1
10
0.343653128042519
20
-3.70201056292316
30
0
41
1
10
0.0999999999349939
20
-3.70284005661276
30
0
0
SPLINE
5
D1
100
AcDbEntity
8
1
62
256
6
ByLayer
370
18
48
1
60
0
100
AcDbSpline
70
4
71
3
72
9
73
5
40
0
40
0
40
0
40
0
40
0.5
40
1
40
1
40
1
40
1
41
1
10
0.0999999999349939
20
-1.91209098915695
30
0
41
1
10
0.0999999999349939
20
-2.23598952954743
30
0
41
1
10
0.0999999999349939
20
-2.85781336424844
30
0
41
1
10
0.0999999999349939
20
-3.42982053380524
30
0
41
1
10
0.0999999999349939
20
-3.70284005661276
30
0
0
SPLINE
5
D2
100
AcDbEntity
8
1
62
256
6
ByLayer
370
18
48
1
60
0
100
AcDbSpline
70
4
71
3
72
20
73
16
40
0
40
0
40
0
40
0
40
0.125
40
0.125
40
0.25
40
0.25
40
0.5
40
0.5
40
0.5625
40
0.5625
40
0.625
40
0.625
40
0.75
40
0.75
40
1
40
1
40
1
40
1
41
1
10
5.499999999935
20
2.38033380029799
30
0
41
1
10
5.499999999935
20
2.21052747646055
30
0
41
1
10
5.499999999935
20
2.03740333195194
30
0
41
1
10
5.499999999935
20
1.68553341939588
30
0
41
1
10
5.499999999935
20
1.50818081397205
30
0
41
1
10
5.499999999935
20
0.972008671289387
30
0
41
1
10
5.499999999935
20
0.609107894124179
30
0
41
1
10
5.499999999935
20
0.148603447249201
30
0
41
1
10
5.499999999935
20
0.0561559659871591
30
0
41
1
10
5.499999999935
20
-0.129444806874176
30
0
41
1
10
5.499999999935
20
-0.222534558697902
30
0
41
1
10
5.499999999935
20
-0.5001191803903
30
0
41
1
10
5.499999999935
20
-0.683841451632674
30
0
41
1
10
5.499999999935
20
-1.23108878511633
30
0
41
1
10
5.499999999935
20
-1.59072748992023
30
0
41
1
10
5.499999999935
20
-1.94499700051867
30
0
0
SPLINE
5
D3
100
AcDbEntity
8
1
62
256
6
ByLayer
370
18
48
1
60
0
100
AcDbSpline
70
4
71
3
72
8
73
4
40
0
40
0
40
0
40
0
40
1
40
1
40
1
40
1
41
1
10
0.0999999999349939
20
1.00614423713745
30
0
41
0.999486020985768
10
0.0669262455349283
20
0.986133291635093
30
0
41
0.999029073392615
10
0.0335911280511514
20
0.965993621490236
30
0
41
0.998629157220541
10
-1.92354E-11
20
0.945728500511534
30
0
0
SPLINE
5
D4
100
AcDbEntity
8
1
62
256
6
ByLayer
370
18
48
1
60
0
100
AcDbSpline
70
4
71
3
72
8
73
4
40
0
40
0
40
0
40
0
40
1
40
1
40
1
40
1
41
1
10
0.0529165123948871
20
2.44029647966471
30
0
41
0.999987282053348
10
0.0686676802391625
20
2.43938127650964
30
0
41
0.999987282053348
10
0.0843623756901642
20
2.43840147589812
30
0
41
1
10
0.0999999999349939
20
2.43735711521339
30
0
0
SPLINE
5
D5
100
AcDbEntity
8
1
62
256
6
ByLayer
370
18
48
1
60
0
100
AcDbSpline
70
4
71
3
72
14
73
10
40
0
40
0
40
0
40
0
40
0.288848827006048
40
0.288848827006048
40
0.577697655046507
40
0.577697655046507
40
0.78884881848223
40
0.78884881848223
40
1
40
1
40
1
40
1
41
1
10
3.56180811839815
20
5.93775109608052
30
0
41
1
10
3.22849283226935
20
5.93533427934491
30
0
41
1
10
2.89517810800808
20
5.93288596995677
30
0
41
1
10
2.22854992152696
20
5.92792238628098
30
0
41
1
10
1.89523644866372
20
5.92540711400386
30
0
41
1
10
1.31826895719044
20
5.92099138138394
30
0
41
1
10
1.07461460697129
20
5.91910753310978
30
0
41
1
10
0.587306695049051
20
5.91529979778855
30
0
41
1
10
0.343653128042519
20
5.91337591130753
30
0
41
1
10
0.0999999999349939
20
5.91143098087667
30
0
0
SPLINE
5
D6
100
AcDbEntity
8
1
62
256
6
ByLayer
370
18
48
1
60
0
100
AcDbSpline
70
4
71
3
72
9
73
5
40
0
40
0
40
0
40
0
40
0.5
40
1
40
1
40
1
40
1
41
1
10
3.56787364144751
20
6.38685483070995
30
0
41
1
10
3.56787391118573
20
6.30370870066926
30
0
41
1
10
3.5668717079873
20
6.1458401263684
30
0
41
1
10
3.56385552557381
20
6.00430791441886
30
0
41
1
10
3.56180811839815
20
5.93775109608052
30
0
0
SPLINE
5
D7
100
AcDbEntity
8
1
62
256
6
ByLayer
370
18
48
1
60
0
100
AcDbSpline
70
4
71
3
72
9
73
5
40
0
40
0
40
0
40
0
40
0.5
40
1
40
1
40
1
40
1
41
1
10
5.58157884055476
20
5.8670624915612
30
0
41
1
10
5.57858037991414
20
5.94167683461097
30
0
41
1
10
5.57414431983824
20
6.103176337479
30
0
41
1
10
5.5725698567507
20
6.28820125395993
30
0
41
1
10
5.5724985830777
20
6.38685483070986
30
0
0
SPLINE
5
D8
100
AcDbEntity
8
1
62
256
6
ByLayer
370
18
48
1
60
0
100
AcDbSpline
70
4
71
3
72
8
73
4
40
0
40
0
40
0
40
0
40
1
40
1
40
1
40
1
41
1
10
5.58157884055476
20
5.8670624915612
30
0
41
0.999953750594117
10
5.55437812295479
20
5.85672273996596
30
0
41
0.999953750594117
10
5.52718391836907
20
5.84652296007945
30
0
41
1
10
5.499999999935
20
5.83646456711449
30
0
0
SPLINE
5
D9
100
AcDbEntity
8
1
62
256
6
ByLayer
370
18
48
1
60
0
100
AcDbSpline
70
4
71
3
72
8
73
4
40
0
40
0
40
0
40
0
40
1
40
1
40
1
40
1
41
1
10
3.49611184833751
20
-6.21182713221688
30
0
41
1
10
3.49563647128298
20
-6.20718928606576
30
0
41
1
10
3.49519110077944
20
-6.20255147343883
30
0
41
1
10
3.49477641953845
20
-6.19791369509892
30
0
0
SPLINE
5
DA
100
AcDbEntity
8
SK1
62
256
6
ByLayer
370
18
48
1
60
0
100
AcDbSpline
70
4
71
3
72
8
73
4
40
0
40
0
40
0
40
0
40
1
40
1
40
1
40
1
41
1
10
-0.850000000064995
20
5.67453843988611
30
0
41
1
10
-0.566216776196605
20
5.71890632179337
30
0
41
1
10
-0.28282020461013
20
5.75824422888617
30
0
41
1
10
-1.91319E-11
20
5.7923800536661
30
0
0
SPLINE
5
DB
100
AcDbEntity
8
1
62
256
6
ByLayer
370
18
48
1
60
0
100
AcDbSpline
70
4
71
3
72
20
73
16
40
0
40
0
40
0
40
0
40
0.249999999999999
40
0.249999999999999
40
0.374999999999999
40
0.374999999999999
40
0.437499999999999
40
0.437499999999999
40
0.499999999999999
40
0.499999999999999
40
0.749999999999999
40
0.749999999999999
40
0.875
40
0.875
40
1
40
1
40
1
40
1
41
1
10
3.56787364144751
20
6.38685483070995
30
0
41
1
10
3.56787312971107
20
6.54459629589229
30
0
41
1
10
3.56665352345033
20
6.70794585361406
30
0
41
1
10
3.56316038829044
20
6.96102914413348
30
0
41
1
10
3.56171632266018
20
7.04674187296592
30
0
41
1
10
3.55913121410404
20
7.17736874304319
30
0
41
1
10
3.55819954387474
20
7.22125450673965
30
0
41
1
10
3.55619472807569
20
7.30972449350455
30
0
41
1
10
3.5551191087726
20
7.3543964624165
30
0
41
1
10
3.54943822867301
20
7.57737585656301
30
0
41
1
10
3.54390714002847
20
7.7558950499855
30
0
41
1
10
3.53418174357
20
8.02387123870602
30
0
41
1
10
3.53070000953287
20
8.11322972427564
30
0
41
1
10
3.52324392021509
20
8.29201415037389
30
0
41
1
10
3.51925923714131
20
8.38163616483763
30
0
41
1
10
3.51506271309319
20
8.47031902833231
30
0
0
SPLINE
5
DC
100
AcDbEntity
8
1
62
256
6
ByLayer
370
18
48
1
60
0
100
AcDbSpline
70
4
71
3
72
20
73
16
40
0
40
0
40
0
40
0
40
0.249999999999997
40
0.249999999999997
40
0.374999999999997
40
0.374999999999997
40
0.437499999999997
40
0.437499999999997
40
0.499999999999997
40
0.499999999999997
40
0.749999999999998
40
0.749999999999998
40
0.874999999999999
40
0.874999999999999
40
1
40
1
40
1
40
1
41
1
10
5.62492564636392
20
8.47031902835226
30
0
41
1
10
5.61649959491561
20
8.29295134730816
30
0
41
1
10
5.60906654748607
20
8.11497595652096
30
0
41
1
10
5.59932777618656
20
7.84713892452768
30
0
41
1
10
5.59631838910448
20
7.75771333252425
30
0
41
1
10
5.59216541170576
20
7.62335161482841
30
0
41
1
10
5.59084137905953
20
7.57852709778956
30
0
41
1
10
5.58831626867834
20
7.48880221963046
30
0
41
1
10
5.58711317311395
20
7.4438129207002
30
0
41
1
10
5.58146554120873
20
7.22081709335242
30
0
41
1
10
5.57807165561456
20
7.04727075888519
30
0
41
1
10
5.57466578629942
20
6.79401083586444
30
0
41
1
10
5.57381340306659
20
6.71077464428285
30
0
41
1
10
5.57270063909755
20
6.54672049970426
30
0
41
1
10
5.57244160053793
20
6.46572731085345
30
0
41
1
10
5.57249858307768
20
6.38685483070975
30
0
0
SPLINE
5
DD
100
AcDbEntity
8
1
62
256
6
ByLayer
370
18
48
1
60
0
100
AcDbSpline
70
4
71
3
72
10
73
6
40
0
40
0
40
0
40
0
40
0.499912850699478
40
0.499912850699478
40
1
40
1
40
1
40
1
41
1
10
3.9053427688637
20
-5.95441723142255
30
0
41
1
10
3.65059484194592
20
-5.96651608548172
30
0
41
1
10
3.39536095243585
20
-5.97835135485303
30
0
41
1
10
2.88436296099144
20
-6.00171238882206
30
0
41
1
10
2.62856608174061
20
-6.01323566712605
30
0
41
1
10
2.37263074088918
20
-6.02465421347168
30
0
0
SPLINE
5
DE
100
AcDbEntity
8
1
62
256
6
ByLayer
370
18
48
1
60
0
100
AcDbSpline
70
4
71
3
72
8
73
4
40
0
40
0
40
0
40
0
40
1
40
1
40
1
40
1
41
1
10
3.90119585274789
20
-6.02465421347171
30
0
41
1
10
3.90252129974536
20
-5.99863777810501
30
0
41
1
10
3.90390801745622
20
-5.97517564242321
30
0
41
1
10
3.9053427688637
20
-5.95441723142255
30
0
0
SPLINE
5
DF
100
AcDbEntity
8
SK1
62
256
6
ByLayer
370
18
48
1
60
0
100
AcDbSpline
70
4
71
3
72
8
73
4
40
0
40
0
40
0
40
0
40
1
40
1
40
1
40
1
41
1
10
-0.850000000064995
20
2.42635658666399
30
0
41
0.996096748711655
10
-0.554462515114568
20
2.45062231900963
30
0
41
0.995855730551352
10
-0.27008427725756
20
2.45623444581669
30
0
41
0.999276945519093
10
-1.70376E-11
20
2.44311776638784
30
0
0
SPLINE
5
E0
100
AcDbEntity
8
1
62
256
6
ByLayer
370
18
48
1
60
0
100
AcDbSpline
70
4
71
3
72
8
73
4
40
0
40
0
40
0
40
0
40
1
40
1
40
1
40
1
41
1
10
3.44246713757875
20
10.5939300486045
30
0
41
1
10
3.44238156628833
20
10.59568366023
30
0
41
1
10
3.44232633895308
20
10.5974386865901
30
0
41
1
10
3.44230151705406
20
10.5991936274663
30
0
0
SPLINE
5
E1
100
AcDbEntity
8
1
62
256
6
ByLayer
370
18
48
1
60
0
100
AcDbSpline
70
4
71
3
72
18
73
14
40
0
40
0
40
0
40
0
40
0.250000000000002
40
0.250000000000002
40
0.375000000000003
40
0.375000000000003
40
0.500000000000004
40
0.500000000000004
40
0.625000000000005
40
0.625000000000005
40
0.750000000000006
40
0.750000000000006
40
1
40
1
40
1
40
1
41
1
10
3.44230151705406
20
10.5991936274663
30
0
41
1
10
3.44202508625975
20
10.618737647848
30
0
41
1
10
3.44547403295186
20
10.6379145031995
30
0
41
1
10
3.4560631493963
20
10.6650868934214
30
0
41
1
10
3.46042978933608
20
10.6737006250217
30
0
41
1
10
3.47083582520122
20
10.6900450623016
30
0
41
1
10
3.476958757712
20
10.6978477524094
30
0
41
1
10
3.49048694741381
20
10.7119173358157
30
0
41
1
10
3.49790282292102
20
10.718241905992
30
0
41
1
10
3.51407404245097
20
10.7294365706666
30
0
41
1
10
3.52284881333423
20
10.7342817602377
30
0
41
1
10
3.5500060858476
20
10.7458766956502
30
0
41
1
10
3.56991627662018
20
10.7499999995286
30
0
41
1
10
3.58999999992199
20
10.7499999995309
30
0
0
SPLINE
5
E2
100
AcDbEntity
8
1
62
256
6
ByLayer
370
18
48
1
60
0
100
AcDbSpline
70
4
71
3
72
18
73
14
40
0
40
0
40
0
40
0
40
0.125000000000003
40
0.125000000000003
40
0.250000000000006
40
0.250000000000006
40
0.500000000000003
40
0.500000000000003
40
0.75
40
0.75
40
0.875
40
0.875
40
1
40
1
40
1
40
1
41
1
10
5.54999999993501
20
10.7499999995308
30
0
41
1
10
5.5602370201652
20
10.7499999995308
30
0
41
1
10
5.57029085931092
20
10.7489629623529
30
0
41
1
10
5.59004505238275
20
10.744886572136
30
0
41
1
10
5.59985105800601
20
10.7417895432557
30
0
41
1
10
5.62758074341801
20
10.7297732553191
30
0
41
1
10
5.64434856740749
20
10.7179003450986
30
0
41
1
10
5.67147444990314
20
10.6889174265732
30
0
41
1
10
5.68205442427714
20
10.6715843490375
30
0
41
1
10
5.69215089175626
20
10.6437768079052
30
0
41
1
10
5.69461431503103
20
10.6340488601324
30
0
41
1
10
5.69753444221709
20
10.6145393203449
30
0
41
1
10
5.69803173986978
20
10.6046848399653
30
0
41
1
10
5.69754409266653
20
10.594728083048
30
0
0
SPLINE
5
E3
100
AcDbEntity
8
1
62
256
6
ByLayer
370
18
48
1
60
0
100
AcDbSpline
70
4
71
3
72
16
73
12
40
0
40
0
40
0
40
0
40
0.249999999999999
40
0.249999999999999
40
0.499999999999998
40
0.499999999999998
40
0.624999999999998
40
0.624999999999998
40
0.749999999999999
40
0.749999999999999
40
1
40
1
40
1
40
1
41
1
10
3.51506271309319
20
8.47031902833231
30
0
41
1
10
3.5116588288731
20
8.64474816341158
30
0
41
1
10
3.50756017072584
20
8.82004995635893
30
0
41
1
10
3.49804974979821
20
9.17233138468748
30
0
41
1
10
3.49263756880851
20
9.34931123579628
30
0
41
1
10
3.48353420691032
20
9.61604335195108
30
0
41
1
10
3.4803350217872
20
9.70516498720508
30
0
41
1
10
3.47360059187639
20
9.88383746177465
30
0
41
1
10
3.47005620242552
20
9.97360376224407
30
0
41
1
10
3.45898297021742
20
10.2416426287917
30
0
41
1
10
3.45102091206357
20
10.4186376309394
30
0
41
1
10
3.44246713757875
20
10.5939300486045
30
0
0
SPLINE
5
E4
100
AcDbEntity
8
1
62
256
6
ByLayer
370
18
48
1
60
0
100
AcDbSpline
70
4
71
3
72
16
73
12
40
0
40
0
40
0
40
0
40
0.249999999999998
40
0.249999999999998
40
0.499999999999996
40
0.499999999999996
40
0.624999999999997
40
0.624999999999997
40
0.749999999999997
40
0.749999999999997
40
1
40
1
40
1
40
1
41
1
10
5.69754409266653
20
10.594728083048
30
0
41
1
10
5.6889561669781
20
10.4193802333438
30
0
41
1
10
5.68101780583936
20
10.243377846286
30
0
41
1
10
5.66637347972863
20
9.89011385294063
30
0
41
1
10
5.65966762541453
20
9.71285209570763
30
0
41
1
10
5.65053177510981
20
9.44601097822033
30
0
41
1
10
5.64764080330076
20
9.35690544719259
30
0
41
1
10
5.6421734958345
20
9.17837160464165
30
0
41
1
10
5.63959159498643
20
9.08872774429369
30
0
41
1
10
5.63238443160898
20
8.82122998234158
30
0
41
1
10
5.62829111104278
20
8.64481317188074
30
0
41
1
10
5.62492564636329
20
8.47031902835005
30
0
0
SPLINE
5
E5
100
AcDbEntity
8
1
62
256
6
ByLayer
370
18
48
1
60
0
100
AcDbSpline
70
4
71
3
72
8
73
4
40
0
40
0
40
0
40
0
40
1
40
1
40
1
40
1
41
1
10
0.0529165123948587
20
-2.64029648060318
30
0
41
0.999743120000319
10
0.0353489875067771
20
-2.63927574014994
30
0
41
0.999502101840005
10
0.0177098873076107
20
-2.63817452469672
30
0
41
0.999276945519058
10
-1.98688E-11
20
-2.63699282845342
30
0
0
SPLINE
5
E6
100
AcDbEntity
8
1
62
256
6
ByLayer
370
18
48
1
60
0
100
AcDbSpline
70
4
71
3
72
14
73
10
40
0
40
0
40
0
40
0
40
0.18775441458114
40
0.18775441458114
40
0.462428955060373
40
0.462428955060373
40
0.737103517791197
40
0.737103517791197
40
1
40
1
40
1
40
1
41
1
10
5.56554097055482
20
5.68650015111837
30
0
41
1
10
5.56654160410284
20
5.69779962418895
30
0
41
1
10
5.56754283818049
20
5.70909928872297
30
0
41
1
10
5.57001027465148
20
5.73693021301102
30
0
41
1
10
5.57147714880983
20
5.75346168691976
30
0
41
1
10
5.57441335014622
20
5.78652541751873
30
0
41
1
10
5.5758826773334
20
5.80305767428186
30
0
41
1
10
5.57876066173833
20
5.83541402612656
30
0
41
1
10
5.58016921884683
20
5.85123808938613
30
0
41
1
10
5.58157884055476
20
5.8670624915612
30
0
0
SPLINE
5
E7
100
AcDbEntity
8
SK1
62
256
6
ByLayer
370
18
48
1
60
0
100
AcDbSpline
70
4
71
3
72
8
73
4
40
0
40
0
40
0
40
0
40
1
40
1
40
1
40
1
41
1
10
-0.850000000064995
20
-1.66320628604058
30
0
41
0.998707432961344
10
-0.757510913663054
20
-1.61904480719
30
0
41
0.997775552161316
10
-0.665969090395229
20
-1.57376029913789
30
0
41
0.997204357599916
10
-0.575476517217294
20
-1.52739875136293
30
0
0
SPLINE
5
E8
100
AcDbEntity
8
1
62
256
6
ByLayer
370
18
48
1
60
0
100
AcDbSpline
70
4
71
3
72
8
73
4
40
0
40
0
40
0
40
0
40
1
40
1
40
1
40
1
41
1
10
0.0999999999349939
20
1.33670392194591
30
0
41
0.999486020985774
10
0.0669262455353336
20
1.35505266735593
30
0
41
0.999029073392626
10
0.0335911280519682
20
1.37324058118411
30
0
41
0.998629157220555
10
-1.80008E-11
20
1.39126432653356
30
0
0
SPLINE
5
E9
100
AcDbEntity
8
1
62
256
6
ByLayer
370
18
48
1
60
0
100
AcDbSpline
70
4
71
3
72
14
73
10
40
0
40
0
40
0
40
0
40
0.238895743596624
40
0.238895743596624
40
0.477791487193249
40
0.477791487193249
40
0.955582974386498
40
0.955582974386498
40
1
40
1
40
1
40
1
41
1
10
5.54999999993501
20
10.7499999995308
30
0
41
1
10
5.55561890268496
20
10.7499999995308
30
0
41
1
10
5.56080775758426
20
10.7496625721275
30
0
41
1
10
5.56908779632909
20
10.7487617901858
30
0
41
1
10
5.57238260949859
20
10.7482112673139
30
0
41
1
10
5.58100864712844
20
10.7464917716525
30
0
41
1
10
5.5851042108539
20
10.7452553683495
30
0
41
1
10
5.58902819917947
20
10.7438739679486
30
0
41
1
10
5.58935679925415
20
10.7437563008796
30
0
41
1
10
5.58968040330293
20
10.7436384712687
30
0
0
SPLINE
5
EA
100
AcDbEntity
8
1
62
256
6
ByLayer
370
18
48
1
60
0
100
AcDbSpline
70
4
71
3
72
8
73
4
40
0
40
0
40
0
40
0
40
1
40
1
40
1
40
1
41
1
10
0.0999999999349939
20
-5.68700373123428
30
0
41
1
10
0.0666824154103614
20
-5.68046596592879
30
0
41
1
10
0.0333487228157576
20
-5.67382922291906
30
0
41
1
10
-2.06444E-11
20
-5.66709406398508
30
0
0
SPLINE
5
EB
100
AcDbEntity
8
1
62
256
6
ByLayer
370
18
48
1
60
0
100
AcDbSpline
70
4
71
3
72
10
73
6
40
0
40
0
40
0
40
0
40
0.499996177068374
40
0.499996177068374
40
1
40
1
40
1
40
1
41
1
10
3.83878155212824
20
-7.03999873243316
30
0
41
1
10
3.85062897324792
20
-6.87079249826616
30
0
41
1
10
3.86190697423382
20
-6.7015788209203
30
0
41
1
10
3.88287994464045
20
-6.36313182342042
30
0
41
1
10
3.89257348341798
20
-6.19389773268253
30
0
41
1
10
3.90119585274789
20
-6.02465421347171
30
0
0
SPLINE
5
EC
100
AcDbEntity
8
1
62
256
6
ByLayer
370
18
48
1
60
0
100
AcDbSpline
70
4
71
3
72
16
73
12
40
0
40
0
40
0
40
0
40
0.0998997531815119
40
0.0998997531815119
40
0.399933168787675
40
0.399933168787675
40
0.549949876590756
40
0.549949876590756
40
0.699966584393838
40
0.699966584393838
40
1
40
1
40
1
40
1
41
1
10
3.73416819721103
20
-7.60216329563403
30
0
41
1
10
3.73847300716693
20
-7.6021505367093
30
0
41
1
10
3.74269530668411
20
-7.60025102398455
30
0
41
1
10
3.7592773788285
20
-7.58519433875745
30
0
41
1
10
3.77099308657967
20
-7.55710354297096
30
0
41
1
10
3.78751838882454
20
-7.48948733906056
30
0
41
1
10
3.79285160285636
20
-7.46268880117651
30
0
41
1
10
3.80316786307978
20
-7.40035601745643
30
0
41
1
10
3.80813143450513
20
-7.36491296732655
30
0
41
1
10
3.82234815636986
20
-7.24658506440002
30
0
41
1
10
3.83097519269975
20
-7.15149005768546
30
0
41
1
10
3.83878155212824
20
-7.03999873243316
30
0
0
SPLINE
5
ED
100
AcDbEntity
8
1
62
256
6
ByLayer
370
18
48
1
60
0
100
AcDbSpline
70
4
71
3
72
14
73
10
40
0
40
0
40
0
40
0
40
0.500000000000001
40
0.500000000000001
40
0.750000000000001
40
0.750000000000001
40
0.875
40
0.875
40
1
40
1
40
1
40
1
41
1
10
3.56439347740732
20
-6.89540677587672
30
0
41
1
10
3.59037189141162
20
-7.08663958430708
30
0
41
1
10
3.61520541677393
20
-7.23862290604578
30
0
41
1
10
3.65092764320082
20
-7.41005637085183
30
0
41
1
10
3.66257844248997
20
-7.4577041786055
30
0
41
1
10
3.67967796782077
20
-7.51456450602422
30
0
41
1
10
3.68532422846832
20
-7.53109954723868
30
0
41
1
10
3.69644015566351
20
-7.55904851054061
30
0
41
1
10
3.70190705883309
20
-7.57046508681364
30
0
41
1
10
3.70728448679304
20
-7.57932019876378
30
0
0
SPLINE
5
EE
100
AcDbEntity
8
1
62
256
6
ByLayer
370
18
48
1
60
0
100
AcDbSpline
70
4
71
3
72
8
73
4
40
0
40
0
40
0
40
0
40
1
40
1
40
1
40
1
41
1
10
3.56439347740732
20
-6.89540677587672
30
0
41
1
10
3.54223703510675
20
-6.66752229473965
30
0
41
1
10
3.51946484025996
20
-6.43966224263582
30
0
41
1
10
3.49611184833751
20
-6.21182713221688
30
0
0
SPLINE
5
EF
100
AcDbEntity
8
1
62
256
6
ByLayer
370
18
48
1
60
0
100
AcDbSpline
70
4
71
3
72
10
73
6
40
0
40
0
40
0
40
0
40
0.499995351677588
40
0.499995351677588
40
1
40
1
40
1
40
1
41
1
10
2.37263074088918
20
-6.02465421347168
30
0
41
1
10
1.99403560201674
20
-6.04154522244699
30
0
41
1
10
1.6153433965718
20
-6.05805108089845
30
0
41
1
10
0.857791544766627
20
-6.09038321156154
30
0
41
1
10
0.47893009174274
20
-6.10620939296862
30
0
41
1
10
0.0999999999349939
20
-6.12173256934153
30
0
0
SPLINE
5
F0
100
AcDbEntity
8
1
62
256
6
ByLayer
370
18
48
1
60
0
100
AcDbSpline
70
4
71
3
72
8
73
4
40
0
40
0
40
0
40
0
40
1
40
1
40
1
40
1
41
1
10
5.499999999935
20
-6.12377908428687
30
0
41
1
10
5.41242103400398
20
-6.12019755552973
30
0
41
1
10
5.32484575343128
20
-6.11659989253494
30
0
41
1
10
5.2372743068222
20
-6.11298567411296
30
0
0
SPLINE
5
F1
100
AcDbEntity
8
1
62
256
6
ByLayer
370
18
48
1
60
0
100
AcDbSpline
70
4
71
3
72
10
73
6
40
0
40
0
40
0
40
0
40
0.499996729084741
40
0.499996729084741
40
1
40
1
40
1
40
1
41
1
10
5.2372743068222
20
-6.11298567411296
30
0
41
1
10
5.24570103685914
20
-6.26750208236743
30
0
41
1
10
5.25498235664074
20
-6.42201039089909
30
0
41
1
10
5.2748162479715
20
-6.7310137281662
30
0
41
1
10
5.28536831155873
20
-6.88550929435115
30
0
41
1
10
5.29638370564274
20
-7.03999873243316
30
0
0
SPLINE
5
F2
100
AcDbEntity
8
1
62
256
6
ByLayer
370
18
48
1
60
0
100
AcDbSpline
70
4
71
3
72
14
73
10
40
0
40
0
40
0
40
0
40
0.180143948902035
40
0.180143948902035
40
0.466812422344862
40
0.466812422344862
40
0.753480921100333
40
0.753480921100333
40
1
40
1
40
1
40
1
41
1
10
5.56554097055491
20
-2.48363807847412
30
0
41
1
10
5.56650104427223
20
-2.48125088683332
30
0
41
1
10
5.56746167082346
20
-2.47886401783643
30
0
41
1
10
5.56995237786688
20
-2.47267967353497
30
0
41
1
10
5.57148329007802
20
-2.46888268364506
30
0
41
1
10
5.5745477852316
20
-2.46129026232364
30
0
41
1
10
5.5760813681847
20
-2.45749483087619
30
0
41
1
10
5.57893616086858
20
-2.45043694653126
30
0
41
1
10
5.58025703266247
20
-2.4471742963587
30
0
41
1
10
5.5815788405545
20
-2.44391219261652
30
0
0
SPLINE
5
F3
100
AcDbEntity
8
1
62
256
6
ByLayer
370
18
48
1
60
0
100
AcDbSpline
70
4
71
3
72
8
73
4
40
0
40
0
40
0
40
0
40
1
40
1
40
1
40
1
41
1
10
5.64798899135522
20
-6.16596350438434
30
0
41
1
10
5.62272614853165
20
-6.40908296371649
30
0
41
1
10
5.59811552148832
20
-6.65223084179055
30
0
41
1
10
5.57420439078203
20
-6.89540677587672
30
0
0
SPLINE
5
F4
100
AcDbEntity
8
1
62
256
6
ByLayer
370
18
48
1
60
0
100
AcDbSpline
70
4
71
3
72
8
73
4
40
0
40
0
40
0
40
0
40
1
40
1
40
1
40
1
41
1
10
5.51414840021366
20
-7.27553959877829
30
0
41
1
10
5.53363201192144
20
-7.17195829284736
30
0
41
1
10
5.55363693262422
20
-7.0452420169573
30
0
41
1
10
5.57420439078203
20
-6.89540677587672
30
0
0
SPLINE
5
F5
100
AcDbEntity
8
1
62
256
6
ByLayer
370
18
48
1
60
0
100
AcDbSpline
70
4
71
3
72
8
73
4
40
0
40
0
40
0
40
0
40
1
40
1
40
1
40
1
41
1
10
5.51414840021366
20
-7.27553959877829
30
0
41
1
10
5.50942033402427
20
-7.21969682444254
30
0
41
1
10
5.50470378361951
20
-7.16381480808522
30
0
41
1
10
5.49999999993591
20
-7.10788931844286
30
0
0
SPLINE
5
F6
100
AcDbEntity
8
1
62
256
6
ByLayer
370
18
48
1
60
0
100
AcDbSpline
70
4
71
3
72
8
73
4
40
0
40
0
40
0
40
0
40
1
40
1
40
1
40
1
41
1
10
5.49999999993591
20
-7.10788931844286
30
0
41
1
10
5.499999999935
20
-7.18759698766621
30
0
41
1
10
5.499999999935
20
-7.26733137960696
30
0
41
1
10
5.499999999935
20
-7.34709070509061
30
0
0
SPLINE
5
F7
100
AcDbEntity
8
1
62
256
6
ByLayer
370
18
48
1
60
0
100
AcDbSpline
70
4
71
3
72
8
73
4
40
0
40
0
40
0
40
0
40
1
40
1
40
1
40
1
41
1
10
5.42973634873962
20
-7.57932019876375
30
0
41
1
10
5.45181540445992
20
-7.54339069330669
30
0
41
1
10
5.47520022493669
20
-7.46596474257311
30
0
41
1
10
5.499999999935
20
-7.34709070509061
30
0
0
SPLINE
5
F8
100
AcDbEntity
8
1
62
256
6
ByLayer
370
18
48
1
60
0
100
AcDbSpline
70
4
71
3
72
16
73
12
40
0
40
0
40
0
40
0
40
0.300007343040357
40
0.300007343040357
40
0.600014686080714
40
0.600014686080714
40
0.750018357600892
40
0.750018357600892
40
0.900022029121071
40
0.900022029121071
40
1
40
1
40
1
40
1
41
1
10
5.29638370564274
20
-7.03999873243316
30
0
41
1
10
5.30433337011507
20
-7.15149172014725
30
0
41
1
10
5.31306633678798
20
-7.24602685640326
30
0
41
1
10
5.3321136422696
20
-7.40255681684789
30
0
41
1
10
5.34242780618482
20
-7.46454722809045
30
0
41
1
10
5.35915254836161
20
-7.53287721780293
30
0
41
1
10
5.36493697675368
20
-7.55153188624854
30
0
41
1
10
5.37694426955775
20
-7.58039417395105
30
0
41
1
10
5.38314623560225
20
-7.59052844645495
30
0
41
1
10
5.39374393317954
20
-7.60017758971884
30
0
41
1
10
5.39805774712869
20
-7.60212778989498
30
0
41
1
10
5.40244839069021
20
-7.60216268448173
30
0
0
SPLINE
5
F9
100
AcDbEntity
8
1
62
256
6
ByLayer
370
18
48
1
60
0
100
AcDbSpline
70
4
71
3
72
8
73
4
40
0
40
0
40
0
40
0
40
1
40
1
40
1
40
1
41
1
10
5.5815788405545
20
-2.44391219261652
30
0
41
0.999953750594112
10
5.55437812295743
20
-2.42850388570739
30
0
41
0.999953750594112
10
5.52718391837043
20
-2.41306080056735
30
0
41
1
10
5.499999999935
20
-2.39758507990689
30
0
0
SPLINE
5
FA
100
AcDbEntity
8
1
62
256
6
ByLayer
370
18
48
1
60
0
100
AcDbSpline
70
4
71
3
72
8
73
4
40
0
40
0
40
0
40
0
40
1
40
1
40
1
40
1
41
1
10
-1.91319E-11
20
5.7923800536661
30
0
41
1
10
0.0333414471785329
20
5.79640429868457
30
0
41
1
10
0.0666748841066057
20
5.80035624587528
30
0
41
1
10
0.0999999999349939
20
5.80423561325594
30
0
0
SPLINE
5
FB
100
AcDbEntity
8
1
62
256
6
ByLayer
370
18
48
1
60
0
100
AcDbSpline
70
4
71
3
72
8
73
4
40
0
40
0
40
0
40
0
40
1
40
1
40
1
40
1
41
0.999276945519093
10
-1.70376E-11
20
2.44311776638784
30
0
41
0.99950210184003
10
0.0177098873095008
20
2.44225768331615
30
0
41
0.999743120000332
10
0.0353489875077328
20
2.44131722011789
30
0
41
1
10
0.0529165123948871
20
2.44029647966471
30
0
0
SPLINE
5
FC
100
AcDbEntity
8
SK1
62
256
6
ByLayer
370
18
48
1
60
0
100
AcDbSpline
70
4
71
3
72
8
73
4
40
0
40
0
40
0
40
0
40
1
40
1
40
1
40
1
41
0.998629157220555
10
-1.80008E-11
20
1.39126432653356
30
0
41
0.995424945772969
10
-0.270113566101442
20
1.53619718262515
30
0
41
0.995881893366117
10
-0.554494583059025
20
1.66935823548917
30
0
41
1
10
-0.850000000064995
20
1.78930105103936
30
0
0
SPLINE
5
FD
100
AcDbEntity
8
SK1
62
256
6
ByLayer
370
18
48
1
60
0
100
AcDbSpline
70
4
71
3
72
8
73
4
40
0
40
0
40
0
40
0
40
1
40
1
40
1
40
1
41
0.998629157220541
10
-1.92354E-11
20
0.945728500511534
30
0
41
0.99542494577297
10
-0.270113566102312
20
0.782772255541363
30
0
41
0.995881893366123
10
-0.554494583059479
20
0.61307685940132
30
0
41
1
10
-0.850000000064995
20
0.438515395909349
30
0
0
SPLINE
5
FE
100
AcDbEntity
8
SK1
62
256
6
ByLayer
370
18
48
1
60
0
100
AcDbSpline
70
4
71
3
72
8
73
4
40
0
40
0
40
0
40
0
40
1
40
1
40
1
40
1
41
1
10
-2.26894E-11
20
0.623333210866338
30
0
41
1
10
-0.282527207952693
20
0.456952971827819
30
0
41
1
10
-0.565868232539225
20
0.290821270534175
30
0
41
1
10
-0.850000000064995
20
0.124931060324911
30
0
0
SPLINE
5
FF
100
AcDbEntity
8
1
62
256
6
ByLayer
370
18
48
1
60
0
100
AcDbSpline
70
4
71
3
72
8
73
4
40
0
40
0
40
0
40
0
40
1
40
1
40
1
40
1
41
1
10
-2.18923E-11
20
-1.85578200323305
30
0
41
1
10
0.0333402553361927
20
-1.87456242965218
30
0
41
1
10
0.0666735964161115
20
-1.89333210369586
30
0
41
1
10
0.0999999999349939
20
-1.91209098915695
30
0
0
SPLINE
5
100
100
AcDbEntity
8
SK1
62
256
6
ByLayer
370
18
48
1
60
0
100
AcDbSpline
70
4
71
3
72
8
73
4
40
0
40
0
40
0
40
0
40
1
40
1
40
1
40
1
41
0.999276945519058
10
-1.98688E-11
20
-2.63699282845342
30
0
41
0.995855730551354
10
-0.270084277259604
20
-2.61897139387926
30
0
41
0.996096748711669
10
-0.554462515115595
20
-2.58244102345785
30
0
41
1
10
-0.850000000064995
20
-2.52781644835645
30
0
0
SPLINE
5
101
100
AcDbEntity
8
SK1
62
256
6
ByLayer
370
18
48
1
60
0
100
AcDbSpline
70
4
71
3
72
8
73
4
40
0
40
0
40
0
40
0
40
1
40
1
40
1
40
1
41
1
10
-2.06444E-11
20
-5.66709406398508
30
0
41
1
10
-0.282473311556386
20
-5.6100453231042
30
0
41
1
10
-0.566024979683965
20
-5.54593565385727
30
0
41
1
10
-0.850000000064995
20
-5.47510645418819
30
0
0
LINE
5
74
100
AcDbEntity
8
1
62
256
6
ByLayer
370
18
48
1
60
1
100
AcDbLine
10
0
20
0
30
0
11
0
21
297
31
0
39
0
210
0
220
0
230
1
0
LINE
5
75
100
AcDbEntity
8
1
62
256
6
ByLayer
370
18
48
1
60
1
100
AcDbLine
10
420
20
297
30
0
11
0
21
297
31
0
39
0
210
0
220
0
230
1
0
LINE
5
76
100
AcDbEntity
8
1
62
256
6
ByLayer
370
18
48
1
60
1
100
AcDbLine
10
420
20
297
30
0
11
420
21
0
31
0
39
0
210
0
220
0
230
1
0
LINE
5
77
100
AcDbEntity
8
1
62
256
6
ByLayer
370
18
48
1
60
1
100
AcDbLine
10
0
20
0
30
0
11
420
21
0
31
0
39
0
210
0
220
0
230
1
0
LINE
5
78
100
AcDbEntity
8
1
62
256
6
ByLayer
370
18
48
1
60
0
100
AcDbLine
10
3.733319
20
-7.602152
30
0
11
5.403596
21
-7.602152
31
0
39
0
210
0
220
0
230
1
0
LINE
5
79
100
AcDbEntity
8
1
62
256
6
ByLayer
370
18
48
1
60
0
100
AcDbLine
10
5.699909
20
-5.447383
30
0
11
5.673492
21
-5.069151
31
0
39
0
210
0
220
0
230
1
0
LINE
5
7A
100
AcDbEntity
8
1
62
256
6
ByLayer
370
18
48
1
60
0
100
AcDbLine
10
3.440091
20
-5.447383
30
0
11
3.454285
21
-5.244155
31
0
39
0
210
0
220
0
230
1
0
LINE
5
7B
100
AcDbEntity
8
1
62
256
6
ByLayer
370
18
48
1
60
0
100
AcDbLine
10
5.5
20
-2.40452
30
0
11
5.5
21
-2.567275
31
0
39
0
210
0
220
0
230
1
0
LINE
5
7C
100
AcDbEntity
8
1
62
256
6
ByLayer
370
13
48
1
60
0
100
AcDbLine
10
5.296384
20
1.136843
30
0
11
3.838782
21
1.136843
31
0
39
0
210
0
220
0
230
1
0
LINE
5
7D
100
AcDbEntity
8
1
62
256
6
ByLayer
370
18
48
1
60
0
100
AcDbLine
10
5.574204
20
-3.578091
30
0
11
3.564393
21
-3.578091
31
0
39
0
210
0
220
0
230
1
0
LINE
5
7E
100
AcDbEntity
8
1
62
256
6
ByLayer
370
18
48
1
60
0
100
AcDbLine
10
5.631299
20
-5.061291
30
0
11
3.518713
21
-5.061291
31
0
39
0
210
0
220
0
230
1
0
LINE
5
7F
100
AcDbEntity
8
1
62
256
6
ByLayer
370
13
48
1
60
0
100
AcDbLine
10
5.5
20
2.514866
30
0
11
3.901196
21
2.514866
31
0
39
0
210
0
220
0
230
1
0
LINE
5
80
100
AcDbEntity
8
1
62
256
6
ByLayer
370
18
48
1
60
0
100
AcDbLine
10
5.55
20
-5.525
30
0
11
3.59
21
-5.525
31
0
39
0
210
0
220
0
230
1
0
LINE
5
81
100
AcDbEntity
8
1
62
256
6
ByLayer
370
18
48
1
60
0
100
AcDbLine
10
5.5
20
2.514866
30
0
11
5.5
21
2.380334
31
0
39
0
210
0
220
0
230
1
0
LINE
5
82
100
AcDbEntity
8
1
62
256
6
ByLayer
370
13
48
1
60
0
100
AcDbLine
10
2.372631
20
2.514866
30
0
11
0.1
21
2.514866
31
0
39
0
210
0
220
0
230
1
0
LINE
5
83
100
AcDbEntity
8
SK1
62
256
6
ByLayer
370
18
48
1
60
0
100
AcDbLine
10
-0.85
20
0.124931
30
0
11
-0.85
21
0.438515
31
0
39
0
210
0
220
0
230
1
0
LINE
5
85
100
AcDbEntity
8
1
62
256
6
ByLayer
370
13
48
1
60
0
100
AcDbLine
10
3.524697
20
-4.192622
30
0
11
0.1
21
-4.192622
31
0
39
0
210
0
220
0
230
1
0
LINE
5
86
100
AcDbEntity
8
1
62
256
6
ByLayer
370
18
48
1
60
0
100
AcDbLine
10
0.1
20
2.514866
30
0
11
0.1
21
2.383111
31
0
39
0
210
0
220
0
230
1
0
LINE
5
87
100
AcDbEntity
8
1
62
256
6
ByLayer
370
13
48
1
60
0
100
AcDbLine
10
5.5
20
3.055578
30
0
11
0.1
21
3.055578
31
0
39
0
210
0
220
0
230
1
0
LINE
5
88
100
AcDbEntity
8
1
62
256
6
ByLayer
370
18
48
1
60
0
100
AcDbLine
10
0.1
20
-3.70284
30
0
11
0.1
21
-4.192622
31
0
39
0
210
0
220
0
230
1
0
LINE
5
89
100
AcDbEntity
8
1
62
256
6
ByLayer
370
18
48
1
60
0
100
AcDbLine
10
5.5
20
3.055578
30
0
11
5.5
21
2.514866
31
0
39
0
210
0
220
0
230
1
0
LINE
5
8A
100
AcDbEntity
8
1
62
256
6
ByLayer
370
13
48
1
60
0
100
AcDbLine
10
5.5
20
5.444126
30
0
11
0.1
21
5.444126
31
0
39
0
210
0
220
0
230
1
0
LINE
5
8B
100
AcDbEntity
8
1
62
256
6
ByLayer
370
18
48
1
60
0
100
AcDbLine
10
0.1
20
3.055578
30
0
11
0.1
21
2.514866
31
0
39
0
210
0
220
0
230
1
0
LINE
5
8C
100
AcDbEntity
8
1
62
256
6
ByLayer
370
18
48
1
60
0
100
AcDbLine
10
5.5
20
5.444126
30
0
11
5.5
21
3.055578
31
0
39
0
210
0
220
0
230
1
0
LINE
5
8D
100
AcDbEntity
8
1
62
256
6
ByLayer
370
13
48
1
60
0
100
AcDbLine
10
5.5
20
-5.840555
30
0
11
0.1
21
-5.840555
31
0
39
0
210
0
220
0
230
1
0
LINE
5
8E
100
AcDbEntity
8
1
62
256
6
ByLayer
370
18
48
1
60
0
100
AcDbLine
10
0.1
20
5.444126
30
0
11
0.1
21
3.055578
31
0
39
0
210
0
220
0
230
1
0
LINE
5
8F
100
AcDbEntity
8
1
62
256
6
ByLayer
370
18
48
1
60
0
100
AcDbLine
10
0.1
20
-4.192622
30
0
11
0.1
21
-5.840555
31
0
39
0
210
0
220
0
230
1
0
LINE
5
90
100
AcDbEntity
8
1
62
256
6
ByLayer
370
18
48
1
60
0
100
AcDbLine
10
5.5
20
-5.524987
30
0
11
5.5
21
-5.840555
31
0
39
0
210
0
220
0
230
1
0
LINE
5
91
100
AcDbEntity
8
1
62
256
6
ByLayer
370
13
48
1
60
0
100
AcDbLine
10
5.572499
20
6.386855
30
0
11
3.567874
21
6.386855
31
0
39
0
210
0
220
0
230
1
0
LINE
5
92
100
AcDbEntity
8
1
62
256
6
ByLayer
370
18
48
1
60
0
100
AcDbLine
10
5.5
20
5.836465
30
0
11
5.5
21
5.444126
31
0
39
0
210
0
220
0
230
1
0
LINE
5
93
100
AcDbEntity
8
1
62
256
6
ByLayer
370
18
48
1
60
0
100
AcDbLine
10
0.1
20
5.911431
30
0
11
0.1
21
5.444126
31
0
39
0
210
0
220
0
230
1
0
LINE
5
94
100
AcDbEntity
8
1
62
256
6
ByLayer
370
18
48
1
60
0
100
AcDbLine
10
5.5
20
5.64716
30
0
11
5.565541
21
5.6865
31
0
39
0
210
0
220
0
230
1
0
LINE
5
95
100
AcDbEntity
8
1
62
256
6
ByLayer
370
18
48
1
60
0
100
AcDbLine
10
3.515063
20
8.470319
30
0
11
5.624926
21
8.470319
31
0
39
0
210
0
220
0
230
1
0
LINE
5
96
100
AcDbEntity
8
1
62
256
6
ByLayer
370
13
48
1
60
0
100
AcDbLine
10
2.372631
20
-6.024654
30
0
11
0.1
21
-6.024654
31
0
39
0
210
0
220
0
230
1
0
LINE
5
97
100
AcDbEntity
8
1
62
256
6
ByLayer
370
13
48
1
60
0
100
AcDbLine
10
5.5
20
-6.024654
30
0
11
3.901196
21
-6.024654
31
0
39
0
210
0
220
0
230
1
0
LINE
5
98
100
AcDbEntity
8
1
62
256
6
ByLayer
370
18
48
1
60
0
100
AcDbLine
10
0.1
20
-5.840555
30
0
11
0.1
21
-6.024654
31
0
39
0
210
0
220
0
230
1
0
LINE
5
99
100
AcDbEntity
8
1
62
256
6
ByLayer
370
18
48
1
60
0
100
AcDbLine
10
5.5
20
-5.840555
30
0
11
5.5
21
-6.024654
31
0
39
0
210
0
220
0
230
1
0
LINE
5
9A
100
AcDbEntity
8
SK1
62
256
6
ByLayer
370
18
48
1
60
0
100
AcDbLine
10
-0.85
20
5.674538
30
0
11
-0.85
21
2.426357
31
0
39
0
210
0
220
0
230
1
0
LINE
5
9B
100
AcDbEntity
8
1
62
256
6
ByLayer
370
18
48
1
60
0
100
AcDbLine
10
5.55
20
10.75
30
0
11
3.59
21
10.75
31
0
39
0
210
0
220
0
230
1
0
LINE
5
9C
100
AcDbEntity
8
SK1
62
256
6
ByLayer
370
18
48
1
60
0
100
AcDbLine
10
-0.85
20
-2.527816
30
0
11
-0.85
21
-1.663206
31
0
39
0
210
0
220
0
230
1
0
LINE
5
9D
100
AcDbEntity
8
SK1
62
256
6
ByLayer
370
18
48
1
60
0
100
AcDbLine
10
-0.85
20
1.789301
30
0
11
-0.85
21
2.426357
31
0
39
0
210
0
220
0
230
1
0
LINE
5
9E
100
AcDbEntity
8
SK1
62
256
6
ByLayer
370
18
48
1
60
0
100
AcDbLine
10
-0.85
20
-5.475106
30
0
11
-0.85
21
-2.527816
31
0
39
0
210
0
220
0
230
1
0
LINE
5
9F
100
AcDbEntity
8
1
62
256
6
ByLayer
370
13
48
1
60
0
100
AcDbLine
10
5.296384
20
-7.039999
30
0
11
3.838782
21
-7.039999
31
0
39
0
210
0
220
0
230
1
0
LINE
5
A0
100
AcDbEntity
8
1
62
256
6
ByLayer
370
18
48
1
60
0
100
AcDbLine
10
0.1
20
-6.024654
30
0
11
0.1
21
-6.121733
31
0
39
0
210
0
220
0
230
1
0
LINE
5
A1
100
AcDbEntity
8
1
62
256
6
ByLayer
370
18
48
1
60
0
100
AcDbLine
10
5.5
20
-6.024654
30
0
11
5.5
21
-6.123779
31
0
39
0
210
0
220
0
230
1
0
LINE
5
A2
100
AcDbEntity
8
1
62
256
6
ByLayer
370
18
48
1
60
0
100
AcDbLine
10
5.502152
20
-2.451634
30
0
11
5.565541
21
-2.483638
31
0
39
0
210
0
220
0
230
1
0
LINE
5
A3
100
AcDbEntity
8
1
62
256
6
ByLayer
370
18
48
1
60
1
100
AcDbLine
10
5.55
20
-10.95
30
0
11
5.808818
21
-10.95
31
0
39
0
210
0
220
0
230
1
0
LINE
5
A4
100
AcDbEntity
8
1
62
256
6
ByLayer
370
18
48
1
60
1
100
AcDbLine
10
5.697544
20
-11.105272
30
0
11
5.697544
21
-10.89194
31
0
39
0
210
0
220
0
230
1
0
LINE
5
A5
100
AcDbEntity
8
1
62
256
6
ByLayer
370
18
48
1
60
0
100
AcDbLine
10
0
20
0
30
0
11
0
21
5.79238
31
0
39
0
210
0
220
0
230
1
0
LINE
5
A6
100
AcDbEntity
8
1
62
256
6
ByLayer
370
18
48
1
60
0
100
AcDbLine
10
0
20
0
30
0
11
0
21
-5.667094
31
0
39
0
210
0
220
0
230
1
0
LINE
5
A7
100
AcDbEntity
8
80
62
256
6
ByLayer
370
18
48
1
60
0
100
AcDbLine
10
0
20
0
30
0
11
-1.163369
21
0
31
0
39
0
210
0
220
0
230
1
0
LINE
5
A8
100
AcDbEntity
8
4
62
256
6
ByLayer
370
18
48
0.05
60
0
100
AcDbLine
10
0
20
0
30
0
11
7.828267
21
0
31
0
39
0
210
0
220
0
230
1
0
LINE
5
AA
100
AcDbEntity
8
SK4
62
256
6
ByLayer
370
18
48
0.05
60
0
100
AcDbLine
10
-1.163369
20
0
30
0
11
8.648145
21
0
31
0
39
0
210
0
220
0
230
1
0
LINE
5
AC
100
AcDbEntity
8
81
62
256
6
ByLayer
370
18
48
1
60
0
100
AcDbLine
10
5.697544
20
10.75
30
0
11
6.198714
21
10.75
31
0
39
0
210
0
220
0
230
1
0
MTEXT
5
102
100
AcDbEntity
8
SK6
62
256
6
ByLayer
370
18
48
1
60
0
100
AcDbMText
10
-17.231723
20
-31.334229
30
0
210
0
220
0
230
1
1
\W0.7114;327R12-22 21502-GM
40
3.5
41
0
44
1.084337
50
0
71
7
72
5
7
iso_b_vert
0
DIMENSION
5
110
100
AcDbEntity
8
SK2
62
256
6
ByLayer
370
13
48
1
60
0
100
AcDbDimension
2
DimnDraft3D1
10
-18.651874
20
-6
30
0
11
-18.651874
21
-5.632237
31
0
70
32
71
5
72
1
41
1
210
0
220
0
230
1
3
Standard
100
AcDbAlignedDimension
13
-1.5875
23
6
33
0
14
-1.5875
24
-6
34
0
50
90
100
AcDbRotatedDimension
1001
ACAD
1000
DSTYLE
1002
{
1070
    74
1070
     0
1070
   279
1070
     0
1070
   172
1070
     1
1070
   173
1070
     1
1070
   340
1005
103
1070
   271
1070
     2
1070
   272
1070
     2
1070
    77
1070
     1
1070
    73
1070
     0
1070
   171
1070
     3
1070
   274
1070
     4
1070
   177
1070
     7
1070
   176
1070
     7
1070
   178
1070
     7
1070
    78
1070
     8
1070
    48
1040
-0.005
1070
    41
1041
3.5
1070
   147
1041
1.75
1070
    42
1041
1.5875
1070
    44
1041
2.0
1070
   140
1041
3.5
1070
   343
1005
0
1070
   344
1005
0
1002
}
0
DIMENSION
5
119
100
AcDbEntity
8
2
62
256
6
ByLayer
370
13
48
1
60
0
100
AcDbDimension
2
DimnDraft3D2
10
28.536737
20
10.75
30
0
11
28.536737
21
-7.611184
31
0
70
32
71
5
72
1
41
1
210
0
220
0
230
1
3
Standard
100
AcDbAlignedDimension
13
5.697544
23
10.75
33
0
14
0
24
0
34
0
50
90
100
AcDbRotatedDimension
1001
ACAD
1000
DSTYLE
1002
{
1070
    74
1070
     0
1070
   279
1070
     0
1070
   172
1070
     1
1070
   173
1070
     1
1070
   340
1005
103
1070
    75
1070
     1
1070
   271
1070
     2
1070
   272
1070
     2
1070
    77
1070
     1
1070
    73
1070
     0
1070
   171
1070
     3
1070
   274
1070
     4
1070
   281
1070
     1
1070
   177
1070
     7
1070
   176
1070
     7
1070
   178
1070
     7
1070
    78
1070
     8
1070
    48
1040
-0.005
1070
    41
1041
3.5
1070
   147
1041
1.75
1070
    42
1041
1.5875
1070
    44
1041
2.0
1070
   140
1041
3.5
1070
   343
1005
0
1070
   344
1005
0
1002
}
0
DIMENSION
5
123
100
AcDbEntity
8
2
62
256
6
ByLayer
370
13
48
1
60
0
100
AcDbDimension
2
DimnDraft3D3
10
-12.756568
20
10.75
30
0
11
-12.756568
21
19.704818
31
0
70
32
71
5
72
1
41
1
210
0
220
0
230
1
3
Standard
100
AcDbAlignedDimension
13
-1.487465
23
5.937046
33
0
14
2.0025
24
10.75
34
0
50
90
100
AcDbRotatedDimension
1001
ACAD
1000
DSTYLE
1002
{
1070
    74
1070
     0
1070
   279
1070
     0
1070
   172
1070
     1
1070
   173
1070
     1
1070
   340
1005
103
1070
   271
1070
     2
1070
   272
1070
     2
1070
    77
1070
     1
1070
    73
1070
     0
1070
   171
1070
     3
1070
   274
1070
     4
1070
   177
1070
     7
1070
   176
1070
     7
1070
   178
1070
     7
1070
    78
1070
     8
1070
    48
1040
-0.005
1070
    41
1041
3.5
1070
   147
1041
1.75
1070
    42
1041
1.5875
1070
    44
1041
2.0
1070
   140
1041
3.5
1070
   343
1005
0
1070
   344
1005
0
1002
}
0
DIMENSION
5
12D
100
AcDbEntity
8
2
62
256
6
ByLayer
370
13
48
1
60
0
100
AcDbDimension
2
DimnDraft3D4
10
5.697544
20
19.020356
30
0
11
13.264472
21
19.020356
31
0
70
32
71
5
72
1
41
1
210
0
220
0
230
1
3
Standard
100
AcDbAlignedDimension
13
3.442467
23
12.18143
33
0
14
5.697544
24
12.182228
34
0
50
0
100
AcDbRotatedDimension
1001
ACAD
1000
DSTYLE
1002
{
1070
   279
1070
     0
1070
   172
1070
     1
1070
   173
1070
     1
1070
   340
1005
103
1070
   271
1070
     2
1070
   272
1070
     2
1070
    77
1070
     1
1070
    73
1070
     0
1070
   171
1070
     3
1070
   274
1070
     4
1070
   177
1070
     7
1070
   176
1070
     7
1070
   178
1070
     7
1070
    78
1070
     8
1070
    48
1040
-0.005
1070
    41
1041
3.5
1070
   147
1041
1.75
1070
    42
1041
1.5875
1070
    44
1041
2.0
1070
   140
1041
3.5
1070
   343
1005
0
1070
   344
1005
0
1002
}
0
DIMENSION
5
137
100
AcDbEntity
8
2
62
256
6
ByLayer
370
13
48
1
60
0
100
AcDbDimension
2
DimnDraft3D5
10
5.697544
20
36.286922
30
0
11
0.209956
21
36.286922
31
0
70
32
71
5
72
1
41
1
210
0
220
0
230
1
3
Standard
100
AcDbAlignedDimension
13
0
23
7.37988
33
0
14
5.697544
24
12.3375
34
0
50
0
100
AcDbRotatedDimension
1001
ACAD
1000
DSTYLE
1002
{
1070
   279
1070
     0
1070
   172
1070
     1
1070
   173
1070
     1
1070
   340
1005
103
1070
   271
1070
     2
1070
   272
1070
     2
1070
    77
1070
     1
1070
    73
1070
     0
1070
   171
1070
     3
1070
   274
1070
     4
1070
   177
1070
     7
1070
   176
1070
     7
1070
   178
1070
     7
1070
    78
1070
     8
1070
    48
1040
-0.005
1070
    41
1041
3.5
1070
   147
1041
1.75
1070
    42
1041
1.5875
1070
    44
1041
2.0
1070
   140
1041
3.5
1070
   343
1005
0
1070
   344
1005
0
1002
}
0
ENDSEC
0
SECTION
2
OBJECTS
0
DICTIONARY
5
1a2
330
0
100
AcDbDictionary
280
0
281
1
3
ACAD_GROUP
350
1a3
3
ACAD_MLINESTYLE
350
1a4
0
DICTIONARY
5
1a3
330
0
100
AcDbDictionary
280
0
281
1
0
DICTIONARY
5
1a4
330
0
100
AcDbDictionary
280
0
281
1
3
Standard
350
18
0
MLINESTYLE
5
18
330
1a4
100
AcDbMlineStyle
2
Standard
70
0
3

62
256
51
90
52
90
71
2
49
-0.5
62
256
6
ByLayer
49
0.5
62
256
6
ByLayer
0
RASTERVARIABLES
5
190
330

100
AcDbRasterVariables
90
0
70
1
71
1
72
1
0
ENDSEC
0
EOF
