0
SECTION
2
HEADER
9
$ACADVER
1
AC1015
9
$DWGCODEPAGE
3
ANSI_1252
9
$HANDSEED
5
1b2
9
$ANGBASE
50
0
9
$ANGDIR
70
0
9
$ATTMODE
70
1
9
$AUNITS
70
0
9
$AUPREC
70
0
9
$CECOLOR
62
256
9
$CELTSCALE
40
1
9
$CELTYPE
6
ByLayer
9
$CELWEIGHT
370
18
9
$CLAYER
8
0
9
$CMLJUST
70
0
9
$CMLSCALE
40
1
9
$CMLSTYLE
2
Standard
9
$DIMSTYLE
2
Standard
9
$TEXTSIZE
40
0.2
9
$TEXTSTYLE
7
Standard
9
$LUNITS
70
2
9
$LUPREC
70
4
9
$EXTNAMES
290
1
9
$INSUNITS
70
4
9
$LTSCALE
40
1
9
$LWDISPLAY
290
1
9
$PDMODE
70
0
9
$PDSIZE
40
0
9
$PLINEGEN
70
0
0
ENDSEC
0
SECTION
2
CLASSES
0
CLASS
1
RASTERVARIABLES
2
AcDbRasterVariables
3
ISM
90
0
280
0
281
0
0
ENDSEC
0
SECTION
2
TABLES
0
TABLE
2
VPORT
5
1a8
100
AcDbSymbolTable
0
VPORT
5
1
100
AcDbSymbolTableRecord
100
AcDbViewportTableRecord
2
*Active
70
0
10
0
20
0
11
1
21
1
12
-1
22
1
13
0
23
0
14
0.5
24
0.5
15
10
25
10
16
0
26
0
36
1
17
0
27
0
37
0
0
ENDTAB
0
TABLE
2
LTYPE
5
1a9
100
AcDbSymbolTable
0
LTYPE
5
14
100
AcDbSymbolTableRecord
100
AcDbLinetypeTableRecord
70
0
2
ByBlock
3

72
65
73
0
40
0
0
LTYPE
5
15
100
AcDbSymbolTableRecord
100
AcDbLinetypeTableRecord
70
0
2
ByLayer
3

72
65
73
0
40
0
0
LTYPE
5
16
100
AcDbSymbolTableRecord
100
AcDbLinetypeTableRecord
70
0
2
CONTINUOUS
3
Solid line
72
65
73
0
40
0
0
LTYPE
5
6A
100
AcDbSymbolTableRecord
100
AcDbLinetypeTableRecord
70
0
2
CENTER
3
____ _ ____ _ ____ _ ____
72
65
73
4
40
47.5
49
22
74
0
49
-8.5
74
0
49
8.5
74
0
49
-8.5
74
0
0
LTYPE
5
6B
100
AcDbSymbolTableRecord
100
AcDbLinetypeTableRecord
70
0
2
DASHED
3
__ __ __ __ __ __ __ __ __
72
65
73
2
40
25.72
49
12.86
74
0
49
-12.86
74
0
0
ENDTAB
0
TABLE
2
LAYER
5
1aa
100
AcDbSymbolTable
0
LAYER
5
10
100
AcDbSymbolTableRecord
100
AcDbLayerTableRecord
2
0
70
0
62
7
6
CONTINUOUS
290
1
370
-3
390
0
0
LAYER
5
6D
100
AcDbSymbolTableRecord
100
AcDbLayerTableRecord
2
81
70
0
62
-3
6
CONTINUOUS
290
1
370
-3
390
0
0
LAYER
5
6F
100
AcDbSymbolTableRecord
100
AcDbLayerTableRecord
2
1
70
0
62
4
6
CONTINUOUS
290
1
370
-3
390
0
0
LAYER
5
73
100
AcDbSymbolTableRecord
100
AcDbLayerTableRecord
2
80
70
0
62
-6
6
CONTINUOUS
290
1
370
-3
390
0
0
LAYER
5
BE
100
AcDbSymbolTableRecord
100
AcDbLayerTableRecord
2
4
70
0
62
-2
6
CENTER
290
1
370
-3
390
0
0
LAYER
5
101
100
AcDbSymbolTableRecord
100
AcDbLayerTableRecord
2
2
70
0
62
7
6
CONTINUOUS
290
1
370
-3
390
0
0
LAYER
5
194
100
AcDbSymbolTableRecord
100
AcDbLayerTableRecord
2
SK1
70
0
62
4
6
CONTINUOUS
290
1
370
-3
390
0
0
LAYER
5
195
100
AcDbSymbolTableRecord
100
AcDbLayerTableRecord
2
SK4
70
0
62
2
6
CENTER
290
1
370
-3
390
0
0
LAYER
5
196
100
AcDbSymbolTableRecord
100
AcDbLayerTableRecord
2
SK6
70
0
62
5
6
CONTINUOUS
290
1
370
-3
390
0
0
LAYER
5
197
100
AcDbSymbolTableRecord
100
AcDbLayerTableRecord
2
SK2
70
0
62
7
6
CONTINUOUS
290
1
370
-3
390
0
0
ENDTAB
0
TABLE
2
STYLE
5
1ab
100
AcDbSymbolTable
0
STYLE
5
11
100
AcDbSymbolTableRecord
100
AcDbTextStyleTableRecord
2
Standard
3
txt
70
0
71
0
40
0
41
1
42
0
50
0
0
STYLE
5
FC
100
AcDbSymbolTableRecord
100
AcDbTextStyleTableRecord
2
iso_b_vert
3
simplex.shx
70
0
71
0
40
0
41
1
42
0
50
0
0
STYLE
5
FD
100
AcDbSymbolTableRecord
100
AcDbTextStyleTableRecord
2
DWGDirectTextStyle
3
simplex
70
0
71
0
40
0
41
1
42
0
50
0
0
ENDTAB
0
TABLE
2
DIMSTYLE
5
1ac
100
AcDbSymbolTable
100
AcDbDimStyleTable
0
DIMSTYLE
105
27
100
AcDbSymbolTableRecord
100
AcDbDimStyleTableRecord
2
Standard
70
0
3
<>
41
0.18
42
0.0625
44
0.18
140
0.18
147
0.09
73
0
74
0
77
1
271
2
275
0
278
52
280
0
340
11
0
ENDTAB
0
TABLE
2
VIEW
5
1ad
100
AcDbSymbolTable
0
ENDTAB
0
TABLE
2
UCS
5
1ae
100
AcDbSymbolTable
0
ENDTAB
0
TABLE
2
APPID
5
1af
100
AcDbSymbolTable
0
APPID
5
12
100
AcDbSymbolTableRecord
100
AcDbRegAppTableRecord
2
ACAD
70
0
0
ENDTAB
0
TABLE
2
BLOCK_RECORD
5
1b0
100
AcDbSymbolTable
0
BLOCK_RECORD
5
1F
100
AcDbSymbolTableRecord
100
AcDbBlockTableRecord
2
*Model_Space
340
0
70
0
0
BLOCK_RECORD
5
1B
100
AcDbSymbolTableRecord
100
AcDbBlockTableRecord
2
*Paper_Space
340
0
70
0
0
BLOCK_RECORD
5
23
100
AcDbSymbolTableRecord
100
AcDbBlockTableRecord
2
*Paper_Space0
340
0
70
0
0
BLOCK_RECORD
5
FF
100
AcDbSymbolTableRecord
100
AcDbBlockTableRecord
2
DimnDraft3D1
340
0
70
0
0
BLOCK_RECORD
5
108
100
AcDbSymbolTableRecord
100
AcDbBlockTableRecord
2
DimnDraft3D2
340
0
70
0
0
BLOCK_RECORD
5
113
100
AcDbSymbolTableRecord
100
AcDbBlockTableRecord
2
DimnDraft3D3
340
0
70
0
0
BLOCK_RECORD
5
11D
100
AcDbSymbolTableRecord
100
AcDbBlockTableRecord
2
DimnDraft3D44
340
0
70
0
0
BLOCK_RECORD
5
127
100
AcDbSymbolTableRecord
100
AcDbBlockTableRecord
2
DimnDraft3D5
340
0
70
0
0
BLOCK_RECORD
5
131
100
AcDbSymbolTableRecord
100
AcDbBlockTableRecord
2
DimnDraft3D66
340
0
70
0
0
ENDTAB
0
ENDSEC
0
SECTION
2
BLOCKS
0
BLOCK
5
20
100
AcDbEntity
8
0
100
AcDbBlockBegin
2
*Model_Space
70
0
10
0
20
0
30
0
3
*Model_Space
0
ENDBLK
5
21
100
AcDbEntity
8
0
100
AcDbBlockEnd
0
BLOCK
5
1C
100
AcDbEntity
8
0
100
AcDbBlockBegin
2
*Paper_Space
70
0
10
0
20
0
30
0
3
*Paper_Space
0
ENDBLK
5
1D
100
AcDbEntity
8
0
100
AcDbBlockEnd
0
BLOCK
5
24
100
AcDbEntity
8
0
100
AcDbBlockBegin
2
*Paper_Space0
70
0
10
0
20
0
30
0
3
*Paper_Space0
0
ENDBLK
5
25
100
AcDbEntity
8
0
100
AcDbBlockEnd
0
BLOCK
5
105
100
AcDbEntity
8
0
100
AcDbBlockBegin
2
DimnDraft3D1
70
0
10
0
20
0
30
0
3
DimnDraft3D1
0
MTEXT
5
100
100
AcDbEntity
8
2
62
256
6
ByLayer
370
18
48
1
60
0
100
AcDbMText
10
15.586623
20
-6.636184
30
0
210
0
220
0
230
1
1
\W1.0454;%%c21,7
40
3.5
41
0
44
1.084337
50
90
71
7
72
5
7
iso_b_vert
0
LINE
5
102
100
AcDbEntity
8
2
62
256
6
ByLayer
370
13
48
1
60
0
100
AcDbLine
10
6.7575
20
10.85
30
0
11
19.336623
21
10.85
31
0
39
0
210
0
220
0
230
1
0
LINE
5
103
100
AcDbEntity
8
2
62
256
6
ByLayer
370
13
48
1
60
0
100
AcDbLine
10
17.336623
20
10.85
30
0
11
17.336623
21
-9.011184
31
0
39
0
210
0
220
0
230
1
0
SOLID
5
104
100
AcDbEntity
8
2
62
256
6
ByLayer
370
13
48
1
60
0
100
AcDbTrace
10
17.336623
20
10.85
30
0
11
17.797407
21
7.350002
31
0
12
16.875839
22
7.349998
32
0
13
17.336623
23
10.85
33
0
39
0
210
0
220
0
230
1
0
ENDBLK
5
106
100
AcDbEntity
8
0
100
AcDbBlockEnd
0
BLOCK
5
110
100
AcDbEntity
8
0
100
AcDbBlockBegin
2
DimnDraft3D2
70
0
10
0
20
0
30
0
3
DimnDraft3D2
0
MTEXT
5
109
100
AcDbEntity
8
SK2
62
256
6
ByLayer
370
18
48
1
60
0
100
AcDbMText
10
-10.712588
20
-4.757237
30
0
210
0
220
0
230
1
1
\W1.2012;%%c12
40
3.5
41
0
44
1.084337
50
90
71
7
72
5
7
iso_b_vert
0
LINE
5
10B
100
AcDbEntity
8
SK2
62
256
6
ByLayer
370
13
48
1
60
0
100
AcDbLine
10
-1.5875
20
6
30
0
11
-10.962588
21
6
31
0
39
0
210
0
220
0
230
1
0
LINE
5
10C
100
AcDbEntity
8
SK2
62
256
6
ByLayer
370
13
48
1
60
0
100
AcDbLine
10
-1.5875
20
-6
30
0
11
-10.962588
21
-6
31
0
39
0
210
0
220
0
230
1
0
LINE
5
10D
100
AcDbEntity
8
SK2
62
256
6
ByLayer
370
13
48
1
60
0
100
AcDbLine
10
-8.962588
20
6
30
0
11
-8.962588
21
-6
31
0
39
0
210
0
220
0
230
1
0
SOLID
5
10E
100
AcDbEntity
8
SK2
62
256
6
ByLayer
370
13
48
1
60
0
100
AcDbTrace
10
-8.962588
20
6
30
0
11
-8.501804
21
2.500002
31
0
12
-9.423371
22
2.499998
32
0
13
-8.962588
23
6
33
0
39
0
210
0
220
0
230
1
0
SOLID
5
10F
100
AcDbEntity
8
SK2
62
256
6
ByLayer
370
13
48
1
60
0
100
AcDbTrace
10
-8.962588
20
-6
30
0
11
-9.423371
21
-2.500002
31
0
12
-8.501804
22
-2.499998
32
0
13
-8.962588
23
-6
33
0
39
0
210
0
220
0
230
1
0
ENDBLK
5
111
100
AcDbEntity
8
0
100
AcDbBlockEnd
0
BLOCK
5
11A
100
AcDbEntity
8
0
100
AcDbBlockBegin
2
DimnDraft3D3
70
0
10
0
20
0
30
0
3
DimnDraft3D3
0
MTEXT
5
114
100
AcDbEntity
8
2
62
256
6
ByLayer
370
18
48
1
60
0
100
AcDbMText
10
10.832212
20
30.51156
30
0
210
0
220
0
230
1
1
\W0.7003;5,85
40
3.5
41
0
44
1.084337
50
0
71
7
72
5
7
iso_b_vert
0
LINE
5
115
100
AcDbEntity
8
2
62
256
6
ByLayer
370
13
48
1
60
0
100
AcDbLine
10
0
20
10.352584
30
0
11
0
21
31.63656
31
0
39
0
210
0
220
0
230
1
0
LINE
5
116
100
AcDbEntity
8
2
62
256
6
ByLayer
370
13
48
1
60
0
100
AcDbLine
10
5.85
20
10.008424
30
0
11
5.85
21
31.63656
31
0
39
0
210
0
220
0
230
1
0
LINE
5
117
100
AcDbEntity
8
2
62
256
6
ByLayer
370
13
48
1
60
0
100
AcDbLine
10
17.80458
20
29.63656
30
0
11
-8.75
21
29.63656
31
0
39
0
210
0
220
0
230
1
0
SOLID
5
118
100
AcDbEntity
8
2
62
256
6
ByLayer
370
13
48
1
60
0
100
AcDbTrace
10
0
20
29.63656
30
0
11
-3.499998
21
29.175776
31
0
12
-3.500002
22
30.097344
32
0
13
0
23
29.63656
33
0
39
0
210
0
220
0
230
1
0
SOLID
5
119
100
AcDbEntity
8
2
62
256
6
ByLayer
370
13
48
1
60
0
100
AcDbTrace
10
5.85
20
29.63656
30
0
11
9.349998
21
30.097344
31
0
12
9.350002
22
29.175776
32
0
13
5.85
23
29.63656
33
0
39
0
210
0
220
0
230
1
0
ENDBLK
5
11B
100
AcDbEntity
8
0
100
AcDbBlockEnd
0
BLOCK
5
11E
100
AcDbEntity
8
0
100
AcDbBlockBegin
2
DimnDraft3D44
70
0
10
0
20
0
30
0
3
DimnDraft3D44
0
LINE
5
120
100
AcDbEntity
8
SK2
62
256
6
ByLayer
370
25
48
1
60
0
100
AcDbLine
10
5.17
20
12.4375
30
0
11
5.17
21
24.966134
31
0
39
0
210
0
220
0
230
1
0
LINE
5
121
100
AcDbEntity
8
SK2
62
256
6
ByLayer
370
25
48
1
60
0
100
AcDbLine
10
0
20
10.352584
30
0
11
0
21
24.966134
31
0
39
0
210
0
220
0
230
1
0
LINE
5
122
100
AcDbEntity
8
SK2
62
256
6
ByLayer
370
25
48
1
60
0
100
AcDbLine
10
-8.75
20
22.966134
30
0
11
17.752717
21
22.966134
31
0
39
0
210
0
220
0
230
1
0
SOLID
5
123
100
AcDbEntity
8
SK2
62
256
6
ByLayer
370
25
48
1
60
0
100
AcDbTrace
10
5.17
20
22.966134
30
0
11
8.669998
21
23.426918
31
0
12
8.670002
22
22.505351
32
0
13
5.17
23
22.966134
33
0
39
0
210
0
220
0
230
1
0
SOLID
5
124
100
AcDbEntity
8
SK2
62
256
6
ByLayer
370
25
48
1
60
0
100
AcDbTrace
10
0
20
22.966134
30
0
11
-3.499998
21
22.505351
31
0
12
-3.500002
22
23.426918
32
0
13
0
23
22.966134
33
0
39
0
210
0
220
0
230
1
0
MTEXT
5
125
100
AcDbEntity
8
SK2
62
256
6
ByLayer
370
18
48
1
60
0
100
AcDbMText
10
11.655349
20
23.841134
30
0
210
0
220
0
230
1
1
\W0.6220;5,17
40
3.5
41
0
44
1.084337
50
0
71
7
72
5
7
iso_b_vert
0
ENDBLK
5
11F
100
AcDbEntity
8
0
100
AcDbBlockEnd
0
BLOCK
5
12E
100
AcDbEntity
8
0
100
AcDbBlockBegin
2
DimnDraft3D5
70
0
10
0
20
0
30
0
3
DimnDraft3D5
0
MTEXT
5
128
100
AcDbEntity
8
2
62
256
6
ByLayer
370
18
48
1
60
0
100
AcDbMText
10
12.122665
20
17.658863
30
0
210
0
220
0
230
1
1
\W0.5585;1,6
40
3.5
41
0
44
1.084337
50
0
71
7
72
5
7
iso_b_vert
0
LINE
5
129
100
AcDbEntity
8
2
62
256
6
ByLayer
370
13
48
1
60
0
100
AcDbLine
10
3.414958
20
11.554565
30
0
11
3.414958
21
18.783863
31
0
39
0
210
0
220
0
230
1
0
LINE
5
12A
100
AcDbEntity
8
2
62
256
6
ByLayer
370
13
48
1
60
0
100
AcDbLine
10
5.015204
20
11.559804
30
0
11
5.015204
21
18.783863
31
0
39
0
210
0
220
0
230
1
0
LINE
5
12B
100
AcDbEntity
8
2
62
256
6
ByLayer
370
13
48
1
60
0
100
AcDbLine
10
15.650297
20
16.783863
30
0
11
-5.335042
21
16.783863
31
0
39
0
210
0
220
0
230
1
0
SOLID
5
12C
100
AcDbEntity
8
2
62
256
6
ByLayer
370
13
48
1
60
0
100
AcDbTrace
10
3.414958
20
16.783863
30
0
11
-0.08504
21
16.323079
31
0
12
-0.085044
22
17.244647
32
0
13
3.414958
23
16.783863
33
0
39
0
210
0
220
0
230
1
0
SOLID
5
12D
100
AcDbEntity
8
2
62
256
6
ByLayer
370
13
48
1
60
0
100
AcDbTrace
10
5.015204
20
16.783863
30
0
11
8.515202
21
17.244647
31
0
12
8.515206
22
16.323079
32
0
13
5.015204
23
16.783863
33
0
39
0
210
0
220
0
230
1
0
ENDBLK
5
12F
100
AcDbEntity
8
0
100
AcDbBlockEnd
0
BLOCK
5
132
100
AcDbEntity
8
0
100
AcDbBlockBegin
2
DimnDraft3D66
70
0
10
0
20
0
30
0
3
DimnDraft3D66
0
LINE
5
134
100
AcDbEntity
8
2
62
256
6
ByLayer
370
25
48
1
60
0
100
AcDbLine
10
1.711961
20
9.809526
30
0
11
-19.654659
21
9.809526
31
0
39
0
210
0
220
0
230
1
0
LINE
5
135
100
AcDbEntity
8
2
62
256
6
ByLayer
370
25
48
1
60
0
100
AcDbLine
10
1.7725
20
10.85
30
0
11
-19.654659
21
10.85
31
0
39
0
210
0
220
0
230
1
0
LINE
5
136
100
AcDbEntity
8
2
62
256
6
ByLayer
370
25
48
1
60
0
100
AcDbLine
10
-17.654659
20
16.527316
30
0
11
-17.654659
21
1.059526
31
0
39
0
210
0
220
0
230
1
0
SOLID
5
137
100
AcDbEntity
8
2
62
256
6
ByLayer
370
25
48
1
60
0
100
AcDbTrace
10
-17.654659
20
9.809526
30
0
11
-17.193875
21
6.309527
31
0
12
-18.115443
22
6.309524
32
0
13
-17.654659
23
9.809526
33
0
39
0
210
0
220
0
230
1
0
SOLID
5
138
100
AcDbEntity
8
2
62
256
6
ByLayer
370
25
48
1
60
0
100
AcDbTrace
10
-17.654659
20
10.85
30
0
11
-18.115443
21
14.349998
31
0
12
-17.193875
22
14.350002
32
0
13
-17.654659
23
10.85
33
0
39
0
210
0
220
0
230
1
0
MTEXT
5
139
100
AcDbEntity
8
2
62
256
6
ByLayer
370
18
48
1
60
0
100
AcDbMText
10
-18.529659
20
16.757579
30
0
210
0
220
0
230
1
1
\W0.3281;1
40
3.5
41
0
44
1.084337
50
90
71
7
72
5
7
iso_b_vert
0
ENDBLK
5
133
100
AcDbEntity
8
0
100
AcDbBlockEnd
0
ENDSEC
0
SECTION
2
ENTITIES
0
ELLIPSE
5
C1
100
AcDbEntity
8
1
62
256
6
ByLayer
370
13
48
1
60
0
100
AcDbEllipse
10
5.050401
20
0.041716
30
0
11
-0.493585807222881
21
9.88462336730883
31
0
210
0
220
0
230
1
40
0.028782
41
1.79583448577627
42
2.08248279312639
0
ELLIPSE
5
C2
100
AcDbEntity
8
1
62
256
6
ByLayer
370
13
48
1
60
0
100
AcDbEllipse
10
3.379599
20
0.041716
30
0
11
0.493585807222883
21
9.88462336730884
31
0
210
0
220
0
230
1
40
0.028782
41
-2.08248279312639
42
-1.79583448577627
0
ELLIPSE
5
C3
100
AcDbEntity
8
1
62
256
6
ByLayer
370
18
48
1
60
0
100
AcDbEllipse
10
3.033927
20
0.058977
30
0
11
0.476295205486711
21
9.53835918496168
31
0
210
0
220
0
230
1
40
0.028782
41
-2.08295051177064
42
-1.73457937508009
0
POINT
5
6C
100
AcDbEntity
8
81
62
256
6
ByLayer
370
18
48
1
60
0
100
AcDbPoint
10
5.17
20
10.85
30
0
39
0
210
0
220
0
230
1
50
360
0
POINT
5
6E
100
AcDbEntity
8
1
62
256
6
ByLayer
370
18
48
1
60
1
100
AcDbPoint
10
5.17
20
-10.85
30
0
39
0
210
0
220
0
230
1
50
360
0
POINT
5
70
100
AcDbEntity
8
1
62
256
6
ByLayer
370
18
48
1
60
1
100
AcDbPoint
10
0
20
6
30
0
39
0
210
0
220
0
230
1
50
360
0
POINT
5
71
100
AcDbEntity
8
1
62
256
6
ByLayer
370
18
48
1
60
1
100
AcDbPoint
10
0
20
-6
30
0
39
0
210
0
220
0
230
1
50
360
0
POINT
5
72
100
AcDbEntity
8
80
62
256
6
ByLayer
370
18
48
1
60
0
100
AcDbPoint
10
0
20
0
30
0
39
0
210
0
220
0
230
1
50
360
0
SPLINE
5
C4
100
AcDbEntity
8
1
62
256
6
ByLayer
370
18
48
1
60
0
100
AcDbSpline
70
4
71
1
72
4
73
2
40
0
40
0
40
1
40
1
41
1
10
0.259549352564019
20
9.16204699664854
30
0
41
1
10
0.0999230508700997
20
9.13980589800696
30
0
0
SPLINE
5
C5
100
AcDbEntity
8
1
62
256
6
ByLayer
370
18
48
1
60
0
100
AcDbSpline
70
4
71
3
72
8
73
4
40
0
40
0
40
0
40
0
40
1
40
1
40
1
40
1
41
1
10
5.06999999999999
20
-5.42499999999996
30
0
41
1
10
5.05927871153198
20
-5.27044215191677
30
0
41
1
10
5.0487585228754
20
-5.11587236919831
30
0
41
1
10
5.03844240932417
20
-4.96129115788202
30
0
0
SPLINE
5
C6
100
AcDbEntity
8
1
62
256
6
ByLayer
370
18
48
1
60
0
100
AcDbSpline
70
4
71
3
72
8
73
4
40
0
40
0
40
0
40
0
40
1
40
1
40
1
40
1
41
1
10
3.39155759067583
20
-4.96129115788202
30
0
41
1
10
3.3812414771246
20
-5.11587236919831
30
0
41
1
10
3.37072128846799
20
-5.27044215191677
30
0
41
1
10
3.36000000000001
20
-5.42499999999996
30
0
0
SPLINE
5
C7
100
AcDbEntity
8
1
62
256
6
ByLayer
370
18
48
1
60
0
100
AcDbSpline
70
4
71
3
72
12
73
8
40
0
40
0
40
0
40
0
40
0.34829369282462
40
0.34829369282462
40
0.674145967585473
40
0.674145967585473
40
1
40
1
40
1
40
1
41
1
10
5.03844240932417
20
-4.96129115788202
30
0
41
1
10
5.02620115404659
20
-4.78913498360726
30
0
41
1
10
5.01416212606355
20
-4.61696473782482
30
0
41
1
10
4.99126772873677
20
-4.28369063319028
30
0
41
1
10
4.98038606317217
20
-4.12258830077431
30
0
41
1
10
4.95900398264441
20
-3.80035843760433
30
0
41
1
10
4.9485035663543
20
-3.63923068817599
30
0
41
1
10
4.9381990244463
20
-3.47809090053377
30
0
0
SPLINE
5
C8
100
AcDbEntity
8
1
62
256
6
ByLayer
370
18
48
1
60
0
100
AcDbSpline
70
4
71
3
72
12
73
8
40
0
40
0
40
0
40
0
40
0.336919295547854
40
0.336919295547854
40
0.668458774257004
40
0.668458774257004
40
1
40
1
40
1
40
1
41
1
10
3.4918009755537
20
-3.47809090053377
30
0
41
1
10
3.48114651529857
20
-3.64470262168354
30
0
41
1
10
3.47028264533648
20
-3.81130147649594
30
0
41
1
10
3.44832438982598
20
-4.14181271420313
30
0
41
1
10
3.43723645483922
20
-4.30572574879503
30
0
41
1
10
3.41467929109373
20
-4.63352701293681
30
0
41
1
10
3.40321005850626
20
-4.7974154574691
30
0
41
1
10
3.39155759067583
20
-4.96129115788202
30
0
0
SPLINE
5
C9
100
AcDbEntity
8
1
62
256
6
ByLayer
370
18
48
1
60
0
100
AcDbSpline
70
4
71
3
72
8
73
4
40
0
40
0
40
0
40
0
40
1
40
1
40
1
40
1
41
1
10
5.5
20
-0.974280895940865
30
0
41
1
10
5.5
20
-1.36666436709976
30
0
41
1
10
5.5
20
-1.75603269508579
30
0
41
1
10
5.5
20
-2.1423885661078
30
0
0
SPLINE
5
CA
100
AcDbEntity
8
1
62
256
6
ByLayer
370
18
48
1
60
0
100
AcDbSpline
70
4
71
3
72
8
73
4
40
0
40
0
40
0
40
0
40
1
40
1
40
1
40
1
41
1
10
0.0999999999999908
20
1.43670392241515
30
0
41
0.999486020985435
10
0.0669262455785003
20
1.45505266783728
30
0
41
0.999029073392023
10
0.0335911280729622
20
1.47324058167736
30
0
41
0.998629157219764
10
-1.95114E-11
20
1.49126432703849
30
0
0
SPLINE
5
CB
100
AcDbEntity
8
1
62
256
6
ByLayer
370
18
48
1
60
0
100
AcDbSpline
70
4
71
3
72
20
73
16
40
0
40
0
40
0
40
0
40
0.124345341846141
40
0.124345341846141
40
0.248690688214844
40
0.248690688214844
40
0.497473115973451
40
0.497473115973451
40
0.6218184706723
40
0.6218184706723
40
0.746163830106546
40
0.746163830106546
40
0.873049375985696
40
0.873049375985696
40
1
40
1
40
1
40
1
41
1
10
5.06999999999999
20
10.85
30
0
41
1
10
5.06757467093643
20
10.8142921418754
30
0
41
1
10
5.065167142343
20
10.7784748316783
30
0
41
1
10
5.06038918440307
20
10.7066476559864
30
0
41
1
10
5.05801846179889
20
10.670633382645
30
0
41
1
10
5.05096242707992
20
10.562314950366
30
0
41
1
10
5.04633242845886
20
10.4897216215046
30
0
41
1
10
5.03950816100817
20
10.3804338438112
30
0
41
1
10
5.03725330508476
20
10.3439349856138
30
0
41
1
10
5.03278429252196
20
10.2708160152705
30
0
41
1
10
5.03056986117872
20
10.2341914094656
30
0
41
1
10
5.02613779193925
20
10.1600898166585
30
0
41
1
10
5.02392072872419
20
10.1226059553408
30
0
41
1
10
5.0195297593799
20
10.0475307923994
30
0
41
1
10
5.01735559441181
20
10.0099346326841
30
0
41
1
10
5.01520407602174
20
9.97230397676981
30
0
0
SPLINE
5
CC
100
AcDbEntity
8
1
62
256
6
ByLayer
370
18
48
1
60
0
100
AcDbSpline
70
4
71
3
72
18
73
14
40
0
40
0
40
0
40
0
40
0.249497396157739
40
0.249497396157739
40
0.374226860428948
40
0.374226860428948
40
0.498956298898838
40
0.498956298898838
40
0.749382927961317
40
0.749382927961317
40
0.874678764160353
40
0.874678764160353
40
1
40
1
40
1
40
1
41
1
10
5.04402380850999
20
-4.81066140939731
30
0
41
1
10
5.11082320961645
20
-4.77317053123096
30
0
41
1
10
5.1777240316442
20
-4.73685310255729
30
0
41
1
10
5.27816249523303
20
-4.68415940659304
30
0
41
1
10
5.3116577727182
20
-4.66689118390809
30
0
41
1
10
5.3786727941667
20
-4.63294914788014
30
0
41
1
10
5.41219423515778
20
-4.61627447458716
30
0
41
1
10
5.51303930745271
20
-4.56702032167752
30
0
41
1
10
5.58039927492831
20
-4.53533938727295
30
0
41
1
10
5.68146453178968
20
-4.48962451616524
30
0
41
1
10
5.71517208045713
20
-4.47468099315745
30
0
41
1
10
5.7825877301461
20
-4.44539943862409
30
0
41
1
10
5.81629753957665
20
-4.43106078745501
30
0
41
1
10
5.84999999999999
20
-4.41702783023149
30
0
0
SPLINE
5
CD
100
AcDbEntity
8
1
62
256
6
ByLayer
370
18
48
1
60
0
100
AcDbSpline
70
4
71
3
72
8
73
4
40
0
40
0
40
0
40
0
40
1
40
1
40
1
40
1
41
1
10
5.84999999999999
20
-4.41702783023112
30
0
41
1
10
5.84999999999999
20
-4.04833187443313
30
0
41
1
10
5.84999999999999
20
-3.66905748035384
30
0
41
1
10
5.84999999999999
20
-3.27920095181557
30
0
0
SPLINE
5
CE
100
AcDbEntity
8
1
62
256
6
ByLayer
370
18
48
1
60
0
100
AcDbSpline
70
4
71
3
72
8
73
4
40
0
40
0
40
0
40
0
40
1
40
1
40
1
40
1
41
1
10
5.5
20
-0.974280895940865
30
0
41
1
10
5.4671046459031
20
-1.0296960574847
30
0
41
1
10
5.4345536992925
20
-1.08573185482629
30
0
41
1
10
5.40236399429923
20
-1.14235988455712
30
0
0
SPLINE
5
CF
100
AcDbEntity
8
1
62
256
6
ByLayer
370
18
48
1
60
0
100
AcDbSpline
70
4
71
3
72
8
73
4
40
0
40
0
40
0
40
0
40
1
40
1
40
1
40
1
41
1
10
5.40236399429923
20
-1.14235988455712
30
0
41
1
10
5.21634661329849
20
-1.46960108741877
30
0
41
1
10
5.04273043500049
20
-1.81610693234688
30
0
41
1
10
4.88321559495901
20
-2.17782272006591
30
0
0
SPLINE
5
D0
100
AcDbEntity
8
SK1
62
256
6
ByLayer
370
18
48
1
60
0
100
AcDbSpline
70
4
71
3
72
8
73
4
40
0
40
0
40
0
40
0
40
1
40
1
40
1
40
1
41
1
10
-0.849999999999998
20
2.52635658713322
30
0
41
0.995881893366436
10
-0.554494583017007
20
2.55061968647035
30
0
41
0.99542494577304
10
-0.270113566080512
20
2.55623586870169
30
0
41
0.998629157219811
10
-1.55595E-11
20
2.54311776686016
30
0
0
SPLINE
5
D1
100
AcDbEntity
8
1
62
256
6
ByLayer
370
18
48
1
60
0
100
AcDbSpline
70
4
71
3
72
12
73
8
40
0
40
0
40
0
40
0
40
0.25
40
0.25
40
0.5
40
0.5
40
1
40
1
40
1
40
1
41
1
10
0.0999999999999908
20
-2.08984133243357
30
0
41
1
10
0.0999999999999908
20
-2.29559655979261
30
0
41
1
10
0.0999999999999908
20
-2.49914111891212
30
0
41
1
10
0.0999999999999908
20
-2.90183012862127
30
0
41
1
10
0.0999999999999908
20
-3.1012856586629
30
0
41
1
10
0.0999999999999908
20
-3.69003856373058
30
0
41
1
10
0.0999999999999908
20
-4.06998761004959
30
0
41
1
10
0.0999999999999908
20
-4.43732023694065
30
0
0
SPLINE
5
D2
100
AcDbEntity
8
1
62
256
6
ByLayer
370
18
48
1
60
0
100
AcDbSpline
70
4
71
3
72
16
73
12
40
0
40
0
40
0
40
0
40
0.0979328008536493
40
0.0979328008536493
40
0.308487984855846
40
0.308487984855846
40
0.519043166398646
40
0.519043166398646
40
0.729598346516019
40
0.729598346516019
40
1
40
1
40
1
40
1
41
1
10
0.100000000017328
20
-4.43732023694187
30
0
41
1
10
0.195963145419025
20
-4.44304715458182
30
0
41
1
10
0.291927191912801
20
-4.44882038370767
30
0
41
1
10
0.594215947191483
20
-4.4671520125751
30
0
41
1
10
0.800543610818149
20
-4.47987828304366
30
0
41
1
10
1.213203564493
20
-4.50576030033065
30
0
41
1
10
1.4195361521036
20
-4.51891606670432
30
0
41
1
10
1.83220385797867
20
-4.5456587225581
30
0
41
1
10
2.03853927158766
20
-4.55924563190038
30
0
41
1
10
2.50985764608779
20
-4.59077615630528
30
0
41
1
10
2.77484132574716
20
-4.60886044822499
30
0
41
1
10
3.03982330007377
20
-4.62730495298325
30
0
0
SPLINE
5
D3
100
AcDbEntity
8
1
62
256
6
ByLayer
370
18
48
1
60
0
100
AcDbSpline
70
4
71
3
72
12
73
8
40
0
40
0
40
0
40
0
40
0.416808237987703
40
0.416808237987703
40
0.833615106661213
40
0.833615106661213
40
1
40
1
40
1
40
1
41
1
10
3.22712509801289
20
-1.50979522349507
30
0
41
1
10
2.98389618605887
20
-1.45589682508503
30
0
41
1
10
2.74042098845402
20
-1.40325387457054
30
0
41
1
10
2.2530474985715
20
-1.3003054143627
30
0
41
1
10
2.00914311505749
20
-1.24999874357067
30
0
41
1
10
1.66761007774107
20
-1.18113619022921
30
0
41
1
10
1.57013948370348
20
-1.16166339357264
30
0
41
1
10
1.47263980825013
20
-1.14235988455968
30
0
0
SPLINE
5
D4
100
AcDbEntity
8
1
62
256
6
ByLayer
370
18
48
1
60
0
100
AcDbSpline
70
4
71
3
72
12
73
8
40
0
40
0
40
0
40
0
40
0.299360504238897
40
0.299360504238897
40
0.79762133912133
40
0.79762133912133
40
1
40
1
40
1
40
1
41
1
10
1.47263980825013
20
-1.14235988455968
30
0
41
1
10
1.32589629173594
20
-1.11330681560887
30
0
41
1
10
1.17908604967397
20
-1.08463700623662
30
0
41
1
10
0.787758526085238
20
-1.00923123353644
30
0
41
1
10
0.543128963885632
20
-0.963147071781805
30
0
41
1
10
0.198923058150403
20
-0.89969377184874
30
0
41
1
10
0.0994738208887017
20
-0.881523560060227
30
0
41
1
10
-2.39402E-11
20
-0.863507801515203
30
0
0
SPLINE
5
D5
100
AcDbEntity
8
SK1
62
256
6
ByLayer
370
18
48
1
60
0
100
AcDbSpline
70
4
71
3
72
8
73
4
40
0
40
0
40
0
40
0
40
1
40
1
40
1
40
1
41
1
10
-0.849999999999998
20
-0.71333712517125
30
0
41
1
10
-0.849999999999998
20
-0.990881179789653
30
0
41
1
10
-0.849999999999998
20
-1.2663355961821
30
0
41
1
10
-0.849999999999998
20
-1.53970937568388
30
0
0
SPLINE
5
D6
100
AcDbEntity
8
SK1
62
256
6
ByLayer
370
18
48
1
60
0
100
AcDbSpline
70
4
71
3
72
8
73
4
40
0
40
0
40
0
40
0
40
1
40
1
40
1
40
1
41
1
10
-0.849999999999998
20
-1.53970937568388
30
0
41
1
10
-0.566789063370945
20
-1.70404744535229
30
0
41
1
10
-0.283442038279247
20
-1.86816305199103
30
0
41
1
10
-2.21007E-11
20
-2.03203767886604
30
0
0
SPLINE
5
D7
100
AcDbEntity
8
1
62
256
6
ByLayer
370
18
48
1
60
0
100
AcDbSpline
70
4
71
3
72
8
73
4
40
0
40
0
40
0
40
0
40
1
40
1
40
1
40
1
41
1
10
0.0999999999999908
20
-2.54284816002183
30
0
41
0.99948602098542
10
0.0669262455775293
20
-2.5411859599286
30
0
41
0.999029073391996
10
0.033591128071005
20
-2.53923420361063
30
0
41
0.998629157219729
10
-2.24696E-11
20
-2.53699282797968
30
0
0
SPLINE
5
D8
100
AcDbEntity
8
SK1
62
256
6
ByLayer
370
18
48
1
60
0
100
AcDbSpline
70
4
71
3
72
8
73
4
40
0
40
0
40
0
40
0
40
1
40
1
40
1
40
1
41
1
10
-0.849999999999998
20
-7.44573352636647
30
0
41
0.998685333206233
10
-0.549326449144485
20
-7.41333158299467
30
0
41
0.998537442442361
10
-0.265659476851637
20
-7.36710940745938
30
0
41
0.999556327708385
10
-1.94627E-11
20
-7.30722272997914
30
0
0
SPLINE
5
D9
100
AcDbEntity
8
1
62
256
6
ByLayer
370
18
48
1
60
0
100
AcDbSpline
70
4
71
3
72
8
73
4
40
0
40
0
40
0
40
0
40
1
40
1
40
1
40
1
41
1
10
5.01520407602174
20
9.97230397676981
30
0
41
1
10
5.0151043556925
20
9.9705598404357
30
0
41
1
10
5.01505025834413
20
9.96881244122412
30
0
41
1
10
5.01504194637425
20
9.96706534333498
30
0
0
SPLINE
5
DA
100
AcDbEntity
8
1
62
256
6
ByLayer
370
18
48
1
60
0
100
AcDbSpline
70
4
71
3
72
8
73
4
40
0
40
0
40
0
40
0
40
1
40
1
40
1
40
1
41
1
10
5.01504194637425
20
9.96706534333498
30
0
41
1
10
5.01491682053935
20
9.94076506976626
30
0
41
1
10
5.02541906178032
20
9.9149953567341
30
0
41
1
10
5.04402380850783
20
9.89631916264594
30
0
0
SPLINE
5
DB
100
AcDbEntity
8
1
62
256
6
ByLayer
370
18
48
1
60
0
100
AcDbSpline
70
4
71
3
72
10
73
6
40
0
40
0
40
0
40
0
40
0.5
40
0.5
40
1
40
1
40
1
40
1
41
1
10
4.88321559495901
20
-2.17782272006591
30
0
41
1
10
4.87288806990096
20
-2.20124141177246
30
0
41
1
10
4.86706110654501
20
-2.22622211580267
30
0
41
1
10
4.86016060267076
20
-2.27679096718313
30
0
41
1
10
4.85925246844098
20
-2.3022563446371
30
0
41
1
10
4.86035851323873
20
-2.32781428720622
30
0
0
SPLINE
5
DC
100
AcDbEntity
8
1
62
256
6
ByLayer
370
18
48
1
60
0
100
AcDbSpline
70
4
71
3
72
20
73
16
40
0
40
0
40
0
40
0
40
0.248781622872383
40
0.248781622872383
40
0.373126491412639
40
0.373126491412639
40
0.49747135520608
40
0.49747135520608
40
0.621816214301324
40
0.621816214301324
40
0.746161068749479
40
0.746161068749479
40
0.873048064017193
40
0.873048064017193
40
1
40
1
40
1
40
1
41
1
10
3.41479592397826
20
9.97230397676981
30
0
41
1
10
3.41058042032136
20
10.0460343098924
30
0
41
1
10
3.406277451302
20
10.1196410365408
30
0
41
1
10
3.39970084581986
20
10.2296960028725
30
0
41
1
10
3.39748809555416
20
10.2663252244916
30
0
41
1
10
3.393022408251
20
10.3394541615883
30
0
41
1
10
3.39076919671197
20
10.3759583713705
30
0
41
1
10
3.38622349612032
20
10.4488193708867
30
0
41
1
10
3.38393072775355
20
10.4851806368019
30
0
41
1
10
3.37930682211322
20
10.557737915733
30
0
41
1
10
3.37697540082655
20
10.5939383846389
30
0
41
1
10
3.37222705703567
20
10.6668944561405
30
0
41
1
10
3.36980905729746
20
10.7036509429869
30
0
41
1
10
3.36493377639408
20
10.7769732768269
30
0
41
1
10
3.36247616384767
20
10.8135437068334
30
0
41
1
10
3.36000000000001
20
10.85
30
0
0
SPLINE
5
DD
100
AcDbEntity
8
1
62
256
6
ByLayer
370
18
48
1
60
0
100
AcDbSpline
70
4
71
3
72
8
73
4
40
0
40
0
40
0
40
0
40
1
40
1
40
1
40
1
41
1
10
3.41495805362575
20
9.96706534333501
30
0
41
1
10
3.41494974165587
20
9.96881244122412
30
0
41
1
10
3.4148956443075
20
9.9705598404357
30
0
41
1
10
3.41479592397826
20
9.97230397676981
30
0
0
SPLINE
5
DE
100
AcDbEntity
8
1
62
256
6
ByLayer
370
18
48
1
60
0
100
AcDbSpline
70
4
71
3
72
8
73
4
40
0
40
0
40
0
40
0
40
1
40
1
40
1
40
1
41
1
10
3.56901226655068
20
-2.33917944751079
30
0
41
1
10
3.56926798241431
20
-2.33538720311805
30
0
41
1
10
3.5694777074828
20
-2.33159881871961
30
0
41
1
10
3.56964148676124
20
-2.32781428720625
30
0
0
SPLINE
5
DF
100
AcDbEntity
8
1
62
256
6
ByLayer
370
18
48
1
60
0
100
AcDbSpline
70
4
71
3
72
18
73
14
40
0
40
0
40
0
40
0
40
0.249497396157739
40
0.249497396157739
40
0.374226860428946
40
0.374226860428946
40
0.498956298898837
40
0.498956298898837
40
0.749382927961315
40
0.749382927961315
40
0.874678764160352
40
0.874678764160352
40
1
40
1
40
1
40
1
41
1
10
5.04402380850999
20
9.89631916264381
30
0
41
1
10
5.11082320961645
20
9.8292632334105
30
0
41
1
10
5.1777240316442
20
9.76220204118903
30
0
41
1
10
5.27816249523303
20
9.66166687801538
30
0
41
1
10
5.3116577727182
20
9.62816328601338
30
0
41
1
10
5.3786727941667
20
9.56117877761534
30
0
41
1
10
5.41219423515778
20
9.52769616558689
30
0
41
1
10
5.51303930745271
20
9.42703706752431
30
0
41
1
10
5.58039927492831
20
9.35989423795448
30
0
41
1
10
5.68146453178968
20
9.25928314136056
30
0
41
1
10
5.71517208045713
20
9.2257484244337
30
0
41
1
10
5.7825877301461
20
9.15871858939784
30
0
41
1
10
5.81629753957665
20
9.12522178178889
30
0
41
1
10
5.84999999999999
20
9.09175080862414
30
0
0
SPLINE
5
E0
100
AcDbEntity
8
1
62
256
6
ByLayer
370
18
48
1
60
0
100
AcDbSpline
70
4
71
3
72
8
73
4
40
0
40
0
40
0
40
0
40
1
40
1
40
1
40
1
41
1
10
3.38597619149001
20
9.89631916264383
30
0
41
1
10
3.40458042699566
20
9.91499484354577
30
0
41
1
10
3.41508317575909
20
9.94076584767595
30
0
41
1
10
3.41495805362575
20
9.96706534333271
30
0
0
SPLINE
5
E1
100
AcDbEntity
8
1
62
256
6
ByLayer
370
18
48
1
60
0
100
AcDbSpline
70
4
71
3
72
16
73
12
40
0
40
0
40
0
40
0
40
0.0979328008589636
40
0.0979328008589636
40
0.30848798485992
40
0.30848798485992
40
0.519043166401479
40
0.519043166401479
40
0.729598346517611
40
0.729598346517611
40
1
40
1
40
1
40
1
41
1
10
0.0999999999999908
20
9.13967150067882
30
0
41
1
10
0.195963145407486
20
9.15306293850961
30
0
41
1
10
0.291927191907032
20
9.16645258313159
30
0
41
1
10
0.594215947191483
20
9.20862540004651
30
0
41
1
10
0.800543610818149
20
9.23740343220405
30
0
41
1
10
1.213203564493
20
9.2949531162763
30
0
41
1
10
1.4195361521036
20
9.32372480805429
30
0
41
1
10
1.83220385797867
20
9.38126813767889
30
0
41
1
10
2.03853927158766
20
9.41003981528206
30
0
41
1
10
2.50985764608779
20
9.47576759970138
30
0
41
1
10
2.77484132574716
20
9.51272568215302
30
0
41
1
10
3.03982330007377
20
9.54969422575175
30
0
0
SPLINE
5
E2
100
AcDbEntity
8
1
62
256
6
ByLayer
370
18
48
1
60
0
100
AcDbSpline
70
4
71
3
72
20
73
16
40
0
40
0
40
0
40
0
40
0.249907253252955
40
0.249907253252955
40
0.374857361884177
40
0.374857361884177
40
0.499807472955983
40
0.499807472955983
40
0.624757586693001
40
0.624757586693001
40
0.749707703316917
40
0.749707703316917
40
0.874851454983892
40
0.874851454983892
40
1
40
1
40
1
40
1
41
1
10
3.03982330007377
20
9.54969422575175
30
0
41
1
10
3.06870456020541
20
9.57854425271231
30
0
41
1
10
3.0975778588224
20
9.60740364734988
30
0
41
1
10
3.14087055782403
20
9.65070192443883
30
0
41
1
10
3.15529868561077
20
9.66513631518251
30
0
41
1
10
3.18414882522412
20
9.69400783877495
30
0
41
1
10
3.19857097318231
20
9.70844510784778
30
0
41
1
10
3.22740858694803
20
9.73732185825625
30
0
41
1
10
3.24182418918425
20
9.75176147619777
30
0
41
1
10
3.2706481500258
20
9.78064238495412
30
0
41
1
10
3.28505664538215
20
9.79508381278259
30
0
41
1
10
3.31388815756727
20
9.82399017243944
30
0
41
1
10
3.32831129992757
20
9.838455243992
30
0
41
1
10
3.35714975575823
20
9.86738650649565
30
0
41
1
10
3.37156520703141
20
9.88185283602962
30
0
41
1
10
3.38597619149001
20
9.89631916264383
30
0
0
SPLINE
5
E3
100
AcDbEntity
8
SK1
62
256
6
ByLayer
370
18
48
1
60
0
100
AcDbSpline
70
4
71
3
72
8
73
4
40
0
40
0
40
0
40
0
40
1
40
1
40
1
40
1
41
1
10
-0.849999999999998
20
8.52183046056876
30
0
41
1
10
-0.566782799841966
20
8.6059966432205
30
0
41
1
10
-0.283448787523042
20
8.68706326609535
30
0
41
1
10
-2.35912E-11
20
8.76508437957857
30
0
0
SPLINE
5
E4
100
AcDbEntity
8
1
62
256
6
ByLayer
370
18
48
1
60
0
100
AcDbSpline
70
4
71
3
72
8
73
4
40
0
40
0
40
0
40
0
40
1
40
1
40
1
40
1
41
1
10
5.5
20
-6.78237132332652
30
0
41
1
10
5.61702145021792
20
-6.42170713390692
30
0
41
1
10
5.73405415372804
20
-6.04374211528369
30
0
41
1
10
5.84999999999487
20
-5.65200412738855
30
0
0
SPLINE
5
E5
100
AcDbEntity
8
1
62
256
6
ByLayer
370
18
48
1
60
0
100
AcDbSpline
70
4
71
3
72
8
73
4
40
0
40
0
40
0
40
0
40
1
40
1
40
1
40
1
41
1
10
5.5
20
-2.1423885661078
30
0
41
1
10
5.61693361433336
20
-2.53572202909157
30
0
41
1
10
5.73397479627209
20
-2.91590022797345
30
0
41
1
10
5.84999999999999
20
-3.27920095181557
30
0
0
SPLINE
5
E6
100
AcDbEntity
8
1
62
256
6
ByLayer
370
18
48
1
60
0
100
AcDbSpline
70
4
71
3
72
8
73
4
40
0
40
0
40
0
40
0
40
1
40
1
40
1
40
1
41
1
10
5.84999999999999
20
6.07356193055148
30
0
41
0.999148627974308
10
5.7334570662993
20
6.02537976733282
30
0
41
0.999148627974308
10
5.61669098826024
20
5.97964170623783
30
0
41
1
10
5.5
20
5.93646456758367
30
0
0
SPLINE
5
E7
100
AcDbEntity
8
1
62
256
6
ByLayer
370
18
48
1
60
0
100
AcDbSpline
70
4
71
3
72
8
73
4
40
0
40
0
40
0
40
0
40
1
40
1
40
1
40
1
41
1
10
0.0999999999999908
20
1.10614423760669
30
0
41
0.999987282053348
10
0.0843623757551388
20
1.0966828488945
30
0
41
0.999987282053348
10
0.0686676803041371
20
1.08719350482024
30
0
41
1
10
0.0529165124598556
20
1.07767656743877
30
0
0
SPLINE
5
E8
100
AcDbEntity
8
1
62
256
6
ByLayer
370
18
48
1
60
0
100
AcDbSpline
70
4
71
3
72
8
73
4
40
0
40
0
40
0
40
0
40
1
40
1
40
1
40
1
41
1
10
0.0529165124598556
20
1.07767656743877
30
0
41
0.999743120000017
10
0.0353489875511098
20
1.0670621776896
30
0
41
0.999502101839438
10
0.0177098873311116
20
1.05641266161997
30
0
41
0.999276945518263
10
-1.73648E-11
20
1.04572850094269
30
0
0
SPLINE
5
E9
100
AcDbEntity
8
SK1
62
256
6
ByLayer
370
18
48
1
60
0
100
AcDbSpline
70
4
71
3
72
8
73
4
40
0
40
0
40
0
40
0
40
1
40
1
40
1
40
1
41
1
10
-0.849999999999998
20
0.0046214836794718
30
0
41
0.998685333206229
10
-0.549326449143563
20
0.191596285167291
30
0
41
0.99853744244236
10
-0.265659476849875
20
0.369660925552412
30
0
41
0.999556327708395
10
-1.70136E-11
20
0.538187888569075
30
0
0
SPLINE
5
EA
100
AcDbEntity
8
1
62
256
6
ByLayer
370
18
48
1
60
0
100
AcDbSpline
70
4
71
3
72
8
73
4
40
0
40
0
40
0
40
0
40
1
40
1
40
1
40
1
41
1
10
4.86098773344932
20
-2.33917944751079
30
0
41
1
10
4.88620256174039
20
-2.71311319509263
30
0
41
1
10
4.91203842915951
20
-3.09476082533956
30
0
41
1
10
4.9381990244463
20
-3.47809090053377
30
0
0
SPLINE
5
EB
100
AcDbEntity
8
1
62
256
6
ByLayer
370
18
48
1
60
0
100
AcDbSpline
70
4
71
3
72
8
73
4
40
0
40
0
40
0
40
0
40
1
40
1
40
1
40
1
41
1
10
4.86035851323873
20
-2.32781428720622
30
0
41
1
10
4.86052238478183
20
-2.33160095072569
30
0
41
1
10
4.8607321615284
20
-2.33538933777632
30
0
41
1
10
4.86098773344932
20
-2.33917944751079
30
0
0
SPLINE
5
EC
100
AcDbEntity
8
1
62
256
6
ByLayer
370
18
48
1
60
0
100
AcDbSpline
70
4
71
3
72
8
73
4
40
0
40
0
40
0
40
0
40
1
40
1
40
1
40
1
41
1
10
3.4918009755537
20
-3.47809090053377
30
0
41
1
10
3.51796167980808
20
-3.09475922864243
30
0
41
1
10
3.5437973335909
20
-2.71311474732079
30
0
41
1
10
3.56901226655068
20
-2.33917944751079
30
0
0
SPLINE
5
ED
100
AcDbEntity
8
1
62
256
6
ByLayer
370
18
48
1
60
0
100
AcDbSpline
70
4
71
3
72
10
73
6
40
0
40
0
40
0
40
0
40
0.5
40
0.5
40
1
40
1
40
1
40
1
41
1
10
3.56964148676124
20
-2.32781428720625
30
0
41
1
10
3.57074755014667
20
-2.3022559151166
30
0
41
1
10
3.56984035896775
20
-2.27680073862101
30
0
41
1
10
3.56293937541036
20
-2.22622292389144
30
0
41
1
10
3.55711214023958
20
-2.20124188828709
30
0
41
1
10
3.54678440504099
20
-2.17782272006593
30
0
0
SPLINE
5
EE
100
AcDbEntity
8
1
62
256
6
ByLayer
370
18
48
1
60
0
100
AcDbSpline
70
4
71
3
72
8
73
4
40
0
40
0
40
0
40
0
40
1
40
1
40
1
40
1
41
1
10
3.38597619149001
20
-4.81066140939731
30
0
41
1
10
3.39227520230099
20
-4.81419670227373
30
0
41
1
10
3.39764549102068
20
-4.81819958253354
30
0
41
1
10
3.40198900011569
20
-4.82253147515959
30
0
0
SPLINE
5
EF
100
AcDbEntity
8
1
62
256
6
ByLayer
370
18
48
1
60
0
100
AcDbSpline
70
4
71
3
72
20
73
16
40
0
40
0
40
0
40
0
40
0.249907253252954
40
0.249907253252954
40
0.374857361884173
40
0.374857361884173
40
0.499807472955981
40
0.499807472955981
40
0.624757586692998
40
0.624757586692998
40
0.749707703316915
40
0.749707703316915
40
0.874851454983892
40
0.874851454983892
40
1
40
1
40
1
40
1
41
1
10
3.03982330007377
20
-4.62730495298325
30
0
41
1
10
3.06870456020541
20
-4.6416989325061
30
0
41
1
10
3.0975778588224
20
-4.65631382971009
30
0
41
1
10
3.14087055782403
20
-4.67856573840319
30
0
41
1
10
3.15529868561077
20
-4.68603801891101
30
0
41
1
10
3.18414882522412
20
-4.70109239236047
30
0
41
1
10
3.19857097318231
20
-4.70867455634391
30
0
41
1
10
3.22740858694803
20
-4.72394855834457
30
0
41
1
10
3.24182418918425
20
-4.73164046862874
30
0
41
1
10
3.27064815002577
20
-4.74713382840915
30
0
41
1
10
3.28505664538215
20
-4.75493535141825
30
0
41
1
10
3.31388815756727
20
-4.77065997957644
30
0
41
1
10
3.32831129992757
20
-4.77858332947227
30
0
41
1
10
3.35714975575823
20
-4.79453995237313
30
0
41
1
10
3.37156520703141
20
-4.80257330600648
30
0
41
1
10
3.38597619149001
20
-4.81066140939731
30
0
0
SPLINE
5
F0
100
AcDbEntity
8
1
62
256
6
ByLayer
370
18
48
1
60
0
100
AcDbSpline
70
4
71
3
72
20
73
16
40
0
40
0
40
0
40
0
40
0.249476567424736
40
0.249476567424736
40
0.374194339917604
40
0.374194339917604
40
0.498912046607484
40
0.498912046607484
40
0.62362968779696
40
0.62362968779696
40
0.748347263823704
40
0.748347263823704
40
0.87416062238861
40
0.87416062238861
40
1
40
1
40
1
40
1
41
1
10
3.54678440504099
20
-2.17782272006593
30
0
41
1
10
3.52159091979967
20
-2.12069398297109
30
0
41
1
10
3.49603760393915
20
-2.06392439965248
30
0
41
1
10
3.45718970401461
20
-1.97936324127306
30
0
41
1
10
3.44415358970135
20
-1.95127388461867
30
0
41
1
10
3.41790977343109
20
-1.895295834575
30
0
41
1
10
3.40470137295352
20
-1.86740565082747
30
0
41
1
10
3.37811505310912
20
-1.81183112051218
30
0
41
1
10
3.36473643449309
20
-1.78414531186354
30
0
41
1
10
3.33781174570046
20
-1.72898454975592
30
0
41
1
10
3.32426497582773
20
-1.70150816241977
30
0
41
1
10
3.29688629827171
20
-1.64653064136078
30
0
41
1
10
3.2830522156855
20
-1.61902997461922
30
0
41
1
10
3.25521498112905
20
-1.56424733580639
30
0
41
1
10
3.24121107593885
20
-1.53696399535337
30
0
41
1
10
3.22712509801289
20
-1.50979522349507
30
0
0
SPLINE
5
F1
100
AcDbEntity
8
1
62
256
6
ByLayer
370
18
48
1
60
0
100
AcDbSpline
70
4
71
3
72
8
73
4
40
0
40
0
40
0
40
0
40
1
40
1
40
1
40
1
41
1
10
5.02868243282836
20
-4.82187218015784
30
0
41
1
10
5.03290374381967
20
-4.81779311803493
30
0
41
1
10
5.03804546042005
20
-4.81401673169276
30
0
41
1
10
5.04402380850783
20
-4.81066140939802
30
0
0
SPLINE
5
F2
100
AcDbEntity
8
1
62
256
6
ByLayer
370
18
48
1
60
0
100
AcDbSpline
70
4
71
3
72
8
73
4
40
0
40
0
40
0
40
0
40
1
40
1
40
1
40
1
41
1
10
-2.35912E-11
20
8.76508437957857
30
0
41
1
10
0.0333317472828122
20
8.77425915877636
30
0
41
1
10
0.0666650817281256
20
8.78339182393491
30
0
41
1
10
0.0999999999999908
20
8.7924824629462
30
0
0
SPLINE
5
F3
100
AcDbEntity
8
1
62
256
6
ByLayer
370
18
48
1
60
0
100
AcDbSpline
70
4
71
3
72
8
73
4
40
0
40
0
40
0
40
0
40
1
40
1
40
1
40
1
41
0.998629157219811
10
-1.55596E-11
20
2.54311776686016
30
0
41
0.999029073392059
10
0.0335911280755768
20
2.54148640918461
30
0
41
0.999486020985455
10
0.0669262455797974
20
2.53956595049493
30
0
41
1
10
0.0999999999999908
20
2.53735711568262
30
0
0
SPLINE
5
F4
100
AcDbEntity
8
SK1
62
256
6
ByLayer
370
18
48
1
60
0
100
AcDbSpline
70
4
71
3
72
8
73
4
40
0
40
0
40
0
40
0
40
1
40
1
40
1
40
1
41
0.998629157219764
10
-1.95114E-11
20
1.49126432703849
30
0
41
0.995424945773044
10
-0.270113566083296
20
1.63619718311633
30
0
41
0.995881893366456
10
-0.554494583018459
20
1.76935823596831
30
0
41
1
10
-0.849999999999998
20
1.8893010515086
30
0
0
SPLINE
5
F5
100
AcDbEntity
8
SK1
62
256
6
ByLayer
370
18
48
1
60
0
100
AcDbSpline
70
4
71
3
72
8
73
4
40
0
40
0
40
0
40
0
40
1
40
1
40
1
40
1
41
0.999276945518263
10
-1.73648E-11
20
1.04572850094269
30
0
41
0.995855730551392
10
-0.270084277238625
20
0.882789925588667
30
0
41
0.996096748711971
10
-0.55446251507355
20
0.713095803087439
30
0
41
1
10
-0.849999999999998
20
0.538515396378614
30
0
0
SPLINE
5
F6
100
AcDbEntity
8
1
62
256
6
ByLayer
370
18
48
1
60
0
100
AcDbSpline
70
4
71
3
72
8
73
4
40
0
40
0
40
0
40
0
40
1
40
1
40
1
40
1
41
0.999556327708395
10
-1.70136E-11
20
0.538187888569075
30
0
41
0.999685473076851
10
0.0336341022134582
20
0.559524424988815
30
0
41
0.99983336384072
10
0.0669680160147585
20
0.580700792277694
30
0
41
1
10
0.0999999999999908
20
0.601715870620183
30
0
0
SPLINE
5
F7
100
AcDbEntity
8
SK1
62
256
6
ByLayer
370
18
48
1
60
0
100
AcDbSpline
70
4
71
3
72
10
73
6
40
0
40
0
40
0
40
0
40
0.324327355592788
40
0.324327355592788
40
1
40
1
40
1
40
1
41
1
10
-2.39402E-11
20
-0.863507801515203
30
0
41
1
10
-0.0918307006132734
20
-0.846876292705557
30
0
41
1
10
-0.18368235219388
20
-0.830376414000987
30
0
41
1
10
-0.466950415700925
20
-0.779899083386596
30
0
41
1
10
-0.658435091883948
20
-0.746351223604165
30
0
41
1
10
-0.849999999999998
20
-0.71333712517125
30
0
0
SPLINE
5
F8
100
AcDbEntity
8
1
62
256
6
ByLayer
370
18
48
1
60
0
100
AcDbSpline
70
4
71
3
72
8
73
4
40
0
40
0
40
0
40
0
40
1
40
1
40
1
40
1
41
1
10
-2.21008E-11
20
-2.03203767886604
30
0
41
1
10
0.033332041638782
20
-2.05130890597034
30
0
41
1
10
0.0666653972504367
20
-2.07057680053073
30
0
41
1
10
0.100000000013292
20
-2.08984133243396
30
0
0
SPLINE
5
F9
100
AcDbEntity
8
SK1
62
256
6
ByLayer
370
18
48
1
60
0
100
AcDbSpline
70
4
71
3
72
8
73
4
40
0
40
0
40
0
40
0
40
1
40
1
40
1
40
1
41
0.998629157219729
10
-2.24696E-11
20
-2.53699282797968
30
0
41
0.995424945773047
10
-0.27011356608538
20
-2.51896943909921
30
0
41
0.995881893366471
10
-0.554494583019546
20
-2.48243509582449
30
0
41
1
10
-0.849999999999998
20
-2.42781644788721
30
0
0
SPLINE
5
FA
100
AcDbEntity
8
1
62
256
6
ByLayer
370
18
48
1
60
0
100
AcDbSpline
70
4
71
3
72
8
73
4
40
0
40
0
40
0
40
0
40
1
40
1
40
1
40
1
41
0.999556327708385
10
-1.94629E-11
20
-7.30722272997914
30
0
41
0.999685473076844
10
0.0336341022118393
20
-7.299640713118
30
0
41
0.999833363840716
10
0.0669680160139559
20
-7.29184194239745
30
0
41
1
10
0.0999999999999908
20
-7.28382695255829
30
0
0
INSERT
5
126
100
AcDbEntity
8
SK2
62
256
6
ByLayer
370
25
48
1
60
0
100
AcDbBlockReference
2
DimnDraft3D44
10
0
20
0
30
0
41
1
42
1
43
1
50
0
210
0
220
0
230
1
0
INSERT
5
13A
100
AcDbEntity
8
2
62
256
6
ByLayer
370
25
48
1
60
0
100
AcDbBlockReference
2
DimnDraft3D66
10
0
20
0
30
0
41
1
42
1
43
1
50
0
210
0
220
0
230
1
0
LINE
5
74
100
AcDbEntity
8
1
62
256
6
ByLayer
370
18
48
1
60
1
100
AcDbLine
10
0
20
0
30
0
11
0
21
297
31
0
39
0
210
0
220
0
230
1
0
LINE
5
75
100
AcDbEntity
8
1
62
256
6
ByLayer
370
18
48
1
60
1
100
AcDbLine
10
420
20
297
30
0
11
0
21
297
31
0
39
0
210
0
220
0
230
1
0
LINE
5
76
100
AcDbEntity
8
1
62
256
6
ByLayer
370
18
48
1
60
1
100
AcDbLine
10
420
20
297
30
0
11
420
21
0
31
0
39
0
210
0
220
0
230
1
0
LINE
5
77
100
AcDbEntity
8
1
62
256
6
ByLayer
370
18
48
1
60
1
100
AcDbLine
10
0
20
0
30
0
11
420
21
0
31
0
39
0
210
0
220
0
230
1
0
LINE
5
78
100
AcDbEntity
8
SK1
62
256
6
ByLayer
370
18
48
1
60
0
100
AcDbLine
10
-0.85
20
-7.502152
30
0
11
0
21
-7.502152
31
0
39
0
210
0
220
0
230
1
0
LINE
5
7A
100
AcDbEntity
8
1
62
256
6
ByLayer
370
13
48
1
60
0
100
AcDbLine
10
5.5
20
1.236843
30
0
11
0.1
21
1.236843
31
0
39
0
210
0
220
0
230
1
0
LINE
5
7B
100
AcDbEntity
8
1
62
256
6
ByLayer
370
18
48
1
60
0
100
AcDbLine
10
5.038442
20
-4.961291
30
0
11
3.391558
21
-4.961291
31
0
39
0
210
0
220
0
230
1
0
LINE
5
7C
100
AcDbEntity
8
1
62
256
6
ByLayer
370
18
48
1
60
0
100
AcDbLine
10
4.938199
20
-3.478091
30
0
11
3.491801
21
-3.478091
31
0
39
0
210
0
220
0
230
1
0
LINE
5
7D
100
AcDbEntity
8
1
62
256
6
ByLayer
370
18
48
1
60
0
100
AcDbLine
10
5.5
20
-5.152166
30
0
11
5.718269
21
-4.476041
31
0
39
0
210
0
220
0
230
1
0
LINE
5
7E
100
AcDbEntity
8
1
62
256
6
ByLayer
370
18
48
1
60
0
100
AcDbLine
10
5.5
20
5.544126
30
0
11
5.5
21
5.329992
31
0
39
0
210
0
220
0
230
1
0
LINE
5
7F
100
AcDbEntity
8
1
62
256
6
ByLayer
370
18
48
1
60
0
100
AcDbLine
10
5.5
20
5.329992
30
0
11
5.5
21
4.897965
31
0
39
0
210
0
220
0
230
1
0
LINE
5
80
100
AcDbEntity
8
1
62
256
6
ByLayer
370
18
48
1
60
0
100
AcDbLine
10
5.5
20
4.897965
30
0
11
5.5
21
3.155578
31
0
39
0
210
0
220
0
230
1
0
LINE
5
81
100
AcDbEntity
8
1
62
256
6
ByLayer
370
18
48
1
60
0
100
AcDbLine
10
5.5
20
3.155578
30
0
11
5.5
21
2.614866
31
0
39
0
210
0
220
0
230
1
0
LINE
5
82
100
AcDbEntity
8
1
62
256
6
ByLayer
370
18
48
1
60
0
100
AcDbLine
10
5.5
20
2.614866
30
0
11
5.5
21
1.236843
31
0
39
0
210
0
220
0
230
1
0
LINE
5
83
100
AcDbEntity
8
1
62
256
6
ByLayer
370
18
48
1
60
0
100
AcDbLine
10
5.5
20
1.236843
30
0
11
5.5
21
-0.974281
31
0
39
0
210
0
220
0
230
1
0
LINE
5
84
100
AcDbEntity
8
SK1
62
256
6
ByLayer
370
18
48
1
60
0
100
AcDbLine
10
-0.85
20
1.889301
30
0
11
-0.85
21
2.526357
31
0
39
0
210
0
220
0
230
1
0
LINE
5
85
100
AcDbEntity
8
SK1
62
256
6
ByLayer
370
18
48
1
60
0
100
AcDbLine
10
-0.85
20
8.52183
30
0
11
-0.85
21
2.526357
31
0
39
0
210
0
220
0
230
1
0
LINE
5
86
100
AcDbEntity
8
1
62
256
6
ByLayer
370
18
48
1
60
0
100
AcDbLine
10
5.5
20
5.936465
30
0
11
5.5
21
5.544126
31
0
39
0
210
0
220
0
230
1
0
LINE
5
87
100
AcDbEntity
8
1
62
256
6
ByLayer
370
18
48
1
60
0
100
AcDbLine
10
0.1
20
8.420924
30
0
11
0.1
21
6.486855
31
0
39
0
210
0
220
0
230
1
0
LINE
5
88
100
AcDbEntity
8
1
62
256
6
ByLayer
370
18
48
1
60
0
100
AcDbLine
10
5.85
20
6.486855
30
0
11
5.85
21
8.420924
31
0
39
0
210
0
220
0
230
1
0
LINE
5
89
100
AcDbEntity
8
1
62
256
6
ByLayer
370
18
48
1
60
0
100
AcDbLine
10
5.85
20
6.073562
30
0
11
5.85
21
6.486855
31
0
39
0
210
0
220
0
230
1
0
LINE
5
8A
100
AcDbEntity
8
1
62
256
6
ByLayer
370
13
48
1
60
0
100
AcDbLine
10
5.85
20
6.486855
30
0
11
0.1
21
6.486855
31
0
39
0
210
0
220
0
230
1
0
LINE
5
8B
100
AcDbEntity
8
1
62
256
6
ByLayer
370
18
48
1
60
0
100
AcDbLine
10
0.1
20
6.486855
30
0
11
0.1
21
5.544126
31
0
39
0
210
0
220
0
230
1
0
LINE
5
8C
100
AcDbEntity
8
1
62
256
6
ByLayer
370
18
48
1
60
0
100
AcDbLine
10
0.1
20
4.897965
30
0
11
0.1
21
3.155578
31
0
39
0
210
0
220
0
230
1
0
LINE
5
8D
100
AcDbEntity
8
1
62
256
6
ByLayer
370
13
48
1
60
0
100
AcDbLine
10
5.5
20
3.155578
30
0
11
0.1
21
3.155578
31
0
39
0
210
0
220
0
230
1
0
LINE
5
8E
100
AcDbEntity
8
1
62
256
6
ByLayer
370
18
48
1
60
0
100
AcDbLine
10
0.1
20
3.155578
30
0
11
0.1
21
2.614866
31
0
39
0
210
0
220
0
230
1
0
LINE
5
8F
100
AcDbEntity
8
1
62
256
6
ByLayer
370
13
48
1
60
0
100
AcDbLine
10
5.5
20
2.614866
30
0
11
0.1
21
2.614866
31
0
39
0
210
0
220
0
230
1
0
LINE
5
90
100
AcDbEntity
8
1
62
256
6
ByLayer
370
18
48
1
60
0
100
AcDbLine
10
0.1
20
2.614866
30
0
11
0.1
21
1.236843
31
0
39
0
210
0
220
0
230
1
0
LINE
5
91
100
AcDbEntity
8
1
62
256
6
ByLayer
370
18
48
1
60
0
100
AcDbLine
10
0.1
20
1.236843
30
0
11
0.1
21
0.601716
31
0
39
0
210
0
220
0
230
1
0
LINE
5
92
100
AcDbEntity
8
SK1
62
256
6
ByLayer
370
18
48
1
60
0
100
AcDbLine
10
-0.85
20
-7.502152
30
0
11
-0.85
21
-7.445734
31
0
39
0
210
0
220
0
230
1
0
LINE
5
93
100
AcDbEntity
8
SK1
62
256
6
ByLayer
370
18
48
1
60
0
100
AcDbLine
10
-0.85
20
-7.445734
30
0
11
-0.85
21
-2.427816
31
0
39
0
210
0
220
0
230
1
0
LINE
5
94
100
AcDbEntity
8
SK1
62
256
6
ByLayer
370
18
48
1
60
0
100
AcDbLine
10
-0.85
20
-2.427816
30
0
11
-0.85
21
-1.563206
31
0
39
0
210
0
220
0
230
1
0
LINE
5
95
100
AcDbEntity
8
1
62
256
6
ByLayer
370
18
48
1
60
0
100
AcDbLine
10
5.85
20
-5.652004
30
0
11
5.85
21
-4.441315
31
0
39
0
210
0
220
0
230
1
0
LINE
5
96
100
AcDbEntity
8
1
62
256
6
ByLayer
370
13
48
1
60
0
100
AcDbLine
10
5.402364
20
-1.14236
30
0
11
1.47264
21
-1.14236
31
0
39
0
210
0
220
0
230
1
0
LINE
5
97
100
AcDbEntity
8
1
62
256
6
ByLayer
370
13
48
1
60
0
100
AcDbLine
10
5.5
20
5.544126
30
0
11
0.1
21
5.544126
31
0
39
0
210
0
220
0
230
1
0
LINE
5
98
100
AcDbEntity
8
1
62
256
6
ByLayer
370
18
48
1
60
0
100
AcDbLine
10
0.1
20
5.544126
30
0
11
0.1
21
5.329992
31
0
39
0
210
0
220
0
230
1
0
LINE
5
99
100
AcDbEntity
8
1
62
256
6
ByLayer
370
18
48
1
60
0
100
AcDbLine
10
5.5
20
-4.533221
30
0
11
5.5
21
-5.057493
31
0
39
0
210
0
220
0
230
1
0
LINE
5
9A
100
AcDbEntity
8
1
62
256
6
ByLayer
370
18
48
1
60
0
100
AcDbLine
10
5.5
20
-5.057493
30
0
11
5.5
21
-5.740555
31
0
39
0
210
0
220
0
230
1
0
LINE
5
9B
100
AcDbEntity
8
1
62
256
6
ByLayer
370
18
48
1
60
0
100
AcDbLine
10
5.5
20
-5.740555
30
0
11
5.5
21
-5.924654
31
0
39
0
210
0
220
0
230
1
0
LINE
5
9C
100
AcDbEntity
8
1
62
256
6
ByLayer
370
18
48
1
60
0
100
AcDbLine
10
5.5
20
-5.924654
30
0
11
5.5
21
-6.939999
31
0
39
0
210
0
220
0
230
1
0
LINE
5
9D
100
AcDbEntity
8
1
62
256
6
ByLayer
370
18
48
1
60
0
100
AcDbLine
10
5.5
20
-6.939999
30
0
11
5.5
21
-7.502152
31
0
39
0
210
0
220
0
230
1
0
LINE
5
9E
100
AcDbEntity
8
1
62
256
6
ByLayer
370
18
48
1
60
0
100
AcDbLine
10
0.1
20
-5.057493
30
0
11
0.1
21
-5.740555
31
0
39
0
210
0
220
0
230
1
0
LINE
5
9F
100
AcDbEntity
8
1
62
256
6
ByLayer
370
13
48
1
60
0
100
AcDbLine
10
5.5
20
-5.740555
30
0
11
0.1
21
-5.740555
31
0
39
0
210
0
220
0
230
1
0
LINE
5
A0
100
AcDbEntity
8
1
62
256
6
ByLayer
370
18
48
1
60
0
100
AcDbLine
10
0.1
20
-5.740555
30
0
11
0.1
21
-5.924654
31
0
39
0
210
0
220
0
230
1
0
LINE
5
A1
100
AcDbEntity
8
1
62
256
6
ByLayer
370
13
48
1
60
0
100
AcDbLine
10
5.5
20
-5.924654
30
0
11
0.1
21
-5.924654
31
0
39
0
210
0
220
0
230
1
0
LINE
5
A2
100
AcDbEntity
8
1
62
256
6
ByLayer
370
18
48
1
60
0
100
AcDbLine
10
0.1
20
-5.924654
30
0
11
0.1
21
-6.939999
31
0
39
0
210
0
220
0
230
1
0
LINE
5
A3
100
AcDbEntity
8
1
62
256
6
ByLayer
370
13
48
1
60
0
100
AcDbLine
10
5.5
20
-6.939999
30
0
11
0.1
21
-6.939999
31
0
39
0
210
0
220
0
230
1
0
LINE
5
A4
100
AcDbEntity
8
1
62
256
6
ByLayer
370
18
48
1
60
0
100
AcDbLine
10
0.1
20
-6.939999
30
0
11
0.1
21
-7.283827
31
0
39
0
210
0
220
0
230
1
0
LINE
5
A5
100
AcDbEntity
8
1
62
256
6
ByLayer
370
18
48
1
60
0
100
AcDbLine
10
0.1
20
-4.488684
30
0
11
0.1
21
-4.533221
31
0
39
0
210
0
220
0
230
1
0
LINE
5
A6
100
AcDbEntity
8
1
62
256
6
ByLayer
370
18
48
1
60
0
100
AcDbLine
10
5.5
20
-0.864413
30
0
11
5.85
21
-2.037429
31
0
39
0
210
0
220
0
230
1
0
LINE
5
A7
100
AcDbEntity
8
1
62
256
6
ByLayer
370
18
48
1
60
0
100
AcDbLine
10
5.85
20
-3.279201
30
0
11
5.85
21
-2.037429
31
0
39
0
210
0
220
0
230
1
0
LINE
5
A8
100
AcDbEntity
8
1
62
256
6
ByLayer
370
18
48
1
60
0
100
AcDbLine
10
5.5
20
5.74716
30
0
11
5.85
21
5.957244
31
0
39
0
210
0
220
0
230
1
0
LINE
5
A9
100
AcDbEntity
8
1
62
256
6
ByLayer
370
18
48
1
60
0
100
AcDbLine
10
5.85
20
5.957244
30
0
11
5.85
21
6.073562
31
0
39
0
210
0
220
0
230
1
0
LINE
5
AA
100
AcDbEntity
8
1
62
256
6
ByLayer
370
18
48
1
60
0
100
AcDbLine
10
5.07
20
-5.425
30
0
11
3.36
21
-5.425
31
0
39
0
210
0
220
0
230
1
0
LINE
5
AB
100
AcDbEntity
8
1
62
256
6
ByLayer
370
18
48
1
60
0
100
AcDbLine
10
5.85
20
9.091751
30
0
11
5.85
21
8.420924
31
0
39
0
210
0
220
0
230
1
0
LINE
5
AC
100
AcDbEntity
8
SK1
62
256
6
ByLayer
370
18
48
1
60
0
100
AcDbLine
10
-0.85
20
-0.713337
30
0
11
-0.85
21
0.004621
31
0
39
0
210
0
220
0
230
1
0
LINE
5
AD
100
AcDbEntity
8
SK1
62
256
6
ByLayer
370
18
48
1
60
0
100
AcDbLine
10
-0.85
20
0.004621
30
0
11
-0.85
21
0.538515
31
0
39
0
210
0
220
0
230
1
0
LINE
5
AE
100
AcDbEntity
8
1
62
256
6
ByLayer
370
18
48
1
60
0
100
AcDbLine
10
0.1
20
-4.533221
30
0
11
0.1
21
-5.057493
31
0
39
0
210
0
220
0
230
1
0
LINE
5
AF
100
AcDbEntity
8
1
62
256
6
ByLayer
370
18
48
1
60
0
100
AcDbLine
10
0.1
20
-5.057493
30
0
11
3.385056
21
-5.057493
31
0
39
0
210
0
220
0
230
1
0
LINE
5
B0
100
AcDbEntity
8
1
62
256
6
ByLayer
370
18
48
1
60
0
100
AcDbLine
10
5.044881
20
-5.057493
30
0
11
5.5
21
-5.057493
31
0
39
0
210
0
220
0
230
1
0
LINE
5
B1
100
AcDbEntity
8
1
62
256
6
ByLayer
370
18
48
1
60
0
100
AcDbLine
10
1.635878
20
-4.533221
30
0
11
0.1
21
-4.533221
31
0
39
0
210
0
220
0
230
1
0
LINE
5
B2
100
AcDbEntity
8
1
62
256
6
ByLayer
370
18
48
1
60
0
100
AcDbLine
10
0.1
20
8.420924
30
0
11
5.85
21
8.420924
31
0
39
0
210
0
220
0
230
1
0
LINE
5
B3
100
AcDbEntity
8
1
62
256
6
ByLayer
370
18
48
1
60
0
100
AcDbLine
10
5.07
20
10.85
30
0
11
3.36
21
10.85
31
0
39
0
210
0
220
0
230
1
0
LINE
5
B4
100
AcDbEntity
8
1
62
256
6
ByLayer
370
18
48
1
60
0
100
AcDbLine
10
0.1
20
9.139672
30
0
11
0.1
21
8.420924
31
0
39
0
210
0
220
0
230
1
0
LINE
5
B5
100
AcDbEntity
8
1
62
256
6
ByLayer
370
18
48
1
60
0
100
AcDbLine
10
0.1
20
5.329992
30
0
11
0.1
21
4.897965
31
0
39
0
210
0
220
0
230
1
0
LINE
5
B6
100
AcDbEntity
8
1
62
256
6
ByLayer
370
18
48
1
60
0
100
AcDbLine
10
0.1
20
4.897965
30
0
11
5.5
21
4.897965
31
0
39
0
210
0
220
0
230
1
0
LINE
5
B7
100
AcDbEntity
8
1
62
256
6
ByLayer
370
18
48
1
60
0
100
AcDbLine
10
5.5
20
5.329992
30
0
11
0.1
21
5.329992
31
0
39
0
210
0
220
0
230
1
0
LINE
5
B8
100
AcDbEntity
8
1
62
256
6
ByLayer
370
18
48
1
60
0
100
AcDbLine
10
0
20
1.491264
30
0
11
0
21
8.765084
31
0
39
0
210
0
220
0
230
1
0
LINE
5
B9
100
AcDbEntity
8
1
62
256
6
ByLayer
370
18
48
1
60
0
100
AcDbLine
10
0
20
-7.502152
30
0
11
5.5
21
-7.502152
31
0
39
0
210
0
220
0
230
1
0
LINE
5
BA
100
AcDbEntity
8
1
62
256
6
ByLayer
370
18
48
1
60
0
100
AcDbLine
10
0
20
-7.502152
30
0
11
0
21
1.045729
31
0
39
0
210
0
220
0
230
1
0
LINE
5
BB
100
AcDbEntity
8
80
62
256
6
ByLayer
370
18
48
1
60
0
100
AcDbLine
10
0
20
0
30
0
11
-0.636954
21
0
31
0
39
0
210
0
220
0
230
1
0
LINE
5
BC
100
AcDbEntity
8
81
62
256
6
ByLayer
370
18
48
1
60
0
100
AcDbLine
10
5.17
20
10.85
30
0
11
6.021713
21
10.85
31
0
39
0
210
0
220
0
230
1
0
LINE
5
BD
100
AcDbEntity
8
4
62
256
6
ByLayer
370
18
48
0.05
60
0
100
AcDbLine
10
0
20
0
30
0
11
6.349013
21
0
31
0
39
0
210
0
220
0
230
1
0
LINE
5
BF
100
AcDbEntity
8
SK4
62
256
6
ByLayer
370
18
48
0.05
60
0
100
AcDbLine
10
-1.5
20
0
30
0
11
6.877541
21
0
31
0
39
0
210
0
220
0
230
1
0
MTEXT
5
FB
100
AcDbEntity
8
SK6
62
256
6
ByLayer
370
18
48
1
60
0
100
AcDbMText
10
-22.279264
20
-17.189157
30
0
210
0
220
0
230
1
1
\W0.7082;327R12-22 16045-GC
40
3.5
41
0
44
1.084337
50
0
71
7
72
5
7
iso_b_vert
0
DIMENSION
5
107
100
AcDbEntity
8
2
62
256
6
ByLayer
370
13
48
1
60
0
100
AcDbDimension
2
DimnDraft3D1
10
17.336623
20
-10.85
30
0
11
17.336623
21
-7.511184
31
0
70
32
71
5
72
1
41
1
210
0
220
0
230
1
3
Standard
100
AcDbAlignedDimension
13
5.17
23
-10.85
33
0
14
0
24
0
34
0
50
90
100
AcDbRotatedDimension
1001
ACAD
1000
DSTYLE
1002
{
1070
    74
1070
     0
1070
   279
1070
     0
1070
   172
1070
     1
1070
   173
1070
     1
1070
   340
1005
FC
1070
    76
1070
     1
1070
   271
1070
     2
1070
   272
1070
     2
1070
    77
1070
     1
1070
    73
1070
     0
1070
   171
1070
     3
1070
   274
1070
     4
1070
   282
1070
     1
1070
   177
1070
     7
1070
   176
1070
     7
1070
   178
1070
     7
1070
    78
1070
     8
1070
    48
1040
-0.005
1070
    41
1041
3.5
1070
   147
1041
1.75
1070
    42
1041
1.5875
1070
    44
1041
2.0
1070
   140
1041
3.5
1070
   343
1005
0
1070
   344
1005
0
1002
}
0
DIMENSION
5
112
100
AcDbEntity
8
SK2
62
256
6
ByLayer
370
13
48
1
60
0
100
AcDbDimension
2
DimnDraft3D2
10
-8.962588
20
-6
30
0
11
-8.962588
21
-5.632237
31
0
70
32
71
5
72
1
41
1
210
0
220
0
230
1
3
Standard
100
AcDbAlignedDimension
13
-1.5875
23
6
33
0
14
-1.5875
24
-6
34
0
50
90
100
AcDbRotatedDimension
1001
ACAD
1000
DSTYLE
1002
{
1070
    74
1070
     0
1070
   279
1070
     0
1070
   172
1070
     1
1070
   173
1070
     1
1070
   340
1005
FC
1070
   271
1070
     2
1070
   272
1070
     2
1070
    77
1070
     1
1070
    73
1070
     0
1070
   171
1070
     3
1070
   274
1070
     4
1070
   177
1070
     7
1070
   176
1070
     7
1070
   178
1070
     7
1070
    78
1070
     8
1070
    48
1040
-0.005
1070
    41
1041
3.5
1070
   147
1041
1.75
1070
    42
1041
1.5875
1070
    44
1041
2.0
1070
   140
1041
3.5
1070
   343
1005
0
1070
   344
1005
0
1002
}
0
DIMENSION
5
11C
100
AcDbEntity
8
2
62
256
6
ByLayer
370
13
48
1
60
0
100
AcDbDimension
2
DimnDraft3D3
10
5.85
20
29.63656
30
0
11
9.957212
21
29.63656
31
0
70
32
71
5
72
1
41
1
210
0
220
0
230
1
3
Standard
100
AcDbAlignedDimension
13
0
23
10.352584
33
0
14
5.85
24
10.008424
34
0
50
0
100
AcDbRotatedDimension
1001
ACAD
1000
DSTYLE
1002
{
1070
   279
1070
     0
1070
   172
1070
     1
1070
   173
1070
     1
1070
   340
1005
FC
1070
   271
1070
     2
1070
   272
1070
     2
1070
    77
1070
     1
1070
    73
1070
     0
1070
   171
1070
     3
1070
   274
1070
     4
1070
   177
1070
     7
1070
   176
1070
     7
1070
   178
1070
     7
1070
    78
1070
     8
1070
    48
1040
-0.005
1070
    41
1041
3.5
1070
   147
1041
1.75
1070
    42
1041
1.5875
1070
    44
1041
2.0
1070
   140
1041
3.5
1070
   343
1005
0
1070
   344
1005
0
1002
}
0
DIMENSION
5
130
100
AcDbEntity
8
2
62
256
6
ByLayer
370
13
48
1
60
0
100
AcDbDimension
2
DimnDraft3D5
10
5.015204
20
16.783863
30
0
11
11.247665
21
16.783863
31
0
70
32
71
5
72
1
41
1
210
0
220
0
230
1
3
Standard
100
AcDbAlignedDimension
13
3.414958
23
11.554565
33
0
14
5.015204
24
11.559804
34
0
50
0
100
AcDbRotatedDimension
1001
ACAD
1000
DSTYLE
1002
{
1070
   279
1070
     0
1070
   172
1070
     1
1070
   173
1070
     1
1070
   340
1005
FC
1070
   271
1070
     2
1070
   272
1070
     2
1070
    77
1070
     1
1070
    73
1070
     0
1070
   171
1070
     3
1070
   274
1070
     4
1070
   177
1070
     7
1070
   176
1070
     7
1070
   178
1070
     7
1070
    78
1070
     8
1070
    48
1040
-0.005
1070
    41
1041
3.5
1070
   147
1041
1.75
1070
    42
1041
1.5875
1070
    44
1041
2.0
1070
   140
1041
3.5
1070
   343
1005
0
1070
   344
1005
0
1002
}
0
ENDSEC
0
SECTION
2
OBJECTS
0
DICTIONARY
5
1a5
330
0
100
AcDbDictionary
280
0
281
1
3
ACAD_GROUP
350
1a6
3
ACAD_MLINESTYLE
350
1a7
0
DICTIONARY
5
1a6
330
0
100
AcDbDictionary
280
0
281
1
0
DICTIONARY
5
1a7
330
0
100
AcDbDictionary
280
0
281
1
3
Standard
350
18
0
MLINESTYLE
5
18
330
1a7
100
AcDbMlineStyle
2
Standard
70
0
3

62
256
51
90
52
90
71
2
49
-0.5
62
256
6
ByLayer
49
0.5
62
256
6
ByLayer
0
RASTERVARIABLES
5
193
330

100
AcDbRasterVariables
90
0
70
1
71
1
72
1
0
ENDSEC
0
EOF
