0
SECTION
2
HEADER
9
$ACADVER
1
AC1015
9
$DWGCODEPAGE
3
ANSI_1252
9
$HANDSEED
5
1b4
9
$ANGBASE
50
0
9
$ANGDIR
70
0
9
$ATTMODE
70
1
9
$AUNITS
70
0
9
$AUPREC
70
0
9
$CECOLOR
62
256
9
$CELTSCALE
40
1
9
$CELTYPE
6
ByLayer
9
$CELWEIGHT
370
18
9
$CLAYER
8
0
9
$CMLJUST
70
0
9
$CMLSCALE
40
1
9
$CMLSTYLE
2
Standard
9
$DIMSTYLE
2
Standard
9
$TEXTSIZE
40
0.2
9
$TEXTSTYLE
7
Standard
9
$LUNITS
70
2
9
$LUPREC
70
4
9
$EXTNAMES
290
1
9
$INSUNITS
70
4
9
$LTSCALE
40
1
9
$LWDISPLAY
290
1
9
$PDMODE
70
0
9
$PDSIZE
40
0
9
$PLINEGEN
70
0
0
ENDSEC
0
SECTION
2
CLASSES
0
CLASS
1
RASTERVARIABLES
2
AcDbRasterVariables
3
ISM
90
0
280
0
281
0
0
ENDSEC
0
SECTION
2
TABLES
0
TABLE
2
VPORT
5
1aa
100
AcDbSymbolTable
0
VPORT
5
1
100
AcDbSymbolTableRecord
100
AcDbViewportTableRecord
2
*Active
70
0
10
0
20
0
11
1
21
1
12
-1
22
1
13
0
23
0
14
0.5
24
0.5
15
10
25
10
16
0
26
0
36
1
17
0
27
0
37
0
0
ENDTAB
0
TABLE
2
LTYPE
5
1ab
100
AcDbSymbolTable
0
LTYPE
5
14
100
AcDbSymbolTableRecord
100
AcDbLinetypeTableRecord
70
0
2
ByBlock
3

72
65
73
0
40
0
0
LTYPE
5
15
100
AcDbSymbolTableRecord
100
AcDbLinetypeTableRecord
70
0
2
ByLayer
3

72
65
73
0
40
0
0
LTYPE
5
16
100
AcDbSymbolTableRecord
100
AcDbLinetypeTableRecord
70
0
2
CONTINUOUS
3
Solid line
72
65
73
0
40
0
0
LTYPE
5
6A
100
AcDbSymbolTableRecord
100
AcDbLinetypeTableRecord
70
0
2
CENTER
3
____ _ ____ _ ____ _ ____
72
65
73
4
40
47.5
49
22
74
0
49
-8.5
74
0
49
8.5
74
0
49
-8.5
74
0
0
LTYPE
5
6B
100
AcDbSymbolTableRecord
100
AcDbLinetypeTableRecord
70
0
2
DASHED
3
__ __ __ __ __ __ __ __ __
72
65
73
2
40
25.72
49
12.86
74
0
49
-12.86
74
0
0
ENDTAB
0
TABLE
2
LAYER
5
1ac
100
AcDbSymbolTable
0
LAYER
5
10
100
AcDbSymbolTableRecord
100
AcDbLayerTableRecord
2
0
70
0
62
7
6
CONTINUOUS
290
1
370
-3
390
0
0
LAYER
5
6D
100
AcDbSymbolTableRecord
100
AcDbLayerTableRecord
2
81
70
0
62
-3
6
CONTINUOUS
290
1
370
-3
390
0
0
LAYER
5
6F
100
AcDbSymbolTableRecord
100
AcDbLayerTableRecord
2
1
70
0
62
4
6
CONTINUOUS
290
1
370
-3
390
0
0
LAYER
5
71
100
AcDbSymbolTableRecord
100
AcDbLayerTableRecord
2
80
70
0
62
-6
6
CONTINUOUS
290
1
370
-3
390
0
0
LAYER
5
A7
100
AcDbSymbolTableRecord
100
AcDbLayerTableRecord
2
4
70
0
62
-2
6
CENTER
290
1
370
-3
390
0
0
LAYER
5
10D
100
AcDbSymbolTableRecord
100
AcDbLayerTableRecord
2
2
70
0
62
7
6
CONTINUOUS
290
1
370
-3
390
0
0
LAYER
5
196
100
AcDbSymbolTableRecord
100
AcDbLayerTableRecord
2
SK1
70
0
62
4
6
CONTINUOUS
290
1
370
-3
390
0
0
LAYER
5
197
100
AcDbSymbolTableRecord
100
AcDbLayerTableRecord
2
SK4
70
0
62
2
6
CENTER
290
1
370
-3
390
0
0
LAYER
5
198
100
AcDbSymbolTableRecord
100
AcDbLayerTableRecord
2
SK6
70
0
62
5
6
CONTINUOUS
290
1
370
-3
390
0
0
LAYER
5
199
100
AcDbSymbolTableRecord
100
AcDbLayerTableRecord
2
SK2
70
0
62
7
6
CONTINUOUS
290
1
370
-3
390
0
0
ENDTAB
0
TABLE
2
STYLE
5
1ad
100
AcDbSymbolTable
0
STYLE
5
11
100
AcDbSymbolTableRecord
100
AcDbTextStyleTableRecord
2
Standard
3
txt
70
0
71
0
40
0
41
1
42
0
50
0
0
STYLE
5
108
100
AcDbSymbolTableRecord
100
AcDbTextStyleTableRecord
2
iso_b_vert
3
simplex.shx
70
0
71
0
40
0
41
1
42
0
50
0
0
STYLE
5
109
100
AcDbSymbolTableRecord
100
AcDbTextStyleTableRecord
2
DWGDirectTextStyle
3
simplex
70
0
71
0
40
0
41
1
42
0
50
0
0
ENDTAB
0
TABLE
2
DIMSTYLE
5
1ae
100
AcDbSymbolTable
100
AcDbDimStyleTable
0
DIMSTYLE
105
27
100
AcDbSymbolTableRecord
100
AcDbDimStyleTableRecord
2
Standard
70
0
3
<>
41
0.18
42
0.0625
44
0.18
140
0.18
147
0.09
73
0
74
0
77
1
271
2
275
0
278
52
280
0
340
11
0
ENDTAB
0
TABLE
2
VIEW
5
1af
100
AcDbSymbolTable
0
ENDTAB
0
TABLE
2
UCS
5
1b0
100
AcDbSymbolTable
0
ENDTAB
0
TABLE
2
APPID
5
1b1
100
AcDbSymbolTable
0
APPID
5
12
100
AcDbSymbolTableRecord
100
AcDbRegAppTableRecord
2
ACAD
70
0
0
ENDTAB
0
TABLE
2
BLOCK_RECORD
5
1b2
100
AcDbSymbolTable
0
BLOCK_RECORD
5
1F
100
AcDbSymbolTableRecord
100
AcDbBlockTableRecord
2
*Model_Space
340
0
70
0
0
BLOCK_RECORD
5
1B
100
AcDbSymbolTableRecord
100
AcDbBlockTableRecord
2
*Paper_Space
340
0
70
0
0
BLOCK_RECORD
5
23
100
AcDbSymbolTableRecord
100
AcDbBlockTableRecord
2
*Paper_Space0
340
0
70
0
0
BLOCK_RECORD
5
10B
100
AcDbSymbolTableRecord
100
AcDbBlockTableRecord
2
DimnDraft3D1
340
0
70
0
0
BLOCK_RECORD
5
114
100
AcDbSymbolTableRecord
100
AcDbBlockTableRecord
2
DimnDraft3D2
340
0
70
0
0
BLOCK_RECORD
5
11E
100
AcDbSymbolTableRecord
100
AcDbBlockTableRecord
2
DimnDraft3D3
340
0
70
0
0
BLOCK_RECORD
5
129
100
AcDbSymbolTableRecord
100
AcDbBlockTableRecord
2
DimnDraft3D44
340
0
70
0
0
BLOCK_RECORD
5
133
100
AcDbSymbolTableRecord
100
AcDbBlockTableRecord
2
DimnDraft3D5
340
0
70
0
0
ENDTAB
0
ENDSEC
0
SECTION
2
BLOCKS
0
BLOCK
5
20
100
AcDbEntity
8
0
100
AcDbBlockBegin
2
*Model_Space
70
0
10
0
20
0
30
0
3
*Model_Space
0
ENDBLK
5
21
100
AcDbEntity
8
0
100
AcDbBlockEnd
0
BLOCK
5
1C
100
AcDbEntity
8
0
100
AcDbBlockBegin
2
*Paper_Space
70
0
10
0
20
0
30
0
3
*Paper_Space
0
ENDBLK
5
1D
100
AcDbEntity
8
0
100
AcDbBlockEnd
0
BLOCK
5
24
100
AcDbEntity
8
0
100
AcDbBlockBegin
2
*Paper_Space0
70
0
10
0
20
0
30
0
3
*Paper_Space0
0
ENDBLK
5
25
100
AcDbEntity
8
0
100
AcDbBlockEnd
0
BLOCK
5
111
100
AcDbEntity
8
0
100
AcDbBlockBegin
2
DimnDraft3D1
70
0
10
0
20
0
30
0
3
DimnDraft3D1
0
MTEXT
5
10C
100
AcDbEntity
8
2
62
256
6
ByLayer
370
18
48
1
60
0
100
AcDbMText
10
20.873917
20
-6.636184
30
0
210
0
220
0
230
1
1
\W1.0454;%%c21,7
40
3.5
41
0
44
1.084337
50
90
71
7
72
5
7
iso_b_vert
0
LINE
5
10E
100
AcDbEntity
8
2
62
256
6
ByLayer
370
13
48
1
60
0
100
AcDbLine
10
7.285823
20
10.85
30
0
11
24.623917
21
10.85
31
0
39
0
210
0
220
0
230
1
0
LINE
5
10F
100
AcDbEntity
8
2
62
256
6
ByLayer
370
13
48
1
60
0
100
AcDbLine
10
22.623917
20
10.85
30
0
11
22.623917
21
-9.011184
31
0
39
0
210
0
220
0
230
1
0
SOLID
5
110
100
AcDbEntity
8
2
62
256
6
ByLayer
370
13
48
1
60
0
100
AcDbTrace
10
22.623917
20
10.85
30
0
11
23.084701
21
7.350002
31
0
12
22.163133
22
7.349998
32
0
13
22.623917
23
10.85
33
0
39
0
210
0
220
0
230
1
0
ENDBLK
5
112
100
AcDbEntity
8
0
100
AcDbBlockEnd
0
BLOCK
5
11B
100
AcDbEntity
8
0
100
AcDbBlockBegin
2
DimnDraft3D2
70
0
10
0
20
0
30
0
3
DimnDraft3D2
0
MTEXT
5
115
100
AcDbEntity
8
2
62
256
6
ByLayer
370
18
48
1
60
0
100
AcDbMText
10
18.075836
20
22.173827
30
0
210
0
220
0
230
1
1
\W0.5971;1,71
40
3.5
41
0
44
1.084337
50
0
71
7
72
5
7
iso_b_vert
0
LINE
5
116
100
AcDbEntity
8
2
62
256
6
ByLayer
370
13
48
1
60
0
100
AcDbLine
10
3.991686
20
12.333374
30
0
11
3.991686
21
23.298827
31
0
39
0
210
0
220
0
230
1
0
LINE
5
117
100
AcDbEntity
8
2
62
256
6
ByLayer
370
13
48
1
60
0
100
AcDbLine
10
5.698323
20
12.333992
30
0
11
5.698323
21
23.298827
31
0
39
0
210
0
220
0
230
1
0
LINE
5
118
100
AcDbEntity
8
2
62
256
6
ByLayer
370
13
48
1
60
0
100
AcDbLine
10
23.298204
20
21.298827
30
0
11
-4.758314
21
21.298827
31
0
39
0
210
0
220
0
230
1
0
SOLID
5
119
100
AcDbEntity
8
2
62
256
6
ByLayer
370
13
48
1
60
0
100
AcDbTrace
10
3.991686
20
21.298827
30
0
11
0.491688
21
20.838043
31
0
12
0.491684
22
21.759611
32
0
13
3.991686
23
21.298827
33
0
39
0
210
0
220
0
230
1
0
SOLID
5
11A
100
AcDbEntity
8
2
62
256
6
ByLayer
370
13
48
1
60
0
100
AcDbTrace
10
5.698323
20
21.298827
30
0
11
9.198321
21
21.759611
31
0
12
9.198325
22
20.838043
32
0
13
5.698323
23
21.298827
33
0
39
0
210
0
220
0
230
1
0
ENDBLK
5
11C
100
AcDbEntity
8
0
100
AcDbBlockEnd
0
BLOCK
5
126
100
AcDbEntity
8
0
100
AcDbBlockBegin
2
DimnDraft3D3
70
0
10
0
20
0
30
0
3
DimnDraft3D3
0
MTEXT
5
11F
100
AcDbEntity
8
SK2
62
256
6
ByLayer
370
18
48
1
60
0
100
AcDbMText
10
-16.81664
20
-4.757237
30
0
210
0
220
0
230
1
1
\W1.2012;%%c12
40
3.5
41
0
44
1.084337
50
90
71
7
72
5
7
iso_b_vert
0
LINE
5
121
100
AcDbEntity
8
SK2
62
256
6
ByLayer
370
13
48
1
60
0
100
AcDbLine
10
-1.5875
20
6
30
0
11
-17.06664
21
6
31
0
39
0
210
0
220
0
230
1
0
LINE
5
122
100
AcDbEntity
8
SK2
62
256
6
ByLayer
370
13
48
1
60
0
100
AcDbLine
10
-1.5875
20
-6
30
0
11
-17.06664
21
-6
31
0
39
0
210
0
220
0
230
1
0
LINE
5
123
100
AcDbEntity
8
SK2
62
256
6
ByLayer
370
13
48
1
60
0
100
AcDbLine
10
-15.06664
20
6
30
0
11
-15.06664
21
-6
31
0
39
0
210
0
220
0
230
1
0
SOLID
5
124
100
AcDbEntity
8
SK2
62
256
6
ByLayer
370
13
48
1
60
0
100
AcDbTrace
10
-15.06664
20
6
30
0
11
-14.605857
21
2.500002
31
0
12
-15.527424
22
2.499998
32
0
13
-15.06664
23
6
33
0
39
0
210
0
220
0
230
1
0
SOLID
5
125
100
AcDbEntity
8
SK2
62
256
6
ByLayer
370
13
48
1
60
0
100
AcDbTrace
10
-15.06664
20
-6
30
0
11
-15.527424
21
-2.500002
31
0
12
-14.605857
22
-2.499998
32
0
13
-15.06664
23
-6
33
0
39
0
210
0
220
0
230
1
0
ENDBLK
5
127
100
AcDbEntity
8
0
100
AcDbBlockEnd
0
BLOCK
5
12A
100
AcDbEntity
8
0
100
AcDbBlockBegin
2
DimnDraft3D44
70
0
10
0
20
0
30
0
3
DimnDraft3D44
0
LINE
5
12C
100
AcDbEntity
8
2
62
256
6
ByLayer
370
25
48
1
60
0
100
AcDbLine
10
5.698323
20
12.4375
30
0
11
5.698323
21
38.303225
31
0
39
0
210
0
220
0
230
1
0
LINE
5
12D
100
AcDbEntity
8
2
62
256
6
ByLayer
370
25
48
1
60
0
100
AcDbLine
10
0
20
7.47988
30
0
11
0
21
38.303225
31
0
39
0
210
0
220
0
230
1
0
LINE
5
12E
100
AcDbEntity
8
2
62
256
6
ByLayer
370
25
48
1
60
0
100
AcDbLine
10
14.448323
20
36.303225
30
0
11
-8.75
21
36.303225
31
0
39
0
210
0
220
0
230
1
0
SOLID
5
12F
100
AcDbEntity
8
2
62
256
6
ByLayer
370
25
48
1
60
0
100
AcDbTrace
10
5.698323
20
36.303225
30
0
11
9.198321
21
36.764009
31
0
12
9.198325
22
35.842441
32
0
13
5.698323
23
36.303225
33
0
39
0
210
0
220
0
230
1
0
SOLID
5
130
100
AcDbEntity
8
2
62
256
6
ByLayer
370
25
48
1
60
0
100
AcDbTrace
10
0
20
36.303225
30
0
11
-3.499998
21
35.842441
31
0
12
-3.500002
22
36.764009
32
0
13
0
23
36.303225
33
0
39
0
210
0
220
0
230
1
0
MTEXT
5
131
100
AcDbEntity
8
2
62
256
6
ByLayer
370
18
48
1
60
0
100
AcDbMText
10
1.085346
20
37.178225
30
0
210
0
220
0
230
1
1
\W0.6702;5,7
40
3.5
41
0
44
1.084337
50
0
71
7
72
5
7
iso_b_vert
0
ENDBLK
5
12B
100
AcDbEntity
8
0
100
AcDbBlockEnd
0
BLOCK
5
13A
100
AcDbEntity
8
0
100
AcDbBlockBegin
2
DimnDraft3D5
70
0
10
0
20
0
30
0
3
DimnDraft3D5
0
MTEXT
5
134
100
AcDbEntity
8
2
62
256
6
ByLayer
370
18
48
1
60
0
100
AcDbMText
10
-9.120611
20
18.410037
30
0
210
0
220
0
230
1
1
\W0.7191;4,8
40
3.5
41
0
44
1.084337
50
90
71
7
72
5
7
iso_b_vert
0
LINE
5
135
100
AcDbEntity
8
2
62
256
6
ByLayer
370
13
48
1
60
0
100
AcDbLine
10
-1.4875
20
6.011431
30
0
11
-10.245611
21
6.011431
31
0
39
0
210
0
220
0
230
1
0
LINE
5
136
100
AcDbEntity
8
2
62
256
6
ByLayer
370
13
48
1
60
0
100
AcDbLine
10
4.110823
20
10.85
30
0
11
-10.245611
21
10.85
31
0
39
0
210
0
220
0
230
1
0
LINE
5
137
100
AcDbEntity
8
2
62
256
6
ByLayer
370
13
48
1
60
0
100
AcDbLine
10
-8.245611
20
23.181089
30
0
11
-8.245611
21
-2.738569
31
0
39
0
210
0
220
0
230
1
0
SOLID
5
138
100
AcDbEntity
8
2
62
256
6
ByLayer
370
13
48
1
60
0
100
AcDbTrace
10
-8.245611
20
6.011431
30
0
11
-7.784828
21
2.511433
31
0
12
-8.706395
22
2.511429
32
0
13
-8.245611
23
6.011431
33
0
39
0
210
0
220
0
230
1
0
SOLID
5
139
100
AcDbEntity
8
2
62
256
6
ByLayer
370
13
48
1
60
0
100
AcDbTrace
10
-8.245611
20
10.85
30
0
11
-8.706395
21
14.349998
31
0
12
-7.784828
22
14.350002
32
0
13
-8.245611
23
10.85
33
0
39
0
210
0
220
0
230
1
0
ENDBLK
5
13B
100
AcDbEntity
8
0
100
AcDbBlockEnd
0
ENDSEC
0
SECTION
2
ENTITIES
0
ELLIPSE
5
AD
100
AcDbEntity
8
1
62
256
6
ByLayer
370
18
48
1
60
0
100
AcDbEllipse
10
3.97513
20
0.210556
30
0
11
-0.568758961661006
21
10.7377067500076
31
0
210
0
220
0
230
1
40
0.030524
41
2.16896563264328
42
2.1831580506943
0
ELLIPSE
5
AE
100
AcDbEntity
8
1
62
256
6
ByLayer
370
18
48
1
60
0
100
AcDbEllipse
10
5.699567
20
0.005274
30
0
11
-0.568428502910975
21
10.7314679574961
31
0
210
0
220
0
230
1
40
0.030524
41
2.03139737155635
42
2.07361550185477
0
ELLIPSE
5
AF
100
AcDbEntity
8
1
62
256
6
ByLayer
370
13
48
1
60
0
100
AcDbEllipse
10
5.699567
20
0.005274
30
0
11
-0.568428502910975
21
10.7314679574961
31
0
210
0
220
0
230
1
40
0.030524
41
2.07361545556879
42
2.09415480150496
0
ELLIPSE
5
B0
100
AcDbEntity
8
1
62
256
6
ByLayer
370
18
48
1
60
0
100
AcDbEllipse
10
4.138585
20
-0.219214
30
0
11
0.320291127520376
21
6.04683606549084
31
0
210
0
220
0
230
1
40
0.030524
41
-1.08646351554478
42
-1.04950250708641
0
ELLIPSE
5
B1
100
AcDbEntity
8
1
62
256
6
ByLayer
370
18
48
1
60
0
100
AcDbEllipse
10
3.97519
20
-0.210559
30
0
11
0.568574415292098
21
10.7342226646128
31
0
210
0
220
0
230
1
40
0.030524
41
-2.07092429958483
42
-2.00278721132995
0
ELLIPSE
5
B2
100
AcDbEntity
8
1
62
256
6
ByLayer
370
18
48
1
60
0
100
AcDbEllipse
10
4.09
20
-5.375
30
0
11
-0.0999999999999985
21
1.01063905508235E-16
31
0
210
0
220
0
230
1
40
0.5
41
0
42
1.5707963267949
0
ELLIPSE
5
B3
100
AcDbEntity
8
1
62
256
6
ByLayer
370
18
48
1
60
0
100
AcDbEllipse
10
3.97513
20
-0.210556
30
0
11
0.568758961661038
21
10.7377067500076
31
0
210
0
220
0
230
1
40
0.030524
41
-2.07093200022352
42
-2.00401608892198
0
ELLIPSE
5
B4
100
AcDbEntity
8
1
62
256
6
ByLayer
370
18
48
1
60
0
100
AcDbEllipse
10
5.6
20
-5.375
30
0
11
-0.0999999999999977
21
1.01063905508234E-16
31
0
210
0
220
0
230
1
40
0.5
41
1.5707963267949
42
-3.10668606854992
0
ELLIPSE
5
B5
100
AcDbEntity
8
1
62
256
6
ByLayer
370
18
48
1
60
0
100
AcDbEllipse
10
4.09
20
-5.375
30
0
11
-0.0999999999999985
21
1.01063905508235E-16
31
0
210
0
220
0
230
1
40
0.5
41
-0.034906585039869
42
0
0
ELLIPSE
5
B6
100
AcDbEntity
8
1
62
256
6
ByLayer
370
13
48
1
60
0
100
AcDbEllipse
10
3.97519
20
0.210559
30
0
11
-0.568574415292068
21
10.7342226646128
31
0
210
0
220
0
230
1
40
0.030524
41
2.16920621692258
42
2.18438692828632
0
ELLIPSE
5
B7
100
AcDbEntity
8
1
62
256
6
ByLayer
370
18
48
1
60
0
100
AcDbEllipse
10
5.699567
20
-0.005274
30
0
11
0.568428502911005
21
10.7314679574961
31
0
210
0
220
0
230
1
40
0.030524
41
-2.15577676805992
42
-2.09301933811131
0
POINT
5
6C
100
AcDbEntity
8
81
62
256
6
ByLayer
370
18
48
1
60
0
100
AcDbPoint
10
5.698323
20
10.85
30
0
39
0
210
0
220
0
230
1
50
360
0
POINT
5
6E
100
AcDbEntity
8
1
62
256
6
ByLayer
370
18
48
1
60
1
100
AcDbPoint
10
5.698323
20
-10.85
30
0
39
0
210
0
220
0
230
1
50
360
0
POINT
5
70
100
AcDbEntity
8
80
62
256
6
ByLayer
370
18
48
1
60
0
100
AcDbPoint
10
0
20
0
30
0
39
0
210
0
220
0
230
1
50
360
0
POINT
5
72
100
AcDbEntity
8
1
62
256
6
ByLayer
370
18
48
1
60
1
100
AcDbPoint
10
0
20
6
30
0
39
0
210
0
220
0
230
1
50
360
0
POINT
5
73
100
AcDbEntity
8
1
62
256
6
ByLayer
370
18
48
1
60
1
100
AcDbPoint
10
0
20
-6
30
0
39
0
210
0
220
0
230
1
50
360
0
SPLINE
5
B8
100
AcDbEntity
8
1
62
256
6
ByLayer
370
18
48
1
60
0
100
AcDbSpline
70
4
71
1
72
4
73
2
40
0
40
0
40
1
40
1
41
1
10
5.63774297261767
20
10.842703371871
30
0
41
1
10
5.6265760871911
20
10.8440459820653
30
0
0
SPLINE
5
B9
100
AcDbEntity
8
1
62
256
6
ByLayer
370
18
48
1
60
0
100
AcDbSpline
70
4
71
1
72
4
73
2
40
0
40
0
40
1
40
1
41
1
10
4.1192782323792
20
6.03047501295231
30
0
41
1
10
0.100038073332172
20
6.03671311592109
30
0
0
SPLINE
5
BA
100
AcDbEntity
8
1
62
256
6
ByLayer
370
18
48
1
60
0
100
AcDbSpline
70
4
71
3
72
8
73
4
40
0
40
0
40
0
40
0
40
1
40
1
40
1
40
1
41
1
10
5.49999999978672
20
-7.19680100880512
30
0
41
0.999993009095888
10
5.5038866832827
20
-7.19103160139252
30
0
41
0.999993009095888
10
5.50778705429399
20
-7.18518263285065
30
0
41
1
10
5.5117010310193
20
-7.17925422584813
30
0
0
SPLINE
5
BB
100
AcDbEntity
8
1
62
256
6
ByLayer
370
18
48
1
60
0
100
AcDbSpline
70
4
71
3
72
8
73
4
40
0
40
0
40
0
40
0
40
1
40
1
40
1
40
1
41
1
10
5.65879280960397
20
-4.78026241582657
30
0
41
1
10
5.62911208737168
20
-4.34626397537804
30
0
41
1
10
5.60030489327937
20
-3.91220658554457
30
0
41
1
10
5.57244813536084
20
-3.47809090038243
30
0
0
SPLINE
5
BC
100
AcDbEntity
8
1
62
256
6
ByLayer
370
18
48
1
60
0
100
AcDbSpline
70
4
71
3
72
8
73
4
40
0
40
0
40
0
40
0
40
1
40
1
40
1
40
1
41
1
10
5.5117010310193
20
-2.52114934656677
30
0
41
1
10
5.53140088891342
20
-2.83723126925275
30
0
41
1
10
5.55163567457791
20
-3.15621332109086
30
0
41
1
10
5.57244813536084
20
-3.47809090038243
30
0
0
SPLINE
5
BD
100
AcDbEntity
8
1
62
256
6
ByLayer
370
18
48
1
60
0
100
AcDbSpline
70
4
71
3
72
8
73
4
40
0
40
0
40
0
40
0
40
1
40
1
40
1
40
1
41
1
10
5.5117010310193
20
-2.52114934656677
30
0
41
1
10
5.50779251410012
20
-2.46234586372518
30
0
41
1
10
5.50389193552155
20
-2.40356705845176
30
0
41
1
10
5.49999999978738
20
-2.34481513460591
30
0
0
SPLINE
5
BE
100
AcDbEntity
8
1
62
256
6
ByLayer
370
18
48
1
60
0
100
AcDbSpline
70
4
71
3
72
22
73
18
40
0
40
0
40
0
40
0
40
0.249999999999999
40
0.249999999999999
40
0.374999999999999
40
0.374999999999999
40
0.437499999999999
40
0.437499999999999
40
0.499999999999999
40
0.499999999999999
40
0.75
40
0.75
40
0.875
40
0.875
40
0.9375
40
0.9375
40
1
40
1
40
1
40
1
41
1
10
5.29467755967809
20
1.23684281088433
30
0
41
1
10
5.30583565973271
20
1.02439716176917
30
0
41
1
10
5.3185317846123
20
0.787455167926538
30
0
41
1
10
5.3399446884859
20
0.39686750316875
30
0
41
1
10
5.34747928656748
20
0.260770645068959
30
0
41
1
10
5.35940539895682
20
0.0476309452417354
30
0
41
1
10
5.36348496048376
20
-0.0249170202637572
30
0
41
1
10
5.37185930463417
20
-0.173069133549148
30
0
41
1
10
5.3761563654196
20
-0.248710707901864
30
0
41
1
10
5.39796473664742
20
-0.63063871793176
30
0
41
1
10
5.4166092195992
20
-0.951030848195046
30
0
41
1
10
5.4464552561829
20
-1.45328935993516
30
0
41
1
10
5.45671878093753
20
-1.62434339018694
30
0
41
1
10
5.47261312176883
20
-1.88650885809128
30
0
41
1
10
5.4780028092226
20
-1.97496430178865
30
0
41
1
10
5.48890965860963
20
-2.15304302753276
30
0
41
1
10
5.49442384367234
20
-2.24261933067342
30
0
41
1
10
5.49999999978672
20
-2.33273286793528
30
0
0
SPLINE
5
BF
100
AcDbEntity
8
1
62
256
6
ByLayer
370
18
48
1
60
0
100
AcDbSpline
70
4
71
3
72
10
73
6
40
0
40
0
40
0
40
0
40
0.499996707864884
40
0.499996707864884
40
1
40
1
40
1
40
1
41
1
10
5.23547079858841
20
2.49788695125974
30
0
41
1
10
5.24390570679913
20
2.28769352687797
30
0
41
1
10
5.25320019755415
20
2.07751114362307
30
0
41
1
10
5.27306744616519
20
1.65716448209048
30
0
41
1
10
5.28363968239483
20
1.44699946773611
30
0
41
1
10
5.29467755967809
20
1.23684281088433
30
0
0
SPLINE
5
C0
100
AcDbEntity
8
1
62
256
6
ByLayer
370
18
48
1
60
0
100
AcDbSpline
70
4
71
3
72
8
73
4
40
0
40
0
40
0
40
0
40
1
40
1
40
1
40
1
41
1
10
4.45202755309586
20
2.6148658249769
30
0
41
1
10
4.45395492275532
20
2.66642039343799
30
0
41
1
10
4.45599992823463
20
2.72268112336153
30
0
41
1
10
4.45814971425406
20
2.78364740120546
30
0
0
SPLINE
5
C1
100
AcDbEntity
8
1
62
256
6
ByLayer
370
18
48
1
60
0
100
AcDbSpline
70
4
71
3
72
10
73
6
40
0
40
0
40
0
40
0
40
0.499996168348252
40
0.499996168348252
40
1
40
1
40
1
40
1
41
1
10
4.38982280842134
20
1.23684281088433
30
0
41
1
10
4.40163782138464
20
1.46648911015743
30
0
41
1
10
4.41288135834384
20
1.69614552092813
30
0
41
1
10
4.43378334418662
20
2.15548495747385
30
0
41
1
10
4.44344032896112
20
2.38516902946302
30
0
41
1
10
4.45202755309586
20
2.6148658249769
30
0
0
SPLINE
5
C2
100
AcDbEntity
8
1
62
256
6
ByLayer
370
18
48
1
60
0
100
AcDbSpline
70
4
71
3
72
25
73
21
40
0
40
0
40
0
40
0
40
0.125
40
0.125
40
0.25
40
0.25
40
0.3125
40
0.3125
40
0.375
40
0.375
40
0.5
40
0.5
40
0.625
40
0.625
40
0.6875
40
0.6875
40
0.75
40
0.75
40
0.875
40
1
40
1
40
1
40
1
41
1
10
4.11595496321681
20
-3.47809090038243
30
0
41
1
10
4.1308615927897
20
-3.24480242979658
30
0
41
1
10
4.14538815841362
20
-3.01425618397755
30
0
41
1
10
4.17373883723045
20
-2.55844436560275
30
0
41
1
10
4.18756274861087
20
-2.33317943118314
30
0
41
1
10
4.2077952296377
20
-1.99925329380895
30
0
41
1
10
4.21445530920286
20
-1.88860807942811
30
0
41
1
10
4.22760915947234
20
-1.66866643236719
30
0
41
1
10
4.23411818050315
20
-1.55911126074037
30
0
41
1
10
4.25329080980029
20
-1.23431616350706
30
0
41
1
10
4.26549100531639
20
-1.02481559438212
30
0
41
1
10
4.28880867184697
20
-0.619393660463601
30
0
41
1
10
4.29992587367624
20
-0.423473640495615
30
0
41
1
10
4.31581803893755
20
-0.139836351396866
30
0
41
1
10
4.32098452045409
20
-0.0470018845724098
30
0
41
1
10
4.33105693008906
20
0.135182805982794
30
0
41
1
10
4.33597633587442
20
0.224781273106629
30
0
41
1
10
4.35022443499798
20
0.486037871091895
30
0
41
1
10
4.36786131295824
20
0.814219737109113
30
0
41
1
10
4.38292340518063
20
1.10274034088758
30
0
41
1
10
4.38982280842134
20
1.23684281088433
30
0
0
SPLINE
5
C3
100
AcDbEntity
8
1
62
256
6
ByLayer
370
18
48
1
60
0
100
AcDbSpline
70
4
71
3
72
8
73
4
40
0
40
0
40
0
40
0
40
1
40
1
40
1
40
1
41
1
10
4.11595496321681
20
-3.47809090038243
30
0
41
1
10
4.08971557967701
20
-3.89228707011554
30
0
41
1
10
4.06260862696112
20
-4.30643070276088
30
0
41
1
10
4.03469376193385
20
-4.72052063086684
30
0
0
SPLINE
5
C4
100
AcDbEntity
8
1
62
256
6
ByLayer
370
18
48
1
60
0
100
AcDbSpline
70
4
71
3
72
8
73
4
40
0
40
0
40
0
40
0
40
1
40
1
40
1
40
1
41
1
10
5.49999999978672
20
-2.46727469277496
30
0
41
0.999993009095888
10
5.5038866832827
20
-2.48521629526293
30
0
41
0.999993009095888
10
5.50778705429399
20
-2.50317463873857
30
0
41
1
10
5.5117010310193
20
-2.52114934656677
30
0
0
SPLINE
5
C5
100
AcDbEntity
8
1
62
256
6
ByLayer
370
18
48
1
60
0
100
AcDbSpline
70
4
71
3
72
10
73
6
40
0
40
0
40
0
40
0
40
0.5
40
0.5
40
1
40
1
40
1
40
1
41
1
10
4.03384897881682
20
-4.73395203101333
30
0
41
1
10
4.03163313940158
20
-4.77192004177087
30
0
41
1
10
4.03084287206403
20
-4.80986157132847
30
0
41
1
10
4.03293495599343
20
-4.8856764084654
30
0
41
1
10
4.0357190971003
20
-4.9236700231798
30
0
41
1
10
4.04179344089323
20
-4.96129115771475
30
0
0
SPLINE
5
C6
100
AcDbEntity
8
1
62
256
6
ByLayer
370
18
48
1
60
0
100
AcDbSpline
70
4
71
3
72
8
73
4
40
0
40
0
40
0
40
0
40
1
40
1
40
1
40
1
41
1
10
4.03469376193385
20
-4.72052063086684
30
0
41
1
10
4.03439193718455
20
-4.72499790806731
30
0
41
1
10
4.03411025899504
20
-4.72947504204532
30
0
41
1
10
4.03384897881682
20
-4.73395203101333
30
0
0
SPLINE
5
C7
100
AcDbEntity
8
1
62
256
6
ByLayer
370
18
48
1
60
0
100
AcDbSpline
70
4
71
3
72
10
73
6
40
0
40
0
40
0
40
0
40
0.5
40
0.5
40
1
40
1
40
1
40
1
41
1
10
5.65602939685689
20
-4.96129115772979
30
0
41
1
10
5.65954903969703
20
-4.93116498957914
30
0
41
1
10
5.66114786145903
20
-4.90101038414997
30
0
41
1
10
5.66181909414081
20
-4.84066377040233
30
0
41
1
10
5.6608587636351
20
-4.81047127736122
30
0
41
1
10
5.65879280960434
20
-4.78026241583325
30
0
0
SPLINE
5
C8
100
AcDbEntity
8
1
62
256
6
ByLayer
370
18
48
1
60
0
100
AcDbSpline
70
4
71
3
72
20
73
16
40
0
40
0
40
0
40
0
40
0.500000000000006
40
0.500000000000006
40
0.750000000000004
40
0.750000000000004
40
0.875000000000008
40
0.875000000000008
40
0.937500000000005
40
0.937500000000005
40
0.968750000000003
40
0.968750000000003
40
0.984375000000001
40
0.984375000000001
40
1
40
1
40
1
40
1
41
1
10
4.04179344089602
20
-4.96129115772985
30
0
41
1
10
4.04014744741497
20
-5.04029692954984
30
0
41
1
10
4.03967868470346
20
-5.11934156382
30
0
41
1
10
4.04432185880501
20
-5.23778947731964
30
0
41
1
10
4.0466861385421
20
-5.27727951899422
30
0
41
1
10
4.05382727642979
20
-5.33617877700368
30
0
41
1
10
4.05674944897365
20
-5.3557860487937
30
0
41
1
10
4.0636339861646
20
-5.38473858655359
30
0
41
1
10
4.06630358182883
20
-5.39433816011021
30
0
41
1
10
4.07209877215641
20
-5.40817455971006
30
0
41
1
10
4.07431081723411
20
-5.41271128429537
30
0
41
1
10
4.0788146468272
20
-5.4188461822668
30
0
41
1
10
4.08053408891658
20
-5.42079494928507
30
0
41
1
10
4.08470732797628
20
-5.42388510206951
30
0
41
1
10
4.08728225642875
20
-5.4249999998483
30
0
41
1
10
4.08999999978673
20
-5.4249999998483
30
0
0
SPLINE
5
C9
100
AcDbEntity
8
1
62
256
6
ByLayer
370
18
48
1
60
0
100
AcDbSpline
70
4
71
3
72
20
73
16
40
0
40
0
40
0
40
0
40
0.0156249999999996
40
0.0156249999999996
40
0.0312499999999992
40
0.0312499999999992
40
0.0624999999999978
40
0.0624999999999978
40
0.124999999999997
40
0.124999999999997
40
0.249999999999999
40
0.249999999999999
40
0.499999999999999
40
0.499999999999999
40
1
40
1
40
1
40
1
41
1
10
5.59999999978672
20
-5.42499999984835
30
0
41
1
10
5.60277690630025
20
-5.42499999984835
30
0
41
1
10
5.60543108463395
20
-5.42407282363712
30
0
41
1
10
5.6099699486382
20
-5.4212574051511
30
0
41
1
10
5.61189796207216
20
-5.41941715590625
30
0
41
1
10
5.61697730297186
20
-5.41350789162561
30
0
41
1
10
5.61951676046851
20
-5.40902023939404
30
0
41
1
10
5.62611426162229
20
-5.3953899340423
30
0
41
1
10
5.62921567461032
20
-5.38573313392035
30
0
41
1
10
5.63714113332586
20
-5.35683265873976
30
0
41
1
10
5.64052587852368
20
-5.33728432482027
30
0
41
1
10
5.64888590192689
20
-5.27837348274338
30
0
41
1
10
5.65176713219083
20
-5.23868411643656
30
0
41
1
10
5.65760882200991
20
-5.11987837583078
30
0
41
1
10
5.6574692514051
20
-5.04059722811368
30
0
41
1
10
5.65602939685681
20
-4.96129115773036
30
0
0
SPLINE
5
CA
100
AcDbEntity
8
1
62
256
6
ByLayer
370
18
48
1
60
0
100
AcDbSpline
70
4
71
3
72
8
73
4
40
0
40
0
40
0
40
0
40
1
40
1
40
1
40
1
41
1
10
5.49999999978672
20
2.48311132582845
30
0
41
1
10
5.41181978737248
20
2.48801402989474
30
0
41
1
10
5.32364333589547
20
2.4929390422399
30
0
41
1
10
5.23547079858841
20
2.49788695125974
30
0
0
SPLINE
5
CB
100
AcDbEntity
8
SK1
62
256
6
ByLayer
370
18
48
1
60
0
100
AcDbSpline
70
4
71
3
72
8
73
4
40
0
40
0
40
0
40
0
40
1
40
1
40
1
40
1
41
1
10
-0.850000000213271
20
-1.27551405470354
30
0
41
1
10
-0.56617853024295
20
-1.43636247057776
30
0
41
1
10
-0.282840458429959
20
-1.59645915527214
30
0
41
1
10
-1.92749E-11
20
-1.75578200269726
30
0
0
SPLINE
5
CC
100
AcDbEntity
8
SK1
62
256
6
ByLayer
370
18
48
1
60
0
100
AcDbSpline
70
4
71
3
72
9
73
5
40
0
40
0
40
0
40
0
40
0.5
40
1
40
1
40
1
40
1
41
1
10
-0.850000000213271
20
0.224931060945693
30
0
41
1
10
-0.850000000213271
20
-0.0281763536203243
30
0
41
1
10
-0.850000000213271
20
-0.531321419620411
30
0
41
1
10
-0.850000000213271
20
-1.02847202308473
30
0
41
1
10
-0.850000000213271
20
-1.27551405470354
30
0
0
SPLINE
5
CD
100
AcDbEntity
8
1
62
256
6
ByLayer
370
18
48
1
60
0
100
AcDbSpline
70
4
71
3
72
8
73
4
40
0
40
0
40
0
40
0
40
1
40
1
40
1
40
1
41
1
10
0.0999999997867178
20
0.782253646679777
30
0
41
1
10
0.0666780277899323
20
0.762610031939345
30
0
41
1
10
0.0333446818774559
20
0.742969890766742
30
0
41
1
10
-1.77742E-11
20
0.723333211577334
30
0
0
SPLINE
5
CE
100
AcDbEntity
8
1
62
256
6
ByLayer
370
18
48
1
60
0
100
AcDbSpline
70
4
71
3
72
9
73
5
40
0
40
0
40
0
40
0
40
0.5
40
1
40
1
40
1
40
1
41
1
10
0.0999999997867178
20
2.48311132582845
30
0
41
1
10
0.0999999997867178
20
2.21143938402196
30
0
41
1
10
0.0999999997867178
20
1.65609418798843
30
0
41
1
10
0.0999999997867178
20
1.07752774296213
30
0
41
1
10
0.0999999997867178
20
0.782253646679777
30
0
0
SPLINE
5
CF
100
AcDbEntity
8
1
62
256
6
ByLayer
370
18
48
1
60
0
100
AcDbSpline
70
4
71
3
72
10
73
6
40
0
40
0
40
0
40
0
40
0.499995351677588
40
0.499995351677588
40
1
40
1
40
1
40
1
41
1
10
2.37263074073917
20
2.6148658249769
30
0
41
1
10
1.99403560186704
20
2.59194139030024
30
0
41
1
10
1.61534339642239
20
2.56953968094081
30
0
41
1
10
0.857791544617783
20
2.52565859494851
30
0
41
1
10
0.478930091594179
20
2.50417934155533
30
0
41
1
10
0.0999999997867178
20
2.48311132582845
30
0
0
SPLINE
5
D0
100
AcDbEntity
8
1
62
256
6
ByLayer
370
18
48
1
60
0
100
AcDbSpline
70
4
71
3
72
12
73
8
40
0
40
0
40
0
40
0
40
0.250000000000001
40
0.250000000000001
40
0.500000000000001
40
0.500000000000001
40
1
40
1
40
1
40
1
41
1
10
4.45814971425406
20
2.78364740120546
30
0
41
1
10
4.28518526480082
20
2.76403737849375
30
0
41
1
10
4.11188472593417
20
2.74667399363975
30
0
41
1
10
3.76487129912823
20
2.71470493752102
30
0
41
1
10
3.59115418231002
20
2.70012759309384
30
0
41
1
10
3.06956522284079
20
2.65932630761554
30
0
41
1
10
2.7212643278271
20
2.6359760482014
30
0
41
1
10
2.37263074073917
20
2.61486582497693
30
0
0
SPLINE
5
D1
100
AcDbEntity
8
1
62
256
6
ByLayer
370
18
48
1
60
0
100
AcDbSpline
70
4
71
3
72
14
73
10
40
0
40
0
40
0
40
0
40
0.248160090131391
40
0.248160090131391
40
0.497603169510851
40
0.497603169510851
40
0.748801565206467
40
0.748801565206467
40
1
40
1
40
1
40
1
41
1
10
4.10869107281459
20
-3.59054375431768
30
0
41
1
10
3.77708956338637
20
-3.59146058532377
30
0
41
1
10
3.44548858145876
20
-3.59239977757559
30
0
41
1
10
2.78057342385017
20
-3.59433138931215
30
0
41
1
10
2.44725924443645
20
-3.59532405673406
30
0
41
1
10
1.7782867009831
20
-3.59736931412479
30
0
41
1
10
1.44262833472527
20
-3.59842227363612
30
0
41
1
10
0.771313043096313
20
-3.60058629172781
30
0
41
1
10
0.435656104317672
20
-3.60169734699932
30
0
41
1
10
0.0999999997867178
20
-3.60284005599198
30
0
0
SPLINE
5
D2
100
AcDbEntity
8
1
62
256
6
ByLayer
370
18
48
1
60
0
100
AcDbSpline
70
4
71
3
72
9
73
5
40
0
40
0
40
0
40
0
40
0.5
40
1
40
1
40
1
40
1
41
1
10
0.0999999997867178
20
-1.81209098853617
30
0
41
1
10
0.0999999997867178
20
-2.13598952892664
30
0
41
1
10
0.0999999997867178
20
-2.75781336362766
30
0
41
1
10
0.0999999997867178
20
-3.32982053318446
30
0
41
1
10
0.0999999997867178
20
-3.60284005599198
30
0
0
SPLINE
5
D3
100
AcDbEntity
8
1
62
256
6
ByLayer
370
18
48
1
60
0
100
AcDbSpline
70
4
71
3
72
20
73
16
40
0
40
0
40
0
40
0
40
0.125
40
0.125
40
0.25
40
0.25
40
0.5
40
0.5
40
0.5625
40
0.5625
40
0.625
40
0.625
40
0.75
40
0.75
40
1
40
1
40
1
40
1
41
1
10
5.49999999978672
20
2.48311132582845
30
0
41
1
10
5.49999999978672
20
2.31318643878996
30
0
41
1
10
5.49999999978672
20
2.13994671100235
30
0
41
1
10
5.49999999978672
20
1.78775257650921
30
0
41
1
10
5.49999999978672
20
1.61023101062781
30
0
41
1
10
5.49999999978672
20
1.07353278300994
30
0
41
1
10
5.49999999978672
20
0.710255897947519
30
0
41
1
10
5.49999999978672
20
0.249250300588244
30
0
41
1
10
5.49999999978672
20
0.156701020372282
30
0
41
1
10
5.49999999978672
20
-0.0291065441415128
30
0
41
1
10
5.49999999978672
20
-0.122305040337579
30
0
41
1
10
5.49999999978672
20
-0.400212139029264
30
0
41
1
10
5.49999999978672
20
-0.584148551946868
30
0
41
1
10
5.49999999978672
20
-1.13203608119446
30
0
41
1
10
5.49999999978672
20
-1.49209870315934
30
0
41
1
10
5.49999999978672
20
-1.84678891396328
30
0
0
SPLINE
5
D4
100
AcDbEntity
8
1
62
256
6
ByLayer
370
18
48
1
60
0
100
AcDbSpline
70
4
71
3
72
8
73
4
40
0
40
0
40
0
40
0
40
1
40
1
40
1
40
1
41
1
10
0.0999999997867178
20
1.10614423775823
30
0
41
0.999486020986506
10
0.0669262454341604
20
1.08613329228462
30
0
41
0.999029073393927
10
0.0335911279986369
20
1.06599362216887
30
0
41
0.998629157222263
10
-2.27739E-11
20
1.04572850121963
30
0
0
SPLINE
5
D5
100
AcDbEntity
8
1
62
256
6
ByLayer
370
18
48
1
60
0
100
AcDbSpline
70
4
71
3
72
8
73
4
40
0
40
0
40
0
40
0
40
1
40
1
40
1
40
1
41
1
10
0.0529165122466111
20
2.54029648028549
30
0
41
0.999987282053348
10
0.0686676800909129
20
2.53938127713042
30
0
41
0.999987282053348
10
0.0843623755419147
20
2.53840147651891
30
0
41
1
10
0.0999999997867178
20
2.53735711583417
30
0
0
SPLINE
5
D6
100
AcDbEntity
8
1
62
256
6
ByLayer
370
18
48
1
60
0
100
AcDbSpline
70
4
71
3
72
8
73
4
40
0
40
0
40
0
40
0
40
1
40
1
40
1
40
1
41
1
10
0.0999999997867178
20
-2.54284815987029
30
0
41
0.999987282053348
10
0.0843623755418862
20
-2.5420622539176
30
0
41
0.999987282053348
10
0.0686676800908845
20
-2.54121168313748
30
0
41
1
10
0.0529165122465827
20
-2.5402964799824
30
0
0
SPLINE
5
D7
100
AcDbEntity
8
1
62
256
6
ByLayer
370
18
48
1
60
0
100
AcDbSpline
70
4
71
3
72
14
73
10
40
0
40
0
40
0
40
0
40
0.249123456055274
40
0.249123456055274
40
0.498246912920066
40
0.498246912920066
40
0.749123436936123
40
0.749123436936123
40
1
40
1
40
1
40
1
41
1
10
4.11383421536098
20
6.04172525290392
30
0
41
1
10
3.78051831961722
20
6.03934265929936
30
0
41
1
10
3.44720295650981
20
6.03692958869803
30
0
41
1
10
2.78057342385014
20
6.03203872711828
30
0
41
1
10
2.44725924443642
20
6.02956093795368
30
0
41
1
10
1.77828670098307
20
6.02451879916887
30
0
41
1
10
1.44262833472527
20
6.02195396564557
30
0
41
1
10
0.771313043096313
20
6.01674972173817
30
0
41
1
10
0.435656104317672
20
6.01411031410882
30
0
41
1
10
0.0999999997867178
20
6.01143098149745
30
0
0
SPLINE
5
D8
100
AcDbEntity
8
1
62
256
6
ByLayer
370
18
48
1
60
0
100
AcDbSpline
70
4
71
3
72
8
73
4
40
0
40
0
40
0
40
0
40
1
40
1
40
1
40
1
41
1
10
4.11970742151814
20
6.48685483133073
30
0
41
1
10
4.11972635186288
20
6.32224910651894
30
0
41
1
10
4.1178175432473
20
6.17387579669474
30
0
41
1
10
4.11383421536095
20
6.04172525290392
30
0
0
SPLINE
5
D9
100
AcDbEntity
8
1
62
256
6
ByLayer
370
18
48
1
60
0
100
AcDbSpline
70
4
71
3
72
9
73
5
40
0
40
0
40
0
40
0
40
0.5
40
1
40
1
40
1
40
1
41
1
10
5.57981567531397
20
5.96639245652349
30
0
41
1
10
5.57680985643603
20
6.04107818890643
30
0
41
1
10
5.57236371208799
20
6.20276237824149
30
0
41
1
10
5.57078705426073
20
6.38804927856029
30
0
41
1
10
5.57071670319911
20
6.48685483133065
30
0
0
SPLINE
5
DA
100
AcDbEntity
8
1
62
256
6
ByLayer
370
18
48
1
60
0
100
AcDbSpline
70
4
71
3
72
8
73
4
40
0
40
0
40
0
40
0
40
1
40
1
40
1
40
1
41
1
10
5.57981567531397
20
5.96639245652349
30
0
41
0.999955727640442
10
5.55320292054077
20
5.95628201960891
30
0
41
0.999955727640442
10
5.52659651744024
20
5.94630561499663
30
0
41
1
10
5.49999999978672
20
5.93646456773527
30
0
0
SPLINE
5
DB
100
AcDbEntity
8
1
62
256
6
ByLayer
370
18
48
1
60
0
100
AcDbSpline
70
4
71
3
72
8
73
4
40
0
40
0
40
0
40
0
40
1
40
1
40
1
40
1
41
1
10
4.03469376193385
20
-5.98446836192704
30
0
41
1
10
4.03439193718455
20
-5.98154602678011
30
0
41
1
10
4.03411025899504
20
-5.97862378511499
30
0
41
1
10
4.03384897881682
20
-5.97570163809846
30
0
0
SPLINE
5
DC
100
AcDbEntity
8
SK1
62
256
6
ByLayer
370
18
48
1
60
0
100
AcDbSpline
70
4
71
3
72
8
73
4
40
0
40
0
40
0
40
0
40
1
40
1
40
1
40
1
41
1
10
-0.850000000213271
20
5.77453844050689
30
0
41
1
10
-0.566216776296466
20
5.81890632242171
30
0
41
1
10
-0.282820204661752
20
5.85824422952036
30
0
41
1
10
-2.27293E-11
20
5.89238005430434
30
0
0
SPLINE
5
DD
100
AcDbEntity
8
1
62
256
6
ByLayer
370
18
48
1
60
0
100
AcDbSpline
70
4
71
3
72
20
73
16
40
0
40
0
40
0
40
0
40
0.250000000000002
40
0.250000000000002
40
0.375000000000003
40
0.375000000000003
40
0.437500000000003
40
0.437500000000003
40
0.500000000000003
40
0.500000000000003
40
0.750000000000003
40
0.750000000000003
40
0.875000000000001
40
0.875000000000001
40
1
40
1
40
1
40
1
41
1
10
4.11970742151814
20
6.48685483133073
30
0
41
1
10
4.11968928058695
20
6.6445963396279
30
0
41
1
10
4.11845608195591
20
6.8079458883503
30
0
41
1
10
4.11494744526701
20
7.06102906809335
30
0
41
1
10
4.11349903179536
20
7.14674174367369
30
0
41
1
10
4.11090852761785
20
7.27736850565969
30
0
41
1
10
4.10997524683543
20
7.32125422861262
30
0
41
1
10
4.10796757234567
20
7.40972412368779
30
0
41
1
10
4.10689070274969
20
7.45439607527788
30
0
41
1
10
4.10120448792779
20
7.67737556084361
30
0
41
1
10
4.09567199078396
20
7.85589481191744
30
0
41
1
10
4.08594786127338
20
8.12387103778195
30
0
41
1
10
4.08246711942507
20
8.21322952756603
30
0
41
1
10
4.07501407114097
20
8.3920139417007
30
0
41
1
10
4.07103144167746
20
8.48163601542535
30
0
41
1
10
4.06683743956398
20
8.57031902895309
30
0
0
SPLINE
5
DE
100
AcDbEntity
8
1
62
256
6
ByLayer
370
18
48
1
60
0
100
AcDbSpline
70
4
71
3
72
20
73
16
40
0
40
0
40
0
40
0
40
0.250000000000001
40
0.250000000000001
40
0.375000000000002
40
0.375000000000002
40
0.437500000000002
40
0.437500000000002
40
0.500000000000002
40
0.500000000000002
40
0.750000000000001
40
0.750000000000001
40
0.875000000000001
40
0.875000000000001
40
1
40
1
40
1
40
1
41
1
10
5.62314929841224
20
8.57031902897089
30
0
41
1
10
5.61472372037252
20
8.39295132130658
30
0
41
1
10
5.60729096459448
20
8.21497591362356
30
0
41
1
10
5.59755231439684
20
7.94713887257794
30
0
41
1
10
5.59454291452093
20
7.85771328029307
30
0
41
1
10
5.59038982817327
20
7.72335156670812
30
0
41
1
10
5.58906574421567
20
7.67852705179672
30
0
41
1
10
5.58654049907744
20
7.5888021795009
30
0
41
1
10
5.58533731974345
20
7.54381288213906
30
0
41
1
10
5.5796891874995
20
7.32081705148226
30
0
41
1
10
5.57629464320269
20
7.1472707206446
30
0
41
1
10
5.5728873233401
20
6.89401081176166
30
0
41
1
10
5.57203437905986
20
6.81077462634889
30
0
41
1
10
5.57092031986053
20
6.64672049694494
30
0
41
1
10
5.57066054478821
20
6.56572731317374
30
0
41
1
10
5.57071670319908
20
6.48685483133056
30
0
0
SPLINE
5
DF
100
AcDbEntity
8
1
62
256
6
ByLayer
370
18
48
1
60
0
100
AcDbSpline
70
4
71
3
72
12
73
8
40
0
40
0
40
0
40
0
40
0.25
40
0.25
40
0.5
40
0.5
40
1
40
1
40
1
40
1
41
1
10
4.45814971425406
20
-5.82761377406976
30
0
41
1
10
4.28518526480084
20
-5.83620447625253
30
0
41
1
10
4.11188472593423
20
-5.8445885315621
30
0
41
1
10
3.7648712991284
20
-5.86110467207084
30
0
41
1
10
3.59115418231025
20
-5.86923422692959
30
0
41
1
10
3.06956522284116
20
-5.89336039718302
30
0
41
1
10
2.72126432782753
20
-5.90909993746814
30
0
41
1
10
2.37263074073971
20
-5.92465421285092
30
0
0
SPLINE
5
E0
100
AcDbEntity
8
1
62
256
6
ByLayer
370
18
48
1
60
0
100
AcDbSpline
70
4
71
3
72
8
73
4
40
0
40
0
40
0
40
0
40
1
40
1
40
1
40
1
41
1
10
4.45202755309586
20
-5.92465421285092
30
0
41
1
10
4.45395492275529
20
-5.88666816473779
30
0
41
1
10
4.45599992823463
20
-5.85432170520519
30
0
41
1
10
4.45814971425403
20
-5.82761377406976
30
0
0
SPLINE
5
E1
100
AcDbEntity
8
SK1
62
256
6
ByLayer
370
18
48
1
60
0
100
AcDbSpline
70
4
71
3
72
8
73
4
40
0
40
0
40
0
40
0
40
1
40
1
40
1
40
1
41
1
10
-0.850000000213271
20
2.52635658728477
30
0
41
0.996096748710951
10
-0.5544625152094
20
2.55062231963478
30
0
41
0.995855730551265
10
-0.270084277303345
20
2.55623444643948
30
0
41
0.999276945520943
10
-1.98139E-11
20
2.54311776700155
30
0
0
SPLINE
5
E2
100
AcDbEntity
8
1
62
256
6
ByLayer
370
18
48
1
60
0
100
AcDbSpline
70
4
71
3
72
8
73
4
40
0
40
0
40
0
40
0
40
1
40
1
40
1
40
1
41
1
10
3.99168613993345
20
10.7458736298073
30
0
41
1
10
3.99162818709482
20
10.7470435007338
30
0
41
1
10
3.99159047289552
20
10.7482143707214
30
0
41
1
10
3.99157304484751
20
10.7493852456401
30
0
0
SPLINE
5
E3
100
AcDbEntity
8
1
62
256
6
ByLayer
370
18
48
1
60
0
100
AcDbSpline
70
4
71
3
72
14
73
10
40
0
40
0
40
0
40
0
40
0.25
40
0.25
40
0.5
40
0.5
40
0.75
40
0.75
40
1
40
1
40
1
40
1
41
1
10
3.99157304484751
20
10.7493852456401
30
0
41
1
10
3.99137941898397
20
10.7623936827882
30
0
41
1
10
3.99365887143699
20
10.7751652110118
30
0
41
1
10
4.00303681521575
20
10.7993235121952
30
0
41
1
10
4.01008651047144
20
10.8104453280953
30
0
41
1
10
4.02811512220086
20
10.8292433411549
30
0
41
1
10
4.03914593439873
20
10.8369053468632
30
0
41
1
10
4.06330724021123
20
10.8472426811721
30
0
41
1
10
4.07659475786781
20
10.8500000001502
30
0
41
1
10
4.08999999977851
20
10.8500000001516
30
0
0
SPLINE
5
E4
100
AcDbEntity
8
1
62
256
6
ByLayer
370
18
48
1
60
0
100
AcDbSpline
70
4
71
3
72
14
73
10
40
0
40
0
40
0
40
0
40
0.25
40
0.25
40
0.5
40
0.5
40
0.75
40
0.75
40
1
40
1
40
1
40
1
41
1
10
5.59999999978672
20
10.8500000001515
30
0
41
1
10
5.61365982973552
20
10.8500000001515
30
0
41
1
10
5.62709347308035
20
10.8471918933514
30
0
41
1
10
5.65175516904364
20
10.8364953837035
30
0
41
1
10
5.66293712472989
20
10.8285685486605
30
0
41
1
10
5.68101242137629
20
10.8092297029987
30
0
41
1
10
5.68805313106054
20
10.7976706920289
30
0
41
1
10
5.69699837550573
20
10.7729629385087
30
0
41
1
10
5.69898207309993
20
10.7597403467408
30
0
41
1
10
5.69832304158956
20
10.7464924761922
30
0
0
SPLINE
5
E5
100
AcDbEntity
8
1
62
256
6
ByLayer
370
18
48
1
60
0
100
AcDbSpline
70
4
71
3
72
16
73
12
40
0
40
0
40
0
40
0
40
0.249999999999999
40
0.249999999999999
40
0.499999999999999
40
0.499999999999999
40
0.624999999999999
40
0.624999999999999
40
0.749999999999998
40
0.749999999999998
40
1
40
1
40
1
40
1
41
1
10
4.06683743956398
20
8.57031902895309
30
0
41
1
10
4.06334268743854
20
8.74908438590637
30
0
41
1
10
4.0591203275884
20
8.92876612889543
30
0
41
1
10
4.04930082588743
20
9.2898907461265
30
0
41
1
10
4.04370323058961
20
9.47133384995806
30
0
41
1
10
4.03427295866166
20
9.74482571743434
30
0
41
1
10
4.03095661922632
20
9.83621147041413
30
0
41
1
10
4.02397041835769
20
10.0194350431427
30
0
41
1
10
4.02029183675418
20
10.1114680435534
30
0
41
1
10
4.00881583199694
20
10.3857337386147
30
0
41
1
10
4.0005604638732
20
10.5667311785457
30
0
41
1
10
3.99168613993345
20
10.7458736298073
30
0
0
SPLINE
5
E6
100
AcDbEntity
8
1
62
256
6
ByLayer
370
18
48
1
60
0
100
AcDbSpline
70
4
71
3
72
16
73
12
40
0
40
0
40
0
40
0
40
0.249999999999998
40
0.249999999999998
40
0.499999999999996
40
0.499999999999996
40
0.624999999999997
40
0.624999999999997
40
0.749999999999997
40
0.749999999999997
40
1
40
1
40
1
40
1
41
1
10
5.69832304158956
20
10.7464924761922
30
0
41
1
10
5.68940932669355
20
10.567308720648
30
0
41
1
10
5.68117343422972
20
10.3873024943406
30
0
41
1
10
5.66598571752675
20
10.0257082904142
30
0
41
1
10
5.65903401026006
20
9.84412012121791
30
0
41
1
10
5.64956890084781
20
9.57054438491892
30
0
41
1
10
5.64657480698841
20
9.47915301695883
30
0
41
1
10
5.64091524636211
20
9.295963393422
30
0
41
1
10
5.63824506281856
20
9.20397072462981
30
0
41
1
10
5.6308108270768
20
8.92990380043949
30
0
41
1
10
5.62659869959501
20
8.74913473633094
30
0
41
1
10
5.6231492984117
20
8.57031902896892
30
0
0
SPLINE
5
E7
100
AcDbEntity
8
1
62
256
6
ByLayer
370
18
48
1
60
0
100
AcDbSpline
70
4
71
3
72
8
73
4
40
0
40
0
40
0
40
0
40
1
40
1
40
1
40
1
41
1
10
0.0529165122465827
20
-2.5402964799824
30
0
41
0.999743120001059
10
0.0353489874091512
20
-2.5392757395321
30
0
41
0.999502101841394
10
0.0177098872610459
20
-2.53817452408229
30
0
41
0.999276945521005
10
-1.49686E-11
20
-2.53699282784286
30
0
0
SPLINE
5
E8
100
AcDbEntity
8
SK1
62
256
6
ByLayer
370
18
48
1
60
0
100
AcDbSpline
70
4
71
3
72
8
73
4
40
0
40
0
40
0
40
0
40
1
40
1
40
1
40
1
41
1
10
-0.850000000213271
20
-1.5632062854198
30
0
41
0.998707432961344
10
-0.757510913811323
20
-1.51904480656927
30
0
41
0.997775552161316
10
-0.665969090543465
20
-1.47376029851715
30
0
41
0.997204357599916
10
-0.57547651736553
20
-1.42739875074215
30
0
0
SPLINE
5
E9
100
AcDbEntity
8
1
62
256
6
ByLayer
370
18
48
1
60
0
100
AcDbSpline
70
4
71
3
72
8
73
4
40
0
40
0
40
0
40
0
40
1
40
1
40
1
40
1
41
1
10
0.0999999997867178
20
1.43670392256669
30
0
41
0.999486020986501
10
0.0669262454338178
20
1.45505266795077
30
0
41
0.999029073393918
10
0.0335911279979464
20
1.47324058175346
30
0
41
0.998629157222251
10
-2.38177E-11
20
1.4912643270779
30
0
0
SPLINE
5
EA
100
AcDbEntity
8
1
62
256
6
ByLayer
370
18
48
1
60
0
100
AcDbSpline
70
4
71
3
72
16
73
12
40
0
40
0
40
0
40
0
40
0.300046568084395
40
0.300046568084395
40
0.600093136168791
40
0.600093136168791
40
0.750116420210989
40
0.750116420210989
40
0.900139704253188
40
0.900139704253188
40
1
40
1
40
1
40
1
41
1
10
5.29467755967809
20
-6.93999873181238
30
0
41
1
10
5.30262510521854
20
-7.05149172451223
30
0
41
1
10
5.31135592852507
20
-7.14602685089909
30
0
41
1
10
5.33039887164023
20
-7.30255678653768
30
0
41
1
10
5.34071081669492
20
-7.36454718264344
30
0
41
1
10
5.35743215094018
20
-7.43287716271763
30
0
41
1
10
5.36321543003788
20
-7.45153183013221
30
0
41
1
10
5.37522039300362
20
-7.48039412330994
30
0
41
1
10
5.3814211937482
20
-7.49052842132457
30
0
41
1
10
5.39201139471979
20
-7.50017253544866
30
0
41
1
10
5.39631868540883
20
-7.5021226829551
30
0
41
1
10
5.40070259928166
20
-7.5021625370932
30
0
0
SPLINE
5
EB
100
AcDbEntity
8
1
62
256
6
ByLayer
370
18
48
1
60
0
100
AcDbSpline
70
4
71
3
72
14
73
10
40
0
40
0
40
0
40
0
40
0.169913616728121
40
0.169913616728121
40
0.339827233456241
40
0.339827233456241
40
0.679654466912449
40
0.679654466912449
40
1
40
1
40
1
40
1
41
1
10
5.59999999978672
20
10.8500000001515
30
0
41
1
10
5.60277690630028
20
10.8500000001515
30
0
41
1
10
5.60543108463395
20
10.8498772475602
30
0
41
1
10
5.6099699486382
20
10.8495045029722
30
0
41
1
10
5.61189796207216
20
10.8492608649657
30
0
41
1
10
5.61697730297186
20
10.8484785136775
30
0
41
1
10
5.61951676046851
20
10.8478843753321
30
0
41
1
10
5.623789020174
20
10.8467158122978
30
0
41
1
10
5.62557399206619
20
10.8461320099574
30
0
41
1
10
5.62715852045216
20
10.845539668765
30
0
0
SPLINE
5
EC
100
AcDbEntity
8
1
62
256
6
ByLayer
370
18
48
1
60
0
100
AcDbSpline
70
4
71
3
72
8
73
4
40
0
40
0
40
0
40
0
40
1
40
1
40
1
40
1
41
1
10
0.0999999997867178
20
-5.58700373061293
30
0
41
1
10
0.0666824153112361
20
-5.58046596531714
30
0
41
1
10
0.0333487227658384
20
-5.57382922231741
30
0
41
1
10
-2.13076E-11
20
-5.5670940633937
30
0
0
SPLINE
5
ED
100
AcDbEntity
8
1
62
256
6
ByLayer
370
18
48
1
60
0
100
AcDbSpline
70
4
71
3
72
10
73
6
40
0
40
0
40
0
40
0
40
0.499995351677588
40
0.499995351677588
40
1
40
1
40
1
40
1
41
1
10
2.37263074073971
20
-5.92465421285092
30
0
41
1
10
1.99403560186747
20
-5.94154522182623
30
0
41
1
10
1.61534339642276
20
-5.9580510802777
30
0
41
1
10
0.857791544617953
20
-5.99038321094076
30
0
41
1
10
0.478930091594265
20
-6.00620939234784
30
0
41
1
10
0.0999999997867178
20
-6.02173256872075
30
0
0
SPLINE
5
EE
100
AcDbEntity
8
1
62
256
6
ByLayer
370
18
48
1
60
0
100
AcDbSpline
70
4
71
3
72
10
73
6
40
0
40
0
40
0
40
0
40
0.499996168348252
40
0.499996168348252
40
1
40
1
40
1
40
1
41
1
10
4.38982280842134
20
-6.93999873181238
30
0
41
1
10
4.40163782138464
20
-6.7707924784464
30
0
41
1
10
4.41288135834381
20
-6.60157877480302
30
0
41
1
10
4.43378334418659
20
-6.26313175724965
30
0
41
1
10
4.44344032896112
20
-6.09389767247603
30
0
41
1
10
4.45202755309586
20
-5.92465421285092
30
0
0
SPLINE
5
EF
100
AcDbEntity
8
1
62
256
6
ByLayer
370
18
48
1
60
0
100
AcDbSpline
70
4
71
3
72
16
73
12
40
0
40
0
40
0
40
0
40
0.100034740480522
40
0.100034740480522
40
0.400023160320348
40
0.400023160320348
40
0.550017370240261
40
0.550017370240261
40
0.700011580160174
40
0.700011580160174
40
1
40
1
40
1
40
1
41
1
10
4.2854201177002
20
-7.50216333983968
30
0
41
1
10
4.28972347819908
20
-7.50215622807383
30
0
41
1
10
4.2939441355598
20
-7.50025665118739
30
0
41
1
10
4.31050023610752
20
-7.48519426326575
30
0
41
1
10
4.32219227511646
20
-7.45710340147008
30
0
41
1
10
4.33868257904925
20
-7.38948708092573
30
0
41
1
10
4.34400421153504
20
-7.36268850112327
30
0
41
1
10
4.35429744769417
20
-7.30035562953046
30
0
41
1
10
4.35924960720084
20
-7.2649126124638
30
0
41
1
10
4.3734326362611
20
-7.14658478661161
30
0
41
1
10
4.38203781588109
20
-7.05148988500108
30
0
41
1
10
4.38982280842134
20
-6.93999873181238
30
0
0
SPLINE
5
F0
100
AcDbEntity
8
1
62
256
6
ByLayer
370
18
48
1
60
0
100
AcDbSpline
70
4
71
3
72
14
73
10
40
0
40
0
40
0
40
0
40
0.5
40
0.5
40
0.75
40
0.75
40
0.875
40
0.875
40
1
40
1
40
1
40
1
41
1
10
4.11595496321681
20
-6.79540677525594
30
0
41
1
10
4.14189184420445
20
-6.98663970540375
30
0
41
1
10
4.16668495483205
20
-7.13862303331297
30
0
41
1
10
4.20234728974975
20
-7.31005646787463
30
0
41
1
10
4.21397824986224
20
-7.35770425804401
30
0
41
1
10
4.23104809804966
20
-7.41456455887982
30
0
41
1
10
4.23668446376561
20
-7.4310995915987
30
0
41
1
10
4.24778069613089
20
-7.45904852849873
30
0
41
1
10
4.25323780708899
20
-7.47046509369332
30
0
41
1
10
4.2586054890937
20
-7.47932019814297
30
0
0
SPLINE
5
F1
100
AcDbEntity
8
1
62
256
6
ByLayer
370
18
48
1
60
0
100
AcDbSpline
70
4
71
3
72
8
73
4
40
0
40
0
40
0
40
0
40
1
40
1
40
1
40
1
41
1
10
4.11595496321681
20
-6.79540677525594
30
0
41
1
10
4.08971557967703
20
-6.52505942566432
30
0
41
1
10
4.06260862696112
20
-6.2547463672214
30
0
41
1
10
4.03469376193385
20
-5.98446836192704
30
0
0
SPLINE
5
F2
100
AcDbEntity
8
1
62
256
6
ByLayer
370
18
48
1
60
0
100
AcDbSpline
70
4
71
3
72
8
73
4
40
0
40
0
40
0
40
0
40
1
40
1
40
1
40
1
41
1
10
5.49999999978672
20
-6.02173256872075
30
0
41
1
10
5.41181978737248
20
-6.01812019530544
30
0
41
1
10
5.32364333589547
20
-6.01449138487243
30
0
41
1
10
5.23547079858844
20
-6.01084570388437
30
0
0
SPLINE
5
F3
100
AcDbEntity
8
1
62
256
6
ByLayer
370
18
48
1
60
0
100
AcDbSpline
70
4
71
3
72
10
73
6
40
0
40
0
40
0
40
0
40
0.499996707864884
40
0.499996707864884
40
1
40
1
40
1
40
1
41
1
10
5.23547079858844
20
-6.01084570388437
30
0
41
1
10
5.24390570679913
20
-6.16571883676036
30
0
41
1
10
5.25320019755415
20
-6.32058383439662
30
0
41
1
10
5.27306744616519
20
-6.63030048969637
30
0
41
1
10
5.28363968239483
20
-6.78515268971037
30
0
41
1
10
5.29467755967809
20
-6.93999873181238
30
0
0
SPLINE
5
F4
100
AcDbEntity
8
1
62
256
6
ByLayer
370
18
48
1
60
0
100
AcDbSpline
70
4
71
3
72
12
73
8
40
0
40
0
40
0
40
0
40
0.145460570709487
40
0.145460570709487
40
0.565966798612948
40
0.565966798612948
40
1
40
1
40
1
40
1
41
1
10
5.53207772213986
20
-2.84335605241415
30
0
41
1
10
5.53357325839738
20
-2.82100912240219
30
0
41
1
10
5.53507457786316
20
-2.79866401973695
30
0
41
1
10
5.54093854446481
20
-2.71172948846404
30
0
41
1
10
5.54534381798885
20
-2.64715353664434
30
0
41
1
10
5.55439455361153
20
-2.51595573089085
30
0
41
1
10
5.55904318760213
20
-2.44933484542494
30
0
41
1
10
5.56374325985382
20
-2.38273044057033
30
0
0
SPLINE
5
F5
100
AcDbEntity
8
1
62
256
6
ByLayer
370
18
48
1
60
0
100
AcDbSpline
70
4
71
3
72
14
73
10
40
0
40
0
40
0
40
0
40
0.182549922851521
40
0.182549922851521
40
0.468656124721552
40
0.468656124721552
40
0.754762351935232
40
0.754762351935232
40
1
40
1
40
1
40
1
41
1
10
5.56374325985382
20
-2.38273044057033
30
0
41
1
10
5.5647182400408
20
-2.38030580636539
30
0
41
1
10
5.5656937914062
20
-2.37788150550918
30
0
41
1
10
5.56819974089004
20
-2.37165849502844
30
0
41
1
10
5.5697309554875
20
-2.36786026192206
30
0
41
1
10
5.57279606047527
20
-2.3602653571154
30
0
41
1
10
5.57432995087632
20
-2.35646868539908
30
0
41
1
10
5.57718103853483
20
-2.34941908312453
30
0
41
1
10
5.57849789099254
20
-2.34616595128586
30
0
41
1
10
5.57981567531371
20
-2.34291336340408
30
0
0
SPLINE
5
F6
100
AcDbEntity
8
1
62
256
6
ByLayer
370
18
48
1
60
0
100
AcDbSpline
70
4
71
3
72
9
73
5
40
0
40
0
40
0
40
0
40
0.5
40
1
40
1
40
1
40
1
41
1
10
5.57981567531371
20
-2.34291336340408
30
0
41
1
10
5.57680985643583
20
-2.45428611899581
30
0
41
1
10
5.57236371208796
20
-2.67013885916504
30
0
41
1
10
5.57078705426076
20
-2.87277615385955
30
0
41
1
10
5.57071670319914
20
-2.97064398594586
30
0
0
SPLINE
5
F7
100
AcDbEntity
8
1
62
256
6
ByLayer
370
18
48
1
60
0
100
AcDbSpline
70
4
71
3
72
10
73
6
40
0
40
0
40
0
40
0
40
0.346562564702465
40
0.346562564702465
40
1
40
1
40
1
40
1
41
1
10
5.57273194567281
20
-3.32169855824969
30
0
41
1
10
5.57224380030669
20
-3.28346594083749
30
0
41
1
10
5.57184148587172
20
-3.24439835965021
30
0
41
1
10
5.57093498587429
20
-3.12922633894402
30
0
41
1
10
5.57065895500739
20
-3.0509795232378
30
0
41
1
10
5.57071670319914
20
-2.970643985946
30
0
0
SPLINE
5
F8
100
AcDbEntity
8
1
62
256
6
ByLayer
370
18
48
1
60
0
100
AcDbSpline
70
4
71
3
72
8
73
4
40
0
40
0
40
0
40
0
40
1
40
1
40
1
40
1
41
1
10
5.65879280960397
20
-5.94547468114496
30
0
41
1
10
5.62911208737168
20
-6.22874704500521
30
0
41
1
10
5.60030489327937
20
-6.51205788534384
30
0
41
1
10
5.57244813536082
20
-6.79540677525594
30
0
0
SPLINE
5
F9
100
AcDbEntity
8
1
62
256
6
ByLayer
370
18
48
1
60
0
100
AcDbSpline
70
4
71
3
72
8
73
4
40
0
40
0
40
0
40
0
40
1
40
1
40
1
40
1
41
1
10
5.5117010310193
20
-7.17925422584813
30
0
41
1
10
5.53140088891342
20
-7.07500428188681
30
0
41
1
10
5.55163567457791
20
-6.94704959113062
30
0
41
1
10
5.57244813536082
20
-6.79540677525594
30
0
0
SPLINE
5
FA
100
AcDbEntity
8
1
62
256
6
ByLayer
370
18
48
1
60
0
100
AcDbSpline
70
4
71
3
72
8
73
4
40
0
40
0
40
0
40
0
40
1
40
1
40
1
40
1
41
1
10
5.5117010310193
20
-7.17925422584813
30
0
41
1
10
5.50779251409992
20
-7.13306057193446
30
0
41
1
10
5.50389193552112
20
-7.08683986879728
30
0
41
1
10
5.49999999978672
20
-7.04058973350254
30
0
0
SPLINE
5
FB
100
AcDbEntity
8
1
62
256
6
ByLayer
370
18
48
1
60
0
100
AcDbSpline
70
4
71
3
72
8
73
4
40
0
40
0
40
0
40
0
40
1
40
1
40
1
40
1
41
1
10
5.49999999978672
20
-7.04058973350254
30
0
41
1
10
5.49999999978672
20
-7.10659780121867
30
0
41
1
10
5.49999999978672
20
-7.1726241831206
30
0
41
1
10
5.49999999978672
20
-7.23866786206372
30
0
0
SPLINE
5
FC
100
AcDbEntity
8
1
62
256
6
ByLayer
370
18
48
1
60
0
100
AcDbSpline
70
4
71
3
72
8
73
4
40
0
40
0
40
0
40
0
40
1
40
1
40
1
40
1
41
1
10
5.42800299236163
20
-7.47932019814158
30
0
41
1
10
5.45060110890273
20
-7.44253970372358
30
0
41
1
10
5.47456117651336
20
-7.36230501064981
30
0
41
1
10
5.49999999978672
20
-7.23866786206372
30
0
0
SPLINE
5
FD
100
AcDbEntity
8
1
62
256
6
ByLayer
370
18
48
1
60
0
100
AcDbSpline
70
4
71
3
72
8
73
4
40
0
40
0
40
0
40
0
40
1
40
1
40
1
40
1
41
1
10
5.57981567531371
20
-2.34291336340408
30
0
41
0.999964993679225
10
5.55877306528099
20
-2.33099213470403
30
0
41
0.999957666987598
10
5.53773411802384
20
-2.31904995860529
30
0
41
0.999978019925119
10
5.51670058070909
20
-2.30708782633912
30
0
0
SPLINE
5
FE
100
AcDbEntity
8
1
62
256
6
ByLayer
370
18
48
1
60
0
100
AcDbSpline
70
4
71
3
72
14
73
10
40
0
40
0
40
0
40
0
40
0.189529786389252
40
0.189529786389252
40
0.463582446760794
40
0.463582446760794
40
0.73763512939383
40
0.73763512939383
40
1
40
1
40
1
40
1
41
1
10
5.56374325985374
20
5.78542109108005
30
0
41
1
10
5.56475551876724
20
5.79685324468153
30
0
41
1
10
5.56576839337103
20
5.80828559458547
30
0
41
1
10
5.5682473222555
20
5.83624914623661
30
0
41
1
10
5.56971403527027
20
5.85278055799077
30
0
41
1
10
5.57264991765163
20
5.88584416536366
30
0
41
1
10
5.57411908702741
20
5.90237636105547
30
0
41
1
10
5.5769971069964
20
5.93473643128829
30
0
41
1
10
5.57840585787486
20
5.95056427413238
30
0
41
1
10
5.57981567531397
20
5.96639245652349
30
0
0
SPLINE
5
FF
100
AcDbEntity
8
1
62
256
6
ByLayer
370
18
48
1
60
0
100
AcDbSpline
70
4
71
3
72
8
73
4
40
0
40
0
40
0
40
0
40
1
40
1
40
1
40
1
41
1
10
-2.27293E-11
20
5.89238005430434
30
0
41
1
10
0.0333414471266859
20
5.89640429931678
30
0
41
1
10
0.066674884006532
20
5.90035624650167
30
0
41
1
10
0.0999999997867178
20
5.90423561387672
30
0
0
SPLINE
5
100
100
AcDbEntity
8
1
62
256
6
ByLayer
370
18
48
1
60
0
100
AcDbSpline
70
4
71
3
72
8
73
4
40
0
40
0
40
0
40
0
40
1
40
1
40
1
40
1
41
0.999276945520943
10
-1.98139E-11
20
2.54311776700155
30
0
41
0.99950210184135
10
0.0177098872578382
20
2.54225768393178
30
0
41
0.999743120001036
10
0.0353489874075682
20
2.54131722073588
30
0
41
1
10
0.0529165122466111
20
2.54029648028549
30
0
0
SPLINE
5
101
100
AcDbEntity
8
SK1
62
256
6
ByLayer
370
18
48
1
60
0
100
AcDbSpline
70
4
71
3
72
8
73
4
40
0
40
0
40
0
40
0
40
1
40
1
40
1
40
1
41
0.998629157222251
10
-2.38177E-11
20
1.4912643270779
30
0
41
0.995424945772807
10
-0.270113566149365
20
1.63619718319891
30
0
41
0.995881893365391
10
-0.554494583154972
20
1.76935823608869
30
0
41
1
10
-0.850000000213271
20
1.88930105166014
30
0
0
SPLINE
5
102
100
AcDbEntity
8
SK1
62
256
6
ByLayer
370
18
48
1
60
0
100
AcDbSpline
70
4
71
3
72
8
73
4
40
0
40
0
40
0
40
0
40
1
40
1
40
1
40
1
41
0.998629157222263
10
-2.27739E-11
20
1.04572850121963
30
0
41
0.995424945772806
10
-0.27011356614863
20
0.882772256222965
30
0
41
0.995881893365385
10
-0.554494583154589
20
0.71307686005349
30
0
41
1
10
-0.850000000213271
20
0.53851539653013
30
0
0
SPLINE
5
103
100
AcDbEntity
8
SK1
62
256
6
ByLayer
370
18
48
1
60
0
100
AcDbSpline
70
4
71
3
72
8
73
4
40
0
40
0
40
0
40
0
40
1
40
1
40
1
40
1
41
1
10
-1.77742E-11
20
0.723333211577334
30
0
41
1
10
-0.282527207998547
20
0.556952972508654
30
0
41
1
10
-0.565868232636147
20
0.390821271184939
30
0
41
1
10
-0.850000000213271
20
0.224931060945693
30
0
0
SPLINE
5
104
100
AcDbEntity
8
1
62
256
6
ByLayer
370
18
48
1
60
0
100
AcDbSpline
70
4
71
3
72
8
73
4
40
0
40
0
40
0
40
0
40
1
40
1
40
1
40
1
41
1
10
-1.92749E-11
20
-1.75578200269726
30
0
41
1
10
0.0333402552884914
20
-1.77456242908803
30
0
41
1
10
0.0666735963181124
20
-1.79333210310338
30
0
41
1
10
0.0999999997867178
20
-1.81209098853617
30
0
0
SPLINE
5
105
100
AcDbEntity
8
SK1
62
256
6
ByLayer
370
18
48
1
60
0
100
AcDbSpline
70
4
71
3
72
8
73
4
40
0
40
0
40
0
40
0
40
1
40
1
40
1
40
1
41
0.999276945521005
10
-1.49686E-11
20
-2.53699282784286
30
0
41
0.995855730551263
10
-0.270084277299933
20
-2.51897139327233
30
0
41
0.996096748710928
10
-0.554462515207583
20
-2.48244102284746
30
0
41
1
10
-0.850000000213271
20
-2.42781644773567
30
0
0
SPLINE
5
106
100
AcDbEntity
8
SK1
62
256
6
ByLayer
370
18
48
1
60
0
100
AcDbSpline
70
4
71
3
72
8
73
4
40
0
40
0
40
0
40
0
40
1
40
1
40
1
40
1
41
1
10
-2.13076E-11
20
-5.5670940633937
30
0
41
1
10
-0.282473311606197
20
-5.5100453225057
30
0
41
1
10
-0.566024979782912
20
-5.44593565324878
30
0
41
1
10
-0.850000000213271
20
-5.37510645356741
30
0
0
INSERT
5
132
100
AcDbEntity
8
2
62
256
6
ByLayer
370
25
48
1
60
0
100
AcDbBlockReference
2
DimnDraft3D44
10
0
20
0
30
0
41
1
42
1
43
1
50
0
210
0
220
0
230
1
0
LINE
5
74
100
AcDbEntity
8
1
62
256
6
ByLayer
370
18
48
1
60
1
100
AcDbLine
10
0
20
0
30
0
11
0
21
297
31
0
39
0
210
0
220
0
230
1
0
LINE
5
75
100
AcDbEntity
8
1
62
256
6
ByLayer
370
18
48
1
60
1
100
AcDbLine
10
420
20
297
30
0
11
0
21
297
31
0
39
0
210
0
220
0
230
1
0
LINE
5
76
100
AcDbEntity
8
1
62
256
6
ByLayer
370
18
48
1
60
1
100
AcDbLine
10
420
20
297
30
0
11
420
21
0
31
0
39
0
210
0
220
0
230
1
0
LINE
5
77
100
AcDbEntity
8
1
62
256
6
ByLayer
370
18
48
1
60
1
100
AcDbLine
10
0
20
0
30
0
11
420
21
0
31
0
39
0
210
0
220
0
230
1
0
LINE
5
78
100
AcDbEntity
8
1
62
256
6
ByLayer
370
18
48
1
60
0
100
AcDbLine
10
4.28459
20
-7.502152
30
0
11
5.40089
21
-7.502152
31
0
39
0
210
0
220
0
230
1
0
LINE
5
79
100
AcDbEntity
8
1
62
256
6
ByLayer
370
18
48
1
60
0
100
AcDbLine
10
5.699939
20
-5.373255
30
0
11
5.673773
21
-4.998603
31
0
39
0
210
0
220
0
230
1
0
LINE
5
7A
100
AcDbEntity
8
1
62
256
6
ByLayer
370
18
48
1
60
0
100
AcDbLine
10
5.5
20
-2.332733
30
0
11
5.5
21
-2.467275
31
0
39
0
210
0
220
0
230
1
0
LINE
5
7B
100
AcDbEntity
8
1
62
256
6
ByLayer
370
13
48
1
60
0
100
AcDbLine
10
5.294678
20
1.236843
30
0
11
4.389823
21
1.236843
31
0
39
0
210
0
220
0
230
1
0
LINE
5
7C
100
AcDbEntity
8
1
62
256
6
ByLayer
370
18
48
1
60
0
100
AcDbLine
10
5.572448
20
-3.478091
30
0
11
4.115955
21
-3.478091
31
0
39
0
210
0
220
0
230
1
0
LINE
5
7D
100
AcDbEntity
8
1
62
256
6
ByLayer
370
18
48
1
60
0
100
AcDbLine
10
5.656029
20
-4.961291
30
0
11
4.041793
21
-4.961291
31
0
39
0
210
0
220
0
230
1
0
LINE
5
7E
100
AcDbEntity
8
1
62
256
6
ByLayer
370
13
48
1
60
0
100
AcDbLine
10
5.5
20
2.614866
30
0
11
4.452028
21
2.614866
31
0
39
0
210
0
220
0
230
1
0
LINE
5
7F
100
AcDbEntity
8
1
62
256
6
ByLayer
370
18
48
1
60
0
100
AcDbLine
10
5.6
20
-5.425
30
0
11
4.09
21
-5.425
31
0
39
0
210
0
220
0
230
1
0
LINE
5
80
100
AcDbEntity
8
1
62
256
6
ByLayer
370
18
48
1
60
0
100
AcDbLine
10
5.5
20
2.614866
30
0
11
5.5
21
2.483111
31
0
39
0
210
0
220
0
230
1
0
LINE
5
81
100
AcDbEntity
8
1
62
256
6
ByLayer
370
13
48
1
60
0
100
AcDbLine
10
2.372631
20
2.614866
30
0
11
0.1
21
2.614866
31
0
39
0
210
0
220
0
230
1
0
LINE
5
82
100
AcDbEntity
8
SK1
62
256
6
ByLayer
370
18
48
1
60
0
100
AcDbLine
10
-0.85
20
0.224931
30
0
11
-0.85
21
0.538515
31
0
39
0
210
0
220
0
230
1
0
LINE
5
84
100
AcDbEntity
8
1
62
256
6
ByLayer
370
13
48
1
60
0
100
AcDbLine
10
4.076256
20
-4.092622
30
0
11
0.1
21
-4.092622
31
0
39
0
210
0
220
0
230
1
0
LINE
5
85
100
AcDbEntity
8
1
62
256
6
ByLayer
370
18
48
1
60
0
100
AcDbLine
10
0.1
20
2.614866
30
0
11
0.1
21
2.483111
31
0
39
0
210
0
220
0
230
1
0
LINE
5
86
100
AcDbEntity
8
1
62
256
6
ByLayer
370
13
48
1
60
0
100
AcDbLine
10
5.5
20
3.155578
30
0
11
0.1
21
3.155578
31
0
39
0
210
0
220
0
230
1
0
LINE
5
87
100
AcDbEntity
8
1
62
256
6
ByLayer
370
18
48
1
60
0
100
AcDbLine
10
0.1
20
-3.60284
30
0
11
0.1
21
-4.092622
31
0
39
0
210
0
220
0
230
1
0
LINE
5
88
100
AcDbEntity
8
1
62
256
6
ByLayer
370
18
48
1
60
0
100
AcDbLine
10
5.5
20
3.155578
30
0
11
5.5
21
2.614866
31
0
39
0
210
0
220
0
230
1
0
LINE
5
89
100
AcDbEntity
8
1
62
256
6
ByLayer
370
13
48
1
60
0
100
AcDbLine
10
5.5
20
5.544126
30
0
11
0.1
21
5.544126
31
0
39
0
210
0
220
0
230
1
0
LINE
5
8A
100
AcDbEntity
8
1
62
256
6
ByLayer
370
18
48
1
60
0
100
AcDbLine
10
0.1
20
3.155578
30
0
11
0.1
21
2.614866
31
0
39
0
210
0
220
0
230
1
0
LINE
5
8B
100
AcDbEntity
8
1
62
256
6
ByLayer
370
18
48
1
60
0
100
AcDbLine
10
5.5
20
5.544126
30
0
11
5.5
21
3.155578
31
0
39
0
210
0
220
0
230
1
0
LINE
5
8C
100
AcDbEntity
8
1
62
256
6
ByLayer
370
13
48
1
60
0
100
AcDbLine
10
5.5
20
-5.740555
30
0
11
0.1
21
-5.740555
31
0
39
0
210
0
220
0
230
1
0
LINE
5
8D
100
AcDbEntity
8
1
62
256
6
ByLayer
370
18
48
1
60
0
100
AcDbLine
10
0.1
20
5.544126
30
0
11
0.1
21
3.155578
31
0
39
0
210
0
220
0
230
1
0
LINE
5
8E
100
AcDbEntity
8
1
62
256
6
ByLayer
370
18
48
1
60
0
100
AcDbLine
10
0.1
20
-4.092622
30
0
11
0.1
21
-5.740555
31
0
39
0
210
0
220
0
230
1
0
LINE
5
8F
100
AcDbEntity
8
1
62
256
6
ByLayer
370
18
48
1
60
0
100
AcDbLine
10
5.5
20
-5.424987
30
0
11
5.5
21
-5.740555
31
0
39
0
210
0
220
0
230
1
0
LINE
5
90
100
AcDbEntity
8
1
62
256
6
ByLayer
370
13
48
1
60
0
100
AcDbLine
10
0.100036
20
-2.540296
30
0
11
0.052917
21
-2.540296
31
0
39
0
210
0
220
0
230
1
0
LINE
5
91
100
AcDbEntity
8
1
62
256
6
ByLayer
370
13
48
1
60
0
100
AcDbLine
10
5.570717
20
6.486855
30
0
11
4.119707
21
6.486855
31
0
39
0
210
0
220
0
230
1
0
LINE
5
92
100
AcDbEntity
8
1
62
256
6
ByLayer
370
18
48
1
60
0
100
AcDbLine
10
5.5
20
5.936465
30
0
11
5.5
21
5.544126
31
0
39
0
210
0
220
0
230
1
0
LINE
5
93
100
AcDbEntity
8
1
62
256
6
ByLayer
370
18
48
1
60
0
100
AcDbLine
10
0.1
20
6.011431
30
0
11
0.1
21
5.544126
31
0
39
0
210
0
220
0
230
1
0
LINE
5
94
100
AcDbEntity
8
1
62
256
6
ByLayer
370
18
48
1
60
0
100
AcDbLine
10
5.5
20
5.74716
30
0
11
5.563743
21
5.785421
31
0
39
0
210
0
220
0
230
1
0
LINE
5
95
100
AcDbEntity
8
1
62
256
6
ByLayer
370
18
48
1
60
0
100
AcDbLine
10
4.066837
20
8.570319
30
0
11
5.623149
21
8.570319
31
0
39
0
210
0
220
0
230
1
0
LINE
5
96
100
AcDbEntity
8
1
62
256
6
ByLayer
370
13
48
1
60
0
100
AcDbLine
10
2.372631
20
-5.924654
30
0
11
0.1
21
-5.924654
31
0
39
0
210
0
220
0
230
1
0
LINE
5
97
100
AcDbEntity
8
1
62
256
6
ByLayer
370
13
48
1
60
0
100
AcDbLine
10
5.5
20
-5.924654
30
0
11
4.452028
21
-5.924654
31
0
39
0
210
0
220
0
230
1
0
LINE
5
98
100
AcDbEntity
8
1
62
256
6
ByLayer
370
18
48
1
60
0
100
AcDbLine
10
0.1
20
-5.740555
30
0
11
0.1
21
-5.924654
31
0
39
0
210
0
220
0
230
1
0
LINE
5
99
100
AcDbEntity
8
1
62
256
6
ByLayer
370
18
48
1
60
0
100
AcDbLine
10
5.5
20
-5.740555
30
0
11
5.5
21
-5.924654
31
0
39
0
210
0
220
0
230
1
0
LINE
5
9A
100
AcDbEntity
8
SK1
62
256
6
ByLayer
370
18
48
1
60
0
100
AcDbLine
10
-0.85
20
5.774538
30
0
11
-0.85
21
2.526357
31
0
39
0
210
0
220
0
230
1
0
LINE
5
9B
100
AcDbEntity
8
1
62
256
6
ByLayer
370
18
48
1
60
0
100
AcDbLine
10
5.6
20
10.85
30
0
11
4.09
21
10.85
31
0
39
0
210
0
220
0
230
1
0
LINE
5
9C
100
AcDbEntity
8
SK1
62
256
6
ByLayer
370
18
48
1
60
0
100
AcDbLine
10
-0.85
20
-2.427816
30
0
11
-0.85
21
-1.563206
31
0
39
0
210
0
220
0
230
1
0
LINE
5
9D
100
AcDbEntity
8
SK1
62
256
6
ByLayer
370
18
48
1
60
0
100
AcDbLine
10
-0.85
20
1.889301
30
0
11
-0.85
21
2.526357
31
0
39
0
210
0
220
0
230
1
0
LINE
5
9E
100
AcDbEntity
8
SK1
62
256
6
ByLayer
370
18
48
1
60
0
100
AcDbLine
10
-0.85
20
-5.375106
30
0
11
-0.85
21
-2.427816
31
0
39
0
210
0
220
0
230
1
0
LINE
5
9F
100
AcDbEntity
8
1
62
256
6
ByLayer
370
13
48
1
60
0
100
AcDbLine
10
5.294678
20
-6.939999
30
0
11
4.389823
21
-6.939999
31
0
39
0
210
0
220
0
230
1
0
LINE
5
A0
100
AcDbEntity
8
1
62
256
6
ByLayer
370
18
48
1
60
0
100
AcDbLine
10
0.1
20
-5.924654
30
0
11
0.1
21
-6.021733
31
0
39
0
210
0
220
0
230
1
0
LINE
5
A1
100
AcDbEntity
8
1
62
256
6
ByLayer
370
18
48
1
60
0
100
AcDbLine
10
5.5
20
-5.924654
30
0
11
5.5
21
-6.021733
31
0
39
0
210
0
220
0
230
1
0
LINE
5
A2
100
AcDbEntity
8
1
62
256
6
ByLayer
370
18
48
1
60
0
100
AcDbLine
10
5.500393
20
-2.350746
30
0
11
5.563743
21
-2.38273
31
0
39
0
210
0
220
0
230
1
0
LINE
5
A3
100
AcDbEntity
8
1
62
256
6
ByLayer
370
18
48
1
60
1
100
AcDbLine
10
5.6
20
10.85
30
0
11
5.848368
21
10.85
31
0
39
0
210
0
220
0
230
1
0
LINE
5
A4
100
AcDbEntity
8
1
62
256
6
ByLayer
370
18
48
1
60
1
100
AcDbLine
10
5.698323
20
10.746492
30
0
11
5.698323
21
10.885819
31
0
39
0
210
0
220
0
230
1
0
LINE
5
A5
100
AcDbEntity
8
80
62
256
6
ByLayer
370
18
48
1
60
0
100
AcDbLine
10
0
20
0
30
0
11
-2.578374
21
0
31
0
39
0
210
0
220
0
230
1
0
LINE
5
A6
100
AcDbEntity
8
4
62
256
6
ByLayer
370
18
48
0.05
60
0
100
AcDbLine
10
0
20
0
30
0
11
6.983367
21
0
31
0
39
0
210
0
220
0
230
1
0
LINE
5
A8
100
AcDbEntity
8
SK4
62
256
6
ByLayer
370
18
48
0.05
60
0
100
AcDbLine
10
-2.578374
20
0
30
0
11
7.449793
21
0
31
0
39
0
210
0
220
0
230
1
0
LINE
5
AA
100
AcDbEntity
8
81
62
256
6
ByLayer
370
18
48
1
60
0
100
AcDbLine
10
5.698323
20
10.85
30
0
11
6.109257
21
10.85
31
0
39
0
210
0
220
0
230
1
0
LINE
5
AB
100
AcDbEntity
8
1
62
256
6
ByLayer
370
18
48
1
60
0
100
AcDbLine
10
0
20
0
30
0
11
0
21
5.89238
31
0
39
0
210
0
220
0
230
1
0
LINE
5
AC
100
AcDbEntity
8
1
62
256
6
ByLayer
370
18
48
1
60
0
100
AcDbLine
10
0
20
0
30
0
11
0
21
-5.567094
31
0
39
0
210
0
220
0
230
1
0
MTEXT
5
107
100
AcDbEntity
8
SK6
62
256
6
ByLayer
370
18
48
1
60
0
100
AcDbMText
10
-16.37824
20
-40.377651
30
0
210
0
220
0
230
1
1
\W0.7114;327R12-22 16000-GM
40
3.5
41
0
44
1.084337
50
0
71
7
72
5
7
iso_b_vert
0
DIMENSION
5
113
100
AcDbEntity
8
2
62
256
6
ByLayer
370
13
48
1
60
0
100
AcDbDimension
2
DimnDraft3D1
10
22.623917
20
-10.85
30
0
11
22.623917
21
-7.511184
31
0
70
32
71
5
72
1
41
1
210
0
220
0
230
1
3
Standard
100
AcDbAlignedDimension
13
5.698323
23
-10.85
33
0
14
0
24
0
34
0
50
90
100
AcDbRotatedDimension
1001
ACAD
1000
DSTYLE
1002
{
1070
    74
1070
     0
1070
   279
1070
     0
1070
   172
1070
     1
1070
   173
1070
     1
1070
   340
1005
108
1070
    76
1070
     1
1070
   271
1070
     2
1070
   272
1070
     2
1070
    77
1070
     1
1070
    73
1070
     0
1070
   171
1070
     3
1070
   274
1070
     4
1070
   282
1070
     1
1070
   177
1070
     7
1070
   176
1070
     7
1070
   178
1070
     7
1070
    78
1070
     8
1070
    48
1040
-0.005
1070
    41
1041
3.5
1070
   147
1041
1.75
1070
    42
1041
1.5875
1070
    44
1041
2.0
1070
   140
1041
3.5
1070
   343
1005
0
1070
   344
1005
0
1002
}
0
DIMENSION
5
11D
100
AcDbEntity
8
2
62
256
6
ByLayer
370
13
48
1
60
0
100
AcDbDimension
2
DimnDraft3D2
10
5.698323
20
21.298827
30
0
11
17.200836
21
21.298827
31
0
70
32
71
5
72
1
41
1
210
0
220
0
230
1
3
Standard
100
AcDbAlignedDimension
13
3.991686
23
12.333374
33
0
14
5.698323
24
12.333992
34
0
50
0
100
AcDbRotatedDimension
1001
ACAD
1000
DSTYLE
1002
{
1070
   279
1070
     0
1070
   172
1070
     1
1070
   173
1070
     1
1070
   340
1005
108
1070
   271
1070
     2
1070
   272
1070
     2
1070
    77
1070
     1
1070
    73
1070
     0
1070
   171
1070
     3
1070
   274
1070
     4
1070
   177
1070
     7
1070
   176
1070
     7
1070
   178
1070
     7
1070
    78
1070
     8
1070
    48
1040
-0.005
1070
    41
1041
3.5
1070
   147
1041
1.75
1070
    42
1041
1.5875
1070
    44
1041
2.0
1070
   140
1041
3.5
1070
   343
1005
0
1070
   344
1005
0
1002
}
0
DIMENSION
5
128
100
AcDbEntity
8
SK2
62
256
6
ByLayer
370
13
48
1
60
0
100
AcDbDimension
2
DimnDraft3D3
10
-15.06664
20
-6
30
0
11
-15.06664
21
-5.632237
31
0
70
32
71
5
72
1
41
1
210
0
220
0
230
1
3
Standard
100
AcDbAlignedDimension
13
-1.5875
23
6
33
0
14
-1.5875
24
-6
34
0
50
90
100
AcDbRotatedDimension
1001
ACAD
1000
DSTYLE
1002
{
1070
    74
1070
     0
1070
   279
1070
     0
1070
   172
1070
     1
1070
   173
1070
     1
1070
   340
1005
108
1070
   271
1070
     2
1070
   272
1070
     2
1070
    77
1070
     1
1070
    73
1070
     0
1070
   171
1070
     3
1070
   274
1070
     4
1070
   177
1070
     7
1070
   176
1070
     7
1070
   178
1070
     7
1070
    78
1070
     8
1070
    48
1040
-0.005
1070
    41
1041
3.5
1070
   147
1041
1.75
1070
    42
1041
1.5875
1070
    44
1041
2.0
1070
   140
1041
3.5
1070
   343
1005
0
1070
   344
1005
0
1002
}
0
DIMENSION
5
13C
100
AcDbEntity
8
2
62
256
6
ByLayer
370
13
48
1
60
0
100
AcDbDimension
2
DimnDraft3D5
10
-8.245611
20
10.85
30
0
11
-8.245611
21
17.535037
31
0
70
32
71
5
72
1
41
1
210
0
220
0
230
1
3
Standard
100
AcDbAlignedDimension
13
-1.4875
23
6.011431
33
0
14
4.110823
24
10.85
34
0
50
90
100
AcDbRotatedDimension
1001
ACAD
1000
DSTYLE
1002
{
1070
    74
1070
     0
1070
   279
1070
     0
1070
   172
1070
     1
1070
   173
1070
     1
1070
   340
1005
108
1070
   271
1070
     1
1070
   272
1070
     2
1070
    77
1070
     1
1070
    73
1070
     0
1070
   171
1070
     3
1070
   274
1070
     4
1070
   177
1070
     7
1070
   176
1070
     7
1070
   178
1070
     7
1070
    78
1070
     8
1070
    48
1040
-0.005
1070
    41
1041
3.5
1070
   147
1041
1.75
1070
    42
1041
1.5875
1070
    44
1041
2.0
1070
   140
1041
3.5
1070
   343
1005
0
1070
   344
1005
0
1002
}
0
ENDSEC
0
SECTION
2
OBJECTS
0
DICTIONARY
5
1a7
330
0
100
AcDbDictionary
280
0
281
1
3
ACAD_GROUP
350
1a8
3
ACAD_MLINESTYLE
350
1a9
0
DICTIONARY
5
1a8
330
0
100
AcDbDictionary
280
0
281
1
0
DICTIONARY
5
1a9
330
0
100
AcDbDictionary
280
0
281
1
3
Standard
350
18
0
MLINESTYLE
5
18
330
1a9
100
AcDbMlineStyle
2
Standard
70
0
3

62
256
51
90
52
90
71
2
49
-0.5
62
256
6
ByLayer
49
0.5
62
256
6
ByLayer
0
RASTERVARIABLES
5
195
330

100
AcDbRasterVariables
90
0
70
1
71
1
72
1
0
ENDSEC
0
EOF
