0
SECTION
2
HEADER
9
$ACADVER
1
AC1015
9
$DWGCODEPAGE
3
ANSI_1252
9
$HANDSEED
5
19f
9
$ANGBASE
50
0
9
$ANGDIR
70
0
9
$ATTMODE
70
1
9
$AUNITS
70
0
9
$AUPREC
70
0
9
$CECOLOR
62
256
9
$CELTSCALE
40
1
9
$CELTYPE
6
ByLayer
9
$CELWEIGHT
370
18
9
$CLAYER
8
0
9
$CMLJUST
70
0
9
$CMLSCALE
40
1
9
$CMLSTYLE
2
Standard
9
$DIMSTYLE
2
Standard
9
$TEXTSIZE
40
0.2
9
$TEXTSTYLE
7
Standard
9
$LUNITS
70
2
9
$LUPREC
70
4
9
$EXTNAMES
290
1
9
$INSUNITS
70
4
9
$LTSCALE
40
1
9
$LWDISPLAY
290
1
9
$PDMODE
70
0
9
$PDSIZE
40
0
9
$PLINEGEN
70
0
0
ENDSEC
0
SECTION
2
CLASSES
0
CLASS
1
RASTERVARIABLES
2
AcDbRasterVariables
3
ISM
90
0
280
0
281
0
0
ENDSEC
0
SECTION
2
TABLES
0
TABLE
2
VPORT
5
195
100
AcDbSymbolTable
0
VPORT
5
1
100
AcDbSymbolTableRecord
100
AcDbViewportTableRecord
2
*Active
70
0
10
0
20
0
11
1
21
1
12
-1
22
1
13
0
23
0
14
0.5
24
0.5
15
10
25
10
16
0
26
0
36
1
17
0
27
0
37
0
0
ENDTAB
0
TABLE
2
LTYPE
5
196
100
AcDbSymbolTable
0
LTYPE
5
14
100
AcDbSymbolTableRecord
100
AcDbLinetypeTableRecord
70
0
2
ByBlock
3

72
65
73
0
40
0
0
LTYPE
5
15
100
AcDbSymbolTableRecord
100
AcDbLinetypeTableRecord
70
0
2
ByLayer
3

72
65
73
0
40
0
0
LTYPE
5
16
100
AcDbSymbolTableRecord
100
AcDbLinetypeTableRecord
70
0
2
CONTINUOUS
3
Solid line
72
65
73
0
40
0
0
LTYPE
5
6A
100
AcDbSymbolTableRecord
100
AcDbLinetypeTableRecord
70
0
2
CENTER
3
____ _ ____ _ ____ _ ____
72
65
73
4
40
47.5
49
22
74
0
49
-8.5
74
0
49
8.5
74
0
49
-8.5
74
0
0
LTYPE
5
6B
100
AcDbSymbolTableRecord
100
AcDbLinetypeTableRecord
70
0
2
DASHED
3
__ __ __ __ __ __ __ __ __
72
65
73
2
40
25.72
49
12.86
74
0
49
-12.86
74
0
0
ENDTAB
0
TABLE
2
LAYER
5
197
100
AcDbSymbolTable
0
LAYER
5
10
100
AcDbSymbolTableRecord
100
AcDbLayerTableRecord
2
0
70
0
62
7
6
CONTINUOUS
290
1
370
-3
390
0
0
LAYER
5
6D
100
AcDbSymbolTableRecord
100
AcDbLayerTableRecord
2
81
70
0
62
-3
6
CONTINUOUS
290
1
370
-3
390
0
0
LAYER
5
71
100
AcDbSymbolTableRecord
100
AcDbLayerTableRecord
2
80
70
0
62
-6
6
CONTINUOUS
290
1
370
-3
390
0
0
LAYER
5
75
100
AcDbSymbolTableRecord
100
AcDbLayerTableRecord
2
1
70
0
62
4
6
CONTINUOUS
290
1
370
-3
390
0
0
LAYER
5
9C
100
AcDbSymbolTableRecord
100
AcDbLayerTableRecord
2
4
70
0
62
-2
6
CENTER
290
1
370
-3
390
0
0
LAYER
5
E5
100
AcDbSymbolTableRecord
100
AcDbLayerTableRecord
2
2
70
0
62
7
6
CONTINUOUS
290
1
370
-3
390
0
0
LAYER
5
181
100
AcDbSymbolTableRecord
100
AcDbLayerTableRecord
2
SK2
70
0
62
7
6
CONTINUOUS
290
1
370
-3
390
0
0
LAYER
5
182
100
AcDbSymbolTableRecord
100
AcDbLayerTableRecord
2
SK1
70
0
62
4
6
CONTINUOUS
290
1
370
-3
390
0
0
LAYER
5
183
100
AcDbSymbolTableRecord
100
AcDbLayerTableRecord
2
SK4
70
0
62
2
6
CENTER
290
1
370
-3
390
0
0
LAYER
5
184
100
AcDbSymbolTableRecord
100
AcDbLayerTableRecord
2
SK6
70
0
62
5
6
CONTINUOUS
290
1
370
-3
390
0
0
ENDTAB
0
TABLE
2
STYLE
5
198
100
AcDbSymbolTable
0
STYLE
5
11
100
AcDbSymbolTableRecord
100
AcDbTextStyleTableRecord
2
Standard
3
txt
70
0
71
0
40
0
41
1
42
0
50
0
0
STYLE
5
E0
100
AcDbSymbolTableRecord
100
AcDbTextStyleTableRecord
2
iso_b_vert
3
simplex.shx
70
0
71
0
40
0
41
1
42
0
50
0
0
STYLE
5
E1
100
AcDbSymbolTableRecord
100
AcDbTextStyleTableRecord
2
DWGDirectTextStyle
3
simplex
70
0
71
0
40
0
41
1
42
0
50
0
0
ENDTAB
0
TABLE
2
DIMSTYLE
5
199
100
AcDbSymbolTable
100
AcDbDimStyleTable
0
DIMSTYLE
105
27
100
AcDbSymbolTableRecord
100
AcDbDimStyleTableRecord
2
Standard
70
0
3
<>
41
0.18
42
0.0625
44
0.18
140
0.18
147
0.09
73
0
74
0
77
1
271
2
275
0
278
52
280
0
340
11
0
ENDTAB
0
TABLE
2
VIEW
5
19a
100
AcDbSymbolTable
0
ENDTAB
0
TABLE
2
UCS
5
19b
100
AcDbSymbolTable
0
ENDTAB
0
TABLE
2
APPID
5
19c
100
AcDbSymbolTable
0
APPID
5
12
100
AcDbSymbolTableRecord
100
AcDbRegAppTableRecord
2
ACAD
70
0
0
ENDTAB
0
TABLE
2
BLOCK_RECORD
5
19d
100
AcDbSymbolTable
0
BLOCK_RECORD
5
1F
100
AcDbSymbolTableRecord
100
AcDbBlockTableRecord
2
*Model_Space
340
0
70
0
0
BLOCK_RECORD
5
1B
100
AcDbSymbolTableRecord
100
AcDbBlockTableRecord
2
*Paper_Space
340
0
70
0
0
BLOCK_RECORD
5
23
100
AcDbSymbolTableRecord
100
AcDbBlockTableRecord
2
*Paper_Space0
340
0
70
0
0
BLOCK_RECORD
5
E3
100
AcDbSymbolTableRecord
100
AcDbBlockTableRecord
2
DimnDraft3D1
340
0
70
0
0
BLOCK_RECORD
5
EC
100
AcDbSymbolTableRecord
100
AcDbBlockTableRecord
2
DimnDraft3D2
340
0
70
0
0
BLOCK_RECORD
5
F6
100
AcDbSymbolTableRecord
100
AcDbBlockTableRecord
2
DimnDraft3D3
340
0
70
0
0
BLOCK_RECORD
5
100
100
AcDbSymbolTableRecord
100
AcDbBlockTableRecord
2
DimnDraft3D4
340
0
70
0
0
BLOCK_RECORD
5
10A
100
AcDbSymbolTableRecord
100
AcDbBlockTableRecord
2
DimnDraft3D5
340
0
70
0
0
BLOCK_RECORD
5
114
100
AcDbSymbolTableRecord
100
AcDbBlockTableRecord
2
DimnDraft3D6
340
0
70
0
0
BLOCK_RECORD
5
11E
100
AcDbSymbolTableRecord
100
AcDbBlockTableRecord
2
DimnDraft3D7
340
0
70
0
0
ENDTAB
0
ENDSEC
0
SECTION
2
BLOCKS
0
BLOCK
5
20
100
AcDbEntity
8
0
100
AcDbBlockBegin
2
*Model_Space
70
0
10
0
20
0
30
0
3
*Model_Space
0
ENDBLK
5
21
100
AcDbEntity
8
0
100
AcDbBlockEnd
0
BLOCK
5
1C
100
AcDbEntity
8
0
100
AcDbBlockBegin
2
*Paper_Space
70
0
10
0
20
0
30
0
3
*Paper_Space
0
ENDBLK
5
1D
100
AcDbEntity
8
0
100
AcDbBlockEnd
0
BLOCK
5
24
100
AcDbEntity
8
0
100
AcDbBlockBegin
2
*Paper_Space0
70
0
10
0
20
0
30
0
3
*Paper_Space0
0
ENDBLK
5
25
100
AcDbEntity
8
0
100
AcDbBlockEnd
0
BLOCK
5
E9
100
AcDbEntity
8
0
100
AcDbBlockBegin
2
DimnDraft3D1
70
0
10
0
20
0
30
0
3
DimnDraft3D1
0
MTEXT
5
E4
100
AcDbEntity
8
2
62
256
6
ByLayer
370
13
48
1
60
0
100
AcDbMText
10
23.579893
20
-11.182145
30
0
210
0
220
0
230
1
1
\W1.0454;%%c17,7
40
3.5
41
0
44
1.084337
50
90
71
7
72
5
7
iso_b_vert
0
LINE
5
E6
100
AcDbEntity
8
2
62
256
6
ByLayer
370
13
48
1
60
0
100
AcDbLine
10
4.1
20
8.85
30
0
11
27.329893
21
8.85
31
0
39
0
210
0
220
0
230
1
0
LINE
5
E7
100
AcDbEntity
8
2
62
256
6
ByLayer
370
13
48
1
60
0
100
AcDbLine
10
25.329893
20
8.85
30
0
11
25.329893
21
-12.057145
31
0
39
0
210
0
220
0
230
1
0
SOLID
5
E8
100
AcDbEntity
8
2
62
256
6
ByLayer
370
13
48
1
60
0
100
AcDbTrace
10
25.329893
20
8.85
30
0
11
26.267715
21
5.350003
31
0
12
24.392071
22
5.349997
32
0
13
25.329893
23
8.85
33
0
39
0
210
0
220
0
230
1
0
ENDBLK
5
EA
100
AcDbEntity
8
0
100
AcDbBlockEnd
0
BLOCK
5
F3
100
AcDbEntity
8
0
100
AcDbBlockBegin
2
DimnDraft3D2
70
0
10
0
20
0
30
0
3
DimnDraft3D2
0
MTEXT
5
ED
100
AcDbEntity
8
2
62
256
6
ByLayer
370
13
48
1
60
0
100
AcDbMText
10
-9.004342
20
12.419155
30
0
210
0
220
0
230
1
1
\W0.6314;1,89
40
3.5
41
0
44
1.084337
50
90
71
7
72
5
7
iso_b_vert
0
LINE
5
EE
100
AcDbEntity
8
2
62
256
6
ByLayer
370
13
48
1
60
0
100
AcDbLine
10
1.511049
20
6.95095
30
0
11
-10.129342
21
6.95095
31
0
39
0
210
0
220
0
230
1
0
LINE
5
EF
100
AcDbEntity
8
2
62
256
6
ByLayer
370
13
48
1
60
0
100
AcDbLine
10
3.88125
20
8.85
30
0
11
-10.129342
21
8.85
31
0
39
0
210
0
220
0
230
1
0
LINE
5
F0
100
AcDbEntity
8
2
62
256
6
ByLayer
370
13
48
1
60
0
100
AcDbLine
10
-8.129342
20
18.516523
30
0
11
-8.129342
21
-1.79905
31
0
39
0
210
0
220
0
230
1
0
SOLID
5
F1
100
AcDbEntity
8
2
62
256
6
ByLayer
370
13
48
1
60
0
100
AcDbTrace
10
-8.129342
20
6.95095
30
0
11
-7.19152
21
3.450953
31
0
12
-9.067164
22
3.450946
32
0
13
-8.129342
23
6.95095
33
0
39
0
210
0
220
0
230
1
0
SOLID
5
F2
100
AcDbEntity
8
2
62
256
6
ByLayer
370
13
48
1
60
0
100
AcDbTrace
10
-8.129342
20
8.85
30
0
11
-9.067164
21
12.349997
31
0
12
-7.19152
22
12.350003
32
0
13
-8.129342
23
8.85
33
0
39
0
210
0
220
0
230
1
0
ENDBLK
5
F4
100
AcDbEntity
8
0
100
AcDbBlockEnd
0
BLOCK
5
FD
100
AcDbEntity
8
0
100
AcDbBlockBegin
2
DimnDraft3D3
70
0
10
0
20
0
30
0
3
DimnDraft3D3
0
MTEXT
5
F7
100
AcDbEntity
8
2
62
256
6
ByLayer
370
13
48
1
60
0
100
AcDbMText
10
11.676069
20
15.16893
30
0
210
0
220
0
230
1
1
\W0.7528;0,44
40
3.5
41
0
44
1.084337
50
0
71
7
72
5
7
iso_b_vert
0
LINE
5
F8
100
AcDbEntity
8
2
62
256
6
ByLayer
370
13
48
1
60
0
100
AcDbLine
10
3.88125
20
8.85
30
0
11
3.88125
21
16.29393
31
0
39
0
210
0
220
0
230
1
0
LINE
5
F9
100
AcDbEntity
8
2
62
256
6
ByLayer
370
13
48
1
60
0
100
AcDbLine
10
4.31875
20
8.85
30
0
11
4.31875
21
16.29393
31
0
39
0
210
0
220
0
230
1
0
LINE
5
FA
100
AcDbEntity
8
2
62
256
6
ByLayer
370
13
48
1
60
0
100
AcDbLine
10
19.38528
20
14.29393
30
0
11
-4.86875
21
14.29393
31
0
39
0
210
0
220
0
230
1
0
SOLID
5
FB
100
AcDbEntity
8
2
62
256
6
ByLayer
370
13
48
1
60
0
100
AcDbTrace
10
3.88125
20
14.29393
30
0
11
0.381253
21
13.356108
31
0
12
0.381247
22
15.231752
32
0
13
3.88125
23
14.29393
33
0
39
0
210
0
220
0
230
1
0
SOLID
5
FC
100
AcDbEntity
8
2
62
256
6
ByLayer
370
13
48
1
60
0
100
AcDbTrace
10
4.31875
20
14.29393
30
0
11
7.818747
21
15.231752
31
0
12
7.818753
22
13.356108
32
0
13
4.31875
23
14.29393
33
0
39
0
210
0
220
0
230
1
0
ENDBLK
5
FE
100
AcDbEntity
8
0
100
AcDbBlockEnd
0
BLOCK
5
107
100
AcDbEntity
8
0
100
AcDbBlockBegin
2
DimnDraft3D4
70
0
10
0
20
0
30
0
3
DimnDraft3D4
0
MTEXT
5
101
100
AcDbEntity
8
2
62
256
6
ByLayer
370
13
48
1
60
0
100
AcDbMText
10
27.416333
20
40.859305
30
0
210
0
220
0
230
1
1
\W0.7003;5,85
40
3.5
41
0
44
1.084337
50
0
71
7
72
5
7
iso_b_vert
0
LINE
5
102
100
AcDbEntity
8
2
62
256
6
ByLayer
370
13
48
1
60
0
100
AcDbLine
10
0
20
0
30
0
11
0
21
41.984305
31
0
39
0
210
0
220
0
230
1
0
LINE
5
103
100
AcDbEntity
8
2
62
256
6
ByLayer
370
13
48
1
60
0
100
AcDbLine
10
5.85
20
6.180588
30
0
11
5.85
21
41.984305
31
0
39
0
210
0
220
0
230
1
0
LINE
5
104
100
AcDbEntity
8
2
62
256
6
ByLayer
370
13
48
1
60
0
100
AcDbLine
10
34.388702
20
39.984305
30
0
11
-8.75
21
39.984305
31
0
39
0
210
0
220
0
230
1
0
SOLID
5
105
100
AcDbEntity
8
2
62
256
6
ByLayer
370
13
48
1
60
0
100
AcDbTrace
10
0
20
39.984305
30
0
11
-3.499997
21
39.046483
31
0
12
-3.500003
22
40.922127
32
0
13
0
23
39.984305
33
0
39
0
210
0
220
0
230
1
0
SOLID
5
106
100
AcDbEntity
8
2
62
256
6
ByLayer
370
13
48
1
60
0
100
AcDbTrace
10
5.85
20
39.984305
30
0
11
9.349997
21
40.922127
31
0
12
9.350003
22
39.046483
32
0
13
5.85
23
39.984305
33
0
39
0
210
0
220
0
230
1
0
ENDBLK
5
108
100
AcDbEntity
8
0
100
AcDbBlockEnd
0
BLOCK
5
111
100
AcDbEntity
8
0
100
AcDbBlockBegin
2
DimnDraft3D5
70
0
10
0
20
0
30
0
3
DimnDraft3D5
0
MTEXT
5
10B
100
AcDbEntity
8
SK2
62
256
6
ByLayer
370
13
48
1
60
0
100
AcDbMText
10
22.265979
20
33.586231
30
0
210
0
220
0
230
1
1
\W0.6963;4,1
40
3.5
41
0
44
1.084337
50
0
71
7
72
5
7
iso_b_vert
0
LINE
5
10C
100
AcDbEntity
8
SK2
62
256
6
ByLayer
370
13
48
1
60
0
100
AcDbLine
10
0
20
0
30
0
11
0
21
34.711231
31
0
39
0
210
0
220
0
230
1
0
LINE
5
10D
100
AcDbEntity
8
SK2
62
256
6
ByLayer
370
13
48
1
60
0
100
AcDbLine
10
4.1
20
8.85
30
0
11
4.1
21
34.711231
31
0
39
0
210
0
220
0
230
1
0
LINE
5
10E
100
AcDbEntity
8
SK2
62
256
6
ByLayer
370
13
48
1
60
0
100
AcDbLine
10
26.162032
20
32.711231
30
0
11
-8.75
21
32.711231
31
0
39
0
210
0
220
0
230
1
0
SOLID
5
10F
100
AcDbEntity
8
SK2
62
256
6
ByLayer
370
13
48
1
60
0
100
AcDbTrace
10
0
20
32.711231
30
0
11
-3.499997
21
31.773409
31
0
12
-3.500003
22
33.649053
32
0
13
0
23
32.711231
33
0
39
0
210
0
220
0
230
1
0
SOLID
5
110
100
AcDbEntity
8
SK2
62
256
6
ByLayer
370
13
48
1
60
0
100
AcDbTrace
10
4.1
20
32.711231
30
0
11
7.599997
21
33.649053
31
0
12
7.600003
22
31.773409
32
0
13
4.1
23
32.711231
33
0
39
0
210
0
220
0
230
1
0
ENDBLK
5
112
100
AcDbEntity
8
0
100
AcDbBlockEnd
0
BLOCK
5
11B
100
AcDbEntity
8
0
100
AcDbBlockBegin
2
DimnDraft3D6
70
0
10
0
20
0
30
0
3
DimnDraft3D6
0
MTEXT
5
115
100
AcDbEntity
8
SK2
62
256
6
ByLayer
370
13
48
1
60
0
100
AcDbMText
10
1.867144
20
-20.83174
30
0
210
0
220
0
230
1
1
\W0.8385;60%%d
40
3.5
41
0
44
1.084337
50
0.0950928788505404
71
7
72
5
7
iso_b_vert
0
LINE
5
116
100
AcDbEntity
8
SK2
62
256
6
ByLayer
370
13
48
1
60
0
100
AcDbLine
10
2.827623
20
6.999014
30
0
11
-12.194007
21
-19.390608
31
0
39
0
210
0
220
0
230
1
0
LINE
5
117
100
AcDbEntity
8
SK2
62
256
6
ByLayer
370
13
48
1
60
0
100
AcDbLine
10
5.85
20
6.180588
30
0
11
20.487243
21
-19.336367
31
0
39
0
210
0
220
0
230
1
0
ARC
5
118
100
AcDbEntity
8
SK2
62
256
6
ByLayer
370
13
48
1
60
0
100
AcDbCircle
39
0
10
4.099157
20
9.232814
30
0
40
30.9358084413704
210
0
220
0
230
1
100
AcDbArc
50
240.35039
51
299.839795
0
SOLID
5
119
100
AcDbEntity
8
SK2
62
256
6
ByLayer
370
13
48
1
60
0
100
AcDbTrace
10
-11.204618
20
-17.652474
30
0
11
-7.674462
21
-18.46947
31
0
12
-8.555906
22
-20.125096
32
0
13
-11.204618
23
-17.652474
33
0
39
0
210
0
220
0
230
1
0
SOLID
5
11A
100
AcDbEntity
8
SK2
62
256
6
ByLayer
370
13
48
1
60
0
100
AcDbTrace
10
19.49209
20
-17.601527
30
0
11
16.851607
21
-20.082925
31
0
12
15.964659
22
-18.43024
32
0
13
19.49209
23
-17.601527
33
0
39
0
210
0
220
0
230
1
0
ENDBLK
5
11C
100
AcDbEntity
8
0
100
AcDbBlockEnd
0
BLOCK
5
125
100
AcDbEntity
8
0
100
AcDbBlockBegin
2
DimnDraft3D7
70
0
10
0
20
0
30
0
3
DimnDraft3D7
0
MTEXT
5
11F
100
AcDbEntity
8
SK2
62
256
6
ByLayer
370
13
48
1
60
0
100
AcDbMText
10
-17.857785
20
-4.757237
30
0
210
0
220
0
230
1
1
\W1.2012;%%c12
40
3.5
41
0
44
1.084337
50
90
71
7
72
5
7
iso_b_vert
0
LINE
5
120
100
AcDbEntity
8
SK2
62
256
6
ByLayer
370
13
48
1
60
0
100
AcDbLine
10
-0.85
20
-6
30
0
11
-18.107785
21
-6
31
0
39
0
210
0
220
0
230
1
0
LINE
5
121
100
AcDbEntity
8
SK2
62
256
6
ByLayer
370
13
48
1
60
0
100
AcDbLine
10
-0.85
20
6
30
0
11
-18.107785
21
6
31
0
39
0
210
0
220
0
230
1
0
LINE
5
122
100
AcDbEntity
8
SK2
62
256
6
ByLayer
370
13
48
1
60
0
100
AcDbLine
10
-16.107785
20
-6
30
0
11
-16.107785
21
6
31
0
39
0
210
0
220
0
230
1
0
SOLID
5
123
100
AcDbEntity
8
SK2
62
256
6
ByLayer
370
13
48
1
60
0
100
AcDbTrace
10
-16.107785
20
-6
30
0
11
-17.045607
21
-2.500003
31
0
12
-15.169963
22
-2.499997
32
0
13
-16.107785
23
-6
33
0
39
0
210
0
220
0
230
1
0
SOLID
5
124
100
AcDbEntity
8
SK2
62
256
6
ByLayer
370
13
48
1
60
0
100
AcDbTrace
10
-16.107785
20
6
30
0
11
-15.169963
21
2.500003
31
0
12
-17.045607
22
2.499997
32
0
13
-16.107785
23
6
33
0
39
0
210
0
220
0
230
1
0
ENDBLK
5
126
100
AcDbEntity
8
0
100
AcDbBlockEnd
0
ENDSEC
0
SECTION
2
ENTITIES
0
ELLIPSE
5
A4
100
AcDbEntity
8
1
62
256
6
ByLayer
370
13
48
1
60
0
100
AcDbEllipse
10
2.716413
20
-0.164502
30
0
11
0.420598174538025
21
6.94533219922456
31
0
210
0
220
0
230
1
40
0.034878
41
-2.04198839904777
42
-1.4657065602657
0
ELLIPSE
5
A5
100
AcDbEntity
8
1
62
256
6
ByLayer
370
18
48
1
60
0
100
AcDbEllipse
10
1.492135
20
-0.090361
30
0
11
0.420488188697971
21
6.94351600447472
31
0
210
0
220
0
230
1
40
0.034878
41
-2.05435093683722
42
-1.48535043725308
0
ELLIPSE
5
A6
100
AcDbEntity
8
1
62
256
6
ByLayer
370
18
48
1
60
0
100
AcDbEllipse
10
1.319773
20
-0.079923
30
0
11
0.402345220516368
21
6.64392140628228
31
0
210
0
220
0
230
1
40
0.034878
41
-2.05043938682964
42
-1.42955457979902
0
ELLIPSE
5
A7
100
AcDbEntity
8
1
62
256
6
ByLayer
370
13
48
1
60
0
100
AcDbEllipse
10
2.802595
20
-0.169721
30
0
11
0.423629512724446
21
6.99538864736777
31
0
210
0
220
0
230
1
40
0.034878
41
-2.04212144405901
42
-1.47440867468694
0
POINT
5
6C
100
AcDbEntity
8
81
62
256
6
ByLayer
370
18
48
1
60
0
100
AcDbPoint
10
4.1
20
8.85
30
0
39
0
210
0
220
0
230
1
50
360
0
POINT
5
6E
100
AcDbEntity
8
SK2
62
256
6
ByLayer
370
18
48
1
60
1
100
AcDbPoint
10
4.1
20
-8.85
30
0
39
0
210
0
220
0
230
1
50
360
0
POINT
5
70
100
AcDbEntity
8
80
62
256
6
ByLayer
370
18
48
1
60
0
100
AcDbPoint
10
0
20
0
30
0
39
0
210
0
220
0
230
1
50
360
0
POINT
5
72
100
AcDbEntity
8
SK2
62
256
6
ByLayer
370
18
48
1
60
1
100
AcDbPoint
10
-0.85
20
6
30
0
39
0
210
0
220
0
230
1
50
360
0
POINT
5
73
100
AcDbEntity
8
SK2
62
256
6
ByLayer
370
18
48
1
60
1
100
AcDbPoint
10
-0.85
20
-6
30
0
39
0
210
0
220
0
230
1
50
360
0
POINT
5
74
100
AcDbEntity
8
1
62
256
6
ByLayer
370
18
48
1
60
1
100
AcDbPoint
10
0
20
0
30
0
39
0
210
0
220
0
230
1
50
360
0
POINT
5
76
100
AcDbEntity
8
1
62
256
6
ByLayer
370
18
48
1
60
1
100
AcDbPoint
10
0
20
6.439706
30
0
39
0
210
0
220
0
230
1
50
360
0
SPLINE
5
A8
100
AcDbEntity
8
SK1
62
256
6
ByLayer
370
18
48
1
60
0
100
AcDbSpline
70
4
71
3
72
8
73
4
40
0
40
0
40
0
40
0
40
1
40
1
40
1
40
1
41
1
10
-0.85000000045892
20
-5.69681950293446
30
0
41
0.99971625934327
10
-0.612449668323261
20
-5.80844084900709
30
0
41
0.99971625934327
10
-0.372782583027212
20
-5.91774513983072
30
0
41
1
10
-0.131202754459366
20
-6.0246393331916
30
0
0
SPLINE
5
A9
100
AcDbEntity
8
1
62
256
6
ByLayer
370
18
48
1
60
0
100
AcDbSpline
70
4
71
3
72
8
73
4
40
0
40
0
40
0
40
0
40
1
40
1
40
1
40
1
41
1
10
4.31874999954107
20
-4.42499999977667
30
0
41
1
10
4.32219336323789
20
-4.27046136618608
30
0
41
1
10
4.32296496854849
20
-4.11585154669356
30
0
41
1
10
4.32098493355016
20
-3.96129115765874
30
0
0
SPLINE
5
AA
100
AcDbEntity
8
1
62
256
6
ByLayer
370
18
48
1
60
0
100
AcDbSpline
70
4
71
3
72
8
73
4
40
0
40
0
40
0
40
0
40
1
40
1
40
1
40
1
41
1
10
3.8978640500674
20
-3.96129115765874
30
0
41
1
10
3.88956786378591
20
-4.11575615039143
30
0
41
1
10
3.88404158884171
20
-4.27036769511267
30
0
41
1
10
3.88124999954107
20
-4.42499999977667
30
0
0
SPLINE
5
AB
100
AcDbEntity
8
1
62
256
6
ByLayer
370
18
48
1
60
0
100
AcDbSpline
70
4
71
3
72
8
73
4
40
0
40
0
40
0
40
0
40
1
40
1
40
1
40
1
41
1
10
4.32098493355016
20
-3.96129115765874
30
0
41
1
10
4.37778104896898
20
-3.4953094777884
30
0
41
1
10
4.41530673482512
20
-3.02787304369133
30
0
41
1
10
4.43015879896964
20
-2.55872494318265
30
0
0
SPLINE
5
AC
100
AcDbEntity
8
1
62
256
6
ByLayer
370
18
48
1
60
0
100
AcDbSpline
70
4
71
3
72
8
73
4
40
0
40
0
40
0
40
0
40
1
40
1
40
1
40
1
41
1
10
3.84209538404286
20
-2.55872494318265
30
0
41
1
10
3.83865333735366
20
-3.02709661736537
30
0
41
1
10
3.85810156878196
20
-3.49458557580857
30
0
41
1
10
3.8978640500674
20
-3.96129115765874
30
0
0
SPLINE
5
AD
100
AcDbEntity
8
1
62
256
6
ByLayer
370
18
48
1
60
0
100
AcDbSpline
70
4
71
3
72
18
73
14
40
0
40
0
40
0
40
0
40
0.286666387254351
40
0.286666387254351
40
0.429999579652879
40
0.429999579652879
40
0.573332772256288
40
0.573332772256288
40
0.716665965152861
40
0.716665965152861
40
0.92028491143104
40
0.92028491143104
40
1
40
1
40
1
40
1
41
1
10
4.31874999954107
20
-4.42499999977667
30
0
41
1
10
4.46494003401023
20
-4.27809266406868
30
0
41
1
10
4.61115565562145
20
-4.13119370352058
30
0
41
1
10
4.83052957766276
20
-3.91086180282312
30
0
41
1
10
4.90366267647195
20
-3.83742060642021
30
0
41
1
10
5.04994845986187
20
-3.69054463158378
30
0
41
1
10
5.12310113994076
20
-3.61710985107956
30
0
41
1
10
5.26942933764073
20
-3.47024777652717
30
0
41
1
10
5.34260484913099
20
-3.39682047965556
30
0
41
1
10
5.51976589363062
20
-3.21909312015239
30
0
41
1
10
5.62376497302876
20
-3.11479749710324
30
0
41
1
10
5.76852688905237
20
-2.96968680497119
30
0
41
1
10
5.80926049575717
20
-2.92886214098414
30
0
41
1
10
5.84999999954107
20
-2.88803941328126
30
0
0
SPLINE
5
AE
100
AcDbEntity
8
1
62
256
6
ByLayer
370
18
48
1
60
0
100
AcDbSpline
70
4
71
3
72
18
73
14
40
0
40
0
40
0
40
0
40
0.25
40
0.25
40
0.375
40
0.375
40
0.5
40
0.5
40
0.75
40
0.75
40
0.875
40
0.875
40
1
40
1
40
1
40
1
41
1
10
5.84999999954107
20
-2.88803941328126
30
0
41
1
10
5.84999999954107
20
-2.55170971654158
30
0
41
1
10
5.84999999954107
20
-2.20638178245704
30
0
41
1
10
5.84999999954107
20
-1.67532070654443
30
0
41
1
10
5.84999999954107
20
-1.49610925837482
30
0
41
1
10
5.84999999954107
20
-1.13322124687821
30
0
41
1
10
5.84999999954107
20
-0.948908924140653
30
0
41
1
10
5.84999999954107
20
-0.399036566517367
30
0
41
1
10
5.84999999954107
20
-0.0338174874588333
30
0
41
1
10
5.84999999954107
20
0.511998029473915
30
0
41
1
10
5.84999999954107
20
0.693599102786266
30
0
41
1
10
5.84999999954107
20
1.05610765955032
30
0
41
1
10
5.84999999954107
20
1.23710758462593
30
0
41
1
10
5.84999999954107
20
1.41561013476496
30
0
0
SPLINE
5
AF
100
AcDbEntity
8
1
62
256
6
ByLayer
370
18
48
1
60
0
100
AcDbSpline
70
4
71
3
72
8
73
4
40
0
40
0
40
0
40
0
40
1
40
1
40
1
40
1
41
1
10
5.84999999954107
20
1.41561013476496
30
0
41
1
10
5.83061041901888
20
1.38854766393826
30
0
41
1
10
5.81107967816172
20
1.36151834189934
30
0
41
1
10
5.79141685152266
20
1.33452081048444
30
0
0
SPLINE
5
B0
100
AcDbEntity
8
1
62
256
6
ByLayer
370
18
48
1
60
0
100
AcDbSpline
70
4
71
3
72
18
73
14
40
0
40
0
40
0
40
0
40
0.25
40
0.25
40
0.375
40
0.375
40
0.5
40
0.5
40
0.75
40
0.75
40
0.875
40
0.875
40
1
40
1
40
1
40
1
41
1
10
5.79141685152266
20
1.33452081048444
30
0
41
1
10
5.65080535728836
20
1.14145786472591
30
0
41
1
10
5.5196716529714
20
0.922474275174324
30
0
41
1
10
5.33460534856727
20
0.555398690981121
30
0
41
1
10
5.27487158228672
20
0.42656612364496
30
0
41
1
10
5.15904658451356
20
0.155465452136838
30
0
41
1
10
5.1026735405317
20
0.0123440606841143
30
0
41
1
10
4.94213853763111
20
-0.428768231708346
30
0
41
1
10
4.84563593805649
20
-0.739858963903174
30
0
41
1
10
4.71446466732067
20
-1.23205774356458
30
0
41
1
10
4.67302462276035
20
-1.40041462725182
30
0
41
1
10
4.59457025812785
20
-1.74612874835302
30
0
41
1
10
4.55797303117765
20
-1.92167603044606
30
0
41
1
10
4.52397284177167
20
-2.09937285332649
30
0
0
SPLINE
5
B1
100
AcDbEntity
8
1
62
256
6
ByLayer
370
18
48
1
60
0
100
AcDbSpline
70
4
71
3
72
8
73
4
40
0
40
0
40
0
40
0
40
1
40
1
40
1
40
1
41
1
10
4.52397284177164
20
-2.09937285332666
30
0
41
1
10
4.49460500387158
20
-2.25285939504545
30
0
41
1
10
4.46326966882455
20
-2.40598729767513
30
0
41
1
10
4.43015879896964
20
-2.55872494318265
30
0
0
SPLINE
5
B2
100
AcDbEntity
8
1
62
256
6
ByLayer
370
18
48
1
60
0
100
AcDbSpline
70
4
71
3
72
20
73
16
40
0
40
0
40
0
40
0
40
0.249656335347985
40
0.249656335347985
40
0.374471267449322
40
0.374471267449322
40
0.499286183311395
40
0.499286183311395
40
0.624101082921245
40
0.624101082921245
40
0.74891596627045
40
0.74891596627045
40
0.874449258784167
40
0.874449258784167
40
1
40
1
40
1
40
1
41
1
10
1.76931421516179
20
-6.19726633098298
30
0
41
1
10
1.75619618373838
20
-6.18974137507408
30
0
41
1
10
1.74295365398373
20
-6.181739269769
30
0
41
1
10
1.72290874491293
20
-6.16903015202044
30
0
41
1
10
1.71619675341489
20
-6.16467603343347
30
0
41
1
10
1.70271247560285
20
-6.15573366643611
30
0
41
1
10
1.69593995361996
20
-6.1511452617909
30
0
41
1
10
1.68233503725148
20
-6.14173571907111
30
0
41
1
10
1.67550240615097
20
-6.13691441733107
30
0
41
1
10
1.66177769724874
20
-6.12704050793153
30
0
41
1
10
1.65488538172016
20
-6.12198772929813
30
0
41
1
10
1.64100189270616
20
-6.11162258011276
30
0
41
1
10
1.63401013638753
20
-6.10630870203013
30
0
41
1
10
1.61996638861902
20
-6.09544920344405
30
0
41
1
10
1.61291414502222
20
-6.08990336225506
30
0
41
1
10
1.60583248513168
20
-6.08424276705514
30
0
0
SPLINE
5
B3
100
AcDbEntity
8
1
62
256
6
ByLayer
370
18
48
1
60
0
100
AcDbSpline
70
4
71
3
72
12
73
8
40
0
40
0
40
0
40
0
40
0.499999854513562
40
0.499999854513562
40
0.749999907835877
40
0.749999907835877
40
1
40
1
40
1
40
1
41
1
10
1.60583248513168
20
-6.08424276705514
30
0
41
1
10
1.35486719064735
20
-6.08899605644154
30
0
41
1
10
1.1038985989274
20
-6.09365289691982
30
0
41
1
10
0.727440587095799
20
-6.10049448986175
30
0
41
1
10
0.601953686632328
20
-6.1027510785859
30
0
41
1
10
0.350978150694914
20
-6.10721655666663
30
0
41
1
10
0.225489510345881
20
-6.10942544611189
30
0
41
1
10
0.099999999541069
20
-6.11161058523908
30
0
0
SPLINE
5
B4
100
AcDbEntity
8
1
62
256
6
ByLayer
370
18
48
1
60
0
100
AcDbSpline
70
4
71
3
72
16
73
12
40
0
40
0
40
0
40
0
40
0.40243741780016
40
0.40243741780016
40
0.620397443991702
40
0.620397443991702
40
0.80589068757511
40
0.80589068757511
40
0.963377307468178
40
0.963377307468178
40
1
40
1
40
1
40
1
41
1
10
3.08621831545267
20
-6.19697409976649
30
0
41
1
10
3.08115028315456
20
-6.19401566784242
30
0
41
1
10
3.07410711684349
20
-6.19103502360704
30
0
41
1
10
3.05907365647752
20
-6.18694421563933
30
0
41
1
10
3.05286746223271
20
-6.18558150012558
30
0
41
1
10
3.03970986598779
20
-6.18348282491422
30
0
41
1
10
3.03285902771827
20
-6.18266830684877
30
0
41
1
10
3.01936616017022
20
-6.18168392948411
30
0
41
1
10
3.01270030273466
20
-6.18142965583672
30
0
41
1
10
3.00454701477994
20
-6.18140825461936
30
0
41
1
10
3.0029894115298
20
-6.18141677121372
30
0
41
1
10
3.00143719932444
20
-6.18143765335665
30
0
0
SPLINE
5
B5
100
AcDbEntity
8
1
62
256
6
ByLayer
370
18
48
1
60
0
100
AcDbSpline
70
4
71
3
72
20
73
16
40
0
40
0
40
0
40
0
40
0.124999964209372
40
0.124999964209372
40
0.249999928418955
40
0.249999928418955
40
0.374999892628737
40
0.374999892628737
40
0.499999856838701
40
0.499999856838701
40
0.624999821048832
40
0.624999821048832
40
0.749999785259114
40
0.749999785259114
40
1
40
1
40
1
40
1
41
1
10
3.00143719932444
20
-6.18143765335665
30
0
41
1
10
2.95010003603341
20
-6.18212829989159
30
0
41
1
10
2.89876271472423
20
-6.18281503019964
30
0
41
1
10
2.79608775513262
20
-6.18418067768869
30
0
41
1
10
2.74475011650239
20
-6.18485959487447
30
0
41
1
10
2.64207452066432
20
-6.18620963577152
30
0
41
1
10
2.59073656310855
20
-6.18688075948751
30
0
41
1
10
2.48806032784276
20
-6.18821523340992
30
0
41
1
10
2.43672204978475
20
-6.18887858362098
30
0
41
1
10
2.33404517196561
20
-6.19019753080701
30
0
41
1
10
2.28270657185644
20
-6.1908531277866
30
0
41
1
10
2.18002904841396
20
-6.19215658908803
30
0
41
1
10
2.12869012473254
20
-6.19280445341442
30
0
41
1
10
1.97467275006167
20
-6.19473648018811
30
0
41
1
10
1.87199380989153
20
-6.19600907481251
30
0
41
1
10
1.76931421516179
20
-6.19726633098298
30
0
0
SPLINE
5
B6
100
AcDbEntity
8
1
62
256
6
ByLayer
370
18
48
1
60
0
100
AcDbSpline
70
4
71
3
72
8
73
4
40
0
40
0
40
0
40
0
40
1
40
1
40
1
40
1
41
1
10
3.35899117440911
20
-6.28442405793456
30
0
41
1
10
3.2758817564731
20
-6.28434480961505
30
0
41
1
10
3.18525321720716
20
-6.25478509971936
30
0
41
1
10
3.08621831545267
20
-6.19697409976646
30
0
0
SPLINE
5
B7
100
AcDbEntity
8
1
62
256
6
ByLayer
370
18
48
1
60
0
100
AcDbSpline
70
4
71
3
72
8
73
4
40
0
40
0
40
0
40
0
40
1
40
1
40
1
40
1
41
1
10
2.74132667394582
20
-3.33039937003292
30
0
41
1
10
2.77654988948257
20
-3.33036527251926
30
0
41
1
10
2.81026285127439
20
-3.34168533901706
30
0
41
1
10
2.82762253034781
20
-3.35926244850191
30
0
0
SPLINE
5
B8
100
AcDbEntity
8
1
62
256
6
ByLayer
370
18
48
1
60
0
100
AcDbSpline
70
4
71
3
72
16
73
12
40
0
40
0
40
0
40
0
40
0.402437417800172
40
0.402437417800172
40
0.620397443991725
40
0.620397443991725
40
0.805890687575118
40
0.805890687575118
40
0.963377307468178
40
0.963377307468178
40
1
40
1
40
1
40
1
41
1
10
3.08621831545267
20
0.48879801736544
30
0
41
1
10
3.08115028315456
20
0.500919124898132
30
0
41
1
10
3.07410711684349
20
0.512753527483738
30
0
41
1
10
3.05907365647752
20
0.528628901332183
30
0
41
1
10
3.05286746223271
20
0.533840357122756
30
0
41
1
10
3.03970986598779
20
0.541796086837735
30
0
41
1
10
3.03285902771825
20
0.544852108721898
30
0
41
1
10
3.01936616017022
20
0.548534198647616
30
0
41
1
10
3.01270030273466
20
0.549479994750953
30
0
41
1
10
3.00454701477994
20
0.549559716714015
30
0
41
1
10
3.0029894115298
20
0.549527995845125
30
0
41
1
10
3.00143719932444
20
0.54945019629335
30
0
0
SPLINE
5
B9
100
AcDbEntity
8
1
62
256
6
ByLayer
370
18
48
1
60
0
100
AcDbSpline
70
4
71
3
72
20
73
16
40
0
40
0
40
0
40
0
40
0.124999999999641
40
0.124999999999641
40
0.249999999999283
40
0.249999999999283
40
0.374999999998924
40
0.374999999998924
40
0.499999999998565
40
0.499999999998565
40
0.624999999998207
40
0.624999999998207
40
0.749999999997848
40
0.749999999997848
40
1
40
1
40
1
40
1
41
1
10
1.51104906200976
20
-3.3315888559267
30
0
41
1
10
1.5623106293537
20
-3.33153935531109
30
0
41
1
10
1.61357219667517
20
-3.33148984704405
30
0
41
1
10
1.71609533127312
20
-3.33139081519906
30
0
41
1
10
1.76735689854965
20
-3.33134129162113
30
0
41
1
10
1.86988003305766
20
-3.33124222914645
30
0
41
1
10
1.92114160028919
20
-3.33119269024971
30
0
41
1
10
2.02366473470718
20
-3.33109359712938
30
0
41
1
10
2.07492630189367
20
-3.33104404290583
30
0
41
1
10
2.17744943622159
20
-3.33094491912391
30
0
41
1
10
2.228711003363
20
-3.33089534956557
30
0
41
1
10
2.33123413760074
20
-3.33079619510608
30
0
41
1
10
2.38249570469708
20
-3.33074661020496
30
0
41
1
10
2.53628040591948
20
-3.33059783247546
30
0
41
1
10
2.63880353997786
20
-3.33049861662096
30
0
41
1
10
2.74132667394582
20
-3.33039937003292
30
0
0
SPLINE
5
BA
100
AcDbEntity
8
1
62
256
6
ByLayer
370
18
48
1
60
0
100
AcDbSpline
70
4
71
3
72
20
73
16
40
0
40
0
40
0
40
0
40
0.124999964209372
40
0.124999964209372
40
0.249999928418956
40
0.249999928418956
40
0.374999892628738
40
0.374999892628738
40
0.499999856838701
40
0.499999856838701
40
0.624999821048832
40
0.624999821048832
40
0.749999785259115
40
0.749999785259115
40
1
40
1
40
1
40
1
41
1
10
3.00143719932444
20
0.54945019629335
30
0
41
1
10
2.95010003603341
20
0.54687708916299
30
0
41
1
10
2.89876271472423
20
0.544303411268231
30
0
41
1
10
2.79608775513262
20
0.539154967053037
30
0
41
1
10
2.74475011650239
20
0.536580200715349
30
0
41
1
10
2.64207452066429
20
0.531429632537822
30
0
41
1
10
2.59073656310855
20
0.528853830680674
30
0
41
1
10
2.48806032784276
20
0.523701244238453
30
0
41
1
10
2.43672204978475
20
0.521124459636042
30
0
41
1
10
2.33404517196561
20
0.515969960323901
30
0
41
1
10
2.28270657185644
20
0.513392245596833
30
0
41
1
10
2.18002904841396
20
0.508235938498473
30
0
41
1
10
2.12869012473254
20
0.505657346109786
30
0
41
1
10
1.97467275006167
20
0.497920325074546
30
0
41
1
10
1.87199380989153
20
0.492760658390097
30
0
41
1
10
1.76931421516179
20
0.487599549340274
30
0
0
SPLINE
5
BB
100
AcDbEntity
8
1
62
256
6
ByLayer
370
18
48
1
60
0
100
AcDbSpline
70
4
71
3
72
20
73
16
40
0
40
0
40
0
40
0
40
0.249999999250621
40
0.249999999250621
40
0.374999998844688
40
0.374999998844688
40
0.499999998438486
40
0.499999998438486
40
0.624999998032026
40
0.624999998032026
40
0.749999997625316
40
0.749999997625316
40
0.874999998795798
40
0.874999998795798
40
1
40
1
40
1
40
1
41
1
10
1.33968532423972
20
-3.15829376652732
30
0
41
1
10
1.35396385993152
20
-3.1727356015912
30
0
41
1
10
1.36824285965633
20
-3.1871772857221
30
0
41
1
10
1.38966203211319
20
-3.20883959302967
30
0
41
1
10
1.39680186842179
20
-3.21606032564759
30
0
41
1
10
1.41108176161774
20
-3.23050171912604
30
0
41
1
10
1.41822181850577
20
-3.23772237998705
30
0
41
1
10
1.43250214920923
20
-3.25216363113665
30
0
41
1
10
1.43964242302528
20
-3.25938422142576
30
0
41
1
10
1.45392318401358
20
-3.2738253325906
30
0
41
1
10
1.46106367118639
20
-3.28104585346685
30
0
41
1
10
1.47534485548493
20
-3.29548682703094
30
0
41
1
10
1.48248555261122
20
-3.3027072797193
30
0
41
1
10
1.496767153311
20
-3.31714811792779
30
0
41
1
10
1.50390805688502
20
-3.32436850344843
30
0
41
1
10
1.51104906200976
20
-3.3315888559267
30
0
0
SPLINE
5
BC
100
AcDbEntity
8
1
62
256
6
ByLayer
370
18
48
1
60
0
100
AcDbSpline
70
4
71
3
72
20
73
16
40
0
40
0
40
0
40
0
40
0.249656335347987
40
0.249656335347987
40
0.374471267449323
40
0.374471267449323
40
0.499286183311395
40
0.499286183311395
40
0.624101082921246
40
0.624101082921246
40
0.74891596627045
40
0.74891596627045
40
0.874449258784166
40
0.874449258784166
40
1
40
1
40
1
40
1
41
1
10
1.76931421516179
20
0.487599549340274
30
0
41
1
10
1.75619618373838
20
0.518489927095459
30
0
41
1
10
1.74295365398373
20
0.549031453412567
30
0
41
1
10
1.72290874491293
20
0.594302380407044
30
0
41
1
10
1.71619675341489
20
0.609302879223321
30
0
41
1
10
1.70271247560285
20
0.639122533152175
30
0
41
1
10
1.69593995361996
20
0.653942209479141
30
0
41
1
10
1.68233503725148
20
0.683398529161508
30
0
41
1
10
1.67550240615097
20
0.698035685081408
30
0
41
1
10
1.66177769724874
20
0.727125316582317
30
0
41
1
10
1.65488538172016
20
0.74157829607509
30
0
41
1
10
1.64100189270616
20
0.770380620454716
30
0
41
1
10
1.63401013638753
20
0.78472939241783
30
0
41
1
10
1.61996638861899
20
0.813238888945676
30
0
41
1
10
1.61291414502222
20
0.827400082251643
30
0
41
1
10
1.60583248513168
20
0.841465459866555
30
0
0
SPLINE
5
BD
100
AcDbEntity
8
1
62
256
6
ByLayer
370
18
48
1
60
0
100
AcDbSpline
70
4
71
3
72
8
73
4
40
0
40
0
40
0
40
0
40
1
40
1
40
1
40
1
41
1
10
0.099999999541069
20
-1.81705495992369
30
0
41
1
10
0.099999999541069
20
-2.28439761240617
30
0
41
1
10
0.099999999541069
20
-2.73195704118709
30
0
41
1
10
0.099999999541069
20
-3.15974192510856
30
0
0
SPLINE
5
BE
100
AcDbEntity
8
1
62
256
6
ByLayer
370
18
48
1
60
0
100
AcDbSpline
70
4
71
3
72
14
73
10
40
0
40
0
40
0
40
0
40
0.189500776479833
40
0.189500776479833
40
0.459667184317948
40
0.459667184317948
40
0.729833592158682
40
0.729833592158682
40
1
40
1
40
1
40
1
41
1
10
0.099999999541069
20
-3.15974192510856
30
0
41
1
10
0.17830711051451
20
-3.15965057141219
30
0
41
1
10
0.256614221406096
20
-3.1595591946265
30
0
41
1
10
0.446561776274024
20
-3.15933748824005
30
0
41
1
10
0.558202220165725
20
-3.1592071347778
30
0
41
1
10
0.781483107616225
20
-3.15894633379557
30
0
41
1
10
0.89312355117508
20
-3.15881588627553
30
0
41
1
10
1.11640443795838
20
-3.15855489706126
30
0
41
1
10
1.22804488118288
20
-3.15842435536703
30
0
41
1
10
1.33968532423972
20
-3.15829376652732
30
0
0
SPLINE
5
BF
100
AcDbEntity
8
1
62
256
6
ByLayer
370
18
48
1
60
0
100
AcDbSpline
70
4
71
3
72
12
73
8
40
0
40
0
40
0
40
0
40
0.499999854513562
40
0.499999854513562
40
0.749999907835877
40
0.749999907835877
40
1
40
1
40
1
40
1
41
1
10
1.60583248513168
20
0.841465459866555
30
0
41
1
10
1.35486719064735
20
0.82965454462331
30
0
41
1
10
1.1038985989274
20
0.817814654045947
30
0
41
1
10
0.727440587095799
20
0.800015872129052
30
0
41
1
10
0.601953686632328
20
0.794076451537848
30
0
41
1
10
0.350978150694914
20
0.782185377094919
30
0
41
1
10
0.225489510345881
20
0.776233723022841
30
0
41
1
10
0.099999999541069
20
0.770276326008371
30
0
0
SPLINE
5
C0
100
AcDbEntity
8
1
62
256
6
ByLayer
370
18
48
1
60
0
100
AcDbSpline
70
4
71
3
72
8
73
4
40
0
40
0
40
0
40
0
40
1
40
1
40
1
40
1
41
1
10
0.099999999541069
20
0.770276326008371
30
0
41
1
10
0.099999999541069
20
0.739392525142591
30
0
41
1
10
0.099999999541069
20
0.708495483025587
30
0
41
1
10
0.0999999995417227
20
0.677585226812852
30
0
0
SPLINE
5
C1
100
AcDbEntity
8
SK1
62
256
6
ByLayer
370
18
48
1
60
0
100
AcDbSpline
70
4
71
3
72
10
73
6
40
0
40
0
40
0
40
0
40
0.5
40
0.5
40
1
40
1
40
1
40
1
41
1
10
-0.131202754459395
20
0.541705991937363
30
0
41
1
10
-0.135923123688883
20
0.170005357235368
30
0
41
1
10
-0.140671107925726
20
-0.201711742752565
30
0
41
1
10
-0.150008913595059
20
-0.94430609301466
30
0
41
1
10
-0.154537049687491
20
-1.31029067185432
30
0
41
1
10
-0.158820006447002
20
-1.67096463662637
30
0
0
SPLINE
5
C2
100
AcDbEntity
8
1
62
256
6
ByLayer
370
18
48
1
60
0
100
AcDbSpline
70
4
71
3
72
18
73
14
40
0
40
0
40
0
40
0
40
0.230924338870169
40
0.230924338870169
40
0.346386507038255
40
0.346386507038255
40
0.461848675166528
40
0.461848675166528
40
0.692773012605144
40
0.692773012605144
40
0.808235180682861
40
0.808235180682861
40
1
40
1
40
1
40
1
41
1
10
2.82762253034781
20
-3.35926244850191
30
0
41
1
10
2.90866274268538
20
-3.44131769151133
30
0
41
1
10
2.98972116343009
20
-3.52336701884619
30
0
41
1
10
3.11133163574735
20
-3.64643358260889
30
0
41
1
10
3.15187227810256
20
-3.68745452907885
30
0
41
1
10
3.23296057444853
20
-3.76949414184455
30
0
41
1
10
3.2735082288466
20
-3.81051280813992
30
0
41
1
10
3.39516087264599
20
-3.93356565852338
30
0
41
1
10
3.47627551850138
20
-4.01559670226615
30
0
41
1
10
3.59796395890646
20
-4.13863790764555
30
0
41
1
10
3.6385295241266
20
-4.17965074735389
30
0
41
1
10
3.746475006314
20
-4.28877736917744
30
0
41
1
10
3.81385939840425
20
-4.35688969511995
30
0
41
1
10
3.88124999954107
20
-4.42499999977667
30
0
0
SPLINE
5
C3
100
AcDbEntity
8
1
62
256
6
ByLayer
370
18
48
1
60
0
100
AcDbSpline
70
4
71
3
72
8
73
4
40
0
40
0
40
0
40
0
40
1
40
1
40
1
40
1
41
1
10
3.84209538404286
20
-2.55872494318265
30
0
41
1
10
3.81437420080277
20
-2.40594478381431
30
0
41
1
10
3.78856127614188
20
-2.25281087484359
30
0
41
1
10
3.76483290330668
20
-2.09937285332666
30
0
0
SPLINE
5
C4
100
AcDbEntity
8
1
62
256
6
ByLayer
370
18
48
1
60
0
100
AcDbSpline
70
4
71
3
72
16
73
12
40
0
40
0
40
0
40
0
40
0.25
40
0.25
40
0.5
40
0.5
40
0.625
40
0.625
40
0.75
40
0.75
40
1
40
1
40
1
40
1
41
1
10
3.76483290330668
20
-2.09937285332666
30
0
41
1
10
3.72718689614072
20
-1.85593733005331
30
0
41
1
10
3.68496643807754
20
-1.61884516204341
30
0
41
1
10
3.59107534922575
20
-1.15673888961373
30
0
41
1
10
3.53940647050868
20
-0.931728026220952
30
0
41
1
10
3.45411715452525
20
-0.60338426664012
30
0
41
1
10
3.42427881732561
20
-0.495131648286787
30
0
41
1
10
3.36256865768263
20
-0.284283380573129
30
0
41
1
10
3.33066187688664
20
-0.181505977122299
30
0
41
1
10
3.23167856140327
20
0.119051449398398
30
0
41
1
10
3.16135651956046
20
0.309091535987449
30
0
41
1
10
3.08621831545267
20
0.48879801736544
30
0
0
SPLINE
5
C5
100
AcDbEntity
8
SK1
62
256
6
ByLayer
370
18
48
1
60
0
100
AcDbSpline
70
4
71
3
72
8
73
4
40
0
40
0
40
0
40
0
40
1
40
1
40
1
40
1
41
1
10
-0.850000000458948
20
0.137840501381703
30
0
41
0.999716259343268
10
-0.612449668323063
20
0.270961971937463
30
0
41
0.999716259343268
10
-0.372782583027014
20
0.405622010650465
30
0
41
1
10
-0.131202754459395
20
0.541705991937363
30
0
0
SPLINE
5
C6
100
AcDbEntity
8
SK1
62
256
6
ByLayer
370
18
48
1
60
0
100
AcDbSpline
70
4
71
3
72
8
73
4
40
0
40
0
40
0
40
0
40
1
40
1
40
1
40
1
41
1
10
-0.131202754459395
20
0.541705991937363
30
0
41
1
10
-0.0874511690088447
20
0.567390989848246
30
0
41
1
10
-0.0437168911480651
20
0.59308169724656
30
0
41
1
10
-4.1751E-12
20
0.618778140235034
30
0
0
SPLINE
5
C7
100
AcDbEntity
8
SK1
62
256
6
ByLayer
370
18
48
1
60
0
100
AcDbSpline
70
4
71
3
72
8
73
4
40
0
40
0
40
0
40
0
40
1
40
1
40
1
40
1
41
0.997604723490247
10
-0.0046546982876288
20
1.03581786338962
30
0
41
0.992530642268726
10
-0.266206626877476
20
1.19565683335306
30
0
41
0.993329067771977
10
-0.549670533044876
20
1.34181332729673
30
0
41
1
10
-0.85000000045892
20
1.47174520355338
30
0
0
SPLINE
5
C8
100
AcDbEntity
8
1
62
256
6
ByLayer
370
18
48
1
60
0
100
AcDbSpline
70
4
71
3
72
8
73
4
40
0
40
0
40
0
40
0
40
1
40
1
40
1
40
1
41
1
10
5.84999999954107
20
-5.75137229054582
30
0
41
1
10
5.83061041901888
20
-5.77131225609244
30
0
41
1
10
5.81107967816169
20
-5.79122779719938
30
0
41
1
10
5.79141685152263
20
-5.81111991457854
30
0
0
SPLINE
5
C9
100
AcDbEntity
8
1
62
256
6
ByLayer
370
18
48
1
60
0
100
AcDbSpline
70
4
71
3
72
14
73
10
40
0
40
0
40
0
40
0
40
0.598245305864131
40
0.598245305864131
40
0.747806632330164
40
0.747806632330164
40
0.897367958796197
40
0.897367958796197
40
1
40
1
40
1
40
1
41
1
10
5.79141685152263
20
-5.81111991457854
30
0
41
1
10
5.61015019783713
20
-5.99450034193171
30
0
41
1
10
5.44454971878619
20
-6.12621655060329
30
0
41
1
10
5.25287917454475
20
-6.22355343304315
30
0
41
1
10
5.21532376132944
20
-6.23960980941229
30
0
41
1
10
5.14170866085865
20
-6.26463267312795
30
0
41
1
10
5.1055694034126
20
-6.27359797703235
30
0
41
1
10
5.04645990281438
20
-6.28238084715522
30
0
41
1
10
5.0228800233333
20
-6.2842107506907
30
0
41
1
10
4.99976174174802
20
-6.28427377185906
30
0
0
SPLINE
5
CA
100
AcDbEntity
8
1
62
256
6
ByLayer
370
18
48
1
60
0
100
AcDbSpline
70
4
71
3
72
14
73
10
40
0
40
0
40
0
40
0
40
0.189500776479831
40
0.189500776479831
40
0.459667184317947
40
0.459667184317947
40
0.729833592158681
40
0.729833592158681
40
1
40
1
40
1
40
1
41
1
10
0.099999999541069
20
6.65248401835899
30
0
41
1
10
0.17830711051451
20
6.65232535412136
30
0
41
1
10
0.256614221406096
20
6.65216664978195
30
0
41
1
10
0.446561776274024
20
6.65178158736879
30
0
41
1
10
0.558202220165725
20
6.65155518785215
30
0
41
1
10
0.781483107616225
20
6.65110222545812
30
0
41
1
10
0.89312355117508
20
6.65087566258072
30
0
41
1
10
1.11640443795838
20
6.65042237326295
30
0
41
1
10
1.22804488118288
20
6.6501956468226
30
0
41
1
10
1.33968532423972
20
6.64996883849943
30
0
0
SPLINE
5
CB
100
AcDbEntity
8
1
62
256
6
ByLayer
370
18
48
1
60
0
100
AcDbSpline
70
4
71
3
72
20
73
16
40
0
40
0
40
0
40
0
40
0.249999999250621
40
0.249999999250621
40
0.374999998844685
40
0.374999998844685
40
0.499999998438481
40
0.499999998438481
40
0.62499999803202
40
0.62499999803202
40
0.749999997625309
40
0.749999997625309
40
0.874999998795795
40
0.874999998795795
40
1
40
1
40
1
40
1
41
1
10
1.33968532423972
20
6.64996883849943
30
0
41
1
10
1.35396385993152
20
6.6750515974999
30
0
41
1
10
1.36824285965633
20
6.70013409435813
30
0
41
1
10
1.38966203211319
20
6.73775745947668
30
0
41
1
10
1.39680186842179
20
6.75029851781596
30
0
41
1
10
1.41108176161774
20
6.77538050986533
30
0
41
1
10
1.41822181850577
20
6.78792144357635
30
0
41
1
10
1.43250214920923
20
6.81300318842727
30
0
41
1
10
1.43964242302528
20
6.82554399956805
30
0
41
1
10
1.45392318401358
20
6.85062550129169
30
0
41
1
10
1.46106367118639
20
6.86316619187537
30
0
41
1
10
1.47534485548493
20
6.88824745461233
30
0
41
1
10
1.48248555261122
20
6.90078802676643
30
0
41
1
10
1.496767153311
20
6.92586905441607
30
0
41
1
10
1.50390805688502
20
6.93840950991245
30
0
41
1
10
1.51104906200976
20
6.95094990802048
30
0
0
SPLINE
5
CC
100
AcDbEntity
8
1
62
256
6
ByLayer
370
18
48
1
60
0
100
AcDbSpline
70
4
71
3
72
20
73
16
40
0
40
0
40
0
40
0
40
0.124999999999641
40
0.124999999999641
40
0.249999999999282
40
0.249999999999282
40
0.374999999998924
40
0.374999999998924
40
0.499999999998565
40
0.499999999998565
40
0.624999999998206
40
0.624999999998206
40
0.749999999997847
40
0.749999999997847
40
1
40
1
40
1
40
1
41
1
10
1.51104906200976
20
6.95094990802048
30
0
41
1
10
1.5623106293537
20
6.9508639347348
30
0
41
1
10
1.61357219667517
20
6.95077794815998
30
0
41
1
10
1.71609533127312
20
6.95060594841826
30
0
41
1
10
1.76735689854965
20
6.95051993525135
30
0
41
1
10
1.86988003305766
20
6.95034788231158
30
0
41
1
10
1.92114160028919
20
6.95026184253871
30
0
41
1
10
2.02366473470718
20
6.95008973637323
30
0
41
1
10
2.07492630189367
20
6.95000366998056
30
0
41
1
10
2.17744943622159
20
6.94983151056164
30
0
41
1
10
2.228711003363
20
6.94974541753535
30
0
41
1
10
2.33123413760074
20
6.94957320483525
30
0
41
1
10
2.38249570469708
20
6.94948708516145
30
0
41
1
10
2.53628040591948
20
6.94922868614796
30
0
41
1
10
2.63880353997786
20
6.94905636681617
30
0
41
1
10
2.74132667394582
20
6.94888399410604
30
0
0
SPLINE
5
CD
100
AcDbEntity
8
1
62
256
6
ByLayer
370
18
48
1
60
0
100
AcDbSpline
70
4
71
3
72
8
73
4
40
0
40
0
40
0
40
0
40
1
40
1
40
1
40
1
41
1
10
2.74132667394582
20
6.94888399410604
30
0
41
1
10
2.77654991637198
20
6.94882477307442
30
0
41
1
10
2.81026283802203
20
6.96848558229027
30
0
41
1
10
2.82762253034781
20
6.99901374825762
30
0
0
SPLINE
5
CE
100
AcDbEntity
8
1
62
256
6
ByLayer
370
18
48
1
60
0
100
AcDbSpline
70
4
71
3
72
8
73
4
40
0
40
0
40
0
40
0
40
1
40
1
40
1
40
1
41
1
10
0.099999999541069
20
-2.07358209248045
30
0
41
0.999643360493401
10
0.0670917689707231
20
-2.07446279213655
30
0
41
0.999385639728535
10
0.0337552460984084
20
-2.07493338616959
30
0
41
0.999226837705401
10
3.8059E-12
20
-2.07499341749628
30
0
0
SPLINE
5
CF
100
AcDbEntity
8
SK1
62
256
6
ByLayer
370
18
48
1
60
0
100
AcDbSpline
70
4
71
3
72
8
73
4
40
0
40
0
40
0
40
0
40
1
40
1
40
1
40
1
41
1
10
-0.271843014206979
20
-2.06710399831712
30
0
41
0.997373137930041
10
-0.456349425642047
20
-2.05638346943036
30
0
41
0.997373137930041
10
-0.649576000620088
20
-2.03483803768223
30
0
41
1
10
-0.85000000045892
20
-2.00263749370498
30
0
0
SPLINE
5
D0
100
AcDbEntity
8
1
62
256
6
ByLayer
370
18
48
1
60
0
100
AcDbSpline
70
4
71
3
72
8
73
4
40
0
40
0
40
0
40
0
40
1
40
1
40
1
40
1
41
1
10
0.099999999541069
20
6.45268090056027
30
0
41
1
10
0.0666731570732105
20
6.44841863187163
30
0
41
1
10
0.0333397162565228
20
6.44409375275491
30
0
41
1
10
-5.8326E-12
20
6.43970649720183
30
0
0
SPLINE
5
D1
100
AcDbEntity
8
SK1
62
256
6
ByLayer
370
18
48
1
60
0
100
AcDbSpline
70
4
71
3
72
8
73
4
40
0
40
0
40
0
40
0
40
1
40
1
40
1
40
1
41
1
10
-0.158820006447826
20
6.41834243329185
30
0
41
0.999737479543962
10
-0.391054343159106
20
6.33280896446903
30
0
41
0.999737479543962
10
-0.621508173337415
20
6.24459589952554
30
0
41
1
10
-0.85000000045892
20
6.15377271166795
30
0
0
SPLINE
5
D2
100
AcDbEntity
8
SK1
62
256
6
ByLayer
370
18
48
1
60
0
100
AcDbSpline
70
4
71
3
72
8
73
4
40
0
40
0
40
0
40
0
40
1
40
1
40
1
40
1
41
1
10
-0.85000000045892
20
2.06653891300584
30
0
41
0.997373137931725
10
-0.649576000690717
20
2.07763566962368
30
0
41
0.997373137931725
10
-0.45634942577997
20
2.07782452764691
30
0
41
1
10
-0.271843014407267
20
2.06710399876363
30
0
0
SPLINE
5
D3
100
AcDbEntity
8
SK1
62
256
6
ByLayer
370
18
48
1
60
0
100
AcDbSpline
70
4
71
3
72
8
73
4
40
0
40
0
40
0
40
0
40
1
40
1
40
1
40
1
41
1
10
-0.271843014407267
20
2.06710399876363
30
0
41
0.999070819089181
10
-0.178671519423068
20
2.06169037819811
30
0
41
0.998813098324064
10
-0.0879956052587545
20
2.05350493681878
30
0
41
0.999226837704651
10
-1.57538E-11
20
2.04256203125131
30
0
0
SPLINE
5
D4
100
AcDbEntity
8
SK1
62
256
6
ByLayer
370
18
48
1
60
0
100
AcDbSpline
70
4
71
3
72
8
73
4
40
0
40
0
40
0
40
0
40
1
40
1
40
1
40
1
41
1
10
-0.131202754459366
20
-6.0246393331916
30
0
41
1
10
-0.0874484472221263
20
-6.03423051046089
30
0
41
1
10
-0.0437135638419714
20
-6.04366823915928
30
0
41
1
10
-1.65032E-11
20
-6.05295150942011
30
0
0
SPLINE
5
D5
100
AcDbEntity
8
1
62
256
6
ByLayer
370
18
48
1
60
0
100
AcDbSpline
70
4
71
3
72
8
73
4
40
0
40
0
40
0
40
0
40
1
40
1
40
1
40
1
41
1
10
0.0999999995447638
20
-1.81705495992369
30
0
41
1
10
0.0666731570732601
20
-1.79825902473166
30
0
41
1
10
0.0333397162529253
20
-1.77945342832641
30
0
41
1
10
-1.38486E-11
20
-1.76063837135162
30
0
0
SPLINE
5
D6
100
AcDbEntity
8
SK1
62
256
6
ByLayer
370
18
48
1
60
0
100
AcDbSpline
70
4
71
3
72
8
73
4
40
0
40
0
40
0
40
0
40
1
40
1
40
1
40
1
41
1
10
-0.158820006446632
20
-1.67096463662656
30
0
41
0.999737479543955
10
-0.391054343151888
20
-1.53461812926355
30
0
41
0.999737479543955
10
-0.621508173333923
20
-1.3989962223964
30
0
41
1
10
-0.85000000045892
20
-1.26420572659953
30
0
0
SPLINE
5
D7
100
AcDbEntity
8
1
62
256
6
ByLayer
370
18
48
1
60
0
100
AcDbSpline
70
4
71
3
72
8
73
4
40
0
40
0
40
0
40
0
40
1
40
1
40
1
40
1
41
1
10
0.099999999541069
20
1.10321189143599
30
0
41
0.999132819870229
10
0.067100181247541
20
1.08303658005969
30
0
41
0.998364875706491
10
0.0337638682366909
20
1.062638425798
30
0
41
0.997696167508788
10
-2.34796E-11
20
1.04202300078715
30
0
0
SPLINE
5
D8
100
AcDbEntity
8
1
62
256
6
ByLayer
370
18
48
1
60
0
100
AcDbSpline
70
4
71
3
72
8
73
4
40
0
40
0
40
0
40
0
40
1
40
1
40
1
40
1
41
1
10
-1.65032E-11
20
-6.05295150942011
30
0
41
1
10
0.0333460197233636
20
-6.06003306686539
30
0
41
1
10
0.0666796334081265
20
-6.06702474345173
30
0
41
1
10
0.099999999541069
20
-6.07392609090115
30
0
0
SPLINE
5
D9
100
AcDbEntity
8
SK1
62
256
6
ByLayer
370
18
48
1
60
0
100
AcDbSpline
70
4
71
3
72
8
73
4
40
0
40
0
40
0
40
0
40
1
40
1
40
1
40
1
41
0.999226837705401
10
3.8059E-12
20
-2.07499341749628
30
0
41
0.99881309832551
10
-0.0879956051828855
20
-2.07514991147967
30
0
41
0.999070819090376
10
-0.178671519286818
20
-2.07251761887883
30
0
41
1
10
-0.271843014206979
20
-2.06710399831712
30
0
0
SPLINE
5
DA
100
AcDbEntity
8
SK1
62
256
6
ByLayer
370
18
48
1
60
0
100
AcDbSpline
70
4
71
3
72
8
73
4
40
0
40
0
40
0
40
0
40
1
40
1
40
1
40
1
41
1
10
-1.38486E-11
20
-1.76063837135162
30
0
41
1
10
-0.0529246189195466
20
-1.73077069905017
30
0
41
1
10
-0.105865051627622
20
-1.70087918659992
30
0
41
1
10
-0.158820006446632
20
-1.67096463662656
30
0
0
SPLINE
5
DB
100
AcDbEntity
8
1
62
256
6
ByLayer
370
18
48
1
60
0
100
AcDbSpline
70
4
71
3
72
8
73
4
40
0
40
0
40
0
40
0
40
1
40
1
40
1
40
1
41
1
10
-4.1751E-12
20
0.618778140235034
30
0
41
1
10
0.0333434592858232
20
0.638377161992182
30
0
41
1
10
0.0666768041705479
20
0.657979520324241
30
0
41
1
10
0.0999999995417227
20
0.677585226812852
30
0
0
SPLINE
5
DC
100
AcDbEntity
8
SK1
62
256
6
ByLayer
370
18
48
1
60
0
100
AcDbSpline
70
4
71
3
72
8
73
4
40
0
40
0
40
0
40
0
40
1
40
1
40
1
40
1
41
0.997696167508788
10
-2.34796E-11
20
1.04202300078715
30
0
41
0.992521324372823
10
-0.262822284810911
20
0.88154988611125
30
0
41
0.993289268536561
10
-0.547866641583136
20
0.710145971549694
30
0
41
1
10
-0.85000000045892
20
0.530892290854098
30
0
0
SPLINE
5
DD
100
AcDbEntity
8
1
62
256
6
ByLayer
370
18
48
1
60
0
100
AcDbSpline
70
4
71
3
72
8
73
4
40
0
40
0
40
0
40
0
40
1
40
1
40
1
40
1
41
0.999226837704651
10
-1.57538E-11
20
2.04256203125131
30
0
41
0.999385639727982
10
0.0337552460856507
20
2.03836431626913
30
0
41
0.999643360493098
10
0.0670917689644881
20
2.03376360316295
30
0
41
1
10
0.099999999541069
20
2.02876156880598
30
0
0
SPLINE
5
DE
100
AcDbEntity
8
SK1
62
256
6
ByLayer
370
18
48
1
60
0
100
AcDbSpline
70
4
71
3
72
8
73
4
40
0
40
0
40
0
40
0
40
1
40
1
40
1
40
1
41
1
10
-5.8326E-12
20
6.43970649720183
30
0
41
1
10
-0.0529246189175627
20
6.43274201596906
30
0
41
1
10
-0.105865051629734
20
6.42562034932365
30
0
41
1
10
-0.158820006447826
20
6.41834243329185
30
0
0
LINE
5
77
100
AcDbEntity
8
1
62
256
6
ByLayer
370
18
48
1
60
0
100
AcDbLine
10
3.348264
20
-6.284266
30
0
11
5.003459
21
-6.284266
31
0
39
0
210
0
220
0
230
1
0
LINE
5
78
100
AcDbEntity
8
1
62
256
6
ByLayer
370
18
48
1
60
0
100
AcDbLine
10
0.1
20
-3.224609
30
0
11
0.1
21
-3.285823
31
0
39
0
210
0
220
0
230
1
0
LINE
5
79
100
AcDbEntity
8
1
62
256
6
ByLayer
370
18
48
1
60
0
100
AcDbLine
10
0.1
20
-3.285823
30
0
11
1.465805
21
-3.285823
31
0
39
0
210
0
220
0
230
1
0
LINE
5
7A
100
AcDbEntity
8
1
62
256
6
ByLayer
370
18
48
1
60
0
100
AcDbLine
10
5.45325
20
-3.285823
30
0
11
5.85
21
-3.285823
31
0
39
0
210
0
220
0
230
1
0
LINE
5
7B
100
AcDbEntity
8
1
62
256
6
ByLayer
370
18
48
1
60
0
100
AcDbLine
10
5.85
20
-3.285823
30
0
11
5.85
21
-2.88804
31
0
39
0
210
0
220
0
230
1
0
LINE
5
7C
100
AcDbEntity
8
1
62
256
6
ByLayer
370
18
48
1
60
0
100
AcDbLine
10
4.320985
20
-3.961291
30
0
11
3.897864
21
-3.961291
31
0
39
0
210
0
220
0
230
1
0
LINE
5
7D
100
AcDbEntity
8
1
62
256
6
ByLayer
370
18
48
1
60
0
100
AcDbLine
10
4.430159
20
-2.558725
30
0
11
3.842095
21
-2.558725
31
0
39
0
210
0
220
0
230
1
0
LINE
5
7E
100
AcDbEntity
8
1
62
256
6
ByLayer
370
18
48
1
60
0
100
AcDbLine
10
0.1
20
5.373409
30
0
11
0.1
21
4.761848
31
0
39
0
210
0
220
0
230
1
0
LINE
5
7F
100
AcDbEntity
8
1
62
256
6
ByLayer
370
18
48
1
60
0
100
AcDbLine
10
0.1
20
4.761848
30
0
11
5.85
21
4.761848
31
0
39
0
210
0
220
0
230
1
0
LINE
5
80
100
AcDbEntity
8
1
62
256
6
ByLayer
370
18
48
1
60
0
100
AcDbLine
10
5.85
20
4.761848
30
0
11
5.85
21
5.373409
31
0
39
0
210
0
220
0
230
1
0
LINE
5
81
100
AcDbEntity
8
1
62
256
6
ByLayer
370
13
48
1
60
0
100
AcDbLine
10
5.85
20
5.373409
30
0
11
0.1
21
5.373409
31
0
39
0
210
0
220
0
230
1
0
LINE
5
82
100
AcDbEntity
8
1
62
256
6
ByLayer
370
18
48
1
60
0
100
AcDbLine
10
0.1
20
5.85
30
0
11
0.1
21
5.373409
31
0
39
0
210
0
220
0
230
1
0
LINE
5
83
100
AcDbEntity
8
1
62
256
6
ByLayer
370
18
48
1
60
0
100
AcDbLine
10
5.85
20
5.373409
30
0
11
5.85
21
5.85
31
0
39
0
210
0
220
0
230
1
0
LINE
5
84
100
AcDbEntity
8
1
62
256
6
ByLayer
370
13
48
1
60
0
100
AcDbLine
10
5.85
20
5.85
30
0
11
0.1
21
5.85
31
0
39
0
210
0
220
0
230
1
0
LINE
5
85
100
AcDbEntity
8
1
62
256
6
ByLayer
370
18
48
1
60
0
100
AcDbLine
10
0.1
20
6.652484
30
0
11
0.1
21
5.85
31
0
39
0
210
0
220
0
230
1
0
LINE
5
86
100
AcDbEntity
8
1
62
256
6
ByLayer
370
18
48
1
60
0
100
AcDbLine
10
5.85
20
5.85
30
0
11
5.85
21
6.180588
31
0
39
0
210
0
220
0
230
1
0
LINE
5
87
100
AcDbEntity
8
1
62
256
6
ByLayer
370
18
48
1
60
0
100
AcDbLine
10
4.31875
20
8.85
30
0
11
3.88125
21
8.85
31
0
39
0
210
0
220
0
230
1
0
LINE
5
88
100
AcDbEntity
8
1
62
256
6
ByLayer
370
13
48
1
60
0
100
AcDbLine
10
4.523973
20
-2.099373
30
0
11
3.764833
21
-2.099373
31
0
39
0
210
0
220
0
230
1
0
LINE
5
89
100
AcDbEntity
8
SK1
62
256
6
ByLayer
370
18
48
1
60
0
100
AcDbLine
10
-0.85
20
2.066539
30
0
11
-0.85
21
6.153773
31
0
39
0
210
0
220
0
230
1
0
LINE
5
8B
100
AcDbEntity
8
1
62
256
6
ByLayer
370
13
48
1
60
0
100
AcDbLine
10
5.791417
20
1.334521
30
0
11
0.1
21
1.334521
31
0
39
0
210
0
220
0
230
1
0
LINE
5
8C
100
AcDbEntity
8
1
62
256
6
ByLayer
370
18
48
1
60
0
100
AcDbLine
10
0.1
20
1.334521
30
0
11
0.1
21
0.770276
31
0
39
0
210
0
220
0
230
1
0
LINE
5
8D
100
AcDbEntity
8
1
62
256
6
ByLayer
370
13
48
1
60
0
100
AcDbLine
10
5.791417
20
-5.81112
30
0
11
0.1
21
-5.81112
31
0
39
0
210
0
220
0
230
1
0
LINE
5
8E
100
AcDbEntity
8
1
62
256
6
ByLayer
370
18
48
1
60
0
100
AcDbLine
10
0.1
20
-5.81112
30
0
11
0.1
21
-6.111611
31
0
39
0
210
0
220
0
230
1
0
LINE
5
8F
100
AcDbEntity
8
SK1
62
256
6
ByLayer
370
18
48
1
60
0
100
AcDbLine
10
-0.85
20
-5.69682
30
0
11
-0.85
21
-2.002637
31
0
39
0
210
0
220
0
230
1
0
LINE
5
90
100
AcDbEntity
8
1
62
256
6
ByLayer
370
18
48
1
60
0
100
AcDbLine
10
0.1
20
4.761848
30
0
11
0.1
21
1.334521
31
0
39
0
210
0
220
0
230
1
0
LINE
5
91
100
AcDbEntity
8
1
62
256
6
ByLayer
370
18
48
1
60
0
100
AcDbLine
10
5.85
20
1.41561
30
0
11
5.85
21
4.761848
31
0
39
0
210
0
220
0
230
1
0
LINE
5
92
100
AcDbEntity
8
1
62
256
6
ByLayer
370
18
48
1
60
0
100
AcDbLine
10
0.1
20
-3.285823
30
0
11
0.1
21
-5.81112
31
0
39
0
210
0
220
0
230
1
0
LINE
5
93
100
AcDbEntity
8
1
62
256
6
ByLayer
370
18
48
1
60
0
100
AcDbLine
10
5.85
20
-5.751372
30
0
11
5.85
21
-3.285823
31
0
39
0
210
0
220
0
230
1
0
LINE
5
94
100
AcDbEntity
8
SK1
62
256
6
ByLayer
370
18
48
1
60
0
100
AcDbLine
10
-0.85
20
-1.276444
30
0
11
-0.85
21
-2.002637
31
0
39
0
210
0
220
0
230
1
0
LINE
5
95
100
AcDbEntity
8
SK1
62
256
6
ByLayer
370
18
48
1
60
0
100
AcDbLine
10
-0.85
20
2.066539
30
0
11
-0.85
21
1.471745
31
0
39
0
210
0
220
0
230
1
0
LINE
5
96
100
AcDbEntity
8
1
62
256
6
ByLayer
370
13
48
1
60
0
100
AcDbLine
10
0.100014
20
-2.067104
30
0
11
0
21
-2.067104
31
0
39
0
210
0
220
0
230
1
0
LINE
5
97
100
AcDbEntity
8
1
62
256
6
ByLayer
370
18
48
1
60
0
100
AcDbLine
10
4.31875
20
-4.425
30
0
11
3.88125
21
-4.425
31
0
39
0
210
0
220
0
230
1
0
LINE
5
98
100
AcDbEntity
8
SK1
62
256
6
ByLayer
370
18
48
1
60
0
100
AcDbLine
10
-0.85
20
-1.264206
30
0
11
-0.85
21
0.137841
31
0
39
0
210
0
220
0
230
1
0
LINE
5
99
100
AcDbEntity
8
SK1
62
256
6
ByLayer
370
18
48
1
60
0
100
AcDbLine
10
-0.85
20
0.137841
30
0
11
-0.85
21
0.530892
31
0
39
0
210
0
220
0
230
1
0
LINE
5
9A
100
AcDbEntity
8
80
62
256
6
ByLayer
370
18
48
1
60
0
100
AcDbLine
10
0
20
0
30
0
11
-2.029853
21
0
31
0
39
0
210
0
220
0
230
1
0
LINE
5
9B
100
AcDbEntity
8
4
62
256
6
ByLayer
370
18
48
0.05
60
0
100
AcDbLine
10
0
20
0
30
0
11
6.289835
21
0
31
0
39
0
210
0
220
0
230
1
0
LINE
5
9D
100
AcDbEntity
8
SK4
62
256
6
ByLayer
370
18
48
0.05
60
0
100
AcDbLine
10
-2.029853
20
0
30
0
11
6.389472
21
0
31
0
39
0
210
0
220
0
230
1
0
LINE
5
9F
100
AcDbEntity
8
1
62
256
6
ByLayer
370
18
48
1
60
0
100
AcDbLine
10
3.88125
20
8.85
30
0
11
2.827623
21
6.999014
31
0
39
0
210
0
220
0
230
1
0
LINE
5
A0
100
AcDbEntity
8
1
62
256
6
ByLayer
370
18
48
1
60
0
100
AcDbLine
10
5.85
20
6.180588
30
0
11
4.31875
21
8.85
31
0
39
0
210
0
220
0
230
1
0
LINE
5
A1
100
AcDbEntity
8
81
62
256
6
ByLayer
370
18
48
1
60
0
100
AcDbLine
10
4.1
20
8.85
30
0
11
4.1
21
10.411027
31
0
39
0
210
0
220
0
230
1
0
LINE
5
A2
100
AcDbEntity
8
SK1
62
256
6
ByLayer
370
13
48
1
60
0
100
AcDbLine
10
0
20
-2.067104
30
0
11
-0.271843
21
-2.067104
31
0
39
0
210
0
220
0
230
1
0
LINE
5
A3
100
AcDbEntity
8
1
62
256
6
ByLayer
370
18
48
1
60
0
100
AcDbLine
10
0
20
6.439706
30
0
11
0
21
-6.052952
31
0
39
0
210
0
220
0
230
1
0
MTEXT
5
DF
100
AcDbEntity
8
SK6
62
256
6
ByLayer
370
13
48
1
60
0
100
AcDbMText
10
-18.725148
20
-29.71022
30
0
210
0
220
0
230
1
1
\W0.7418;327R09-18 350MM-TH
40
3.5
41
0
44
1.084337
50
0
71
7
72
5
7
iso_b_vert
0
DIMENSION
5
EB
100
AcDbEntity
8
2
62
256
6
ByLayer
370
13
48
1
60
0
100
AcDbDimension
2
DimnDraft3D1
10
25.329893
20
8.85
30
0
11
25.329893
21
-4.54596
31
0
70
32
71
5
72
1
41
1
210
0
220
0
230
1
3
Standard
100
AcDbAlignedDimension
13
4.1
23
8.85
33
0
14
0
24
0
34
0
50
90
100
AcDbRotatedDimension
1001
ACAD
1000
DSTYLE
1002
{
1070
    74
1070
     0
1070
   279
1070
     0
1070
   172
1070
     1
1070
   173
1070
     1
1070
   340
1005
E0
1070
    75
1070
     1
1070
   271
1070
     1
1070
   272
1070
     2
1070
    77
1070
     1
1070
    73
1070
     0
1070
   171
1070
     3
1070
   274
1070
     4
1070
   281
1070
     1
1070
   177
1070
     7
1070
   176
1070
     7
1070
   178
1070
     7
1070
    78
1070
     8
1070
    48
1040
-0.005
1070
    41
1041
3.5
1070
   147
1041
1.75
1070
    42
1041
0.0
1070
    44
1041
2.0
1070
   140
1041
3.5
1070
   343
1005
0
1070
   344
1005
0
1002
}
0
DIMENSION
5
F5
100
AcDbEntity
8
2
62
256
6
ByLayer
370
13
48
1
60
0
100
AcDbDimension
2
DimnDraft3D2
10
-8.129342
20
8.85
30
0
11
-8.129342
21
15.030339
31
0
70
32
71
5
72
1
41
1
210
0
220
0
230
1
3
Standard
100
AcDbAlignedDimension
13
1.511049
23
6.95095
33
0
14
3.88125
24
8.85
34
0
50
90
100
AcDbRotatedDimension
1001
ACAD
1000
DSTYLE
1002
{
1070
    74
1070
     0
1070
   279
1070
     0
1070
   172
1070
     1
1070
   173
1070
     1
1070
   340
1005
E0
1070
   271
1070
     2
1070
   272
1070
     2
1070
    77
1070
     1
1070
    73
1070
     0
1070
   171
1070
     3
1070
   274
1070
     4
1070
   177
1070
     7
1070
   176
1070
     7
1070
   178
1070
     7
1070
    78
1070
     8
1070
    48
1040
-0.005
1070
    41
1041
3.5
1070
   147
1041
1.75
1070
    42
1041
0.0
1070
    44
1041
2.0
1070
   140
1041
3.5
1070
   343
1005
0
1070
   344
1005
0
1002
}
0
DIMENSION
5
FF
100
AcDbEntity
8
2
62
256
6
ByLayer
370
13
48
1
60
0
100
AcDbDimension
2
DimnDraft3D3
10
4.31875
20
14.29393
30
0
11
15.093174
21
14.29393
31
0
70
32
71
5
72
1
41
1
210
0
220
0
230
1
3
Standard
100
AcDbAlignedDimension
13
3.88125
23
8.85
33
0
14
4.31875
24
8.85
34
0
50
0
100
AcDbRotatedDimension
1001
ACAD
1000
DSTYLE
1002
{
1070
   279
1070
     0
1070
   172
1070
     1
1070
   173
1070
     1
1070
   340
1005
E0
1070
   271
1070
     2
1070
   272
1070
     2
1070
    77
1070
     1
1070
    73
1070
     0
1070
   171
1070
     3
1070
   274
1070
     4
1070
   177
1070
     7
1070
   176
1070
     7
1070
   178
1070
     7
1070
    78
1070
     8
1070
    48
1040
-0.005
1070
    41
1041
3.5
1070
   147
1041
1.75
1070
    42
1041
0.0
1070
    44
1041
2.0
1070
   140
1041
3.5
1070
   343
1005
0
1070
   344
1005
0
1002
}
0
DIMENSION
5
109
100
AcDbEntity
8
2
62
256
6
ByLayer
370
13
48
1
60
0
100
AcDbDimension
2
DimnDraft3D4
10
5.85
20
39.984305
30
0
11
30.465018
21
39.984305
31
0
70
32
71
5
72
1
41
1
210
0
220
0
230
1
3
Standard
100
AcDbAlignedDimension
13
0
23
0
33
0
14
5.85
24
6.180588
34
0
50
0
100
AcDbRotatedDimension
1001
ACAD
1000
DSTYLE
1002
{
1070
   279
1070
     0
1070
   172
1070
     1
1070
   173
1070
     1
1070
   340
1005
E0
1070
   271
1070
     2
1070
   272
1070
     2
1070
    77
1070
     1
1070
    73
1070
     0
1070
   171
1070
     3
1070
   274
1070
     4
1070
   177
1070
     7
1070
   176
1070
     7
1070
   178
1070
     7
1070
    78
1070
     8
1070
    48
1040
-0.005
1070
    41
1041
3.5
1070
   147
1041
1.75
1070
    42
1041
0.0
1070
    44
1041
2.0
1070
   140
1041
3.5
1070
   343
1005
0
1070
   344
1005
0
1002
}
0
DIMENSION
5
113
100
AcDbEntity
8
SK2
62
256
6
ByLayer
370
13
48
1
60
0
100
AcDbDimension
2
DimnDraft3D5
10
4.1
20
32.711231
30
0
11
23.776506
21
32.711231
31
0
70
32
71
5
72
1
41
1
210
0
220
0
230
1
3
Standard
100
AcDbAlignedDimension
13
0
23
0
33
0
14
4.1
24
8.85
34
0
50
0
100
AcDbRotatedDimension
1001
ACAD
1000
DSTYLE
1002
{
1070
   279
1070
     0
1070
   172
1070
     1
1070
   173
1070
     1
1070
   340
1005
E0
1070
   271
1070
     1
1070
   272
1070
     2
1070
    77
1070
     1
1070
    73
1070
     0
1070
   171
1070
     3
1070
   274
1070
     4
1070
   177
1070
     7
1070
   176
1070
     7
1070
   178
1070
     7
1070
    78
1070
     8
1070
    48
1040
-0.005
1070
    41
1041
3.5
1070
   147
1041
1.75
1070
    42
1041
0.0
1070
    44
1041
2.0
1070
   140
1041
3.5
1070
   343
1005
0
1070
   344
1005
0
1002
}
0
DIMENSION
5
11D
100
AcDbEntity
8
SK2
62
256
6
ByLayer
370
13
48
1
60
0
100
AcDbDimension
2
DimnDraft3D6
10
4.31875
20
8.85
30
0
11
4.144692
21
-18.202957
31
0
70
34
71
5
72
1
41
1
210
0
220
0
230
1
3
Standard
100
AcDb2LineAngularDimension
13
3.88125
23
8.85
33
0
14
2.827623
24
6.999014
34
0
15
5.85
25
6.180588
35
0
16
4.150501
26
-21.702952
36
0
40
0
0
DIMENSION
5
127
100
AcDbEntity
8
SK2
62
256
6
ByLayer
370
13
48
1
60
0
100
AcDbDimension
2
DimnDraft3D7
10
-16.107785
20
6
30
0
11
-16.107785
21
0
31
0
70
32
71
5
72
1
41
1
210
0
220
0
230
1
3
Standard
100
AcDbAlignedDimension
13
-0.85
23
-6
33
0
14
-0.85
24
6
34
0
50
90
100
AcDbRotatedDimension
1001
ACAD
1000
DSTYLE
1002
{
1070
    74
1070
     0
1070
   279
1070
     0
1070
   172
1070
     1
1070
   173
1070
     1
1070
   340
1005
E0
1070
   271
1070
     1
1070
   272
1070
     2
1070
    77
1070
     1
1070
    73
1070
     0
1070
   171
1070
     3
1070
   274
1070
     4
1070
   177
1070
     7
1070
   176
1070
     7
1070
   178
1070
     7
1070
    78
1070
     8
1070
    48
1040
-0.005
1070
    41
1041
3.5
1070
   147
1041
1.75
1070
    42
1041
0.0
1070
    44
1041
2.0
1070
   140
1041
3.5
1070
   343
1005
0
1070
   344
1005
0
1002
}
0
ENDSEC
0
SECTION
2
OBJECTS
0
DICTIONARY
5
192
330
0
100
AcDbDictionary
280
0
281
1
3
ACAD_GROUP
350
193
3
ACAD_MLINESTYLE
350
194
0
DICTIONARY
5
193
330
0
100
AcDbDictionary
280
0
281
1
0
DICTIONARY
5
194
330
0
100
AcDbDictionary
280
0
281
1
3
Standard
350
18
0
MLINESTYLE
5
18
330
194
100
AcDbMlineStyle
2
Standard
70
0
3

62
256
51
90
52
90
71
2
49
-0.5
62
256
6
ByLayer
49
0.5
62
256
6
ByLayer
0
RASTERVARIABLES
5
180
330

100
AcDbRasterVariables
90
0
70
1
71
1
72
1
0
ENDSEC
0
EOF
