0
SECTION
2
HEADER
9
$ACADVER
1
AC1015
9
$DWGCODEPAGE
3
ANSI_1252
9
$HANDSEED
5
18b
9
$ANGBASE
50
0
9
$ANGDIR
70
0
9
$ATTMODE
70
1
9
$AUNITS
70
0
9
$AUPREC
70
0
9
$CECOLOR
62
256
9
$CELTSCALE
40
1
9
$CELTYPE
6
ByLayer
9
$CELWEIGHT
370
18
9
$CLAYER
8
0
9
$CMLJUST
70
0
9
$CMLSCALE
40
1
9
$CMLSTYLE
2
Standard
9
$DIMSTYLE
2
Standard
9
$TEXTSIZE
40
0.2
9
$TEXTSTYLE
7
Standard
9
$LUNITS
70
2
9
$LUPREC
70
4
9
$EXTNAMES
290
1
9
$INSUNITS
70
4
9
$LTSCALE
40
1
9
$LWDISPLAY
290
1
9
$PDMODE
70
0
9
$PDSIZE
40
0
9
$PLINEGEN
70
0
0
ENDSEC
0
SECTION
2
CLASSES
0
CLASS
1
RASTERVARIABLES
2
AcDbRasterVariables
3
ISM
90
0
280
0
281
0
0
ENDSEC
0
SECTION
2
TABLES
0
TABLE
2
VPORT
5
181
100
AcDbSymbolTable
0
VPORT
5
1
100
AcDbSymbolTableRecord
100
AcDbViewportTableRecord
2
*Active
70
0
10
0
20
0
11
1
21
1
12
-1
22
1
13
0
23
0
14
0.5
24
0.5
15
10
25
10
16
0
26
0
36
1
17
0
27
0
37
0
0
ENDTAB
0
TABLE
2
LTYPE
5
182
100
AcDbSymbolTable
0
LTYPE
5
14
100
AcDbSymbolTableRecord
100
AcDbLinetypeTableRecord
70
0
2
ByBlock
3

72
65
73
0
40
0
0
LTYPE
5
15
100
AcDbSymbolTableRecord
100
AcDbLinetypeTableRecord
70
0
2
ByLayer
3

72
65
73
0
40
0
0
LTYPE
5
16
100
AcDbSymbolTableRecord
100
AcDbLinetypeTableRecord
70
0
2
CONTINUOUS
3
Solid line
72
65
73
0
40
0
0
LTYPE
5
6A
100
AcDbSymbolTableRecord
100
AcDbLinetypeTableRecord
70
0
2
CENTER
3
____ _ ____ _ ____ _ ____
72
65
73
4
40
47.5
49
22
74
0
49
-8.5
74
0
49
8.5
74
0
49
-8.5
74
0
0
LTYPE
5
6B
100
AcDbSymbolTableRecord
100
AcDbLinetypeTableRecord
70
0
2
DASHED
3
__ __ __ __ __ __ __ __ __
72
65
73
2
40
25.72
49
12.86
74
0
49
-12.86
74
0
0
ENDTAB
0
TABLE
2
LAYER
5
183
100
AcDbSymbolTable
0
LAYER
5
10
100
AcDbSymbolTableRecord
100
AcDbLayerTableRecord
2
0
70
0
62
7
6
CONTINUOUS
290
1
370
-3
390
0
0
LAYER
5
6D
100
AcDbSymbolTableRecord
100
AcDbLayerTableRecord
2
81
70
0
62
-3
6
CONTINUOUS
290
1
370
-3
390
0
0
LAYER
5
71
100
AcDbSymbolTableRecord
100
AcDbLayerTableRecord
2
80
70
0
62
-6
6
CONTINUOUS
290
1
370
-3
390
0
0
LAYER
5
75
100
AcDbSymbolTableRecord
100
AcDbLayerTableRecord
2
1
70
0
62
4
6
CONTINUOUS
290
1
370
-3
390
0
0
LAYER
5
9B
100
AcDbSymbolTableRecord
100
AcDbLayerTableRecord
2
4
70
0
62
-2
6
CENTER
290
1
370
-3
390
0
0
LAYER
5
DB
100
AcDbSymbolTableRecord
100
AcDbLayerTableRecord
2
2
70
0
62
7
6
CONTINUOUS
290
1
370
-3
390
0
0
LAYER
5
16d
100
AcDbSymbolTableRecord
100
AcDbLayerTableRecord
2
SK2
70
0
62
7
6
CONTINUOUS
290
1
370
-3
390
0
0
LAYER
5
16e
100
AcDbSymbolTableRecord
100
AcDbLayerTableRecord
2
SK1
70
0
62
4
6
CONTINUOUS
290
1
370
-3
390
0
0
LAYER
5
16f
100
AcDbSymbolTableRecord
100
AcDbLayerTableRecord
2
SK4
70
0
62
2
6
CENTER
290
1
370
-3
390
0
0
LAYER
5
170
100
AcDbSymbolTableRecord
100
AcDbLayerTableRecord
2
SK6
70
0
62
5
6
CONTINUOUS
290
1
370
-3
390
0
0
ENDTAB
0
TABLE
2
STYLE
5
184
100
AcDbSymbolTable
0
STYLE
5
11
100
AcDbSymbolTableRecord
100
AcDbTextStyleTableRecord
2
Standard
3
txt
70
0
71
0
40
0
41
1
42
0
50
0
0
STYLE
5
D6
100
AcDbSymbolTableRecord
100
AcDbTextStyleTableRecord
2
iso_b_vert
3
simplex.shx
70
0
71
0
40
0
41
1
42
0
50
0
0
STYLE
5
D7
100
AcDbSymbolTableRecord
100
AcDbTextStyleTableRecord
2
DWGDirectTextStyle
3
simplex
70
0
71
0
40
0
41
1
42
0
50
0
0
ENDTAB
0
TABLE
2
DIMSTYLE
5
185
100
AcDbSymbolTable
100
AcDbDimStyleTable
0
DIMSTYLE
105
27
100
AcDbSymbolTableRecord
100
AcDbDimStyleTableRecord
2
Standard
70
0
3
<>
41
0.18
42
0.0625
44
0.18
140
0.18
147
0.09
73
0
74
0
77
1
271
2
275
0
278
52
280
0
340
11
0
ENDTAB
0
TABLE
2
VIEW
5
186
100
AcDbSymbolTable
0
ENDTAB
0
TABLE
2
UCS
5
187
100
AcDbSymbolTable
0
ENDTAB
0
TABLE
2
APPID
5
188
100
AcDbSymbolTable
0
APPID
5
12
100
AcDbSymbolTableRecord
100
AcDbRegAppTableRecord
2
ACAD
70
0
0
ENDTAB
0
TABLE
2
BLOCK_RECORD
5
189
100
AcDbSymbolTable
0
BLOCK_RECORD
5
1F
100
AcDbSymbolTableRecord
100
AcDbBlockTableRecord
2
*Model_Space
340
0
70
0
0
BLOCK_RECORD
5
1B
100
AcDbSymbolTableRecord
100
AcDbBlockTableRecord
2
*Paper_Space
340
0
70
0
0
BLOCK_RECORD
5
23
100
AcDbSymbolTableRecord
100
AcDbBlockTableRecord
2
*Paper_Space0
340
0
70
0
0
BLOCK_RECORD
5
D9
100
AcDbSymbolTableRecord
100
AcDbBlockTableRecord
2
DimnDraft3D1
340
0
70
0
0
BLOCK_RECORD
5
E2
100
AcDbSymbolTableRecord
100
AcDbBlockTableRecord
2
DimnDraft3D2
340
0
70
0
0
BLOCK_RECORD
5
EC
100
AcDbSymbolTableRecord
100
AcDbBlockTableRecord
2
DimnDraft3D3
340
0
70
0
0
BLOCK_RECORD
5
F6
100
AcDbSymbolTableRecord
100
AcDbBlockTableRecord
2
DimnDraft3D4
340
0
70
0
0
BLOCK_RECORD
5
100
100
AcDbSymbolTableRecord
100
AcDbBlockTableRecord
2
DimnDraft3D5
340
0
70
0
0
BLOCK_RECORD
5
10A
100
AcDbSymbolTableRecord
100
AcDbBlockTableRecord
2
DimnDraft3D6
340
0
70
0
0
ENDTAB
0
ENDSEC
0
SECTION
2
BLOCKS
0
BLOCK
5
20
100
AcDbEntity
8
0
100
AcDbBlockBegin
2
*Model_Space
70
0
10
0
20
0
30
0
3
*Model_Space
0
ENDBLK
5
21
100
AcDbEntity
8
0
100
AcDbBlockEnd
0
BLOCK
5
1C
100
AcDbEntity
8
0
100
AcDbBlockBegin
2
*Paper_Space
70
0
10
0
20
0
30
0
3
*Paper_Space
0
ENDBLK
5
1D
100
AcDbEntity
8
0
100
AcDbBlockEnd
0
BLOCK
5
24
100
AcDbEntity
8
0
100
AcDbBlockBegin
2
*Paper_Space0
70
0
10
0
20
0
30
0
3
*Paper_Space0
0
ENDBLK
5
25
100
AcDbEntity
8
0
100
AcDbBlockEnd
0
BLOCK
5
DF
100
AcDbEntity
8
0
100
AcDbBlockBegin
2
DimnDraft3D1
70
0
10
0
20
0
30
0
3
DimnDraft3D1
0
MTEXT
5
DA
100
AcDbEntity
8
2
62
256
6
ByLayer
370
13
48
1
60
0
100
AcDbMText
10
33.386276
20
-10.929985
30
0
210
0
220
0
230
1
1
\W1.0454;%%c17,7
40
3.5
41
0
44
1.084337
50
90
71
7
72
5
7
iso_b_vert
0
LINE
5
DC
100
AcDbEntity
8
2
62
256
6
ByLayer
370
13
48
1
60
0
100
AcDbLine
10
4.3
20
8.85
30
0
11
37.136276
21
8.85
31
0
39
0
210
0
220
0
230
1
0
LINE
5
DD
100
AcDbEntity
8
2
62
256
6
ByLayer
370
13
48
1
60
0
100
AcDbLine
10
35.136276
20
8.85
30
0
11
35.136276
21
-11.804985
31
0
39
0
210
0
220
0
230
1
0
SOLID
5
DE
100
AcDbEntity
8
2
62
256
6
ByLayer
370
13
48
1
60
0
100
AcDbTrace
10
35.136276
20
8.85
30
0
11
36.074098
21
5.350003
31
0
12
34.198454
22
5.349997
32
0
13
35.136276
23
8.85
33
0
39
0
210
0
220
0
230
1
0
ENDBLK
5
E0
100
AcDbEntity
8
0
100
AcDbBlockEnd
0
BLOCK
5
E9
100
AcDbEntity
8
0
100
AcDbBlockBegin
2
DimnDraft3D2
70
0
10
0
20
0
30
0
3
DimnDraft3D2
0
MTEXT
5
E3
100
AcDbEntity
8
2
62
256
6
ByLayer
370
13
48
1
60
0
100
AcDbMText
10
-9.514109
20
11.407717
30
0
210
0
220
0
230
1
1
\W0.6220;1,62
40
3.5
41
0
44
1.084337
50
90
71
7
72
5
7
iso_b_vert
0
LINE
5
E4
100
AcDbEntity
8
2
62
256
6
ByLayer
370
13
48
1
60
0
100
AcDbLine
10
2.014901
20
7.221925
30
0
11
-10.639109
21
7.221925
31
0
39
0
210
0
220
0
230
1
0
LINE
5
E5
100
AcDbEntity
8
2
62
256
6
ByLayer
370
13
48
1
60
0
100
AcDbLine
10
4.3
20
8.85
30
0
11
-10.639109
21
8.85
31
0
39
0
210
0
220
0
230
1
0
LINE
5
E6
100
AcDbEntity
8
2
62
256
6
ByLayer
370
13
48
1
60
0
100
AcDbLine
10
-8.639109
20
17.505085
30
0
11
-8.639109
21
-1.528075
31
0
39
0
210
0
220
0
230
1
0
SOLID
5
E7
100
AcDbEntity
8
2
62
256
6
ByLayer
370
13
48
1
60
0
100
AcDbTrace
10
-8.639109
20
7.221925
30
0
11
-7.701287
21
3.721928
31
0
12
-9.576931
22
3.721921
32
0
13
-8.639109
23
7.221925
33
0
39
0
210
0
220
0
230
1
0
SOLID
5
E8
100
AcDbEntity
8
2
62
256
6
ByLayer
370
13
48
1
60
0
100
AcDbTrace
10
-8.639109
20
8.85
30
0
11
-9.576931
21
12.349997
31
0
12
-7.701287
22
12.350003
32
0
13
-8.639109
23
8.85
33
0
39
0
210
0
220
0
230
1
0
ENDBLK
5
EA
100
AcDbEntity
8
0
100
AcDbBlockEnd
0
BLOCK
5
F3
100
AcDbEntity
8
0
100
AcDbBlockBegin
2
DimnDraft3D3
70
0
10
0
20
0
30
0
3
DimnDraft3D3
0
MTEXT
5
ED
100
AcDbEntity
8
2
62
256
6
ByLayer
370
13
48
1
60
0
100
AcDbMText
10
11.660862
20
12.5294
30
0
210
0
220
0
230
1
1
\W0.7003;0,38
40
3.5
41
0
44
1.084337
50
0
71
7
72
5
7
iso_b_vert
0
LINE
5
EE
100
AcDbEntity
8
2
62
256
6
ByLayer
370
13
48
1
60
0
100
AcDbLine
10
4.1125
20
8.85
30
0
11
4.1125
21
13.6544
31
0
39
0
210
0
220
0
230
1
0
LINE
5
EF
100
AcDbEntity
8
2
62
256
6
ByLayer
370
13
48
1
60
0
100
AcDbLine
10
4.4875
20
8.85
30
0
11
4.4875
21
13.6544
31
0
39
0
210
0
220
0
230
1
0
LINE
5
F0
100
AcDbEntity
8
2
62
256
6
ByLayer
370
13
48
1
60
0
100
AcDbLine
10
18.633231
20
11.6544
30
0
11
-4.6375
21
11.6544
31
0
39
0
210
0
220
0
230
1
0
SOLID
5
F1
100
AcDbEntity
8
2
62
256
6
ByLayer
370
13
48
1
60
0
100
AcDbTrace
10
4.1125
20
11.6544
30
0
11
0.612503
21
10.716578
31
0
12
0.612497
22
12.592222
32
0
13
4.1125
23
11.6544
33
0
39
0
210
0
220
0
230
1
0
SOLID
5
F2
100
AcDbEntity
8
2
62
256
6
ByLayer
370
13
48
1
60
0
100
AcDbTrace
10
4.4875
20
11.6544
30
0
11
7.987497
21
12.592222
31
0
12
7.987503
22
10.716578
32
0
13
4.4875
23
11.6544
33
0
39
0
210
0
220
0
230
1
0
ENDBLK
5
F4
100
AcDbEntity
8
0
100
AcDbBlockEnd
0
BLOCK
5
FD
100
AcDbEntity
8
0
100
AcDbBlockBegin
2
DimnDraft3D4
70
0
10
0
20
0
30
0
3
DimnDraft3D4
0
MTEXT
5
F7
100
AcDbEntity
8
SK2
62
256
6
ByLayer
370
13
48
1
60
0
100
AcDbMText
10
16.995867
20
31.55374
30
0
210
0
220
0
230
1
1
\W0.7191;4,3
40
3.5
41
0
44
1.084337
50
0
71
7
72
5
7
iso_b_vert
0
LINE
5
F8
100
AcDbEntity
8
SK2
62
256
6
ByLayer
370
13
48
1
60
0
100
AcDbLine
10
0
20
0
30
0
11
0
21
32.67874
31
0
39
0
210
0
220
0
230
1
0
LINE
5
F9
100
AcDbEntity
8
SK2
62
256
6
ByLayer
370
13
48
1
60
0
100
AcDbLine
10
4.3
20
8.85
30
0
11
4.3
21
32.67874
31
0
39
0
210
0
220
0
230
1
0
LINE
5
FA
100
AcDbEntity
8
SK2
62
256
6
ByLayer
370
13
48
1
60
0
100
AcDbLine
10
21.76692
20
30.67874
30
0
11
-8.75
21
30.67874
31
0
39
0
210
0
220
0
230
1
0
SOLID
5
FB
100
AcDbEntity
8
SK2
62
256
6
ByLayer
370
13
48
1
60
0
100
AcDbTrace
10
0
20
30.67874
30
0
11
-3.499997
21
29.740918
31
0
12
-3.500003
22
31.616562
32
0
13
0
23
30.67874
33
0
39
0
210
0
220
0
230
1
0
SOLID
5
FC
100
AcDbEntity
8
SK2
62
256
6
ByLayer
370
13
48
1
60
0
100
AcDbTrace
10
4.3
20
30.67874
30
0
11
7.799997
21
31.616562
31
0
12
7.800003
22
29.740918
32
0
13
4.3
23
30.67874
33
0
39
0
210
0
220
0
230
1
0
ENDBLK
5
FE
100
AcDbEntity
8
0
100
AcDbBlockEnd
0
BLOCK
5
107
100
AcDbEntity
8
0
100
AcDbBlockBegin
2
DimnDraft3D5
70
0
10
0
20
0
30
0
3
DimnDraft3D5
0
MTEXT
5
101
100
AcDbEntity
8
2
62
256
6
ByLayer
370
13
48
1
60
0
100
AcDbMText
10
21.275847
20
41.940867
30
0
210
0
220
0
230
1
1
\W0.7003;5,85
40
3.5
41
0
44
1.084337
50
0
71
7
72
5
7
iso_b_vert
0
LINE
5
102
100
AcDbEntity
8
2
62
256
6
ByLayer
370
13
48
1
60
0
100
AcDbLine
10
0
20
0
30
0
11
0
21
43.065867
31
0
39
0
210
0
220
0
230
1
0
LINE
5
103
100
AcDbEntity
8
2
62
256
6
ByLayer
370
13
48
1
60
0
100
AcDbLine
10
5.85
20
6.47473
30
0
11
5.85
21
43.065867
31
0
39
0
210
0
220
0
230
1
0
LINE
5
104
100
AcDbEntity
8
2
62
256
6
ByLayer
370
13
48
1
60
0
100
AcDbLine
10
28.248215
20
41.065867
30
0
11
-8.75
21
41.065867
31
0
39
0
210
0
220
0
230
1
0
SOLID
5
105
100
AcDbEntity
8
2
62
256
6
ByLayer
370
13
48
1
60
0
100
AcDbTrace
10
0
20
41.065867
30
0
11
-3.499997
21
40.128045
31
0
12
-3.500003
22
42.003689
32
0
13
0
23
41.065867
33
0
39
0
210
0
220
0
230
1
0
SOLID
5
106
100
AcDbEntity
8
2
62
256
6
ByLayer
370
13
48
1
60
0
100
AcDbTrace
10
5.85
20
41.065867
30
0
11
9.349997
21
42.003689
31
0
12
9.350003
22
40.128045
32
0
13
5.85
23
41.065867
33
0
39
0
210
0
220
0
230
1
0
ENDBLK
5
108
100
AcDbEntity
8
0
100
AcDbBlockEnd
0
BLOCK
5
111
100
AcDbEntity
8
0
100
AcDbBlockBegin
2
DimnDraft3D6
70
0
10
0
20
0
30
0
3
DimnDraft3D6
0
MTEXT
5
10B
100
AcDbEntity
8
SK2
62
256
6
ByLayer
370
13
48
1
60
0
100
AcDbMText
10
-16.685517
20
-4.757237
30
0
210
0
220
0
230
1
1
\W1.2012;%%c12
40
3.5
41
0
44
1.084337
50
90
71
7
72
5
7
iso_b_vert
0
LINE
5
10C
100
AcDbEntity
8
SK2
62
256
6
ByLayer
370
13
48
1
60
0
100
AcDbLine
10
-0.85
20
-6
30
0
11
-16.935517
21
-6
31
0
39
0
210
0
220
0
230
1
0
LINE
5
10D
100
AcDbEntity
8
SK2
62
256
6
ByLayer
370
13
48
1
60
0
100
AcDbLine
10
-0.85
20
6
30
0
11
-16.935517
21
6
31
0
39
0
210
0
220
0
230
1
0
LINE
5
10E
100
AcDbEntity
8
SK2
62
256
6
ByLayer
370
13
48
1
60
0
100
AcDbLine
10
-14.935517
20
-6
30
0
11
-14.935517
21
6
31
0
39
0
210
0
220
0
230
1
0
SOLID
5
10F
100
AcDbEntity
8
SK2
62
256
6
ByLayer
370
13
48
1
60
0
100
AcDbTrace
10
-14.935517
20
-6
30
0
11
-15.873339
21
-2.500003
31
0
12
-13.997695
22
-2.499997
32
0
13
-14.935517
23
-6
33
0
39
0
210
0
220
0
230
1
0
SOLID
5
110
100
AcDbEntity
8
SK2
62
256
6
ByLayer
370
13
48
1
60
0
100
AcDbTrace
10
-14.935517
20
6
30
0
11
-13.997695
21
2.500003
31
0
12
-15.873339
22
2.499997
32
0
13
-14.935517
23
6
33
0
39
0
210
0
220
0
230
1
0
ENDBLK
5
112
100
AcDbEntity
8
0
100
AcDbBlockEnd
0
ENDSEC
0
SECTION
2
ENTITIES
0
ELLIPSE
5
A2
100
AcDbEntity
8
1
62
256
6
ByLayer
370
13
48
1
60
0
100
AcDbEllipse
10
3.102038
20
-0.187854
30
0
11
0.436998529510834
21
7.21615104810919
31
0
210
0
220
0
230
1
40
0.034878
41
-2.04347129851787
42
-1.51520991952685
0
ELLIPSE
5
A3
100
AcDbEntity
8
1
62
256
6
ByLayer
370
18
48
1
60
0
100
AcDbEllipse
10
1.995185
20
-0.120825
30
0
11
0.436882615513014
21
7.21423696176708
31
0
210
0
220
0
230
1
40
0.034878
41
-2.05422274929331
42
-1.53263787165444
0
ELLIPSE
5
A4
100
AcDbEntity
8
1
62
256
6
ByLayer
370
18
48
1
60
0
100
AcDbEllipse
10
1.822823
20
-0.110387
30
0
11
0.418737753186713
21
6.91461108558781
31
0
210
0
220
0
230
1
40
0.034878
41
-2.05045816894222
42
-1.47418971239428
0
ELLIPSE
5
A5
100
AcDbEntity
8
1
62
256
6
ByLayer
370
13
48
1
60
0
100
AcDbEllipse
10
3.188219
20
-0.193073
30
0
11
0.440030613825226
21
7.26621981705389
31
0
210
0
220
0
230
1
40
0.034878
41
-2.04358929084469
42
-1.52444412931557
0
POINT
5
6C
100
AcDbEntity
8
81
62
256
6
ByLayer
370
18
48
1
60
0
100
AcDbPoint
10
4.3
20
8.85
30
0
39
0
210
0
220
0
230
1
50
360
0
POINT
5
6E
100
AcDbEntity
8
SK2
62
256
6
ByLayer
370
18
48
1
60
1
100
AcDbPoint
10
4.3
20
-8.85
30
0
39
0
210
0
220
0
230
1
50
360
0
POINT
5
70
100
AcDbEntity
8
80
62
256
6
ByLayer
370
18
48
1
60
0
100
AcDbPoint
10
0
20
0
30
0
39
0
210
0
220
0
230
1
50
360
0
POINT
5
72
100
AcDbEntity
8
SK2
62
256
6
ByLayer
370
18
48
1
60
1
100
AcDbPoint
10
-0.85
20
6
30
0
39
0
210
0
220
0
230
1
50
360
0
POINT
5
73
100
AcDbEntity
8
SK2
62
256
6
ByLayer
370
18
48
1
60
1
100
AcDbPoint
10
-0.85
20
-6
30
0
39
0
210
0
220
0
230
1
50
360
0
POINT
5
74
100
AcDbEntity
8
1
62
256
6
ByLayer
370
18
48
1
60
1
100
AcDbPoint
10
0
20
0
30
0
39
0
210
0
220
0
230
1
50
360
0
POINT
5
76
100
AcDbEntity
8
1
62
256
6
ByLayer
370
18
48
1
60
1
100
AcDbPoint
10
0
20
6.476318
30
0
39
0
210
0
220
0
230
1
50
360
0
SPLINE
5
A6
100
AcDbEntity
8
SK1
62
256
6
ByLayer
370
18
48
1
60
0
100
AcDbSpline
70
4
71
3
72
8
73
4
40
0
40
0
40
0
40
0
40
1
40
1
40
1
40
1
41
1
10
-0.850000000318403
20
-5.6968195029996
30
0
41
0.999558334239927
10
-0.56948695815365
20
-5.8286283835676
30
0
41
0.999512260383536
10
-0.286041615644669
20
-5.95719773074252
30
0
41
0.999861778430825
10
2.15331E-11
20
-6.08237449261752
30
0
0
SPLINE
5
A7
100
AcDbEntity
8
1
62
256
6
ByLayer
370
18
48
1
60
0
100
AcDbSpline
70
4
71
3
72
8
73
4
40
0
40
0
40
0
40
0
40
1
40
1
40
1
40
1
41
1
10
4.4874999996816
20
-4.42499999984182
30
0
41
1
10
4.49107159564574
20
-4.27046325718655
30
0
41
1
10
4.49197304384447
20
-4.11585349232342
30
0
41
1
10
4.49012356930277
20
-3.96129115772388
30
0
0
SPLINE
5
A8
100
AcDbEntity
8
1
62
256
6
ByLayer
370
18
48
1
60
0
100
AcDbSpline
70
4
71
3
72
8
73
4
40
0
40
0
40
0
40
0
40
1
40
1
40
1
40
1
41
1
10
4.12964460059652
20
-3.96129115772388
30
0
41
1
10
4.12117108577178
20
-4.11575345242818
30
0
41
1
10
4.11546753247831
20
-4.27036501896211
30
0
41
1
10
4.1124999996816
20
-4.42499999984182
30
0
0
SPLINE
5
A9
100
AcDbEntity
8
1
62
256
6
ByLayer
370
18
48
1
60
0
100
AcDbSpline
70
4
71
3
72
8
73
4
40
0
40
0
40
0
40
0
40
1
40
1
40
1
40
1
41
1
10
4.49012356930277
20
-3.96129115772388
30
0
41
1
10
4.54727109804463
20
-3.49532372582399
30
0
41
1
10
4.58517204464309
20
-3.02788857186687
30
0
41
1
10
4.60040709929146
20
-2.5587249432478
30
0
0
SPLINE
5
AA
100
AcDbEntity
8
1
62
256
6
ByLayer
370
18
48
1
60
0
100
AcDbSpline
70
4
71
3
72
8
73
4
40
0
40
0
40
0
40
0
40
1
40
1
40
1
40
1
41
1
10
4.07536759646396
20
-2.5587249432478
30
0
41
1
10
4.07141844401659
20
-3.02707426384578
30
0
41
1
10
4.09036133734313
20
-3.49456441263453
30
0
41
1
10
4.12964460059652
20
-3.96129115772388
30
0
0
SPLINE
5
AB
100
AcDbEntity
8
1
62
256
6
ByLayer
370
18
48
1
60
0
100
AcDbSpline
70
4
71
3
72
20
73
16
40
0
40
0
40
0
40
0
40
0.161796727724537
40
0.161796727724537
40
0.323593455580441
40
0.323593455580441
40
0.485390183618416
40
0.485390183618416
40
0.647186911912823
40
0.647186911912823
40
0.808983640574858
40
0.808983640574858
40
0.970780369774413
40
0.970780369774413
40
1
40
1
40
1
40
1
41
1
10
4.4874999996816
20
-4.42499999984182
30
0
41
1
10
4.56092515553661
20
-4.35122324578316
30
0
41
1
10
4.63435709351668
20
-4.27744871216498
30
0
41
1
10
4.78123647920569
20
-4.12990472471253
30
0
41
1
10
4.85468392421319
20
-4.05613526962455
30
0
41
1
10
5.00159665417644
20
-3.90860220422169
30
0
41
1
10
5.07506193555358
20
-3.83483859224441
30
0
41
1
10
5.2220131598923
20
-3.68731813988944
30
0
41
1
10
5.29549909804672
20
-3.61356129727614
30
0
41
1
10
5.44249508575092
20
-3.46605551753535
30
0
41
1
10
5.51600512874313
20
-3.39230657735428
30
0
41
1
10
5.66305358923151
20
-3.24481800472225
30
0
41
1
10
5.73659199762827
20
-3.17107836802762
30
0
41
1
10
5.82343094836921
20
-3.0840282748982
30
0
41
1
10
5.83671518933889
20
-3.07071246789016
30
0
41
1
10
5.84999999968159
20
-3.05739684777941
30
0
0
SPLINE
5
AC
100
AcDbEntity
8
1
62
256
6
ByLayer
370
18
48
1
60
0
100
AcDbSpline
70
4
71
3
72
15
73
11
40
0
40
0
40
0
40
0
40
0.25
40
0.5
40
0.5
40
0.625
40
0.625
40
0.75
40
0.75
40
1
40
1
40
1
40
1
41
1
10
5.84999999968159
20
-3.05739684777941
30
0
41
1
10
5.84999999968159
20
-2.72734754715532
30
0
41
1
10
5.84999999968159
20
-2.05141932662031
30
0
41
1
10
5.84999999968159
20
-1.34510964671006
30
0
41
1
10
5.84999999968159
20
-0.803512436913451
30
0
41
1
10
5.84999999968161
20
-0.622278402316311
30
0
41
1
10
5.84999999968161
20
-0.261785952962612
30
0
41
1
10
5.84999999968159
20
-0.0820030466837522
30
0
41
1
10
5.84999999968159
20
0.455968608262651
30
0
41
1
10
5.84999999968159
20
0.812790180879148
30
0
41
1
10
5.84999999968159
20
1.16770527804536
30
0
0
SPLINE
5
AD
100
AcDbEntity
8
1
62
256
6
ByLayer
370
18
48
1
60
0
100
AcDbSpline
70
4
71
3
72
18
73
14
40
0
40
0
40
0
40
0
40
0.25
40
0.25
40
0.375
40
0.375
40
0.5
40
0.5
40
0.75
40
0.75
40
0.875
40
0.875
40
1
40
1
40
1
40
1
41
1
10
5.84999999968156
20
1.16770527804539
30
0
41
1
10
5.72284556977863
20
0.973320371569201
30
0
41
1
10
5.60392965941858
20
0.757081644136292
30
0
41
1
10
5.4358785212639
20
0.400029197770266
30
0
41
1
10
5.38159409970751
20
0.275532305404425
30
0
41
1
10
5.27627810163401
20
0.0151954554297902
30
0
41
1
10
5.22512440303839
20
-0.12109732163583
30
0
41
1
10
5.07931526211112
20
-0.538875433116175
30
0
41
1
10
4.99118248486772
20
-0.83157916944262
30
0
41
1
10
4.87084939903863
20
-1.29195029659891
30
0
41
1
10
4.83273111346043
20
-1.44898195513957
30
0
41
1
10
4.76035972489359
20
-1.77049774429432
30
0
41
1
10
4.72630265478452
20
-1.93418204360984
30
0
41
1
10
4.69456803140497
20
-2.09937285339177
30
0
0
SPLINE
5
AE
100
AcDbEntity
8
1
62
256
6
ByLayer
370
18
48
1
60
0
100
AcDbSpline
70
4
71
3
72
8
73
4
40
0
40
0
40
0
40
0
40
1
40
1
40
1
40
1
41
1
10
4.69456803140497
20
-2.0993728533918
30
0
41
1
10
4.66508173423762
20
-2.2528602683295
30
0
41
1
10
4.63363068427842
20
-2.40598804163435
30
0
41
1
10
4.60040709929146
20
-2.5587249432478
30
0
0
SPLINE
5
AF
100
AcDbEntity
8
1
62
256
6
ByLayer
370
18
48
1
60
0
100
AcDbSpline
70
4
71
3
72
20
73
16
40
0
40
0
40
0
40
0
40
0.249608692477889
40
0.249608692477889
40
0.374397976628634
40
0.374397976628634
40
0.499187242281076
40
0.499187242281076
40
0.623976489376818
40
0.623976489376818
40
0.748765717863713
40
0.748765717863713
40
0.87437290784067
40
0.87437290784067
40
1
40
1
40
1
40
1
41
1
10
2.26328834445104
20
-6.25996652224595
30
0
41
1
10
2.25053641047953
20
-6.2557487775116
30
0
41
1
10
2.23764068376653
20
-6.25098699639
30
0
41
1
10
2.21808756179263
20
-6.24303684826805
30
0
41
1
10
2.21153474569019
20
-6.24025217343211
30
0
41
1
10
2.19835934446127
20
-6.23441486269786
30
0
41
1
10
2.19173649724158
20
-6.23136211075075
30
0
41
1
10
2.17842149140313
20
-6.22498998245266
30
0
41
1
10
2.17172906910028
20
-6.22167047998141
30
0
41
1
10
2.15827537570957
20
-6.21476623142416
30
0
41
1
10
2.15151383939323
20
-6.21118134929668
30
0
41
1
10
2.13787784192081
20
-6.20372340320995
30
0
41
1
10
2.13100265994618
20
-6.19984845605953
30
0
41
1
10
2.11718240276676
20
-6.19183213305203
30
0
41
1
10
2.11023704304475
20
-6.18769055640612
30
0
41
1
10
2.10325751662413
20
-6.1834168102211
30
0
0
SPLINE
5
B0
100
AcDbEntity
8
1
62
256
6
ByLayer
370
18
48
1
60
0
100
AcDbSpline
70
4
71
3
72
14
73
10
40
0
40
0
40
0
40
0
40
0.249999821653832
40
0.249999821653832
40
0.499999643315687
40
0.499999643315687
40
0.749999785967711
40
0.749999785967711
40
1
40
1
40
1
40
1
41
1
10
2.10325751662413
20
-6.1834168102211
30
0
41
1
10
1.93632639649198
20
-6.18562902382376
30
0
41
1
10
1.76939358227671
20
-6.18780017135708
30
0
41
1
10
1.4355245380026
20
-6.19206103431446
30
0
41
1
10
1.2685882960335
20
-6.19415074993668
30
0
41
1
10
0.934712133514608
20
-6.1982494850912
30
0
41
1
10
0.767772201045318
20
-6.20025850471291
30
0
41
1
10
0.4338887788644
20
-6.20419661053936
30
0
41
1
10
0.266945277234953
20
-6.20612569690906
30
0
41
1
10
0.0999999996815859
20
-6.20801521382686
30
0
0
SPLINE
5
B1
100
AcDbEntity
8
1
62
256
6
ByLayer
370
18
48
1
60
0
100
AcDbSpline
70
4
71
3
72
12
73
8
40
0
40
0
40
0
40
0
40
0.499999999999997
40
0.499999999999997
40
0.749999999999998
40
0.749999999999998
40
1
40
1
40
1
40
1
41
1
10
3.46176860342325
20
-6.26125972495839
30
0
41
1
10
3.45572125268356
20
-6.25927661535738
30
0
41
1
10
3.44696228810059
20
-6.25721811089031
30
0
41
1
10
3.4265580226203
20
-6.25454097024476
30
0
41
1
10
3.41841193721839
20
-6.25372059196536
30
0
41
1
10
3.39946133916024
20
-6.25256845064993
30
0
41
1
10
3.38853657288445
20
-6.25225829256439
30
0
41
1
10
3.37761421370144
20
-6.25233862966823
30
0
0
SPLINE
5
B2
100
AcDbEntity
8
1
62
256
6
ByLayer
370
18
48
1
60
0
100
AcDbSpline
70
4
71
3
72
20
73
16
40
0
40
0
40
0
40
0
40
0.249999941987943
40
0.249999941987943
40
0.374999910764288
40
0.374999910764288
40
0.499999879540585
40
0.499999879540585
40
0.624999848316822
40
0.624999848316822
40
0.749999817092983
40
0.749999817092983
40
0.874999907068977
40
0.874999907068977
40
1
40
1
40
1
40
1
41
1
10
3.37761421370144
20
-6.25233862966823
30
0
41
1
10
3.28475616067215
20
-6.25302162744575
30
0
41
1
10
3.1918975073749
20
-6.25369267485812
30
0
41
1
10
3.05260862579846
20
-6.25468144912227
30
0
41
1
10
3.00617884813116
20
-6.25500807442219
30
0
41
1
10
2.91331899105353
20
-6.25565541446124
30
0
41
1
10
2.86688891136868
20
-6.25597612920242
30
0
41
1
10
2.7740284494833
20
-6.25661166995553
30
0
41
1
10
2.72759806700822
20
-6.25692649596945
30
0
41
1
10
2.63473699878952
20
-6.2575502812459
30
0
41
1
10
2.58830631277138
20
-6.25785924051038
30
0
41
1
10
2.49544459171409
20
-6.25847131470638
30
0
41
1
10
2.44901355640019
20
-6.25877442963412
30
0
41
1
10
2.35615117995906
20
-6.25937483711832
30
0
41
1
10
2.30971983855741
20
-6.25967212967652
30
0
41
1
10
2.26328834445104
20
-6.25996652224595
30
0
0
SPLINE
5
B3
100
AcDbEntity
8
1
62
256
6
ByLayer
370
18
48
1
60
0
100
AcDbSpline
70
4
71
3
72
8
73
4
40
0
40
0
40
0
40
0
40
1
40
1
40
1
40
1
41
1
10
3.59502224030311
20
-6.28430708555635
30
0
41
1
10
3.55269915981282
20
-6.28426016878228
30
0
41
1
10
3.50832011642979
20
-6.27652537703648
30
0
41
1
10
3.46176860342325
20
-6.26125972495839
30
0
0
SPLINE
5
B4
100
AcDbEntity
8
1
62
256
6
ByLayer
370
18
48
1
60
0
100
AcDbSpline
70
4
71
3
72
8
73
4
40
0
40
0
40
0
40
0
40
1
40
1
40
1
40
1
41
1
10
3.12717554308392
20
-3.48672000948031
30
0
41
1
10
3.16239969196084
20
-3.48669188336996
30
0
41
1
10
3.19610963401578
20
-3.49801237456057
30
0
41
1
10
3.21347133162689
20
-3.51558947439281
30
0
0
SPLINE
5
B5
100
AcDbEntity
8
1
62
256
6
ByLayer
370
18
48
1
60
0
100
AcDbSpline
70
4
71
3
72
12
73
8
40
0
40
0
40
0
40
0
40
0.499999999999995
40
0.499999999999995
40
0.749999999999998
40
0.749999999999998
40
1
40
1
40
1
40
1
41
1
10
3.46176860342325
20
0.128280240931417
30
0
41
1
10
3.45572125268356
20
0.145219538692999
30
0
41
1
10
3.44696228810056
20
0.161546645828025
30
0
41
1
10
3.4265580226203
20
0.181811741112597
30
0
41
1
10
3.41841193721839
20
0.187841709232515
30
0
41
1
10
3.39946133916024
20
0.196211564348829
30
0
41
1
10
3.38853657288445
20
0.198416376557049
30
0
41
1
10
3.37761421370144
20
0.197840756266771
30
0
0
SPLINE
5
B6
100
AcDbEntity
8
1
62
256
6
ByLayer
370
18
48
1
60
0
100
AcDbSpline
70
4
71
3
72
20
73
16
40
0
40
0
40
0
40
0
40
0.124999999999823
40
0.124999999999823
40
0.249999999999646
40
0.249999999999646
40
0.374999999999469
40
0.374999999999469
40
0.499999999999291
40
0.499999999999291
40
0.624999999999113
40
0.624999999999113
40
0.749999999998936
40
0.749999999998936
40
1
40
1
40
1
40
1
41
1
10
2.01490114303991
20
-3.48760721322449
30
0
41
1
10
2.06124590980272
20
-3.48757028533987
30
0
41
1
10
2.10759067655374
20
-3.48753335259363
30
0
41
1
10
2.20028021003225
20
-3.48745947737373
30
0
41
1
10
2.24662497675973
20
-3.48742253490008
30
0
41
1
10
2.33931451019109
20
-3.48734864022106
30
0
41
1
10
2.38565927689495
20
-3.48731168801569
30
0
41
1
10
2.47834881027913
20
-3.48723777386908
30
0
41
1
10
2.52469357695944
20
-3.48720081192781
30
0
41
1
10
2.61738311029637
20
-3.48712687830508
30
0
41
1
10
2.66372787695306
20
-3.48708990662365
30
0
41
1
10
2.75641741024276
20
-3.48701595351636
30
0
41
1
10
2.8027621768758
20
-3.48697897209053
30
0
41
1
10
2.94179647673997
20
-3.48686801318999
30
0
41
1
10
3.03448600993565
20
-3.48679402109229
30
0
41
1
10
3.12717554308392
20
-3.48672000948031
30
0
0
SPLINE
5
B7
100
AcDbEntity
8
1
62
256
6
ByLayer
370
18
48
1
60
0
100
AcDbSpline
70
4
71
3
72
20
73
16
40
0
40
0
40
0
40
0
40
0.249999941987944
40
0.249999941987944
40
0.374999910764288
40
0.374999910764288
40
0.499999879540586
40
0.499999879540586
40
0.624999848316822
40
0.624999848316822
40
0.749999817092983
40
0.749999817092983
40
0.874999907068976
40
0.874999907068976
40
1
40
1
40
1
40
1
41
1
10
3.37761421370144
20
0.197840756266771
30
0
41
1
10
3.28475616067215
20
0.192947035181021
30
0
41
1
10
3.1918975073749
20
0.188054140235209
30
0
41
1
10
3.05260862579846
20
0.18071626786309
30
0
41
1
10
3.00617884813113
20
0.178270555380834
30
0
41
1
10
2.91331899105353
20
0.173379658542103
30
0
41
1
10
2.86688891136868
20
0.170934474171275
30
0
41
1
10
2.7740284494833
20
0.166044671552129
30
0
41
1
10
2.72759806700822
20
0.1636000532894
30
0
41
1
10
2.63473699878952
20
0.158711420702218
30
0
41
1
10
2.58830631277138
20
0.156267406363327
30
0
41
1
10
2.49544459171409
20
0.15138001688706
30
0
41
1
10
2.44901355640019
20
0.148936641735901
30
0
41
1
10
2.35615117995906
20
0.144050570395848
30
0
41
1
10
2.30971983855741
20
0.14160787419263
30
0
41
1
10
2.26328834445104
20
0.139165536129951
30
0
0
SPLINE
5
B8
100
AcDbEntity
8
1
62
256
6
ByLayer
370
18
48
1
60
0
100
AcDbSpline
70
4
71
3
72
20
73
16
40
0
40
0
40
0
40
0
40
0.249999999264706
40
0.249999999264706
40
0.374999998866503
40
0.374999998866503
40
0.499999998468049
40
0.499999998468049
40
0.62499999806935
40
0.62499999806935
40
0.749999997670415
40
0.749999997670415
40
0.874999998818591
40
0.874999998818591
40
1
40
1
40
1
40
1
41
1
10
1.84353760703874
20
-3.31429313466546
30
0
41
1
10
1.85781614308124
20
-3.32873654651363
30
0
41
1
10
1.87209513789392
20
-3.34317980915688
30
0
41
1
10
1.89351429622988
20
-3.36484448645359
30
0
41
1
10
1.90065412670506
20
-3.3720660094383
30
0
41
1
10
1.91493400616071
20
-3.38650898433272
30
0
41
1
10
1.92207405514174
20
-3.39373043624298
30
0
41
1
10
1.93635436812994
20
-3.40817327011729
30
0
41
1
10
1.94349463213771
20
-3.41539465208189
30
0
41
1
10
1.95777537177372
20
-3.42983734717009
30
0
41
1
10
1.96491584740255
20
-3.43705866029418
30
0
41
1
10
1.97919700703488
20
-3.45150121887272
30
0
41
1
10
1.98633769103895
20
-3.45872246432765
30
0
41
1
10
2.00061926407079
20
-3.47316488853991
30
0
41
1
10
2.0077601530991
20
-3.4803860672977
30
0
41
1
10
2.01490114303991
20
-3.48760721322449
30
0
0
SPLINE
5
B9
100
AcDbEntity
8
1
62
256
6
ByLayer
370
18
48
1
60
0
100
AcDbSpline
70
4
71
3
72
20
73
16
40
0
40
0
40
0
40
0
40
0.249608692477886
40
0.249608692477886
40
0.374397976628631
40
0.374397976628631
40
0.499187242281072
40
0.499187242281072
40
0.623976489376813
40
0.623976489376813
40
0.748765717863708
40
0.748765717863708
40
0.874372907840663
40
0.874372907840663
40
1
40
1
40
1
40
1
41
1
10
2.26328834445104
20
0.139165536129951
30
0
41
1
10
2.25053641047953
20
0.174156767474443
30
0
41
1
10
2.23764068376653
20
0.208795782731386
30
0
41
1
10
2.21808756179263
20
0.260201956819202
30
0
41
1
10
2.21153474569019
20
0.277245826329903
30
0
41
1
10
2.19835934446127
20
0.311148178684192
30
0
41
1
10
2.19173649724158
20
0.3280073359916
30
0
41
1
10
2.17842149140313
20
0.361537962003155
30
0
41
1
10
2.17172906910028
20
0.378210094789807
30
0
41
1
10
2.15827537570957
20
0.411364421178377
30
0
41
1
10
2.15151383939323
20
0.427847268448829
30
0
41
1
10
2.13787784192081
20
0.460728233943456
30
0
41
1
10
2.13100265994618
20
0.477125742403104
30
0
41
1
10
2.11718240276676
20
0.509726484244169
30
0
41
1
10
2.11023704304475
20
0.525930331871876
30
0
41
1
10
2.10325751662413
20
0.542034649715333
30
0
0
SPLINE
5
BA
100
AcDbEntity
8
1
62
256
6
ByLayer
370
18
48
1
60
0
100
AcDbSpline
70
4
71
3
72
14
73
10
40
0
40
0
40
0
40
0
40
0.25
40
0.25
40
0.5
40
0.5
40
0.75
40
0.75
40
1
40
1
40
1
40
1
41
1
10
0.0999999996815859
20
0.441801309374654
30
0
41
1
10
0.0999999996815859
20
0.116188150102573
30
0
41
1
10
0.0999999996815859
20
-0.209189300255275
30
0
41
1
10
0.0999999996815859
20
-0.859473671570186
30
0
41
1
10
0.0999999996815859
20
-1.18149717387533
30
0
41
1
10
0.0999999996815859
20
-1.81803795354057
30
0
41
1
10
0.0999999996815859
20
-2.12927833988269
30
0
41
1
10
0.0999999996815859
20
-2.73470059095712
30
0
41
1
10
0.0999999996815859
20
-3.02944687249018
30
0
41
1
10
0.0999999996815859
20
-3.31600839547045
30
0
0
SPLINE
5
BB
100
AcDbEntity
8
1
62
256
6
ByLayer
370
18
48
1
60
0
100
AcDbSpline
70
4
71
3
72
18
73
14
40
0
40
0
40
0
40
0
40
0.074814676119777
40
0.074814676119777
40
0.206984008101645
40
0.206984008101645
40
0.471322672065507
40
0.471322672065507
40
0.603492004047375
40
0.603492004047375
40
0.801746002023545
40
0.801746002023545
40
1
40
1
40
1
40
1
41
1
10
0.0999999996815859
20
-3.31600839547045
30
0
41
1
10
0.143480733705758
20
-3.31596569524643
30
0
41
1
10
0.186961467713161
20
-3.31592298939731
30
0
41
1
10
0.307256268992035
20
-3.31580482284085
30
0
41
1
10
0.384070336227893
20
-3.31572935019756
30
0
41
1
10
0.614512537777955
20
-3.31550287953559
30
0
41
1
10
0.768140671934674
20
-3.31535182878483
30
0
41
1
10
0.998582872853859
20
-3.31512514702885
30
0
41
1
10
1.07539693977429
20
-3.31504956883853
30
0
41
1
10
1.26743210694551
20
-3.31486057931573
30
0
41
1
10
1.38265320713043
20
-3.31474714595976
30
0
41
1
10
1.61309540726282
20
-3.31452019986963
30
0
41
1
10
1.72831650721031
20
-3.31440668713549
30
0
41
1
10
1.84353760703874
20
-3.31429313466546
30
0
0
SPLINE
5
BC
100
AcDbEntity
8
1
62
256
6
ByLayer
370
18
48
1
60
0
100
AcDbSpline
70
4
71
3
72
14
73
10
40
0
40
0
40
0
40
0
40
0.249999821653832
40
0.249999821653832
40
0.499999643315687
40
0.499999643315687
40
0.749999785967711
40
0.749999785967711
40
1
40
1
40
1
40
1
41
1
10
2.10325751662413
20
0.542034649715333
30
0
41
1
10
1.93632639649198
20
0.53369859290413
30
0
41
1
10
1.76939358227671
20
0.525357170379635
30
0
41
1
10
1.4355245380026
20
0.508665385438775
30
0
41
1
10
1.2685882960335
20
0.50031502247441
30
0
41
1
10
0.934712133514608
20
0.483607117927846
30
0
41
1
10
0.767772201045318
20
0.475249575785654
30
0
41
1
10
0.4338887788644
20
0.458529073372688
30
0
41
1
10
0.266945277234953
20
0.450166112546981
30
0
41
1
10
0.0999999996815859
20
0.441801309374654
30
0
0
SPLINE
5
BD
100
AcDbEntity
8
1
62
256
6
ByLayer
370
18
48
1
60
0
100
AcDbSpline
70
4
71
3
72
20
73
16
40
0
40
0
40
0
40
0
40
0.135859620932376
40
0.135859620932376
40
0.271719241803977
40
0.271719241803977
40
0.407578862625757
40
0.407578862625757
40
0.543438483406475
40
0.543438483406475
40
0.679298104153172
40
0.679298104153172
40
0.815157724871546
40
0.815157724871546
40
1
40
1
40
1
40
1
41
1
10
3.21347133162689
20
-3.51558947439281
30
0
41
1
10
3.25415908558682
20
-3.55678203109568
30
0
41
1
10
3.29485116162729
20
-3.59797318338528
30
0
41
1
10
3.37624323315828
20
-3.68035291357035
30
0
41
1
10
3.4169432291493
20
-3.72154149147107
30
0
41
1
10
3.49835049554977
20
-3.80391628199411
30
0
41
1
10
3.53905776638155
20
-3.84510249462065
30
0
41
1
10
3.62047900555808
20
-3.92747274169616
30
0
41
1
10
3.66119297426093
20
-3.96865677614866
30
0
41
1
10
3.74262709164651
20
-4.05102283478035
30
0
41
1
10
3.78334724063416
20
-4.0922048589625
30
0
41
1
10
3.86479325298953
20
-4.17456704815814
30
0
41
1
10
3.90551911661794
20
-4.21574721317407
30
0
41
1
10
4.00166034357056
20
-4.31295255398049
30
0
41
1
10
4.05707795783925
20
-4.3689769974585
30
0
41
1
10
4.1124999996816
20
-4.42499999984182
30
0
0
SPLINE
5
BE
100
AcDbEntity
8
1
62
256
6
ByLayer
370
18
48
1
60
0
100
AcDbSpline
70
4
71
3
72
8
73
4
40
0
40
0
40
0
40
0
40
1
40
1
40
1
40
1
41
1
10
4.07536759646393
20
-2.5587249432478
30
0
41
1
10
4.0477959925141
20
-2.40594342181308
30
0
41
1
10
4.02213602584098
20
-2.25280935307538
30
0
41
1
10
3.99856346396118
20
-2.0993728533918
30
0
0
SPLINE
5
BF
100
AcDbEntity
8
1
62
256
6
ByLayer
370
18
48
1
60
0
100
AcDbSpline
70
4
71
3
72
14
73
10
40
0
40
0
40
0
40
0
40
0.5
40
0.5
40
0.625
40
0.625
40
0.75
40
0.75
40
1
40
1
40
1
40
1
41
1
10
3.99856346396118
20
-2.0993728533918
30
0
41
1
10
3.93589635371686
20
-1.6914654697905
30
0
41
1
10
3.86049772670805
20
-1.3011787053461
30
0
41
1
10
3.74883486831467
20
-0.834330029536915
30
0
41
1
10
3.72561951022814
20
-0.742025244327209
30
0
41
1
10
3.67733475068391
20
-0.55957697389232
30
0
41
1
10
3.65222212654572
20
-0.469304327243378
30
0
41
1
10
3.57469500135332
20
-0.204298002039366
30
0
41
1
10
3.5199067870868
20
-0.0345712368129227
30
0
41
1
10
3.46176860342325
20
0.128280240931417
30
0
0
SPLINE
5
C0
100
AcDbEntity
8
SK1
62
256
6
ByLayer
370
18
48
1
60
0
100
AcDbSpline
70
4
71
3
72
8
73
4
40
0
40
0
40
0
40
0
40
1
40
1
40
1
40
1
41
0.997604723490247
10
-0.0046546981470594
20
1.03581786332446
30
0
41
0.992530642268726
10
-0.266206626736961
20
1.19565683328789
30
0
41
0.993329067771977
10
-0.54967053290436
20
1.34181332723161
30
0
41
1
10
-0.850000000318403
20
1.47174520348824
30
0
0
SPLINE
5
C1
100
AcDbEntity
8
1
62
256
6
ByLayer
370
18
48
1
60
0
100
AcDbSpline
70
4
71
3
72
14
73
10
40
0
40
0
40
0
40
0
40
0.612723100468637
40
0.612723100468637
40
0.765903875585796
40
0.765903875585796
40
0.919084650702954
40
0.919084650702954
40
1
40
1
40
1
40
1
41
1
10
5.84999999968156
20
-5.92232269894157
30
0
41
1
10
5.69293463754184
20
-6.06674531587816
30
0
41
1
10
5.54839171131255
20
-6.16906715887933
30
0
41
1
10
5.38036856610375
20
-6.24232643388919
30
0
41
1
10
5.34740475191754
20
-6.25421620490542
30
0
41
1
10
5.28271360949384
20
-6.27229168592041
30
0
41
1
10
5.25092374492687
20
-6.27847683593026
30
0
41
1
10
5.20363230953481
20
-6.28336789234439
30
0
41
1
10
5.1875100134921
20
-6.28423418746365
30
0
41
1
10
5.17160726530315
20
-6.28426915391691
30
0
0
SPLINE
5
C2
100
AcDbEntity
8
1
62
256
6
ByLayer
370
18
48
1
60
0
100
AcDbSpline
70
4
71
3
72
18
73
14
40
0
40
0
40
0
40
0
40
0.0748146761197771
40
0.0748146761197771
40
0.206984008101645
40
0.206984008101645
40
0.471322672065507
40
0.471322672065507
40
0.603492004047375
40
0.603492004047375
40
0.801746002023545
40
0.801746002023545
40
1
40
1
40
1
40
1
41
1
10
0.0999999996815859
20
6.92388957007952
30
0
41
1
10
0.143480733705758
20
6.92381540779868
30
0
41
1
10
0.186961467713161
20
6.92374123574808
30
0
41
1
10
0.307256268992035
20
6.92353600260114
30
0
41
1
10
0.384070336227893
20
6.92340492077432
30
0
41
1
10
0.614512537777955
20
6.92301158370807
30
0
41
1
10
0.768140671934674
20
6.92274923688294
30
0
41
1
10
0.998582872853859
20
6.92235553318602
30
0
41
1
10
1.07539693977429
20
6.92222426804381
30
0
41
1
10
1.26743210694551
20
6.92189602868692
30
0
41
1
10
1.38265320713043
20
6.92169901622151
30
0
41
1
10
1.61309540726282
20
6.92130485342574
30
0
41
1
10
1.72831650721031
20
6.9211077030954
30
0
41
1
10
1.84353760703874
20
6.92091048375124
30
0
0
SPLINE
5
C3
100
AcDbEntity
8
1
62
256
6
ByLayer
370
18
48
1
60
0
100
AcDbSpline
70
4
71
3
72
20
73
16
40
0
40
0
40
0
40
0
40
0.24999999926471
40
0.24999999926471
40
0.374999998866504
40
0.374999998866504
40
0.49999999846805
40
0.49999999846805
40
0.624999998069348
40
0.624999998069348
40
0.749999997670415
40
0.749999997670415
40
0.874999998818593
40
0.874999998818593
40
1
40
1
40
1
40
1
41
1
10
1.84353760703874
20
6.92091048375124
30
0
41
1
10
1.85781614308124
20
6.9459959813303
30
0
41
1
10
1.87209513789392
20
6.97108121976842
30
0
41
1
10
1.89351429622988
20
7.00870870111365
30
0
41
1
10
1.90065412670506
20
7.02125113217181
30
0
41
1
10
1.91493400616071
20
7.04633587084419
30
0
41
1
10
1.92207405514174
20
7.05887817845931
30
0
41
1
10
1.93635436812994
20
7.08396267220621
30
0
41
1
10
1.94349463213769
20
7.0965048583389
30
0
41
1
10
1.95777537177372
20
7.12158911104032
30
0
41
1
10
1.96491584740255
20
7.13413117760993
30
0
41
1
10
1.97919700703488
20
7.15921519321969
30
0
41
1
10
1.98633769103895
20
7.1717571422607
30
0
41
1
10
2.00061926407079
20
7.19684092450143
30
0
41
1
10
2.0077601530991
20
7.20938275770197
30
0
41
1
10
2.01490114303991
20
7.22192453388124
30
0
0
SPLINE
5
C4
100
AcDbEntity
8
1
62
256
6
ByLayer
370
18
48
1
60
0
100
AcDbSpline
70
4
71
3
72
20
73
16
40
0
40
0
40
0
40
0
40
0.124999999999823
40
0.124999999999823
40
0.249999999999646
40
0.249999999999646
40
0.374999999999468
40
0.374999999999468
40
0.499999999999292
40
0.499999999999292
40
0.624999999999114
40
0.624999999999114
40
0.749999999998937
40
0.749999999998937
40
1
40
1
40
1
40
1
41
1
10
2.01490114303991
20
7.22192453388124
30
0
41
1
10
2.06124590980272
20
7.22186039707131
30
0
41
1
10
2.10759067655374
20
7.22179625181769
30
0
41
1
10
2.20028021003225
20
7.22166794441574
30
0
41
1
10
2.24662497675973
20
7.22160378226738
30
0
41
1
10
2.33931451019109
20
7.22147544106855
30
0
41
1
10
2.38565927689495
20
7.22141126201808
30
0
41
1
10
2.47834881027913
20
7.2212828870077
30
0
41
1
10
2.52469357695944
20
7.22121869104774
30
0
41
1
10
2.61738311029637
20
7.22109028221104
30
0
41
1
10
2.66372787695306
20
7.22102606933427
30
0
41
1
10
2.75641741024276
20
7.22089762665649
30
0
41
1
10
2.8027621768758
20
7.22083339685551
30
0
41
1
10
2.94179647673997
20
7.22064068205515
30
0
41
1
10
3.03448600993565
20
7.22051217165841
30
0
41
1
10
3.12717554308392
20
7.22038362736896
30
0
0
SPLINE
5
C5
100
AcDbEntity
8
1
62
256
6
ByLayer
370
18
48
1
60
0
100
AcDbSpline
70
4
71
3
72
8
73
4
40
0
40
0
40
0
40
0
40
1
40
1
40
1
40
1
41
1
10
3.12717554308392
20
7.22038362736896
30
0
41
1
10
3.1623997090685
20
7.22033477756645
30
0
41
1
10
3.19610962558355
20
7.23999633285084
30
0
41
1
10
3.21347133162689
20
7.27052447357516
30
0
0
SPLINE
5
C6
100
AcDbEntity
8
1
62
256
6
ByLayer
370
18
48
1
60
0
100
AcDbSpline
70
4
71
3
72
8
73
4
40
0
40
0
40
0
40
0
40
1
40
1
40
1
40
1
41
1
10
0.0999999996815859
20
6.51229357841416
30
0
41
0.999948560006879
10
0.0666352492713586
20
6.50035845319578
30
0
41
0.999902486150485
10
0.0333017357133112
20
6.48836669808929
30
0
41
0.999861778430818
10
1.64036E-11
20
6.47631849834099
30
0
0
SPLINE
5
C7
100
AcDbEntity
8
1
62
256
6
ByLayer
370
18
48
1
60
0
100
AcDbSpline
70
4
71
3
72
8
73
4
40
0
40
0
40
0
40
0
40
1
40
1
40
1
40
1
41
1
10
0.0999999996815859
20
-1.82278765620254
30
0
41
0.999948560006867
10
0.0666352492628673
20
-1.80323294182588
30
0
41
0.999902486150463
10
0.0333017356963477
20
-1.78369001462163
30
0
41
0.999861778430788
10
-9.0128E-12
20
-1.76415919087279
30
0
0
SPLINE
5
C8
100
AcDbEntity
8
1
62
256
6
ByLayer
370
18
48
1
60
0
100
AcDbSpline
70
4
71
3
72
8
73
4
40
0
40
0
40
0
40
0
40
1
40
1
40
1
40
1
41
1
10
0.0999999996815859
20
-2.07358209254559
30
0
41
0.999643360492895
10
0.0670917690645111
20
-2.07446279220293
30
0
41
0.999385639727803
10
0.0337552461442597
20
-2.07493338623606
30
0
41
0.999226837704725
10
5.538E-13
20
-2.07499341756166
30
0
0
SPLINE
5
C9
100
AcDbEntity
8
SK1
62
256
6
ByLayer
370
18
48
1
60
0
100
AcDbSpline
70
4
71
3
72
8
73
4
40
0
40
0
40
0
40
0
40
1
40
1
40
1
40
1
41
1
10
-0.271843014066462
20
-2.06710399838227
30
0
41
0.997373137930041
10
-0.456349425501502
20
-2.05638346949553
30
0
41
0.997373137930041
10
-0.649576000479543
20
-2.0348380377474
30
0
41
1
10
-0.850000000318403
20
-2.00263749377012
30
0
0
SPLINE
5
CA
100
AcDbEntity
8
SK1
62
256
6
ByLayer
370
18
48
1
60
0
100
AcDbSpline
70
4
71
3
72
8
73
4
40
0
40
0
40
0
40
0
40
1
40
1
40
1
40
1
41
1
10
-0.850000000318403
20
2.0665389129407
30
0
41
0.997373137931725
10
-0.649576000550201
20
2.07763566955851
30
0
41
0.997373137931725
10
-0.456349425639482
20
2.07782452758173
30
0
41
1
10
-0.27184301426675
20
2.06710399869849
30
0
0
SPLINE
5
CB
100
AcDbEntity
8
SK1
62
256
6
ByLayer
370
18
48
1
60
0
100
AcDbSpline
70
4
71
3
72
8
73
4
40
0
40
0
40
0
40
0
40
1
40
1
40
1
40
1
41
1
10
-0.27184301426675
20
2.06710399869849
30
0
41
0.999070819089629
10
-0.178671519327544
20
2.06169037813559
30
0
41
0.998813098324313
10
-0.0879956052057587
20
2.05350493676154
30
0
41
0.999226837704052
10
-2.5599E-12
20
2.042562031202
30
0
0
SPLINE
5
CC
100
AcDbEntity
8
1
62
256
6
ByLayer
370
18
48
1
60
0
100
AcDbSpline
70
4
71
3
72
8
73
4
40
0
40
0
40
0
40
0
40
1
40
1
40
1
40
1
41
1
10
0.0999999996815859
20
1.10321189137085
30
0
41
0.999132819869335
10
0.067100181354103
20
1.08303657997372
30
0
41
0.998364875704907
10
0.0337638683084037
20
1.06263842569075
30
0
41
0.997696167506719
10
1.25175E-11
20
1.04202300065818
30
0
0
SPLINE
5
CD
100
AcDbEntity
8
SK1
62
256
6
ByLayer
370
18
48
1
60
0
100
AcDbSpline
70
4
71
3
72
8
73
4
40
0
40
0
40
0
40
0
40
1
40
1
40
1
40
1
41
1
10
-0.850000000318431
20
0.13784050131656
30
0
41
0.999558334239934
10
-0.569486958160162
20
0.295037960677831
30
0
41
0.999512260383534
10
-0.28604161565807
20
0.454369937218272
30
0
41
0.999861778430799
10
8.76E-13
20
0.61564760855519
30
0
0
SPLINE
5
CE
100
AcDbEntity
8
1
62
256
6
ByLayer
370
18
48
1
60
0
100
AcDbSpline
70
4
71
3
72
8
73
4
40
0
40
0
40
0
40
0
40
1
40
1
40
1
40
1
41
0.999861778430825
10
2.15331E-11
20
-6.08237449261752
30
0
41
0.999902486150491
10
0.0333017357167311
20
-6.09694790855014
30
0
41
0.999948560006883
10
0.0666352492730686
20
-6.11147382314962
30
0
41
1
10
0.0999999996815859
20
-6.12595200913754
30
0
0
SPLINE
5
CF
100
AcDbEntity
8
SK1
62
256
6
ByLayer
370
18
48
1
60
0
100
AcDbSpline
70
4
71
3
72
8
73
4
40
0
40
0
40
0
40
0
40
1
40
1
40
1
40
1
41
0.999226837704725
10
5.538E-13
20
-2.07499341756166
30
0
41
0.998813098325791
10
-0.0879956051411952
20
-2.07514991154191
30
0
41
0.999070819090883
10
-0.178671519197106
20
-2.072517618941
30
0
41
1
10
-0.271843014066462
20
-2.06710399838227
30
0
0
SPLINE
5
D0
100
AcDbEntity
8
SK1
62
256
6
ByLayer
370
18
48
1
60
0
100
AcDbSpline
70
4
71
3
72
8
73
4
40
0
40
0
40
0
40
0
40
1
40
1
40
1
40
1
41
0.999861778430788
10
-9.0127E-12
20
-1.76415919087279
30
0
41
0.999512260383538
10
-0.286041615664828
20
-1.59640131693994
30
0
41
0.999558334239942
10
-0.569486958163596
20
-1.42968425823963
30
0
41
1
10
-0.850000000318403
20
-1.26420572666467
30
0
0
SPLINE
5
D1
100
AcDbEntity
8
1
62
256
6
ByLayer
370
18
48
1
60
0
100
AcDbSpline
70
4
71
3
72
8
73
4
40
0
40
0
40
0
40
0
40
1
40
1
40
1
40
1
41
0.999861778430799
10
8.76E-13
20
0.61564760855519
30
0
41
0.999902486150471
10
0.0333017357029498
20
0.634423989653217
30
0
41
0.999948560006871
10
0.0666352492661732
20
0.653224821577789
30
0
41
1
10
0.0999999996815859
20
0.672049798285769
30
0
0
SPLINE
5
D2
100
AcDbEntity
8
SK1
62
256
6
ByLayer
370
18
48
1
60
0
100
AcDbSpline
70
4
71
3
72
8
73
4
40
0
40
0
40
0
40
0
40
1
40
1
40
1
40
1
41
0.997696167506719
10
1.25175E-11
20
1.04202300065818
30
0
41
0.992521324373028
10
-0.262822284746408
20
0.88154988600038
30
0
41
0.993289268537455
10
-0.547866641483141
20
0.710145971460494
30
0
41
1
10
-0.850000000318403
20
0.530892290788955
30
0
0
SPLINE
5
D3
100
AcDbEntity
8
1
62
256
6
ByLayer
370
18
48
1
60
0
100
AcDbSpline
70
4
71
3
72
8
73
4
40
0
40
0
40
0
40
0
40
1
40
1
40
1
40
1
41
0.999226837704052
10
-2.5599E-12
20
2.042562031202
30
0
41
0.999385639727334
10
0.033755246142331
20
2.03836431621556
30
0
41
0.99964336049265
10
0.0670917690636216
20
2.0337636031041
30
0
41
1
10
0.0999999996815859
20
2.02876156874083
30
0
0
SPLINE
5
D4
100
AcDbEntity
8
SK1
62
256
6
ByLayer
370
18
48
1
60
0
100
AcDbSpline
70
4
71
3
72
8
73
4
40
0
40
0
40
0
40
0
40
1
40
1
40
1
40
1
41
0.999861778430818
10
1.64036E-11
20
6.47631849834099
30
0
41
0.999512260383532
10
-0.286041615647803
20
6.37283180463791
30
0
41
0.999558334239926
10
-0.569486958155054
20
6.2652738057376
30
0
41
1
10
-0.850000000318403
20
6.15377271160281
30
0
0
LINE
5
77
100
AcDbEntity
8
1
62
256
6
ByLayer
370
18
48
1
60
0
100
AcDbLine
10
3.58939
20
-6.284266
30
0
11
5.174283
21
-6.284266
31
0
39
0
210
0
220
0
230
1
0
LINE
5
78
100
AcDbEntity
8
1
62
256
6
ByLayer
370
18
48
1
60
0
100
AcDbLine
10
5.85
20
-3.285823
30
0
11
5.85
21
-3.098914
31
0
39
0
210
0
220
0
230
1
0
LINE
5
79
100
AcDbEntity
8
1
62
256
6
ByLayer
370
18
48
1
60
0
100
AcDbLine
10
4.490124
20
-3.961291
30
0
11
4.129645
21
-3.961291
31
0
39
0
210
0
220
0
230
1
0
LINE
5
7A
100
AcDbEntity
8
1
62
256
6
ByLayer
370
18
48
1
60
0
100
AcDbLine
10
4.600407
20
-2.558725
30
0
11
4.075368
21
-2.558725
31
0
39
0
210
0
220
0
230
1
0
LINE
5
7B
100
AcDbEntity
8
1
62
256
6
ByLayer
370
18
48
1
60
0
100
AcDbLine
10
5.85
20
4.761848
30
0
11
5.85
21
5.373409
31
0
39
0
210
0
220
0
230
1
0
LINE
5
7C
100
AcDbEntity
8
1
62
256
6
ByLayer
370
13
48
1
60
0
100
AcDbLine
10
5.85
20
5.373409
30
0
11
0.1
21
5.373409
31
0
39
0
210
0
220
0
230
1
0
LINE
5
7D
100
AcDbEntity
8
1
62
256
6
ByLayer
370
18
48
1
60
0
100
AcDbLine
10
0.1
20
5.373409
30
0
11
0.1
21
4.761848
31
0
39
0
210
0
220
0
230
1
0
LINE
5
7E
100
AcDbEntity
8
1
62
256
6
ByLayer
370
18
48
1
60
0
100
AcDbLine
10
0.1
20
4.761848
30
0
11
5.85
21
4.761848
31
0
39
0
210
0
220
0
230
1
0
LINE
5
7F
100
AcDbEntity
8
1
62
256
6
ByLayer
370
18
48
1
60
0
100
AcDbLine
10
5.85
20
5.373409
30
0
11
5.85
21
5.85
31
0
39
0
210
0
220
0
230
1
0
LINE
5
80
100
AcDbEntity
8
1
62
256
6
ByLayer
370
13
48
1
60
0
100
AcDbLine
10
5.85
20
5.85
30
0
11
0.1
21
5.85
31
0
39
0
210
0
220
0
230
1
0
LINE
5
81
100
AcDbEntity
8
1
62
256
6
ByLayer
370
18
48
1
60
0
100
AcDbLine
10
0.1
20
5.85
30
0
11
0.1
21
5.373409
31
0
39
0
210
0
220
0
230
1
0
LINE
5
82
100
AcDbEntity
8
1
62
256
6
ByLayer
370
18
48
1
60
0
100
AcDbLine
10
0.1
20
6.92389
30
0
11
0.1
21
5.85
31
0
39
0
210
0
220
0
230
1
0
LINE
5
83
100
AcDbEntity
8
1
62
256
6
ByLayer
370
18
48
1
60
0
100
AcDbLine
10
5.85
20
5.85
30
0
11
5.85
21
6.47473
31
0
39
0
210
0
220
0
230
1
0
LINE
5
84
100
AcDbEntity
8
1
62
256
6
ByLayer
370
18
48
1
60
0
100
AcDbLine
10
4.4875
20
8.85
30
0
11
4.1125
21
8.85
31
0
39
0
210
0
220
0
230
1
0
LINE
5
85
100
AcDbEntity
8
1
62
256
6
ByLayer
370
13
48
1
60
0
100
AcDbLine
10
4.694568
20
-2.099373
30
0
11
3.998563
21
-2.099373
31
0
39
0
210
0
220
0
230
1
0
LINE
5
86
100
AcDbEntity
8
SK1
62
256
6
ByLayer
370
18
48
1
60
0
100
AcDbLine
10
-0.85
20
2.066539
30
0
11
-0.85
21
6.153773
31
0
39
0
210
0
220
0
230
1
0
LINE
5
88
100
AcDbEntity
8
1
62
256
6
ByLayer
370
18
48
1
60
0
100
AcDbLine
10
5.85
20
1.167705
30
0
11
5.85
21
1.334521
31
0
39
0
210
0
220
0
230
1
0
LINE
5
89
100
AcDbEntity
8
1
62
256
6
ByLayer
370
13
48
1
60
0
100
AcDbLine
10
5.85
20
1.334521
30
0
11
0.1
21
1.334521
31
0
39
0
210
0
220
0
230
1
0
LINE
5
8A
100
AcDbEntity
8
1
62
256
6
ByLayer
370
18
48
1
60
0
100
AcDbLine
10
0.1
20
1.334521
30
0
11
0.1
21
0.441801
31
0
39
0
210
0
220
0
230
1
0
LINE
5
8B
100
AcDbEntity
8
1
62
256
6
ByLayer
370
18
48
1
60
0
100
AcDbLine
10
5.85
20
-5.922323
30
0
11
5.85
21
-5.81112
31
0
39
0
210
0
220
0
230
1
0
LINE
5
8C
100
AcDbEntity
8
1
62
256
6
ByLayer
370
13
48
1
60
0
100
AcDbLine
10
5.85
20
-5.81112
30
0
11
0.1
21
-5.81112
31
0
39
0
210
0
220
0
230
1
0
LINE
5
8D
100
AcDbEntity
8
1
62
256
6
ByLayer
370
18
48
1
60
0
100
AcDbLine
10
0.1
20
-5.81112
30
0
11
0.1
21
-6.208015
31
0
39
0
210
0
220
0
230
1
0
LINE
5
8E
100
AcDbEntity
8
SK1
62
256
6
ByLayer
370
18
48
1
60
0
100
AcDbLine
10
-0.85
20
-5.69682
30
0
11
-0.85
21
-2.002637
31
0
39
0
210
0
220
0
230
1
0
LINE
5
8F
100
AcDbEntity
8
1
62
256
6
ByLayer
370
18
48
1
60
0
100
AcDbLine
10
0.1
20
4.761848
30
0
11
0.1
21
1.334521
31
0
39
0
210
0
220
0
230
1
0
LINE
5
90
100
AcDbEntity
8
1
62
256
6
ByLayer
370
18
48
1
60
0
100
AcDbLine
10
5.85
20
1.334521
30
0
11
5.85
21
4.761848
31
0
39
0
210
0
220
0
230
1
0
LINE
5
91
100
AcDbEntity
8
1
62
256
6
ByLayer
370
18
48
1
60
0
100
AcDbLine
10
0.1
20
-3.316047
30
0
11
0.1
21
-5.81112
31
0
39
0
210
0
220
0
230
1
0
LINE
5
92
100
AcDbEntity
8
1
62
256
6
ByLayer
370
18
48
1
60
0
100
AcDbLine
10
5.85
20
-5.81112
30
0
11
5.85
21
-3.285823
31
0
39
0
210
0
220
0
230
1
0
LINE
5
93
100
AcDbEntity
8
SK1
62
256
6
ByLayer
370
18
48
1
60
0
100
AcDbLine
10
-0.85
20
-1.264221
30
0
11
-0.85
21
-2.002637
31
0
39
0
210
0
220
0
230
1
0
LINE
5
94
100
AcDbEntity
8
SK1
62
256
6
ByLayer
370
18
48
1
60
0
100
AcDbLine
10
-0.85
20
2.066539
30
0
11
-0.85
21
1.471745
31
0
39
0
210
0
220
0
230
1
0
LINE
5
95
100
AcDbEntity
8
1
62
256
6
ByLayer
370
18
48
1
60
0
100
AcDbLine
10
5.622156
20
-3.285823
30
0
11
5.85
21
-3.285823
31
0
39
0
210
0
220
0
230
1
0
LINE
5
96
100
AcDbEntity
8
SK1
62
256
6
ByLayer
370
18
48
1
60
0
100
AcDbLine
10
-0.85
20
-1.264206
30
0
11
-0.85
21
0.137841
31
0
39
0
210
0
220
0
230
1
0
LINE
5
97
100
AcDbEntity
8
SK1
62
256
6
ByLayer
370
18
48
1
60
0
100
AcDbLine
10
-0.85
20
0.137841
30
0
11
-0.85
21
0.530892
31
0
39
0
210
0
220
0
230
1
0
LINE
5
98
100
AcDbEntity
8
1
62
256
6
ByLayer
370
18
48
1
60
0
100
AcDbLine
10
4.4875
20
-4.425
30
0
11
4.1125
21
-4.425
31
0
39
0
210
0
220
0
230
1
0
LINE
5
99
100
AcDbEntity
8
80
62
256
6
ByLayer
370
18
48
1
60
0
100
AcDbLine
10
0
20
0
30
0
11
-4.195244
21
0
31
0
39
0
210
0
220
0
230
1
0
LINE
5
9A
100
AcDbEntity
8
4
62
256
6
ByLayer
370
18
48
0.05
60
0
100
AcDbLine
10
0
20
0
30
0
11
5.85
21
0
31
0
39
0
210
0
220
0
230
1
0
LINE
5
9C
100
AcDbEntity
8
SK4
62
256
6
ByLayer
370
18
48
0.05
60
0
100
AcDbLine
10
0
20
0
30
0
11
8
21
0
31
0
39
0
210
0
220
0
230
1
0
LINE
5
9E
100
AcDbEntity
8
1
62
256
6
ByLayer
370
18
48
1
60
0
100
AcDbLine
10
3.213471
20
7.270524
30
0
11
4.1125
21
8.85
31
0
39
0
210
0
220
0
230
1
0
LINE
5
9F
100
AcDbEntity
8
1
62
256
6
ByLayer
370
18
48
1
60
0
100
AcDbLine
10
5.85
20
6.47473
30
0
11
4.4875
21
8.85
31
0
39
0
210
0
220
0
230
1
0
LINE
5
A0
100
AcDbEntity
8
81
62
256
6
ByLayer
370
18
48
1
60
0
100
AcDbLine
10
4.3
20
8.85
30
0
11
4.3
21
9.459692
31
0
39
0
210
0
220
0
230
1
0
LINE
5
A1
100
AcDbEntity
8
1
62
256
6
ByLayer
370
18
48
1
60
0
100
AcDbLine
10
0
20
6.476318
30
0
11
0
21
-6.082374
31
0
39
0
210
0
220
0
230
1
0
MTEXT
5
D5
100
AcDbEntity
8
SK6
62
256
6
ByLayer
370
13
48
1
60
0
100
AcDbMText
10
-18.893101
20
-30.696716
30
0
210
0
220
0
230
1
1
\W0.7418;327R09-18 300MM-TH
40
3.5
41
0
44
1.084337
50
0
71
7
72
5
7
iso_b_vert
0
DIMENSION
5
E1
100
AcDbEntity
8
2
62
256
6
ByLayer
370
13
48
1
60
0
100
AcDbDimension
2
DimnDraft3D1
10
35.136276
20
-8.85
30
0
11
35.136276
21
-4.293801
31
0
70
32
71
5
72
1
41
1
210
0
220
0
230
1
3
Standard
100
AcDbAlignedDimension
13
4.3
23
-8.85
33
0
14
0
24
0
34
0
50
90
100
AcDbRotatedDimension
1001
ACAD
1000
DSTYLE
1002
{
1070
    74
1070
     0
1070
   279
1070
     0
1070
   172
1070
     1
1070
   173
1070
     1
1070
   340
1005
D6
1070
    76
1070
     1
1070
   271
1070
     1
1070
   272
1070
     2
1070
    77
1070
     1
1070
    73
1070
     0
1070
   171
1070
     3
1070
   274
1070
     4
1070
   282
1070
     1
1070
   177
1070
     7
1070
   176
1070
     7
1070
   178
1070
     7
1070
    78
1070
     8
1070
    48
1040
-0.005
1070
    41
1041
3.5
1070
   147
1041
1.75
1070
    42
1041
0.0
1070
    44
1041
2.0
1070
   140
1041
3.5
1070
   343
1005
0
1070
   344
1005
0
1002
}
0
DIMENSION
5
EB
100
AcDbEntity
8
2
62
256
6
ByLayer
370
13
48
1
60
0
100
AcDbDimension
2
DimnDraft3D2
10
-8.639109
20
8.85
30
0
11
-8.639109
21
14.018901
31
0
70
32
71
5
72
1
41
1
210
0
220
0
230
1
3
Standard
100
AcDbAlignedDimension
13
2.014901
23
7.221925
33
0
14
4.3
24
8.85
34
0
50
90
100
AcDbRotatedDimension
1001
ACAD
1000
DSTYLE
1002
{
1070
    74
1070
     0
1070
   279
1070
     0
1070
   172
1070
     1
1070
   173
1070
     1
1070
   340
1005
D6
1070
   271
1070
     2
1070
   272
1070
     2
1070
    77
1070
     1
1070
    73
1070
     0
1070
   171
1070
     3
1070
   274
1070
     4
1070
   177
1070
     7
1070
   176
1070
     7
1070
   178
1070
     7
1070
    78
1070
     8
1070
    48
1040
-0.005
1070
    41
1041
3.5
1070
   147
1041
1.75
1070
    42
1041
0.0
1070
    44
1041
2.0
1070
   140
1041
3.5
1070
   343
1005
0
1070
   344
1005
0
1002
}
0
DIMENSION
5
F5
100
AcDbEntity
8
2
62
256
6
ByLayer
370
13
48
1
60
0
100
AcDbDimension
2
DimnDraft3D3
10
4.4875
20
11.6544
30
0
11
14.709546
21
11.6544
31
0
70
32
71
5
72
1
41
1
210
0
220
0
230
1
3
Standard
100
AcDbAlignedDimension
13
4.1125
23
8.85
33
0
14
4.4875
24
8.85
34
0
50
0
100
AcDbRotatedDimension
1001
ACAD
1000
DSTYLE
1002
{
1070
   279
1070
     0
1070
   172
1070
     1
1070
   173
1070
     1
1070
   340
1005
D6
1070
   271
1070
     2
1070
   272
1070
     2
1070
    77
1070
     1
1070
    73
1070
     0
1070
   171
1070
     3
1070
   274
1070
     4
1070
   177
1070
     7
1070
   176
1070
     7
1070
   178
1070
     7
1070
    78
1070
     8
1070
    48
1040
-0.005
1070
    41
1041
3.5
1070
   147
1041
1.75
1070
    42
1041
0.0
1070
    44
1041
2.0
1070
   140
1041
3.5
1070
   343
1005
0
1070
   344
1005
0
1002
}
0
DIMENSION
5
FF
100
AcDbEntity
8
SK2
62
256
6
ByLayer
370
13
48
1
60
0
100
AcDbDimension
2
DimnDraft3D4
10
4.3
20
30.67874
30
0
11
18.943894
21
30.67874
31
0
70
32
71
5
72
1
41
1
210
0
220
0
230
1
3
Standard
100
AcDbAlignedDimension
13
0
23
0
33
0
14
4.3
24
8.85
34
0
50
0
100
AcDbRotatedDimension
1001
ACAD
1000
DSTYLE
1002
{
1070
   279
1070
     0
1070
   172
1070
     1
1070
   173
1070
     1
1070
   340
1005
D6
1070
   271
1070
     1
1070
   272
1070
     2
1070
    77
1070
     1
1070
    73
1070
     0
1070
   171
1070
     3
1070
   274
1070
     4
1070
   177
1070
     7
1070
   176
1070
     7
1070
   178
1070
     7
1070
    78
1070
     8
1070
    48
1040
-0.005
1070
    41
1041
3.5
1070
   147
1041
1.75
1070
    42
1041
0.0
1070
    44
1041
2.0
1070
   140
1041
3.5
1070
   343
1005
0
1070
   344
1005
0
1002
}
0
DIMENSION
5
109
100
AcDbEntity
8
2
62
256
6
ByLayer
370
13
48
1
60
0
100
AcDbDimension
2
DimnDraft3D5
10
5.85
20
41.065867
30
0
11
24.324531
21
41.065867
31
0
70
32
71
5
72
1
41
1
210
0
220
0
230
1
3
Standard
100
AcDbAlignedDimension
13
0
23
0
33
0
14
5.85
24
6.47473
34
0
50
0
100
AcDbRotatedDimension
1001
ACAD
1000
DSTYLE
1002
{
1070
   279
1070
     0
1070
   172
1070
     1
1070
   173
1070
     1
1070
   340
1005
D6
1070
   271
1070
     2
1070
   272
1070
     2
1070
    77
1070
     1
1070
    73
1070
     0
1070
   171
1070
     3
1070
   274
1070
     4
1070
   177
1070
     7
1070
   176
1070
     7
1070
   178
1070
     7
1070
    78
1070
     8
1070
    48
1040
-0.005
1070
    41
1041
3.5
1070
   147
1041
1.75
1070
    42
1041
0.0
1070
    44
1041
2.0
1070
   140
1041
3.5
1070
   343
1005
0
1070
   344
1005
0
1002
}
0
DIMENSION
5
113
100
AcDbEntity
8
SK2
62
256
6
ByLayer
370
13
48
1
60
0
100
AcDbDimension
2
DimnDraft3D6
10
-14.935517
20
6
30
0
11
-14.935517
21
0
31
0
70
32
71
5
72
1
41
1
210
0
220
0
230
1
3
Standard
100
AcDbAlignedDimension
13
-0.85
23
-6
33
0
14
-0.85
24
6
34
0
50
90
100
AcDbRotatedDimension
1001
ACAD
1000
DSTYLE
1002
{
1070
    74
1070
     0
1070
   279
1070
     0
1070
   172
1070
     1
1070
   173
1070
     1
1070
   340
1005
D6
1070
   271
1070
     1
1070
   272
1070
     2
1070
    77
1070
     1
1070
    73
1070
     0
1070
   171
1070
     3
1070
   274
1070
     4
1070
   177
1070
     7
1070
   176
1070
     7
1070
   178
1070
     7
1070
    78
1070
     8
1070
    48
1040
-0.005
1070
    41
1041
3.5
1070
   147
1041
1.75
1070
    42
1041
0.0
1070
    44
1041
2.0
1070
   140
1041
3.5
1070
   343
1005
0
1070
   344
1005
0
1002
}
0
ENDSEC
0
SECTION
2
OBJECTS
0
DICTIONARY
5
17e
330
0
100
AcDbDictionary
280
0
281
1
3
ACAD_GROUP
350
17f
3
ACAD_MLINESTYLE
350
180
0
DICTIONARY
5
17f
330
0
100
AcDbDictionary
280
0
281
1
0
DICTIONARY
5
180
330
0
100
AcDbDictionary
280
0
281
1
3
Standard
350
18
0
MLINESTYLE
5
18
330
180
100
AcDbMlineStyle
2
Standard
70
0
3

62
256
51
90
52
90
71
2
49
-0.5
62
256
6
ByLayer
49
0.5
62
256
6
ByLayer
0
RASTERVARIABLES
5
16c
330

100
AcDbRasterVariables
90
0
70
1
71
1
72
1
0
ENDSEC
0
EOF
